  0
SECTION
  2
HEADER
  9
$ACADVER
  1
AC1015
  9
$ACADMAINTVER
 70
               6
  9
$DWGCODEPAGE
  3
ANSI_1252
  9
$INSBASE
 10
0.0
 20
0.0
 30
0.0
  9
$EXTMIN
 10
-16.784818084060003
 20
-188.48306772085277
 30
-1.0330498928750003
  9
$EXTMAX
 10
68.99600946836
 20
-125.82305038688
 30
1.0330498928750003
  9
$LIMMIN
 10
0.0
 20
0.0
  9
$LIMMAX
 10
0.0
 20
0.0
  9
$ORTHOMODE
 70
               0
  9
$REGENMODE
 70
               1
  9
$FILLMODE
 70
               1
  9
$QTEXTMODE
 70
               0
  9
$MIRRTEXT
 70
               1
  9
$LTSCALE
 40
8.4666582000000012
  9
$ATTMODE
 70
               1
  9
$TEXTSIZE
 40
0.2
  9
$TRACEWID
 40
1.0
  9
$TEXTSTYLE
  7
Standard
  9
$CLAYER
  8
None
  9
$CELTYPE
  6
Continuous
  9
$CECOLOR
 62
             256
  9
$CELTSCALE
 40
1.0
  9
$DISPSILH
 70
               0
  9
$DIMSCALE
 40
1.0
  9
$DIMASZ
 40
1.0583322750000002
  9
$DIMEXO
 40
0.634999366577038
  9
$DIMDLI
 40
6.9999859934672708
  9
$DIMRND
 40
0.0
  9
$DIMDLE
 40
0.0
  9
$DIMEXE
 40
1.2699987331540761
  9
$DIMTP
 40
0.0
  9
$DIMTM
 40
0.0
  9
$DIMTXT
 40
0.7579186197916666
  9
$DIMCEN
 40
0.0
  9
$DIMTSZ
 40
0.0
  9
$DIMTOL
 70
               0
  9
$DIMLIM
 70
               0
  9
$DIMTIH
 70
               1
  9
$DIMTOH
 70
               1
  9
$DIMSE1
 70
               0
  9
$DIMSE2
 70
               0
  9
$DIMTAD
 70
               0
  9
$DIMZIN
 70
              11
  9
$DIMBLK
  1
VW_FILLEDARROW
  9
$DIMASO
 70
               1
  9
$DIMSHO
 70
               1
  9
$DIMPOST
  1
<>mm
  9
$DIMAPOST
  1
[]"
  9
$DIMALT
 70
               0
  9
$DIMALTD
 70
               3
  9
$DIMALTF
 40
0.0393700787401575
  9
$DIMLFAC
 40
1.0
  9
$DIMTOFL
 70
               1
  9
$DIMTVP
 40
0.0
  9
$DIMTIX
 70
               1
  9
$DIMSOXD
 70
               0
  9
$DIMSAH
 70
               0
  9
$DIMBLK1
  1

  9
$DIMBLK2
  1

  9
$DIMSTYLE
  2
IE Standard
  9
$DIMCLRD
 70
               0
  9
$DIMCLRE
 70
               0
  9
$DIMCLRT
 70
               0
  9
$DIMTFAC
 40
1.0
  9
$DIMGAP
 40
0.0
  9
$DIMJUST
 70
               0
  9
$DIMSD1
 70
               0
  9
$DIMSD2
 70
               0
  9
$DIMTOLJ
 70
               1
  9
$DIMTZIN
 70
              11
  9
$DIMALTZ
 70
               3
  9
$DIMALTTZ
 70
               3
  9
$DIMUPT
 70
               0
  9
$DIMDEC
 70
               2
  9
$DIMTDEC
 70
               2
  9
$DIMALTU
 70
               2
  9
$DIMALTTD
 70
               2
  9
$DIMTXSTY
  7
Helvetica
  9
$DIMAUNIT
 70
               0
  9
$DIMADEC
 70
               0
  9
$DIMALTRND
 40
0.0
  9
$DIMAZIN
 70
               0
  9
$DIMDSEP
 70
              46
  9
$DIMATFIT
 70
               0
  9
$DIMFRAC
 70
               2
  9
$DIMLDRBLK
  1

  9
$DIMLUNIT
 70
               2
  9
$DIMLWD
 70
              -2
  9
$DIMLWE
 70
              -2
  9
$DIMTMOVE
 70
               0
  9
$LUNITS
 70
               2
  9
$LUPREC
 70
               4
  9
$SKETCHINC
 40
0.1
  9
$FILLETRAD
 40
0.0
  9
$AUNITS
 70
               0
  9
$AUPREC
 70
               0
  9
$MENU
  1
acad
  9
$ELEVATION
 40
0.0
  9
$PELEVATION
 40
0.0
  9
$THICKNESS
 40
0.0
  9
$LIMCHECK
 70
               0
  9
$CHAMFERA
 40
0.0
  9
$CHAMFERB
 40
0.0
  9
$CHAMFERC
 40
0.0
  9
$CHAMFERD
 40
0.0
  9
$SKPOLY
 70
               0
  9
$TDCREATE
 40
2454641.384884259
  9
$TDUCREATE
 40
0.000000000
  9
$TDUPDATE
 40
2454641.384884259
  9
$TDUUPDATE
 40
0.000000000
  9
$TDINDWG
 40
0.0000000000
  9
$TDUSRTIMER
 40
0.0000000000
  9
$USRTIMER
 70
               1
  9
$ANGBASE
 50
0.0
  9
$ANGDIR
 70
               0
  9
$PDMODE
 70
               1
  9
$PDSIZE
 40
-2.0
  9
$PLINEWID
 40
0.0
  9
$SPLFRAME
 70
               0
  9
$SPLINETYPE
 70
               6
  9
$SPLINESEGS
 70
               8
  9
$HANDSEED
  5
344
  9
$SURFTAB1
 70
               6
  9
$SURFTAB2
 70
               6
  9
$SURFTYPE
 70
               6
  9
$SURFU
 70
               6
  9
$SURFV
 70
               6
  9
$UCSBASE
  2

  9
$UCSNAME
  2

  9
$UCSORG
 10
0.0
 20
0.0
 30
0.0
  9
$UCSXDIR
 10
1.0
 20
0.0
 30
0.0
  9
$UCSYDIR
 10
0.0
 20
1.0
 30
0.0
  9
$UCSORTHOREF
  2

  9
$UCSORTHOVIEW
 70
               0
  9
$UCSORGTOP
 10
0.0
 20
0.0
 30
0.0
  9
$UCSORGBOTTOM
 10
0.0
 20
0.0
 30
0.0
  9
$UCSORGLEFT
 10
0.0
 20
0.0
 30
0.0
  9
$UCSORGRIGHT
 10
0.0
 20
0.0
 30
0.0
  9
$UCSORGFRONT
 10
0.0
 20
0.0
 30
0.0
  9
$UCSORGBACK
 10
0.0
 20
0.0
 30
0.0
  9
$PUCSBASE
  2

  9
$PUCSNAME
  2

  9
$PUCSORG
 10
0.0
 20
0.0
 30
0.0
  9
$PUCSXDIR
 10
1.0
 20
0.0
 30
0.0
  9
$PUCSYDIR
 10
0.0
 20
1.0
 30
0.0
  9
$PUCSORTHOREF
  2

  9
$PUCSORTHOVIEW
 70
               0
  9
$PUCSORGTOP
 10
0.0
 20
0.0
 30
0.0
  9
$PUCSORGBOTTOM
 10
0.0
 20
0.0
 30
0.0
  9
$PUCSORGLEFT
 10
0.0
 20
0.0
 30
0.0
  9
$PUCSORGRIGHT
 10
0.0
 20
0.0
 30
0.0
  9
$PUCSORGFRONT
 10
0.0
 20
0.0
 30
0.0
  9
$PUCSORGBACK
 10
0.0
 20
0.0
 30
0.0
  9
$USERI1
 70
               0
  9
$USERI2
 70
               0
  9
$USERI3
 70
               0
  9
$USERI4
 70
               0
  9
$USERI5
 70
               0
  9
$USERR1
 40
0.0
  9
$USERR2
 40
0.0
  9
$USERR3
 40
0.0
  9
$USERR4
 40
0.0
  9
$USERR5
 40
0.0
  9
$WORLDVIEW
 70
               1
  9
$SHADEDGE
 70
               3
  9
$SHADEDIF
 70
              70
  9
$TILEMODE
 70
               1
  9
$MAXACTVP
 70
              64
  9
$PINSBASE
 10
0.0
 20
0.0
 30
0.0
  9
$PLIMCHECK
 70
               0
  9
$PEXTMIN
 10
1.0000000000000000E+20
 20
1.0000000000000000E+20
 30
1.0000000000000000E+20
  9
$PEXTMAX
 10
-1.0000000000000000E+20
 20
-1.0000000000000000E+20
 30
-1.0000000000000000E+20
  9
$PLIMMIN
 10
0.0
 20
0.0
  9
$PLIMMAX
 10
12.0
 20
9.0
  9
$UNITMODE
 70
               0
  9
$VISRETAIN
 70
               0
  9
$PLINEGEN
 70
               1
  9
$PSLTSCALE
 70
               0
  9
$TREEDEPTH
 70
            3020
  9
$CMLSTYLE
  2
Standard
  9
$CMLJUST
 70
               0
  9
$CMLSCALE
 40
1.0
  9
$PROXYGRAPHICS
 70
               0
  9
$MEASUREMENT
 70
               1
  9
$CELWEIGHT
370
               0
  9
$ENDCAPS
280
               0
  9
$JOINSTYLE
280
               0
  9
$LWDISPLAY
290
               1
  9
$INSUNITS
 70
               4
  9
$HYPERLINKBASE
  1

  9
$STYLESHEET
  1

  9
$XEDIT
290
               1
  9
$CEPSNTYPE
380
               0
  9
$PSTYLEMODE
290
               1
  9
$FINGERPRINTGUID
  2

  9
$VERSIONGUID
  2

  9
$EXTNAMES
290
               1
  9
$PSVPSCALE
 40
0.0
  0
ENDSEC
  0
SECTION
  2
CLASSES
  0
CLASS
  1
LWPOLYLINE
  2
AcDbPolyline
  3
AutoCAD 2000
 90
        0
280
               0
281
               1
  0
CLASS
  1
IMAGE
  2
AcDbRasterImage
  3
ISM
 90
      127
280
               0
281
               1
  0
CLASS
  1
OLE2FRAME
  2
AcDbOle2Frame
  3
AutoCAD 2000
 90
        0
280
               0
281
               1
  0
CLASS
  1
HATCH
  2
AcDbHatch
  3
AutoCAD 2000
 90
        0
280
               0
281
               1
  0
CLASS
  1
DICTIONARYVAR
  2
AcDbDictionaryVar
  3
AutoCAD 2000
 90
        0
280
               0
281
               0
  0
CLASS
  1
RASTERVARIABLES
  2
AcDbRasterVariables
  3
ISM
 90
        0
280
               0
281
               0
  0
CLASS
  1
IMAGEDEF
  2
AcDbRasterImageDef
  3
ISM
 90
        0
280
               0
281
               0
  0
CLASS
  1
IMAGEDEF_REACTOR
  2
AcDbRasterImageDefReactor
  3
ISM
 90
        1
280
               0
281
               0
  0
CLASS
  1
IDBUFFER
  2
AcDbIdBuffer
  3
AutoCAD 2000
 90
        0
280
               0
281
               0
  0
CLASS
  1
SPATIAL_FILTER
  2
AcDbSpatialFilter
  3
AutoCAD 2000
 90
        0
280
               0
281
               0
  0
CLASS
  1
XRECORD
  2
AcDbXrecord
  3
AutoCAD 2000
 90
        0
280
               0
281
               0
  0
CLASS
  1
SORTENTSTABLE
  2
AcDbSortentsTable
  3
AutoCAD 2000
 90
        0
280
               0
281
               0
  0
CLASS
  1
LAYER_INDEX
  2
AcDbLayerIndex
  3
AutoCAD 2000
 90
        0
280
               0
281
               0
  0
CLASS
  1
SPATIAL_INDEX
  2
AcDbSpatialIndex
  3
AutoCAD 2000
 90
        0
280
               0
281
               0
  0
CLASS
  1
OBJECT_PTR
  2
CAseDLPNTableRecord
  3
"ASE-LPNTableRecord"
 90
        1
280
               0
281
               0
  0
CLASS
  1
LAYOUT
  2
AcDbLayout
  3
AutoCAD 2000
 90
        0
280
               0
281
               0
  0
CLASS
  1
PLOTSETTINGS
  2
AcDbPlotSettings
  3
AutoCAD 2000
 90
        0
280
               0
281
               0
  0
CLASS
  1
ACDBDICTIONARYWDFLT
  2
AcDbDictionaryWithDefault
  3
AutoCAD 2000
 90
        0
280
               0
281
               0
  0
CLASS
  1
ACDBPLACEHOLDER
  2
AcDbPlaceHolder
  3
AutoCAD 2000
 90
        0
280
               0
281
               0
  0
CLASS
  1
VBA_PROJECT
  2
AcDbVbaProject
  3
acadvba
 90
        0
280
               0
281
               0
  0
CLASS
  1
WIPEOUT
  2
AcDbWipeout
  3
WipeOut|AutoCAD Express Tool|expresstools@autodesk.com
 90
      127
280
               0
281
               1
  0
CLASS
  1
WIPEOUTVARIABLES
  2
AcDbWipeoutVariables
  3
WipeOut|AutoCAD Express Tool|expresstools@autodesk.com
 90
        0
280
               0
281
               0
  0
CLASS
  1
RTEXT
  2
RText
  3
RText|AutoCAD Express Tool|expresstools@autodesk.com
 90
        0
280
               0
281
               1
  0
CLASS
  1
ARCALIGNEDTEXT
  2
AcDbArcAlignedText
  3
ATEXT|AutoCAD Express Tool|expresstools@autodesk.com
 90
        0
280
               0
281
               1
  0
ENDSEC
  0
SECTION
  2
TABLES
  0
TABLE
  2
VPORT
  5
7
100
AcDbSymbolTable
 70
               1
  0
VPORT
  5
15
100
AcDbSymbolTableRecord
100
AcDbViewportTableRecord
  2
*ACTIVE
 70
               0
 10
0.0
 20
0.0
 11
1.0
 21
1.0
 12
26.105595692150001
 22
-157.1530590538664
 13
0.0
 23
0.0
 14
1.0
 24
1.0
 15
0.0
 25
0.0
 16
0.0
 26
0.0
 36
1.0
 17
0.0
 27
0.0
 37
0.0
 40
62.660017333972775
 41
0.688564
 42
50.0
 43
0.0
 44
0.0
 50
0.0
 51
0.0
 71
               0
 72
            2000
 73
               1
 74
               1
 75
               0
 76
               0
 77
               0
 78
               0
281
               0
 65
               0
110
0.0
120
0.0
130
0.0
111
1.0
121
0.0
131
0.0
112
0.0
122
1.0
132
0.0
345
0
346
0
 79
               0
146
0.0
  0
ENDTAB
  0
TABLE
  2
LTYPE
  5
4
100
AcDbSymbolTable
 70
              19
  0
LTYPE
  5
11
100
AcDbSymbolTableRecord
100
AcDbLinetypeTableRecord
  2
ByBlock
 70
              64
  3

 72
              65
 73
               0
 40
0.0
  0
LTYPE
  5
12
100
AcDbSymbolTableRecord
100
AcDbLinetypeTableRecord
  2
ByLayer
 70
              64
  3

 72
              65
 73
               0
 40
0.0
  0
LTYPE
  5
13
100
AcDbSymbolTableRecord
100
AcDbLinetypeTableRecord
  2
Continuous
 70
              64
  3
Solid line
 72
              65
 73
               0
 40
0.0
  0
LTYPE
  5
3E
100
AcDbSymbolTableRecord
100
AcDbLinetypeTableRecord
  2
STYLE_01
 70
               0
  3

 72
              65
 73
               2
 40
1.5
 49
1.0
 74
               0
 49
-0.5
 74
               0
  0
LTYPE
  5
3F
100
AcDbSymbolTableRecord
100
AcDbLinetypeTableRecord
  2
STYLE_02
 70
               0
  3

 72
              65
 73
               2
 40
0.75
 49
0.5
 74
               0
 49
-0.25
 74
               0
  0
LTYPE
  5
40
100
AcDbSymbolTableRecord
100
AcDbLinetypeTableRecord
  2
STYLE_03
 70
               0
  3

 72
              65
 73
               4
 40
4.0
 49
0.25
 74
               0
 49
-0.5
 74
               0
 49
0.5
 74
               0
 49
-0.5
 74
               0
  0
LTYPE
  5
41
100
AcDbSymbolTableRecord
100
AcDbLinetypeTableRecord
  2
STYLE_04
 70
               0
  3

 72
              65
 73
               4
 40
5.0
 49
2.5
 74
               0
 49
-0.5
 74
               0
 49
0.5
 74
               0
 49
-0.5
 74
               0
  0
LTYPE
  5
42
100
AcDbSymbolTableRecord
100
AcDbLinetypeTableRecord
  2
STYLE_05
 70
               0
  3

 72
              65
 73
               2
 40
0.5
 49
0.0001
 74
               0
 49
-0.4999
 74
               0
  0
LTYPE
  5
43
100
AcDbSymbolTableRecord
100
AcDbLinetypeTableRecord
  2
STYLE_06
 70
               0
  3

 72
              65
 73
               4
 40
2.0
 49
1.0
 74
               0
 49
-0.5
 74
               0
 49
0.0001
 74
               0
 49
-0.4999
 74
               0
  0
LTYPE
  5
44
100
AcDbSymbolTableRecord
100
AcDbLinetypeTableRecord
  2
STYLE_07
 70
               0
  3

 72
              65
 73
               6
 40
3.5
 49
1.0
 74
               0
 49
-0.5
 74
               0
 49
1.0
 74
               0
 49
-0.5
 74
               0
 49
0.0001000000000002
 74
               0
 49
-0.4998999999999998
 74
               0
  0
LTYPE
  5
45
100
AcDbSymbolTableRecord
100
AcDbLinetypeTableRecord
  2
STYLE_08
 70
               0
  3

 72
              65
 73
               6
 40
2.5
 49
1.0
 74
               0
 49
-0.5
 74
               0
 49
0.0001
 74
               0
 49
-0.4999
 74
               0
 49
0.0001000000000002
 74
               0
 49
-0.4998999999999998
 74
               0
  0
LTYPE
  5
46
100
AcDbSymbolTableRecord
100
AcDbLinetypeTableRecord
  2
STYLE_09
 70
               0
  3

 72
              65
 73
               2
 40
0.09722900390625
 49
0.0555572509765625
 74
               0
 49
-0.0416717529296875
 74
               0
  0
LTYPE
  5
47
100
AcDbSymbolTableRecord
100
AcDbLinetypeTableRecord
  2
STYLE_10
 70
               0
  3

 72
              65
 73
               4
 40
0.59722900390625
 49
0.3055572509765625
 74
               0
 49
-0.15277099609375
 74
               0
 49
0.013885498046875
 74
               0
 49
-0.1250152587890625
 74
               0
  0
LTYPE
  5
48
100
AcDbSymbolTableRecord
100
AcDbLinetypeTableRecord
  2
STYLE_11
 70
               0
  3

 72
              65
 73
               4
 40
0.4305572509765625
 49
0.236114501953125
 74
               0
 49
-0.0833282470703125
 74
               0
 49
0.013885498046875
 74
               0
 49
-0.09722900390625
 74
               0
  0
LTYPE
  5
49
100
AcDbSymbolTableRecord
100
AcDbLinetypeTableRecord
  2
STYLE_12
 70
               0
  3

 72
              65
 73
               2
 40
0.0833282470703125
 49
0.0555572509765625
 74
               0
 49
-0.02777099609375
 74
               0
  0
LTYPE
  5
4A
100
AcDbSymbolTableRecord
100
AcDbLinetypeTableRecord
  2
STYLE_13
 70
               0
  3

 72
              65
 73
               4
 40
0.068511962890625
 49
0.0428314208984375
 74
               0
 49
-0.0085601806640625
 74
               0
 49
0.0085601806640625
 74
               0
 49
-0.0085601806640625
 74
               0
  0
LTYPE
  5
4B
100
AcDbSymbolTableRecord
100
AcDbLinetypeTableRecord
  2
STYLE_14
 70
               0
  3

 72
              65
 73
               2
 40
0.02569580078125
 49
0.0171356201171875
 74
               0
 49
-0.0085601806640625
 74
               0
  0
LTYPE
  5
4C
100
AcDbSymbolTableRecord
100
AcDbLinetypeTableRecord
  2
STYLE_15
 70
               0
  3

 72
              65
 73
               6
 40
0.08563232421875
 49
0.0428314208984375
 74
               0
 49
-0.0085601806640625
 74
               0
 49
0.0085601806640625
 74
               0
 49
-0.0085601806640625
 74
               0
 49
0.0085601806640625
 74
               0
 49
-0.0085601806640625
 74
               0
  0
LTYPE
  5
4D
100
AcDbSymbolTableRecord
100
AcDbLinetypeTableRecord
  2
STYLE_16
 70
               0
  3

 72
              65
 73
               2
 40
0.375
 49
0.25
 74
               0
 49
-0.125
 74
               0
  0
ENDTAB
  0
TABLE
  2
LAYER
  5
2
100
AcDbSymbolTable
 70
              10
  0
LAYER
  5
14
100
AcDbSymbolTableRecord
100
AcDbLayerTableRecord
  2
0
 70
               0
 62
               7
  6
Continuous
290
               1
370
              15
390
1D
  0
LAYER
  5
4E
100
AcDbSymbolTableRecord
100
AcDbLayerTableRecord
  2
Defpoints
 70
               0
 62
               7
  6
Continuous
290
               0
370
              -3
390
1D
  0
LAYER
  5
4F
100
AcDbSymbolTableRecord
100
AcDbLayerTableRecord
  2
None
 70
               0
 62
               7
  6
Continuous
290
               1
370
               5
390
1D
  0
LAYER
  5
50
100
AcDbSymbolTableRecord
100
AcDbLayerTableRecord
  2
Dimension
 70
               0
 62
               7
  6
Continuous
290
               1
370
               5
390
1D
  0
LAYER
  5
51
100
AcDbSymbolTableRecord
100
AcDbLayerTableRecord
  2
Solid Lines
 70
               0
 62
               7
  6
Continuous
290
               1
370
              25
390
1D
  0
LAYER
  5
52
100
AcDbSymbolTableRecord
100
AcDbLayerTableRecord
  2
DIM
 70
               0
 62
               7
  6
Continuous
290
               1
370
              15
390
1D
  0
LAYER
  5
53
100
AcDbSymbolTableRecord
100
AcDbLayerTableRecord
  2
TEXT
 70
               0
 62
               7
  6
Continuous
290
               1
370
              15
390
1D
  0
LAYER
  5
54
100
AcDbSymbolTableRecord
100
AcDbLayerTableRecord
  2
SHEET1
 70
               0
 62
               1
  6
Continuous
290
               1
370
              15
390
1D
  0
LAYER
  5
55
100
AcDbSymbolTableRecord
100
AcDbLayerTableRecord
  2
BORDER
 70
               0
 62
               7
  6
Continuous
290
               1
370
              15
390
1D
  0
LAYER
  5
56
100
AcDbSymbolTableRecord
100
AcDbLayerTableRecord
  2
ACTEL
 70
               0
 62
               6
  6
Continuous
290
               1
370
              15
390
1D
  0
ENDTAB
  0
TABLE
  2
STYLE
  5
3
100
AcDbSymbolTable
 70
               5
  0
STYLE
  5
17
100
AcDbSymbolTableRecord
100
AcDbTextStyleTableRecord
  2
Standard
 70
               0
 40
0.0
 41
1.0
 50
0.0
 71
               0
 42
0.0
  3
txt
  4

  0
STYLE
  5
3A
100
AcDbSymbolTableRecord
100
AcDbTextStyleTableRecord
  2
Arial
 70
               0
 40
0.0
 41
1.0
 50
0.0
 71
               0
 42
0.0
  3
Arial
  4

1001
ACAD
1000
Arial
1071
        0
  0
STYLE
  5
3B
100
AcDbSymbolTableRecord
100
AcDbTextStyleTableRecord
  2
Arial (bold)
 70
               0
 40
0.0
 41
1.0
 50
0.0
 71
               0
 42
0.0
  3
Arial
  4

1001
ACAD
1000
Arial
1071
 33554432
  0
STYLE
  5
3C
100
AcDbSymbolTableRecord
100
AcDbTextStyleTableRecord
  2
Helvetica
 70
               0
 40
0.0
 41
1.0
 50
0.0
 71
               0
 42
0.0
  3
Helvetica
  4

1001
ACAD
1000
Helvetica
1071
        0
  0
STYLE
  5
3D
100
AcDbSymbolTableRecord
100
AcDbTextStyleTableRecord
  2
New Century Schlbk
 70
               0
 40
0.0
 41
1.0
 50
0.0
 71
               0
 42
0.0
  3
New Century Schlbk
  4

1001
ACAD
1000
New Century Schlbk
1071
        0
  0
ENDTAB
  0
TABLE
  2
VIEW
  5
5
100
AcDbSymbolTable
 70
               0
  0
ENDTAB
  0
TABLE
  2
UCS
  5
6
100
AcDbSymbolTable
 70
               0
  0
ENDTAB
  0
TABLE
  2
APPID
  5
8
100
AcDbSymbolTable
 70
               1
  0
APPID
  5
16
100
AcDbSymbolTableRecord
100
AcDbRegAppTableRecord
  2
ACAD
 70
               0
  0
ENDTAB
  0
TABLE
  2
DIMSTYLE
  5
9
100
AcDbSymbolTable
 70
               2
100
AcDbDimStyleTable
 71
               0
  0
DIMSTYLE
105
18
100
AcDbSymbolTableRecord
100
AcDbDimStyleTableRecord
  2
Standard
 70
               0
  3

  4

 40
1.0
 41
0.18
 42
0.0625
 43
0.38
 44
0.18
 45
0.0
 46
0.0
 47
0.0
 48
0.0
 71
               0
 72
               0
 73
               1
 74
               1
 75
               0
 76
               0
 77
               0
 78
               0
 79
               0
140
0.18
141
0.09
142
0.0
143
25.399999999999999
144
1.0
145
0.0
146
1.0
147
0.09
148
0.0
170
               0
171
               2
172
               0
173
               0
174
               0
175
               0
176
               0
177
               0
178
               0
179
               0
271
               4
272
               4
273
               2
274
               2
275
               0
276
               0
277
               2
278
              46
279
               0
280
               0
281
               0
282
               0
283
               1
284
               0
285
               0
286
               0
288
               0
289
               3
340
17
341
0
342
0
343
0
344
0
371
              -2
372
              -2
  0
DIMSTYLE
105
5F
100
AcDbSymbolTableRecord
100
AcDbDimStyleTableRecord
  2
IE Standard
 70
               0
  3
<>mm
  4
[]"
 40
1.0
 41
1.0583322750000002
 42
0.634999366577038
 43
6.9999859934672708
 44
1.2699987331540761
 45
0.0
 46
0.0
 47
0.0
 48
0.0
 71
               0
 72
               0
 73
               1
 74
               1
 75
               0
 76
               0
 77
               0
 78
              11
 79
               0
140
0.7579186197916666
141
0.0
142
0.0
143
0.0393700787401575
144
1.0
145
0.0
146
1.0
147
0.0
148
0.0
170
               0
171
               3
172
               1
173
               0
174
               1
175
               0
176
               0
177
               0
178
               0
179
               0
271
               2
272
               2
273
               2
274
               2
275
               0
276
               2
277
               2
278
              46
279
               0
280
               0
281
               0
282
               0
283
               1
284
              11
285
               3
286
               3
288
               0
289
               0
340
3C
341
5B
342
57
343
0
344
0
371
              -2
372
              -2
  0
ENDTAB
  0
TABLE
  2
BLOCK_RECORD
  5
1
100
AcDbSymbolTable
 70
              24
  0
BLOCK_RECORD
  5
A
100
AcDbSymbolTableRecord
100
AcDbBlockTableRecord
  2
*MODEL_SPACE
340
20
  0
BLOCK_RECORD
  5
B
100
AcDbSymbolTableRecord
100
AcDbBlockTableRecord
  2
*PAPER_SPACE
340
21
  0
BLOCK_RECORD
  5
57
100
AcDbSymbolTableRecord
100
AcDbBlockTableRecord
  2
VW_FILLEDARROW
340
0
  0
BLOCK_RECORD
  5
5B
100
AcDbSymbolTableRecord
100
AcDbBlockTableRecord
  2
VW_FILLEDARROW-1
340
0
  0
BLOCK_RECORD
  5
24
100
AcDbSymbolTableRecord
100
AcDbBlockTableRecord
  2
IE i logo
340
0
102
{BLKREFS
331
306
102
}
  0
BLOCK_RECORD
  5
25
100
AcDbSymbolTableRecord
100
AcDbBlockTableRecord
  2
©2006_address
340
0
102
{BLKREFS
331
314
102
}
  0
BLOCK_RECORD
  5
26
100
AcDbSymbolTableRecord
100
AcDbBlockTableRecord
  2
R1492. tv
340
0
102
{BLKREFS
331
B1
331
B5
331
B9
331
BD
102
}
  0
BLOCK_RECORD
  5
27
100
AcDbSymbolTableRecord
100
AcDbBlockTableRecord
  2
Group
340
0
102
{BLKREFS
331
AE
102
}
  0
BLOCK_RECORD
  5
28
100
AcDbSymbolTableRecord
100
AcDbBlockTableRecord
  2
R1005. tv
340
0
102
{BLKREFS
331
B2
331
B6
331
BA
331
BE
102
}
  0
BLOCK_RECORD
  5
29
100
AcDbSymbolTableRecord
100
AcDbBlockTableRecord
  2
Group-1
340
0
102
{BLKREFS
331
315
102
}
  0
BLOCK_RECORD
  5
2A
100
AcDbSymbolTableRecord
100
AcDbBlockTableRecord
  2
Group-2
340
0
102
{BLKREFS
331
316
102
}
  0
BLOCK_RECORD
  5
2B
100
AcDbSymbolTableRecord
100
AcDbBlockTableRecord
  2
Group-3
340
0
102
{BLKREFS
331
317
102
}
  0
BLOCK_RECORD
  5
2C
100
AcDbSymbolTableRecord
100
AcDbBlockTableRecord
  2
Group-4
340
0
102
{BLKREFS
331
318
102
}
  0
BLOCK_RECORD
  5
2D
100
AcDbSymbolTableRecord
100
AcDbBlockTableRecord
  2
*D11
340
0
  0
BLOCK_RECORD
  5
2E
100
AcDbSymbolTableRecord
100
AcDbBlockTableRecord
  2
*D12
340
0
  0
BLOCK_RECORD
  5
2F
100
AcDbSymbolTableRecord
100
AcDbBlockTableRecord
  2
*D13
340
0
  0
BLOCK_RECORD
  5
30
100
AcDbSymbolTableRecord
100
AcDbBlockTableRecord
  2
*D14
340
0
  0
BLOCK_RECORD
  5
31
100
AcDbSymbolTableRecord
100
AcDbBlockTableRecord
  2
*D15
340
0
  0
BLOCK_RECORD
  5
32
100
AcDbSymbolTableRecord
100
AcDbBlockTableRecord
  2
*D16
340
0
  0
BLOCK_RECORD
  5
33
100
AcDbSymbolTableRecord
100
AcDbBlockTableRecord
  2
Group-5
340
0
102
{BLKREFS
331
33D
102
}
  0
BLOCK_RECORD
  5
34
100
AcDbSymbolTableRecord
100
AcDbBlockTableRecord
  2
*D18
340
0
  0
BLOCK_RECORD
  5
35
100
AcDbSymbolTableRecord
100
AcDbBlockTableRecord
  2
*D19
340
0
  0
BLOCK_RECORD
  5
36
100
AcDbSymbolTableRecord
100
AcDbBlockTableRecord
  2
*D20
340
0
  0
BLOCK_RECORD
  5
37
100
AcDbSymbolTableRecord
100
AcDbBlockTableRecord
  2
*D21
340
0
  0
BLOCK_RECORD
  5
38
100
AcDbSymbolTableRecord
100
AcDbBlockTableRecord
  2
*D22
340
0
  0
BLOCK_RECORD
  5
39
100
AcDbSymbolTableRecord
100
AcDbBlockTableRecord
  2
*D23
340
0
  0
ENDTAB
  0
ENDSEC
  0
SECTION
  2
BLOCKS
  0
BLOCK
  5
D
100
AcDbEntity
  8
0
390
0
100
AcDbBlockBegin
  2
*MODEL_SPACE
 70
               0
 10
0.0
 20
0.0
 30
0.0
  3
*MODEL_SPACE
  1

  0
ENDBLK
  5
E
100
AcDbEntity
  8
0
390
0
100
AcDbBlockEnd
  0
BLOCK
  5
F
100
AcDbEntity
 67
               1
  8
0
390
0
100
AcDbBlockBegin
  2
*PAPER_SPACE
 70
               0
 10
0.0
 20
0.0
 30
0.0
  3
*PAPER_SPACE
  1

  0
ENDBLK
  5
10
100
AcDbEntity
 67
               1
  8
0
390
0
100
AcDbBlockEnd
  0
BLOCK
  5
58
100
AcDbEntity
  8
0
370
              -2
390
0
  6
ByBlock
 62
               0
100
AcDbBlockBegin
  2
VW_FILLEDARROW
 70
               0
 10
0.0
 20
0.0
 30
0.0
  3
VW_FILLEDARROW
  1

  0
SOLID
  5
59
100
AcDbEntity
  8
0
370
              -2
390
0
 62
               0
100
AcDbTrace
 10
0.0
 20
0.0
 30
0.0
 11
-0.9999379649047853
 21
-0.2679325701774575
 31
0.0
 12
-0.9999379649047852
 22
0.2679325701774578
 32
0.0
 13
-0.9999379649047852
 23
0.2679325701774578
 33
0.0
  0
ENDBLK
  5
5A
100
AcDbEntity
  8
0
390
0
100
AcDbBlockEnd
  0
BLOCK
  5
5C
100
AcDbEntity
  8
0
370
              -2
390
0
  6
ByBlock
 62
               0
100
AcDbBlockBegin
  2
VW_FILLEDARROW-1
 70
               0
 10
0.0
 20
0.0
 30
0.0
  3
VW_FILLEDARROW
  1

  0
SOLID
  5
5D
100
AcDbEntity
  8
0
370
              -2
390
0
 62
               0
100
AcDbTrace
 10
0.0
 20
0.0
 30
0.0
 11
-0.6661085461303712
 21
-0.1784832470071022
 31
0.0
 12
-0.6661085461303712
 22
0.1784832470071024
 32
0.0
 13
-0.6661085461303712
 23
0.1784832470071024
 33
0.0
  0
ENDBLK
  5
5E
100
AcDbEntity
  8
0
390
0
100
AcDbBlockEnd
  0
BLOCK
  5
60
100
AcDbEntity
  8
None
390
0
100
AcDbBlockBegin
  2
IE i logo
 70
               0
 10
0.0
 20
0.0
 30
0.0
  3
IE i logo
  1

  0
CIRCLE
  5
61
102
{ACAD_REACTORS
330
62
102
}
100
AcDbEntity
  8
None
370
               5
390
0
  6
Continuous
 62
               7
100
AcDbCircle
 10
0.0
 20
0.0
 30
0.0
 40
2.6707900018721049
  0
HATCH
  5
62
100
AcDbEntity
  8
None
370
               0
390
0
  6
Continuous
 62
               7
100
AcDbHatch
 10
0.0
 20
0.0
 30
0.0
210
0.0
220
0.0
230
1.0
  2
SOLID
 70
               1
 71
               1
 91
        1
 92
        1
 93
        1
 72
               2
 10
0.0
 20
0.0
 40
2.6707900018721049
 50
0.0
 51
360.0
 73
               0
 97
        1
330
61
 75
               0
 76
               1
 98
        1
 10
0.0
 20
0.0
  0
WIPEOUT
  5
63
100
AcDbEntity
  8
None
370
               5
390
0
  6
Continuous
 62
               7
 92
        0
100
AcDbWipeout
 90
        0
 10
-1.01559
 20
0.73569
 30
0.0
 11
0.6889700000000001
 21
0.0
 31
0.0
 12
0.0
 22
0.6889700000000001
 32
0.0
 13
1.0
 23
1.0
340
0
 70
               7
280
               1
281
              50
282
              50
283
               0
360
0
 71
               2
 91
       97
 14
-0.384131384530531
 24
0.0667881039813055
 14
-0.3634758906411018
 24
0.0346239223043094
 14
-0.3415474367534144
 24
0.00272054661306
 14
-0.3183460228674687
 24
-0.0289220230924422
 14
-0.2938716489832648
 24
-0.0603037868121978
 14
-0.2681243151008025
 24
-0.0914247445462067
 14
-0.2411040212200821
 24
-0.1222848962944686
 14
-0.2128107673411033
 24
-0.1528842420569836
 14
-0.1832445534638663
 24
-0.1832227818337517
 14
-0.1529111164129063
 24
-0.2127940984367968
 14
-0.1223161930127582
 24
-0.2410917746781425
 14
-0.0914597832634222
 24
-0.2681158105577891
 14
-0.0603418871648982
 24
-0.2938662060757359
 14
-0.0289625047171866
 24
-0.3183429612319839
 14
0.0026783640797133
 24
-0.3415460760265321
 14
0.0345807192258009
 24
-0.3634755504593811
 14
0.0667445607210765
 24
-0.384131384530531
 14
0.0986291130237893
 24
-0.4031788394269708
 14
0.1296936005921883
 24
-0.4202831763356896
 14
0.1599380234262741
 24
-0.4354443952566872
 14
0.1893623815260462
 24
-0.4486624961899646
 14
0.2179666748915049
 24
-0.4599374791355209
 14
0.2457509035226498
 24
-0.4692693440933564
 14
0.2727150674194813
 24
-0.4766580910634712
 14
0.2988591665819992
 24
-0.4821037200458653
 14
0.3237520773763735
 24
-0.485530597304672
 14
0.3469626761687736
 24
-0.4868630891040248
 14
0.3684909629591999
 24
-0.4861011954439233
 14
0.3883369377476522
 24
-0.483244916324368
 14
0.4065006005341306
 24
-0.4782942517453585
 14
0.4229819513186351
 24
-0.4712492017068954
 14
0.4377809901011655
 24
-0.4621097662089782
 14
0.450897716881722
 24
-0.4508759452516074
 14
0.462126435113285
 24
-0.4377544559269632
 14
0.4712614482488352
 24
-0.4229520153272275
 14
0.4783027562883724
 24
-0.4064686234523998
 14
0.4832503592318967
 24
-0.3883042803024801
 14
0.4861042570794083
 24
-0.3684589858774687
 14
0.486864449830907
 24
-0.3469327401773656
 14
0.4855309374863926
 24
-0.3237255432021711
 14
0.4821037200458654
 24
-0.2988373949518843
 14
0.4766580910634716
 24
-0.2726983985151745
 14
0.4692693440933567
 24
-0.24573865698071
 14
0.4599374791355212
 24
-0.217958170348491
 14
0.4486624961899646
 24
-0.1893569386185173
 14
0.4354443952566874
 24
-0.1599349617907888
 14
0.4202831763356894
 24
-0.1296922398653057
 14
0.4031788394269706
 24
-0.0986287728420684
 14
0.384131384530531
 24
-0.0667445607210762
 14
0.363475890641102
 24
-0.0345803790440801
 14
0.3415474367534145
 24
-0.0026770033528307
 14
0.3183460228674687
 24
0.0289655663526718
 14
0.2938716489832648
 24
0.0603473300724272
 14
0.2681243151008025
 24
0.0914682878064358
 14
0.2411040212200821
 24
0.1223284395546979
 14
0.2128107673411033
 24
0.1529277853172129
 14
0.1832445534638663
 24
0.1832663250939811
 14
0.1529111164129063
 24
0.2128376416970262
 14
0.1223161930127581
 24
0.2411353179383721
 14
0.0914597832634222
 24
0.2681593538180184
 14
0.0603418871648983
 24
0.2939097493359655
 14
0.0289625047171866
 24
0.3183865044922132
 14
-0.0026783640797133
 24
0.3415896192867617
 14
-0.0345807192258009
 24
0.3635190937196106
 14
-0.0667445607210765
 24
0.3841749277907604
 14
-0.0986291130237892
 24
0.4032220425054794
 14
-0.1296936005921883
 24
0.4203253588690366
 14
-0.159938023426274
 24
0.4354848768814319
 14
-0.1893623815260462
 24
0.4487005965426653
 14
-0.2179666748915049
 24
0.4599725178527369
 14
-0.2457509035226499
 24
0.4693006408116466
 14
-0.2727150674194813
 24
0.4766849654193943
 14
-0.2988591665819992
 24
0.4821254916759801
 14
-0.3237520773763735
 24
0.4855476063906992
 14
-0.3469626761687736
 24
0.4868766963728464
 14
-0.3684909629591999
 24
0.486112761622422
 14
-0.3883369377476522
 24
0.4832558021394255
 14
-0.4065006005341306
 24
0.4783058179238573
 14
-0.4229819513186351
 24
0.4712628089757174
 14
-0.4377809901011655
 24
0.4621267752950057
 14
-0.450897716881722
 24
0.450897716881722
 14
-0.462126435113285
 24
0.437781330282886
 14
-0.4712614482488352
 24
0.4229833120455172
 14
-0.4783027562883724
 24
0.4065036621696155
 14
-0.4832503592318967
 24
0.388342380655181
 14
-0.4861042570794085
 24
0.3684994675022135
 14
-0.486864449830907
 24
0.3469749227107132
 14
-0.4855309374863926
 24
0.32376874628068
 14
-0.4821037200458657
 24
0.2988809382121138
 14
-0.4766580910634715
 24
0.2727419417754038
 14
-0.4692693440933567
 24
0.2457822002409394
 14
-0.4599374791355211
 24
0.2180017136087203
 14
-0.4486624961899646
 24
0.1894004818787466
 14
-0.4354443952566874
 24
0.1599785050510182
 14
-0.4202831763356894
 24
0.1297357831255353
 14
-0.4031788394269706
 24
0.0986723161022978
 14
-0.384131384530531
 24
0.0667881039813055
  0
SPLINE
  5
64
100
AcDbEntity
  8
None
370
               5
390
0
  6
Continuous
 62
               7
100
AcDbSpline
210
0.0
220
0.0
230
1.0
 70
               9
 71
               2
 72
              17
 73
              14
 74
               0
 42
0.000001
 43
0.000001
 40
0.0
 40
0.0
 40
0.0
 40
1.0
 40
2.0
 40
3.0
 40
4.0
 40
5.0
 40
6.0
 40
7.0
 40
8.0
 40
9.0
 40
10.0
 40
11.0
 40
12.0
 40
12.0
 40
12.0
 10
-0.9357599999999999
 20
1.03416
 30
0.0
 10
-0.8805899999999999
 20
1.1231599999999999
 30
0.0
 10
-0.71412
 20
1.2896599999999998
 30
0.0
 10
-0.5361199999999999
 20
1.3999999999999999
 30
0.0
 10
-0.39428
 20
1.4246599999999998
 30
0.0
 10
-0.32662
 20
1.3569699999999998
 30
0.0
 10
-0.35128
 20
1.2151599999999998
 30
0.0
 10
-0.46162
 20
1.0371599999999999
 30
0.0
 10
-0.6280899999999999
 20
0.8706599999999999
 30
0.0
 10
-0.80609
 20
0.7603199999999999
 30
0.0
 10
-0.9479299999999999
 20
0.73569
 30
0.0
 10
-1.01559
 20
0.8033499999999999
 30
0.0
 10
-0.9909299999999999
 20
0.9451599999999999
 30
0.0
 10
-0.9357599999999999
 20
1.03416
 30
0.0
  0
WIPEOUT
  5
65
100
AcDbEntity
  8
None
370
               5
390
0
  6
Continuous
 62
               7
 92
        0
100
AcDbWipeout
 90
        0
 10
-1.7197799999999999
 20
-1.8961899999999998
 30
0.0
 11
1.8520599999999998
 21
0.0
 31
0.0
 12
0.0
 22
1.8520599999999998
 32
0.0
 13
1.0
 23
1.0
340
0
 70
               7
280
               1
281
              50
282
              50
283
               0
360
0
 71
               2
 91
       36
 14
-0.4523827521786551
 24
0.3095202099284041
 14
-0.2500026996965541
 24
0.1190404198568081
 14
-0.2142911136788225
 24
0.1190404198568081
 14
-0.0714231720354632
 24
0.3690377201602539
 14
0.0
 24
0.4523827521786551
 14
0.0714231720354633
 24
0.5
 14
0.2142857142857143
 24
0.5
 14
0.3690539183395787
 24
0.4047493061779856
 14
0.4761940757858817
 24
0.3095202099284041
 14
0.5
 24
0.2380916384998327
 14
0.5
 24
0.1071347580531948
 14
0.4880997375894949
 24
0.0714231720354632
 14
0.4642884139822685
 24
0.0714231720354632
 14
0.4285768279645368
 24
0.0829562757146097
 14
0.3214258717320173
 24
0.1666522682850447
 14
0.274726520739069
 24
0.1785579300886581
 14
0.2142857142857143
 24
0.1666522682850447
 14
0.190479790071596
 24
0.1070915629083291
 14
0.1428625422502512
 24
0.0238059242141183
 14
0.1190404198568082
 24
-0.0833450320184012
 14
0.1071347580531948
 24
-0.2142911136788225
 14
0.0714231720354633
 24
-0.2857304838936103
 14
0.0238059242141184
 24
-0.3452533935185685
 14
-0.0238059242141183
 24
-0.3866289429068173
 14
-0.0714231720354632
 24
-0.3866289429068173
 14
-0.1309622798397461
 24
-0.3571536559290736
 14
-0.1785741282679827
 24
-0.2976361456972236
 14
-0.2619029621070591
 24
-0.178579527661091
 14
-0.342424111529864
 24
-0.1071563556256276
 14
-0.4727114672310832
 24
0.0238059242141183
 14
-0.5
 24
0.0714231720354632
 14
-0.5
 24
0.1547520058745397
 14
-0.5
 24
0.2380916384998327
 14
-0.5
 24
0.2857088863211775
 14
-0.4880997375894949
 24
0.3214204723389091
 14
-0.4523827521786551
 24
0.3095202099284041
  0
POLYLINE
  5
66
100
AcDbEntity
  8
None
370
               5
390
0
  6
Continuous
 62
               7
100
AcDb2dPolyline
 66
               1
 10
0.0
 20
0.0
 30
0.0
 70
               1
 75
               5
  0
VERTEX
  5
67
100
AcDbEntity
  8
None
370
               5
390
0
  6
Continuous
 62
               7
100
AcDbVertex
100
AcDb2dVertex
 10
-1.6315899999999999
 20
-1.5434099999999999
 30
0.0
  0
VERTEX
  5
68
100
AcDbEntity
  8
None
370
               5
390
0
  6
Continuous
 62
               7
100
AcDbVertex
100
AcDb2dVertex
 10
-1.2567699999999999
 20
-1.1906299999999999
 30
0.0
  0
VERTEX
  5
69
100
AcDbEntity
  8
None
370
               5
390
0
  6
Continuous
 62
               7
100
AcDbVertex
100
AcDb2dVertex
 10
-1.1906299999999999
 20
-1.1906299999999999
 30
0.0
  0
VERTEX
  5
6A
100
AcDbEntity
  8
None
370
               5
390
0
  6
Continuous
 62
               7
100
AcDbVertex
100
AcDb2dVertex
 10
-0.9260299999999999
 20
-1.6536399999999998
 30
0.0
  0
VERTEX
  5
6B
100
AcDbEntity
  8
None
370
               5
390
0
  6
Continuous
 62
               7
100
AcDbVertex
100
AcDb2dVertex
 10
-0.79375
 20
-1.8079999999999998
 30
0.0
  0
VERTEX
  5
6C
100
AcDbEntity
  8
None
370
               5
390
0
  6
Continuous
 62
               7
100
AcDbVertex
100
AcDb2dVertex
 10
-0.6614699999999999
 20
-1.8961899999999998
 30
0.0
  0
VERTEX
  5
6D
100
AcDbEntity
  8
None
370
               5
390
0
  6
Continuous
 62
               7
100
AcDbVertex
100
AcDb2dVertex
 10
-0.39688
 20
-1.8961899999999998
 30
0.0
  0
VERTEX
  5
6E
100
AcDbEntity
  8
None
370
               5
390
0
  6
Continuous
 62
               7
100
AcDbVertex
100
AcDb2dVertex
 10
-0.11024
 20
-1.7197799999999999
 30
0.0
  0
VERTEX
  5
6F
100
AcDbEntity
  8
None
370
               5
390
0
  6
Continuous
 62
               7
100
AcDbVertex
100
AcDb2dVertex
 10
0.08819
 20
-1.5434099999999999
 30
0.0
  0
VERTEX
  5
70
100
AcDbEntity
  8
None
370
               5
390
0
  6
Continuous
 62
               7
100
AcDbVertex
100
AcDb2dVertex
 10
0.13228
 20
-1.4111199999999999
 30
0.0
  0
VERTEX
  5
71
100
AcDbEntity
  8
None
370
               5
390
0
  6
Continuous
 62
               7
100
AcDbVertex
100
AcDb2dVertex
 10
0.13228
 20
-1.16858
 30
0.0
  0
VERTEX
  5
72
100
AcDbEntity
  8
None
370
               5
390
0
  6
Continuous
 62
               7
100
AcDbVertex
100
AcDb2dVertex
 10
0.11024
 20
-1.1024399999999999
 30
0.0
  0
VERTEX
  5
73
100
AcDbEntity
  8
None
370
               5
390
0
  6
Continuous
 62
               7
100
AcDbVertex
100
AcDb2dVertex
 10
0.06614
 20
-1.1024399999999999
 30
0.0
  0
VERTEX
  5
74
100
AcDbEntity
  8
None
370
               5
390
0
  6
Continuous
 62
               7
100
AcDbVertex
100
AcDb2dVertex
 10
0.0
 20
-1.1237999999999999
 30
0.0
  0
VERTEX
  5
75
100
AcDbEntity
  8
None
370
               5
390
0
  6
Continuous
 62
               7
100
AcDbVertex
100
AcDb2dVertex
 10
-0.19845
 20
-1.2788099999999998
 30
0.0
  0
VERTEX
  5
76
100
AcDbEntity
  8
None
370
               5
390
0
  6
Continuous
 62
               7
100
AcDbVertex
100
AcDb2dVertex
 10
-0.28494
 20
-1.3008599999999999
 30
0.0
  0
VERTEX
  5
77
100
AcDbEntity
  8
None
370
               5
390
0
  6
Continuous
 62
               7
100
AcDbVertex
100
AcDb2dVertex
 10
-0.39688
 20
-1.2788099999999998
 30
0.0
  0
VERTEX
  5
78
100
AcDbEntity
  8
None
370
               5
390
0
  6
Continuous
 62
               7
100
AcDbVertex
100
AcDb2dVertex
 10
-0.44097
 20
-1.1684999999999999
 30
0.0
  0
VERTEX
  5
79
100
AcDbEntity
  8
None
370
               5
390
0
  6
Continuous
 62
               7
100
AcDbVertex
100
AcDb2dVertex
 10
-0.52916
 20
-1.0142499999999999
 30
0.0
  0
VERTEX
  5
7A
100
AcDbEntity
  8
None
370
               5
390
0
  6
Continuous
 62
               7
100
AcDbVertex
100
AcDb2dVertex
 10
-0.5732799999999999
 20
-0.8158
 30
0.0
  0
VERTEX
  5
7B
100
AcDbEntity
  8
None
370
               5
390
0
  6
Continuous
 62
               7
100
AcDbVertex
100
AcDb2dVertex
 10
-0.5953299999999999
 20
-0.5732799999999999
 30
0.0
  0
VERTEX
  5
7C
100
AcDbEntity
  8
None
370
               5
390
0
  6
Continuous
 62
               7
100
AcDbVertex
100
AcDb2dVertex
 10
-0.6614699999999999
 20
-0.44097
 30
0.0
  0
VERTEX
  5
7D
100
AcDbEntity
  8
None
370
               5
390
0
  6
Continuous
 62
               7
100
AcDbVertex
100
AcDb2dVertex
 10
-0.7496599999999999
 20
-0.33073
 30
0.0
  0
VERTEX
  5
7E
100
AcDbEntity
  8
None
370
               5
390
0
  6
Continuous
 62
               7
100
AcDbVertex
100
AcDb2dVertex
 10
-0.8378399999999999
 20
-0.2541
 30
0.0
  0
VERTEX
  5
7F
100
AcDbEntity
  8
None
370
               5
390
0
  6
Continuous
 62
               7
100
AcDbVertex
100
AcDb2dVertex
 10
-0.9260299999999999
 20
-0.2541
 30
0.0
  0
VERTEX
  5
80
100
AcDbEntity
  8
None
370
               5
390
0
  6
Continuous
 62
               7
100
AcDbVertex
100
AcDb2dVertex
 10
-1.0363
 20
-0.30869
 30
0.0
  0
VERTEX
  5
81
100
AcDbEntity
  8
None
370
               5
390
0
  6
Continuous
 62
               7
100
AcDbVertex
100
AcDb2dVertex
 10
-1.1244799999999999
 20
-0.41892
 30
0.0
  0
VERTEX
  5
82
100
AcDbEntity
  8
None
370
               5
390
0
  6
Continuous
 62
               7
100
AcDbVertex
100
AcDb2dVertex
 10
-1.2788099999999998
 20
-0.63942
 30
0.0
  0
VERTEX
  5
83
100
AcDbEntity
  8
None
370
               5
390
0
  6
Continuous
 62
               7
100
AcDbVertex
100
AcDb2dVertex
 10
-1.4279399999999998
 20
-0.7716999999999999
 30
0.0
  0
VERTEX
  5
84
100
AcDbEntity
  8
None
370
               5
390
0
  6
Continuous
 62
               7
100
AcDbVertex
100
AcDb2dVertex
 10
-1.6692399999999998
 20
-1.0142499999999999
 30
0.0
  0
VERTEX
  5
85
100
AcDbEntity
  8
None
370
               5
390
0
  6
Continuous
 62
               7
100
AcDbVertex
100
AcDb2dVertex
 10
-1.7197799999999999
 20
-1.1024399999999999
 30
0.0
  0
VERTEX
  5
86
100
AcDbEntity
  8
None
370
               5
390
0
  6
Continuous
 62
               7
100
AcDbVertex
100
AcDb2dVertex
 10
-1.7197799999999999
 20
-1.2567699999999999
 30
0.0
  0
VERTEX
  5
87
100
AcDbEntity
  8
None
370
               5
390
0
  6
Continuous
 62
               7
100
AcDbVertex
100
AcDb2dVertex
 10
-1.7197799999999999
 20
-1.4111199999999999
 30
0.0
  0
VERTEX
  5
88
100
AcDbEntity
  8
None
370
               5
390
0
  6
Continuous
 62
               7
100
AcDbVertex
100
AcDb2dVertex
 10
-1.7197799999999999
 20
-1.4993099999999999
 30
0.0
  0
VERTEX
  5
89
100
AcDbEntity
  8
None
370
               5
390
0
  6
Continuous
 62
               7
100
AcDbVertex
100
AcDb2dVertex
 10
-1.6977399999999998
 20
-1.5654499999999998
 30
0.0
  0
SEQEND
  5
8A
100
AcDbEntity
  8
None
370
               5
390
0
  6
Continuous
 62
               7
  0
POLYLINE
  5
8B
100
AcDbEntity
  8
None
370
               5
390
0
  6
Continuous
 62
               7
100
AcDb2dPolyline
 66
               1
 10
0.0
 20
0.0
 30
0.0
 75
               5
  0
VERTEX
  5
8C
100
AcDbEntity
  8
None
370
               5
390
0
  6
Continuous
 62
               7
100
AcDbVertex
100
AcDb2dVertex
 10
-1.7197799999999999
 20
-1.1410199999999999
 30
0.0
  0
VERTEX
  5
8D
100
AcDbEntity
  8
None
370
               5
390
0
  6
Continuous
 62
               7
100
AcDbVertex
100
AcDb2dVertex
 10
-1.7197799999999999
 20
-1.45522
 30
0.0
  0
VERTEX
  5
8E
100
AcDbEntity
  8
None
370
               5
390
0
  6
Continuous
 62
               7
100
AcDbVertex
100
AcDb2dVertex
 10
-1.7197799999999999
 20
-1.4772599999999998
 30
0.0
  0
VERTEX
  5
8F
100
AcDbEntity
  8
None
370
               5
390
0
  6
Continuous
 62
               7
100
AcDbVertex
100
AcDb2dVertex
 10
-1.71427
 20
-1.5158499999999999
 30
0.0
  0
SEQEND
  5
90
100
AcDbEntity
  8
None
370
               5
390
0
  6
Continuous
 62
               7
  0
ENDBLK
  5
91
100
AcDbEntity
  8
None
390
0
100
AcDbBlockEnd
  0
BLOCK
  5
92
100
AcDbEntity
  8
None
390
0
100
AcDbBlockBegin
  2
©2006_address
 70
               0
 10
0.0
 20
0.0
 30
0.0
  3
©2006_address
  1

  0
MTEXT
  5
93
100
AcDbEntity
  8
None
390
0
 62
               7
100
AcDbMText
 10
0.0
 20
2.7477645770833359
 30
0.0
 40
0.9298981770833332
 41
36.738279999999996
 71
               2
 72
               1
  1
© 2006 IRONWOOD ELECTRONICS, INC.\P11351 Rupp Drive, Suite 400, Burnsville, MN 55337\PTele: (952) 229-8200\Pwww.ironwoodelectronics.com
  7
Arial
 73
               1
 44
0.9673603504928808
  0
ENDBLK
  5
94
100
AcDbEntity
  8
None
390
0
100
AcDbBlockEnd
  0
BLOCK
  5
95
100
AcDbEntity
  8
None
390
0
100
AcDbBlockBegin
  2
R1492. tv
 70
               0
 10
0.0
 20
0.0
 30
0.0
  3
R1492. tv
  1

  0
WIPEOUT
  5
96
100
AcDbEntity
  8
None
370
               9
390
0
  6
STYLE_12
 62
               7
 92
        0
100
AcDbWipeout
 90
        0
 10
-2.3875999999999999
 20
-2.3875999999999999
 30
0.0
 11
4.7751999999999999
 21
0.0
 31
0.0
 12
0.0
 22
4.7751999999999999
 32
0.0
 13
1.0
 23
1.0
340
0
 70
               7
280
               1
281
              50
282
              50
283
               0
360
0
 71
               2
 91
        9
 14
0.5
 24
0.0
 14
0.3535533905932738
 24
0.3535533905932738
 14
0.0
 24
0.5
 14
-0.3535533905932737
 24
0.3535533905932738
 14
-0.5
 24
0.0
 14
-0.3535533905932737
 24
-0.3535533905932738
 14
0.0
 24
-0.5
 14
0.3535533905932738
 24
-0.3535533905932738
 14
0.5
 24
0.0
  0
CIRCLE
  5
97
100
AcDbEntity
  8
None
370
               9
390
0
  6
STYLE_12
 62
               7
100
AcDbCircle
 10
0.0
 20
0.0
 30
0.0
 40
2.3875999999999999
  0
WIPEOUT
  5
98
100
AcDbEntity
  8
None
370
               9
390
0
  6
STYLE_12
 62
               7
 92
        0
100
AcDbWipeout
 90
        0
 10
-0.8635999999999999
 20
-0.8635999999999999
 30
0.0
 11
1.7271999999999998
 21
0.0
 31
0.0
 12
0.0
 22
1.7271999999999998
 32
0.0
 13
1.0
 23
1.0
340
0
 70
               7
280
               1
281
              50
282
              50
283
               0
360
0
 71
               2
 91
        9
 14
0.5
 24
0.0
 14
0.3535533905932737
 24
0.3535533905932738
 14
0.0
 24
0.5
 14
-0.3535533905932737
 24
0.3535533905932738
 14
-0.5
 24
0.0
 14
-0.3535533905932737
 24
-0.3535533905932737
 14
0.0
 24
-0.5
 14
0.3535533905932737
 24
-0.3535533905932737
 14
0.5
 24
0.0
  0
CIRCLE
  5
99
100
AcDbEntity
  8
None
370
               9
390
0
  6
STYLE_12
 62
               7
100
AcDbCircle
 10
0.0
 20
0.0
 30
0.0
 40
0.8635999999999999
  0
ENDBLK
  5
9A
100
AcDbEntity
  8
None
390
0
100
AcDbBlockEnd
  0
BLOCK
  5
9B
100
AcDbEntity
  8
None
390
0
100
AcDbBlockBegin
  2
Group
 70
               0
 10
0.0
 20
0.0
 30
0.0
  3
Group
  1

  0
WIPEOUT
  5
9C
100
AcDbEntity
  8
None
370
               9
390
0
  6
STYLE_12
 62
               7
 92
        0
100
AcDbWipeout
 90
        0
 10
-2.2913599999999996
 20
-1.9843799999999998
 30
0.0
 11
4.5827199999999992
 21
0.0
 31
0.0
 12
0.0
 22
4.5827199999999992
 32
0.0
 13
1.0
 23
1.0
340
0
 70
               7
280
               1
281
              50
282
              50
283
               0
360
0
 71
               2
 91
        8
 14
0.5
 24
0.0669864185461909
 14
0.5
 24
0.0669864185461909
 14
0.2500021821101878
 24
0.5
 14
-0.25
 24
0.5
 14
-0.5
 24
0.0669864185461909
 14
-0.25
 24
-0.3660271629076183
 14
0.2500021821101878
 24
-0.3660271629076183
 14
0.5
 24
0.0669864185461909
  0
POLYLINE
  5
9D
100
AcDbEntity
  8
None
370
               9
390
0
  6
STYLE_12
 62
               7
100
AcDb2dPolyline
 66
               1
 10
0.0
 20
0.0
 30
0.0
 70
               1
 75
               5
  0
VERTEX
  5
9E
100
AcDbEntity
  8
None
370
               9
390
0
  6
STYLE_12
 62
               7
100
AcDbVertex
100
AcDb2dVertex
 10
2.2913599999999996
 20
0.0
 30
0.0
  0
VERTEX
  5
9F
100
AcDbEntity
  8
None
370
               9
390
0
  6
STYLE_12
 62
               7
100
AcDbVertex
100
AcDb2dVertex
 10
2.2913599999999996
 20
0.0
 30
0.0
  0
VERTEX
  5
A0
100
AcDbEntity
  8
None
370
               9
390
0
  6
STYLE_12
 62
               7
100
AcDbVertex
100
AcDb2dVertex
 10
1.1456899999999999
 20
-1.9843799999999998
 30
0.0
  0
VERTEX
  5
A1
100
AcDbEntity
  8
None
370
               9
390
0
  6
STYLE_12
 62
               7
100
AcDbVertex
100
AcDb2dVertex
 10
-1.1456799999999998
 20
-1.9843799999999998
 30
0.0
  0
VERTEX
  5
A2
100
AcDbEntity
  8
None
370
               9
390
0
  6
STYLE_12
 62
               7
100
AcDbVertex
100
AcDb2dVertex
 10
-2.2913599999999996
 20
0.0
 30
0.0
  0
VERTEX
  5
A3
100
AcDbEntity
  8
None
370
               9
390
0
  6
STYLE_12
 62
               7
100
AcDbVertex
100
AcDb2dVertex
 10
-1.1456799999999998
 20
1.9843799999999998
 30
0.0
  0
VERTEX
  5
A4
100
AcDbEntity
  8
None
370
               9
390
0
  6
STYLE_12
 62
               7
100
AcDbVertex
100
AcDb2dVertex
 10
1.1456899999999999
 20
1.9843799999999998
 30
0.0
  0
SEQEND
  5
A5
100
AcDbEntity
  8
None
370
               9
390
0
  6
STYLE_12
 62
               7
  0
WIPEOUT
  5
A6
100
AcDbEntity
  8
None
370
               9
390
0
  6
STYLE_12
 62
               7
 92
        0
100
AcDbWipeout
 90
        0
 10
-1.9843699999999997
 20
-1.9843799999999998
 30
0.0
 11
3.9687599999999996
 21
0.0
 31
0.0
 12
0.0
 22
3.9687599999999996
 32
0.0
 13
1.0
 23
1.0
340
0
 70
               7
280
               1
281
              50
282
              50
283
               0
360
0
 71
               2
 91
        9
 14
0.5
 24
-0.0000000000000001
 14
0.3535533905932736
 24
0.3535533905932738
 14
0.0
 24
0.5
 14
-0.3535533905932737
 24
0.3535533905932738
 14
-0.5
 24
-0.0000000000000001
 14
-0.3535533905932737
 24
-0.3535533905932737
 14
0.0
 24
-0.5
 14
0.3535533905932736
 24
-0.3535533905932737
 14
0.5
 24
-0.0000000000000001
  0
CIRCLE
  5
A7
100
AcDbEntity
  8
None
370
               9
390
0
  6
STYLE_12
 62
               7
100
AcDbCircle
 10
0.00001
 20
0.0
 30
0.0
 40
1.9843799999999998
  0
WIPEOUT
  5
A8
100
AcDbEntity
  8
None
370
               9
390
0
  6
STYLE_12
 62
               7
 92
        0
100
AcDbWipeout
 90
        0
 10
-0.79374
 20
-0.79375
 30
0.0
 11
1.5874999999999999
 21
0.0
 31
0.0
 12
0.0
 22
1.5874999999999999
 32
0.0
 13
1.0
 23
1.0
340
0
 70
               7
280
               1
281
              50
282
              50
283
               0
360
0
 71
               2
 91
        9
 14
0.5
 24
0.0
 14
0.3535533905932736
 24
0.3535533905932738
 14
0.0
 24
0.5
 14
-0.3535533905932737
 24
0.3535533905932738
 14
-0.5
 24
0.0
 14
-0.3535533905932737
 24
-0.3535533905932737
 14
0.0
 24
-0.5
 14
0.3535533905932736
 24
-0.3535533905932737
 14
0.5
 24
0.0
  0
CIRCLE
  5
A9
100
AcDbEntity
  8
None
370
               9
390
0
  6
STYLE_12
 62
               7
100
AcDbCircle
 10
0.00001
 20
0.0
 30
0.0
 40
0.79375
  0
WIPEOUT
  5
AA
100
AcDbEntity
  8
None
370
               9
390
0
  6
STYLE_12
 62
               7
 92
        0
100
AcDbWipeout
 90
        0
 10
-0.67467
 20
-0.67468
 30
0.0
 11
1.3493599999999999
 21
0.0
 31
0.0
 12
0.0
 22
1.3493599999999999
 32
0.0
 13
1.0
 23
1.0
340
0
 70
               7
280
               1
281
              50
282
              50
283
               0
360
0
 71
               2
 91
        9
 14
0.5
 24
0.0
 14
0.3535533905932737
 24
0.3535533905932737
 14
0.0
 24
0.5
 14
-0.3535533905932737
 24
0.3535533905932737
 14
-0.5
 24
0.0
 14
-0.3535533905932737
 24
-0.3535533905932737
 14
0.0
 24
-0.5
 14
0.3535533905932737
 24
-0.3535533905932737
 14
0.5
 24
0.0
  0
CIRCLE
  5
AB
100
AcDbEntity
  8
None
370
               9
390
0
  6
STYLE_12
 62
               7
100
AcDbCircle
 10
0.00001
 20
0.0
 30
0.0
 40
0.67468
  0
ENDBLK
  5
AC
100
AcDbEntity
  8
None
390
0
100
AcDbBlockEnd
  0
BLOCK
  5
AD
100
AcDbEntity
  8
None
390
0
100
AcDbBlockBegin
  2
R1005. tv
 70
               0
 10
0.0
 20
0.0
 30
0.0
  3
R1005. tv
  1

  0
INSERT
  5
AE
100
AcDbEntity
  8
None
390
0
 62
               7
100
AcDbBlockReference
  2
Group
 10
0.0
 20
0.0
 30
0.0
  0
ENDBLK
  5
AF
100
AcDbEntity
  8
None
390
0
100
AcDbBlockEnd
  0
BLOCK
  5
B0
100
AcDbEntity
  8
None
390
0
100
AcDbBlockBegin
  2
Group-1
 70
               0
 10
0.0
 20
0.0
 30
0.0
  3
Group-1
  1

  0
INSERT
  5
B1
100
AcDbEntity
  8
None
390
0
 62
               7
100
AcDbBlockReference
  2
R1492. tv
 10
-7.5315699999999985
 20
-2.0386499999999996
 30
0.0
 41
-1.0
  0
INSERT
  5
B2
100
AcDbEntity
  8
None
390
0
 62
               7
100
AcDbBlockReference
  2
R1005. tv
 10
-7.5315599999999989
 20
-2.0386499999999996
 30
0.0
 41
-1.0
  0
ENDBLK
  5
B3
100
AcDbEntity
  8
None
390
0
100
AcDbBlockEnd
  0
BLOCK
  5
B4
100
AcDbEntity
  8
None
390
0
100
AcDbBlockBegin
  2
Group-2
 70
               0
 10
0.0
 20
0.0
 30
0.0
  3
Group-2
  1

  0
INSERT
  5
B5
100
AcDbEntity
  8
None
390
0
 62
               7
100
AcDbBlockReference
  2
R1492. tv
 10
6.1934299999999993
 20
-2.0386499999999987
 30
0.0
 41
-1.0
  0
INSERT
  5
B6
100
AcDbEntity
  8
None
390
0
 62
               7
100
AcDbBlockReference
  2
R1005. tv
 10
6.1934399999999989
 20
-2.0386499999999987
 30
0.0
 41
-1.0
  0
ENDBLK
  5
B7
100
AcDbEntity
  8
None
390
0
100
AcDbBlockEnd
  0
BLOCK
  5
B8
100
AcDbEntity
  8
None
390
0
100
AcDbBlockBegin
  2
Group-3
 70
               0
 10
0.0
 20
0.0
 30
0.0
  3
Group-3
  1

  0
INSERT
  5
B9
100
AcDbEntity
  8
None
390
0
 62
               7
100
AcDbBlockReference
  2
R1492. tv
 10
6.1934299999999993
 20
11.686349999999999
 30
0.0
 41
-1.0
  0
INSERT
  5
BA
100
AcDbEntity
  8
None
390
0
 62
               7
100
AcDbBlockReference
  2
R1005. tv
 10
6.1934399999999989
 20
11.686349999999999
 30
0.0
 41
-1.0
  0
ENDBLK
  5
BB
100
AcDbEntity
  8
None
390
0
100
AcDbBlockEnd
  0
BLOCK
  5
BC
100
AcDbEntity
  8
None
390
0
100
AcDbBlockBegin
  2
Group-4
 70
               0
 10
0.0
 20
0.0
 30
0.0
  3
Group-4
  1

  0
INSERT
  5
BD
100
AcDbEntity
  8
None
390
0
 62
               7
100
AcDbBlockReference
  2
R1492. tv
 10
-7.5315699999999985
 20
11.686349999999999
 30
0.0
 41
-1.0
  0
INSERT
  5
BE
100
AcDbEntity
  8
None
390
0
 62
               7
100
AcDbBlockReference
  2
R1005. tv
 10
-7.5315599999999989
 20
11.686349999999999
 30
0.0
 41
-1.0
  0
ENDBLK
  5
BF
100
AcDbEntity
  8
None
390
0
100
AcDbBlockEnd
  0
BLOCK
  5
C0
100
AcDbEntity
  8
Dimension
390
0
100
AcDbBlockBegin
  2
*D11
 70
               1
 10
0.0
 20
0.0
 30
0.0
  3
*D11
  1

  0
LINE
  5
C1
100
AcDbEntity
  8
Dimension
370
              -2
390
0
  6
Continuous
 62
               0
100
AcDbLine
 10
19.332841599999995
 20
-143.15521803342295
 30
0.0
 11
19.332841599999995
 21
-136.02271866684592
 31
0.0
  0
LINE
  5
C2
100
AcDbEntity
  8
Dimension
370
              -2
390
0
  6
Continuous
 62
               0
100
AcDbLine
 10
18.082841599999995
 20
-141.90521803342295
 30
0.0
 11
18.082841599999995
 21
-136.02271866684592
 31
0.0
  0
LINE
  5
C3
100
AcDbEntity
  8
Dimension
370
              -2
390
0
  6
Continuous
 62
               0
100
AcDbLine
 10
18.082841599999995
 20
-137.29271739999999
 30
0.0
 11
19.332841599999995
 21
-137.29271739999999
 31
0.0
  0
LINE
  5
C4
100
AcDbEntity
  8
Dimension
370
              -2
390
0
  6
Continuous
 62
               0
100
AcDbLine
 10
19.332841599999995
 20
-137.29271739999999
 30
0.0
 11
21.66616793116042
 21
-137.29271739999999
 31
0.0
  0
SOLID
  5
C5
100
AcDbEntity
  8
Dimension
370
              -2
390
0
 62
               0
100
AcDbTrace
 10
19.332841599999995
 20
-137.29271739999999
 30
0.0
 11
20.391173874999993
 21
-137.00913812158996
 31
0.0
 12
20.391173874999993
 22
-137.57629667841005
 32
0.0
 13
20.391173874999993
 23
-137.57629667841005
 33
0.0
  0
LINE
  5
C6
100
AcDbEntity
  8
Dimension
370
              -2
390
0
  6
Continuous
 62
               0
100
AcDbLine
 10
18.082841599999995
 20
-137.29271739999999
 30
0.0
 11
15.101741599999995
 21
-137.29271739999999
 31
0.0
  0
SOLID
  5
C7
100
AcDbEntity
  8
Dimension
370
              -2
390
0
 62
               0
100
AcDbTrace
 10
18.082841599999995
 20
-137.29271739999999
 30
0.0
 11
17.024509324999997
 21
-137.57629667841005
 31
0.0
 12
17.024509324999997
 22
-137.00913812158996
 32
0.0
 13
17.024509324999997
 23
-137.00913812158996
 33
0.0
  0
WIPEOUT
  5
C8
100
AcDbEntity
  8
Dimension
370
              -2
390
0
  6
Continuous
 62
               0
 92
        0
100
AcDbWipeout
 90
        0
 10
5.0052694557700299
 20
44.439723158124991
 30
0.0
 11
3.8523212091904639
 21
0.0
 31
0.0
 12
0.0
 22
3.8523212091904639
 32
0.0
 13
1.0
 23
1.0
340
0
 70
               7
280
               1
281
              50
282
              50
283
               0
360
0
 71
               2
 91
        5
 14
-0.5
 24
47.832755785003073
 14
0.5
 24
47.832755785003073
 14
0.5
 24
47.516821719822737
 14
-0.5
 24
47.516821719822737
 14
-0.5
 24
47.832755785003073
  0
MTEXT
  5
C9
100
AcDbEntity
  8
Dimension
390
0
 62
               0
100
AcDbMText
 10
5.0052694557700299
 20
-136.87875472208333
 30
0.0
 40
0.7579186197916666
 41
0.0
 71
               1
 72
               1
  1
1.25mm
  7
Helvetica
 73
               1
 44
0.9673603504928808
  0
WIPEOUT
  5
CA
100
AcDbEntity
  8
Dimension
370
              -2
390
0
  6
Continuous
 62
               0
 92
        0
100
AcDbWipeout
 90
        0
 10
8.8575906649604939
 20
44.439722020624991
 30
0.0
 11
4.4344027044173249
 21
0.0
 31
0.0
 12
0.0
 22
4.4344027044173249
 32
0.0
 13
1.0
 23
1.0
340
0
 70
               7
280
               1
281
              50
282
              50
283
               0
360
0
 71
               2
 91
        5
 14
-0.5
 24
41.619625607832425
 14
0.5
 24
41.619625607832425
 14
0.5
 24
41.345162600945926
 14
-0.5
 24
41.345162600945926
 14
-0.5
 24
41.619625607832425
  0
MTEXT
  5
CB
100
AcDbEntity
  8
Dimension
390
0
 62
               0
100
AcDbMText
 10
8.8575906649604939
 20
-136.87875585958332
 30
0.0
 40
0.7579186197916666
 41
0.0
 71
               1
 72
               1
  1
±0.13mm
  7
Helvetica
 73
               1
 44
0.9673603504928808
  0
WIPEOUT
  5
CC
100
AcDbEntity
  8
Dimension
370
              -2
390
0
  6
Continuous
 62
               0
 92
        0
100
AcDbWipeout
 90
        0
 10
13.29199336937782
 20
44.439720541874991
 30
0.0
 11
1.8097482306221728
 21
0.0
 31
0.0
 12
0.0
 22
1.8097482306221728
 32
0.0
 13
1.0
 23
1.0
340
0
 70
               7
280
               1
281
              50
282
              50
283
               0
360
0
 71
               2
 91
        5
 14
-0.5
 24
101.25488729021332
 14
0.5
 24
101.25488729021332
 14
0.5
 24
100.58237268533284
 14
-0.5
 24
100.58237268533284
 14
-0.5
 24
101.25488729021332
  0
MTEXT
  5
CD
100
AcDbEntity
  8
Dimension
390
0
 62
               0
100
AcDbMText
 10
13.29199336937782
 20
-136.87875514035156
 30
0.0
 40
0.7579202490234376
 41
0.0
 71
               1
 72
               1
  1
(x4)
  7
Helvetica
 73
               1
 44
0.9673603504928806
  0
POINT
  5
CE
100
AcDbEntity
  8
Defpoints
370
               0
390
0
 62
               0
100
AcDbPoint
 10
18.082841599999995
 20
-142.54021739999999
 30
0.0
  0
POINT
  5
CF
100
AcDbEntity
  8
Defpoints
370
               0
390
0
 62
               0
100
AcDbPoint
 10
19.332841599999995
 20
-143.79021739999999
 30
0.0
  0
POINT
  5
D0
100
AcDbEntity
  8
Defpoints
370
               0
390
0
 62
               0
100
AcDbPoint
 10
19.332841599999995
 20
-137.29271739999999
 30
0.0
  0
ENDBLK
  5
D1
100
AcDbEntity
  8
Dimension
390
0
100
AcDbBlockEnd
  0
BLOCK
  5
D2
100
AcDbEntity
  8
Dimension
390
0
100
AcDbBlockBegin
  2
*D12
 70
               1
 10
0.0
 20
0.0
 30
0.0
  3
*D12
  1

  0
LINE
  5
D3
100
AcDbEntity
  8
Dimension
370
              -2
390
0
  6
Continuous
 62
               0
100
AcDbLine
 10
17.447842233422957
 20
-142.54021739999999
 30
0.0
 11
6.3378428668459215
 21
-142.54021739999999
 31
0.0
  0
LINE
  5
D4
100
AcDbEntity
  8
Dimension
370
              -2
390
0
  6
Continuous
 62
               0
100
AcDbLine
 10
18.697842233422953
 20
-143.79021739999999
 30
0.0
 11
6.3378428668459215
 21
-143.79021739999999
 31
0.0
  0
LINE
  5
D5
100
AcDbEntity
  8
Dimension
370
              -2
390
0
  6
Continuous
 62
               0
100
AcDbLine
 10
7.6078415999999969
 20
-143.79021739999999
 30
0.0
 11
7.6078415999999969
 21
-142.54021739999999
 31
0.0
  0
LINE
  5
D6
100
AcDbEntity
  8
Dimension
370
              -2
390
0
  6
Continuous
 62
               0
100
AcDbLine
 10
7.6078415999999969
 20
-142.54021739999999
 30
0.0
 11
7.6078415999999969
 21
-139.79271739999999
 31
0.0
  0
SOLID
  5
D7
100
AcDbEntity
  8
Dimension
370
              -2
390
0
 62
               0
100
AcDbTrace
 10
7.6078415999999969
 20
-142.54021739999999
 30
0.0
 11
7.3242623215899556
 21
-141.48188512499999
 31
0.0
 12
7.8914208784100381
 22
-141.48188512499999
 32
0.0
 13
7.8914208784100381
 23
-141.48188512499999
 33
0.0
  0
LINE
  5
D8
100
AcDbEntity
  8
Dimension
370
              -2
390
0
  6
Continuous
 62
               0
100
AcDbLine
 10
7.6078415999999969
 20
-143.79021739999999
 30
0.0
 11
7.6078415999999969
 21
-146.12354373116042
 31
0.0
  0
SOLID
  5
D9
100
AcDbEntity
  8
Dimension
370
              -2
390
0
 62
               0
100
AcDbTrace
 10
7.6078415999999969
 20
-143.79021739999999
 30
0.0
 11
7.8914208784100381
 21
-144.84854967499999
 31
0.0
 12
7.3242623215899556
 22
-144.84854967499999
 32
0.0
 13
7.3242623215899556
 23
-144.84854967499999
 33
0.0
  0
WIPEOUT
  5
DA
100
AcDbEntity
  8
Dimension
370
              -2
390
0
  6
Continuous
 62
               0
 92
        0
100
AcDbWipeout
 90
        0
 10
2.5596055278850152
 20
41.939723158124991
 30
0.0
 11
3.8523212091904639
 21
0.0
 31
0.0
 12
0.0
 22
3.8523212091904639
 32
0.0
 13
1.0
 23
1.0
340
0
 70
               7
280
               1
281
              50
282
              50
283
               0
360
0
 71
               2
 91
        5
 14
-0.5
 24
47.832755785003073
 14
0.5
 24
47.832755785003073
 14
0.5
 24
47.516821719822737
 14
-0.5
 24
47.516821719822737
 14
-0.5
 24
47.832755785003073
  0
MTEXT
  5
DB
100
AcDbEntity
  8
Dimension
390
0
 62
               0
100
AcDbMText
 10
2.5596055278850152
 20
-139.37875472208333
 30
0.0
 40
0.7579186197916666
 41
0.0
 71
               1
 72
               1
  1
1.25mm
  7
Helvetica
 73
               1
 44
0.9673603504928808
  0
WIPEOUT
  5
DC
100
AcDbEntity
  8
Dimension
370
              -2
390
0
  6
Continuous
 62
               0
 92
        0
100
AcDbWipeout
 90
        0
 10
6.4119267370754791
 20
41.939722020624991
 30
0.0
 11
4.4344027044173231
 21
0.0
 31
0.0
 12
0.0
 22
4.4344027044173231
 32
0.0
 13
1.0
 23
1.0
340
0
 70
               7
280
               1
281
              50
282
              50
283
               0
360
0
 71
               2
 91
        5
 14
-0.5
 24
41.619625607832447
 14
0.5
 24
41.619625607832447
 14
0.5
 24
41.34516260094594
 14
-0.5
 24
41.34516260094594
 14
-0.5
 24
41.619625607832447
  0
MTEXT
  5
DD
100
AcDbEntity
  8
Dimension
390
0
 62
               0
100
AcDbMText
 10
6.4119267370754791
 20
-139.37875585958332
 30
0.0
 40
0.7579186197916666
 41
0.0
 71
               1
 72
               1
  1
±0.13mm
  7
Helvetica
 73
               1
 44
0.9673603504928808
  0
WIPEOUT
  5
DE
100
AcDbEntity
  8
Dimension
370
              -2
390
0
  6
Continuous
 62
               0
 92
        0
100
AcDbWipeout
 90
        0
 10
10.846329441492806
 20
41.939720541874991
 30
0.0
 11
1.8097482306221728
 21
0.0
 31
0.0
 12
0.0
 22
1.8097482306221728
 32
0.0
 13
1.0
 23
1.0
340
0
 70
               7
280
               1
281
              50
282
              50
283
               0
360
0
 71
               2
 91
        5
 14
-0.5
 24
101.25488729021332
 14
0.5
 24
101.25488729021332
 14
0.5
 24
100.58237268533284
 14
-0.5
 24
100.58237268533284
 14
-0.5
 24
101.25488729021332
  0
MTEXT
  5
DF
100
AcDbEntity
  8
Dimension
390
0
 62
               0
100
AcDbMText
 10
10.846329441492806
 20
-139.37875514035156
 30
0.0
 40
0.7579202490234376
 41
0.0
 71
               1
 72
               1
  1
(x4)
  7
Helvetica
 73
               1
 44
0.9673603504928806
  0
POINT
  5
E0
100
AcDbEntity
  8
Defpoints
370
               0
390
0
 62
               0
100
AcDbPoint
 10
19.332841599999995
 20
-143.79021739999999
 30
0.0
  0
POINT
  5
E1
100
AcDbEntity
  8
Defpoints
370
               0
390
0
 62
               0
100
AcDbPoint
 10
18.082841599999995
 20
-142.54021739999999
 30
0.0
  0
POINT
  5
E2
100
AcDbEntity
  8
Defpoints
370
               0
390
0
 62
               0
100
AcDbPoint
 10
7.6078415999999969
 20
-142.54021739999999
 30
0.0
  0
ENDBLK
  5
E3
100
AcDbEntity
  8
Dimension
390
0
100
AcDbBlockEnd
  0
BLOCK
  5
E4
100
AcDbEntity
  8
Dimension
390
0
100
AcDbBlockBegin
  2
*D13
 70
               1
 10
0.0
 20
0.0
 30
0.0
  3
*D13
  1

  0
LINE
  5
E5
100
AcDbEntity
  8
Dimension
370
              -2
390
0
  6
Continuous
 62
               0
100
AcDbLine
 10
18.697842233422953
 20
-157.51521739999998
 30
0.0
 11
13.030002866845919
 21
-157.51521739999998
 31
0.0
  0
LINE
  5
E6
100
AcDbEntity
  8
Dimension
370
              -2
390
0
  6
Continuous
 62
               0
100
AcDbLine
 10
18.697842233422953
 20
-152.4352174
 30
0.0
 11
13.030002866845919
 21
-152.4352174
 31
0.0
  0
LINE
  5
E7
100
AcDbEntity
  8
Dimension
370
              -2
390
0
  6
Continuous
 62
               0
100
AcDbLine
 10
14.300001599999995
 20
-152.4352174
 30
0.0
 11
14.300001599999995
 21
-157.51521739999998
 31
0.0
  0
LINE
  5
E8
100
AcDbEntity
  8
Dimension
370
              -2
390
0
  6
Continuous
 62
               0
100
AcDbLine
 10
14.300001599999995
 20
-157.51521739999998
 30
0.0
 11
14.300001599999995
 21
-159.84854373116042
 31
0.0
  0
SOLID
  5
E9
100
AcDbEntity
  8
Dimension
370
              -2
390
0
 62
               0
100
AcDbTrace
 10
14.300001599999995
 20
-157.51521739999998
 30
0.0
 11
14.583580878410038
 21
-158.57354967499998
 31
0.0
 12
14.016422321589951
 22
-158.57354967499998
 32
0.0
 13
14.016422321589951
 23
-158.57354967499998
 33
0.0
  0
LINE
  5
EA
100
AcDbEntity
  8
Dimension
370
              -2
390
0
  6
Continuous
 62
               0
100
AcDbLine
 10
14.300001599999995
 20
-152.4352174
 30
0.0
 11
14.300001599999995
 21
-150.10189106883956
 31
0.0
  0
SOLID
  5
EB
100
AcDbEntity
  8
Dimension
370
              -2
390
0
 62
               0
100
AcDbTrace
 10
14.300001599999995
 20
-152.4352174
 30
0.0
 11
14.016422321589951
 21
-151.376885125
 31
0.0
 12
14.583580878410038
 22
-151.376885125
 32
0.0
 13
14.583580878410038
 23
-151.376885125
 33
0.0
  0
WIPEOUT
  5
EC
100
AcDbEntity
  8
Dimension
370
              -2
390
0
  6
Continuous
 62
               0
 92
        0
100
AcDbWipeout
 90
        0
 10
12.373840995404763
 20
27.032398851953118
 30
0.0
 11
3.8523212091904639
 21
0.0
 31
0.0
 12
0.0
 22
3.8523212091904639
 32
0.0
 13
1.0
 23
1.0
340
0
 70
               7
280
               1
281
              50
282
              50
283
               0
360
0
 71
               2
 91
        5
 14
-0.5
 24
47.83275578500308
 14
0.5
 24
47.83275578500308
 14
0.5
 24
47.516821719822737
 14
-0.5
 24
47.516821719822737
 14
-0.5
 24
47.83275578500308
  0
MTEXT
  5
ED
100
AcDbEntity
  8
Dimension
390
0
 62
               0
100
AcDbMText
 10
12.373840995404763
 20
-154.28607902825519
 30
0.0
 40
0.7579186197916666
 41
0.0
 71
               1
 72
               1
  1
5.08mm
  7
Helvetica
 73
               1
 44
0.9673603504928808
  0
POINT
  5
EE
100
AcDbEntity
  8
Defpoints
370
               0
390
0
 62
               0
100
AcDbPoint
 10
19.332841599999995
 20
-152.4352174
 30
0.0
  0
POINT
  5
EF
100
AcDbEntity
  8
Defpoints
370
               0
390
0
 62
               0
100
AcDbPoint
 10
19.332841599999995
 20
-157.51521739999998
 30
0.0
  0
POINT
  5
F0
100
AcDbEntity
  8
Defpoints
370
               0
390
0
 62
               0
100
AcDbPoint
 10
14.300001599999995
 20
-157.51521739999998
 30
0.0
  0
ENDBLK
  5
F1
100
AcDbEntity
  8
Dimension
390
0
100
AcDbBlockEnd
  0
BLOCK
  5
F2
100
AcDbEntity
  8
Dimension
390
0
100
AcDbBlockBegin
  2
*D14
 70
               1
 10
0.0
 20
0.0
 30
0.0
  3
*D14
  1

  0
LINE
  5
F3
100
AcDbEntity
  8
Dimension
370
              -2
390
0
  6
Continuous
 62
               0
100
AcDbLine
 10
33.69284096657703
 20
-143.79021739999999
 30
0.0
 11
39.670000333154064
 21
-143.79021739999999
 31
0.0
  0
LINE
  5
F4
100
AcDbEntity
  8
Dimension
370
              -2
390
0
  6
Continuous
 62
               0
100
AcDbLine
 10
33.69284096657703
 20
-146.33021739999998
 30
0.0
 11
39.670000333154064
 21
-146.33021739999998
 31
0.0
  0
LINE
  5
F5
100
AcDbEntity
  8
Dimension
370
              -2
390
0
  6
Continuous
 62
               0
100
AcDbLine
 10
38.400001599999996
 20
-146.33021739999998
 30
0.0
 11
38.400001599999996
 21
-143.79021739999999
 31
0.0
  0
LINE
  5
F6
100
AcDbEntity
  8
Dimension
370
              -2
390
0
  6
Continuous
 62
               0
100
AcDbLine
 10
38.400001599999996
 20
-143.79021739999999
 30
0.0
 11
38.400001599999996
 21
-141.45689106883958
 31
0.0
  0
SOLID
  5
F7
100
AcDbEntity
  8
Dimension
370
              -2
390
0
 62
               0
100
AcDbTrace
 10
38.400001599999996
 20
-143.79021739999999
 30
0.0
 11
38.116422321589951
 21
-142.73188512499999
 31
0.0
 12
38.683580878410034
 22
-142.73188512499999
 32
0.0
 13
38.683580878410034
 23
-142.73188512499999
 33
0.0
  0
LINE
  5
F8
100
AcDbEntity
  8
Dimension
370
              -2
390
0
  6
Continuous
 62
               0
100
AcDbLine
 10
38.400001599999996
 20
-146.33021739999998
 30
0.0
 11
38.400001599999996
 21
-148.66354373116042
 31
0.0
  0
SOLID
  5
F9
100
AcDbEntity
  8
Dimension
370
              -2
390
0
 62
               0
100
AcDbTrace
 10
38.400001599999996
 20
-146.33021739999998
 30
0.0
 11
38.683580878410034
 21
-147.38854967499998
 31
0.0
 12
38.116422321589951
 22
-147.38854967499998
 32
0.0
 13
38.116422321589951
 23
-147.38854967499998
 33
0.0
  0
WIPEOUT
  5
FA
100
AcDbEntity
  8
Dimension
370
              -2
390
0
  6
Continuous
 62
               0
 92
        0
100
AcDbWipeout
 90
        0
 10
36.473840995404757
 20
36.632418078027335
 30
0.0
 11
3.8523212091904639
 21
0.0
 31
0.0
 12
0.0
 22
3.8523212091904639
 32
0.0
 13
1.0
 23
1.0
340
0
 70
               7
280
               1
281
              50
282
              50
283
               0
360
0
 71
               2
 91
        5
 14
-0.5
 24
47.83275578500308
 14
0.5
 24
47.83275578500308
 14
0.5
 24
47.516821719822737
 14
-0.5
 24
47.516821719822737
 14
-0.5
 24
47.83275578500308
  0
MTEXT
  5
FB
100
AcDbEntity
  8
Dimension
390
0
 62
               0
100
AcDbMText
 10
36.473840995404757
 20
-144.68605980218098
 30
0.0
 40
0.7579186197916666
 41
0.0
 71
               1
 72
               1
  1
2.54mm
  7
Helvetica
 73
               1
 44
0.9673603504928808
  0
POINT
  5
FC
100
AcDbEntity
  8
Defpoints
370
               0
390
0
 62
               0
100
AcDbPoint
 10
33.057841599999989
 20
-146.33021739999998
 30
0.0
  0
POINT
  5
FD
100
AcDbEntity
  8
Defpoints
370
               0
390
0
 62
               0
100
AcDbPoint
 10
33.057841599999989
 20
-143.79021739999999
 30
0.0
  0
POINT
  5
FE
100
AcDbEntity
  8
Defpoints
370
               0
390
0
 62
               0
100
AcDbPoint
 10
38.400001599999996
 20
-143.79021739999999
 30
0.0
  0
ENDBLK
  5
FF
100
AcDbEntity
  8
Dimension
390
0
100
AcDbBlockEnd
  0
BLOCK
  5
100
100
AcDbEntity
  8
Dimension
390
0
100
AcDbBlockBegin
  2
*D15
 70
               1
 10
0.0
 20
0.0
 30
0.0
  3
*D15
  1

  0
LINE
  5
101
100
AcDbEntity
  8
Dimension
370
              -2
390
0
  6
Continuous
 62
               0
100
AcDbLine
 10
18.082841599999995
 20
-159.40021676657702
 30
0.0
 11
18.082841599999995
 21
-166.17000613315406
 31
0.0
  0
LINE
  5
102
100
AcDbEntity
  8
Dimension
370
              -2
390
0
  6
Continuous
 62
               0
100
AcDbLine
 10
34.307841599999989
 20
-159.40021676657702
 30
0.0
 11
34.307841599999989
 21
-166.17000613315406
 31
0.0
  0
LINE
  5
103
100
AcDbEntity
  8
Dimension
370
              -2
390
0
  6
Continuous
 62
               0
100
AcDbLine
 10
34.307841599999989
 20
-164.90000739999999
 30
0.0
 11
18.082841599999995
 21
-164.90000739999999
 31
0.0
  0
LINE
  5
104
100
AcDbEntity
  8
Dimension
370
              -2
390
0
  6
Continuous
 62
               0
100
AcDbLine
 10
18.082841599999995
 20
-164.90000739999999
 30
0.0
 11
15.749515268839568
 21
-164.90000739999999
 31
0.0
  0
SOLID
  5
105
100
AcDbEntity
  8
Dimension
370
              -2
390
0
 62
               0
100
AcDbTrace
 10
18.082841599999995
 20
-164.90000739999999
 30
0.0
 11
17.024509324999997
 21
-165.18358667841002
 31
0.0
 12
17.024509324999997
 22
-164.61642812158996
 32
0.0
 13
17.024509324999997
 23
-164.61642812158996
 33
0.0
  0
LINE
  5
106
100
AcDbEntity
  8
Dimension
370
              -2
390
0
  6
Continuous
 62
               0
100
AcDbLine
 10
34.307841599999989
 20
-164.90000739999999
 30
0.0
 11
36.641167931160417
 21
-164.90000739999999
 31
0.0
  0
SOLID
  5
107
100
AcDbEntity
  8
Dimension
370
              -2
390
0
 62
               0
100
AcDbTrace
 10
34.307841599999989
 20
-164.90000739999999
 30
0.0
 11
35.366173874999994
 21
-164.61642812158996
 31
0.0
 12
35.366173874999994
 22
-165.18358667841002
 32
0.0
 13
35.366173874999994
 23
-165.18358667841002
 33
0.0
  0
WIPEOUT
  5
108
100
AcDbEntity
  8
Dimension
370
              -2
390
0
  6
Continuous
 62
               0
 92
        0
100
AcDbWipeout
 90
        0
 10
20.10994178466262
 20
16.832433158124992
 30
0.0
 11
5.0376508810305607
 21
0.0
 31
0.0
 12
0.0
 22
5.0376508810305607
 32
0.0
 13
1.0
 23
1.0
340
0
 70
               7
280
               1
281
              50
282
              50
283
               0
360
0
 71
               2
 91
        5
 14
-0.5
 24
36.695636280912382
 14
0.5000000000000002
 24
36.695636280912382
 14
0.5000000000000002
 24
36.454039646142995
 14
-0.5
 24
36.454039646142995
 14
-0.5
 24
36.695636280912382
  0
MTEXT
  5
109
100
AcDbEntity
  8
Dimension
390
0
 62
               0
100
AcDbMText
 10
20.10994178466262
 20
-164.48604472208334
 30
0.0
 40
0.7579186197916666
 41
0.0
 71
               1
 72
               1
  1
16.225mm
  7
Helvetica
 73
               1
 44
0.9673603504928808
  0
WIPEOUT
  5
10A
100
AcDbEntity
  8
Dimension
370
              -2
390
0
  6
Continuous
 62
               0
 92
        0
100
AcDbWipeout
 90
        0
 10
25.147592665693182
 20
16.832432020624992
 30
0.0
 11
5.0270675403373728
 21
0.0
 31
0.0
 12
0.0
 22
5.0270675403373728
 32
0.0
 13
1.0
 23
1.0
340
0
 70
               7
280
               1
281
              50
282
              50
283
               0
360
0
 71
               2
 91
        5
 14
-0.5
 24
36.771837912836723
 14
0.4999999999999994
 24
36.771837912836723
 14
0.4999999999999994
 24
36.529732651621494
 14
-0.5
 24
36.529732651621494
 14
-0.5
 24
36.771837912836723
  0
MTEXT
  5
10B
100
AcDbEntity
  8
Dimension
390
0
 62
               0
100
AcDbMText
 10
25.147592665693182
 20
-164.48604585958333
 30
0.0
 40
0.7579186197916666
 41
0.0
 71
               1
 72
               1
  1
±0.125mm
  7
Helvetica
 73
               1
 44
0.9673603504928808
  0
WIPEOUT
  5
10C
100
AcDbEntity
  8
Dimension
370
              -2
390
0
  6
Continuous
 62
               0
 92
        0
100
AcDbWipeout
 90
        0
 10
30.174660206030552
 20
16.832430541874995
 30
0.0
 11
2.1060812093068133
 21
0.0
 31
0.0
 12
0.0
 22
2.1060812093068133
 32
0.0
 13
1.0
 23
1.0
340
0
 70
               7
280
               1
281
              50
282
              50
283
               0
360
0
 71
               2
 91
        5
 14
-0.5
 24
87.078322903329521
 14
0.5000000000000009
 24
87.078322903329521
 14
0.5000000000000009
 24
86.500433451169883
 14
-0.5
 24
86.500433451169883
 14
-0.5
 24
87.078322903329521
  0
MTEXT
  5
10D
100
AcDbEntity
  8
Dimension
390
0
 62
               0
100
AcDbMText
 10
30.174660206030552
 20
-164.48604514035156
 30
0.0
 40
0.7579202490234376
 41
0.0
 71
               1
 72
               1
  1
 (x4)
  7
Helvetica
 73
               1
 44
0.9673603504928806
  0
POINT
  5
10E
100
AcDbEntity
  8
Defpoints
370
               0
390
0
 62
               0
100
AcDbPoint
 10
34.307841599999989
 20
-158.76521739999998
 30
0.0
  0
POINT
  5
10F
100
AcDbEntity
  8
Defpoints
370
               0
390
0
 62
               0
100
AcDbPoint
 10
18.082841599999995
 20
-158.76521739999998
 30
0.0
  0
POINT
  5
110
100
AcDbEntity
  8
Defpoints
370
               0
390
0
 62
               0
100
AcDbPoint
 10
18.082841599999995
 20
-164.90000739999999
 30
0.0
  0
ENDBLK
  5
111
100
AcDbEntity
  8
Dimension
390
0
100
AcDbBlockEnd
  0
BLOCK
  5
112
100
AcDbEntity
  8
Dimension
390
0
100
AcDbBlockBegin
  2
*D16
 70
               1
 10
0.0
 20
0.0
 30
0.0
  3
*D16
  1

  0
LINE
  5
113
100
AcDbEntity
  8
Dimension
370
              -2
390
0
  6
Continuous
 62
               0
100
AcDbLine
 10
19.332841599999995
 20
-158.15021676657702
 30
0.0
 11
19.332841599999995
 21
-162.87000613315408
 31
0.0
  0
LINE
  5
114
100
AcDbEntity
  8
Dimension
370
              -2
390
0
  6
Continuous
 62
               0
100
AcDbLine
 10
33.057841599999989
 20
-158.15021676657702
 30
0.0
 11
33.057841599999989
 21
-162.87000613315408
 31
0.0
  0
LINE
  5
115
100
AcDbEntity
  8
Dimension
370
              -2
390
0
  6
Continuous
 62
               0
100
AcDbLine
 10
19.332841599999995
 20
-161.60000739999998
 30
0.0
 11
33.057841599999989
 21
-161.60000739999998
 31
0.0
  0
SOLID
  5
116
100
AcDbEntity
  8
Dimension
370
              -2
390
0
 62
               0
100
AcDbTrace
 10
19.332841599999995
 20
-161.60000739999998
 30
0.0
 11
20.391173874999993
 21
-161.31642812158995
 31
0.0
 12
20.391173874999993
 22
-161.88358667841004
 32
0.0
 13
20.391173874999993
 23
-161.88358667841004
 33
0.0
  0
SOLID
  5
117
100
AcDbEntity
  8
Dimension
370
              -2
390
0
 62
               0
100
AcDbTrace
 10
33.057841599999989
 20
-161.60000739999998
 30
0.0
 11
31.999509324999991
 21
-161.88358667841004
 31
0.0
 12
31.999509324999991
 22
-161.31642812158995
 32
0.0
 13
31.999509324999991
 23
-161.31642812158995
 33
0.0
  0
WIPEOUT
  5
118
100
AcDbEntity
  8
Dimension
370
              -2
390
0
  6
Continuous
 62
               0
 92
        0
100
AcDbWipeout
 90
        0
 10
22.62347779772977
 20
20.132431849999993
 30
0.0
 11
7.1437276045404445
 21
0.0
 31
0.0
 12
0.0
 22
7.1437276045404445
 32
0.0
 13
1.0
 23
1.0
340
0
 70
               7
280
               1
281
              50
282
              50
283
               0
360
0
 71
               2
 91
        5
 14
-0.5
 24
26.024626510689856
 14
0.5
 24
26.024626510689856
 14
0.5
 24
25.85425614281267
 14
-0.5
 24
25.85425614281267
 14
-0.5
 24
26.024626510689856
  0
MTEXT
  5
119
100
AcDbEntity
  8
Dimension
390
0
 62
               0
100
AcDbMText
 10
22.62347779772977
 20
-161.18604603020833
 30
0.0
 40
0.7579186197916666
 41
0.0
 71
               1
 72
               1
  1
13.725mm (x4)
  7
Helvetica
 73
               1
 44
0.9673603504928808
  0
POINT
  5
11A
100
AcDbEntity
  8
Defpoints
370
               0
390
0
 62
               0
100
AcDbPoint
 10
33.057841599999989
 20
-157.51521739999998
 30
0.0
  0
POINT
  5
11B
100
AcDbEntity
  8
Defpoints
370
               0
390
0
 62
               0
100
AcDbPoint
 10
19.332841599999995
 20
-157.51521739999998
 30
0.0
  0
POINT
  5
11C
100
AcDbEntity
  8
Defpoints
370
               0
390
0
 62
               0
100
AcDbPoint
 10
19.332841599999995
 20
-161.60000739999998
 30
0.0
  0
ENDBLK
  5
11D
100
AcDbEntity
  8
Dimension
390
0
100
AcDbBlockEnd
  0
BLOCK
  5
11E
100
AcDbEntity
  8
None
390
0
100
AcDbBlockBegin
  2
Group-5
 70
               0
 10
0.0
 20
0.0
 30
0.0
  3
Group-5
  1

  0
CIRCLE
  5
11F
102
{ACAD_REACTORS
330
120
102
}
100
AcDbEntity
  8
None
370
               9
390
0
  6
Continuous
 62
               7
100
AcDbCircle
 10
-5.0940699999999364
 20
9.6238499999999974
 30
0.0
 40
0.2100000000000007
  0
HATCH
  5
120
100
AcDbEntity
  8
None
370
               0
390
0
  6
Continuous
 62
               7
100
AcDbHatch
 10
0.0
 20
0.0
 30
0.0
210
0.0
220
0.0
230
1.0
  2
SOLID
 70
               1
 71
               1
 91
        1
 92
        1
 93
        1
 72
               2
 10
-5.0940699999999364
 20
9.6238499999999974
 40
0.2100000000000007
 50
0.0
 51
360.0
 73
               0
 97
        1
330
11F
 75
               0
 76
               1
 98
        1
 10
0.0
 20
0.0
  0
CIRCLE
  5
121
102
{ACAD_REACTORS
330
122
102
}
100
AcDbEntity
  8
None
370
               9
390
0
  6
Continuous
 62
               7
100
AcDbCircle
 10
-4.2940699999999365
 20
9.6238499999999974
 30
0.0
 40
0.2100000000000007
  0
HATCH
  5
122
100
AcDbEntity
  8
None
370
               0
390
0
  6
Continuous
 62
               7
100
AcDbHatch
 10
0.0
 20
0.0
 30
0.0
210
0.0
220
0.0
230
1.0
  2
SOLID
 70
               1
 71
               1
 91
        1
 92
        1
 93
        1
 72
               2
 10
-4.2940699999999365
 20
9.6238499999999974
 40
0.2100000000000007
 50
0.0
 51
360.0
 73
               0
 97
        1
330
121
 75
               0
 76
               1
 98
        1
 10
0.0
 20
0.0
  0
CIRCLE
  5
123
102
{ACAD_REACTORS
330
124
102
}
100
AcDbEntity
  8
None
370
               9
390
0
  6
Continuous
 62
               7
100
AcDbCircle
 10
-3.4940699999999363
 20
9.6238499999999974
 30
0.0
 40
0.2100000000000007
  0
HATCH
  5
124
100
AcDbEntity
  8
None
370
               0
390
0
  6
Continuous
 62
               7
100
AcDbHatch
 10
0.0
 20
0.0
 30
0.0
210
0.0
220
0.0
230
1.0
  2
SOLID
 70
               1
 71
               1
 91
        1
 92
        1
 93
        1
 72
               2
 10
-3.4940699999999363
 20
9.6238499999999974
 40
0.2100000000000007
 50
0.0
 51
360.0
 73
               0
 97
        1
330
123
 75
               0
 76
               1
 98
        1
 10
0.0
 20
0.0
  0
CIRCLE
  5
125
102
{ACAD_REACTORS
330
126
102
}
100
AcDbEntity
  8
None
370
               9
390
0
  6
Continuous
 62
               7
100
AcDbCircle
 10
-2.694069999999936
 20
9.6238499999999974
 30
0.0
 40
0.2100000000000007
  0
HATCH
  5
126
100
AcDbEntity
  8
None
370
               0
390
0
  6
Continuous
 62
               7
100
AcDbHatch
 10
0.0
 20
0.0
 30
0.0
210
0.0
220
0.0
230
1.0
  2
SOLID
 70
               1
 71
               1
 91
        1
 92
        1
 93
        1
 72
               2
 10
-2.694069999999936
 20
9.6238499999999974
 40
0.2100000000000007
 50
0.0
 51
360.0
 73
               0
 97
        1
330
125
 75
               0
 76
               1
 98
        1
 10
0.0
 20
0.0
  0
CIRCLE
  5
127
102
{ACAD_REACTORS
330
128
102
}
100
AcDbEntity
  8
None
370
               9
390
0
  6
Continuous
 62
               7
100
AcDbCircle
 10
-1.8940699999999362
 20
9.6238499999999974
 30
0.0
 40
0.2100000000000007
  0
HATCH
  5
128
100
AcDbEntity
  8
None
370
               0
390
0
  6
Continuous
 62
               7
100
AcDbHatch
 10
0.0
 20
0.0
 30
0.0
210
0.0
220
0.0
230
1.0
  2
SOLID
 70
               1
 71
               1
 91
        1
 92
        1
 93
        1
 72
               2
 10
-1.8940699999999362
 20
9.6238499999999974
 40
0.2100000000000007
 50
0.0
 51
360.0
 73
               0
 97
        1
330
127
 75
               0
 76
               1
 98
        1
 10
0.0
 20
0.0
  0
CIRCLE
  5
129
102
{ACAD_REACTORS
330
12A
102
}
100
AcDbEntity
  8
None
370
               9
390
0
  6
Continuous
 62
               7
100
AcDbCircle
 10
-1.0940699999999364
 20
9.6238499999999974
 30
0.0
 40
0.2100000000000007
  0
HATCH
  5
12A
100
AcDbEntity
  8
None
370
               0
390
0
  6
Continuous
 62
               7
100
AcDbHatch
 10
0.0
 20
0.0
 30
0.0
210
0.0
220
0.0
230
1.0
  2
SOLID
 70
               1
 71
               1
 91
        1
 92
        1
 93
        1
 72
               2
 10
-1.0940699999999364
 20
9.6238499999999974
 40
0.2100000000000007
 50
0.0
 51
360.0
 73
               0
 97
        1
330
129
 75
               0
 76
               1
 98
        1
 10
0.0
 20
0.0
  0
CIRCLE
  5
12B
102
{ACAD_REACTORS
330
12C
102
}
100
AcDbEntity
  8
None
370
               9
390
0
  6
Continuous
 62
               7
100
AcDbCircle
 10
-0.2940699999999366
 20
9.6238499999999974
 30
0.0
 40
0.2100000000000007
  0
HATCH
  5
12C
100
AcDbEntity
  8
None
370
               0
390
0
  6
Continuous
 62
               7
100
AcDbHatch
 10
0.0
 20
0.0
 30
0.0
210
0.0
220
0.0
230
1.0
  2
SOLID
 70
               1
 71
               1
 91
        1
 92
        1
 93
        1
 72
               2
 10
-0.2940699999999366
 20
9.6238499999999974
 40
0.2100000000000007
 50
0.0
 51
360.0
 73
               0
 97
        1
330
12B
 75
               0
 76
               1
 98
        1
 10
0.0
 20
0.0
  0
CIRCLE
  5
12D
102
{ACAD_REACTORS
330
12E
102
}
100
AcDbEntity
  8
None
370
               9
390
0
  6
Continuous
 62
               7
100
AcDbCircle
 10
0.5059300000000633
 20
9.6238499999999974
 30
0.0
 40
0.2100000000000007
  0
HATCH
  5
12E
100
AcDbEntity
  8
None
370
               0
390
0
  6
Continuous
 62
               7
100
AcDbHatch
 10
0.0
 20
0.0
 30
0.0
210
0.0
220
0.0
230
1.0
  2
SOLID
 70
               1
 71
               1
 91
        1
 92
        1
 93
        1
 72
               2
 10
0.5059300000000633
 20
9.6238499999999974
 40
0.2100000000000007
 50
0.0
 51
360.0
 73
               0
 97
        1
330
12D
 75
               0
 76
               1
 98
        1
 10
0.0
 20
0.0
  0
CIRCLE
  5
12F
102
{ACAD_REACTORS
330
130
102
}
100
AcDbEntity
  8
None
370
               9
390
0
  6
Continuous
 62
               7
100
AcDbCircle
 10
1.3059300000000631
 20
9.6238499999999974
 30
0.0
 40
0.2100000000000007
  0
HATCH
  5
130
100
AcDbEntity
  8
None
370
               0
390
0
  6
Continuous
 62
               7
100
AcDbHatch
 10
0.0
 20
0.0
 30
0.0
210
0.0
220
0.0
230
1.0
  2
SOLID
 70
               1
 71
               1
 91
        1
 92
        1
 93
        1
 72
               2
 10
1.3059300000000631
 20
9.6238499999999974
 40
0.2100000000000007
 50
0.0
 51
360.0
 73
               0
 97
        1
330
12F
 75
               0
 76
               1
 98
        1
 10
0.0
 20
0.0
  0
CIRCLE
  5
131
102
{ACAD_REACTORS
330
132
102
}
100
AcDbEntity
  8
None
370
               9
390
0
  6
Continuous
 62
               7
100
AcDbCircle
 10
2.1059300000000629
 20
9.6238499999999974
 30
0.0
 40
0.2100000000000007
  0
HATCH
  5
132
100
AcDbEntity
  8
None
370
               0
390
0
  6
Continuous
 62
               7
100
AcDbHatch
 10
0.0
 20
0.0
 30
0.0
210
0.0
220
0.0
230
1.0
  2
SOLID
 70
               1
 71
               1
 91
        1
 92
        1
 93
        1
 72
               2
 10
2.1059300000000629
 20
9.6238499999999974
 40
0.2100000000000007
 50
0.0
 51
360.0
 73
               0
 97
        1
330
131
 75
               0
 76
               1
 98
        1
 10
0.0
 20
0.0
  0
CIRCLE
  5
133
102
{ACAD_REACTORS
330
134
102
}
100
AcDbEntity
  8
None
370
               9
390
0
  6
Continuous
 62
               7
100
AcDbCircle
 10
2.9059300000000627
 20
9.6238499999999974
 30
0.0
 40
0.2100000000000007
  0
HATCH
  5
134
100
AcDbEntity
  8
None
370
               0
390
0
  6
Continuous
 62
               7
100
AcDbHatch
 10
0.0
 20
0.0
 30
0.0
210
0.0
220
0.0
230
1.0
  2
SOLID
 70
               1
 71
               1
 91
        1
 92
        1
 93
        1
 72
               2
 10
2.9059300000000627
 20
9.6238499999999974
 40
0.2100000000000007
 50
0.0
 51
360.0
 73
               0
 97
        1
330
133
 75
               0
 76
               1
 98
        1
 10
0.0
 20
0.0
  0
CIRCLE
  5
135
102
{ACAD_REACTORS
330
136
102
}
100
AcDbEntity
  8
None
370
               9
390
0
  6
Continuous
 62
               7
100
AcDbCircle
 10
3.7059300000000626
 20
9.6238499999999974
 30
0.0
 40
0.2100000000000007
  0
HATCH
  5
136
100
AcDbEntity
  8
None
370
               0
390
0
  6
Continuous
 62
               7
100
AcDbHatch
 10
0.0
 20
0.0
 30
0.0
210
0.0
220
0.0
230
1.0
  2
SOLID
 70
               1
 71
               1
 91
        1
 92
        1
 93
        1
 72
               2
 10
3.7059300000000626
 20
9.6238499999999974
 40
0.2100000000000007
 50
0.0
 51
360.0
 73
               0
 97
        1
330
135
 75
               0
 76
               1
 98
        1
 10
0.0
 20
0.0
  0
CIRCLE
  5
137
102
{ACAD_REACTORS
330
138
102
}
100
AcDbEntity
  8
None
370
               9
390
0
  6
Continuous
 62
               7
100
AcDbCircle
 10
4.5059300000000633
 20
9.6238499999999974
 30
0.0
 40
0.2100000000000007
  0
HATCH
  5
138
100
AcDbEntity
  8
None
370
               0
390
0
  6
Continuous
 62
               7
100
AcDbHatch
 10
0.0
 20
0.0
 30
0.0
210
0.0
220
0.0
230
1.0
  2
SOLID
 70
               1
 71
               1
 91
        1
 92
        1
 93
        1
 72
               2
 10
4.5059300000000633
 20
9.6238499999999974
 40
0.2100000000000007
 50
0.0
 51
360.0
 73
               0
 97
        1
330
137
 75
               0
 76
               1
 98
        1
 10
0.0
 20
0.0
  0
CIRCLE
  5
139
102
{ACAD_REACTORS
330
13A
102
}
100
AcDbEntity
  8
None
370
               9
390
0
  6
Continuous
 62
               7
100
AcDbCircle
 10
-5.0940699999999364
 20
8.8238499999999966
 30
0.0
 40
0.2100000000000007
  0
HATCH
  5
13A
100
AcDbEntity
  8
None
370
               0
390
0
  6
Continuous
 62
               7
100
AcDbHatch
 10
0.0
 20
0.0
 30
0.0
210
0.0
220
0.0
230
1.0
  2
SOLID
 70
               1
 71
               1
 91
        1
 92
        1
 93
        1
 72
               2
 10
-5.0940699999999364
 20
8.8238499999999966
 40
0.2100000000000007
 50
0.0
 51
360.0
 73
               0
 97
        1
330
139
 75
               0
 76
               1
 98
        1
 10
0.0
 20
0.0
  0
CIRCLE
  5
13B
102
{ACAD_REACTORS
330
13C
102
}
100
AcDbEntity
  8
None
370
               9
390
0
  6
Continuous
 62
               7
100
AcDbCircle
 10
-4.2940699999999365
 20
8.8238499999999966
 30
0.0
 40
0.2100000000000007
  0
HATCH
  5
13C
100
AcDbEntity
  8
None
370
               0
390
0
  6
Continuous
 62
               7
100
AcDbHatch
 10
0.0
 20
0.0
 30
0.0
210
0.0
220
0.0
230
1.0
  2
SOLID
 70
               1
 71
               1
 91
        1
 92
        1
 93
        1
 72
               2
 10
-4.2940699999999365
 20
8.8238499999999966
 40
0.2100000000000007
 50
0.0
 51
360.0
 73
               0
 97
        1
330
13B
 75
               0
 76
               1
 98
        1
 10
0.0
 20
0.0
  0
CIRCLE
  5
13D
102
{ACAD_REACTORS
330
13E
102
}
100
AcDbEntity
  8
None
370
               9
390
0
  6
Continuous
 62
               7
100
AcDbCircle
 10
-3.4940699999999363
 20
8.8238499999999966
 30
0.0
 40
0.2100000000000007
  0
HATCH
  5
13E
100
AcDbEntity
  8
None
370
               0
390
0
  6
Continuous
 62
               7
100
AcDbHatch
 10
0.0
 20
0.0
 30
0.0
210
0.0
220
0.0
230
1.0
  2
SOLID
 70
               1
 71
               1
 91
        1
 92
        1
 93
        1
 72
               2
 10
-3.4940699999999363
 20
8.8238499999999966
 40
0.2100000000000007
 50
0.0
 51
360.0
 73
               0
 97
        1
330
13D
 75
               0
 76
               1
 98
        1
 10
0.0
 20
0.0
  0
CIRCLE
  5
13F
102
{ACAD_REACTORS
330
140
102
}
100
AcDbEntity
  8
None
370
               9
390
0
  6
Continuous
 62
               7
100
AcDbCircle
 10
-2.694069999999936
 20
8.8238499999999966
 30
0.0
 40
0.2100000000000007
  0
HATCH
  5
140
100
AcDbEntity
  8
None
370
               0
390
0
  6
Continuous
 62
               7
100
AcDbHatch
 10
0.0
 20
0.0
 30
0.0
210
0.0
220
0.0
230
1.0
  2
SOLID
 70
               1
 71
               1
 91
        1
 92
        1
 93
        1
 72
               2
 10
-2.694069999999936
 20
8.8238499999999966
 40
0.2100000000000007
 50
0.0
 51
360.0
 73
               0
 97
        1
330
13F
 75
               0
 76
               1
 98
        1
 10
0.0
 20
0.0
  0
CIRCLE
  5
141
102
{ACAD_REACTORS
330
142
102
}
100
AcDbEntity
  8
None
370
               9
390
0
  6
Continuous
 62
               7
100
AcDbCircle
 10
-1.8940699999999362
 20
8.8238499999999966
 30
0.0
 40
0.2100000000000007
  0
HATCH
  5
142
100
AcDbEntity
  8
None
370
               0
390
0
  6
Continuous
 62
               7
100
AcDbHatch
 10
0.0
 20
0.0
 30
0.0
210
0.0
220
0.0
230
1.0
  2
SOLID
 70
               1
 71
               1
 91
        1
 92
        1
 93
        1
 72
               2
 10
-1.8940699999999362
 20
8.8238499999999966
 40
0.2100000000000007
 50
0.0
 51
360.0
 73
               0
 97
        1
330
141
 75
               0
 76
               1
 98
        1
 10
0.0
 20
0.0
  0
CIRCLE
  5
143
102
{ACAD_REACTORS
330
144
102
}
100
AcDbEntity
  8
None
370
               9
390
0
  6
Continuous
 62
               7
100
AcDbCircle
 10
-1.0940699999999364
 20
8.8238499999999966
 30
0.0
 40
0.2100000000000007
  0
HATCH
  5
144
100
AcDbEntity
  8
None
370
               0
390
0
  6
Continuous
 62
               7
100
AcDbHatch
 10
0.0
 20
0.0
 30
0.0
210
0.0
220
0.0
230
1.0
  2
SOLID
 70
               1
 71
               1
 91
        1
 92
        1
 93
        1
 72
               2
 10
-1.0940699999999364
 20
8.8238499999999966
 40
0.2100000000000007
 50
0.0
 51
360.0
 73
               0
 97
        1
330
143
 75
               0
 76
               1
 98
        1
 10
0.0
 20
0.0
  0
CIRCLE
  5
145
102
{ACAD_REACTORS
330
146
102
}
100
AcDbEntity
  8
None
370
               9
390
0
  6
Continuous
 62
               7
100
AcDbCircle
 10
-0.2940699999999366
 20
8.8238499999999966
 30
0.0
 40
0.2100000000000007
  0
HATCH
  5
146
100
AcDbEntity
  8
None
370
               0
390
0
  6
Continuous
 62
               7
100
AcDbHatch
 10
0.0
 20
0.0
 30
0.0
210
0.0
220
0.0
230
1.0
  2
SOLID
 70
               1
 71
               1
 91
        1
 92
        1
 93
        1
 72
               2
 10
-0.2940699999999366
 20
8.8238499999999966
 40
0.2100000000000007
 50
0.0
 51
360.0
 73
               0
 97
        1
330
145
 75
               0
 76
               1
 98
        1
 10
0.0
 20
0.0
  0
CIRCLE
  5
147
102
{ACAD_REACTORS
330
148
102
}
100
AcDbEntity
  8
None
370
               9
390
0
  6
Continuous
 62
               7
100
AcDbCircle
 10
0.5059300000000633
 20
8.8238499999999966
 30
0.0
 40
0.2100000000000007
  0
HATCH
  5
148
100
AcDbEntity
  8
None
370
               0
390
0
  6
Continuous
 62
               7
100
AcDbHatch
 10
0.0
 20
0.0
 30
0.0
210
0.0
220
0.0
230
1.0
  2
SOLID
 70
               1
 71
               1
 91
        1
 92
        1
 93
        1
 72
               2
 10
0.5059300000000633
 20
8.8238499999999966
 40
0.2100000000000007
 50
0.0
 51
360.0
 73
               0
 97
        1
330
147
 75
               0
 76
               1
 98
        1
 10
0.0
 20
0.0
  0
CIRCLE
  5
149
102
{ACAD_REACTORS
330
14A
102
}
100
AcDbEntity
  8
None
370
               9
390
0
  6
Continuous
 62
               7
100
AcDbCircle
 10
1.3059300000000631
 20
8.8238499999999966
 30
0.0
 40
0.2100000000000007
  0
HATCH
  5
14A
100
AcDbEntity
  8
None
370
               0
390
0
  6
Continuous
 62
               7
100
AcDbHatch
 10
0.0
 20
0.0
 30
0.0
210
0.0
220
0.0
230
1.0
  2
SOLID
 70
               1
 71
               1
 91
        1
 92
        1
 93
        1
 72
               2
 10
1.3059300000000631
 20
8.8238499999999966
 40
0.2100000000000007
 50
0.0
 51
360.0
 73
               0
 97
        1
330
149
 75
               0
 76
               1
 98
        1
 10
0.0
 20
0.0
  0
CIRCLE
  5
14B
102
{ACAD_REACTORS
330
14C
102
}
100
AcDbEntity
  8
None
370
               9
390
0
  6
Continuous
 62
               7
100
AcDbCircle
 10
2.1059300000000629
 20
8.8238499999999966
 30
0.0
 40
0.2100000000000007
  0
HATCH
  5
14C
100
AcDbEntity
  8
None
370
               0
390
0
  6
Continuous
 62
               7
100
AcDbHatch
 10
0.0
 20
0.0
 30
0.0
210
0.0
220
0.0
230
1.0
  2
SOLID
 70
               1
 71
               1
 91
        1
 92
        1
 93
        1
 72
               2
 10
2.1059300000000629
 20
8.8238499999999966
 40
0.2100000000000007
 50
0.0
 51
360.0
 73
               0
 97
        1
330
14B
 75
               0
 76
               1
 98
        1
 10
0.0
 20
0.0
  0
CIRCLE
  5
14D
102
{ACAD_REACTORS
330
14E
102
}
100
AcDbEntity
  8
None
370
               9
390
0
  6
Continuous
 62
               7
100
AcDbCircle
 10
2.9059300000000627
 20
8.8238499999999966
 30
0.0
 40
0.2100000000000007
  0
HATCH
  5
14E
100
AcDbEntity
  8
None
370
               0
390
0
  6
Continuous
 62
               7
100
AcDbHatch
 10
0.0
 20
0.0
 30
0.0
210
0.0
220
0.0
230
1.0
  2
SOLID
 70
               1
 71
               1
 91
        1
 92
        1
 93
        1
 72
               2
 10
2.9059300000000627
 20
8.8238499999999966
 40
0.2100000000000007
 50
0.0
 51
360.0
 73
               0
 97
        1
330
14D
 75
               0
 76
               1
 98
        1
 10
0.0
 20
0.0
  0
CIRCLE
  5
14F
102
{ACAD_REACTORS
330
150
102
}
100
AcDbEntity
  8
None
370
               9
390
0
  6
Continuous
 62
               7
100
AcDbCircle
 10
3.7059300000000626
 20
8.8238499999999966
 30
0.0
 40
0.2100000000000007
  0
HATCH
  5
150
100
AcDbEntity
  8
None
370
               0
390
0
  6
Continuous
 62
               7
100
AcDbHatch
 10
0.0
 20
0.0
 30
0.0
210
0.0
220
0.0
230
1.0
  2
SOLID
 70
               1
 71
               1
 91
        1
 92
        1
 93
        1
 72
               2
 10
3.7059300000000626
 20
8.8238499999999966
 40
0.2100000000000007
 50
0.0
 51
360.0
 73
               0
 97
        1
330
14F
 75
               0
 76
               1
 98
        1
 10
0.0
 20
0.0
  0
CIRCLE
  5
151
102
{ACAD_REACTORS
330
152
102
}
100
AcDbEntity
  8
None
370
               9
390
0
  6
Continuous
 62
               7
100
AcDbCircle
 10
4.5059300000000633
 20
8.8238499999999966
 30
0.0
 40
0.2100000000000007
  0
HATCH
  5
152
100
AcDbEntity
  8
None
370
               0
390
0
  6
Continuous
 62
               7
100
AcDbHatch
 10
0.0
 20
0.0
 30
0.0
210
0.0
220
0.0
230
1.0
  2
SOLID
 70
               1
 71
               1
 91
        1
 92
        1
 93
        1
 72
               2
 10
4.5059300000000633
 20
8.8238499999999966
 40
0.2100000000000007
 50
0.0
 51
360.0
 73
               0
 97
        1
330
151
 75
               0
 76
               1
 98
        1
 10
0.0
 20
0.0
  0
CIRCLE
  5
153
102
{ACAD_REACTORS
330
154
102
}
100
AcDbEntity
  8
None
370
               9
390
0
  6
Continuous
 62
               7
100
AcDbCircle
 10
-5.0940699999999364
 20
8.0238499999999977
 30
0.0
 40
0.2100000000000007
  0
HATCH
  5
154
100
AcDbEntity
  8
None
370
               0
390
0
  6
Continuous
 62
               7
100
AcDbHatch
 10
0.0
 20
0.0
 30
0.0
210
0.0
220
0.0
230
1.0
  2
SOLID
 70
               1
 71
               1
 91
        1
 92
        1
 93
        1
 72
               2
 10
-5.0940699999999364
 20
8.0238499999999977
 40
0.2100000000000007
 50
0.0
 51
360.0
 73
               0
 97
        1
330
153
 75
               0
 76
               1
 98
        1
 10
0.0
 20
0.0
  0
CIRCLE
  5
155
102
{ACAD_REACTORS
330
156
102
}
100
AcDbEntity
  8
None
370
               9
390
0
  6
Continuous
 62
               7
100
AcDbCircle
 10
-4.2940699999999365
 20
8.0238499999999977
 30
0.0
 40
0.2100000000000007
  0
HATCH
  5
156
100
AcDbEntity
  8
None
370
               0
390
0
  6
Continuous
 62
               7
100
AcDbHatch
 10
0.0
 20
0.0
 30
0.0
210
0.0
220
0.0
230
1.0
  2
SOLID
 70
               1
 71
               1
 91
        1
 92
        1
 93
        1
 72
               2
 10
-4.2940699999999365
 20
8.0238499999999977
 40
0.2100000000000007
 50
0.0
 51
360.0
 73
               0
 97
        1
330
155
 75
               0
 76
               1
 98
        1
 10
0.0
 20
0.0
  0
CIRCLE
  5
157
102
{ACAD_REACTORS
330
158
102
}
100
AcDbEntity
  8
None
370
               9
390
0
  6
Continuous
 62
               7
100
AcDbCircle
 10
-3.4940699999999363
 20
8.0238499999999977
 30
0.0
 40
0.2100000000000007
  0
HATCH
  5
158
100
AcDbEntity
  8
None
370
               0
390
0
  6
Continuous
 62
               7
100
AcDbHatch
 10
0.0
 20
0.0
 30
0.0
210
0.0
220
0.0
230
1.0
  2
SOLID
 70
               1
 71
               1
 91
        1
 92
        1
 93
        1
 72
               2
 10
-3.4940699999999363
 20
8.0238499999999977
 40
0.2100000000000007
 50
0.0
 51
360.0
 73
               0
 97
        1
330
157
 75
               0
 76
               1
 98
        1
 10
0.0
 20
0.0
  0
CIRCLE
  5
159
102
{ACAD_REACTORS
330
15A
102
}
100
AcDbEntity
  8
None
370
               9
390
0
  6
Continuous
 62
               7
100
AcDbCircle
 10
-2.694069999999936
 20
8.0238499999999977
 30
0.0
 40
0.2100000000000007
  0
HATCH
  5
15A
100
AcDbEntity
  8
None
370
               0
390
0
  6
Continuous
 62
               7
100
AcDbHatch
 10
0.0
 20
0.0
 30
0.0
210
0.0
220
0.0
230
1.0
  2
SOLID
 70
               1
 71
               1
 91
        1
 92
        1
 93
        1
 72
               2
 10
-2.694069999999936
 20
8.0238499999999977
 40
0.2100000000000007
 50
0.0
 51
360.0
 73
               0
 97
        1
330
159
 75
               0
 76
               1
 98
        1
 10
0.0
 20
0.0
  0
CIRCLE
  5
15B
102
{ACAD_REACTORS
330
15C
102
}
100
AcDbEntity
  8
None
370
               9
390
0
  6
Continuous
 62
               7
100
AcDbCircle
 10
-1.8940699999999362
 20
8.0238499999999977
 30
0.0
 40
0.2100000000000007
  0
HATCH
  5
15C
100
AcDbEntity
  8
None
370
               0
390
0
  6
Continuous
 62
               7
100
AcDbHatch
 10
0.0
 20
0.0
 30
0.0
210
0.0
220
0.0
230
1.0
  2
SOLID
 70
               1
 71
               1
 91
        1
 92
        1
 93
        1
 72
               2
 10
-1.8940699999999362
 20
8.0238499999999977
 40
0.2100000000000007
 50
0.0
 51
360.0
 73
               0
 97
        1
330
15B
 75
               0
 76
               1
 98
        1
 10
0.0
 20
0.0
  0
CIRCLE
  5
15D
102
{ACAD_REACTORS
330
15E
102
}
100
AcDbEntity
  8
None
370
               9
390
0
  6
Continuous
 62
               7
100
AcDbCircle
 10
-1.0940699999999364
 20
8.0238499999999977
 30
0.0
 40
0.2100000000000007
  0
HATCH
  5
15E
100
AcDbEntity
  8
None
370
               0
390
0
  6
Continuous
 62
               7
100
AcDbHatch
 10
0.0
 20
0.0
 30
0.0
210
0.0
220
0.0
230
1.0
  2
SOLID
 70
               1
 71
               1
 91
        1
 92
        1
 93
        1
 72
               2
 10
-1.0940699999999364
 20
8.0238499999999977
 40
0.2100000000000007
 50
0.0
 51
360.0
 73
               0
 97
        1
330
15D
 75
               0
 76
               1
 98
        1
 10
0.0
 20
0.0
  0
CIRCLE
  5
15F
102
{ACAD_REACTORS
330
160
102
}
100
AcDbEntity
  8
None
370
               9
390
0
  6
Continuous
 62
               7
100
AcDbCircle
 10
-0.2940699999999366
 20
8.0238499999999977
 30
0.0
 40
0.2100000000000007
  0
HATCH
  5
160
100
AcDbEntity
  8
None
370
               0
390
0
  6
Continuous
 62
               7
100
AcDbHatch
 10
0.0
 20
0.0
 30
0.0
210
0.0
220
0.0
230
1.0
  2
SOLID
 70
               1
 71
               1
 91
        1
 92
        1
 93
        1
 72
               2
 10
-0.2940699999999366
 20
8.0238499999999977
 40
0.2100000000000007
 50
0.0
 51
360.0
 73
               0
 97
        1
330
15F
 75
               0
 76
               1
 98
        1
 10
0.0
 20
0.0
  0
CIRCLE
  5
161
102
{ACAD_REACTORS
330
162
102
}
100
AcDbEntity
  8
None
370
               9
390
0
  6
Continuous
 62
               7
100
AcDbCircle
 10
0.5059300000000633
 20
8.0238499999999977
 30
0.0
 40
0.2100000000000007
  0
HATCH
  5
162
100
AcDbEntity
  8
None
370
               0
390
0
  6
Continuous
 62
               7
100
AcDbHatch
 10
0.0
 20
0.0
 30
0.0
210
0.0
220
0.0
230
1.0
  2
SOLID
 70
               1
 71
               1
 91
        1
 92
        1
 93
        1
 72
               2
 10
0.5059300000000633
 20
8.0238499999999977
 40
0.2100000000000007
 50
0.0
 51
360.0
 73
               0
 97
        1
330
161
 75
               0
 76
               1
 98
        1
 10
0.0
 20
0.0
  0
CIRCLE
  5
163
102
{ACAD_REACTORS
330
164
102
}
100
AcDbEntity
  8
None
370
               9
390
0
  6
Continuous
 62
               7
100
AcDbCircle
 10
1.3059300000000631
 20
8.0238499999999977
 30
0.0
 40
0.2100000000000007
  0
HATCH
  5
164
100
AcDbEntity
  8
None
370
               0
390
0
  6
Continuous
 62
               7
100
AcDbHatch
 10
0.0
 20
0.0
 30
0.0
210
0.0
220
0.0
230
1.0
  2
SOLID
 70
               1
 71
               1
 91
        1
 92
        1
 93
        1
 72
               2
 10
1.3059300000000631
 20
8.0238499999999977
 40
0.2100000000000007
 50
0.0
 51
360.0
 73
               0
 97
        1
330
163
 75
               0
 76
               1
 98
        1
 10
0.0
 20
0.0
  0
CIRCLE
  5
165
102
{ACAD_REACTORS
330
166
102
}
100
AcDbEntity
  8
None
370
               9
390
0
  6
Continuous
 62
               7
100
AcDbCircle
 10
2.1059300000000629
 20
8.0238499999999977
 30
0.0
 40
0.2100000000000007
  0
HATCH
  5
166
100
AcDbEntity
  8
None
370
               0
390
0
  6
Continuous
 62
               7
100
AcDbHatch
 10
0.0
 20
0.0
 30
0.0
210
0.0
220
0.0
230
1.0
  2
SOLID
 70
               1
 71
               1
 91
        1
 92
        1
 93
        1
 72
               2
 10
2.1059300000000629
 20
8.0238499999999977
 40
0.2100000000000007
 50
0.0
 51
360.0
 73
               0
 97
        1
330
165
 75
               0
 76
               1
 98
        1
 10
0.0
 20
0.0
  0
CIRCLE
  5
167
102
{ACAD_REACTORS
330
168
102
}
100
AcDbEntity
  8
None
370
               9
390
0
  6
Continuous
 62
               7
100
AcDbCircle
 10
2.9059300000000627
 20
8.0238499999999977
 30
0.0
 40
0.2100000000000007
  0
HATCH
  5
168
100
AcDbEntity
  8
None
370
               0
390
0
  6
Continuous
 62
               7
100
AcDbHatch
 10
0.0
 20
0.0
 30
0.0
210
0.0
220
0.0
230
1.0
  2
SOLID
 70
               1
 71
               1
 91
        1
 92
        1
 93
        1
 72
               2
 10
2.9059300000000627
 20
8.0238499999999977
 40
0.2100000000000007
 50
0.0
 51
360.0
 73
               0
 97
        1
330
167
 75
               0
 76
               1
 98
        1
 10
0.0
 20
0.0
  0
CIRCLE
  5
169
102
{ACAD_REACTORS
330
16A
102
}
100
AcDbEntity
  8
None
370
               9
390
0
  6
Continuous
 62
               7
100
AcDbCircle
 10
3.7059300000000626
 20
8.0238499999999977
 30
0.0
 40
0.2100000000000007
  0
HATCH
  5
16A
100
AcDbEntity
  8
None
370
               0
390
0
  6
Continuous
 62
               7
100
AcDbHatch
 10
0.0
 20
0.0
 30
0.0
210
0.0
220
0.0
230
1.0
  2
SOLID
 70
               1
 71
               1
 91
        1
 92
        1
 93
        1
 72
               2
 10
3.7059300000000626
 20
8.0238499999999977
 40
0.2100000000000007
 50
0.0
 51
360.0
 73
               0
 97
        1
330
169
 75
               0
 76
               1
 98
        1
 10
0.0
 20
0.0
  0
CIRCLE
  5
16B
102
{ACAD_REACTORS
330
16C
102
}
100
AcDbEntity
  8
None
370
               9
390
0
  6
Continuous
 62
               7
100
AcDbCircle
 10
4.5059300000000633
 20
8.0238499999999977
 30
0.0
 40
0.2100000000000007
  0
HATCH
  5
16C
100
AcDbEntity
  8
None
370
               0
390
0
  6
Continuous
 62
               7
100
AcDbHatch
 10
0.0
 20
0.0
 30
0.0
210
0.0
220
0.0
230
1.0
  2
SOLID
 70
               1
 71
               1
 91
        1
 92
        1
 93
        1
 72
               2
 10
4.5059300000000633
 20
8.0238499999999977
 40
0.2100000000000007
 50
0.0
 51
360.0
 73
               0
 97
        1
330
16B
 75
               0
 76
               1
 98
        1
 10
0.0
 20
0.0
  0
CIRCLE
  5
16D
102
{ACAD_REACTORS
330
16E
102
}
100
AcDbEntity
  8
None
370
               9
390
0
  6
Continuous
 62
               7
100
AcDbCircle
 10
-5.0940699999999364
 20
7.223849999999997
 30
0.0
 40
0.2100000000000007
  0
HATCH
  5
16E
100
AcDbEntity
  8
None
370
               0
390
0
  6
Continuous
 62
               7
100
AcDbHatch
 10
0.0
 20
0.0
 30
0.0
210
0.0
220
0.0
230
1.0
  2
SOLID
 70
               1
 71
               1
 91
        1
 92
        1
 93
        1
 72
               2
 10
-5.0940699999999364
 20
7.223849999999997
 40
0.2100000000000007
 50
0.0
 51
360.0
 73
               0
 97
        1
330
16D
 75
               0
 76
               1
 98
        1
 10
0.0
 20
0.0
  0
CIRCLE
  5
16F
102
{ACAD_REACTORS
330
170
102
}
100
AcDbEntity
  8
None
370
               9
390
0
  6
Continuous
 62
               7
100
AcDbCircle
 10
-4.2940699999999365
 20
7.223849999999997
 30
0.0
 40
0.2100000000000007
  0
HATCH
  5
170
100
AcDbEntity
  8
None
370
               0
390
0
  6
Continuous
 62
               7
100
AcDbHatch
 10
0.0
 20
0.0
 30
0.0
210
0.0
220
0.0
230
1.0
  2
SOLID
 70
               1
 71
               1
 91
        1
 92
        1
 93
        1
 72
               2
 10
-4.2940699999999365
 20
7.223849999999997
 40
0.2100000000000007
 50
0.0
 51
360.0
 73
               0
 97
        1
330
16F
 75
               0
 76
               1
 98
        1
 10
0.0
 20
0.0
  0
CIRCLE
  5
171
102
{ACAD_REACTORS
330
172
102
}
100
AcDbEntity
  8
None
370
               9
390
0
  6
Continuous
 62
               7
100
AcDbCircle
 10
-3.4940699999999363
 20
7.223849999999997
 30
0.0
 40
0.2100000000000007
  0
HATCH
  5
172
100
AcDbEntity
  8
None
370
               0
390
0
  6
Continuous
 62
               7
100
AcDbHatch
 10
0.0
 20
0.0
 30
0.0
210
0.0
220
0.0
230
1.0
  2
SOLID
 70
               1
 71
               1
 91
        1
 92
        1
 93
        1
 72
               2
 10
-3.4940699999999363
 20
7.223849999999997
 40
0.2100000000000007
 50
0.0
 51
360.0
 73
               0
 97
        1
330
171
 75
               0
 76
               1
 98
        1
 10
0.0
 20
0.0
  0
CIRCLE
  5
173
102
{ACAD_REACTORS
330
174
102
}
100
AcDbEntity
  8
None
370
               9
390
0
  6
Continuous
 62
               7
100
AcDbCircle
 10
-2.694069999999936
 20
7.223849999999997
 30
0.0
 40
0.2100000000000007
  0
HATCH
  5
174
100
AcDbEntity
  8
None
370
               0
390
0
  6
Continuous
 62
               7
100
AcDbHatch
 10
0.0
 20
0.0
 30
0.0
210
0.0
220
0.0
230
1.0
  2
SOLID
 70
               1
 71
               1
 91
        1
 92
        1
 93
        1
 72
               2
 10
-2.694069999999936
 20
7.223849999999997
 40
0.2100000000000007
 50
0.0
 51
360.0
 73
               0
 97
        1
330
173
 75
               0
 76
               1
 98
        1
 10
0.0
 20
0.0
  0
CIRCLE
  5
175
102
{ACAD_REACTORS
330
176
102
}
100
AcDbEntity
  8
None
370
               9
390
0
  6
Continuous
 62
               7
100
AcDbCircle
 10
-1.8940699999999362
 20
7.223849999999997
 30
0.0
 40
0.2100000000000007
  0
HATCH
  5
176
100
AcDbEntity
  8
None
370
               0
390
0
  6
Continuous
 62
               7
100
AcDbHatch
 10
0.0
 20
0.0
 30
0.0
210
0.0
220
0.0
230
1.0
  2
SOLID
 70
               1
 71
               1
 91
        1
 92
        1
 93
        1
 72
               2
 10
-1.8940699999999362
 20
7.223849999999997
 40
0.2100000000000007
 50
0.0
 51
360.0
 73
               0
 97
        1
330
175
 75
               0
 76
               1
 98
        1
 10
0.0
 20
0.0
  0
CIRCLE
  5
177
102
{ACAD_REACTORS
330
178
102
}
100
AcDbEntity
  8
None
370
               9
390
0
  6
Continuous
 62
               7
100
AcDbCircle
 10
-1.0940699999999364
 20
7.223849999999997
 30
0.0
 40
0.2100000000000007
  0
HATCH
  5
178
100
AcDbEntity
  8
None
370
               0
390
0
  6
Continuous
 62
               7
100
AcDbHatch
 10
0.0
 20
0.0
 30
0.0
210
0.0
220
0.0
230
1.0
  2
SOLID
 70
               1
 71
               1
 91
        1
 92
        1
 93
        1
 72
               2
 10
-1.0940699999999364
 20
7.223849999999997
 40
0.2100000000000007
 50
0.0
 51
360.0
 73
               0
 97
        1
330
177
 75
               0
 76
               1
 98
        1
 10
0.0
 20
0.0
  0
CIRCLE
  5
179
102
{ACAD_REACTORS
330
17A
102
}
100
AcDbEntity
  8
None
370
               9
390
0
  6
Continuous
 62
               7
100
AcDbCircle
 10
-0.2940699999999366
 20
7.223849999999997
 30
0.0
 40
0.2100000000000007
  0
HATCH
  5
17A
100
AcDbEntity
  8
None
370
               0
390
0
  6
Continuous
 62
               7
100
AcDbHatch
 10
0.0
 20
0.0
 30
0.0
210
0.0
220
0.0
230
1.0
  2
SOLID
 70
               1
 71
               1
 91
        1
 92
        1
 93
        1
 72
               2
 10
-0.2940699999999366
 20
7.223849999999997
 40
0.2100000000000007
 50
0.0
 51
360.0
 73
               0
 97
        1
330
179
 75
               0
 76
               1
 98
        1
 10
0.0
 20
0.0
  0
CIRCLE
  5
17B
102
{ACAD_REACTORS
330
17C
102
}
100
AcDbEntity
  8
None
370
               9
390
0
  6
Continuous
 62
               7
100
AcDbCircle
 10
0.5059300000000633
 20
7.223849999999997
 30
0.0
 40
0.2100000000000007
  0
HATCH
  5
17C
100
AcDbEntity
  8
None
370
               0
390
0
  6
Continuous
 62
               7
100
AcDbHatch
 10
0.0
 20
0.0
 30
0.0
210
0.0
220
0.0
230
1.0
  2
SOLID
 70
               1
 71
               1
 91
        1
 92
        1
 93
        1
 72
               2
 10
0.5059300000000633
 20
7.223849999999997
 40
0.2100000000000007
 50
0.0
 51
360.0
 73
               0
 97
        1
330
17B
 75
               0
 76
               1
 98
        1
 10
0.0
 20
0.0
  0
CIRCLE
  5
17D
102
{ACAD_REACTORS
330
17E
102
}
100
AcDbEntity
  8
None
370
               9
390
0
  6
Continuous
 62
               7
100
AcDbCircle
 10
1.3059300000000631
 20
7.223849999999997
 30
0.0
 40
0.2100000000000007
  0
HATCH
  5
17E
100
AcDbEntity
  8
None
370
               0
390
0
  6
Continuous
 62
               7
100
AcDbHatch
 10
0.0
 20
0.0
 30
0.0
210
0.0
220
0.0
230
1.0
  2
SOLID
 70
               1
 71
               1
 91
        1
 92
        1
 93
        1
 72
               2
 10
1.3059300000000631
 20
7.223849999999997
 40
0.2100000000000007
 50
0.0
 51
360.0
 73
               0
 97
        1
330
17D
 75
               0
 76
               1
 98
        1
 10
0.0
 20
0.0
  0
CIRCLE
  5
17F
102
{ACAD_REACTORS
330
180
102
}
100
AcDbEntity
  8
None
370
               9
390
0
  6
Continuous
 62
               7
100
AcDbCircle
 10
2.1059300000000629
 20
7.223849999999997
 30
0.0
 40
0.2100000000000007
  0
HATCH
  5
180
100
AcDbEntity
  8
None
370
               0
390
0
  6
Continuous
 62
               7
100
AcDbHatch
 10
0.0
 20
0.0
 30
0.0
210
0.0
220
0.0
230
1.0
  2
SOLID
 70
               1
 71
               1
 91
        1
 92
        1
 93
        1
 72
               2
 10
2.1059300000000629
 20
7.223849999999997
 40
0.2100000000000007
 50
0.0
 51
360.0
 73
               0
 97
        1
330
17F
 75
               0
 76
               1
 98
        1
 10
0.0
 20
0.0
  0
CIRCLE
  5
181
102
{ACAD_REACTORS
330
182
102
}
100
AcDbEntity
  8
None
370
               9
390
0
  6
Continuous
 62
               7
100
AcDbCircle
 10
2.9059300000000627
 20
7.223849999999997
 30
0.0
 40
0.2100000000000007
  0
HATCH
  5
182
100
AcDbEntity
  8
None
370
               0
390
0
  6
Continuous
 62
               7
100
AcDbHatch
 10
0.0
 20
0.0
 30
0.0
210
0.0
220
0.0
230
1.0
  2
SOLID
 70
               1
 71
               1
 91
        1
 92
        1
 93
        1
 72
               2
 10
2.9059300000000627
 20
7.223849999999997
 40
0.2100000000000007
 50
0.0
 51
360.0
 73
               0
 97
        1
330
181
 75
               0
 76
               1
 98
        1
 10
0.0
 20
0.0
  0
CIRCLE
  5
183
102
{ACAD_REACTORS
330
184
102
}
100
AcDbEntity
  8
None
370
               9
390
0
  6
Continuous
 62
               7
100
AcDbCircle
 10
3.7059300000000626
 20
7.223849999999997
 30
0.0
 40
0.2100000000000007
  0
HATCH
  5
184
100
AcDbEntity
  8
None
370
               0
390
0
  6
Continuous
 62
               7
100
AcDbHatch
 10
0.0
 20
0.0
 30
0.0
210
0.0
220
0.0
230
1.0
  2
SOLID
 70
               1
 71
               1
 91
        1
 92
        1
 93
        1
 72
               2
 10
3.7059300000000626
 20
7.223849999999997
 40
0.2100000000000007
 50
0.0
 51
360.0
 73
               0
 97
        1
330
183
 75
               0
 76
               1
 98
        1
 10
0.0
 20
0.0
  0
CIRCLE
  5
185
102
{ACAD_REACTORS
330
186
102
}
100
AcDbEntity
  8
None
370
               9
390
0
  6
Continuous
 62
               7
100
AcDbCircle
 10
4.5059300000000633
 20
7.223849999999997
 30
0.0
 40
0.2100000000000007
  0
HATCH
  5
186
100
AcDbEntity
  8
None
370
               0
390
0
  6
Continuous
 62
               7
100
AcDbHatch
 10
0.0
 20
0.0
 30
0.0
210
0.0
220
0.0
230
1.0
  2
SOLID
 70
               1
 71
               1
 91
        1
 92
        1
 93
        1
 72
               2
 10
4.5059300000000633
 20
7.223849999999997
 40
0.2100000000000007
 50
0.0
 51
360.0
 73
               0
 97
        1
330
185
 75
               0
 76
               1
 98
        1
 10
0.0
 20
0.0
  0
CIRCLE
  5
187
102
{ACAD_REACTORS
330
188
102
}
100
AcDbEntity
  8
None
370
               9
390
0
  6
Continuous
 62
               7
100
AcDbCircle
 10
-5.0940699999999364
 20
6.4238499999999972
 30
0.0
 40
0.2100000000000007
  0
HATCH
  5
188
100
AcDbEntity
  8
None
370
               0
390
0
  6
Continuous
 62
               7
100
AcDbHatch
 10
0.0
 20
0.0
 30
0.0
210
0.0
220
0.0
230
1.0
  2
SOLID
 70
               1
 71
               1
 91
        1
 92
        1
 93
        1
 72
               2
 10
-5.0940699999999364
 20
6.4238499999999972
 40
0.2100000000000007
 50
0.0
 51
360.0
 73
               0
 97
        1
330
187
 75
               0
 76
               1
 98
        1
 10
0.0
 20
0.0
  0
CIRCLE
  5
189
102
{ACAD_REACTORS
330
18A
102
}
100
AcDbEntity
  8
None
370
               9
390
0
  6
Continuous
 62
               7
100
AcDbCircle
 10
-4.2940699999999365
 20
6.4238499999999972
 30
0.0
 40
0.2100000000000007
  0
HATCH
  5
18A
100
AcDbEntity
  8
None
370
               0
390
0
  6
Continuous
 62
               7
100
AcDbHatch
 10
0.0
 20
0.0
 30
0.0
210
0.0
220
0.0
230
1.0
  2
SOLID
 70
               1
 71
               1
 91
        1
 92
        1
 93
        1
 72
               2
 10
-4.2940699999999365
 20
6.4238499999999972
 40
0.2100000000000007
 50
0.0
 51
360.0
 73
               0
 97
        1
330
189
 75
               0
 76
               1
 98
        1
 10
0.0
 20
0.0
  0
CIRCLE
  5
18B
102
{ACAD_REACTORS
330
18C
102
}
100
AcDbEntity
  8
None
370
               9
390
0
  6
Continuous
 62
               7
100
AcDbCircle
 10
-3.4940699999999363
 20
6.4238499999999972
 30
0.0
 40
0.2100000000000007
  0
HATCH
  5
18C
100
AcDbEntity
  8
None
370
               0
390
0
  6
Continuous
 62
               7
100
AcDbHatch
 10
0.0
 20
0.0
 30
0.0
210
0.0
220
0.0
230
1.0
  2
SOLID
 70
               1
 71
               1
 91
        1
 92
        1
 93
        1
 72
               2
 10
-3.4940699999999363
 20
6.4238499999999972
 40
0.2100000000000007
 50
0.0
 51
360.0
 73
               0
 97
        1
330
18B
 75
               0
 76
               1
 98
        1
 10
0.0
 20
0.0
  0
CIRCLE
  5
18D
102
{ACAD_REACTORS
330
18E
102
}
100
AcDbEntity
  8
None
370
               9
390
0
  6
Continuous
 62
               7
100
AcDbCircle
 10
-2.694069999999936
 20
6.4238499999999972
 30
0.0
 40
0.2100000000000007
  0
HATCH
  5
18E
100
AcDbEntity
  8
None
370
               0
390
0
  6
Continuous
 62
               7
100
AcDbHatch
 10
0.0
 20
0.0
 30
0.0
210
0.0
220
0.0
230
1.0
  2
SOLID
 70
               1
 71
               1
 91
        1
 92
        1
 93
        1
 72
               2
 10
-2.694069999999936
 20
6.4238499999999972
 40
0.2100000000000007
 50
0.0
 51
360.0
 73
               0
 97
        1
330
18D
 75
               0
 76
               1
 98
        1
 10
0.0
 20
0.0
  0
CIRCLE
  5
18F
102
{ACAD_REACTORS
330
190
102
}
100
AcDbEntity
  8
None
370
               9
390
0
  6
Continuous
 62
               7
100
AcDbCircle
 10
-1.8940699999999362
 20
6.4238499999999972
 30
0.0
 40
0.2100000000000007
  0
HATCH
  5
190
100
AcDbEntity
  8
None
370
               0
390
0
  6
Continuous
 62
               7
100
AcDbHatch
 10
0.0
 20
0.0
 30
0.0
210
0.0
220
0.0
230
1.0
  2
SOLID
 70
               1
 71
               1
 91
        1
 92
        1
 93
        1
 72
               2
 10
-1.8940699999999362
 20
6.4238499999999972
 40
0.2100000000000007
 50
0.0
 51
360.0
 73
               0
 97
        1
330
18F
 75
               0
 76
               1
 98
        1
 10
0.0
 20
0.0
  0
CIRCLE
  5
191
102
{ACAD_REACTORS
330
192
102
}
100
AcDbEntity
  8
None
370
               9
390
0
  6
Continuous
 62
               7
100
AcDbCircle
 10
-1.0940699999999364
 20
6.4238499999999972
 30
0.0
 40
0.2100000000000007
  0
HATCH
  5
192
100
AcDbEntity
  8
None
370
               0
390
0
  6
Continuous
 62
               7
100
AcDbHatch
 10
0.0
 20
0.0
 30
0.0
210
0.0
220
0.0
230
1.0
  2
SOLID
 70
               1
 71
               1
 91
        1
 92
        1
 93
        1
 72
               2
 10
-1.0940699999999364
 20
6.4238499999999972
 40
0.2100000000000007
 50
0.0
 51
360.0
 73
               0
 97
        1
330
191
 75
               0
 76
               1
 98
        1
 10
0.0
 20
0.0
  0
CIRCLE
  5
193
102
{ACAD_REACTORS
330
194
102
}
100
AcDbEntity
  8
None
370
               9
390
0
  6
Continuous
 62
               7
100
AcDbCircle
 10
-0.2940699999999366
 20
6.4238499999999972
 30
0.0
 40
0.2100000000000007
  0
HATCH
  5
194
100
AcDbEntity
  8
None
370
               0
390
0
  6
Continuous
 62
               7
100
AcDbHatch
 10
0.0
 20
0.0
 30
0.0
210
0.0
220
0.0
230
1.0
  2
SOLID
 70
               1
 71
               1
 91
        1
 92
        1
 93
        1
 72
               2
 10
-0.2940699999999366
 20
6.4238499999999972
 40
0.2100000000000007
 50
0.0
 51
360.0
 73
               0
 97
        1
330
193
 75
               0
 76
               1
 98
        1
 10
0.0
 20
0.0
  0
CIRCLE
  5
195
102
{ACAD_REACTORS
330
196
102
}
100
AcDbEntity
  8
None
370
               9
390
0
  6
Continuous
 62
               7
100
AcDbCircle
 10
0.5059300000000633
 20
6.4238499999999972
 30
0.0
 40
0.2100000000000007
  0
HATCH
  5
196
100
AcDbEntity
  8
None
370
               0
390
0
  6
Continuous
 62
               7
100
AcDbHatch
 10
0.0
 20
0.0
 30
0.0
210
0.0
220
0.0
230
1.0
  2
SOLID
 70
               1
 71
               1
 91
        1
 92
        1
 93
        1
 72
               2
 10
0.5059300000000633
 20
6.4238499999999972
 40
0.2100000000000007
 50
0.0
 51
360.0
 73
               0
 97
        1
330
195
 75
               0
 76
               1
 98
        1
 10
0.0
 20
0.0
  0
CIRCLE
  5
197
102
{ACAD_REACTORS
330
198
102
}
100
AcDbEntity
  8
None
370
               9
390
0
  6
Continuous
 62
               7
100
AcDbCircle
 10
1.3059300000000631
 20
6.4238499999999972
 30
0.0
 40
0.2100000000000007
  0
HATCH
  5
198
100
AcDbEntity
  8
None
370
               0
390
0
  6
Continuous
 62
               7
100
AcDbHatch
 10
0.0
 20
0.0
 30
0.0
210
0.0
220
0.0
230
1.0
  2
SOLID
 70
               1
 71
               1
 91
        1
 92
        1
 93
        1
 72
               2
 10
1.3059300000000631
 20
6.4238499999999972
 40
0.2100000000000007
 50
0.0
 51
360.0
 73
               0
 97
        1
330
197
 75
               0
 76
               1
 98
        1
 10
0.0
 20
0.0
  0
CIRCLE
  5
199
102
{ACAD_REACTORS
330
19A
102
}
100
AcDbEntity
  8
None
370
               9
390
0
  6
Continuous
 62
               7
100
AcDbCircle
 10
2.1059300000000629
 20
6.4238499999999972
 30
0.0
 40
0.2100000000000007
  0
HATCH
  5
19A
100
AcDbEntity
  8
None
370
               0
390
0
  6
Continuous
 62
               7
100
AcDbHatch
 10
0.0
 20
0.0
 30
0.0
210
0.0
220
0.0
230
1.0
  2
SOLID
 70
               1
 71
               1
 91
        1
 92
        1
 93
        1
 72
               2
 10
2.1059300000000629
 20
6.4238499999999972
 40
0.2100000000000007
 50
0.0
 51
360.0
 73
               0
 97
        1
330
199
 75
               0
 76
               1
 98
        1
 10
0.0
 20
0.0
  0
CIRCLE
  5
19B
102
{ACAD_REACTORS
330
19C
102
}
100
AcDbEntity
  8
None
370
               9
390
0
  6
Continuous
 62
               7
100
AcDbCircle
 10
2.9059300000000627
 20
6.4238499999999972
 30
0.0
 40
0.2100000000000007
  0
HATCH
  5
19C
100
AcDbEntity
  8
None
370
               0
390
0
  6
Continuous
 62
               7
100
AcDbHatch
 10
0.0
 20
0.0
 30
0.0
210
0.0
220
0.0
230
1.0
  2
SOLID
 70
               1
 71
               1
 91
        1
 92
        1
 93
        1
 72
               2
 10
2.9059300000000627
 20
6.4238499999999972
 40
0.2100000000000007
 50
0.0
 51
360.0
 73
               0
 97
        1
330
19B
 75
               0
 76
               1
 98
        1
 10
0.0
 20
0.0
  0
CIRCLE
  5
19D
102
{ACAD_REACTORS
330
19E
102
}
100
AcDbEntity
  8
None
370
               9
390
0
  6
Continuous
 62
               7
100
AcDbCircle
 10
3.7059300000000626
 20
6.4238499999999972
 30
0.0
 40
0.2100000000000007
  0
HATCH
  5
19E
100
AcDbEntity
  8
None
370
               0
390
0
  6
Continuous
 62
               7
100
AcDbHatch
 10
0.0
 20
0.0
 30
0.0
210
0.0
220
0.0
230
1.0
  2
SOLID
 70
               1
 71
               1
 91
        1
 92
        1
 93
        1
 72
               2
 10
3.7059300000000626
 20
6.4238499999999972
 40
0.2100000000000007
 50
0.0
 51
360.0
 73
               0
 97
        1
330
19D
 75
               0
 76
               1
 98
        1
 10
0.0
 20
0.0
  0
CIRCLE
  5
19F
102
{ACAD_REACTORS
330
1A0
102
}
100
AcDbEntity
  8
None
370
               9
390
0
  6
Continuous
 62
               7
100
AcDbCircle
 10
4.5059300000000633
 20
6.4238499999999972
 30
0.0
 40
0.2100000000000007
  0
HATCH
  5
1A0
100
AcDbEntity
  8
None
370
               0
390
0
  6
Continuous
 62
               7
100
AcDbHatch
 10
0.0
 20
0.0
 30
0.0
210
0.0
220
0.0
230
1.0
  2
SOLID
 70
               1
 71
               1
 91
        1
 92
        1
 93
        1
 72
               2
 10
4.5059300000000633
 20
6.4238499999999972
 40
0.2100000000000007
 50
0.0
 51
360.0
 73
               0
 97
        1
330
19F
 75
               0
 76
               1
 98
        1
 10
0.0
 20
0.0
  0
CIRCLE
  5
1A1
102
{ACAD_REACTORS
330
1A2
102
}
100
AcDbEntity
  8
None
370
               9
390
0
  6
Continuous
 62
               7
100
AcDbCircle
 10
-5.0940699999999364
 20
5.6238499999999974
 30
0.0
 40
0.2100000000000007
  0
HATCH
  5
1A2
100
AcDbEntity
  8
None
370
               0
390
0
  6
Continuous
 62
               7
100
AcDbHatch
 10
0.0
 20
0.0
 30
0.0
210
0.0
220
0.0
230
1.0
  2
SOLID
 70
               1
 71
               1
 91
        1
 92
        1
 93
        1
 72
               2
 10
-5.0940699999999364
 20
5.6238499999999974
 40
0.2100000000000007
 50
0.0
 51
360.0
 73
               0
 97
        1
330
1A1
 75
               0
 76
               1
 98
        1
 10
0.0
 20
0.0
  0
CIRCLE
  5
1A3
102
{ACAD_REACTORS
330
1A4
102
}
100
AcDbEntity
  8
None
370
               9
390
0
  6
Continuous
 62
               7
100
AcDbCircle
 10
-4.2940699999999365
 20
5.6238499999999974
 30
0.0
 40
0.2100000000000007
  0
HATCH
  5
1A4
100
AcDbEntity
  8
None
370
               0
390
0
  6
Continuous
 62
               7
100
AcDbHatch
 10
0.0
 20
0.0
 30
0.0
210
0.0
220
0.0
230
1.0
  2
SOLID
 70
               1
 71
               1
 91
        1
 92
        1
 93
        1
 72
               2
 10
-4.2940699999999365
 20
5.6238499999999974
 40
0.2100000000000007
 50
0.0
 51
360.0
 73
               0
 97
        1
330
1A3
 75
               0
 76
               1
 98
        1
 10
0.0
 20
0.0
  0
CIRCLE
  5
1A5
102
{ACAD_REACTORS
330
1A6
102
}
100
AcDbEntity
  8
None
370
               9
390
0
  6
Continuous
 62
               7
100
AcDbCircle
 10
-3.4940699999999363
 20
5.6238499999999974
 30
0.0
 40
0.2100000000000007
  0
HATCH
  5
1A6
100
AcDbEntity
  8
None
370
               0
390
0
  6
Continuous
 62
               7
100
AcDbHatch
 10
0.0
 20
0.0
 30
0.0
210
0.0
220
0.0
230
1.0
  2
SOLID
 70
               1
 71
               1
 91
        1
 92
        1
 93
        1
 72
               2
 10
-3.4940699999999363
 20
5.6238499999999974
 40
0.2100000000000007
 50
0.0
 51
360.0
 73
               0
 97
        1
330
1A5
 75
               0
 76
               1
 98
        1
 10
0.0
 20
0.0
  0
CIRCLE
  5
1A7
102
{ACAD_REACTORS
330
1A8
102
}
100
AcDbEntity
  8
None
370
               9
390
0
  6
Continuous
 62
               7
100
AcDbCircle
 10
-2.694069999999936
 20
5.6238499999999974
 30
0.0
 40
0.2100000000000007
  0
HATCH
  5
1A8
100
AcDbEntity
  8
None
370
               0
390
0
  6
Continuous
 62
               7
100
AcDbHatch
 10
0.0
 20
0.0
 30
0.0
210
0.0
220
0.0
230
1.0
  2
SOLID
 70
               1
 71
               1
 91
        1
 92
        1
 93
        1
 72
               2
 10
-2.694069999999936
 20
5.6238499999999974
 40
0.2100000000000007
 50
0.0
 51
360.0
 73
               0
 97
        1
330
1A7
 75
               0
 76
               1
 98
        1
 10
0.0
 20
0.0
  0
CIRCLE
  5
1A9
102
{ACAD_REACTORS
330
1AA
102
}
100
AcDbEntity
  8
None
370
               9
390
0
  6
Continuous
 62
               7
100
AcDbCircle
 10
-1.8940699999999362
 20
5.6238499999999974
 30
0.0
 40
0.2100000000000007
  0
HATCH
  5
1AA
100
AcDbEntity
  8
None
370
               0
390
0
  6
Continuous
 62
               7
100
AcDbHatch
 10
0.0
 20
0.0
 30
0.0
210
0.0
220
0.0
230
1.0
  2
SOLID
 70
               1
 71
               1
 91
        1
 92
        1
 93
        1
 72
               2
 10
-1.8940699999999362
 20
5.6238499999999974
 40
0.2100000000000007
 50
0.0
 51
360.0
 73
               0
 97
        1
330
1A9
 75
               0
 76
               1
 98
        1
 10
0.0
 20
0.0
  0
CIRCLE
  5
1AB
102
{ACAD_REACTORS
330
1AC
102
}
100
AcDbEntity
  8
None
370
               9
390
0
  6
Continuous
 62
               7
100
AcDbCircle
 10
-1.0940699999999364
 20
5.6238499999999974
 30
0.0
 40
0.2100000000000007
  0
HATCH
  5
1AC
100
AcDbEntity
  8
None
370
               0
390
0
  6
Continuous
 62
               7
100
AcDbHatch
 10
0.0
 20
0.0
 30
0.0
210
0.0
220
0.0
230
1.0
  2
SOLID
 70
               1
 71
               1
 91
        1
 92
        1
 93
        1
 72
               2
 10
-1.0940699999999364
 20
5.6238499999999974
 40
0.2100000000000007
 50
0.0
 51
360.0
 73
               0
 97
        1
330
1AB
 75
               0
 76
               1
 98
        1
 10
0.0
 20
0.0
  0
CIRCLE
  5
1AD
102
{ACAD_REACTORS
330
1AE
102
}
100
AcDbEntity
  8
None
370
               9
390
0
  6
Continuous
 62
               7
100
AcDbCircle
 10
-0.2940699999999366
 20
5.6238499999999974
 30
0.0
 40
0.2100000000000007
  0
HATCH
  5
1AE
100
AcDbEntity
  8
None
370
               0
390
0
  6
Continuous
 62
               7
100
AcDbHatch
 10
0.0
 20
0.0
 30
0.0
210
0.0
220
0.0
230
1.0
  2
SOLID
 70
               1
 71
               1
 91
        1
 92
        1
 93
        1
 72
               2
 10
-0.2940699999999366
 20
5.6238499999999974
 40
0.2100000000000007
 50
0.0
 51
360.0
 73
               0
 97
        1
330
1AD
 75
               0
 76
               1
 98
        1
 10
0.0
 20
0.0
  0
CIRCLE
  5
1AF
102
{ACAD_REACTORS
330
1B0
102
}
100
AcDbEntity
  8
None
370
               9
390
0
  6
Continuous
 62
               7
100
AcDbCircle
 10
0.5059300000000633
 20
5.6238499999999974
 30
0.0
 40
0.2100000000000007
  0
HATCH
  5
1B0
100
AcDbEntity
  8
None
370
               0
390
0
  6
Continuous
 62
               7
100
AcDbHatch
 10
0.0
 20
0.0
 30
0.0
210
0.0
220
0.0
230
1.0
  2
SOLID
 70
               1
 71
               1
 91
        1
 92
        1
 93
        1
 72
               2
 10
0.5059300000000633
 20
5.6238499999999974
 40
0.2100000000000007
 50
0.0
 51
360.0
 73
               0
 97
        1
330
1AF
 75
               0
 76
               1
 98
        1
 10
0.0
 20
0.0
  0
CIRCLE
  5
1B1
102
{ACAD_REACTORS
330
1B2
102
}
100
AcDbEntity
  8
None
370
               9
390
0
  6
Continuous
 62
               7
100
AcDbCircle
 10
1.3059300000000631
 20
5.6238499999999974
 30
0.0
 40
0.2100000000000007
  0
HATCH
  5
1B2
100
AcDbEntity
  8
None
370
               0
390
0
  6
Continuous
 62
               7
100
AcDbHatch
 10
0.0
 20
0.0
 30
0.0
210
0.0
220
0.0
230
1.0
  2
SOLID
 70
               1
 71
               1
 91
        1
 92
        1
 93
        1
 72
               2
 10
1.3059300000000631
 20
5.6238499999999974
 40
0.2100000000000007
 50
0.0
 51
360.0
 73
               0
 97
        1
330
1B1
 75
               0
 76
               1
 98
        1
 10
0.0
 20
0.0
  0
CIRCLE
  5
1B3
102
{ACAD_REACTORS
330
1B4
102
}
100
AcDbEntity
  8
None
370
               9
390
0
  6
Continuous
 62
               7
100
AcDbCircle
 10
2.1059300000000629
 20
5.6238499999999974
 30
0.0
 40
0.2100000000000007
  0
HATCH
  5
1B4
100
AcDbEntity
  8
None
370
               0
390
0
  6
Continuous
 62
               7
100
AcDbHatch
 10
0.0
 20
0.0
 30
0.0
210
0.0
220
0.0
230
1.0
  2
SOLID
 70
               1
 71
               1
 91
        1
 92
        1
 93
        1
 72
               2
 10
2.1059300000000629
 20
5.6238499999999974
 40
0.2100000000000007
 50
0.0
 51
360.0
 73
               0
 97
        1
330
1B3
 75
               0
 76
               1
 98
        1
 10
0.0
 20
0.0
  0
CIRCLE
  5
1B5
102
{ACAD_REACTORS
330
1B6
102
}
100
AcDbEntity
  8
None
370
               9
390
0
  6
Continuous
 62
               7
100
AcDbCircle
 10
2.9059300000000627
 20
5.6238499999999974
 30
0.0
 40
0.2100000000000007
  0
HATCH
  5
1B6
100
AcDbEntity
  8
None
370
               0
390
0
  6
Continuous
 62
               7
100
AcDbHatch
 10
0.0
 20
0.0
 30
0.0
210
0.0
220
0.0
230
1.0
  2
SOLID
 70
               1
 71
               1
 91
        1
 92
        1
 93
        1
 72
               2
 10
2.9059300000000627
 20
5.6238499999999974
 40
0.2100000000000007
 50
0.0
 51
360.0
 73
               0
 97
        1
330
1B5
 75
               0
 76
               1
 98
        1
 10
0.0
 20
0.0
  0
CIRCLE
  5
1B7
102
{ACAD_REACTORS
330
1B8
102
}
100
AcDbEntity
  8
None
370
               9
390
0
  6
Continuous
 62
               7
100
AcDbCircle
 10
3.7059300000000626
 20
5.6238499999999974
 30
0.0
 40
0.2100000000000007
  0
HATCH
  5
1B8
100
AcDbEntity
  8
None
370
               0
390
0
  6
Continuous
 62
               7
100
AcDbHatch
 10
0.0
 20
0.0
 30
0.0
210
0.0
220
0.0
230
1.0
  2
SOLID
 70
               1
 71
               1
 91
        1
 92
        1
 93
        1
 72
               2
 10
3.7059300000000626
 20
5.6238499999999974
 40
0.2100000000000007
 50
0.0
 51
360.0
 73
               0
 97
        1
330
1B7
 75
               0
 76
               1
 98
        1
 10
0.0
 20
0.0
  0
CIRCLE
  5
1B9
102
{ACAD_REACTORS
330
1BA
102
}
100
AcDbEntity
  8
None
370
               9
390
0
  6
Continuous
 62
               7
100
AcDbCircle
 10
4.5059300000000633
 20
5.6238499999999974
 30
0.0
 40
0.2100000000000007
  0
HATCH
  5
1BA
100
AcDbEntity
  8
None
370
               0
390
0
  6
Continuous
 62
               7
100
AcDbHatch
 10
0.0
 20
0.0
 30
0.0
210
0.0
220
0.0
230
1.0
  2
SOLID
 70
               1
 71
               1
 91
        1
 92
        1
 93
        1
 72
               2
 10
4.5059300000000633
 20
5.6238499999999974
 40
0.2100000000000007
 50
0.0
 51
360.0
 73
               0
 97
        1
330
1B9
 75
               0
 76
               1
 98
        1
 10
0.0
 20
0.0
  0
CIRCLE
  5
1BB
102
{ACAD_REACTORS
330
1BC
102
}
100
AcDbEntity
  8
None
370
               9
390
0
  6
Continuous
 62
               7
100
AcDbCircle
 10
-5.0940699999999364
 20
4.8238499999999975
 30
0.0
 40
0.2100000000000007
  0
HATCH
  5
1BC
100
AcDbEntity
  8
None
370
               0
390
0
  6
Continuous
 62
               7
100
AcDbHatch
 10
0.0
 20
0.0
 30
0.0
210
0.0
220
0.0
230
1.0
  2
SOLID
 70
               1
 71
               1
 91
        1
 92
        1
 93
        1
 72
               2
 10
-5.0940699999999364
 20
4.8238499999999975
 40
0.2100000000000007
 50
0.0
 51
360.0
 73
               0
 97
        1
330
1BB
 75
               0
 76
               1
 98
        1
 10
0.0
 20
0.0
  0
CIRCLE
  5
1BD
102
{ACAD_REACTORS
330
1BE
102
}
100
AcDbEntity
  8
None
370
               9
390
0
  6
Continuous
 62
               7
100
AcDbCircle
 10
-4.2940699999999365
 20
4.8238499999999975
 30
0.0
 40
0.2100000000000007
  0
HATCH
  5
1BE
100
AcDbEntity
  8
None
370
               0
390
0
  6
Continuous
 62
               7
100
AcDbHatch
 10
0.0
 20
0.0
 30
0.0
210
0.0
220
0.0
230
1.0
  2
SOLID
 70
               1
 71
               1
 91
        1
 92
        1
 93
        1
 72
               2
 10
-4.2940699999999365
 20
4.8238499999999975
 40
0.2100000000000007
 50
0.0
 51
360.0
 73
               0
 97
        1
330
1BD
 75
               0
 76
               1
 98
        1
 10
0.0
 20
0.0
  0
CIRCLE
  5
1BF
102
{ACAD_REACTORS
330
1C0
102
}
100
AcDbEntity
  8
None
370
               9
390
0
  6
Continuous
 62
               7
100
AcDbCircle
 10
-3.4940699999999363
 20
4.8238499999999975
 30
0.0
 40
0.2100000000000007
  0
HATCH
  5
1C0
100
AcDbEntity
  8
None
370
               0
390
0
  6
Continuous
 62
               7
100
AcDbHatch
 10
0.0
 20
0.0
 30
0.0
210
0.0
220
0.0
230
1.0
  2
SOLID
 70
               1
 71
               1
 91
        1
 92
        1
 93
        1
 72
               2
 10
-3.4940699999999363
 20
4.8238499999999975
 40
0.2100000000000007
 50
0.0
 51
360.0
 73
               0
 97
        1
330
1BF
 75
               0
 76
               1
 98
        1
 10
0.0
 20
0.0
  0
CIRCLE
  5
1C1
102
{ACAD_REACTORS
330
1C2
102
}
100
AcDbEntity
  8
None
370
               9
390
0
  6
Continuous
 62
               7
100
AcDbCircle
 10
-2.694069999999936
 20
4.8238499999999975
 30
0.0
 40
0.2100000000000007
  0
HATCH
  5
1C2
100
AcDbEntity
  8
None
370
               0
390
0
  6
Continuous
 62
               7
100
AcDbHatch
 10
0.0
 20
0.0
 30
0.0
210
0.0
220
0.0
230
1.0
  2
SOLID
 70
               1
 71
               1
 91
        1
 92
        1
 93
        1
 72
               2
 10
-2.694069999999936
 20
4.8238499999999975
 40
0.2100000000000007
 50
0.0
 51
360.0
 73
               0
 97
        1
330
1C1
 75
               0
 76
               1
 98
        1
 10
0.0
 20
0.0
  0
CIRCLE
  5
1C3
102
{ACAD_REACTORS
330
1C4
102
}
100
AcDbEntity
  8
None
370
               9
390
0
  6
Continuous
 62
               7
100
AcDbCircle
 10
-1.8940699999999362
 20
4.8238499999999975
 30
0.0
 40
0.2100000000000007
  0
HATCH
  5
1C4
100
AcDbEntity
  8
None
370
               0
390
0
  6
Continuous
 62
               7
100
AcDbHatch
 10
0.0
 20
0.0
 30
0.0
210
0.0
220
0.0
230
1.0
  2
SOLID
 70
               1
 71
               1
 91
        1
 92
        1
 93
        1
 72
               2
 10
-1.8940699999999362
 20
4.8238499999999975
 40
0.2100000000000007
 50
0.0
 51
360.0
 73
               0
 97
        1
330
1C3
 75
               0
 76
               1
 98
        1
 10
0.0
 20
0.0
  0
CIRCLE
  5
1C5
102
{ACAD_REACTORS
330
1C6
102
}
100
AcDbEntity
  8
None
370
               9
390
0
  6
Continuous
 62
               7
100
AcDbCircle
 10
-1.0940699999999364
 20
4.8238499999999975
 30
0.0
 40
0.2100000000000007
  0
HATCH
  5
1C6
100
AcDbEntity
  8
None
370
               0
390
0
  6
Continuous
 62
               7
100
AcDbHatch
 10
0.0
 20
0.0
 30
0.0
210
0.0
220
0.0
230
1.0
  2
SOLID
 70
               1
 71
               1
 91
        1
 92
        1
 93
        1
 72
               2
 10
-1.0940699999999364
 20
4.8238499999999975
 40
0.2100000000000007
 50
0.0
 51
360.0
 73
               0
 97
        1
330
1C5
 75
               0
 76
               1
 98
        1
 10
0.0
 20
0.0
  0
CIRCLE
  5
1C7
102
{ACAD_REACTORS
330
1C8
102
}
100
AcDbEntity
  8
None
370
               9
390
0
  6
Continuous
 62
               7
100
AcDbCircle
 10
-0.2940699999999366
 20
4.8238499999999975
 30
0.0
 40
0.2100000000000007
  0
HATCH
  5
1C8
100
AcDbEntity
  8
None
370
               0
390
0
  6
Continuous
 62
               7
100
AcDbHatch
 10
0.0
 20
0.0
 30
0.0
210
0.0
220
0.0
230
1.0
  2
SOLID
 70
               1
 71
               1
 91
        1
 92
        1
 93
        1
 72
               2
 10
-0.2940699999999366
 20
4.8238499999999975
 40
0.2100000000000007
 50
0.0
 51
360.0
 73
               0
 97
        1
330
1C7
 75
               0
 76
               1
 98
        1
 10
0.0
 20
0.0
  0
CIRCLE
  5
1C9
102
{ACAD_REACTORS
330
1CA
102
}
100
AcDbEntity
  8
None
370
               9
390
0
  6
Continuous
 62
               7
100
AcDbCircle
 10
0.5059300000000633
 20
4.8238499999999975
 30
0.0
 40
0.2100000000000007
  0
HATCH
  5
1CA
100
AcDbEntity
  8
None
370
               0
390
0
  6
Continuous
 62
               7
100
AcDbHatch
 10
0.0
 20
0.0
 30
0.0
210
0.0
220
0.0
230
1.0
  2
SOLID
 70
               1
 71
               1
 91
        1
 92
        1
 93
        1
 72
               2
 10
0.5059300000000633
 20
4.8238499999999975
 40
0.2100000000000007
 50
0.0
 51
360.0
 73
               0
 97
        1
330
1C9
 75
               0
 76
               1
 98
        1
 10
0.0
 20
0.0
  0
CIRCLE
  5
1CB
102
{ACAD_REACTORS
330
1CC
102
}
100
AcDbEntity
  8
None
370
               9
390
0
  6
Continuous
 62
               7
100
AcDbCircle
 10
1.3059300000000631
 20
4.8238499999999975
 30
0.0
 40
0.2100000000000007
  0
HATCH
  5
1CC
100
AcDbEntity
  8
None
370
               0
390
0
  6
Continuous
 62
               7
100
AcDbHatch
 10
0.0
 20
0.0
 30
0.0
210
0.0
220
0.0
230
1.0
  2
SOLID
 70
               1
 71
               1
 91
        1
 92
        1
 93
        1
 72
               2
 10
1.3059300000000631
 20
4.8238499999999975
 40
0.2100000000000007
 50
0.0
 51
360.0
 73
               0
 97
        1
330
1CB
 75
               0
 76
               1
 98
        1
 10
0.0
 20
0.0
  0
CIRCLE
  5
1CD
102
{ACAD_REACTORS
330
1CE
102
}
100
AcDbEntity
  8
None
370
               9
390
0
  6
Continuous
 62
               7
100
AcDbCircle
 10
2.1059300000000629
 20
4.8238499999999975
 30
0.0
 40
0.2100000000000007
  0
HATCH
  5
1CE
100
AcDbEntity
  8
None
370
               0
390
0
  6
Continuous
 62
               7
100
AcDbHatch
 10
0.0
 20
0.0
 30
0.0
210
0.0
220
0.0
230
1.0
  2
SOLID
 70
               1
 71
               1
 91
        1
 92
        1
 93
        1
 72
               2
 10
2.1059300000000629
 20
4.8238499999999975
 40
0.2100000000000007
 50
0.0
 51
360.0
 73
               0
 97
        1
330
1CD
 75
               0
 76
               1
 98
        1
 10
0.0
 20
0.0
  0
CIRCLE
  5
1CF
102
{ACAD_REACTORS
330
1D0
102
}
100
AcDbEntity
  8
None
370
               9
390
0
  6
Continuous
 62
               7
100
AcDbCircle
 10
2.9059300000000627
 20
4.8238499999999975
 30
0.0
 40
0.2100000000000007
  0
HATCH
  5
1D0
100
AcDbEntity
  8
None
370
               0
390
0
  6
Continuous
 62
               7
100
AcDbHatch
 10
0.0
 20
0.0
 30
0.0
210
0.0
220
0.0
230
1.0
  2
SOLID
 70
               1
 71
               1
 91
        1
 92
        1
 93
        1
 72
               2
 10
2.9059300000000627
 20
4.8238499999999975
 40
0.2100000000000007
 50
0.0
 51
360.0
 73
               0
 97
        1
330
1CF
 75
               0
 76
               1
 98
        1
 10
0.0
 20
0.0
  0
CIRCLE
  5
1D1
102
{ACAD_REACTORS
330
1D2
102
}
100
AcDbEntity
  8
None
370
               9
390
0
  6
Continuous
 62
               7
100
AcDbCircle
 10
3.7059300000000626
 20
4.8238499999999975
 30
0.0
 40
0.2100000000000007
  0
HATCH
  5
1D2
100
AcDbEntity
  8
None
370
               0
390
0
  6
Continuous
 62
               7
100
AcDbHatch
 10
0.0
 20
0.0
 30
0.0
210
0.0
220
0.0
230
1.0
  2
SOLID
 70
               1
 71
               1
 91
        1
 92
        1
 93
        1
 72
               2
 10
3.7059300000000626
 20
4.8238499999999975
 40
0.2100000000000007
 50
0.0
 51
360.0
 73
               0
 97
        1
330
1D1
 75
               0
 76
               1
 98
        1
 10
0.0
 20
0.0
  0
CIRCLE
  5
1D3
102
{ACAD_REACTORS
330
1D4
102
}
100
AcDbEntity
  8
None
370
               9
390
0
  6
Continuous
 62
               7
100
AcDbCircle
 10
4.5059300000000633
 20
4.8238499999999975
 30
0.0
 40
0.2100000000000007
  0
HATCH
  5
1D4
100
AcDbEntity
  8
None
370
               0
390
0
  6
Continuous
 62
               7
100
AcDbHatch
 10
0.0
 20
0.0
 30
0.0
210
0.0
220
0.0
230
1.0
  2
SOLID
 70
               1
 71
               1
 91
        1
 92
        1
 93
        1
 72
               2
 10
4.5059300000000633
 20
4.8238499999999975
 40
0.2100000000000007
 50
0.0
 51
360.0
 73
               0
 97
        1
330
1D3
 75
               0
 76
               1
 98
        1
 10
0.0
 20
0.0
  0
CIRCLE
  5
1D5
102
{ACAD_REACTORS
330
1D6
102
}
100
AcDbEntity
  8
None
370
               9
390
0
  6
Continuous
 62
               7
100
AcDbCircle
 10
-5.0940699999999364
 20
4.0238499999999977
 30
0.0
 40
0.2100000000000007
  0
HATCH
  5
1D6
100
AcDbEntity
  8
None
370
               0
390
0
  6
Continuous
 62
               7
100
AcDbHatch
 10
0.0
 20
0.0
 30
0.0
210
0.0
220
0.0
230
1.0
  2
SOLID
 70
               1
 71
               1
 91
        1
 92
        1
 93
        1
 72
               2
 10
-5.0940699999999364
 20
4.0238499999999977
 40
0.2100000000000007
 50
0.0
 51
360.0
 73
               0
 97
        1
330
1D5
 75
               0
 76
               1
 98
        1
 10
0.0
 20
0.0
  0
CIRCLE
  5
1D7
102
{ACAD_REACTORS
330
1D8
102
}
100
AcDbEntity
  8
None
370
               9
390
0
  6
Continuous
 62
               7
100
AcDbCircle
 10
-4.2940699999999365
 20
4.0238499999999977
 30
0.0
 40
0.2100000000000007
  0
HATCH
  5
1D8
100
AcDbEntity
  8
None
370
               0
390
0
  6
Continuous
 62
               7
100
AcDbHatch
 10
0.0
 20
0.0
 30
0.0
210
0.0
220
0.0
230
1.0
  2
SOLID
 70
               1
 71
               1
 91
        1
 92
        1
 93
        1
 72
               2
 10
-4.2940699999999365
 20
4.0238499999999977
 40
0.2100000000000007
 50
0.0
 51
360.0
 73
               0
 97
        1
330
1D7
 75
               0
 76
               1
 98
        1
 10
0.0
 20
0.0
  0
CIRCLE
  5
1D9
102
{ACAD_REACTORS
330
1DA
102
}
100
AcDbEntity
  8
None
370
               9
390
0
  6
Continuous
 62
               7
100
AcDbCircle
 10
-3.4940699999999363
 20
4.0238499999999977
 30
0.0
 40
0.2100000000000007
  0
HATCH
  5
1DA
100
AcDbEntity
  8
None
370
               0
390
0
  6
Continuous
 62
               7
100
AcDbHatch
 10
0.0
 20
0.0
 30
0.0
210
0.0
220
0.0
230
1.0
  2
SOLID
 70
               1
 71
               1
 91
        1
 92
        1
 93
        1
 72
               2
 10
-3.4940699999999363
 20
4.0238499999999977
 40
0.2100000000000007
 50
0.0
 51
360.0
 73
               0
 97
        1
330
1D9
 75
               0
 76
               1
 98
        1
 10
0.0
 20
0.0
  0
CIRCLE
  5
1DB
102
{ACAD_REACTORS
330
1DC
102
}
100
AcDbEntity
  8
None
370
               9
390
0
  6
Continuous
 62
               7
100
AcDbCircle
 10
-2.694069999999936
 20
4.0238499999999977
 30
0.0
 40
0.2100000000000007
  0
HATCH
  5
1DC
100
AcDbEntity
  8
None
370
               0
390
0
  6
Continuous
 62
               7
100
AcDbHatch
 10
0.0
 20
0.0
 30
0.0
210
0.0
220
0.0
230
1.0
  2
SOLID
 70
               1
 71
               1
 91
        1
 92
        1
 93
        1
 72
               2
 10
-2.694069999999936
 20
4.0238499999999977
 40
0.2100000000000007
 50
0.0
 51
360.0
 73
               0
 97
        1
330
1DB
 75
               0
 76
               1
 98
        1
 10
0.0
 20
0.0
  0
CIRCLE
  5
1DD
102
{ACAD_REACTORS
330
1DE
102
}
100
AcDbEntity
  8
None
370
               9
390
0
  6
Continuous
 62
               7
100
AcDbCircle
 10
-1.8940699999999362
 20
4.0238499999999977
 30
0.0
 40
0.2100000000000007
  0
HATCH
  5
1DE
100
AcDbEntity
  8
None
370
               0
390
0
  6
Continuous
 62
               7
100
AcDbHatch
 10
0.0
 20
0.0
 30
0.0
210
0.0
220
0.0
230
1.0
  2
SOLID
 70
               1
 71
               1
 91
        1
 92
        1
 93
        1
 72
               2
 10
-1.8940699999999362
 20
4.0238499999999977
 40
0.2100000000000007
 50
0.0
 51
360.0
 73
               0
 97
        1
330
1DD
 75
               0
 76
               1
 98
        1
 10
0.0
 20
0.0
  0
CIRCLE
  5
1DF
102
{ACAD_REACTORS
330
1E0
102
}
100
AcDbEntity
  8
None
370
               9
390
0
  6
Continuous
 62
               7
100
AcDbCircle
 10
-1.0940699999999364
 20
4.0238499999999977
 30
0.0
 40
0.2100000000000007
  0
HATCH
  5
1E0
100
AcDbEntity
  8
None
370
               0
390
0
  6
Continuous
 62
               7
100
AcDbHatch
 10
0.0
 20
0.0
 30
0.0
210
0.0
220
0.0
230
1.0
  2
SOLID
 70
               1
 71
               1
 91
        1
 92
        1
 93
        1
 72
               2
 10
-1.0940699999999364
 20
4.0238499999999977
 40
0.2100000000000007
 50
0.0
 51
360.0
 73
               0
 97
        1
330
1DF
 75
               0
 76
               1
 98
        1
 10
0.0
 20
0.0
  0
CIRCLE
  5
1E1
102
{ACAD_REACTORS
330
1E2
102
}
100
AcDbEntity
  8
None
370
               9
390
0
  6
Continuous
 62
               7
100
AcDbCircle
 10
-0.2940699999999366
 20
4.0238499999999977
 30
0.0
 40
0.2100000000000007
  0
HATCH
  5
1E2
100
AcDbEntity
  8
None
370
               0
390
0
  6
Continuous
 62
               7
100
AcDbHatch
 10
0.0
 20
0.0
 30
0.0
210
0.0
220
0.0
230
1.0
  2
SOLID
 70
               1
 71
               1
 91
        1
 92
        1
 93
        1
 72
               2
 10
-0.2940699999999366
 20
4.0238499999999977
 40
0.2100000000000007
 50
0.0
 51
360.0
 73
               0
 97
        1
330
1E1
 75
               0
 76
               1
 98
        1
 10
0.0
 20
0.0
  0
CIRCLE
  5
1E3
102
{ACAD_REACTORS
330
1E4
102
}
100
AcDbEntity
  8
None
370
               9
390
0
  6
Continuous
 62
               7
100
AcDbCircle
 10
0.5059300000000633
 20
4.0238499999999977
 30
0.0
 40
0.2100000000000007
  0
HATCH
  5
1E4
100
AcDbEntity
  8
None
370
               0
390
0
  6
Continuous
 62
               7
100
AcDbHatch
 10
0.0
 20
0.0
 30
0.0
210
0.0
220
0.0
230
1.0
  2
SOLID
 70
               1
 71
               1
 91
        1
 92
        1
 93
        1
 72
               2
 10
0.5059300000000633
 20
4.0238499999999977
 40
0.2100000000000007
 50
0.0
 51
360.0
 73
               0
 97
        1
330
1E3
 75
               0
 76
               1
 98
        1
 10
0.0
 20
0.0
  0
CIRCLE
  5
1E5
102
{ACAD_REACTORS
330
1E6
102
}
100
AcDbEntity
  8
None
370
               9
390
0
  6
Continuous
 62
               7
100
AcDbCircle
 10
1.3059300000000631
 20
4.0238499999999977
 30
0.0
 40
0.2100000000000007
  0
HATCH
  5
1E6
100
AcDbEntity
  8
None
370
               0
390
0
  6
Continuous
 62
               7
100
AcDbHatch
 10
0.0
 20
0.0
 30
0.0
210
0.0
220
0.0
230
1.0
  2
SOLID
 70
               1
 71
               1
 91
        1
 92
        1
 93
        1
 72
               2
 10
1.3059300000000631
 20
4.0238499999999977
 40
0.2100000000000007
 50
0.0
 51
360.0
 73
               0
 97
        1
330
1E5
 75
               0
 76
               1
 98
        1
 10
0.0
 20
0.0
  0
CIRCLE
  5
1E7
102
{ACAD_REACTORS
330
1E8
102
}
100
AcDbEntity
  8
None
370
               9
390
0
  6
Continuous
 62
               7
100
AcDbCircle
 10
2.1059300000000629
 20
4.0238499999999977
 30
0.0
 40
0.2100000000000007
  0
HATCH
  5
1E8
100
AcDbEntity
  8
None
370
               0
390
0
  6
Continuous
 62
               7
100
AcDbHatch
 10
0.0
 20
0.0
 30
0.0
210
0.0
220
0.0
230
1.0
  2
SOLID
 70
               1
 71
               1
 91
        1
 92
        1
 93
        1
 72
               2
 10
2.1059300000000629
 20
4.0238499999999977
 40
0.2100000000000007
 50
0.0
 51
360.0
 73
               0
 97
        1
330
1E7
 75
               0
 76
               1
 98
        1
 10
0.0
 20
0.0
  0
CIRCLE
  5
1E9
102
{ACAD_REACTORS
330
1EA
102
}
100
AcDbEntity
  8
None
370
               9
390
0
  6
Continuous
 62
               7
100
AcDbCircle
 10
2.9059300000000627
 20
4.0238499999999977
 30
0.0
 40
0.2100000000000007
  0
HATCH
  5
1EA
100
AcDbEntity
  8
None
370
               0
390
0
  6
Continuous
 62
               7
100
AcDbHatch
 10
0.0
 20
0.0
 30
0.0
210
0.0
220
0.0
230
1.0
  2
SOLID
 70
               1
 71
               1
 91
        1
 92
        1
 93
        1
 72
               2
 10
2.9059300000000627
 20
4.0238499999999977
 40
0.2100000000000007
 50
0.0
 51
360.0
 73
               0
 97
        1
330
1E9
 75
               0
 76
               1
 98
        1
 10
0.0
 20
0.0
  0
CIRCLE
  5
1EB
102
{ACAD_REACTORS
330
1EC
102
}
100
AcDbEntity
  8
None
370
               9
390
0
  6
Continuous
 62
               7
100
AcDbCircle
 10
3.7059300000000626
 20
4.0238499999999977
 30
0.0
 40
0.2100000000000007
  0
HATCH
  5
1EC
100
AcDbEntity
  8
None
370
               0
390
0
  6
Continuous
 62
               7
100
AcDbHatch
 10
0.0
 20
0.0
 30
0.0
210
0.0
220
0.0
230
1.0
  2
SOLID
 70
               1
 71
               1
 91
        1
 92
        1
 93
        1
 72
               2
 10
3.7059300000000626
 20
4.0238499999999977
 40
0.2100000000000007
 50
0.0
 51
360.0
 73
               0
 97
        1
330
1EB
 75
               0
 76
               1
 98
        1
 10
0.0
 20
0.0
  0
CIRCLE
  5
1ED
102
{ACAD_REACTORS
330
1EE
102
}
100
AcDbEntity
  8
None
370
               9
390
0
  6
Continuous
 62
               7
100
AcDbCircle
 10
4.5059300000000633
 20
4.0238499999999977
 30
0.0
 40
0.2100000000000007
  0
HATCH
  5
1EE
100
AcDbEntity
  8
None
370
               0
390
0
  6
Continuous
 62
               7
100
AcDbHatch
 10
0.0
 20
0.0
 30
0.0
210
0.0
220
0.0
230
1.0
  2
SOLID
 70
               1
 71
               1
 91
        1
 92
        1
 93
        1
 72
               2
 10
4.5059300000000633
 20
4.0238499999999977
 40
0.2100000000000007
 50
0.0
 51
360.0
 73
               0
 97
        1
330
1ED
 75
               0
 76
               1
 98
        1
 10
0.0
 20
0.0
  0
CIRCLE
  5
1EF
102
{ACAD_REACTORS
330
1F0
102
}
100
AcDbEntity
  8
None
370
               9
390
0
  6
Continuous
 62
               7
100
AcDbCircle
 10
-5.0940699999999364
 20
3.2238499999999979
 30
0.0
 40
0.2100000000000007
  0
HATCH
  5
1F0
100
AcDbEntity
  8
None
370
               0
390
0
  6
Continuous
 62
               7
100
AcDbHatch
 10
0.0
 20
0.0
 30
0.0
210
0.0
220
0.0
230
1.0
  2
SOLID
 70
               1
 71
               1
 91
        1
 92
        1
 93
        1
 72
               2
 10
-5.0940699999999364
 20
3.2238499999999979
 40
0.2100000000000007
 50
0.0
 51
360.0
 73
               0
 97
        1
330
1EF
 75
               0
 76
               1
 98
        1
 10
0.0
 20
0.0
  0
CIRCLE
  5
1F1
102
{ACAD_REACTORS
330
1F2
102
}
100
AcDbEntity
  8
None
370
               9
390
0
  6
Continuous
 62
               7
100
AcDbCircle
 10
-4.2940699999999365
 20
3.2238499999999979
 30
0.0
 40
0.2100000000000007
  0
HATCH
  5
1F2
100
AcDbEntity
  8
None
370
               0
390
0
  6
Continuous
 62
               7
100
AcDbHatch
 10
0.0
 20
0.0
 30
0.0
210
0.0
220
0.0
230
1.0
  2
SOLID
 70
               1
 71
               1
 91
        1
 92
        1
 93
        1
 72
               2
 10
-4.2940699999999365
 20
3.2238499999999979
 40
0.2100000000000007
 50
0.0
 51
360.0
 73
               0
 97
        1
330
1F1
 75
               0
 76
               1
 98
        1
 10
0.0
 20
0.0
  0
CIRCLE
  5
1F3
102
{ACAD_REACTORS
330
1F4
102
}
100
AcDbEntity
  8
None
370
               9
390
0
  6
Continuous
 62
               7
100
AcDbCircle
 10
-3.4940699999999363
 20
3.2238499999999979
 30
0.0
 40
0.2100000000000007
  0
HATCH
  5
1F4
100
AcDbEntity
  8
None
370
               0
390
0
  6
Continuous
 62
               7
100
AcDbHatch
 10
0.0
 20
0.0
 30
0.0
210
0.0
220
0.0
230
1.0
  2
SOLID
 70
               1
 71
               1
 91
        1
 92
        1
 93
        1
 72
               2
 10
-3.4940699999999363
 20
3.2238499999999979
 40
0.2100000000000007
 50
0.0
 51
360.0
 73
               0
 97
        1
330
1F3
 75
               0
 76
               1
 98
        1
 10
0.0
 20
0.0
  0
CIRCLE
  5
1F5
102
{ACAD_REACTORS
330
1F6
102
}
100
AcDbEntity
  8
None
370
               9
390
0
  6
Continuous
 62
               7
100
AcDbCircle
 10
-2.694069999999936
 20
3.2238499999999979
 30
0.0
 40
0.2100000000000007
  0
HATCH
  5
1F6
100
AcDbEntity
  8
None
370
               0
390
0
  6
Continuous
 62
               7
100
AcDbHatch
 10
0.0
 20
0.0
 30
0.0
210
0.0
220
0.0
230
1.0
  2
SOLID
 70
               1
 71
               1
 91
        1
 92
        1
 93
        1
 72
               2
 10
-2.694069999999936
 20
3.2238499999999979
 40
0.2100000000000007
 50
0.0
 51
360.0
 73
               0
 97
        1
330
1F5
 75
               0
 76
               1
 98
        1
 10
0.0
 20
0.0
  0
CIRCLE
  5
1F7
102
{ACAD_REACTORS
330
1F8
102
}
100
AcDbEntity
  8
None
370
               9
390
0
  6
Continuous
 62
               7
100
AcDbCircle
 10
-1.8940699999999362
 20
3.2238499999999979
 30
0.0
 40
0.2100000000000007
  0
HATCH
  5
1F8
100
AcDbEntity
  8
None
370
               0
390
0
  6
Continuous
 62
               7
100
AcDbHatch
 10
0.0
 20
0.0
 30
0.0
210
0.0
220
0.0
230
1.0
  2
SOLID
 70
               1
 71
               1
 91
        1
 92
        1
 93
        1
 72
               2
 10
-1.8940699999999362
 20
3.2238499999999979
 40
0.2100000000000007
 50
0.0
 51
360.0
 73
               0
 97
        1
330
1F7
 75
               0
 76
               1
 98
        1
 10
0.0
 20
0.0
  0
CIRCLE
  5
1F9
102
{ACAD_REACTORS
330
1FA
102
}
100
AcDbEntity
  8
None
370
               9
390
0
  6
Continuous
 62
               7
100
AcDbCircle
 10
-1.0940699999999364
 20
3.2238499999999979
 30
0.0
 40
0.2100000000000007
  0
HATCH
  5
1FA
100
AcDbEntity
  8
None
370
               0
390
0
  6
Continuous
 62
               7
100
AcDbHatch
 10
0.0
 20
0.0
 30
0.0
210
0.0
220
0.0
230
1.0
  2
SOLID
 70
               1
 71
               1
 91
        1
 92
        1
 93
        1
 72
               2
 10
-1.0940699999999364
 20
3.2238499999999979
 40
0.2100000000000007
 50
0.0
 51
360.0
 73
               0
 97
        1
330
1F9
 75
               0
 76
               1
 98
        1
 10
0.0
 20
0.0
  0
CIRCLE
  5
1FB
102
{ACAD_REACTORS
330
1FC
102
}
100
AcDbEntity
  8
None
370
               9
390
0
  6
Continuous
 62
               7
100
AcDbCircle
 10
-0.2940699999999366
 20
3.2238499999999979
 30
0.0
 40
0.2100000000000007
  0
HATCH
  5
1FC
100
AcDbEntity
  8
None
370
               0
390
0
  6
Continuous
 62
               7
100
AcDbHatch
 10
0.0
 20
0.0
 30
0.0
210
0.0
220
0.0
230
1.0
  2
SOLID
 70
               1
 71
               1
 91
        1
 92
        1
 93
        1
 72
               2
 10
-0.2940699999999366
 20
3.2238499999999979
 40
0.2100000000000007
 50
0.0
 51
360.0
 73
               0
 97
        1
330
1FB
 75
               0
 76
               1
 98
        1
 10
0.0
 20
0.0
  0
CIRCLE
  5
1FD
102
{ACAD_REACTORS
330
1FE
102
}
100
AcDbEntity
  8
None
370
               9
390
0
  6
Continuous
 62
               7
100
AcDbCircle
 10
0.5059300000000633
 20
3.2238499999999979
 30
0.0
 40
0.2100000000000007
  0
HATCH
  5
1FE
100
AcDbEntity
  8
None
370
               0
390
0
  6
Continuous
 62
               7
100
AcDbHatch
 10
0.0
 20
0.0
 30
0.0
210
0.0
220
0.0
230
1.0
  2
SOLID
 70
               1
 71
               1
 91
        1
 92
        1
 93
        1
 72
               2
 10
0.5059300000000633
 20
3.2238499999999979
 40
0.2100000000000007
 50
0.0
 51
360.0
 73
               0
 97
        1
330
1FD
 75
               0
 76
               1
 98
        1
 10
0.0
 20
0.0
  0
CIRCLE
  5
1FF
102
{ACAD_REACTORS
330
200
102
}
100
AcDbEntity
  8
None
370
               9
390
0
  6
Continuous
 62
               7
100
AcDbCircle
 10
1.3059300000000631
 20
3.2238499999999979
 30
0.0
 40
0.2100000000000007
  0
HATCH
  5
200
100
AcDbEntity
  8
None
370
               0
390
0
  6
Continuous
 62
               7
100
AcDbHatch
 10
0.0
 20
0.0
 30
0.0
210
0.0
220
0.0
230
1.0
  2
SOLID
 70
               1
 71
               1
 91
        1
 92
        1
 93
        1
 72
               2
 10
1.3059300000000631
 20
3.2238499999999979
 40
0.2100000000000007
 50
0.0
 51
360.0
 73
               0
 97
        1
330
1FF
 75
               0
 76
               1
 98
        1
 10
0.0
 20
0.0
  0
CIRCLE
  5
201
102
{ACAD_REACTORS
330
202
102
}
100
AcDbEntity
  8
None
370
               9
390
0
  6
Continuous
 62
               7
100
AcDbCircle
 10
2.1059300000000629
 20
3.2238499999999979
 30
0.0
 40
0.2100000000000007
  0
HATCH
  5
202
100
AcDbEntity
  8
None
370
               0
390
0
  6
Continuous
 62
               7
100
AcDbHatch
 10
0.0
 20
0.0
 30
0.0
210
0.0
220
0.0
230
1.0
  2
SOLID
 70
               1
 71
               1
 91
        1
 92
        1
 93
        1
 72
               2
 10
2.1059300000000629
 20
3.2238499999999979
 40
0.2100000000000007
 50
0.0
 51
360.0
 73
               0
 97
        1
330
201
 75
               0
 76
               1
 98
        1
 10
0.0
 20
0.0
  0
CIRCLE
  5
203
102
{ACAD_REACTORS
330
204
102
}
100
AcDbEntity
  8
None
370
               9
390
0
  6
Continuous
 62
               7
100
AcDbCircle
 10
2.9059300000000627
 20
3.2238499999999979
 30
0.0
 40
0.2100000000000007
  0
HATCH
  5
204
100
AcDbEntity
  8
None
370
               0
390
0
  6
Continuous
 62
               7
100
AcDbHatch
 10
0.0
 20
0.0
 30
0.0
210
0.0
220
0.0
230
1.0
  2
SOLID
 70
               1
 71
               1
 91
        1
 92
        1
 93
        1
 72
               2
 10
2.9059300000000627
 20
3.2238499999999979
 40
0.2100000000000007
 50
0.0
 51
360.0
 73
               0
 97
        1
330
203
 75
               0
 76
               1
 98
        1
 10
0.0
 20
0.0
  0
CIRCLE
  5
205
102
{ACAD_REACTORS
330
206
102
}
100
AcDbEntity
  8
None
370
               9
390
0
  6
Continuous
 62
               7
100
AcDbCircle
 10
3.7059300000000626
 20
3.2238499999999979
 30
0.0
 40
0.2100000000000007
  0
HATCH
  5
206
100
AcDbEntity
  8
None
370
               0
390
0
  6
Continuous
 62
               7
100
AcDbHatch
 10
0.0
 20
0.0
 30
0.0
210
0.0
220
0.0
230
1.0
  2
SOLID
 70
               1
 71
               1
 91
        1
 92
        1
 93
        1
 72
               2
 10
3.7059300000000626
 20
3.2238499999999979
 40
0.2100000000000007
 50
0.0
 51
360.0
 73
               0
 97
        1
330
205
 75
               0
 76
               1
 98
        1
 10
0.0
 20
0.0
  0
CIRCLE
  5
207
102
{ACAD_REACTORS
330
208
102
}
100
AcDbEntity
  8
None
370
               9
390
0
  6
Continuous
 62
               7
100
AcDbCircle
 10
4.5059300000000633
 20
3.2238499999999979
 30
0.0
 40
0.2100000000000007
  0
HATCH
  5
208
100
AcDbEntity
  8
None
370
               0
390
0
  6
Continuous
 62
               7
100
AcDbHatch
 10
0.0
 20
0.0
 30
0.0
210
0.0
220
0.0
230
1.0
  2
SOLID
 70
               1
 71
               1
 91
        1
 92
        1
 93
        1
 72
               2
 10
4.5059300000000633
 20
3.2238499999999979
 40
0.2100000000000007
 50
0.0
 51
360.0
 73
               0
 97
        1
330
207
 75
               0
 76
               1
 98
        1
 10
0.0
 20
0.0
  0
CIRCLE
  5
209
102
{ACAD_REACTORS
330
20A
102
}
100
AcDbEntity
  8
None
370
               9
390
0
  6
Continuous
 62
               7
100
AcDbCircle
 10
-5.0940699999999364
 20
2.4238499999999981
 30
0.0
 40
0.2100000000000007
  0
HATCH
  5
20A
100
AcDbEntity
  8
None
370
               0
390
0
  6
Continuous
 62
               7
100
AcDbHatch
 10
0.0
 20
0.0
 30
0.0
210
0.0
220
0.0
230
1.0
  2
SOLID
 70
               1
 71
               1
 91
        1
 92
        1
 93
        1
 72
               2
 10
-5.0940699999999364
 20
2.4238499999999981
 40
0.2100000000000007
 50
0.0
 51
360.0
 73
               0
 97
        1
330
209
 75
               0
 76
               1
 98
        1
 10
0.0
 20
0.0
  0
CIRCLE
  5
20B
102
{ACAD_REACTORS
330
20C
102
}
100
AcDbEntity
  8
None
370
               9
390
0
  6
Continuous
 62
               7
100
AcDbCircle
 10
-4.2940699999999365
 20
2.4238499999999981
 30
0.0
 40
0.2100000000000007
  0
HATCH
  5
20C
100
AcDbEntity
  8
None
370
               0
390
0
  6
Continuous
 62
               7
100
AcDbHatch
 10
0.0
 20
0.0
 30
0.0
210
0.0
220
0.0
230
1.0
  2
SOLID
 70
               1
 71
               1
 91
        1
 92
        1
 93
        1
 72
               2
 10
-4.2940699999999365
 20
2.4238499999999981
 40
0.2100000000000007
 50
0.0
 51
360.0
 73
               0
 97
        1
330
20B
 75
               0
 76
               1
 98
        1
 10
0.0
 20
0.0
  0
CIRCLE
  5
20D
102
{ACAD_REACTORS
330
20E
102
}
100
AcDbEntity
  8
None
370
               9
390
0
  6
Continuous
 62
               7
100
AcDbCircle
 10
-3.4940699999999363
 20
2.4238499999999981
 30
0.0
 40
0.2100000000000007
  0
HATCH
  5
20E
100
AcDbEntity
  8
None
370
               0
390
0
  6
Continuous
 62
               7
100
AcDbHatch
 10
0.0
 20
0.0
 30
0.0
210
0.0
220
0.0
230
1.0
  2
SOLID
 70
               1
 71
               1
 91
        1
 92
        1
 93
        1
 72
               2
 10
-3.4940699999999363
 20
2.4238499999999981
 40
0.2100000000000007
 50
0.0
 51
360.0
 73
               0
 97
        1
330
20D
 75
               0
 76
               1
 98
        1
 10
0.0
 20
0.0
  0
CIRCLE
  5
20F
102
{ACAD_REACTORS
330
210
102
}
100
AcDbEntity
  8
None
370
               9
390
0
  6
Continuous
 62
               7
100
AcDbCircle
 10
-2.694069999999936
 20
2.4238499999999981
 30
0.0
 40
0.2100000000000007
  0
HATCH
  5
210
100
AcDbEntity
  8
None
370
               0
390
0
  6
Continuous
 62
               7
100
AcDbHatch
 10
0.0
 20
0.0
 30
0.0
210
0.0
220
0.0
230
1.0
  2
SOLID
 70
               1
 71
               1
 91
        1
 92
        1
 93
        1
 72
               2
 10
-2.694069999999936
 20
2.4238499999999981
 40
0.2100000000000007
 50
0.0
 51
360.0
 73
               0
 97
        1
330
20F
 75
               0
 76
               1
 98
        1
 10
0.0
 20
0.0
  0
CIRCLE
  5
211
102
{ACAD_REACTORS
330
212
102
}
100
AcDbEntity
  8
None
370
               9
390
0
  6
Continuous
 62
               7
100
AcDbCircle
 10
-1.8940699999999362
 20
2.4238499999999981
 30
0.0
 40
0.2100000000000007
  0
HATCH
  5
212
100
AcDbEntity
  8
None
370
               0
390
0
  6
Continuous
 62
               7
100
AcDbHatch
 10
0.0
 20
0.0
 30
0.0
210
0.0
220
0.0
230
1.0
  2
SOLID
 70
               1
 71
               1
 91
        1
 92
        1
 93
        1
 72
               2
 10
-1.8940699999999362
 20
2.4238499999999981
 40
0.2100000000000007
 50
0.0
 51
360.0
 73
               0
 97
        1
330
211
 75
               0
 76
               1
 98
        1
 10
0.0
 20
0.0
  0
CIRCLE
  5
213
102
{ACAD_REACTORS
330
214
102
}
100
AcDbEntity
  8
None
370
               9
390
0
  6
Continuous
 62
               7
100
AcDbCircle
 10
-1.0940699999999364
 20
2.4238499999999981
 30
0.0
 40
0.2100000000000007
  0
HATCH
  5
214
100
AcDbEntity
  8
None
370
               0
390
0
  6
Continuous
 62
               7
100
AcDbHatch
 10
0.0
 20
0.0
 30
0.0
210
0.0
220
0.0
230
1.0
  2
SOLID
 70
               1
 71
               1
 91
        1
 92
        1
 93
        1
 72
               2
 10
-1.0940699999999364
 20
2.4238499999999981
 40
0.2100000000000007
 50
0.0
 51
360.0
 73
               0
 97
        1
330
213
 75
               0
 76
               1
 98
        1
 10
0.0
 20
0.0
  0
CIRCLE
  5
215
102
{ACAD_REACTORS
330
216
102
}
100
AcDbEntity
  8
None
370
               9
390
0
  6
Continuous
 62
               7
100
AcDbCircle
 10
-0.2940699999999366
 20
2.4238499999999981
 30
0.0
 40
0.2100000000000007
  0
HATCH
  5
216
100
AcDbEntity
  8
None
370
               0
390
0
  6
Continuous
 62
               7
100
AcDbHatch
 10
0.0
 20
0.0
 30
0.0
210
0.0
220
0.0
230
1.0
  2
SOLID
 70
               1
 71
               1
 91
        1
 92
        1
 93
        1
 72
               2
 10
-0.2940699999999366
 20
2.4238499999999981
 40
0.2100000000000007
 50
0.0
 51
360.0
 73
               0
 97
        1
330
215
 75
               0
 76
               1
 98
        1
 10
0.0
 20
0.0
  0
CIRCLE
  5
217
102
{ACAD_REACTORS
330
218
102
}
100
AcDbEntity
  8
None
370
               9
390
0
  6
Continuous
 62
               7
100
AcDbCircle
 10
0.5059300000000633
 20
2.4238499999999981
 30
0.0
 40
0.2100000000000007
  0
HATCH
  5
218
100
AcDbEntity
  8
None
370
               0
390
0
  6
Continuous
 62
               7
100
AcDbHatch
 10
0.0
 20
0.0
 30
0.0
210
0.0
220
0.0
230
1.0
  2
SOLID
 70
               1
 71
               1
 91
        1
 92
        1
 93
        1
 72
               2
 10
0.5059300000000633
 20
2.4238499999999981
 40
0.2100000000000007
 50
0.0
 51
360.0
 73
               0
 97
        1
330
217
 75
               0
 76
               1
 98
        1
 10
0.0
 20
0.0
  0
CIRCLE
  5
219
102
{ACAD_REACTORS
330
21A
102
}
100
AcDbEntity
  8
None
370
               9
390
0
  6
Continuous
 62
               7
100
AcDbCircle
 10
1.3059300000000631
 20
2.4238499999999981
 30
0.0
 40
0.2100000000000007
  0
HATCH
  5
21A
100
AcDbEntity
  8
None
370
               0
390
0
  6
Continuous
 62
               7
100
AcDbHatch
 10
0.0
 20
0.0
 30
0.0
210
0.0
220
0.0
230
1.0
  2
SOLID
 70
               1
 71
               1
 91
        1
 92
        1
 93
        1
 72
               2
 10
1.3059300000000631
 20
2.4238499999999981
 40
0.2100000000000007
 50
0.0
 51
360.0
 73
               0
 97
        1
330
219
 75
               0
 76
               1
 98
        1
 10
0.0
 20
0.0
  0
CIRCLE
  5
21B
102
{ACAD_REACTORS
330
21C
102
}
100
AcDbEntity
  8
None
370
               9
390
0
  6
Continuous
 62
               7
100
AcDbCircle
 10
2.1059300000000629
 20
2.4238499999999981
 30
0.0
 40
0.2100000000000007
  0
HATCH
  5
21C
100
AcDbEntity
  8
None
370
               0
390
0
  6
Continuous
 62
               7
100
AcDbHatch
 10
0.0
 20
0.0
 30
0.0
210
0.0
220
0.0
230
1.0
  2
SOLID
 70
               1
 71
               1
 91
        1
 92
        1
 93
        1
 72
               2
 10
2.1059300000000629
 20
2.4238499999999981
 40
0.2100000000000007
 50
0.0
 51
360.0
 73
               0
 97
        1
330
21B
 75
               0
 76
               1
 98
        1
 10
0.0
 20
0.0
  0
CIRCLE
  5
21D
102
{ACAD_REACTORS
330
21E
102
}
100
AcDbEntity
  8
None
370
               9
390
0
  6
Continuous
 62
               7
100
AcDbCircle
 10
2.9059300000000627
 20
2.4238499999999981
 30
0.0
 40
0.2100000000000007
  0
HATCH
  5
21E
100
AcDbEntity
  8
None
370
               0
390
0
  6
Continuous
 62
               7
100
AcDbHatch
 10
0.0
 20
0.0
 30
0.0
210
0.0
220
0.0
230
1.0
  2
SOLID
 70
               1
 71
               1
 91
        1
 92
        1
 93
        1
 72
               2
 10
2.9059300000000627
 20
2.4238499999999981
 40
0.2100000000000007
 50
0.0
 51
360.0
 73
               0
 97
        1
330
21D
 75
               0
 76
               1
 98
        1
 10
0.0
 20
0.0
  0
CIRCLE
  5
21F
102
{ACAD_REACTORS
330
220
102
}
100
AcDbEntity
  8
None
370
               9
390
0
  6
Continuous
 62
               7
100
AcDbCircle
 10
3.7059300000000626
 20
2.4238499999999981
 30
0.0
 40
0.2100000000000007
  0
HATCH
  5
220
100
AcDbEntity
  8
None
370
               0
390
0
  6
Continuous
 62
               7
100
AcDbHatch
 10
0.0
 20
0.0
 30
0.0
210
0.0
220
0.0
230
1.0
  2
SOLID
 70
               1
 71
               1
 91
        1
 92
        1
 93
        1
 72
               2
 10
3.7059300000000626
 20
2.4238499999999981
 40
0.2100000000000007
 50
0.0
 51
360.0
 73
               0
 97
        1
330
21F
 75
               0
 76
               1
 98
        1
 10
0.0
 20
0.0
  0
CIRCLE
  5
221
102
{ACAD_REACTORS
330
222
102
}
100
AcDbEntity
  8
None
370
               9
390
0
  6
Continuous
 62
               7
100
AcDbCircle
 10
4.5059300000000633
 20
2.4238499999999981
 30
0.0
 40
0.2100000000000007
  0
HATCH
  5
222
100
AcDbEntity
  8
None
370
               0
390
0
  6
Continuous
 62
               7
100
AcDbHatch
 10
0.0
 20
0.0
 30
0.0
210
0.0
220
0.0
230
1.0
  2
SOLID
 70
               1
 71
               1
 91
        1
 92
        1
 93
        1
 72
               2
 10
4.5059300000000633
 20
2.4238499999999981
 40
0.2100000000000007
 50
0.0
 51
360.0
 73
               0
 97
        1
330
221
 75
               0
 76
               1
 98
        1
 10
0.0
 20
0.0
  0
CIRCLE
  5
223
102
{ACAD_REACTORS
330
224
102
}
100
AcDbEntity
  8
None
370
               9
390
0
  6
Continuous
 62
               7
100
AcDbCircle
 10
-5.0940699999999364
 20
1.6238499999999982
 30
0.0
 40
0.2100000000000007
  0
HATCH
  5
224
100
AcDbEntity
  8
None
370
               0
390
0
  6
Continuous
 62
               7
100
AcDbHatch
 10
0.0
 20
0.0
 30
0.0
210
0.0
220
0.0
230
1.0
  2
SOLID
 70
               1
 71
               1
 91
        1
 92
        1
 93
        1
 72
               2
 10
-5.0940699999999364
 20
1.6238499999999982
 40
0.2100000000000007
 50
0.0
 51
360.0
 73
               0
 97
        1
330
223
 75
               0
 76
               1
 98
        1
 10
0.0
 20
0.0
  0
CIRCLE
  5
225
102
{ACAD_REACTORS
330
226
102
}
100
AcDbEntity
  8
None
370
               9
390
0
  6
Continuous
 62
               7
100
AcDbCircle
 10
-4.2940699999999365
 20
1.6238499999999982
 30
0.0
 40
0.2100000000000007
  0
HATCH
  5
226
100
AcDbEntity
  8
None
370
               0
390
0
  6
Continuous
 62
               7
100
AcDbHatch
 10
0.0
 20
0.0
 30
0.0
210
0.0
220
0.0
230
1.0
  2
SOLID
 70
               1
 71
               1
 91
        1
 92
        1
 93
        1
 72
               2
 10
-4.2940699999999365
 20
1.6238499999999982
 40
0.2100000000000007
 50
0.0
 51
360.0
 73
               0
 97
        1
330
225
 75
               0
 76
               1
 98
        1
 10
0.0
 20
0.0
  0
CIRCLE
  5
227
102
{ACAD_REACTORS
330
228
102
}
100
AcDbEntity
  8
None
370
               9
390
0
  6
Continuous
 62
               7
100
AcDbCircle
 10
-3.4940699999999363
 20
1.6238499999999982
 30
0.0
 40
0.2100000000000007
  0
HATCH
  5
228
100
AcDbEntity
  8
None
370
               0
390
0
  6
Continuous
 62
               7
100
AcDbHatch
 10
0.0
 20
0.0
 30
0.0
210
0.0
220
0.0
230
1.0
  2
SOLID
 70
               1
 71
               1
 91
        1
 92
        1
 93
        1
 72
               2
 10
-3.4940699999999363
 20
1.6238499999999982
 40
0.2100000000000007
 50
0.0
 51
360.0
 73
               0
 97
        1
330
227
 75
               0
 76
               1
 98
        1
 10
0.0
 20
0.0
  0
CIRCLE
  5
229
102
{ACAD_REACTORS
330
22A
102
}
100
AcDbEntity
  8
None
370
               9
390
0
  6
Continuous
 62
               7
100
AcDbCircle
 10
-2.694069999999936
 20
1.6238499999999982
 30
0.0
 40
0.2100000000000007
  0
HATCH
  5
22A
100
AcDbEntity
  8
None
370
               0
390
0
  6
Continuous
 62
               7
100
AcDbHatch
 10
0.0
 20
0.0
 30
0.0
210
0.0
220
0.0
230
1.0
  2
SOLID
 70
               1
 71
               1
 91
        1
 92
        1
 93
        1
 72
               2
 10
-2.694069999999936
 20
1.6238499999999982
 40
0.2100000000000007
 50
0.0
 51
360.0
 73
               0
 97
        1
330
229
 75
               0
 76
               1
 98
        1
 10
0.0
 20
0.0
  0
CIRCLE
  5
22B
102
{ACAD_REACTORS
330
22C
102
}
100
AcDbEntity
  8
None
370
               9
390
0
  6
Continuous
 62
               7
100
AcDbCircle
 10
-1.8940699999999362
 20
1.6238499999999982
 30
0.0
 40
0.2100000000000007
  0
HATCH
  5
22C
100
AcDbEntity
  8
None
370
               0
390
0
  6
Continuous
 62
               7
100
AcDbHatch
 10
0.0
 20
0.0
 30
0.0
210
0.0
220
0.0
230
1.0
  2
SOLID
 70
               1
 71
               1
 91
        1
 92
        1
 93
        1
 72
               2
 10
-1.8940699999999362
 20
1.6238499999999982
 40
0.2100000000000007
 50
0.0
 51
360.0
 73
               0
 97
        1
330
22B
 75
               0
 76
               1
 98
        1
 10
0.0
 20
0.0
  0
CIRCLE
  5
22D
102
{ACAD_REACTORS
330
22E
102
}
100
AcDbEntity
  8
None
370
               9
390
0
  6
Continuous
 62
               7
100
AcDbCircle
 10
-1.0940699999999364
 20
1.6238499999999982
 30
0.0
 40
0.2100000000000007
  0
HATCH
  5
22E
100
AcDbEntity
  8
None
370
               0
390
0
  6
Continuous
 62
               7
100
AcDbHatch
 10
0.0
 20
0.0
 30
0.0
210
0.0
220
0.0
230
1.0
  2
SOLID
 70
               1
 71
               1
 91
        1
 92
        1
 93
        1
 72
               2
 10
-1.0940699999999364
 20
1.6238499999999982
 40
0.2100000000000007
 50
0.0
 51
360.0
 73
               0
 97
        1
330
22D
 75
               0
 76
               1
 98
        1
 10
0.0
 20
0.0
  0
CIRCLE
  5
22F
102
{ACAD_REACTORS
330
230
102
}
100
AcDbEntity
  8
None
370
               9
390
0
  6
Continuous
 62
               7
100
AcDbCircle
 10
-0.2940699999999366
 20
1.6238499999999982
 30
0.0
 40
0.2100000000000007
  0
HATCH
  5
230
100
AcDbEntity
  8
None
370
               0
390
0
  6
Continuous
 62
               7
100
AcDbHatch
 10
0.0
 20
0.0
 30
0.0
210
0.0
220
0.0
230
1.0
  2
SOLID
 70
               1
 71
               1
 91
        1
 92
        1
 93
        1
 72
               2
 10
-0.2940699999999366
 20
1.6238499999999982
 40
0.2100000000000007
 50
0.0
 51
360.0
 73
               0
 97
        1
330
22F
 75
               0
 76
               1
 98
        1
 10
0.0
 20
0.0
  0
CIRCLE
  5
231
102
{ACAD_REACTORS
330
232
102
}
100
AcDbEntity
  8
None
370
               9
390
0
  6
Continuous
 62
               7
100
AcDbCircle
 10
0.5059300000000633
 20
1.6238499999999982
 30
0.0
 40
0.2100000000000007
  0
HATCH
  5
232
100
AcDbEntity
  8
None
370
               0
390
0
  6
Continuous
 62
               7
100
AcDbHatch
 10
0.0
 20
0.0
 30
0.0
210
0.0
220
0.0
230
1.0
  2
SOLID
 70
               1
 71
               1
 91
        1
 92
        1
 93
        1
 72
               2
 10
0.5059300000000633
 20
1.6238499999999982
 40
0.2100000000000007
 50
0.0
 51
360.0
 73
               0
 97
        1
330
231
 75
               0
 76
               1
 98
        1
 10
0.0
 20
0.0
  0
CIRCLE
  5
233
102
{ACAD_REACTORS
330
234
102
}
100
AcDbEntity
  8
None
370
               9
390
0
  6
Continuous
 62
               7
100
AcDbCircle
 10
1.3059300000000631
 20
1.6238499999999982
 30
0.0
 40
0.2100000000000007
  0
HATCH
  5
234
100
AcDbEntity
  8
None
370
               0
390
0
  6
Continuous
 62
               7
100
AcDbHatch
 10
0.0
 20
0.0
 30
0.0
210
0.0
220
0.0
230
1.0
  2
SOLID
 70
               1
 71
               1
 91
        1
 92
        1
 93
        1
 72
               2
 10
1.3059300000000631
 20
1.6238499999999982
 40
0.2100000000000007
 50
0.0
 51
360.0
 73
               0
 97
        1
330
233
 75
               0
 76
               1
 98
        1
 10
0.0
 20
0.0
  0
CIRCLE
  5
235
102
{ACAD_REACTORS
330
236
102
}
100
AcDbEntity
  8
None
370
               9
390
0
  6
Continuous
 62
               7
100
AcDbCircle
 10
2.1059300000000629
 20
1.6238499999999982
 30
0.0
 40
0.2100000000000007
  0
HATCH
  5
236
100
AcDbEntity
  8
None
370
               0
390
0
  6
Continuous
 62
               7
100
AcDbHatch
 10
0.0
 20
0.0
 30
0.0
210
0.0
220
0.0
230
1.0
  2
SOLID
 70
               1
 71
               1
 91
        1
 92
        1
 93
        1
 72
               2
 10
2.1059300000000629
 20
1.6238499999999982
 40
0.2100000000000007
 50
0.0
 51
360.0
 73
               0
 97
        1
330
235
 75
               0
 76
               1
 98
        1
 10
0.0
 20
0.0
  0
CIRCLE
  5
237
102
{ACAD_REACTORS
330
238
102
}
100
AcDbEntity
  8
None
370
               9
390
0
  6
Continuous
 62
               7
100
AcDbCircle
 10
2.9059300000000627
 20
1.6238499999999982
 30
0.0
 40
0.2100000000000007
  0
HATCH
  5
238
100
AcDbEntity
  8
None
370
               0
390
0
  6
Continuous
 62
               7
100
AcDbHatch
 10
0.0
 20
0.0
 30
0.0
210
0.0
220
0.0
230
1.0
  2
SOLID
 70
               1
 71
               1
 91
        1
 92
        1
 93
        1
 72
               2
 10
2.9059300000000627
 20
1.6238499999999982
 40
0.2100000000000007
 50
0.0
 51
360.0
 73
               0
 97
        1
330
237
 75
               0
 76
               1
 98
        1
 10
0.0
 20
0.0
  0
CIRCLE
  5
239
102
{ACAD_REACTORS
330
23A
102
}
100
AcDbEntity
  8
None
370
               9
390
0
  6
Continuous
 62
               7
100
AcDbCircle
 10
3.7059300000000626
 20
1.6238499999999982
 30
0.0
 40
0.2100000000000007
  0
HATCH
  5
23A
100
AcDbEntity
  8
None
370
               0
390
0
  6
Continuous
 62
               7
100
AcDbHatch
 10
0.0
 20
0.0
 30
0.0
210
0.0
220
0.0
230
1.0
  2
SOLID
 70
               1
 71
               1
 91
        1
 92
        1
 93
        1
 72
               2
 10
3.7059300000000626
 20
1.6238499999999982
 40
0.2100000000000007
 50
0.0
 51
360.0
 73
               0
 97
        1
330
239
 75
               0
 76
               1
 98
        1
 10
0.0
 20
0.0
  0
CIRCLE
  5
23B
102
{ACAD_REACTORS
330
23C
102
}
100
AcDbEntity
  8
None
370
               9
390
0
  6
Continuous
 62
               7
100
AcDbCircle
 10
4.5059300000000633
 20
1.6238499999999982
 30
0.0
 40
0.2100000000000007
  0
HATCH
  5
23C
100
AcDbEntity
  8
None
370
               0
390
0
  6
Continuous
 62
               7
100
AcDbHatch
 10
0.0
 20
0.0
 30
0.0
210
0.0
220
0.0
230
1.0
  2
SOLID
 70
               1
 71
               1
 91
        1
 92
        1
 93
        1
 72
               2
 10
4.5059300000000633
 20
1.6238499999999982
 40
0.2100000000000007
 50
0.0
 51
360.0
 73
               0
 97
        1
330
23B
 75
               0
 76
               1
 98
        1
 10
0.0
 20
0.0
  0
CIRCLE
  5
23D
102
{ACAD_REACTORS
330
23E
102
}
100
AcDbEntity
  8
None
370
               9
390
0
  6
Continuous
 62
               7
100
AcDbCircle
 10
-5.0940699999999364
 20
0.8238499999999984
 30
0.0
 40
0.2100000000000007
  0
HATCH
  5
23E
100
AcDbEntity
  8
None
370
               0
390
0
  6
Continuous
 62
               7
100
AcDbHatch
 10
0.0
 20
0.0
 30
0.0
210
0.0
220
0.0
230
1.0
  2
SOLID
 70
               1
 71
               1
 91
        1
 92
        1
 93
        1
 72
               2
 10
-5.0940699999999364
 20
0.8238499999999984
 40
0.2100000000000007
 50
0.0
 51
360.0
 73
               0
 97
        1
330
23D
 75
               0
 76
               1
 98
        1
 10
0.0
 20
0.0
  0
CIRCLE
  5
23F
102
{ACAD_REACTORS
330
240
102
}
100
AcDbEntity
  8
None
370
               9
390
0
  6
Continuous
 62
               7
100
AcDbCircle
 10
-4.2940699999999365
 20
0.8238499999999984
 30
0.0
 40
0.2100000000000007
  0
HATCH
  5
240
100
AcDbEntity
  8
None
370
               0
390
0
  6
Continuous
 62
               7
100
AcDbHatch
 10
0.0
 20
0.0
 30
0.0
210
0.0
220
0.0
230
1.0
  2
SOLID
 70
               1
 71
               1
 91
        1
 92
        1
 93
        1
 72
               2
 10
-4.2940699999999365
 20
0.8238499999999984
 40
0.2100000000000007
 50
0.0
 51
360.0
 73
               0
 97
        1
330
23F
 75
               0
 76
               1
 98
        1
 10
0.0
 20
0.0
  0
CIRCLE
  5
241
102
{ACAD_REACTORS
330
242
102
}
100
AcDbEntity
  8
None
370
               9
390
0
  6
Continuous
 62
               7
100
AcDbCircle
 10
-3.4940699999999363
 20
0.8238499999999984
 30
0.0
 40
0.2100000000000007
  0
HATCH
  5
242
100
AcDbEntity
  8
None
370
               0
390
0
  6
Continuous
 62
               7
100
AcDbHatch
 10
0.0
 20
0.0
 30
0.0
210
0.0
220
0.0
230
1.0
  2
SOLID
 70
               1
 71
               1
 91
        1
 92
        1
 93
        1
 72
               2
 10
-3.4940699999999363
 20
0.8238499999999984
 40
0.2100000000000007
 50
0.0
 51
360.0
 73
               0
 97
        1
330
241
 75
               0
 76
               1
 98
        1
 10
0.0
 20
0.0
  0
CIRCLE
  5
243
102
{ACAD_REACTORS
330
244
102
}
100
AcDbEntity
  8
None
370
               9
390
0
  6
Continuous
 62
               7
100
AcDbCircle
 10
-2.694069999999936
 20
0.8238499999999984
 30
0.0
 40
0.2100000000000007
  0
HATCH
  5
244
100
AcDbEntity
  8
None
370
               0
390
0
  6
Continuous
 62
               7
100
AcDbHatch
 10
0.0
 20
0.0
 30
0.0
210
0.0
220
0.0
230
1.0
  2
SOLID
 70
               1
 71
               1
 91
        1
 92
        1
 93
        1
 72
               2
 10
-2.694069999999936
 20
0.8238499999999984
 40
0.2100000000000007
 50
0.0
 51
360.0
 73
               0
 97
        1
330
243
 75
               0
 76
               1
 98
        1
 10
0.0
 20
0.0
  0
CIRCLE
  5
245
102
{ACAD_REACTORS
330
246
102
}
100
AcDbEntity
  8
None
370
               9
390
0
  6
Continuous
 62
               7
100
AcDbCircle
 10
-1.8940699999999362
 20
0.8238499999999984
 30
0.0
 40
0.2100000000000007
  0
HATCH
  5
246
100
AcDbEntity
  8
None
370
               0
390
0
  6
Continuous
 62
               7
100
AcDbHatch
 10
0.0
 20
0.0
 30
0.0
210
0.0
220
0.0
230
1.0
  2
SOLID
 70
               1
 71
               1
 91
        1
 92
        1
 93
        1
 72
               2
 10
-1.8940699999999362
 20
0.8238499999999984
 40
0.2100000000000007
 50
0.0
 51
360.0
 73
               0
 97
        1
330
245
 75
               0
 76
               1
 98
        1
 10
0.0
 20
0.0
  0
CIRCLE
  5
247
102
{ACAD_REACTORS
330
248
102
}
100
AcDbEntity
  8
None
370
               9
390
0
  6
Continuous
 62
               7
100
AcDbCircle
 10
-1.0940699999999364
 20
0.8238499999999984
 30
0.0
 40
0.2100000000000007
  0
HATCH
  5
248
100
AcDbEntity
  8
None
370
               0
390
0
  6
Continuous
 62
               7
100
AcDbHatch
 10
0.0
 20
0.0
 30
0.0
210
0.0
220
0.0
230
1.0
  2
SOLID
 70
               1
 71
               1
 91
        1
 92
        1
 93
        1
 72
               2
 10
-1.0940699999999364
 20
0.8238499999999984
 40
0.2100000000000007
 50
0.0
 51
360.0
 73
               0
 97
        1
330
247
 75
               0
 76
               1
 98
        1
 10
0.0
 20
0.0
  0
CIRCLE
  5
249
102
{ACAD_REACTORS
330
24A
102
}
100
AcDbEntity
  8
None
370
               9
390
0
  6
Continuous
 62
               7
100
AcDbCircle
 10
-0.2940699999999366
 20
0.8238499999999984
 30
0.0
 40
0.2100000000000007
  0
HATCH
  5
24A
100
AcDbEntity
  8
None
370
               0
390
0
  6
Continuous
 62
               7
100
AcDbHatch
 10
0.0
 20
0.0
 30
0.0
210
0.0
220
0.0
230
1.0
  2
SOLID
 70
               1
 71
               1
 91
        1
 92
        1
 93
        1
 72
               2
 10
-0.2940699999999366
 20
0.8238499999999984
 40
0.2100000000000007
 50
0.0
 51
360.0
 73
               0
 97
        1
330
249
 75
               0
 76
               1
 98
        1
 10
0.0
 20
0.0
  0
CIRCLE
  5
24B
102
{ACAD_REACTORS
330
24C
102
}
100
AcDbEntity
  8
None
370
               9
390
0
  6
Continuous
 62
               7
100
AcDbCircle
 10
0.5059300000000633
 20
0.8238499999999984
 30
0.0
 40
0.2100000000000007
  0
HATCH
  5
24C
100
AcDbEntity
  8
None
370
               0
390
0
  6
Continuous
 62
               7
100
AcDbHatch
 10
0.0
 20
0.0
 30
0.0
210
0.0
220
0.0
230
1.0
  2
SOLID
 70
               1
 71
               1
 91
        1
 92
        1
 93
        1
 72
               2
 10
0.5059300000000633
 20
0.8238499999999984
 40
0.2100000000000007
 50
0.0
 51
360.0
 73
               0
 97
        1
330
24B
 75
               0
 76
               1
 98
        1
 10
0.0
 20
0.0
  0
CIRCLE
  5
24D
102
{ACAD_REACTORS
330
24E
102
}
100
AcDbEntity
  8
None
370
               9
390
0
  6
Continuous
 62
               7
100
AcDbCircle
 10
1.3059300000000631
 20
0.8238499999999984
 30
0.0
 40
0.2100000000000007
  0
HATCH
  5
24E
100
AcDbEntity
  8
None
370
               0
390
0
  6
Continuous
 62
               7
100
AcDbHatch
 10
0.0
 20
0.0
 30
0.0
210
0.0
220
0.0
230
1.0
  2
SOLID
 70
               1
 71
               1
 91
        1
 92
        1
 93
        1
 72
               2
 10
1.3059300000000631
 20
0.8238499999999984
 40
0.2100000000000007
 50
0.0
 51
360.0
 73
               0
 97
        1
330
24D
 75
               0
 76
               1
 98
        1
 10
0.0
 20
0.0
  0
CIRCLE
  5
24F
102
{ACAD_REACTORS
330
250
102
}
100
AcDbEntity
  8
None
370
               9
390
0
  6
Continuous
 62
               7
100
AcDbCircle
 10
2.1059300000000629
 20
0.8238499999999984
 30
0.0
 40
0.2100000000000007
  0
HATCH
  5
250
100
AcDbEntity
  8
None
370
               0
390
0
  6
Continuous
 62
               7
100
AcDbHatch
 10
0.0
 20
0.0
 30
0.0
210
0.0
220
0.0
230
1.0
  2
SOLID
 70
               1
 71
               1
 91
        1
 92
        1
 93
        1
 72
               2
 10
2.1059300000000629
 20
0.8238499999999984
 40
0.2100000000000007
 50
0.0
 51
360.0
 73
               0
 97
        1
330
24F
 75
               0
 76
               1
 98
        1
 10
0.0
 20
0.0
  0
CIRCLE
  5
251
102
{ACAD_REACTORS
330
252
102
}
100
AcDbEntity
  8
None
370
               9
390
0
  6
Continuous
 62
               7
100
AcDbCircle
 10
2.9059300000000627
 20
0.8238499999999984
 30
0.0
 40
0.2100000000000007
  0
HATCH
  5
252
100
AcDbEntity
  8
None
370
               0
390
0
  6
Continuous
 62
               7
100
AcDbHatch
 10
0.0
 20
0.0
 30
0.0
210
0.0
220
0.0
230
1.0
  2
SOLID
 70
               1
 71
               1
 91
        1
 92
        1
 93
        1
 72
               2
 10
2.9059300000000627
 20
0.8238499999999984
 40
0.2100000000000007
 50
0.0
 51
360.0
 73
               0
 97
        1
330
251
 75
               0
 76
               1
 98
        1
 10
0.0
 20
0.0
  0
CIRCLE
  5
253
102
{ACAD_REACTORS
330
254
102
}
100
AcDbEntity
  8
None
370
               9
390
0
  6
Continuous
 62
               7
100
AcDbCircle
 10
3.7059300000000626
 20
0.8238499999999984
 30
0.0
 40
0.2100000000000007
  0
HATCH
  5
254
100
AcDbEntity
  8
None
370
               0
390
0
  6
Continuous
 62
               7
100
AcDbHatch
 10
0.0
 20
0.0
 30
0.0
210
0.0
220
0.0
230
1.0
  2
SOLID
 70
               1
 71
               1
 91
        1
 92
        1
 93
        1
 72
               2
 10
3.7059300000000626
 20
0.8238499999999984
 40
0.2100000000000007
 50
0.0
 51
360.0
 73
               0
 97
        1
330
253
 75
               0
 76
               1
 98
        1
 10
0.0
 20
0.0
  0
CIRCLE
  5
255
102
{ACAD_REACTORS
330
256
102
}
100
AcDbEntity
  8
None
370
               9
390
0
  6
Continuous
 62
               7
100
AcDbCircle
 10
4.5059300000000633
 20
0.8238499999999984
 30
0.0
 40
0.2100000000000007
  0
HATCH
  5
256
100
AcDbEntity
  8
None
370
               0
390
0
  6
Continuous
 62
               7
100
AcDbHatch
 10
0.0
 20
0.0
 30
0.0
210
0.0
220
0.0
230
1.0
  2
SOLID
 70
               1
 71
               1
 91
        1
 92
        1
 93
        1
 72
               2
 10
4.5059300000000633
 20
0.8238499999999984
 40
0.2100000000000007
 50
0.0
 51
360.0
 73
               0
 97
        1
330
255
 75
               0
 76
               1
 98
        1
 10
0.0
 20
0.0
  0
CIRCLE
  5
257
102
{ACAD_REACTORS
330
258
102
}
100
AcDbEntity
  8
None
370
               9
390
0
  6
Continuous
 62
               7
100
AcDbCircle
 10
-5.0940699999999364
 20
0.0238499999999977
 30
0.0
 40
0.2100000000000007
  0
HATCH
  5
258
100
AcDbEntity
  8
None
370
               0
390
0
  6
Continuous
 62
               7
100
AcDbHatch
 10
0.0
 20
0.0
 30
0.0
210
0.0
220
0.0
230
1.0
  2
SOLID
 70
               1
 71
               1
 91
        1
 92
        1
 93
        1
 72
               2
 10
-5.0940699999999364
 20
0.0238499999999977
 40
0.2100000000000007
 50
0.0
 51
360.0
 73
               0
 97
        1
330
257
 75
               0
 76
               1
 98
        1
 10
0.0
 20
0.0
  0
CIRCLE
  5
259
102
{ACAD_REACTORS
330
25A
102
}
100
AcDbEntity
  8
None
370
               9
390
0
  6
Continuous
 62
               7
100
AcDbCircle
 10
-4.2940699999999365
 20
0.0238499999999977
 30
0.0
 40
0.2100000000000007
  0
HATCH
  5
25A
100
AcDbEntity
  8
None
370
               0
390
0
  6
Continuous
 62
               7
100
AcDbHatch
 10
0.0
 20
0.0
 30
0.0
210
0.0
220
0.0
230
1.0
  2
SOLID
 70
               1
 71
               1
 91
        1
 92
        1
 93
        1
 72
               2
 10
-4.2940699999999365
 20
0.0238499999999977
 40
0.2100000000000007
 50
0.0
 51
360.0
 73
               0
 97
        1
330
259
 75
               0
 76
               1
 98
        1
 10
0.0
 20
0.0
  0
CIRCLE
  5
25B
102
{ACAD_REACTORS
330
25C
102
}
100
AcDbEntity
  8
None
370
               9
390
0
  6
Continuous
 62
               7
100
AcDbCircle
 10
-3.4940699999999363
 20
0.0238499999999977
 30
0.0
 40
0.2100000000000007
  0
HATCH
  5
25C
100
AcDbEntity
  8
None
370
               0
390
0
  6
Continuous
 62
               7
100
AcDbHatch
 10
0.0
 20
0.0
 30
0.0
210
0.0
220
0.0
230
1.0
  2
SOLID
 70
               1
 71
               1
 91
        1
 92
        1
 93
        1
 72
               2
 10
-3.4940699999999363
 20
0.0238499999999977
 40
0.2100000000000007
 50
0.0
 51
360.0
 73
               0
 97
        1
330
25B
 75
               0
 76
               1
 98
        1
 10
0.0
 20
0.0
  0
CIRCLE
  5
25D
102
{ACAD_REACTORS
330
25E
102
}
100
AcDbEntity
  8
None
370
               9
390
0
  6
Continuous
 62
               7
100
AcDbCircle
 10
-2.694069999999936
 20
0.0238499999999977
 30
0.0
 40
0.2100000000000007
  0
HATCH
  5
25E
100
AcDbEntity
  8
None
370
               0
390
0
  6
Continuous
 62
               7
100
AcDbHatch
 10
0.0
 20
0.0
 30
0.0
210
0.0
220
0.0
230
1.0
  2
SOLID
 70
               1
 71
               1
 91
        1
 92
        1
 93
        1
 72
               2
 10
-2.694069999999936
 20
0.0238499999999977
 40
0.2100000000000007
 50
0.0
 51
360.0
 73
               0
 97
        1
330
25D
 75
               0
 76
               1
 98
        1
 10
0.0
 20
0.0
  0
CIRCLE
  5
25F
102
{ACAD_REACTORS
330
260
102
}
100
AcDbEntity
  8
None
370
               9
390
0
  6
Continuous
 62
               7
100
AcDbCircle
 10
-1.8940699999999362
 20
0.0238499999999977
 30
0.0
 40
0.2100000000000007
  0
HATCH
  5
260
100
AcDbEntity
  8
None
370
               0
390
0
  6
Continuous
 62
               7
100
AcDbHatch
 10
0.0
 20
0.0
 30
0.0
210
0.0
220
0.0
230
1.0
  2
SOLID
 70
               1
 71
               1
 91
        1
 92
        1
 93
        1
 72
               2
 10
-1.8940699999999362
 20
0.0238499999999977
 40
0.2100000000000007
 50
0.0
 51
360.0
 73
               0
 97
        1
330
25F
 75
               0
 76
               1
 98
        1
 10
0.0
 20
0.0
  0
CIRCLE
  5
261
102
{ACAD_REACTORS
330
262
102
}
100
AcDbEntity
  8
None
370
               9
390
0
  6
Continuous
 62
               7
100
AcDbCircle
 10
-1.0940699999999364
 20
0.0238499999999977
 30
0.0
 40
0.2100000000000007
  0
HATCH
  5
262
100
AcDbEntity
  8
None
370
               0
390
0
  6
Continuous
 62
               7
100
AcDbHatch
 10
0.0
 20
0.0
 30
0.0
210
0.0
220
0.0
230
1.0
  2
SOLID
 70
               1
 71
               1
 91
        1
 92
        1
 93
        1
 72
               2
 10
-1.0940699999999364
 20
0.0238499999999977
 40
0.2100000000000007
 50
0.0
 51
360.0
 73
               0
 97
        1
330
261
 75
               0
 76
               1
 98
        1
 10
0.0
 20
0.0
  0
CIRCLE
  5
263
102
{ACAD_REACTORS
330
264
102
}
100
AcDbEntity
  8
None
370
               9
390
0
  6
Continuous
 62
               7
100
AcDbCircle
 10
-0.2940699999999366
 20
0.0238499999999977
 30
0.0
 40
0.2100000000000007
  0
HATCH
  5
264
100
AcDbEntity
  8
None
370
               0
390
0
  6
Continuous
 62
               7
100
AcDbHatch
 10
0.0
 20
0.0
 30
0.0
210
0.0
220
0.0
230
1.0
  2
SOLID
 70
               1
 71
               1
 91
        1
 92
        1
 93
        1
 72
               2
 10
-0.2940699999999366
 20
0.0238499999999977
 40
0.2100000000000007
 50
0.0
 51
360.0
 73
               0
 97
        1
330
263
 75
               0
 76
               1
 98
        1
 10
0.0
 20
0.0
  0
CIRCLE
  5
265
102
{ACAD_REACTORS
330
266
102
}
100
AcDbEntity
  8
None
370
               9
390
0
  6
Continuous
 62
               7
100
AcDbCircle
 10
0.5059300000000633
 20
0.0238499999999977
 30
0.0
 40
0.2100000000000007
  0
HATCH
  5
266
100
AcDbEntity
  8
None
370
               0
390
0
  6
Continuous
 62
               7
100
AcDbHatch
 10
0.0
 20
0.0
 30
0.0
210
0.0
220
0.0
230
1.0
  2
SOLID
 70
               1
 71
               1
 91
        1
 92
        1
 93
        1
 72
               2
 10
0.5059300000000633
 20
0.0238499999999977
 40
0.2100000000000007
 50
0.0
 51
360.0
 73
               0
 97
        1
330
265
 75
               0
 76
               1
 98
        1
 10
0.0
 20
0.0
  0
CIRCLE
  5
267
102
{ACAD_REACTORS
330
268
102
}
100
AcDbEntity
  8
None
370
               9
390
0
  6
Continuous
 62
               7
100
AcDbCircle
 10
1.3059300000000631
 20
0.0238499999999977
 30
0.0
 40
0.2100000000000007
  0
HATCH
  5
268
100
AcDbEntity
  8
None
370
               0
390
0
  6
Continuous
 62
               7
100
AcDbHatch
 10
0.0
 20
0.0
 30
0.0
210
0.0
220
0.0
230
1.0
  2
SOLID
 70
               1
 71
               1
 91
        1
 92
        1
 93
        1
 72
               2
 10
1.3059300000000631
 20
0.0238499999999977
 40
0.2100000000000007
 50
0.0
 51
360.0
 73
               0
 97
        1
330
267
 75
               0
 76
               1
 98
        1
 10
0.0
 20
0.0
  0
CIRCLE
  5
269
102
{ACAD_REACTORS
330
26A
102
}
100
AcDbEntity
  8
None
370
               9
390
0
  6
Continuous
 62
               7
100
AcDbCircle
 10
2.1059300000000629
 20
0.0238499999999977
 30
0.0
 40
0.2100000000000007
  0
HATCH
  5
26A
100
AcDbEntity
  8
None
370
               0
390
0
  6
Continuous
 62
               7
100
AcDbHatch
 10
0.0
 20
0.0
 30
0.0
210
0.0
220
0.0
230
1.0
  2
SOLID
 70
               1
 71
               1
 91
        1
 92
        1
 93
        1
 72
               2
 10
2.1059300000000629
 20
0.0238499999999977
 40
0.2100000000000007
 50
0.0
 51
360.0
 73
               0
 97
        1
330
269
 75
               0
 76
               1
 98
        1
 10
0.0
 20
0.0
  0
CIRCLE
  5
26B
102
{ACAD_REACTORS
330
26C
102
}
100
AcDbEntity
  8
None
370
               9
390
0
  6
Continuous
 62
               7
100
AcDbCircle
 10
2.9059300000000627
 20
0.0238499999999977
 30
0.0
 40
0.2100000000000007
  0
HATCH
  5
26C
100
AcDbEntity
  8
None
370
               0
390
0
  6
Continuous
 62
               7
100
AcDbHatch
 10
0.0
 20
0.0
 30
0.0
210
0.0
220
0.0
230
1.0
  2
SOLID
 70
               1
 71
               1
 91
        1
 92
        1
 93
        1
 72
               2
 10
2.9059300000000627
 20
0.0238499999999977
 40
0.2100000000000007
 50
0.0
 51
360.0
 73
               0
 97
        1
330
26B
 75
               0
 76
               1
 98
        1
 10
0.0
 20
0.0
  0
CIRCLE
  5
26D
102
{ACAD_REACTORS
330
26E
102
}
100
AcDbEntity
  8
None
370
               9
390
0
  6
Continuous
 62
               7
100
AcDbCircle
 10
3.7059300000000626
 20
0.0238499999999977
 30
0.0
 40
0.2100000000000007
  0
HATCH
  5
26E
100
AcDbEntity
  8
None
370
               0
390
0
  6
Continuous
 62
               7
100
AcDbHatch
 10
0.0
 20
0.0
 30
0.0
210
0.0
220
0.0
230
1.0
  2
SOLID
 70
               1
 71
               1
 91
        1
 92
        1
 93
        1
 72
               2
 10
3.7059300000000626
 20
0.0238499999999977
 40
0.2100000000000007
 50
0.0
 51
360.0
 73
               0
 97
        1
330
26D
 75
               0
 76
               1
 98
        1
 10
0.0
 20
0.0
  0
CIRCLE
  5
26F
102
{ACAD_REACTORS
330
270
102
}
100
AcDbEntity
  8
None
370
               9
390
0
  6
Continuous
 62
               7
100
AcDbCircle
 10
4.5059300000000633
 20
0.0238499999999977
 30
0.0
 40
0.2100000000000007
  0
HATCH
  5
270
100
AcDbEntity
  8
None
370
               0
390
0
  6
Continuous
 62
               7
100
AcDbHatch
 10
0.0
 20
0.0
 30
0.0
210
0.0
220
0.0
230
1.0
  2
SOLID
 70
               1
 71
               1
 91
        1
 92
        1
 93
        1
 72
               2
 10
4.5059300000000633
 20
0.0238499999999977
 40
0.2100000000000007
 50
0.0
 51
360.0
 73
               0
 97
        1
330
26F
 75
               0
 76
               1
 98
        1
 10
0.0
 20
0.0
  0
ENDBLK
  5
271
100
AcDbEntity
  8
None
390
0
100
AcDbBlockEnd
  0
BLOCK
  5
272
100
AcDbEntity
  8
Dimension
390
0
100
AcDbBlockBegin
  2
*D18
 70
               1
 10
0.0
 20
0.0
 30
0.0
  3
*D18
  1

  0
LINE
  5
273
100
AcDbEntity
  8
Dimension
370
              -2
390
0
  6
Continuous
 62
               0
100
AcDbLine
 10
28.963253175668388
 20
-145.61771803342296
 30
0.0
 11
28.963253175668388
 21
-136.24003866684592
 31
0.0
  0
LINE
  5
274
100
AcDbEntity
  8
Dimension
370
              -2
390
0
  6
Continuous
 62
               0
100
AcDbLine
 10
29.763253175668389
 20
-145.61771803342296
 30
0.0
 11
29.763253175668389
 21
-136.24003866684592
 31
0.0
  0
LINE
  5
275
100
AcDbEntity
  8
Dimension
370
              -2
390
0
  6
Continuous
 62
               0
100
AcDbLine
 10
29.763253175668389
 20
-137.51003739999999
 30
0.0
 11
28.963253175668388
 21
-137.51003739999999
 31
0.0
  0
LINE
  5
276
100
AcDbEntity
  8
Dimension
370
              -2
390
0
  6
Continuous
 62
               0
100
AcDbLine
 10
28.963253175668388
 20
-137.51003739999999
 30
0.0
 11
26.629926844507963
 21
-137.51003739999999
 31
0.0
  0
SOLID
  5
277
100
AcDbEntity
  8
Dimension
370
              -2
390
0
 62
               0
100
AcDbTrace
 10
28.963253175668388
 20
-137.51003739999999
 30
0.0
 11
27.90492090066839
 21
-137.79361667841005
 31
0.0
 12
27.90492090066839
 22
-137.22645812158996
 32
0.0
 13
27.90492090066839
 23
-137.22645812158996
 33
0.0
  0
LINE
  5
278
100
AcDbEntity
  8
Dimension
370
              -2
390
0
  6
Continuous
 62
               0
100
AcDbLine
 10
29.763253175668389
 20
-137.51003739999999
 30
0.0
 11
32.39291317566839
 21
-137.51003739999999
 31
0.0
  0
SOLID
  5
279
100
AcDbEntity
  8
Dimension
370
              -2
390
0
 62
               0
100
AcDbTrace
 10
29.763253175668389
 20
-137.51003739999999
 30
0.0
 11
30.82158545066839
 21
-137.22645812158996
 31
0.0
 12
30.82158545066839
 22
-137.79361667841005
 32
0.0
 13
30.82158545066839
 23
-137.79361667841005
 33
0.0
  0
WIPEOUT
  5
27A
100
AcDbEntity
  8
Dimension
370
              -2
390
0
  6
Continuous
 62
               0
 92
        0
100
AcDbWipeout
 90
        0
 10
32.39291317566839
 20
44.222401849999997
 30
0.0
 11
5.2599001384281161
 21
0.0
 31
0.0
 12
0.0
 22
5.2599001384281161
 32
0.0
 13
1.0
 23
1.0
340
0
 70
               7
280
               1
281
              50
282
              50
283
               0
360
0
 71
               2
 91
        5
 14
-0.5
 24
35.166243502959603
 14
0.4999999999999998
 24
35.166243502959603
 14
0.4999999999999998
 24
34.934855174670211
 14
-0.5
 24
34.934855174670211
 14
-0.5
 24
35.166243502959603
  0
MTEXT
  5
27B
100
AcDbEntity
  8
Dimension
390
0
 62
               0
100
AcDbMText
 10
32.39291317566839
 20
-137.09607603020834
 30
0.0
 40
0.7579186197916666
 41
0.0
 71
               1
 72
               1
  1
0.8mm typ.
  7
Helvetica
 73
               1
 44
0.9673603504928808
  0
POINT
  5
27C
100
AcDbEntity
  8
Defpoints
370
               0
390
0
 62
               0
100
AcDbPoint
 10
29.763253175668389
 20
-146.25271739999999
 30
0.0
  0
POINT
  5
27D
100
AcDbEntity
  8
Defpoints
370
               0
390
0
 62
               0
100
AcDbPoint
 10
28.963253175668388
 20
-146.25271739999999
 30
0.0
  0
POINT
  5
27E
100
AcDbEntity
  8
Defpoints
370
               0
390
0
 62
               0
100
AcDbPoint
 10
28.963253175668388
 20
-137.51003739999999
 30
0.0
  0
ENDBLK
  5
27F
100
AcDbEntity
  8
Dimension
390
0
100
AcDbBlockEnd
  0
BLOCK
  5
280
100
AcDbEntity
  8
Dimension
390
0
100
AcDbBlockBegin
  2
*D19
 70
               1
 10
0.0
 20
0.0
 30
0.0
  3
*D19
  1

  0
LINE
  5
281
100
AcDbEntity
  8
Dimension
370
              -2
390
0
  6
Continuous
 62
               0
100
AcDbLine
 10
33.358361599999995
 20
-146.63073739999999
 30
0.0
 11
36.277631171271096
 21
-149.5500069712711
 31
0.0
  0
SOLID
  5
282
100
AcDbEntity
  8
Dimension
370
              -2
390
0
 62
               0
100
AcDbTrace
 10
33.358361599999995
 20
-146.63073739999999
 30
0.0
 11
33.990790333528039
 21
-146.99587029954566
 31
0.0
 12
33.723494499545666
 22
-147.26316613352805
 32
0.0
 13
33.723494499545666
 23
-147.26316613352805
 33
0.0
  0
LINE
  5
283
100
AcDbEntity
  8
Dimension
370
              -2
390
0
  6
Continuous
 62
               0
100
AcDbLine
 10
36.277631171271096
 20
-149.5500069712711
 30
0.0
 11
38.277625173914423
 21
-149.5500069712711
 31
0.0
  0
WIPEOUT
  5
284
100
AcDbEntity
  8
Dimension
370
              -2
390
0
  6
Continuous
 62
               0
 92
        0
100
AcDbWipeout
 90
        0
 10
38.277625173914423
 20
32.18243358685389
 30
0.0
 11
4.9741512854511285
 21
0.0
 31
0.0
 12
0.0
 22
4.9741512854511285
 32
0.0
 13
1.0
 23
1.0
340
0
 70
               7
280
               1
281
              50
282
              50
283
               0
360
0
 71
               2
 91
        5
 14
-0.5
 24
37.157706719401212
 14
0.5
 24
37.157706719401212
 14
0.5
 24
36.913025882378854
 14
-0.5
 24
36.913025882378854
 14
-0.5
 24
37.157706719401212
  0
MTEXT
  5
285
100
AcDbEntity
  8
Dimension
390
0
 62
               0
100
AcDbMText
 10
38.277625173914423
 20
-149.13604429335442
 30
0.0
 40
0.7579186197916666
 41
0.0
 71
               1
 72
               1
  1
Ø 0.85mm
  7
Helvetica
 73
               1
 44
0.9673603504928808
  0
WIPEOUT
  5
286
100
AcDbEntity
  8
Dimension
370
              -2
390
0
  6
Continuous
 62
               0
 92
        0
100
AcDbWipeout
 90
        0
 10
43.251776459365551
 20
32.18243244935389
 30
0.0
 11
5.0270675403373737
 21
0.0
 31
0.0
 12
0.0
 22
5.0270675403373737
 32
0.0
 13
1.0
 23
1.0
340
0
 70
               7
280
               1
281
              50
282
              50
283
               0
360
0
 71
               2
 91
        5
 14
-0.5
 24
36.771837912836716
 14
0.5000000000000007
 24
36.771837912836716
 14
0.5000000000000007
 24
36.52973265162148
 14
-0.5
 24
36.52973265162148
 14
-0.5
 24
36.771837912836716
  0
MTEXT
  5
287
100
AcDbEntity
  8
Dimension
390
0
 62
               0
100
AcDbMText
 10
43.251776459365551
 20
-149.13604543085444
 30
0.0
 40
0.7579186197916666
 41
0.0
 71
               1
 72
               1
  1
±0.025mm
  7
Helvetica
 73
               1
 44
0.9673603504928808
  0
WIPEOUT
  5
288
100
AcDbEntity
  8
Dimension
370
              -2
390
0
  6
Continuous
 62
               0
 92
        0
100
AcDbWipeout
 90
        0
 10
48.278843999702929
 20
32.182430970603889
 30
0.0
 11
1.8097482306221728
 21
0.0
 31
0.0
 12
0.0
 22
1.8097482306221728
 32
0.0
 13
1.0
 23
1.0
340
0
 70
               7
280
               1
281
              50
282
              50
283
               0
360
0
 71
               2
 91
        5
 14
-0.5
 24
101.2548872902133
 14
0.499999999999998
 24
101.2548872902133
 14
0.499999999999998
 24
100.58237268533284
 14
-0.5
 24
100.58237268533284
 14
-0.5
 24
101.2548872902133
  0
MTEXT
  5
289
100
AcDbEntity
  8
Dimension
390
0
 62
               0
100
AcDbMText
 10
48.278843999702929
 20
-149.13604471162265
 30
0.0
 40
0.7579202490234376
 41
0.0
 71
               1
 72
               1
  1
(x2)
  7
Helvetica
 73
               1
 44
0.9673603504928806
  0
POINT
  5
28A
100
AcDbEntity
  8
Defpoints
370
               0
390
0
 62
               0
100
AcDbPoint
 10
32.75732159999999
 20
-146.0296974
 30
0.0
  0
POINT
  5
28B
100
AcDbEntity
  8
Defpoints
370
               0
390
0
 62
               0
100
AcDbPoint
 10
33.358361599999995
 20
-146.63073739999999
 30
0.0
  0
ENDBLK
  5
28C
100
AcDbEntity
  8
Dimension
390
0
100
AcDbBlockEnd
  0
BLOCK
  5
28D
100
AcDbEntity
  8
Dimension
390
0
100
AcDbBlockBegin
  2
*D20
 70
               1
 10
0.0
 20
0.0
 30
0.0
  3
*D20
  1

  0
LINE
  5
28E
100
AcDbEntity
  8
Dimension
370
              -2
390
0
  6
Continuous
 62
               0
100
AcDbLine
 10
33.713161599999992
 20
-157.98274739999999
 30
0.0
 11
35.700001770882217
 21
-159.400221634443
 31
0.0
  0
SOLID
  5
28F
100
AcDbEntity
  8
Dimension
370
              -2
390
0
 62
               0
100
AcDbTrace
 10
33.713161599999992
 20
-157.98274739999999
 30
0.0
 11
34.394923456172009
 21
-158.24445125704341
 31
0.0
 12
34.172732758254476
 22
-158.55027051655398
 32
0.0
 13
34.172732758254476
 23
-158.55027051655398
 33
0.0
  0
LINE
  5
290
100
AcDbEntity
  8
Dimension
370
              -2
390
0
  6
Continuous
 62
               0
100
AcDbLine
 10
35.700001770882217
 20
-159.400221634443
 30
0.0
 11
37.699995773525544
 21
-159.400221634443
 31
0.0
  0
WIPEOUT
  5
291
100
AcDbEntity
  8
Dimension
370
              -2
390
0
  6
Continuous
 62
               0
 92
        0
100
AcDbWipeout
 90
        0
 10
37.699995773525551
 20
22.264606096806975
 30
0.0
 11
5.5268243445950542
 21
0.0
 31
0.0
 12
0.0
 22
5.5268243445950542
 32
0.0
 13
1.0
 23
1.0
340
0
 70
               7
280
               1
281
              50
282
              50
283
               0
360
0
 71
               2
 91
        5
 14
-0.5
 24
33.491998231013064
 14
0.499999999999999
 24
33.491998231013064
 14
0.499999999999999
 24
33.247317395204981
 14
-0.5
 24
33.247317395204981
 14
-0.5
 24
33.491998231013064
  0
MTEXT
  5
292
100
AcDbEntity
  8
Dimension
390
0
 62
               0
100
AcDbMText
 10
37.699995773525551
 20
-158.94026269485968
 30
0.0
 40
0.8421302083333332
 41
0.0
 71
               1
 72
               1
  1
Ø 1.61mm
  7
Helvetica
 73
               1
 44
0.9673603504928806
  0
WIPEOUT
  5
293
100
AcDbEntity
  8
Dimension
370
              -2
390
0
  6
Continuous
 62
               0
 92
        0
100
AcDbWipeout
 90
        0
 10
43.2268201181206
 20
22.264603721806974
 30
0.0
 11
4.9271051444253935
 21
0.0
 31
0.0
 12
0.0
 22
4.9271051444253935
 32
0.0
 13
1.0
 23
1.0
340
0
 70
               7
280
               1
281
              50
282
              50
283
               0
360
0
 71
               2
 91
        5
 14
-0.5
 24
37.507730433011666
 14
0.5000000000000007
 24
37.507730433011666
 14
0.5000000000000007
 24
37.233267445037882
 14
-0.5
 24
37.233267445037882
 14
-0.5
 24
37.507730433011666
  0
MTEXT
  5
294
100
AcDbEntity
  8
Dimension
390
0
 62
               0
100
AcDbMText
 10
43.2268201181206
 20
-158.94026506985969
 30
0.0
 40
0.8421302083333332
 41
0.0
 71
               1
 72
               1
  1
±0.05mm
  7
Helvetica
 73
               1
 44
0.9673603504928806
  0
WIPEOUT
  5
295
100
AcDbEntity
  8
Dimension
370
              -2
390
0
  6
Continuous
 62
               0
 92
        0
100
AcDbWipeout
 90
        0
 10
48.153925262545997
 20
22.264600634306973
 30
0.0
 11
2.0108313673579694
 21
0.0
 31
0.0
 12
0.0
 22
2.0108313673579694
 32
0.0
 13
1.0
 23
1.0
340
0
 70
               7
280
               1
281
              50
282
              50
283
               0
360
0
 71
               2
 91
        5
 14
-0.5
 24
91.179398561192002
 14
0.4999999999999982
 24
91.179398561192002
 14
0.4999999999999982
 24
90.506883956311512
 14
-0.5
 24
90.506883956311512
 14
-0.5
 24
91.179398561192002
  0
MTEXT
  5
296
100
AcDbEntity
  8
Dimension
390
0
 62
               0
100
AcDbMText
 10
48.153925262545997
 20
-158.94026356816698
 30
0.0
 40
0.8421336100260418
 41
0.0
 71
               1
 72
               1
  1
(x4)
  7
Helvetica
 73
               1
 44
0.9673603504928806
  0
POINT
  5
297
100
AcDbEntity
  8
Defpoints
370
               0
390
0
 62
               0
100
AcDbPoint
 10
32.402521599999993
 20
-157.0476874
 30
0.0
  0
POINT
  5
298
100
AcDbEntity
  8
Defpoints
370
               0
390
0
 62
               0
100
AcDbPoint
 10
33.713161599999992
 20
-157.98274739999999
 30
0.0
  0
ENDBLK
  5
299
100
AcDbEntity
  8
Dimension
390
0
100
AcDbBlockEnd
  0
BLOCK
  5
29A
100
AcDbEntity
  8
Dimension
390
0
100
AcDbBlockBegin
  2
*D21
 70
               1
 10
0.0
 20
0.0
 30
0.0
  3
*D21
  1

  0
LINE
  5
29B
100
AcDbEntity
  8
Dimension
370
              -2
390
0
  6
Continuous
 62
               0
100
AcDbLine
 10
31.489657337409323
 20
-153.05276112877175
 30
0.0
 11
36.992605282877747
 21
-155.08016300341802
 31
0.0
  0
SOLID
  5
29C
100
AcDbEntity
  8
Dimension
370
              -2
390
0
 62
               0
100
AcDbTrace
 10
31.489657337409323
 20
-153.05276112877175
 30
0.0
 11
32.215922664044271
 21
-153.12909469052769
 31
0.0
 12
32.08045477928502
 22
-153.48200059573122
 32
0.0
 13
32.08045477928502
 23
-153.48200059573122
 33
0.0
  0
LINE
  5
29D
100
AcDbEntity
  8
Dimension
370
              -2
390
0
  6
Continuous
 62
               0
100
AcDbLine
 10
36.992605282877747
 20
-155.08016300341802
 30
0.0
 11
38.992599285521081
 21
-155.08016300341802
 31
0.0
  0
WIPEOUT
  5
29E
100
AcDbEntity
  8
Dimension
370
              -2
390
0
  6
Continuous
 62
               0
 92
        0
100
AcDbWipeout
 90
        0
 10
38.992599285521081
 20
26.652274938456969
 30
0.0
 11
10.456323558841135
 21
0.0
 31
0.0
 12
0.0
 22
10.456323558841135
 32
0.0
 13
1.0
 23
1.0
340
0
 70
               7
280
               1
281
              50
282
              50
283
               0
360
0
 71
               2
 91
        5
 14
-0.5
 24
17.938345129041576
 14
0.5
 24
17.938345129041576
 14
0.5
 24
17.821948375498032
 14
-0.5
 24
17.821948375498032
 14
-0.5
 24
17.938345129041576
  0
MTEXT
  5
29F
100
AcDbEntity
  8
Dimension
390
0
 62
               0
100
AcDbMText
 10
38.992599285521081
 20
-154.66620074376956
 30
0.0
 40
0.7579202490234376
 41
0.0
 71
               1
 72
               1
  1
Ø 0.42mm Pad (x169)
  7
Helvetica
 73
               1
 44
0.9673603504928806
  0
POINT
  5
2A0
100
AcDbEntity
  8
Defpoints
370
               0
390
0
 62
               0
100
AcDbPoint
 10
31.095553228346162
 20
-152.90756487806428
 30
0.0
  0
POINT
  5
2A1
100
AcDbEntity
  8
Defpoints
370
               0
390
0
 62
               0
100
AcDbPoint
 10
31.489657337409323
 20
-153.05276112877175
 30
0.0
  0
ENDBLK
  5
2A2
100
AcDbEntity
  8
Dimension
390
0
100
AcDbBlockEnd
  0
BLOCK
  5
2A3
100
AcDbEntity
  8
Dimension
390
0
100
AcDbBlockBegin
  2
*D22
 70
               1
 10
0.0
 20
0.0
 30
0.0
  3
*D22
  1

  0
LINE
  5
2A4
100
AcDbEntity
  8
Dimension
370
              -2
390
0
  6
Continuous
 62
               0
100
AcDbLine
 10
19.332841599999995
 20
-143.15521803342295
 30
0.0
 11
19.332841599999995
 21
-137.73000126684593
 31
0.0
  0
LINE
  5
2A5
100
AcDbEntity
  8
Dimension
370
              -2
390
0
  6
Continuous
 62
               0
100
AcDbLine
 10
21.770341600000059
 20
-145.21771803342295
 30
0.0
 11
21.770341600000059
 21
-137.73000126684593
 31
0.0
  0
LINE
  5
2A6
100
AcDbEntity
  8
Dimension
370
              -2
390
0
  6
Continuous
 62
               0
100
AcDbLine
 10
21.770341600000059
 20
-139.0
 30
0.0
 11
19.332841599999995
 21
-139.0
 31
0.0
  0
LINE
  5
2A7
100
AcDbEntity
  8
Dimension
370
              -2
390
0
  6
Continuous
 62
               0
100
AcDbLine
 10
19.332841599999995
 20
-139.0
 30
0.0
 11
16.999515268839566
 21
-139.0
 31
0.0
  0
SOLID
  5
2A8
100
AcDbEntity
  8
Dimension
370
              -2
390
0
 62
               0
100
AcDbTrace
 10
19.332841599999995
 20
-139.0
 30
0.0
 11
18.274509324999993
 21
-139.28357927841006
 31
0.0
 12
18.274509324999993
 22
-138.71642072158997
 32
0.0
 13
18.274509324999993
 23
-138.71642072158997
 33
0.0
  0
LINE
  5
2A9
100
AcDbEntity
  8
Dimension
370
              -2
390
0
  6
Continuous
 62
               0
100
AcDbLine
 10
21.770341600000059
 20
-139.0
 30
0.0
 11
22.937004765580269
 21
-139.0
 31
0.0
  0
SOLID
  5
2AA
100
AcDbEntity
  8
Dimension
370
              -2
390
0
 62
               0
100
AcDbTrace
 10
21.770341600000059
 20
-139.0
 30
0.0
 11
22.828673875000057
 21
-138.71642072158997
 31
0.0
 12
22.828673875000057
 22
-139.28357927841006
 32
0.0
 13
22.828673875000057
 23
-139.28357927841006
 33
0.0
  0
WIPEOUT
  5
2AB
100
AcDbEntity
  8
Dimension
370
              -2
390
0
  6
Continuous
 62
               0
 92
        0
100
AcDbWipeout
 90
        0
 10
22.937004765580269
 20
42.732437941874977
 30
0.0
 11
5.0376616469431887
 21
0.0
 31
0.0
 12
0.0
 22
5.0376616469431887
 32
0.0
 13
1.0
 23
1.0
340
0
 70
               7
280
               1
281
              50
282
              50
283
               0
360
0
 71
               2
 91
        5
 14
-0.5
 24
36.695558927750341
 14
0.5
 24
36.695558927750341
 14
0.5
 24
36.453962289955392
 14
-0.5
 24
36.453962289955392
 14
-0.5
 24
36.695558927750341
  0
MTEXT
  5
2AC
100
AcDbEntity
  8
Dimension
390
0
 62
               0
100
AcDbMText
 10
22.937004765580269
 20
-138.58603774035157
 30
0.0
 40
0.7579202490234376
 41
0.0
 71
               1
 72
               1
  1
2.4375mm
  7
Helvetica
 73
               1
 44
0.9673603504928806
  0
POINT
  5
2AD
100
AcDbEntity
  8
Defpoints
370
               0
390
0
 62
               0
100
AcDbPoint
 10
21.770341600000059
 20
-145.85271739999999
 30
0.0
  0
POINT
  5
2AE
100
AcDbEntity
  8
Defpoints
370
               0
390
0
 62
               0
100
AcDbPoint
 10
19.332841599999995
 20
-143.79021739999999
 30
0.0
  0
POINT
  5
2AF
100
AcDbEntity
  8
Defpoints
370
               0
390
0
 62
               0
100
AcDbPoint
 10
19.332841599999995
 20
-139.0
 30
0.0
  0
ENDBLK
  5
2B0
100
AcDbEntity
  8
Dimension
390
0
100
AcDbBlockEnd
  0
BLOCK
  5
2B1
100
AcDbEntity
  8
Dimension
390
0
100
AcDbBlockBegin
  2
*D23
 70
               1
 10
0.0
 20
0.0
 30
0.0
  3
*D23
  1

  0
LINE
  5
2B2
100
AcDbEntity
  8
Dimension
370
              -2
390
0
  6
Continuous
 62
               0
100
AcDbLine
 10
18.697842233422953
 20
-143.79021739999999
 30
0.0
 11
13.030001266845925
 21
-143.79021739999999
 31
0.0
  0
LINE
  5
2B3
100
AcDbEntity
  8
Dimension
370
              -2
390
0
  6
Continuous
 62
               0
100
AcDbLine
 10
21.135342233423017
 20
-145.85271739999999
 30
0.0
 11
13.030001266845925
 21
-145.85271739999999
 31
0.0
  0
LINE
  5
2B4
100
AcDbEntity
  8
Dimension
370
              -2
390
0
  6
Continuous
 62
               0
100
AcDbLine
 10
14.300000000000001
 20
-145.85271739999999
 30
0.0
 11
14.300000000000001
 21
-143.79021739999999
 31
0.0
  0
LINE
  5
2B5
100
AcDbEntity
  8
Dimension
370
              -2
390
0
  6
Continuous
 62
               0
100
AcDbLine
 10
14.300000000000001
 20
-143.79021739999999
 30
0.0
 11
14.300000000000001
 21
-141.45689106883958
 31
0.0
  0
SOLID
  5
2B6
100
AcDbEntity
  8
Dimension
370
              -2
390
0
 62
               0
100
AcDbTrace
 10
14.300000000000001
 20
-143.79021739999999
 30
0.0
 11
14.016420721589958
 21
-142.73188512499999
 31
0.0
 12
14.583579278410044
 22
-142.73188512499999
 32
0.0
 13
14.583579278410044
 23
-142.73188512499999
 33
0.0
  0
LINE
  5
2B7
100
AcDbEntity
  8
Dimension
370
              -2
390
0
  6
Continuous
 62
               0
100
AcDbLine
 10
14.300000000000001
 20
-145.85271739999999
 30
0.0
 11
14.300000000000001
 21
-148.18604373116042
 31
0.0
  0
SOLID
  5
2B8
100
AcDbEntity
  8
Dimension
370
              -2
390
0
 62
               0
100
AcDbTrace
 10
14.300000000000001
 20
-145.85271739999999
 30
0.0
 11
14.583579278410044
 21
-146.91104967499999
 31
0.0
 12
14.016420721589958
 22
-146.91104967499999
 32
0.0
 13
14.016420721589958
 23
-146.91104967499999
 33
0.0
  0
WIPEOUT
  5
2B9
100
AcDbEntity
  8
Dimension
370
              -2
390
0
  6
Continuous
 62
               0
 92
        0
100
AcDbWipeout
 90
        0
 10
11.781169176528406
 20
36.910970541874988
 30
0.0
 11
5.0376616469431887
 21
0.0
 31
0.0
 12
0.0
 22
5.0376616469431887
 32
0.0
 13
1.0
 23
1.0
340
0
 70
               7
280
               1
281
              50
282
              50
283
               0
360
0
 71
               2
 91
        5
 14
-0.5
 24
36.695558927750341
 14
0.4999999999999997
 24
36.695558927750341
 14
0.4999999999999997
 24
36.453962289955392
 14
-0.5
 24
36.453962289955392
 14
-0.5
 24
36.695558927750341
  0
MTEXT
  5
2BA
100
AcDbEntity
  8
Dimension
390
0
 62
               0
100
AcDbMText
 10
11.781169176528406
 20
-144.40750514035156
 30
0.0
 40
0.7579202490234376
 41
0.0
 71
               1
 72
               1
  1
2.0625mm
  7
Helvetica
 73
               1
 44
0.9673603504928806
  0
POINT
  5
2BB
100
AcDbEntity
  8
Defpoints
370
               0
390
0
 62
               0
100
AcDbPoint
 10
21.770341600000059
 20
-145.85271739999999
 30
0.0
  0
POINT
  5
2BC
100
AcDbEntity
  8
Defpoints
370
               0
390
0
 62
               0
100
AcDbPoint
 10
19.332841599999995
 20
-143.79021739999999
 30
0.0
  0
POINT
  5
2BD
100
AcDbEntity
  8
Defpoints
370
               0
390
0
 62
               0
100
AcDbPoint
 10
14.300000000000001
 20
-143.79021739999999
 30
0.0
  0
ENDBLK
  5
2BE
100
AcDbEntity
  8
Dimension
390
0
100
AcDbBlockEnd
  0
ENDSEC
  0
SECTION
  2
ENTITIES
  0
WIPEOUT
  5
2BF
100
AcDbEntity
  8
Dimension
370
               5
390
0
  6
Continuous
 62
               7
 92
        0
100
AcDbWipeout
 90
        0
 10
16.954814842939992
 20
-1.5974332655127945
 30
0.0
 11
14.178685821300002
 21
0.0
 31
0.0
 12
0.0
 22
14.178685821300002
 32
0.0
 13
1.0
 23
1.0
340
0
 70
               7
280
               1
281
              50
282
              50
283
               0
360
0
 71
               2
 91
        5
 14
-0.5
 24
13.200980673439359
 14
0.4999999999999999
 24
13.200980673439359
 14
0.4999999999999999
 24
13.360217180782534
 14
-0.5
 24
13.360217180782534
 14
-0.5
 24
13.200980673439359
  0
POLYLINE
  5
2C0
100
AcDbEntity
  8
Dimension
370
               5
390
0
  6
Continuous
 62
               7
100
AcDb2dPolyline
 66
               1
 10
0.0
 20
0.0
 30
0.0
 70
               1
 75
               5
  0
VERTEX
  5
2C1
100
AcDbEntity
  8
Dimension
370
               5
390
0
  6
Continuous
 62
               7
100
AcDbVertex
100
AcDb2dVertex
 10
16.954814842939992
 20
-181.68064785661278
 30
0.0
  0
VERTEX
  5
2C2
100
AcDbEntity
  8
Dimension
370
               5
390
0
  6
Continuous
 62
               7
100
AcDbVertex
100
AcDb2dVertex
 10
31.133500664239993
 20
-181.68064785661278
 30
0.0
  0
VERTEX
  5
2C3
100
AcDbEntity
  8
Dimension
370
               5
390
0
  6
Continuous
 62
               7
100
AcDbVertex
100
AcDb2dVertex
 10
31.133500664239993
 20
-183.9384122655128
 30
0.0
  0
VERTEX
  5
2C4
100
AcDbEntity
  8
Dimension
370
               5
390
0
  6
Continuous
 62
               7
100
AcDbVertex
100
AcDb2dVertex
 10
16.954814842939992
 20
-183.9384122655128
 30
0.0
  0
SEQEND
  5
2C5
100
AcDbEntity
  8
Dimension
370
               5
390
0
  6
Continuous
 62
               7
  0
WIPEOUT
  5
2C6
100
AcDbEntity
  8
Dimension
370
               5
390
0
  6
Continuous
 62
               7
 92
        0
100
AcDbWipeout
 90
        0
 10
31.133500664239993
 20
-1.5974332655127945
 30
0.0
 11
9.9089567577000022
 21
0.0
 31
0.0
 12
0.0
 22
9.9089567577000022
 32
0.0
 13
1.0
 23
1.0
340
0
 70
               7
280
               1
281
              50
282
              50
283
               0
360
0
 71
               2
 91
        5
 14
-0.5
 24
18.673781457988685
 14
0.4999999999999998
 24
18.673781457988685
 14
0.4999999999999998
 24
18.901632327066864
 14
-0.5
 24
18.901632327066864
 14
-0.5
 24
18.673781457988685
  0
POLYLINE
  5
2C7
100
AcDbEntity
  8
Dimension
370
               5
390
0
  6
Continuous
 62
               7
100
AcDb2dPolyline
 66
               1
 10
0.0
 20
0.0
 30
0.0
 70
               1
 75
               5
  0
VERTEX
  5
2C8
100
AcDbEntity
  8
Dimension
370
               5
390
0
  6
Continuous
 62
               7
100
AcDbVertex
100
AcDb2dVertex
 10
31.133500664239993
 20
-181.68064785661278
 30
0.0
  0
VERTEX
  5
2C9
100
AcDbEntity
  8
Dimension
370
               5
390
0
  6
Continuous
 62
               7
100
AcDbVertex
100
AcDb2dVertex
 10
41.042457421939993
 20
-181.68064785661278
 30
0.0
  0
VERTEX
  5
2CA
100
AcDbEntity
  8
Dimension
370
               5
390
0
  6
Continuous
 62
               7
100
AcDbVertex
100
AcDb2dVertex
 10
41.042457421939993
 20
-183.9384122655128
 30
0.0
  0
VERTEX
  5
2CB
100
AcDbEntity
  8
Dimension
370
               5
390
0
  6
Continuous
 62
               7
100
AcDbVertex
100
AcDb2dVertex
 10
31.133500664239993
 20
-183.9384122655128
 30
0.0
  0
SEQEND
  5
2CC
100
AcDbEntity
  8
Dimension
370
               5
390
0
  6
Continuous
 62
               7
  0
WIPEOUT
  5
2CD
100
AcDbEntity
  8
Dimension
370
               5
390
0
  6
Continuous
 62
               7
 92
        0
100
AcDbWipeout
 90
        0
 10
41.042457421939993
 20
-1.5974332655127945
 30
0.0
 11
9.9229234103999993
 21
0.0
 31
0.0
 12
0.0
 22
9.9229234103999993
 32
0.0
 13
1.0
 23
1.0
340
0
 70
               7
280
               1
281
              50
282
              50
283
               0
360
0
 71
               2
 91
        5
 14
-0.5
 24
18.648201607840559
 14
0.4999999999999997
 24
18.648201607840559
 14
0.4999999999999997
 24
18.875731773651747
 14
-0.5
 24
18.875731773651747
 14
-0.5
 24
18.648201607840559
  0
POLYLINE
  5
2CE
100
AcDbEntity
  8
Dimension
370
               5
390
0
  6
Continuous
 62
               7
100
AcDb2dPolyline
 66
               1
 10
0.0
 20
0.0
 30
0.0
 70
               1
 75
               5
  0
VERTEX
  5
2CF
100
AcDbEntity
  8
Dimension
370
               5
390
0
  6
Continuous
 62
               7
100
AcDbVertex
100
AcDb2dVertex
 10
41.042457421939993
 20
-181.68064785661278
 30
0.0
  0
VERTEX
  5
2D0
100
AcDbEntity
  8
Dimension
370
               5
390
0
  6
Continuous
 62
               7
100
AcDbVertex
100
AcDb2dVertex
 10
50.965380832339989
 20
-181.68064785661278
 30
0.0
  0
VERTEX
  5
2D1
100
AcDbEntity
  8
Dimension
370
               5
390
0
  6
Continuous
 62
               7
100
AcDbVertex
100
AcDb2dVertex
 10
50.965380832339989
 20
-183.9384122655128
 30
0.0
  0
VERTEX
  5
2D2
100
AcDbEntity
  8
Dimension
370
               5
390
0
  6
Continuous
 62
               7
100
AcDbVertex
100
AcDb2dVertex
 10
41.042457421939993
 20
-183.9384122655128
 30
0.0
  0
SEQEND
  5
2D3
100
AcDbEntity
  8
Dimension
370
               5
390
0
  6
Continuous
 62
               7
  0
WIPEOUT
  5
2D4
100
AcDbEntity
  8
Dimension
370
               5
390
0
  6
Continuous
 62
               7
 92
        0
100
AcDbWipeout
 90
        0
 10
16.954814842939992
 20
-3.8552376743727947
 30
0.0
 11
18.164108502540003
 21
0.0
 31
0.0
 12
0.0
 22
18.164108502540003
 32
0.0
 13
1.0
 23
1.0
340
0
 70
               7
280
               1
281
              50
282
              50
283
               0
360
0
 71
               2
 91
        5
 14
-0.5
 24
10.414231384708906
 14
0.4999999999999998
 24
10.414231384708906
 14
0.4999999999999998
 24
10.538531699725427
 14
-0.5
 24
10.538531699725427
 14
-0.5
 24
10.414231384708906
  0
POLYLINE
  5
2D5
100
AcDbEntity
  8
Dimension
370
               5
390
0
  6
Continuous
 62
               7
100
AcDb2dPolyline
 66
               1
 10
0.0
 20
0.0
 30
0.0
 70
               1
 75
               5
  0
VERTEX
  5
2D6
100
AcDbEntity
  8
Dimension
370
               5
390
0
  6
Continuous
 62
               7
100
AcDbVertex
100
AcDb2dVertex
 10
16.954814842939992
 20
-183.9384122655128
 30
0.0
  0
VERTEX
  5
2D7
100
AcDbEntity
  8
Dimension
370
               5
390
0
  6
Continuous
 62
               7
100
AcDbVertex
100
AcDb2dVertex
 10
35.118923345479992
 20
-183.9384122655128
 30
0.0
  0
VERTEX
  5
2D8
100
AcDbEntity
  8
Dimension
370
               5
390
0
  6
Continuous
 62
               7
100
AcDbVertex
100
AcDb2dVertex
 10
35.118923345479992
 20
-186.19621667437278
 30
0.0
  0
VERTEX
  5
2D9
100
AcDbEntity
  8
Dimension
370
               5
390
0
  6
Continuous
 62
               7
100
AcDbVertex
100
AcDb2dVertex
 10
16.954814842939992
 20
-186.19621667437278
 30
0.0
  0
SEQEND
  5
2DA
100
AcDbEntity
  8
Dimension
370
               5
390
0
  6
Continuous
 62
               7
  0
WIPEOUT
  5
2DB
100
AcDbEntity
  8
Dimension
370
               5
390
0
  6
Continuous
 62
               7
 92
        0
100
AcDbWipeout
 90
        0
 10
35.118923345479992
 20
-3.8552376743727947
 30
0.0
 11
15.84645748686
 21
0.0
 31
0.0
 12
0.0
 22
15.84645748686
 32
0.0
 13
1.0
 23
1.0
340
0
 70
               7
280
               1
281
              50
282
              50
283
               0
360
0
 71
               2
 91
        5
 14
-0.5
 24
11.864254423454977
 14
0.4999999999999998
 24
11.864254423454977
 14
0.4999999999999998
 24
12.00673449578232
 14
-0.5
 24
12.00673449578232
 14
-0.5
 24
11.864254423454977
  0
POLYLINE
  5
2DC
100
AcDbEntity
  8
Dimension
370
               5
390
0
  6
Continuous
 62
               7
100
AcDb2dPolyline
 66
               1
 10
0.0
 20
0.0
 30
0.0
 70
               1
 75
               5
  0
VERTEX
  5
2DD
100
AcDbEntity
  8
Dimension
370
               5
390
0
  6
Continuous
 62
               7
100
AcDbVertex
100
AcDb2dVertex
 10
35.118923345479992
 20
-183.9384122655128
 30
0.0
  0
VERTEX
  5
2DE
100
AcDbEntity
  8
Dimension
370
               5
390
0
  6
Continuous
 62
               7
100
AcDbVertex
100
AcDb2dVertex
 10
50.965380832339989
 20
-183.9384122655128
 30
0.0
  0
VERTEX
  5
2DF
100
AcDbEntity
  8
Dimension
370
               5
390
0
  6
Continuous
 62
               7
100
AcDbVertex
100
AcDb2dVertex
 10
50.965380832339989
 20
-186.19621667437278
 30
0.0
  0
VERTEX
  5
2E0
100
AcDbEntity
  8
Dimension
370
               5
390
0
  6
Continuous
 62
               7
100
AcDbVertex
100
AcDb2dVertex
 10
35.118923345479992
 20
-186.19621667437278
 30
0.0
  0
SEQEND
  5
2E1
100
AcDbEntity
  8
Dimension
370
               5
390
0
  6
Continuous
 62
               7
  0
WIPEOUT
  5
2E2
100
AcDbEntity
  8
Dimension
370
               5
390
0
  6
Continuous
 62
               7
 92
        0
100
AcDbWipeout
 90
        0
 10
35.118923345479992
 20
-6.1129954166127938
 30
0.0
 11
15.84645748686
 21
0.0
 31
0.0
 12
0.0
 22
15.84645748686
 32
0.0
 13
1.0
 23
1.0
340
0
 70
               7
280
               1
281
              50
282
              50
283
               0
360
0
 71
               2
 91
        5
 14
-0.5
 24
11.86425736837942
 14
0.4999999999999998
 24
11.86425736837942
 14
0.4999999999999998
 24
12.00673449578232
 14
-0.5
 24
12.00673449578232
 14
-0.5
 24
11.86425736837942
  0
POLYLINE
  5
2E3
100
AcDbEntity
  8
Dimension
370
               5
390
0
  6
Continuous
 62
               7
100
AcDb2dPolyline
 66
               1
 10
0.0
 20
0.0
 30
0.0
 70
               1
 75
               5
  0
VERTEX
  5
2E4
100
AcDbEntity
  8
Dimension
370
               5
390
0
  6
Continuous
 62
               7
100
AcDbVertex
100
AcDb2dVertex
 10
35.118923345479992
 20
-186.19621667437278
 30
0.0
  0
VERTEX
  5
2E5
100
AcDbEntity
  8
Dimension
370
               5
390
0
  6
Continuous
 62
               7
100
AcDbVertex
100
AcDb2dVertex
 10
50.965380832339989
 20
-186.19621667437278
 30
0.0
  0
VERTEX
  5
2E6
100
AcDbEntity
  8
Dimension
370
               5
390
0
  6
Continuous
 62
               7
100
AcDbVertex
100
AcDb2dVertex
 10
50.965380832339989
 20
-188.45397441661277
 30
0.0
  0
VERTEX
  5
2E7
100
AcDbEntity
  8
Dimension
370
               5
390
0
  6
Continuous
 62
               7
100
AcDbVertex
100
AcDb2dVertex
 10
35.118923345479992
 20
-188.45397441661277
 30
0.0
  0
SEQEND
  5
2E8
100
AcDbEntity
  8
Dimension
370
               5
390
0
  6
Continuous
 62
               7
  0
WIPEOUT
  5
2E9
100
AcDbEntity
  8
Dimension
370
               5
390
0
  6
Continuous
 62
               7
 92
        0
100
AcDbWipeout
 90
        0
 10
16.954814842939992
 20
-6.1129954166127938
 30
0.0
 11
18.164108502540003
 21
0.0
 31
0.0
 12
0.0
 22
18.164108502540003
 32
0.0
 13
1.0
 23
1.0
340
0
 70
               7
280
               1
281
              50
282
              50
283
               0
360
0
 71
               2
 91
        5
 14
-0.5
 24
10.414233953875458
 14
0.4999999999999998
 24
10.414233953875458
 14
0.4999999999999998
 24
10.538531699725427
 14
-0.5
 24
10.538531699725427
 14
-0.5
 24
10.414233953875458
  0
POLYLINE
  5
2EA
100
AcDbEntity
  8
Dimension
370
               5
390
0
  6
Continuous
 62
               7
100
AcDb2dPolyline
 66
               1
 10
0.0
 20
0.0
 30
0.0
 70
               1
 75
               5
  0
VERTEX
  5
2EB
100
AcDbEntity
  8
Dimension
370
               5
390
0
  6
Continuous
 62
               7
100
AcDbVertex
100
AcDb2dVertex
 10
16.954814842939992
 20
-186.19621667437278
 30
0.0
  0
VERTEX
  5
2EC
100
AcDbEntity
  8
Dimension
370
               5
390
0
  6
Continuous
 62
               7
100
AcDbVertex
100
AcDb2dVertex
 10
35.118923345479992
 20
-186.19621667437278
 30
0.0
  0
VERTEX
  5
2ED
100
AcDbEntity
  8
Dimension
370
               5
390
0
  6
Continuous
 62
               7
100
AcDbVertex
100
AcDb2dVertex
 10
35.118923345479992
 20
-188.45397441661277
 30
0.0
  0
VERTEX
  5
2EE
100
AcDbEntity
  8
Dimension
370
               5
390
0
  6
Continuous
 62
               7
100
AcDbVertex
100
AcDb2dVertex
 10
16.954814842939992
 20
-188.45397441661277
 30
0.0
  0
SEQEND
  5
2EF
100
AcDbEntity
  8
Dimension
370
               5
390
0
  6
Continuous
 62
               7
  0
MTEXT
  5
2F0
100
AcDbEntity
  8
None
390
0
 62
               7
100
AcDbMText
 10
17.801480662939994
 20
-182.31991290137486
 30
0.0
 40
0.8421341405039061
 41
0.0
 71
               1
 72
               1
  1
Status: Released
  7
Arial
 73
               1
 44
0.9673603504928809
  0
MTEXT
  5
2F1
100
AcDbEntity
  8
None
390
0
 62
               7
100
AcDbMText
 10
17.801480662939994
 20
-184.57958397503486
 30
0.0
 40
0.8421341405039061
 41
0.0
 71
               1
 72
               1
  1
Drawing: J. Glab 
  7
Arial
 73
               1
 44
0.9673603504928809
  0
WIPEOUT
  5
2F2
100
AcDbEntity
  8
None
370
               5
390
0
  6
Continuous
 62
               7
 92
        0
100
AcDbWipeout
 90
        0
 10
31.980166484239994
 20
-1.056389473223792
 30
0.0
 11
5.2563868622737893
 21
0.0
 31
0.0
 12
0.0
 22
5.2563868622737893
 32
0.0
 13
1.0
 23
1.0
340
0
 70
               7
280
               1
281
              50
282
              50
283
               0
360
0
 71
               2
 91
        5
 14
-0.5
 24
35.189413807933377
 14
0.4999999999999993
 24
35.189413807933377
 14
0.4999999999999993
 24
34.932143110440229
 14
-0.5
 24
34.932143110440229
 14
-0.5
 24
35.189413807933377
  0
MTEXT
  5
2F3
100
AcDbEntity
  8
None
390
0
 62
               7
100
AcDbMText
 10
31.980166484239994
 20
-182.26125296003488
 30
0.0
 40
0.8421341405039061
 41
0.0
 71
               1
 72
               1
  1
Scale: 3:1
  7
Arial
 73
               1
 44
0.9673603504928809
  0
MTEXT
  5
2F4
100
AcDbEntity
  8
None
390
0
 62
               7
100
AcDbMText
 10
41.889123241939998
 20
-182.32179956615488
 30
0.0
 40
0.8421341405039061
 41
0.0
 71
               1
 72
               1
  1
Rev: A
  7
Arial
 73
               1
 44
0.9673603504928809
  0
MTEXT
  5
2F5
100
AcDbEntity
  8
None
390
0
 62
               7
100
AcDbMText
 10
35.965589165479997
 20
-184.76747045381487
 30
0.0
 40
0.8421341405039061
 41
0.0
 71
               1
 72
               1
  1
Date: 12/14/06
  7
Arial
 73
               1
 44
0.9673603504928809
  0
MTEXT
  5
2F6
100
AcDbEntity
  8
None
390
0
 62
               7
100
AcDbMText
 10
17.801480662939994
 20
-186.9430215629838
 30
0.0
 40
0.6737063575429687
 41
18.164108502540003
 71
               1
 72
               1
  1
File: SG-BGA-6214 Dwg.mcd
  7
Arial
 73
               1
 44
0.9673603504928809
  0
WIPEOUT
  5
2F7
100
AcDbEntity
  8
Dimension
370
               5
390
0
  6
Continuous
 62
               7
 92
        0
100
AcDbWipeout
 90
        0
 10
-16.784818084060003
 20
-6.1129954166127938
 30
0.0
 11
33.739632926999995
 21
0.0
 31
0.0
 12
0.0
 22
33.739632926999995
 32
0.0
 13
1.0
 23
1.0
340
0
 70
               7
280
               1
281
              50
282
              50
283
               0
360
0
 71
               2
 91
        5
 14
-0.5
 24
5.7705201990089225
 14
0.5
 24
5.7705201990089225
 14
0.5
 24
5.9043557437189067
 14
-0.5
 24
5.9043557437189067
 14
-0.5
 24
5.7705201990089225
  0
POLYLINE
  5
2F8
100
AcDbEntity
  8
Dimension
370
               5
390
0
  6
Continuous
 62
               7
100
AcDb2dPolyline
 66
               1
 10
0.0
 20
0.0
 30
0.0
 70
               1
 75
               5
  0
VERTEX
  5
2F9
100
AcDbEntity
  8
Dimension
370
               5
390
0
  6
Continuous
 62
               7
100
AcDbVertex
100
AcDb2dVertex
 10
-16.784818084060003
 20
-183.9384122655128
 30
0.0
  0
VERTEX
  5
2FA
100
AcDbEntity
  8
Dimension
370
               5
390
0
  6
Continuous
 62
               7
100
AcDbVertex
100
AcDb2dVertex
 10
16.954814842939992
 20
-183.9384122655128
 30
0.0
  0
VERTEX
  5
2FB
100
AcDbEntity
  8
Dimension
370
               5
390
0
  6
Continuous
 62
               7
100
AcDbVertex
100
AcDb2dVertex
 10
16.954814842939992
 20
-188.45397441661277
 30
0.0
  0
VERTEX
  5
2FC
100
AcDbEntity
  8
Dimension
370
               5
390
0
  6
Continuous
 62
               7
100
AcDbVertex
100
AcDb2dVertex
 10
-16.784818084060003
 20
-188.45397441661277
 30
0.0
  0
SEQEND
  5
2FD
100
AcDbEntity
  8
Dimension
370
               5
390
0
  6
Continuous
 62
               7
  0
WIPEOUT
  5
2FE
100
AcDbEntity
  8
Dimension
370
               5
390
0
  6
Continuous
 62
               7
 92
        0
100
AcDbWipeout
 90
        0
 10
-16.784818084060003
 20
-1.5974332655127945
 30
0.0
 11
33.739632926999995
 21
0.0
 31
0.0
 12
0.0
 22
33.739632926999995
 32
0.0
 13
1.0
 23
1.0
340
0
 70
               7
280
               1
281
              50
282
              50
283
               0
360
0
 71
               2
 91
        5
 14
-0.5
 24
5.8374384653423181
 14
0.5
 24
5.8374384653423181
 14
0.5
 24
5.9043557437189076
 14
-0.5
 24
5.9043557437189076
 14
-0.5
 24
5.8374384653423181
  0
POLYLINE
  5
2FF
100
AcDbEntity
  8
Dimension
370
               5
390
0
  6
Continuous
 62
               7
100
AcDb2dPolyline
 66
               1
 10
0.0
 20
0.0
 30
0.0
 70
               1
 75
               5
  0
VERTEX
  5
300
100
AcDbEntity
  8
Dimension
370
               5
390
0
  6
Continuous
 62
               7
100
AcDbVertex
100
AcDb2dVertex
 10
-16.784818084060003
 20
-181.68064785661278
 30
0.0
  0
VERTEX
  5
301
100
AcDbEntity
  8
Dimension
370
               5
390
0
  6
Continuous
 62
               7
100
AcDbVertex
100
AcDb2dVertex
 10
16.954814842939992
 20
-181.68064785661278
 30
0.0
  0
VERTEX
  5
302
100
AcDbEntity
  8
Dimension
370
               5
390
0
  6
Continuous
 62
               7
100
AcDbVertex
100
AcDb2dVertex
 10
16.954814842939992
 20
-183.9384122655128
 30
0.0
  0
VERTEX
  5
303
100
AcDbEntity
  8
Dimension
370
               5
390
0
  6
Continuous
 62
               7
100
AcDbVertex
100
AcDb2dVertex
 10
-16.784818084060003
 20
-183.9384122655128
 30
0.0
  0
SEQEND
  5
304
100
AcDbEntity
  8
Dimension
370
               5
390
0
  6
Continuous
 62
               7
  0
MTEXT
  5
305
100
AcDbEntity
  8
None
390
0
 62
               7
100
AcDbMText
 10
0.0849983794399911
 20
-182.27703911299869
 30
0.0
 40
0.9823410315468748
 41
0.0
 71
               2
 72
               1
  1
SG-BGA-6214 Drawing
  7
Arial (bold)
 73
               1
 44
0.9925958378970426
  0
INSERT
  5
306
100
AcDbEntity
  8
None
390
0
 62
               7
100
AcDbBlockReference
  2
IE i logo
 10
-13.175081693800006
 20
-186.16091004301279
 30
0.0
 41
0.6666660000000001
 42
0.6666660000000001
 43
0.6666660000000001
  0
MTEXT
  5
307
100
AcDbEntity
  8
None
390
0
 62
               7
100
AcDbMText
 10
35.965589165479997
 20
-187.04287479646382
 30
0.0
 40
0.6737063575429687
 41
0.0
 71
               1
 72
               1
  1
Modified: 
  7
Arial
 73
               1
 44
0.9673603504928809
  0
WIPEOUT
  5
308
100
AcDbEntity
  8
None
370
               9
390
0
  6
Continuous
 62
               7
 92
        0
100
AcDbWipeout
 90
        0
 10
54.96144350294
 20
-6.1420887208527937
 30
0.0
 11
11.853321838863753
 21
0.0
 31
0.0
 12
0.0
 22
11.853321838863753
 32
0.0
 13
1.0
 23
1.0
340
0
 70
               7
280
               1
281
              50
282
              50
283
               0
360
0
 71
               2
 91
        5
 14
-0.5
 24
15.883112133356112
 14
0.4999999999999997
 24
15.883112133356112
 14
0.4999999999999997
 24
15.677754996716233
 14
-0.5
 24
15.677754996716233
 14
-0.5
 24
15.883112133356112
  0
MTEXT
  5
309
100
AcDbEntity
  8
None
390
0
 62
               7
100
AcDbMText
 10
54.96144350294
 20
-186.43806108530589
 30
0.0
 40
1.5158404980468749
 41
0.0
 71
               1
 72
               1
  1
PAGE 2 of 3
  7
Arial
 73
               1
 44
0.9673603504928808
  0
MTEXT
  5
30A
100
AcDbEntity
  8
None
390
0
 62
               7
100
AcDbMText
 10
29.064542733199993
 20
-179.69592644797783
 30
0.0
 40
0.6939780386601563
 41
38.070221929740001
 71
               1
 72
               1
  1
Recommended PCB Layout Tolerances:  ±0.025mm [±0.001"] unless stated otherwise.\P
  7
Helvetica
 73
               1
 44
0.9673603504928806
  0
MTEXT
  5
30B
100
AcDbEntity
  8
None
390
0
 62
               7
100
AcDbMText
 10
-13.701014501200003
 20
-126.40621135580177
 30
0.0
 40
0.8165916313242188
 41
15.76917089748
 71
               1
 72
               1
  1
{\LRecommended PCB Layout Top View}\P
  7
Helvetica
 73
               1
 44
0.9673603504928809
  0
WIPEOUT
  5
30C
100
AcDbEntity
  8
None
370
              15
390
0
  6
Continuous
 62
               1
 92
        0
100
AcDbWipeout
 90
        0
 10
-16.53991166230001
 20
4.9738068239599897
 30
0.0
 11
23.801893295386506
 21
0.0
 31
0.0
 12
0.0
 22
23.801893295386506
 32
0.0
 13
1.0
 23
1.0
340
0
 70
               7
280
               1
281
              50
282
              50
283
               0
360
0
 71
               2
 91
        5
 14
-0.5
 24
8.1607762557839436
 14
0.5
 24
8.1607762557839436
 14
0.5
 24
7.9562409104404859
 14
-0.5
 24
7.9562409104404859
 14
-0.5
 24
8.1607762557839436
  0
MTEXT
  5
30D
100
AcDbEntity
  8
None
390
0
 62
               1
100
AcDbMText
 10
-16.53991166230001
 20
-172.69342250951655
 30
0.0
 40
0.7579202490234375
 41
0.0
 71
               1
 72
               1
  1
{\LTarget PCB Recommendations}\PTotal thickness: 1.6mm min.\PPlating: Gold or Solder finish\PPCB Pad height: Same or higher than solder mask
  7
Arial
 73
               1
 44
0.9673603504928808
  0
WIPEOUT
  5
30E
100
AcDbEntity
  8
None
370
              15
390
0
  6
Continuous
 62
               1
 92
        0
100
AcDbWipeout
 90
        0
 10
-16.598484937060004
 20
1.9669398308299932
 30
0.0
 11
35.697548497023035
 21
0.0
 31
0.0
 12
0.0
 22
35.697548497023035
 32
0.0
 13
1.0
 23
1.0
340
0
 70
               7
280
               1
281
              50
282
              50
283
               0
360
0
 71
               2
 91
        5
 14
-0.5
 24
5.6079412082094704
 14
0.5
 24
5.6079412082094704
 14
0.5
 24
5.5738469309413405
 14
-0.5
 24
5.5738469309413405
 14
-0.5
 24
5.6079412082094704
  0
MTEXT
  5
30F
100
AcDbEntity
  8
None
390
0
 62
               1
100
AcDbMText
 10
-16.598484937060004
 20
-179.35153585139656
 30
0.0
 40
0.7579202490234375
 41
0.0
 71
               1
 72
               1
  1
NOTE: Steel backing plate may be required based on end user's application
  7
New Century Schlbk
 73
               1
 44
0.9673603504928808
  0
WIPEOUT
  5
310
100
AcDbEntity
  8
None
370
               9
390
0
  6
Continuous
 62
               1
 92
        0
100
AcDbWipeout
 90
        0
 10
40.11493834945999
 20
53.182087682297599
 30
0.0
 11
28.8810711189
 21
0.0
 31
0.0
 12
0.0
 22
28.8810711189
 32
0.0
 13
1.0
 23
1.0
340
0
 70
               7
280
               1
281
              50
282
              50
283
               0
360
0
 71
               2
 91
        5
 14
-0.5
 24
6.8135116509122353
 14
0.5000000000000004
 24
6.8135116509122353
 14
0.5000000000000004
 24
6.6980089773067748
 14
-0.5
 24
6.6980089773067748
 14
-0.5
 24
6.8135116509122353
  0
MTEXT
  5
311
100
AcDbEntity
  8
None
390
0
 62
               1
100
AcDbMText
 10
40.11493834945999
 20
-126.12533152348743
 30
0.0
 40
1.01226634884375
 41
28.881071118900003
 71
               1
 72
               1
  1
{\L*Note: BGA pattern is not symmetrical with respect to the mounting holes.}
  7
Arial (bold)
 73
               1
 44
0.992595837897043
  0
WIPEOUT
  5
312
100
AcDbEntity
  8
None
370
               9
390
0
  6
Continuous
 62
               7
 92
        0
100
AcDbWipeout
 90
        0
 10
-16.30549189672001
 20
12.248052549706992
 30
0.0
 11
16.533511674321364
 21
0.0
 31
0.0
 12
0.0
 22
16.533511674321364
 32
0.0
 13
1.0
 23
1.0
340
0
 70
               7
280
               1
281
              50
282
              50
283
               0
360
0
 71
               2
 91
        5
 14
-0.5
 24
11.528569283511535
 14
0.5
 24
11.528569283511535
 14
0.5
 24
11.283192316841234
 14
-0.5
 24
11.283192316841234
 14
-0.5
 24
11.528569283511535
  0
MTEXT
  5
313
100
AcDbEntity
  8
None
390
0
 62
               7
100
AcDbMText
 10
-16.30549189672001
 20
-166.2521823084021
 30
0.0
 40
0.8421341405039061
 41
0.0
 71
               1
 72
               1
  1
Note: Full BGA pattern shown. \PPlease adjust pattern according\P to individual requirements.
  7
Arial
 73
               1
 44
0.9673603504928809
  0
INSERT
  5
314
100
AcDbEntity
  8
None
390
0
 62
               7
100
AcDbBlockReference
  2
©2006_address
 10
2.3931242219020774
 20
-186.30634369489778
 30
0.0
 41
0.6666660000000001
 42
0.6666660000000001
 43
0.6666660000000001
  0
INSERT
  5
315
100
AcDbEntity
  8
None
390
0
 62
               7
100
AcDbBlockReference
  2
Group-1
 10
26.864411599999993
 20
-155.47656739999999
 30
0.0
  0
INSERT
  5
316
100
AcDbEntity
  8
None
390
0
 62
               7
100
AcDbBlockReference
  2
Group-2
 10
26.864411599999993
 20
-155.47656739999999
 30
0.0
  0
INSERT
  5
317
100
AcDbEntity
  8
None
390
0
 62
               7
100
AcDbBlockReference
  2
Group-3
 10
26.864411599999993
 20
-155.47656739999999
 30
0.0
  0
INSERT
  5
318
100
AcDbEntity
  8
None
390
0
 62
               7
100
AcDbBlockReference
  2
Group-4
 10
26.864411599999993
 20
-155.47656739999999
 30
0.0
  0
WIPEOUT
  5
319
100
AcDbEntity
  8
None
370
               5
390
0
  6
Continuous
 62
               7
 92
        0
100
AcDbWipeout
 90
        0
 10
-5.6332284000000037
 20
36.864102599999995
 30
0.0
 11
4.9901799999999987
 21
0.0
 31
0.0
 12
0.0
 22
4.9901799999999987
 32
0.0
 13
1.0
 23
1.0
340
0
 70
               7
280
               1
281
              50
282
              50
283
               0
360
0
 71
               2
 91
        5
 14
-0.5
 24
37.039960281993842
 14
0.5
 24
37.039960281993842
 14
0.5
 24
36.552170462788922
 14
-0.5
 24
36.552170462788922
 14
-0.5
 24
37.039960281993842
  0
MTEXT
  5
31A
100
AcDbEntity
  8
None
390
0
 62
               7
100
AcDbMText
 10
-5.6332284000000037
 20
-143.23729578020834
 30
0.0
 40
0.7579186197916666
 41
4.9901799999999996
 71
               1
 72
               1
  1
Socket Body Size
  7
New Century Schlbk
 73
               1
 44
0.9673603504928808
  0
LINE
  5
31B
100
AcDbEntity
  8
None
370
               5
390
0
  6
Continuous
 62
               7
100
AcDbLine
 10
-1.1015884000000042
 20
-145.6183374
 30
0.0
 11
2.2727815999999947
 21
-148.9927174
 31
0.0
  0
LINE
  5
31C
100
AcDbEntity
  8
None
370
               5
390
0
  6
Continuous
 62
               7
100
AcDbLine
 10
2.2727815999999947
 20
-148.9927174
 30
0.0
 11
18.067471599999994
 21
-148.9927174
 31
0.0
  0
SOLID
  5
31D
100
AcDbEntity
  8
None
370
               5
390
0
 62
               7
100
AcDbTrace
 10
18.067471599999994
 20
-148.9927174
 30
0.0
 11
17.389994250134272
 21
-149.1742469087869
 31
0.0
 12
17.389994250134272
 22
-148.81118789121311
 32
0.0
 13
17.389994250134272
 23
-148.81118789121311
 33
0.0
  0
WIPEOUT
  5
31E
100
AcDbEntity
  8
None
370
               5
390
0
  6
Continuous
 62
               7
 92
        0
100
AcDbWipeout
 90
        0
 10
40.912221599999995
 20
20.422162099999994
 30
0.0
 11
6.8368120701770785
 21
0.0
 31
0.0
 12
0.0
 22
6.8368120701770785
 32
0.0
 13
1.0
 23
1.0
340
0
 70
               7
280
               1
281
              50
282
              50
283
               0
360
0
 71
               2
 91
        5
 14
-0.5
 24
27.170468213597868
 14
0.4999999999999994
 24
27.170468213597868
 14
0.4999999999999994
 24
26.992449644781409
 14
-0.5
 24
26.992449644781409
 14
-0.5
 24
27.170468213597868
  0
MTEXT
  5
31F
100
AcDbEntity
  8
None
390
0
 62
               7
100
AcDbMText
 10
40.912221599999995
 20
-160.89631578020834
 30
0.0
 40
0.7579186197916666
 41
0.0
 71
               1
 72
               1
  1
Mounting Hole
  7
New Century Schlbk
 73
               1
 44
0.9673603504928808
  0
WIPEOUT
  5
320
100
AcDbEntity
  8
None
370
               5
390
0
  6
Continuous
 62
               7
 92
        0
100
AcDbWipeout
 90
        0
 10
41.004921599999989
 20
30.350982099999992
 30
0.0
 11
7.196644308006384
 21
0.0
 31
0.0
 12
0.0
 22
7.196644308006384
 32
0.0
 13
1.0
 23
1.0
340
0
 70
               7
280
               1
281
              50
282
              50
283
               0
360
0
 71
               2
 91
        5
 14
-0.5
 24
25.836944719797067
 14
0.5
 24
25.836944719797067
 14
0.5
 24
25.667827079976245
 14
-0.5
 24
25.667827079976245
 14
-0.5
 24
25.836944719797067
  0
MTEXT
  5
321
100
AcDbEntity
  8
None
390
0
 62
               7
100
AcDbMText
 10
41.004921599999989
 20
-150.96749578020834
 30
0.0
 40
0.7579186197916666
 41
0.0
 71
               1
 72
               1
  1
Alignment Hole
  7
New Century Schlbk
 73
               1
 44
0.9673603504928808
  0
CIRCLE
  5
322
102
{ACAD_REACTORS
330
323
102
}
100
AcDbEntity
  8
None
370
              15
390
0
  6
Continuous
 62
             180
100
AcDbCircle
 10
21.034761599999996
 20
-143.4927174
 30
0.0
 40
0.250001485195589
  0
HATCH
  5
323
100
AcDbEntity
  8
None
370
               0
390
0
  6
Continuous
 62
             180
100
AcDbHatch
 10
0.0
 20
0.0
 30
0.0
210
0.0
220
0.0
230
1.0
  2
SOLID
 70
               1
 71
               1
 91
        1
 92
        1
 93
        1
 72
               2
 10
21.034761599999996
 20
-143.4927174
 40
0.250001485195589
 50
0.0
 51
360.0
 73
               0
 97
        1
330
322
 75
               0
 76
               1
 98
        1
 10
0.0
 20
0.0
  0
WIPEOUT
  5
324
100
AcDbEntity
  8
None
370
              15
390
0
  6
Continuous
 62
               7
 92
        0
100
AcDbWipeout
 90
        0
 10
0.3847615999999974
 20
50.531182099999995
 30
0.0
 11
7.8422253988126762
 21
0.0
 31
0.0
 12
0.0
 22
7.8422253988126762
 32
0.0
 13
1.0
 23
1.0
340
0
 70
               7
280
               1
281
              50
282
              50
283
               0
360
0
 71
               2
 91
        5
 14
-0.5
 24
23.751178042855877
 14
0.5
 24
23.751178042855877
 14
0.5
 24
23.595982363299886
 14
-0.5
 24
23.595982363299886
 14
-0.5
 24
23.751178042855877
  0
MTEXT
  5
325
100
AcDbEntity
  8
None
390
0
 62
               7
100
AcDbMText
 10
0.3847615999999974
 20
-130.78729578020832
 30
0.0
 40
0.7579186197916666
 41
0.0
 71
               1
 72
               1
  1
Orientation Mark
  7
New Century Schlbk
 73
               1
 44
0.9673603504928808
  0
LINE
  5
326
100
AcDbEntity
  8
None
370
              15
390
0
  6
Continuous
 62
               7
100
AcDbLine
 10
21.034761599999996
 20
-143.3427174
 30
0.0
 11
14.135421599999994
 21
-131.39271739999998
 31
0.0
  0
SOLID
  5
327
100
AcDbEntity
  8
None
370
              15
390
0
 62
               7
100
AcDbTrace
 10
21.034761599999996
 20
-143.3427174
 30
0.0
 11
20.538813758921169
 21
-142.84676955892118
 31
0.0
 12
20.853232091213098
 22
-142.66524005013429
 32
0.0
 13
20.853232091213098
 23
-142.66524005013429
 33
0.0
  0
LINE
  5
328
100
AcDbEntity
  8
None
370
              15
390
0
  6
Continuous
 62
               7
100
AcDbLine
 10
14.135421599999994
 20
-131.39271739999998
 30
0.0
 11
8.5847615999999967
 21
-131.39271739999998
 31
0.0
  0
DIMENSION
  5
329
100
AcDbEntity
  8
Dimension
370
               5
390
0
  6
Continuous
 62
               7
100
AcDbDimension
  2
*D11
 10
19.332841599999995
 20
-137.29271739999999
 30
0.0
 11
15.101741599999995
 21
-137.29271739999999
 31
0.0
 70
             128
 71
               5
 72
               1
 41
1.0
 42
0.0
  3
IE Standard
100
AcDbAlignedDimension
 13
18.082841599999995
 23
-142.54021739999999
 33
0.0
 14
19.332841599999995
 24
-143.79021739999999
 34
0.0
100
AcDbRotatedDimension
1001
ACAD
1000
DSTYLE
1002
{
1070
             340
1005
3A
1070
              71
1070
               1
1070
              47
1040
0.125
1070
              48
1040
0.125
1070
               3
1000
<>mm(x4)
1070
             174
1070
               0
1070
             147
1040
0.132291534375
1002
}
  0
DIMENSION
  5
32A
100
AcDbEntity
  8
Dimension
370
               5
390
0
  6
Continuous
 62
               7
100
AcDbDimension
  2
*D12
 10
7.6078415999999969
 20
-142.54021739999999
 30
0.0
 11
7.6078415999999969
 21
-139.79271739999999
 31
0.0
 70
             128
 71
               5
 72
               1
 41
1.0
 42
0.0
  3
IE Standard
100
AcDbAlignedDimension
 13
19.332841599999995
 23
-143.79021739999999
 33
0.0
 14
18.082841599999995
 24
-142.54021739999999
 34
0.0
 50
90.0
100
AcDbRotatedDimension
1001
ACAD
1000
DSTYLE
1002
{
1070
             340
1005
3A
1070
              71
1070
               1
1070
              47
1040
0.125
1070
              48
1040
0.125
1070
               3
1000
<>mm(x4)
1070
             174
1070
               0
1070
             147
1040
0.132291534375
1002
}
  0
DIMENSION
  5
32B
100
AcDbEntity
  8
Dimension
370
               5
390
0
  6
Continuous
 62
               7
100
AcDbDimension
  2
*D13
 10
14.300001599999995
 20
-157.51521739999998
 30
0.0
 11
14.300001599999995
 21
-154.70004039804687
 31
0.0
 70
             128
 71
               5
 72
               1
 41
1.0
 42
0.0
  3
IE Standard
100
AcDbAlignedDimension
 13
19.332841599999995
 23
-152.4352174
 33
0.0
 14
19.332841599999995
 24
-157.51521739999998
 34
0.0
 50
90.0
100
AcDbRotatedDimension
1001
ACAD
1000
DSTYLE
1002
{
1070
             271
1070
               3
1070
             340
1005
3A
1070
             147
1040
0.132291534375
1002
}
  0
POLYLINE
  5
32C
100
AcDbEntity
  8
None
370
               9
390
0
  6
STYLE_12
 62
               7
100
AcDb2dPolyline
 66
               1
 10
0.0
 20
0.0
 30
0.0
 70
               1
 75
               5
  0
VERTEX
  5
32D
100
AcDbEntity
  8
None
370
               9
390
0
  6
STYLE_12
 62
               7
100
AcDbVertex
100
AcDb2dVertex
 10
18.082841599999995
 20
-142.54021739999999
 30
0.0
  0
VERTEX
  5
32E
100
AcDbEntity
  8
None
370
               9
390
0
  6
STYLE_12
 62
               7
100
AcDbVertex
100
AcDb2dVertex
 10
34.307841599999989
 20
-142.54021739999999
 30
0.0
  0
VERTEX
  5
32F
100
AcDbEntity
  8
None
370
               9
390
0
  6
STYLE_12
 62
               7
100
AcDbVertex
100
AcDb2dVertex
 10
34.307841599999989
 20
-158.76521739999998
 30
0.0
  0
VERTEX
  5
330
100
AcDbEntity
  8
None
370
               9
390
0
  6
STYLE_12
 62
               7
100
AcDbVertex
100
AcDb2dVertex
 10
18.082841599999995
 20
-158.76521739999998
 30
0.0
  0
SEQEND
  5
331
100
AcDbEntity
  8
None
370
               9
390
0
  6
STYLE_12
 62
               7
  0
CIRCLE
  5
332
100
AcDbEntity
  8
None
370
               9
390
0
  6
Continuous
 62
               7
100
AcDbCircle
 10
19.332841599999995
 20
-143.79021739999999
 30
0.0
 40
0.8049999999999997
  0
CIRCLE
  5
333
100
AcDbEntity
  8
None
370
               9
390
0
  6
Continuous
 62
               7
100
AcDbCircle
 10
33.057841599999989
 20
-157.51521739999998
 30
0.0
 40
0.8049999999999997
  0
CIRCLE
  5
334
100
AcDbEntity
  8
None
370
               9
390
0
  6
Continuous
 62
               7
100
AcDbCircle
 10
19.332841599999995
 20
-157.51521739999998
 30
0.0
 40
0.8049999999999997
  0
CIRCLE
  5
335
100
AcDbEntity
  8
None
370
               9
390
0
  6
Continuous
 62
               7
100
AcDbCircle
 10
33.057841599999989
 20
-143.79021739999999
 30
0.0
 40
0.8049999999999997
  0
CIRCLE
  5
336
100
AcDbEntity
  8
None
370
               9
390
0
  6
Continuous
 62
               7
100
AcDbCircle
 10
33.057841599999989
 20
-146.33021739999998
 30
0.0
 40
0.4249999999999998
  0
CIRCLE
  5
337
100
AcDbEntity
  8
None
370
               9
390
0
  6
Continuous
 62
               7
100
AcDbCircle
 10
19.332841599999995
 20
-152.4352174
 30
0.0
 40
0.4249999999999998
  0
DIMENSION
  5
338
100
AcDbEntity
  8
Dimension
370
               5
390
0
  6
Continuous
 62
               7
100
AcDbDimension
  2
*D14
 10
38.400001599999996
 20
-143.79021739999999
 30
0.0
 11
38.400001599999996
 21
-145.10002117197266
 31
0.0
 70
             128
 71
               5
 72
               1
 41
1.0
 42
0.0
  3
IE Standard
100
AcDbAlignedDimension
 13
33.057841599999989
 23
-146.33021739999998
 33
0.0
 14
33.057841599999989
 24
-143.79021739999999
 34
0.0
 50
90.0
100
AcDbRotatedDimension
1001
ACAD
1000
DSTYLE
1002
{
1070
             271
1070
               3
1070
             340
1005
3A
1070
             147
1040
0.132291534375
1002
}
  0
LINE
  5
339
100
AcDbEntity
  8
None
370
              15
390
0
  6
STYLE_11
 62
             180
100
AcDbLine
 10
26.195341599999992
 20
-159.26521739999998
 30
0.0
 11
26.195341599999992
 21
-142.04021739999999
 31
0.0
  0
LINE
  5
33A
100
AcDbEntity
  8
None
370
              15
390
0
  6
STYLE_11
 62
             180
100
AcDbLine
 10
17.582841599999995
 20
-150.6527174
 30
0.0
 11
34.807841599999989
 21
-150.6527174
 31
0.0
  0
DIMENSION
  5
33B
100
AcDbEntity
  8
Dimension
370
               5
390
0
  6
Continuous
 62
               7
100
AcDbDimension
  2
*D15
 10
18.082841599999995
 20
-164.90000739999999
 30
0.0
 11
26.195341599999992
 21
-164.90000739999999
 31
0.0
 70
             128
 71
               5
 72
               1
 41
1.0
 42
0.0
  3
IE Standard
100
AcDbAlignedDimension
 13
34.307841599999989
 23
-158.76521739999998
 33
0.0
 14
18.082841599999995
 24
-158.76521739999998
 34
0.0
100
AcDbRotatedDimension
1001
ACAD
1000
DSTYLE
1002
{
1070
             271
1070
               3
1070
             340
1005
3A
1070
              71
1070
               1
1070
              47
1040
0.125
1070
              48
1040
0.125
1070
               3
1000
<>mm (x4)
1070
             147
1040
0.132291534375
1002
}
  0
DIMENSION
  5
33C
100
AcDbEntity
  8
Dimension
370
               5
390
0
  6
Continuous
 62
               7
100
AcDbDimension
  2
*D16
 10
19.332841599999995
 20
-161.60000739999998
 30
0.0
 11
26.195341599999992
 21
-161.60000739999998
 31
0.0
 70
             128
 71
               5
 72
               1
 41
1.0
 42
0.0
  3
IE Standard
100
AcDbAlignedDimension
 13
33.057841599999989
 23
-157.51521739999998
 33
0.0
 14
19.332841599999995
 24
-157.51521739999998
 34
0.0
100
AcDbRotatedDimension
1001
ACAD
1000
DSTYLE
1002
{
1070
             271
1070
               3
1070
             340
1005
3A
1070
               3
1000
<>mm (x4)
1070
             147
1040
0.132291534375
1002
}
  0
INSERT
  5
33D
100
AcDbEntity
  8
None
390
0
 62
               7
100
AcDbBlockReference
  2
Group-5
 10
26.864411599999993
 20
-155.47656739999999
 30
0.0
  0
DIMENSION
  5
33E
100
AcDbEntity
  8
Dimension
370
               9
390
0
  6
Continuous
 62
               7
100
AcDbDimension
  2
*D18
 10
28.963253175668388
 20
-137.51003739999999
 30
0.0
 11
32.39291317566839
 21
-137.51003739999999
 31
0.0
 70
             128
 71
               5
 72
               1
 41
1.0
 42
0.0
  3
IE Standard
100
AcDbAlignedDimension
 13
29.763253175668389
 23
-146.25271739999999
 33
0.0
 14
28.963253175668388
 24
-146.25271739999999
 34
0.0
100
AcDbRotatedDimension
1001
ACAD
1000
DSTYLE
1002
{
1070
             340
1005
3A
1070
               3
1000
<>mm typ.
1070
             174
1070
               0
1070
             147
1040
0.132291534375
1002
}
  0
DIMENSION
  5
33F
100
AcDbEntity
  8
Dimension
370
               9
390
0
  6
Continuous
 62
               7
100
AcDbDimension
  2
*D19
 10
32.75732159999999
 20
-146.0296974
 30
0.0
 11
38.277624735568551
 21
-149.55000653292521
 31
0.0
 70
               3
 71
               5
 72
               1
 41
1.0
 42
0.0
  3
IE Standard
100
AcDbDiametricDimension
 15
33.358361599999995
 25
-146.63073739999999
 35
0.0
 40
4.1284699999999992
1001
ACAD
1000
DSTYLE
1002
{
1070
             271
1070
               3
1070
             172
1070
               0
1070
             289
1070
               0
1070
             342
1005
5B
1070
             340
1005
3A
1070
              75
1070
               1
1070
              76
1070
               1
1070
              71
1070
               1
1070
              47
1040
0.025
1070
              48
1040
0.025
1070
               3
1000
mm(x2)
1070
             174
1070
               0
1070
             147
1040
0.132291534375
1002
}
  0
DIMENSION
  5
340
100
AcDbEntity
  8
Dimension
370
               9
390
0
  6
Continuous
 62
               7
100
AcDbDimension
  2
*D20
 10
32.402521599999993
 20
-157.0476874
 30
0.0
 11
37.699990771986165
 21
-159.40023053300808
 31
0.0
 70
               3
 71
               5
 72
               1
 41
1.0
 42
0.0
  3
IE Standard
100
AcDbDiametricDimension
 15
33.713161599999992
 25
-157.98274739999999
 35
0.0
 40
2.4406499999999998
1001
ACAD
1000
DSTYLE
1002
{
1070
             172
1070
               0
1070
             289
1070
               0
1070
             342
1005
5B
1070
             340
1005
3A
1070
             140
1040
0.8421302083333332
1070
              75
1070
               1
1070
              76
1070
               1
1070
              71
1070
               1
1070
              47
1040
0.05
1070
              48
1040
0.05
1070
               3
1000
mm(x4)
1070
             174
1070
               0
1070
             147
1040
0.132291534375
1002
}
  0
DIMENSION
  5
341
100
AcDbEntity
  8
Dimension
370
               9
390
0
  6
Continuous
 62
               7
100
AcDbDimension
  2
*D21
 10
31.095553228346162
 20
-152.90756487806428
 30
0.0
 11
38.992599285521088
 21
-155.08016300341799
 31
0.0
 70
               3
 71
               5
 72
               1
 41
1.0
 42
0.0
  3
IE Standard
100
AcDbDiametricDimension
 15
31.489657337409323
 25
-153.05276112877175
 35
0.0
 40
5.8645370193949962
1001
ACAD
1000
DSTYLE
1002
{
1070
             172
1070
               0
1070
             289
1070
               0
1070
             342
1005
5B
1070
             340
1005
3A
1070
             140
1040
0.7579202490234376
1070
              75
1070
               1
1070
              76
1070
               1
1070
               3
1000
mm Pad (x169)
1070
             174
1070
               0
1070
             147
1040
0.132291534375
1002
}
  0
DIMENSION
  5
342
100
AcDbEntity
  8
Dimension
370
               9
390
0
  6
Continuous
 62
               7
100
AcDbDimension
  2
*D22
 10
19.332841599999995
 20
-139.0
 30
0.0
 11
22.937004765580269
 21
-139.0
 31
0.0
 70
             128
 71
               5
 72
               1
 41
1.0
 42
0.0
  3
IE Standard
100
AcDbAlignedDimension
 13
21.770341600000059
 23
-145.85271739999999
 33
0.0
 14
19.332841599999995
 24
-143.79021739999999
 34
0.0
100
AcDbRotatedDimension
1001
ACAD
1000
DSTYLE
1002
{
1070
             271
1070
               4
1070
             340
1005
3A
1070
             140
1040
0.7579202490234376
1070
             174
1070
               0
1070
             147
1040
0.132291534375
1002
}
  0
DIMENSION
  5
343
100
AcDbEntity
  8
Dimension
370
               9
390
0
  6
Continuous
 62
               7
100
AcDbDimension
  2
*D23
 10
14.300000000000001
 20
-143.79021739999999
 30
0.0
 11
14.300000000000001
 21
-144.82146739999999
 31
0.0
 70
             128
 71
               5
 72
               1
 41
1.0
 42
0.0
  3
IE Standard
100
AcDbAlignedDimension
 13
21.770341600000059
 23
-145.85271739999999
 33
0.0
 14
19.332841599999995
 24
-143.79021739999999
 34
0.0
 50
90.0
100
AcDbRotatedDimension
1001
ACAD
1000
DSTYLE
1002
{
1070
             271
1070
               4
1070
             340
1005
3A
1070
             140
1040
0.7579202490234376
1070
             147
1040
0.132291534375
1002
}
  0
ENDSEC
  0
SECTION
  2
OBJECTS
  0
DICTIONARY
  5
19
100
AcDbDictionary
280
               0
281
               1
  3
ACAD_GROUP
350
1A
  3
ACAD_MLINESTYLE
350
1B
  3
ACAD_LAYOUT
350
1E
  3
ACAD_PLOTSETTINGS
350
22
  3
ACAD_PLOTSTYLENAME
350
1F
  3
ACAD_WIPEOUT_VARS
350
23
  0
DICTIONARY
  5
1A
102
{ACAD_REACTORS
330
19
102
}
100
AcDbDictionary
280
               0
281
               1
  0
DICTIONARY
  5
1B
102
{ACAD_REACTORS
330
19
102
}
100
AcDbDictionary
280
               0
281
               1
  3
Standard
350
1C
  0
MLINESTYLE
  5
1C
102
{ACAD_REACTORS
330
1B
102
}
100
AcDbMlineStyle
  2
Standard
 70
               0
  3

 62
               0
 51
90.0
 52
90.0
 71
               2
 49
0.5
 62
             256
  6
ByLayer
 49
-0.5
 62
             256
  6
ByLayer
  0
ACDBDICTIONARYWDFLT
  5
1F
102
{ACAD_REACTORS
330
19
102
}
100
AcDbDictionary
281
               1
  3
Normal
350
1D
100
AcDbDictionaryWithDefault
340
1D
  0
ACDBPLACEHOLDER
  5
1D
102
{ACAD_REACTORS
330
1F
102
}
  0
LAYOUT
  5
20
102
{ACAD_REACTORS
330
1E
102
}
100
AcDbPlotSettings
  1

  2

  4

  6

 40
0.0
 41
0.0
 42
0.0
 43
0.0
 44
0.0
 45
0.0
 46
0.0
 47
0.0
 48
0.0
 49
0.0
140
0.0
141
0.0
142
1.0
143
1.0
 70
            1024
 72
               0
 73
               0
 74
               0
  7

 75
               0
147
1.0
148
0.0
149
0.0
100
AcDbLayout
  1
Model
 70
               0
 71
               0
 10
0.0
 20
0.0
 11
0.0
 21
0.0
 12
0.0
 22
0.0
 32
0.0
 14
0.0
 24
0.0
 34
0.0
 15
0.0
 25
0.0
 35
0.0
146
0.0
 13
0.0
 23
0.0
 33
0.0
 16
0.0
 26
0.0
 36
0.0
 17
0.0
 27
0.0
 37
0.0
 76
               0
330
A
331
0
345
0
346
0
  0
LAYOUT
  5
21
102
{ACAD_REACTORS
330
1E
102
}
100
AcDbPlotSettings
  1

  2

  4

  6

 40
0.0
 41
0.0
 42
0.0
 43
0.0
 44
0.0
 45
0.0
 46
0.0
 47
0.0
 48
0.0
 49
0.0
140
0.0
141
0.0
142
1.0
143
1.0
 70
               0
 72
               0
 73
               0
 74
               0
  7

 75
               0
147
1.0
148
0.0
149
0.0
100
AcDbLayout
  1
Layout1
 70
               0
 71
               0
 10
0.0
 20
0.0
 11
0.0
 21
0.0
 12
0.0
 22
0.0
 32
0.0
 14
0.0
 24
0.0
 34
0.0
 15
0.0
 25
0.0
 35
0.0
146
0.0
 13
0.0
 23
0.0
 33
0.0
 16
0.0
 26
0.0
 36
0.0
 17
0.0
 27
0.0
 37
0.0
 76
               0
330
B
331
0
345
0
346
0
  0
DICTIONARY
  5
1E
102
{ACAD_REACTORS
330
19
102
}
100
AcDbDictionary
280
               0
281
               1
  3
Layout1
350
21
  3
Model
350
20
  0
DICTIONARY
  5
22
102
{ACAD_REACTORS
330
19
102
}
100
AcDbDictionary
280
               0
281
               1
  0
WIPEOUTVARIABLES
  5
23
100
AcDbWipeoutVariables
 70
               0
  0
ENDSEC
  0
EOF
