  0
SECTION
  2
HEADER
  9
$ACADVER
  1
AC1015
  9
$ACADMAINTVER
 70
               6
  9
$DWGCODEPAGE
  3
ANSI_1252
  9
$INSBASE
 10
0.0
 20
0.0
 30
0.0
  9
$EXTMIN
 10
-32.0
 20
-16.104557999999983
 30
-0.34925
  9
$EXTMAX
 10
35.66503409062237
 20
22.0
 30
0.34925
  9
$LIMMIN
 10
0.0
 20
0.0
  9
$LIMMAX
 10
0.0
 20
0.0
  9
$ORTHOMODE
 70
               0
  9
$REGENMODE
 70
               1
  9
$FILLMODE
 70
               1
  9
$QTEXTMODE
 70
               0
  9
$MIRRTEXT
 70
               1
  9
$LTSCALE
 40
1.27
  9
$ATTMODE
 70
               1
  9
$TEXTSIZE
 40
0.2
  9
$TRACEWID
 40
1.0
  9
$TEXTSTYLE
  7
Standard
  9
$CLAYER
  8
None
  9
$CELTYPE
  6
Continuous
  9
$CECOLOR
 62
             256
  9
$CELTSCALE
 40
1.0
  9
$DISPSILH
 70
               0
  9
$DIMSCALE
 40
1.0
  9
$DIMASZ
 40
0.5612060546875
  9
$DIMEXO
 40
0.396875
  9
$DIMDLI
 40
10.16
  9
$DIMRND
 40
0.0
  9
$DIMDLE
 40
1.5874999999999999
  9
$DIMEXE
 40
0.79375
  9
$DIMTP
 40
0.0
  9
$DIMTM
 40
0.0
  9
$DIMTXT
 40
0.7579186197916666
  9
$DIMCEN
 40
0.0
  9
$DIMTSZ
 40
0.0
  9
$DIMTOL
 70
               0
  9
$DIMLIM
 70
               0
  9
$DIMTIH
 70
               0
  9
$DIMTOH
 70
               0
  9
$DIMSE1
 70
               0
  9
$DIMSE2
 70
               0
  9
$DIMTAD
 70
               1
  9
$DIMZIN
 70
              11
  9
$DIMBLK
  1
VW_SLASH
  9
$DIMASO
 70
               1
  9
$DIMSHO
 70
               1
  9
$DIMPOST
  1
<>mm
  9
$DIMAPOST
  1
[]
  9
$DIMALT
 70
               0
  9
$DIMALTD
 70
               1
  9
$DIMALTF
 40
1.0
  9
$DIMLFAC
 40
1.0
  9
$DIMTOFL
 70
               1
  9
$DIMTVP
 40
0.0
  9
$DIMTIX
 70
               1
  9
$DIMSOXD
 70
               0
  9
$DIMSAH
 70
               0
  9
$DIMBLK1
  1

  9
$DIMBLK2
  1

  9
$DIMSTYLE
  2
Arch
  9
$DIMCLRD
 70
               0
  9
$DIMCLRE
 70
               0
  9
$DIMCLRT
 70
               0
  9
$DIMTFAC
 40
1.0
  9
$DIMGAP
 40
1.5874999999999999
  9
$DIMJUST
 70
               0
  9
$DIMSD1
 70
               0
  9
$DIMSD2
 70
               0
  9
$DIMTOLJ
 70
               1
  9
$DIMTZIN
 70
              11
  9
$DIMALTZ
 70
              11
  9
$DIMALTTZ
 70
              11
  9
$DIMUPT
 70
               0
  9
$DIMDEC
 70
               1
  9
$DIMTDEC
 70
               1
  9
$DIMALTU
 70
               2
  9
$DIMALTTD
 70
               2
  9
$DIMTXSTY
  7
Helvetica
  9
$DIMAUNIT
 70
               0
  9
$DIMADEC
 70
               2
  9
$DIMALTRND
 40
0.0
  9
$DIMAZIN
 70
               0
  9
$DIMDSEP
 70
              46
  9
$DIMATFIT
 70
               0
  9
$DIMFRAC
 70
               2
  9
$DIMLDRBLK
  1

  9
$DIMLUNIT
 70
               2
  9
$DIMLWD
 70
              -2
  9
$DIMLWE
 70
              -2
  9
$DIMTMOVE
 70
               0
  9
$LUNITS
 70
               2
  9
$LUPREC
 70
               4
  9
$SKETCHINC
 40
0.1
  9
$FILLETRAD
 40
0.0
  9
$AUNITS
 70
               0
  9
$AUPREC
 70
               0
  9
$MENU
  1
acad
  9
$ELEVATION
 40
0.0
  9
$PELEVATION
 40
0.0
  9
$THICKNESS
 40
0.0
  9
$LIMCHECK
 70
               0
  9
$CHAMFERA
 40
0.0
  9
$CHAMFERB
 40
0.0
  9
$CHAMFERC
 40
0.0
  9
$CHAMFERD
 40
0.0
  9
$SKPOLY
 70
               0
  9
$TDCREATE
 40
2454963.594814815
  9
$TDUCREATE
 40
0.000000000
  9
$TDUPDATE
 40
2454963.594814815
  9
$TDUUPDATE
 40
0.000000000
  9
$TDINDWG
 40
0.0000000000
  9
$TDUSRTIMER
 40
0.0000000000
  9
$USRTIMER
 70
               1
  9
$ANGBASE
 50
0.0
  9
$ANGDIR
 70
               0
  9
$PDMODE
 70
               1
  9
$PDSIZE
 40
-2.0
  9
$PLINEWID
 40
0.0
  9
$SPLFRAME
 70
               0
  9
$SPLINETYPE
 70
               6
  9
$SPLINESEGS
 70
               8
  9
$HANDSEED
  5
1F5
  9
$SURFTAB1
 70
               6
  9
$SURFTAB2
 70
               6
  9
$SURFTYPE
 70
               6
  9
$SURFU
 70
               6
  9
$SURFV
 70
               6
  9
$UCSBASE
  2

  9
$UCSNAME
  2

  9
$UCSORG
 10
0.0
 20
0.0
 30
0.0
  9
$UCSXDIR
 10
1.0
 20
0.0
 30
0.0
  9
$UCSYDIR
 10
0.0
 20
1.0
 30
0.0
  9
$UCSORTHOREF
  2

  9
$UCSORTHOVIEW
 70
               0
  9
$UCSORGTOP
 10
0.0
 20
0.0
 30
0.0
  9
$UCSORGBOTTOM
 10
0.0
 20
0.0
 30
0.0
  9
$UCSORGLEFT
 10
0.0
 20
0.0
 30
0.0
  9
$UCSORGRIGHT
 10
0.0
 20
0.0
 30
0.0
  9
$UCSORGFRONT
 10
0.0
 20
0.0
 30
0.0
  9
$UCSORGBACK
 10
0.0
 20
0.0
 30
0.0
  9
$PUCSBASE
  2

  9
$PUCSNAME
  2

  9
$PUCSORG
 10
0.0
 20
0.0
 30
0.0
  9
$PUCSXDIR
 10
1.0
 20
0.0
 30
0.0
  9
$PUCSYDIR
 10
0.0
 20
1.0
 30
0.0
  9
$PUCSORTHOREF
  2

  9
$PUCSORTHOVIEW
 70
               0
  9
$PUCSORGTOP
 10
0.0
 20
0.0
 30
0.0
  9
$PUCSORGBOTTOM
 10
0.0
 20
0.0
 30
0.0
  9
$PUCSORGLEFT
 10
0.0
 20
0.0
 30
0.0
  9
$PUCSORGRIGHT
 10
0.0
 20
0.0
 30
0.0
  9
$PUCSORGFRONT
 10
0.0
 20
0.0
 30
0.0
  9
$PUCSORGBACK
 10
0.0
 20
0.0
 30
0.0
  9
$USERI1
 70
               0
  9
$USERI2
 70
               0
  9
$USERI3
 70
               0
  9
$USERI4
 70
               0
  9
$USERI5
 70
               0
  9
$USERR1
 40
0.0
  9
$USERR2
 40
0.0
  9
$USERR3
 40
0.0
  9
$USERR4
 40
0.0
  9
$USERR5
 40
0.0
  9
$WORLDVIEW
 70
               1
  9
$SHADEDGE
 70
               3
  9
$SHADEDIF
 70
              70
  9
$TILEMODE
 70
               1
  9
$MAXACTVP
 70
              64
  9
$PINSBASE
 10
0.0
 20
0.0
 30
0.0
  9
$PLIMCHECK
 70
               0
  9
$PEXTMIN
 10
1.0000000000000000E+20
 20
1.0000000000000000E+20
 30
1.0000000000000000E+20
  9
$PEXTMAX
 10
-1.0000000000000000E+20
 20
-1.0000000000000000E+20
 30
-1.0000000000000000E+20
  9
$PLIMMIN
 10
0.0
 20
0.0
  9
$PLIMMAX
 10
12.0
 20
9.0
  9
$UNITMODE
 70
               0
  9
$VISRETAIN
 70
               0
  9
$PLINEGEN
 70
               1
  9
$PSLTSCALE
 70
               0
  9
$TREEDEPTH
 70
            3020
  9
$CMLSTYLE
  2
Standard
  9
$CMLJUST
 70
               0
  9
$CMLSCALE
 40
1.0
  9
$PROXYGRAPHICS
 70
               0
  9
$MEASUREMENT
 70
               1
  9
$CELWEIGHT
370
               0
  9
$ENDCAPS
280
               0
  9
$JOINSTYLE
280
               0
  9
$LWDISPLAY
290
               1
  9
$INSUNITS
 70
               4
  9
$HYPERLINKBASE
  1

  9
$STYLESHEET
  1

  9
$XEDIT
290
               1
  9
$CEPSNTYPE
380
               0
  9
$PSTYLEMODE
290
               1
  9
$FINGERPRINTGUID
  2

  9
$VERSIONGUID
  2

  9
$EXTNAMES
290
               1
  9
$PSVPSCALE
 40
0.0
  0
ENDSEC
  0
SECTION
  2
CLASSES
  0
CLASS
  1
LWPOLYLINE
  2
AcDbPolyline
  3
AutoCAD 2000
 90
        0
280
               0
281
               1
  0
CLASS
  1
IMAGE
  2
AcDbRasterImage
  3
ISM
 90
      127
280
               0
281
               1
  0
CLASS
  1
OLE2FRAME
  2
AcDbOle2Frame
  3
AutoCAD 2000
 90
        0
280
               0
281
               1
  0
CLASS
  1
HATCH
  2
AcDbHatch
  3
AutoCAD 2000
 90
        0
280
               0
281
               1
  0
CLASS
  1
DICTIONARYVAR
  2
AcDbDictionaryVar
  3
AutoCAD 2000
 90
        0
280
               0
281
               0
  0
CLASS
  1
RASTERVARIABLES
  2
AcDbRasterVariables
  3
ISM
 90
        0
280
               0
281
               0
  0
CLASS
  1
IMAGEDEF
  2
AcDbRasterImageDef
  3
ISM
 90
        0
280
               0
281
               0
  0
CLASS
  1
IMAGEDEF_REACTOR
  2
AcDbRasterImageDefReactor
  3
ISM
 90
        1
280
               0
281
               0
  0
CLASS
  1
IDBUFFER
  2
AcDbIdBuffer
  3
AutoCAD 2000
 90
        0
280
               0
281
               0
  0
CLASS
  1
SPATIAL_FILTER
  2
AcDbSpatialFilter
  3
AutoCAD 2000
 90
        0
280
               0
281
               0
  0
CLASS
  1
XRECORD
  2
AcDbXrecord
  3
AutoCAD 2000
 90
        0
280
               0
281
               0
  0
CLASS
  1
SORTENTSTABLE
  2
AcDbSortentsTable
  3
AutoCAD 2000
 90
        0
280
               0
281
               0
  0
CLASS
  1
LAYER_INDEX
  2
AcDbLayerIndex
  3
AutoCAD 2000
 90
        0
280
               0
281
               0
  0
CLASS
  1
SPATIAL_INDEX
  2
AcDbSpatialIndex
  3
AutoCAD 2000
 90
        0
280
               0
281
               0
  0
CLASS
  1
OBJECT_PTR
  2
CAseDLPNTableRecord
  3
"ASE-LPNTableRecord"
 90
        1
280
               0
281
               0
  0
CLASS
  1
LAYOUT
  2
AcDbLayout
  3
AutoCAD 2000
 90
        0
280
               0
281
               0
  0
CLASS
  1
PLOTSETTINGS
  2
AcDbPlotSettings
  3
AutoCAD 2000
 90
        0
280
               0
281
               0
  0
CLASS
  1
ACDBDICTIONARYWDFLT
  2
AcDbDictionaryWithDefault
  3
AutoCAD 2000
 90
        0
280
               0
281
               0
  0
CLASS
  1
ACDBPLACEHOLDER
  2
AcDbPlaceHolder
  3
AutoCAD 2000
 90
        0
280
               0
281
               0
  0
CLASS
  1
VBA_PROJECT
  2
AcDbVbaProject
  3
acadvba
 90
        0
280
               0
281
               0
  0
CLASS
  1
WIPEOUT
  2
AcDbWipeout
  3
WipeOut|AutoCAD Express Tool|expresstools@autodesk.com
 90
      127
280
               0
281
               1
  0
CLASS
  1
WIPEOUTVARIABLES
  2
AcDbWipeoutVariables
  3
WipeOut|AutoCAD Express Tool|expresstools@autodesk.com
 90
        0
280
               0
281
               0
  0
CLASS
  1
RTEXT
  2
RText
  3
RText|AutoCAD Express Tool|expresstools@autodesk.com
 90
        0
280
               0
281
               1
  0
CLASS
  1
ARCALIGNEDTEXT
  2
AcDbArcAlignedText
  3
ATEXT|AutoCAD Express Tool|expresstools@autodesk.com
 90
        0
280
               0
281
               1
  0
ENDSEC
  0
SECTION
  2
TABLES
  0
TABLE
  2
VPORT
  5
7
100
AcDbSymbolTable
 70
               1
  0
VPORT
  5
15
100
AcDbSymbolTableRecord
100
AcDbViewportTableRecord
  2
*ACTIVE
 70
               0
 10
0.0
 20
0.0
 11
1.0
 21
1.0
 12
1.8325170453111852
 22
2.9477210000000085
 13
0.0
 23
0.0
 14
1.0
 24
1.0
 15
0.0
 25
0.0
 16
0.0
 26
0.0
 36
1.0
 17
0.0
 27
0.0
 37
0.0
 40
38.104557999999983
 41
0.688564
 42
50.0
 43
0.0
 44
0.0
 50
0.0
 51
0.0
 71
               0
 72
            2000
 73
               1
 74
               1
 75
               0
 76
               0
 77
               0
 78
               0
281
               0
 65
               0
110
0.0
120
0.0
130
0.0
111
1.0
121
0.0
131
0.0
112
0.0
122
1.0
132
0.0
345
0
346
0
 79
               0
146
0.0
  0
ENDTAB
  0
TABLE
  2
LTYPE
  5
4
100
AcDbSymbolTable
 70
              14
  0
LTYPE
  5
11
100
AcDbSymbolTableRecord
100
AcDbLinetypeTableRecord
  2
ByBlock
 70
              64
  3

 72
              65
 73
               0
 40
0.0
  0
LTYPE
  5
12
100
AcDbSymbolTableRecord
100
AcDbLinetypeTableRecord
  2
ByLayer
 70
              64
  3

 72
              65
 73
               0
 40
0.0
  0
LTYPE
  5
13
100
AcDbSymbolTableRecord
100
AcDbLinetypeTableRecord
  2
Continuous
 70
              64
  3
Solid line
 72
              65
 73
               0
 40
0.0
  0
LTYPE
  5
3C
100
AcDbSymbolTableRecord
100
AcDbLinetypeTableRecord
  2
STYLE_01
 70
               0
  3

 72
              65
 73
               2
 40
0.41664
 49
0.20828
 74
               0
 49
-0.20836
 74
               0
  0
LTYPE
  5
3D
100
AcDbSymbolTableRecord
100
AcDbLinetypeTableRecord
  2
STYLE_02
 70
               0
  3

 72
              65
 73
               2
 40
0.6944250000000001
 49
0.48607
 74
               0
 49
-0.2083550000000001
 74
               0
  0
LTYPE
  5
3E
100
AcDbSymbolTableRecord
100
AcDbLinetypeTableRecord
  2
STYLE_03
 70
               0
  3

 72
              65
 73
               2
 40
1.25
 49
1.0416400000000001
 74
               0
 49
-0.2083599999999999
 74
               0
  0
LTYPE
  5
3F
100
AcDbSymbolTableRecord
100
AcDbLinetypeTableRecord
  2
STYLE_04
 70
               0
  3

 72
              65
 73
               2
 40
1.5277099999999999
 49
1.3194249999999998
 74
               0
 49
-0.208285
 74
               0
  0
LTYPE
  5
40
100
AcDbSymbolTableRecord
100
AcDbLinetypeTableRecord
  2
STYLE_05
 70
               0
  3

 72
              65
 73
               2
 40
0.20828
 49
0.069425
 74
               0
 49
-0.138855
 74
               0
  0
LTYPE
  5
41
100
AcDbSymbolTableRecord
100
AcDbLinetypeTableRecord
  2
STYLE_06
 70
               0
  3

 72
              65
 73
               4
 40
1.0416400000000001
 49
0.625
 74
               0
 49
-0.20828
 74
               0
 49
0.06943
 74
               0
 49
-0.13893
 74
               0
  0
LTYPE
  5
42
100
AcDbSymbolTableRecord
100
AcDbLinetypeTableRecord
  2
STYLE_07
 70
               0
  3

 72
              65
 73
               6
 40
1.875
 49
0.625
 74
               0
 49
-0.20828
 74
               0
 49
0.6250000000000001
 74
               0
 49
-0.2083599999999999
 74
               0
 49
0.06943
 74
               0
 49
-0.1389299999999999
 74
               0
  0
LTYPE
  5
43
100
AcDbSymbolTableRecord
100
AcDbLinetypeTableRecord
  2
STYLE_08
 70
               0
  3

 72
              65
 73
               6
 40
1.25
 49
0.625
 74
               0
 49
-0.20828
 74
               0
 49
0.06943
 74
               0
 49
-0.13893
 74
               0
 49
0.0694299999999999
 74
               0
 49
-0.13893
 74
               0
  0
LTYPE
  5
44
100
AcDbSymbolTableRecord
100
AcDbLinetypeTableRecord
  2
STYLE_09
 70
               0
  3

 72
              65
 73
               4
 40
5.0
 49
3.75
 74
               0
 49
-0.2777849999999998
 74
               0
 49
0.6944300000000003
 74
               0
 49
-0.2777849999999998
 74
               0
  0
LTYPE
  5
45
100
AcDbSymbolTableRecord
100
AcDbLinetypeTableRecord
  2
STYLE_10
 70
               0
  3

 72
              65
 73
               6
 40
5.9375
 49
3.75
 74
               0
 49
-0.2777849999999998
 74
               0
 49
0.6944300000000003
 74
               0
 49
-0.2777849999999998
 74
               0
 49
0.625
 74
               0
 49
-0.3125
 74
               0
  0
LTYPE
  5
46
100
AcDbSymbolTableRecord
100
AcDbLinetypeTableRecord
  2
STYLE_11
 70
               0
  3

 72
              65
 73
               2
 40
0.4166412353515625
 49
0.2777862548828125
 74
               0
 49
-0.13885498046875
 74
               0
  0
ENDTAB
  0
TABLE
  2
LAYER
  5
2
100
AcDbSymbolTable
 70
               4
  0
LAYER
  5
14
100
AcDbSymbolTableRecord
100
AcDbLayerTableRecord
  2
0
 70
               0
 62
               7
  6
Continuous
290
               1
370
              -3
390
1D
  0
LAYER
  5
47
100
AcDbSymbolTableRecord
100
AcDbLayerTableRecord
  2
Defpoints
 70
               0
 62
               7
  6
Continuous
290
               0
370
              -3
390
1D
  0
LAYER
  5
48
100
AcDbSymbolTableRecord
100
AcDbLayerTableRecord
  2
None
 70
               0
 62
               7
  6
Continuous
290
               1
370
               5
390
1D
  0
LAYER
  5
49
100
AcDbSymbolTableRecord
100
AcDbLayerTableRecord
  2
Dimension
 70
               0
 62
               7
  6
Continuous
290
               1
370
               5
390
1D
  0
ENDTAB
  0
TABLE
  2
STYLE
  5
3
100
AcDbSymbolTable
 70
               4
  0
STYLE
  5
17
100
AcDbSymbolTableRecord
100
AcDbTextStyleTableRecord
  2
Standard
 70
               0
 40
0.0
 41
1.0
 50
0.0
 71
               0
 42
0.0
  3
txt
  4

  0
STYLE
  5
39
100
AcDbSymbolTableRecord
100
AcDbTextStyleTableRecord
  2
Arial
 70
               0
 40
0.0
 41
1.0
 50
0.0
 71
               0
 42
0.0
  3
Arial
  4

1001
ACAD
1000
Arial
1071
        0
  0
STYLE
  5
3A
100
AcDbSymbolTableRecord
100
AcDbTextStyleTableRecord
  2
Helvetica
 70
               0
 40
0.0
 41
1.0
 50
0.0
 71
               0
 42
0.0
  3
Helvetica
  4

1001
ACAD
1000
Helvetica
1071
        0
  0
STYLE
  5
3B
100
AcDbSymbolTableRecord
100
AcDbTextStyleTableRecord
  2
New Century Schlbk
 70
               0
 40
0.0
 41
1.0
 50
0.0
 71
               0
 42
0.0
  3
New Century Schlbk
  4

1001
ACAD
1000
New Century Schlbk
1071
        0
  0
ENDTAB
  0
TABLE
  2
VIEW
  5
5
100
AcDbSymbolTable
 70
               0
  0
ENDTAB
  0
TABLE
  2
UCS
  5
6
100
AcDbSymbolTable
 70
               0
  0
ENDTAB
  0
TABLE
  2
APPID
  5
8
100
AcDbSymbolTable
 70
               1
  0
APPID
  5
16
100
AcDbSymbolTableRecord
100
AcDbRegAppTableRecord
  2
ACAD
 70
               0
  0
ENDTAB
  0
TABLE
  2
DIMSTYLE
  5
9
100
AcDbSymbolTable
 70
               3
100
AcDbDimStyleTable
 71
               0
  0
DIMSTYLE
105
18
100
AcDbSymbolTableRecord
100
AcDbDimStyleTableRecord
  2
Standard
 70
               0
  3

  4

 40
1.0
 41
0.18
 42
0.0625
 43
0.38
 44
0.18
 45
0.0
 46
0.0
 47
0.0
 48
0.0
 71
               0
 72
               0
 73
               1
 74
               1
 75
               0
 76
               0
 77
               0
 78
               0
 79
               0
140
0.18
141
0.09
142
0.0
143
25.399999999999999
144
1.0
145
0.0
146
1.0
147
0.09
148
0.0
170
               0
171
               2
172
               0
173
               0
174
               0
175
               0
176
               0
177
               0
178
               0
179
               0
271
               4
272
               4
273
               2
274
               2
275
               0
276
               0
277
               2
278
              46
279
               0
280
               0
281
               0
282
               0
283
               1
284
               0
285
               0
286
               0
288
               0
289
               3
340
17
341
0
342
0
343
0
344
0
371
              -2
372
              -2
  0
DIMSTYLE
105
52
100
AcDbSymbolTableRecord
100
AcDbDimStyleTableRecord
  2
IE Standard
 70
               0
  3
<>mm
  4
[]
 40
1.0
 41
0.79375
 42
0.4762500011827797
 43
6.9999859934672708
 44
0.9525000023655593
 45
0.0
 46
0.0
 47
0.0
 48
0.0
 71
               0
 72
               0
 73
               1
 74
               1
 75
               0
 76
               0
 77
               0
 78
              11
 79
               0
140
0.7579186197916666
141
0.0
142
0.0
143
1.0
144
1.0
145
0.0
146
1.0
147
0.0
148
0.0
170
               0
171
               1
172
               1
173
               0
174
               1
175
               0
176
               0
177
               0
178
               0
179
               2
271
               1
272
               1
273
               2
274
               2
275
               0
276
               2
277
               2
278
              46
279
               0
280
               0
281
               0
282
               0
283
               1
284
              11
285
              11
286
              11
288
               0
289
               0
340
3A
341
4E
342
4A
343
0
344
0
371
              -2
372
              -2
  0
DIMSTYLE
105
58
100
AcDbSymbolTableRecord
100
AcDbDimStyleTableRecord
  2
Arch
 70
               0
  3
<>mm
  4
[]
 40
1.0
 41
0.5612060546875
 42
0.396875
 43
10.16
 44
0.79375
 45
0.0
 46
1.5874999999999999
 47
0.0
 48
0.0
 71
               0
 72
               0
 73
               0
 74
               0
 75
               0
 76
               0
 77
               1
 78
              11
 79
               0
140
0.7579186197916666
141
0.0
142
0.0
143
1.0
144
1.0
145
0.0
146
1.0
147
1.5874999999999999
148
0.0
170
               0
171
               1
172
               1
173
               0
174
               1
175
               0
176
               0
177
               0
178
               0
179
               2
271
               1
272
               1
273
               2
274
               2
275
               0
276
               2
277
               2
278
              46
279
               0
280
               0
281
               0
282
               0
283
               1
284
              11
285
              11
286
              11
288
               0
289
               0
340
3A
341
4A
342
53
343
0
344
0
371
              -2
372
              -2
  0
ENDTAB
  0
TABLE
  2
BLOCK_RECORD
  5
1
100
AcDbSymbolTable
 70
              24
  0
BLOCK_RECORD
  5
A
100
AcDbSymbolTableRecord
100
AcDbBlockTableRecord
  2
*MODEL_SPACE
340
20
  0
BLOCK_RECORD
  5
B
100
AcDbSymbolTableRecord
100
AcDbBlockTableRecord
  2
*PAPER_SPACE
340
21
  0
BLOCK_RECORD
  5
4A
100
AcDbSymbolTableRecord
100
AcDbBlockTableRecord
  2
VW_FILLEDARROW
340
0
  0
BLOCK_RECORD
  5
4E
100
AcDbSymbolTableRecord
100
AcDbBlockTableRecord
  2
VW_FILLEDARROW-1
340
0
  0
BLOCK_RECORD
  5
53
100
AcDbSymbolTableRecord
100
AcDbBlockTableRecord
  2
VW_SLASH
340
0
  0
BLOCK_RECORD
  5
24
100
AcDbSymbolTableRecord
100
AcDbBlockTableRecord
  2
*D3
340
0
  0
BLOCK_RECORD
  5
25
100
AcDbSymbolTableRecord
100
AcDbBlockTableRecord
  2
Group
340
0
102
{BLKREFS
331
1A4
102
}
  0
BLOCK_RECORD
  5
26
100
AcDbSymbolTableRecord
100
AcDbBlockTableRecord
  2
*D5
340
0
  0
BLOCK_RECORD
  5
27
100
AcDbSymbolTableRecord
100
AcDbBlockTableRecord
  2
*D6
340
0
  0
BLOCK_RECORD
  5
28
100
AcDbSymbolTableRecord
100
AcDbBlockTableRecord
  2
*D7
340
0
  0
BLOCK_RECORD
  5
29
100
AcDbSymbolTableRecord
100
AcDbBlockTableRecord
  2
*D8
340
0
  0
BLOCK_RECORD
  5
2A
100
AcDbSymbolTableRecord
100
AcDbBlockTableRecord
  2
*D9
340
0
  0
BLOCK_RECORD
  5
2B
100
AcDbSymbolTableRecord
100
AcDbBlockTableRecord
  2
*D10
340
0
  0
BLOCK_RECORD
  5
2C
100
AcDbSymbolTableRecord
100
AcDbBlockTableRecord
  2
*D11
340
0
  0
BLOCK_RECORD
  5
2D
100
AcDbSymbolTableRecord
100
AcDbBlockTableRecord
  2
*D12
340
0
  0
BLOCK_RECORD
  5
2E
100
AcDbSymbolTableRecord
100
AcDbBlockTableRecord
  2
*D13
340
0
  0
BLOCK_RECORD
  5
2F
100
AcDbSymbolTableRecord
100
AcDbBlockTableRecord
  2
*D14
340
0
  0
BLOCK_RECORD
  5
30
100
AcDbSymbolTableRecord
100
AcDbBlockTableRecord
  2
*D15
340
0
  0
BLOCK_RECORD
  5
31
100
AcDbSymbolTableRecord
100
AcDbBlockTableRecord
  2
*D16
340
0
  0
BLOCK_RECORD
  5
32
100
AcDbSymbolTableRecord
100
AcDbBlockTableRecord
  2
*D17
340
0
  0
BLOCK_RECORD
  5
33
100
AcDbSymbolTableRecord
100
AcDbBlockTableRecord
  2
*D18
340
0
  0
BLOCK_RECORD
  5
34
100
AcDbSymbolTableRecord
100
AcDbBlockTableRecord
  2
Group-1
340
0
102
{BLKREFS
331
1E4
102
}
  0
BLOCK_RECORD
  5
35
100
AcDbSymbolTableRecord
100
AcDbBlockTableRecord
  2
Group-2
340
0
102
{BLKREFS
331
1E5
102
}
  0
BLOCK_RECORD
  5
36
100
AcDbSymbolTableRecord
100
AcDbBlockTableRecord
  2
Group-3
340
0
102
{BLKREFS
331
1E6
102
}
  0
BLOCK_RECORD
  5
37
100
AcDbSymbolTableRecord
100
AcDbBlockTableRecord
  2
Group-4
340
0
102
{BLKREFS
331
1E7
102
}
  0
BLOCK_RECORD
  5
38
100
AcDbSymbolTableRecord
100
AcDbBlockTableRecord
  2
*D23
340
0
  0
ENDTAB
  0
ENDSEC
  0
SECTION
  2
BLOCKS
  0
BLOCK
  5
D
100
AcDbEntity
  8
0
390
0
100
AcDbBlockBegin
  2
*MODEL_SPACE
 70
               0
 10
0.0
 20
0.0
 30
0.0
  3
*MODEL_SPACE
  1

  0
ENDBLK
  5
E
100
AcDbEntity
  8
0
390
0
100
AcDbBlockEnd
  0
BLOCK
  5
F
100
AcDbEntity
 67
               1
  8
0
390
0
100
AcDbBlockBegin
  2
*PAPER_SPACE
 70
               0
 10
0.0
 20
0.0
 30
0.0
  3
*PAPER_SPACE
  1

  0
ENDBLK
  5
10
100
AcDbEntity
 67
               1
  8
0
390
0
100
AcDbBlockEnd
  0
BLOCK
  5
4B
100
AcDbEntity
  8
0
370
              -2
390
0
  6
ByBlock
 62
               0
100
AcDbBlockBegin
  2
VW_FILLEDARROW
 70
               0
 10
0.0
 20
0.0
 30
0.0
  3
VW_FILLEDARROW
  1

  0
SOLID
  5
4C
100
AcDbEntity
  8
0
370
              -2
390
0
 62
               0
100
AcDbTrace
 10
0.0
 20
0.0
 30
0.0
 11
-0.9999389648437499
 21
-0.2679328381102956
 31
0.0
 12
-0.9999389648437499
 22
0.2679328381102958
 32
0.0
 13
-0.9999389648437499
 23
0.2679328381102958
 33
0.0
  0
ENDBLK
  5
4D
100
AcDbEntity
  8
0
390
0
100
AcDbBlockEnd
  0
BLOCK
  5
4F
100
AcDbEntity
  8
0
370
              -2
390
0
  6
ByBlock
 62
               0
100
AcDbBlockBegin
  2
VW_FILLEDARROW-1
 70
               0
 10
0.0
 20
0.0
 30
0.0
  3
VW_FILLEDARROW
  1

  0
SOLID
  5
50
100
AcDbEntity
  8
0
370
              -2
390
0
 62
               0
100
AcDbTrace
 10
0.0
 20
0.0
 30
0.0
 11
-0.6662384033203125
 21
-0.1785180421362784
 31
0.0
 12
-0.6662384033203125
 22
0.1785180421362785
 32
0.0
 13
-0.6662384033203125
 23
0.1785180421362785
 33
0.0
  0
ENDBLK
  5
51
100
AcDbEntity
  8
0
390
0
100
AcDbBlockEnd
  0
BLOCK
  5
54
100
AcDbEntity
  8
0
370
              -2
390
0
  6
ByBlock
 62
               0
100
AcDbBlockBegin
  2
VW_SLASH
 70
               0
 10
0.0
 20
0.0
 30
0.0
  3
VW_SLASH
  1

  0
LINE
  5
55
100
AcDbEntity
  8
0
370
              -2
390
0
  6
ByBlock
 62
               0
100
AcDbLine
 10
0.0
 20
0.0
 30
0.0
 11
-1.0
 21
0.0
 31
0.0
  0
LINE
  5
56
100
AcDbEntity
  8
0
370
              20
390
0
  6
ByBlock
 62
               0
100
AcDbLine
 10
-0.5000145658230796
 20
-0.5000145658230795
 30
0.0
 11
0.5000145658230796
 21
0.5000145658230795
 31
0.0
  0
ENDBLK
  5
57
100
AcDbEntity
  8
0
390
0
100
AcDbBlockEnd
  0
BLOCK
  5
59
100
AcDbEntity
  8
Dimension
390
0
100
AcDbBlockBegin
  2
*D3
 70
               1
 10
0.0
 20
0.0
 30
0.0
  3
*D3
  1

  0
LINE
  5
5A
100
AcDbEntity
  8
Dimension
370
              -2
390
0
  6
Continuous
 62
               0
100
AcDbLine
 10
-4.9098075812299697
 20
12.320440000000005
 30
0.0
 11
-26.893557582412754
 21
12.320440000000005
 31
0.0
  0
LINE
  5
5B
100
AcDbEntity
  8
Dimension
370
              -2
390
0
  6
Continuous
 62
               0
100
AcDbLine
 10
-4.9098075812299697
 20
-2.9045599999999894
 30
0.0
 11
-26.893557582412747
 21
-2.9045599999999894
 31
0.0
  0
LINE
  5
5C
100
AcDbEntity
  8
Dimension
370
              -2
390
0
  6
Continuous
 62
               0
100
AcDbLine
 10
-25.941057580047186
 20
12.320440000000005
 30
0.0
 11
-25.941057580047186
 21
-2.9045599999999894
 31
0.0
  0
SOLID
  5
5D
100
AcDbEntity
  8
Dimension
370
              -2
390
0
 62
               0
100
AcDbTrace
 10
-25.941057580047186
 20
12.320440000000005
 30
0.0
 11
-25.728372908554984
 21
11.526690000000006
 31
0.0
 12
-26.153742251539391
 22
11.526690000000006
 32
0.0
 13
-26.153742251539391
 23
11.526690000000006
 33
0.0
  0
SOLID
  5
5E
100
AcDbEntity
  8
Dimension
370
              -2
390
0
 62
               0
100
AcDbTrace
 10
-25.941057580047186
 20
-2.9045599999999894
 30
0.0
 11
-26.153742251539391
 21
-2.1108099999999892
 31
0.0
 12
-25.728372908554981
 22
-2.1108099999999892
 32
0.0
 13
-25.728372908554981
 23
-2.1108099999999892
 33
0.0
  0
WIPEOUT
  5
5F
100
AcDbEntity
  8
Dimension
370
              -2
390
0
  6
Continuous
 62
               0
 92
        0
100
AcDbWipeout
 90
        0
 10
-32.0
 20
4.2069640410563212
 30
0.0
 11
5.0376507600148521
 21
0.0
 31
0.0
 12
0.0
 22
5.0376507600148521
 32
0.0
 13
1.0
 23
1.0
340
0
 70
               7
280
               1
281
              50
282
              50
283
               0
360
0
 71
               2
 91
        5
 14
-0.5
 24
0.5
 14
0.5
 24
0.5
 14
0.5
 24
0.2584033594269224
 14
-0.5
 24
0.2584033594269224
 14
-0.5
 24
0.5
  0
MTEXT
  5
60
100
AcDbEntity
  8
Dimension
390
0
 62
               0
100
AcDbMText
 10
-32.0
 20
5.2294651608479876
 30
0.0
 40
0.7579186197916666
 41
0.0
 71
               1
 72
               1
  1
15.225mm
  7
Helvetica
 73
               1
 44
0.9673603504928806
  0
WIPEOUT
  5
61
100
AcDbEntity
  8
Dimension
370
              -2
390
0
  6
Continuous
 62
               0
 92
        0
100
AcDbWipeout
 90
        0
 10
-26.962349239985144
 20
4.2069623743896587
 30
0.0
 11
5.0270675208833495
 21
0.0
 31
0.0
 12
0.0
 22
5.0270675208833495
 32
0.0
 13
1.0
 23
1.0
340
0
 70
               7
280
               1
281
              50
282
              50
283
               0
360
0
 71
               2
 91
        5
 14
-0.5
 24
0.5
 14
0.5
 24
0.5
 14
0.5
 24
0.2578947378478544
 14
-0.5
 24
0.2578947378478544
 14
-0.5
 24
0.5
  0
MTEXT
  5
62
100
AcDbEntity
  8
Dimension
390
0
 62
               0
100
AcDbMText
 10
-26.962349239985144
 20
5.2294634941813252
 30
0.0
 40
0.7579186197916666
 41
0.0
 71
               1
 72
               1
  1
±0.125mm
  7
Helvetica
 73
               1
 44
0.9673603504928806
  0
WIPEOUT
  5
63
100
AcDbEntity
  8
Dimension
370
              -2
390
0
  6
Continuous
 62
               0
 92
        0
100
AcDbWipeout
 90
        0
 10
-21.935281719101795
 20
4.2069602077229877
 30
0.0
 11
2.0531665590074333
 21
0.0
 31
0.0
 12
0.0
 22
2.0531665590074333
 32
0.0
 13
1.0
 23
1.0
340
0
 70
               7
280
               1
281
              50
282
              50
283
               0
360
0
 71
               2
 91
        5
 14
-0.5
 24
0.5
 14
0.5
 24
0.5
 14
0.5
 24
-0.0927835362376593
 14
-0.5
 24
-0.0927835362376593
 14
-0.5
 24
0.5
  0
MTEXT
  5
64
100
AcDbEntity
  8
Dimension
390
0
 62
               0
100
AcDbMText
 10
-21.935281719101795
 20
5.2294645480007649
 30
0.0
 40
0.7579210069444442
 41
0.0
 71
               1
 72
               1
  1
 sqr.
  7
Helvetica
 73
               1
 44
0.9673603504928806
  0
POINT
  5
65
100
AcDbEntity
  8
Defpoints
370
               0
390
0
 62
               0
100
AcDbPoint
 10
-4.4335575800471929
 20
-2.9045599999999894
 30
0.0
  0
POINT
  5
66
100
AcDbEntity
  8
Defpoints
370
               0
390
0
 62
               0
100
AcDbPoint
 10
-4.4335575800471929
 20
12.320440000000005
 30
0.0
  0
POINT
  5
67
100
AcDbEntity
  8
Defpoints
370
               0
390
0
 62
               0
100
AcDbPoint
 10
-25.94105758004719
 20
12.320440000000005
 30
0.0
  0
ENDBLK
  5
68
100
AcDbEntity
  8
Dimension
390
0
100
AcDbBlockEnd
  0
BLOCK
  5
69
100
AcDbEntity
  8
Dimension
390
0
100
AcDbBlockBegin
  2
Group
 70
               0
 10
0.0
 20
0.0
 30
0.0
  3
Group
  1

  0
LINE
  5
6A
100
AcDbEntity
  8
None
370
               5
390
0
  6
Continuous
 62
               1
100
AcDbLine
 10
2.5539424199528042
 20
4.7079400000000078
 30
0.0
 11
3.8039424199528042
 21
4.7079400000000078
 31
0.0
  0
LINE
  5
6B
100
AcDbEntity
  8
None
370
               5
390
0
  6
Continuous
 62
               1
100
AcDbLine
 10
3.1789424199528042
 20
4.0829400000000078
 30
0.0
 11
3.1789424199528042
 21
5.3329400000000078
 31
0.0
  0
LINE
  5
6C
100
AcDbEntity
  8
None
370
               5
390
0
  6
Continuous
 62
               1
100
AcDbLine
 10
-5.1835575800471929
 20
4.7079400000000078
 30
0.0
 11
2.0539424199528042
 21
4.7079400000000078
 31
0.0
  0
LINE
  5
6D
100
AcDbEntity
  8
None
370
               5
390
0
  6
Continuous
 62
               1
100
AcDbLine
 10
4.3039424199528042
 20
4.7079400000000078
 30
0.0
 11
11.541442419952801
 21
4.7079400000000078
 31
0.0
  0
LINE
  5
6E
100
AcDbEntity
  8
None
370
               5
390
0
  6
Continuous
 62
               1
100
AcDbLine
 10
3.1789424199528042
 20
13.070440000000005
 30
0.0
 11
3.1789424199528042
 21
5.8329400000000078
 31
0.0
  0
LINE
  5
6F
100
AcDbEntity
  8
None
370
               5
390
0
  6
Continuous
 62
               1
100
AcDbLine
 10
3.1789424199528042
 20
3.5829400000000078
 30
0.0
 11
3.1789424199528042
 21
-3.6545599999999894
 31
0.0
  0
ENDBLK
  5
70
100
AcDbEntity
  8
Dimension
390
0
100
AcDbBlockEnd
  0
BLOCK
  5
71
100
AcDbEntity
  8
Dimension
390
0
100
AcDbBlockBegin
  2
*D5
 70
               1
 10
0.0
 20
0.0
 30
0.0
  3
*D5
  1

  0
LINE
  5
72
100
AcDbEntity
  8
Dimension
370
              -2
390
0
  6
Continuous
 62
               0
100
AcDbLine
 10
-3.1835575800471929
 20
11.546690001182782
 30
0.0
 11
-3.1835575800471929
 21
19.456480002365566
 31
0.0
  0
LINE
  5
73
100
AcDbEntity
  8
Dimension
370
              -2
390
0
  6
Continuous
 62
               0
100
AcDbLine
 10
-0.7810575800471895
 20
10.364190001182777
 30
0.0
 11
-0.7810575800471895
 21
19.456480002365552
 31
0.0
  0
LINE
  5
74
100
AcDbEntity
  8
Dimension
370
              -2
390
0
  6
Continuous
 62
               0
100
AcDbLine
 10
-0.7810575800471895
 20
18.503979999999999
 30
0.0
 11
-3.1835575800471929
 21
18.503979999999999
 31
0.0
  0
LINE
  5
75
100
AcDbEntity
  8
Dimension
370
              -2
390
0
  6
Continuous
 62
               0
100
AcDbLine
 10
-3.1835575800471929
 20
18.503979999999999
 30
0.0
 11
-4.9335540784140051
 21
18.503979999999999
 31
0.0
  0
SOLID
  5
76
100
AcDbEntity
  8
Dimension
370
              -2
390
0
 62
               0
100
AcDbTrace
 10
-3.1835575800471929
 20
18.503979999999999
 30
0.0
 11
-3.9773075800471931
 21
18.291295328507793
 31
0.0
 12
-3.9773075800471926
 22
18.716664671492204
 32
0.0
 13
-3.9773075800471926
 23
18.716664671492204
 33
0.0
  0
LINE
  5
77
100
AcDbEntity
  8
Dimension
370
              -2
390
0
  6
Continuous
 62
               0
100
AcDbLine
 10
-0.7810575800471895
 20
18.503979999999999
 30
0.0
 11
1.6919524199528126
 21
18.503979999999999
 31
0.0
  0
SOLID
  5
78
100
AcDbEntity
  8
Dimension
370
              -2
390
0
 62
               0
100
AcDbTrace
 10
-0.7810575800471895
 20
18.503979999999999
 30
0.0
 11
0.0126924199528105
 21
18.716664671492204
 31
0.0
 12
0.0126924199528105
 22
18.291295328507793
 32
0.0
 13
0.0126924199528105
 23
18.291295328507793
 33
0.0
  0
WIPEOUT
  5
79
100
AcDbEntity
  8
Dimension
370
              -2
390
0
  6
Continuous
 62
               0
 92
        0
100
AcDbWipeout
 90
        0
 10
1.6919524199528126
 20
17.895440249999989
 30
0.0
 11
3.6724051740434431
 21
0.0
 31
0.0
 12
0.0
 22
3.6724051740434431
 32
0.0
 13
1.0
 23
1.0
340
0
 70
               7
280
               1
281
              50
282
              50
283
               0
360
0
 71
               2
 91
        5
 14
-0.5
 24
0.5
 14
0.5
 24
0.5
 14
0.5
 24
0.16858790293557
 14
-0.5
 24
0.16858790293557
 14
-0.5
 24
0.5
  0
MTEXT
  5
7A
100
AcDbEntity
  8
Dimension
390
0
 62
               0
100
AcDbMText
 10
1.6919524199528126
 20
18.917941369791656
 30
0.0
 40
0.7579186197916666
 41
0.0
 71
               1
 72
               1
  1
2.4mm*
  7
Helvetica
 73
               1
 44
0.9673603504928806
  0
POINT
  5
7B
100
AcDbEntity
  8
Defpoints
370
               0
390
0
 62
               0
100
AcDbPoint
 10
-0.7810575800471895
 20
9.8879400000000004
 30
0.0
  0
POINT
  5
7C
100
AcDbEntity
  8
Defpoints
370
               0
390
0
 62
               0
100
AcDbPoint
 10
-3.1835575800471929
 20
11.070440000000005
 30
0.0
  0
POINT
  5
7D
100
AcDbEntity
  8
Defpoints
370
               0
390
0
 62
               0
100
AcDbPoint
 10
-3.1835575800471929
 20
18.503980000000006
 30
0.0
  0
ENDBLK
  5
7E
100
AcDbEntity
  8
Dimension
390
0
100
AcDbBlockEnd
  0
BLOCK
  5
7F
100
AcDbEntity
  8
Dimension
390
0
100
AcDbBlockBegin
  2
*D6
 70
               1
 10
0.0
 20
0.0
 30
0.0
  3
*D6
  1

  0
LINE
  5
80
100
AcDbEntity
  8
Dimension
370
              -2
390
0
  6
Continuous
 62
               0
100
AcDbLine
 10
-1.2573075812299663
 20
9.8879400000000004
 30
0.0
 11
-7.6253575824127466
 21
9.8879400000000004
 31
0.0
  0
LINE
  5
81
100
AcDbEntity
  8
Dimension
370
              -2
390
0
  6
Continuous
 62
               0
100
AcDbLine
 10
-3.6598075812299697
 20
11.070440000000005
 30
0.0
 11
-7.6253575824127466
 21
11.070440000000005
 31
0.0
  0
LINE
  5
82
100
AcDbEntity
  8
Dimension
370
              -2
390
0
  6
Continuous
 62
               0
100
AcDbLine
 10
-6.672857580047193
 20
11.070440000000005
 30
0.0
 11
-6.672857580047193
 21
9.8879400000000004
 31
0.0
  0
LINE
  5
83
100
AcDbEntity
  8
Dimension
370
              -2
390
0
  6
Continuous
 62
               0
100
AcDbLine
 10
-6.672857580047193
 20
9.8879400000000004
 30
0.0
 11
-6.672857580047193
 21
8.1379435016331882
 31
0.0
  0
SOLID
  5
84
100
AcDbEntity
  8
Dimension
370
              -2
390
0
 62
               0
100
AcDbTrace
 10
-6.672857580047193
 20
9.8879400000000004
 30
0.0
 11
-6.4601729085549895
 21
9.0941900000000011
 31
0.0
 12
-6.8855422515393965
 22
9.0941900000000011
 32
0.0
 13
-6.8855422515393965
 23
9.0941900000000011
 33
0.0
  0
LINE
  5
85
100
AcDbEntity
  8
Dimension
370
              -2
390
0
  6
Continuous
 62
               0
100
AcDbLine
 10
-6.672857580047193
 20
11.070440000000005
 30
0.0
 11
-6.672857580047193
 21
12.820436498366817
 31
0.0
  0
SOLID
  5
86
100
AcDbEntity
  8
Dimension
370
              -2
390
0
 62
               0
100
AcDbTrace
 10
-6.672857580047193
 20
11.070440000000005
 30
0.0
 11
-6.8855422515393965
 21
11.864190000000004
 31
0.0
 12
-6.4601729085549895
 22
11.864190000000004
 32
0.0
 13
-6.4601729085549895
 23
11.864190000000004
 33
0.0
  0
WIPEOUT
  5
87
100
AcDbEntity
  8
Dimension
370
              -2
390
0
  6
Continuous
 62
               0
 92
        0
100
AcDbWipeout
 90
        0
 10
-8.5990182043393588
 20
9.8706682935180616
 30
0.0
 11
3.8523212485843228
 21
0.0
 31
0.0
 12
0.0
 22
3.8523212485843228
 32
0.0
 13
1.0
 23
1.0
340
0
 70
               7
280
               1
281
              50
282
              50
283
               0
360
0
 71
               2
 91
        5
 14
-0.5
 24
0.5
 14
0.5
 24
0.5
 14
0.5
 24
0.1840659380503998
 14
-0.5
 24
0.1840659380503998
 14
-0.5
 24
0.5
  0
MTEXT
  5
88
100
AcDbEntity
  8
Dimension
390
0
 62
               0
100
AcDbMText
 10
-8.5990182043393588
 20
10.893169413309728
 30
0.0
 40
0.7579186197916666
 41
0.0
 71
               1
 72
               1
  1
1.18mm
  7
Helvetica
 73
               1
 44
0.9673603504928806
  0
POINT
  5
89
100
AcDbEntity
  8
Defpoints
370
               0
390
0
 62
               0
100
AcDbPoint
 10
-3.1835575800471929
 20
11.070440000000005
 30
0.0
  0
POINT
  5
8A
100
AcDbEntity
  8
Defpoints
370
               0
390
0
 62
               0
100
AcDbPoint
 10
-0.7810575800471895
 20
9.8879400000000004
 30
0.0
  0
POINT
  5
8B
100
AcDbEntity
  8
Defpoints
370
               0
390
0
 62
               0
100
AcDbPoint
 10
-6.6728575800471894
 20
9.8879400000000004
 30
0.0
  0
ENDBLK
  5
8C
100
AcDbEntity
  8
Dimension
390
0
100
AcDbBlockEnd
  0
BLOCK
  5
8D
100
AcDbEntity
  8
Dimension
390
0
100
AcDbBlockBegin
  2
*D7
 70
               1
 10
0.0
 20
0.0
 30
0.0
  3
*D7
  1

  0
LINE
  5
8E
100
AcDbEntity
  8
Dimension
370
              -2
390
0
  6
Continuous
 62
               0
100
AcDbLine
 10
-3.6598075812299697
 20
-1.6545599999999894
 30
0.0
 11
-8.5622175824127567
 21
-1.6545599999999894
 31
0.0
  0
LINE
  5
8F
100
AcDbEntity
  8
Dimension
370
              -2
390
0
  6
Continuous
 62
               0
100
AcDbLine
 10
-3.6598075812299697
 20
3.4254400000000089
 30
0.0
 11
-8.5622175824127424
 21
3.4254400000000089
 31
0.0
  0
LINE
  5
90
100
AcDbEntity
  8
Dimension
370
              -2
390
0
  6
Continuous
 62
               0
100
AcDbLine
 10
-7.6097175800471888
 20
-1.6545599999999894
 30
0.0
 11
-7.6097175800471888
 21
3.4254400000000089
 31
0.0
  0
SOLID
  5
91
100
AcDbEntity
  8
Dimension
370
              -2
390
0
 62
               0
100
AcDbTrace
 10
-7.6097175800471888
 20
-1.6545599999999894
 30
0.0
 11
-7.8224022515393923
 21
-0.8608099999999894
 31
0.0
 12
-7.3970329085549853
 22
-0.8608099999999894
 32
0.0
 13
-7.3970329085549853
 23
-0.8608099999999894
 33
0.0
  0
SOLID
  5
92
100
AcDbEntity
  8
Dimension
370
              -2
390
0
 62
               0
100
AcDbTrace
 10
-7.6097175800471888
 20
3.4254400000000089
 30
0.0
 11
-7.3970329085549853
 21
2.6316900000000087
 31
0.0
 12
-7.8224022515393923
 22
2.6316900000000087
 32
0.0
 13
-7.8224022515393923
 23
2.6316900000000087
 33
0.0
  0
WIPEOUT
  5
93
100
AcDbEntity
  8
Dimension
370
              -2
390
0
  6
Continuous
 62
               0
 92
        0
100
AcDbWipeout
 90
        0
 10
-9.5358782043393546
 20
1.2369191708984431
 30
0.0
 11
3.8523212485843228
 21
0.0
 31
0.0
 12
0.0
 22
3.8523212485843228
 32
0.0
 13
1.0
 23
1.0
340
0
 70
               7
280
               1
281
              50
282
              50
283
               0
360
0
 71
               2
 91
        5
 14
-0.5
 24
0.5
 14
0.5
 24
0.5
 14
0.5
 24
0.1840659380504
 14
-0.5
 24
0.1840659380504
 14
-0.5
 24
0.5
  0
MTEXT
  5
94
100
AcDbEntity
  8
Dimension
390
0
 62
               0
100
AcDbMText
 10
-9.5358782043393546
 20
2.2594202906901097
 30
0.0
 40
0.7579186197916666
 41
0.0
 71
               1
 72
               1
  1
5.08mm
  7
Helvetica
 73
               1
 44
0.9673603504928806
  0
POINT
  5
95
100
AcDbEntity
  8
Defpoints
370
               0
390
0
 62
               0
100
AcDbPoint
 10
-3.1835575800471929
 20
3.4254400000000089
 30
0.0
  0
POINT
  5
96
100
AcDbEntity
  8
Defpoints
370
               0
390
0
 62
               0
100
AcDbPoint
 10
-3.1835575800471929
 20
-1.6545599999999894
 30
0.0
  0
POINT
  5
97
100
AcDbEntity
  8
Defpoints
370
               0
390
0
 62
               0
100
AcDbPoint
 10
-7.6097175800471923
 20
-1.6545599999999894
 30
0.0
  0
ENDBLK
  5
98
100
AcDbEntity
  8
Dimension
390
0
100
AcDbBlockEnd
  0
BLOCK
  5
99
100
AcDbEntity
  8
Dimension
390
0
100
AcDbBlockBegin
  2
*D8
 70
               1
 10
0.0
 20
0.0
 30
0.0
  3
*D8
  1

  0
LINE
  5
9A
100
AcDbEntity
  8
Dimension
370
              -2
390
0
  6
Continuous
 62
               0
100
AcDbLine
 10
10.017692421135578
 20
8.5304399999999987
 30
0.0
 11
15.690832422318366
 21
8.5304399999999987
 31
0.0
  0
LINE
  5
9B
100
AcDbEntity
  8
Dimension
370
              -2
390
0
  6
Continuous
 62
               0
100
AcDbLine
 10
10.017692421135578
 20
11.070440000000005
 30
0.0
 11
15.690832422318351
 21
11.070440000000005
 31
0.0
  0
LINE
  5
9C
100
AcDbEntity
  8
Dimension
370
              -2
390
0
  6
Continuous
 62
               0
100
AcDbLine
 10
14.738332419952798
 20
11.070440000000005
 30
0.0
 11
14.738332419952798
 21
8.5304399999999987
 31
0.0
  0
LINE
  5
9D
100
AcDbEntity
  8
Dimension
370
              -2
390
0
  6
Continuous
 62
               0
100
AcDbLine
 10
14.738332419952798
 20
8.5304399999999987
 30
0.0
 11
14.738332419952798
 21
6.7804435016331865
 31
0.0
  0
SOLID
  5
9E
100
AcDbEntity
  8
Dimension
370
              -2
390
0
 62
               0
100
AcDbTrace
 10
14.738332419952798
 20
8.5304399999999987
 30
0.0
 11
14.951017091445001
 21
7.7366899999999985
 31
0.0
 12
14.525647748460594
 22
7.7366899999999985
 32
0.0
 13
14.525647748460594
 23
7.7366899999999985
 33
0.0
  0
LINE
  5
9F
100
AcDbEntity
  8
Dimension
370
              -2
390
0
  6
Continuous
 62
               0
100
AcDbLine
 10
14.738332419952798
 20
11.070440000000005
 30
0.0
 11
14.738332419952798
 21
12.820436498366817
 31
0.0
  0
SOLID
  5
A0
100
AcDbEntity
  8
Dimension
370
              -2
390
0
 62
               0
100
AcDbTrace
 10
14.738332419952798
 20
11.070440000000005
 30
0.0
 11
14.525647748460594
 21
11.864190000000004
 31
0.0
 12
14.951017091445001
 22
11.864190000000004
 32
0.0
 13
14.951017091445001
 23
11.864190000000004
 33
0.0
  0
WIPEOUT
  5
A1
100
AcDbEntity
  8
Dimension
370
              -2
390
0
  6
Continuous
 62
               0
 92
        0
100
AcDbWipeout
 90
        0
 10
12.812171795660632
 20
9.1919002499999998
 30
0.0
 11
3.8523212485843246
 21
0.0
 31
0.0
 12
0.0
 22
3.8523212485843246
 32
0.0
 13
1.0
 23
1.0
340
0
 70
               7
280
               1
281
              50
282
              50
283
               0
360
0
 71
               2
 91
        5
 14
-0.5
 24
0.5
 14
0.5
 24
0.5
 14
0.5
 24
0.1840659380504
 14
-0.5
 24
0.1840659380504
 14
-0.5
 24
0.5
  0
MTEXT
  5
A2
100
AcDbEntity
  8
Dimension
390
0
 62
               0
100
AcDbMText
 10
12.812171795660632
 20
10.214401369791666
 30
0.0
 40
0.7579186197916666
 41
0.0
 71
               1
 72
               1
  1
2.54mm
  7
Helvetica
 73
               1
 44
0.9673603504928806
  0
POINT
  5
A3
100
AcDbEntity
  8
Defpoints
370
               0
390
0
 62
               0
100
AcDbPoint
 10
9.5414424199528014
 20
11.070440000000005
 30
0.0
  0
POINT
  5
A4
100
AcDbEntity
  8
Defpoints
370
               0
390
0
 62
               0
100
AcDbPoint
 10
9.5414424199528014
 20
8.5304399999999987
 30
0.0
  0
POINT
  5
A5
100
AcDbEntity
  8
Defpoints
370
               0
390
0
 62
               0
100
AcDbPoint
 10
14.738332419952801
 20
8.5304399999999987
 30
0.0
  0
ENDBLK
  5
A6
100
AcDbEntity
  8
Dimension
390
0
100
AcDbBlockEnd
  0
BLOCK
  5
A7
100
AcDbEntity
  8
Dimension
390
0
100
AcDbBlockBegin
  2
*D9
 70
               1
 10
0.0
 20
0.0
 30
0.0
  3
*D9
  1

  0
LINE
  5
A8
100
AcDbEntity
  8
Dimension
370
              -2
390
0
  6
Continuous
 62
               0
100
AcDbLine
 10
-3.1835575800471929
 20
-2.1308100011827662
 30
0.0
 11
-3.1835575800471929
 21
-13.337060002365547
 31
0.0
  0
LINE
  5
A9
100
AcDbEntity
  8
Dimension
370
              -2
390
0
  6
Continuous
 62
               0
100
AcDbLine
 10
9.5414424199528014
 20
-2.1308100011827662
 30
0.0
 11
9.5414424199528014
 21
-13.337060002365547
 31
0.0
  0
LINE
  5
AA
100
AcDbEntity
  8
Dimension
370
              -2
390
0
  6
Continuous
 62
               0
100
AcDbLine
 10
9.5414424199528014
 20
-12.384559999999993
 30
0.0
 11
-3.1835575800471929
 21
-12.384559999999993
 31
0.0
  0
LINE
  5
AB
100
AcDbEntity
  8
Dimension
370
              -2
390
0
  6
Continuous
 62
               0
100
AcDbLine
 10
-3.1835575800471929
 20
-12.384559999999993
 30
0.0
 11
-4.9335540784140051
 21
-12.384559999999993
 31
0.0
  0
SOLID
  5
AC
100
AcDbEntity
  8
Dimension
370
              -2
390
0
 62
               0
100
AcDbTrace
 10
-3.1835575800471929
 20
-12.384559999999993
 30
0.0
 11
-3.9773075800471931
 21
-12.597244671492197
 31
0.0
 12
-3.9773075800471926
 22
-12.17187532850779
 32
0.0
 13
-3.9773075800471926
 23
-12.17187532850779
 33
0.0
  0
LINE
  5
AD
100
AcDbEntity
  8
Dimension
370
              -2
390
0
  6
Continuous
 62
               0
100
AcDbLine
 10
9.5414424199528014
 20
-12.384559999999993
 30
0.0
 11
11.291438918319614
 21
-12.384559999999993
 31
0.0
  0
SOLID
  5
AE
100
AcDbEntity
  8
Dimension
370
              -2
390
0
 62
               0
100
AcDbTrace
 10
9.5414424199528014
 20
-12.384559999999993
 30
0.0
 11
10.335192419952801
 21
-12.17187532850779
 31
0.0
 12
10.335192419952801
 22
-12.597244671492197
 32
0.0
 13
10.335192419952801
 23
-12.597244671492197
 33
0.0
  0
WIPEOUT
  5
AF
100
AcDbEntity
  8
Dimension
370
              -2
390
0
  6
Continuous
 62
               0
 92
        0
100
AcDbWipeout
 90
        0
 10
-2.9264576635095949
 20
-12.993097833333326
 30
0.0
 11
5.0376507600148521
 21
0.0
 31
0.0
 12
0.0
 22
5.0376507600148521
 32
0.0
 13
1.0
 23
1.0
340
0
 70
               7
280
               1
281
              50
282
              50
283
               0
360
0
 71
               2
 91
        5
 14
-0.5
 24
0.5
 14
0.5
 24
0.5
 14
0.5
 24
0.2584033594269222
 14
-0.5
 24
0.2584033594269222
 14
-0.5
 24
0.5
  0
MTEXT
  5
B0
100
AcDbEntity
  8
Dimension
390
0
 62
               0
100
AcDbMText
 10
-2.9264576635095949
 20
-11.97059671354166
 30
0.0
 40
0.7579186197916666
 41
0.0
 71
               1
 72
               1
  1
12.725mm
  7
Helvetica
 73
               1
 44
0.9673603504928806
  0
WIPEOUT
  5
B1
100
AcDbEntity
  8
Dimension
370
              -2
390
0
  6
Continuous
 62
               0
 92
        0
100
AcDbWipeout
 90
        0
 10
2.1111930965052608
 20
-12.993099499999989
 30
0.0
 11
5.0270675208833486
 21
0.0
 31
0.0
 12
0.0
 22
5.0270675208833486
 32
0.0
 13
1.0
 23
1.0
340
0
 70
               7
280
               1
281
              50
282
              50
283
               0
360
0
 71
               2
 91
        5
 14
-0.5
 24
0.5
 14
0.5
 24
0.5
 14
0.5
 24
0.2578947378478542
 14
-0.5
 24
0.2578947378478542
 14
-0.5
 24
0.5
  0
MTEXT
  5
B2
100
AcDbEntity
  8
Dimension
390
0
 62
               0
100
AcDbMText
 10
2.1111930965052608
 20
-11.970598380208322
 30
0.0
 40
0.7579186197916666
 41
0.0
 71
               1
 72
               1
  1
±0.125mm
  7
Helvetica
 73
               1
 44
0.9673603504928806
  0
WIPEOUT
  5
B3
100
AcDbEntity
  8
Dimension
370
              -2
390
0
  6
Continuous
 62
               0
 92
        0
100
AcDbWipeout
 90
        0
 10
7.1382606173886103
 20
-12.993101666666659
 30
0.0
 11
2.1060832593176109
 21
0.0
 31
0.0
 12
0.0
 22
2.1060832593176109
 32
0.0
 13
1.0
 23
1.0
340
0
 70
               7
280
               1
281
              50
282
              50
283
               0
360
0
 71
               2
 91
        5
 14
-0.5
 24
0.5
 14
0.5
 24
0.5
 14
0.5
 24
-0.0778894675453992
 14
-0.5
 24
-0.0778894675453992
 14
-0.5
 24
0.5
  0
MTEXT
  5
B4
100
AcDbEntity
  8
Dimension
390
0
 62
               0
100
AcDbMText
 10
7.1382606173886103
 20
-11.970597326388882
 30
0.0
 40
0.7579210069444442
 41
0.0
 71
               1
 72
               1
  1
 (x4)
  7
Helvetica
 73
               1
 44
0.9673603504928806
  0
POINT
  5
B5
100
AcDbEntity
  8
Defpoints
370
               0
390
0
 62
               0
100
AcDbPoint
 10
9.5414424199528014
 20
-1.6545599999999894
 30
0.0
  0
POINT
  5
B6
100
AcDbEntity
  8
Defpoints
370
               0
390
0
 62
               0
100
AcDbPoint
 10
-3.1835575800471929
 20
-1.6545599999999894
 30
0.0
  0
POINT
  5
B7
100
AcDbEntity
  8
Defpoints
370
               0
390
0
 62
               0
100
AcDbPoint
 10
-3.1835575800471929
 20
-12.384559999999988
 30
0.0
  0
ENDBLK
  5
B8
100
AcDbEntity
  8
Dimension
390
0
100
AcDbBlockEnd
  0
BLOCK
  5
B9
100
AcDbEntity
  8
Dimension
390
0
100
AcDbBlockBegin
  2
*D10
 70
               1
 10
0.0
 20
0.0
 30
0.0
  3
*D10
  1

  0
LINE
  5
BA
100
AcDbEntity
  8
Dimension
370
              -2
390
0
  6
Continuous
 62
               0
100
AcDbLine
 10
8.6339424199528025
 20
2.1129400000000089
 30
0.0
 11
14.273479499124122
 21
-0.1266847714997397
 31
0.0
  0
SOLID
  5
BB
100
AcDbEntity
  8
Dimension
370
              -2
390
0
 62
               0
100
AcDbTrace
 10
8.6339424199528025
 20
2.1129400000000089
 30
0.0
 11
9.177559844992766
 21
2.0461921731673094
 31
0.0
 12
9.0713550065609443
 22
1.7833259737955049
 32
0.0
 13
9.0713550065609443
 23
1.7833259737955049
 33
0.0
  0
LINE
  5
BC
100
AcDbEntity
  8
Dimension
370
              -2
390
0
  6
Continuous
 62
               0
100
AcDbLine
 10
14.273479499124122
 20
-0.1266847714997397
 30
0.0
 11
15.773476501103616
 21
-0.1266847714997397
 31
0.0
  0
WIPEOUT
  5
BD
100
AcDbEntity
  8
Dimension
370
              -2
390
0
  6
Continuous
 62
               0
 92
        0
100
AcDbWipeout
 90
        0
 10
15.773476501103616
 20
-0.7352245214997482
 30
0.0
 11
7.6305594868130129
 21
0.0
 31
0.0
 12
0.0
 22
7.6305594868130129
 32
0.0
 13
1.0
 23
1.0
340
0
 70
               7
280
               1
281
              50
282
              50
283
               0
360
0
 71
               2
 91
        5
 14
-0.5
 24
0.5
 14
0.5
 24
0.5
 14
0.5
 24
0.3404993104236546
 14
-0.5
 24
0.3404993104236546
 14
-0.5
 24
0.5
  0
MTEXT
  5
BE
100
AcDbEntity
  8
Dimension
390
0
 62
               0
100
AcDbMText
 10
15.773476501103616
 20
0.2872765982919183
 30
0.0
 40
0.7579186197916666
 41
0.0
 71
               1
 72
               1
  1
1.06 x 0.44 mm 
  7
Helvetica
 73
               1
 44
0.9673603504928806
  0
POINT
  5
BF
100
AcDbEntity
  8
Defpoints
370
               0
390
0
 62
               0
100
AcDbPoint
 10
7.588942419952815
 20
2.527940000000001
 30
0.0
  0
POINT
  5
C0
100
AcDbEntity
  8
Defpoints
370
               0
390
0
 62
               0
100
AcDbPoint
 10
8.6339424199528025
 20
2.1129400000000089
 30
0.0
  0
ENDBLK
  5
C1
100
AcDbEntity
  8
Dimension
390
0
100
AcDbBlockEnd
  0
BLOCK
  5
C2
100
AcDbEntity
  8
Dimension
390
0
100
AcDbBlockBegin
  2
*D11
 70
               1
 10
0.0
 20
0.0
 30
0.0
  3
*D11
  1

  0
LINE
  5
C3
100
AcDbEntity
  8
Dimension
370
              -2
390
0
  6
Continuous
 62
               0
100
AcDbLine
 10
-1.7510575800471884
 20
-0.0183200011827722
 30
0.0
 11
-1.7510575800471884
 21
-9.7370600023655527
 31
0.0
  0
LINE
  5
C4
100
AcDbEntity
  8
Dimension
370
              -2
390
0
  6
Continuous
 62
               0
100
AcDbLine
 10
8.6089424199528111
 20
0.021689998817223
 30
0.0
 11
8.6089424199528111
 21
-9.7370600023655527
 31
0.0
  0
LINE
  5
C5
100
AcDbEntity
  8
Dimension
370
              -2
390
0
  6
Continuous
 62
               0
100
AcDbLine
 10
-1.7510575800471884
 20
-8.784559999999999
 30
0.0
 11
8.6089424199528111
 21
-8.784559999999999
 31
0.0
  0
SOLID
  5
C6
100
AcDbEntity
  8
Dimension
370
              -2
390
0
 62
               0
100
AcDbTrace
 10
-1.7510575800471884
 20
-8.784559999999999
 30
0.0
 11
-0.9573075800471884
 21
-8.5718753285077955
 31
0.0
 12
-0.9573075800471884
 22
-8.9972446714922025
 32
0.0
 13
-0.9573075800471884
 23
-8.9972446714922025
 33
0.0
  0
SOLID
  5
C7
100
AcDbEntity
  8
Dimension
370
              -2
390
0
 62
               0
100
AcDbTrace
 10
8.6089424199528111
 20
-8.784559999999999
 30
0.0
 11
7.8151924199528109
 21
-8.9972446714922025
 31
0.0
 12
7.8151924199528109
 22
-8.5718753285077955
 32
0.0
 13
7.8151924199528109
 23
-8.5718753285077955
 33
0.0
  0
WIPEOUT
  5
C8
100
AcDbEntity
  8
Dimension
370
              -2
390
0
  6
Continuous
 62
               0
 92
        0
100
AcDbWipeout
 90
        0
 10
1.4111643836233299
 20
-9.3930997500000082
 30
0.0
 11
4.4449860042995875
 21
0.0
 31
0.0
 12
0.0
 22
4.4449860042995875
 32
0.0
 13
1.0
 23
1.0
340
0
 70
               7
280
               1
281
              50
282
              50
283
               0
360
0
 71
               2
 91
        5
 14
-0.5
 24
0.5
 14
0.5
 24
0.5
 14
0.5
 24
0.2261904764553291
 14
-0.5
 24
0.2261904764553291
 14
-0.5
 24
0.5
  0
MTEXT
  5
C9
100
AcDbEntity
  8
Dimension
390
0
 62
               0
100
AcDbMText
 10
1.4111643836233299
 20
-8.3705986302083417
 30
0.0
 40
0.7579186197916666
 41
0.0
 71
               1
 72
               1
  1
10.36mm
  7
Helvetica
 73
               1
 44
0.9673603504928806
  0
POINT
  5
CA
100
AcDbEntity
  8
Defpoints
370
               0
390
0
 62
               0
100
AcDbPoint
 10
8.6089424199528111
 20
0.4979399999999998
 30
0.0
  0
POINT
  5
CB
100
AcDbEntity
  8
Defpoints
370
               0
390
0
 62
               0
100
AcDbPoint
 10
-1.7510575800471884
 20
0.4579300000000046
 30
0.0
  0
POINT
  5
CC
100
AcDbEntity
  8
Defpoints
370
               0
390
0
 62
               0
100
AcDbPoint
 10
-1.7510575800471884
 20
-8.7845599999999937
 30
0.0
  0
ENDBLK
  5
CD
100
AcDbEntity
  8
Dimension
390
0
100
AcDbBlockEnd
  0
BLOCK
  5
CE
100
AcDbEntity
  8
Dimension
390
0
100
AcDbBlockBegin
  2
*D12
 70
               1
 10
0.0
 20
0.0
 30
0.0
  3
*D12
  1

  0
LINE
  5
CF
100
AcDbEntity
  8
Dimension
370
              -2
390
0
  6
Continuous
 62
               0
100
AcDbLine
 10
-1.2573075812299663
 20
9.8879400000000004
 30
0.0
 11
-17.093557582412743
 21
9.8879400000000004
 31
0.0
  0
LINE
  5
D0
100
AcDbEntity
  8
Dimension
370
              -2
390
0
  6
Continuous
 62
               0
100
AcDbLine
 10
-1.2573075812299663
 20
-0.4720700000000022
 30
0.0
 11
-17.093557582412743
 21
-0.4720700000000022
 31
0.0
  0
LINE
  5
D1
100
AcDbEntity
  8
Dimension
370
              -2
390
0
  6
Continuous
 62
               0
100
AcDbLine
 10
-16.141057580047189
 20
9.8879400000000004
 30
0.0
 11
-16.141057580047189
 21
-0.4720700000000022
 31
0.0
  0
SOLID
  5
D2
100
AcDbEntity
  8
Dimension
370
              -2
390
0
 62
               0
100
AcDbTrace
 10
-16.141057580047189
 20
9.8879400000000004
 30
0.0
 11
-15.928372908554985
 21
9.0941900000000011
 31
0.0
 12
-16.353742251539394
 22
9.0941900000000011
 32
0.0
 13
-16.353742251539394
 23
9.0941900000000011
 33
0.0
  0
SOLID
  5
D3
100
AcDbEntity
  8
Dimension
370
              -2
390
0
 62
               0
100
AcDbTrace
 10
-16.141057580047189
 20
-0.4720700000000022
 30
0.0
 11
-16.353742251539394
 21
0.3216799999999978
 31
0.0
 12
-15.928372908554985
 22
0.3216799999999978
 32
0.0
 13
-15.928372908554985
 23
0.3216799999999978
 33
0.0
  0
WIPEOUT
  5
D4
100
AcDbEntity
  8
Dimension
370
              -2
390
0
  6
Continuous
 62
               0
 92
        0
100
AcDbWipeout
 90
        0
 10
-18.363550582196979
 20
3.6096596698608296
 30
0.0
 11
4.4449860042995866
 21
0.0
 31
0.0
 12
0.0
 22
4.4449860042995866
 32
0.0
 13
1.0
 23
1.0
340
0
 70
               7
280
               1
281
              50
282
              50
283
               0
360
0
 71
               2
 91
        5
 14
-0.5
 24
0.5
 14
0.5
 24
0.5
 14
0.5
 24
0.2261904764553293
 14
-0.5
 24
0.2261904764553293
 14
-0.5
 24
0.5
  0
MTEXT
  5
D5
100
AcDbEntity
  8
Dimension
390
0
 62
               0
100
AcDbMText
 10
-18.363550582196979
 20
4.6321607896524961
 30
0.0
 40
0.7579186197916666
 41
0.0
 71
               1
 72
               1
  1
10.36mm
  7
Helvetica
 73
               1
 44
0.9673603504928806
  0
POINT
  5
D6
100
AcDbEntity
  8
Defpoints
370
               0
390
0
 62
               0
100
AcDbPoint
 10
-0.7810575800471895
 20
-0.4720700000000022
 30
0.0
  0
POINT
  5
D7
100
AcDbEntity
  8
Defpoints
370
               0
390
0
 62
               0
100
AcDbPoint
 10
-0.7810575800471895
 20
9.8879400000000004
 30
0.0
  0
POINT
  5
D8
100
AcDbEntity
  8
Defpoints
370
               0
390
0
 62
               0
100
AcDbPoint
 10
-16.141057580047189
 20
9.8879400000000004
 30
0.0
  0
ENDBLK
  5
D9
100
AcDbEntity
  8
Dimension
390
0
100
AcDbBlockEnd
  0
BLOCK
  5
DA
100
AcDbEntity
  8
Dimension
390
0
100
AcDbBlockBegin
  2
*D13
 70
               1
 10
0.0
 20
0.0
 30
0.0
  3
*D13
  1

  0
LINE
  5
DB
100
AcDbEntity
  8
Dimension
370
              -2
390
0
  6
Continuous
 62
               0
100
AcDbLine
 10
-2.2273075812299652
 20
8.9179400000000015
 30
0.0
 11
-11.643557582412754
 21
8.9179400000000015
 31
0.0
  0
LINE
  5
DC
100
AcDbEntity
  8
Dimension
370
              -2
390
0
  6
Continuous
 62
               0
100
AcDbLine
 10
-2.2273075812299652
 20
0.4979299999999967
 30
0.0
 11
-11.64355758241274
 21
0.4979299999999967
 31
0.0
  0
LINE
  5
DD
100
AcDbEntity
  8
Dimension
370
              -2
390
0
  6
Continuous
 62
               0
100
AcDbLine
 10
-10.691057580047186
 20
8.9179400000000015
 30
0.0
 11
-10.691057580047186
 21
0.4979299999999967
 31
0.0
  0
SOLID
  5
DE
100
AcDbEntity
  8
Dimension
370
              -2
390
0
 62
               0
100
AcDbTrace
 10
-10.691057580047186
 20
8.9179400000000015
 30
0.0
 11
-10.478372908554983
 21
8.1241900000000022
 31
0.0
 12
-10.90374225153939
 22
8.1241900000000022
 32
0.0
 13
-10.90374225153939
 23
8.1241900000000022
 33
0.0
  0
SOLID
  5
DF
100
AcDbEntity
  8
Dimension
370
              -2
390
0
 62
               0
100
AcDbTrace
 10
-10.691057580047186
 20
0.4979299999999967
 30
0.0
 11
-10.90374225153939
 21
1.2916799999999966
 31
0.0
 12
-10.478372908554983
 22
1.2916799999999966
 32
0.0
 13
-10.478372908554983
 23
1.2916799999999966
 33
0.0
  0
WIPEOUT
  5
E0
100
AcDbEntity
  8
Dimension
370
              -2
390
0
  6
Continuous
 62
               0
 92
        0
100
AcDbWipeout
 90
        0
 10
-12.617218204339352
 20
3.9345564922180047
 30
0.0
 11
3.8523212485843228
 21
0.0
 31
0.0
 12
0.0
 22
3.8523212485843228
 32
0.0
 13
1.0
 23
1.0
340
0
 70
               7
280
               1
281
              50
282
              50
283
               0
360
0
 71
               2
 91
        5
 14
-0.5
 24
0.5
 14
0.5
 24
0.5
 14
0.5
 24
0.1840659380504001
 14
-0.5
 24
0.1840659380504001
 14
-0.5
 24
0.5
  0
MTEXT
  5
E1
100
AcDbEntity
  8
Dimension
390
0
 62
               0
100
AcDbMText
 10
-12.617218204339352
 20
4.9570576120096712
 30
0.0
 40
0.7579186197916666
 41
0.0
 71
               1
 72
               1
  1
8.42mm
  7
Helvetica
 73
               1
 44
0.9673603504928806
  0
POINT
  5
E2
100
AcDbEntity
  8
Defpoints
370
               0
390
0
 62
               0
100
AcDbPoint
 10
-1.7510575800471884
 20
0.4979299999999967
 30
0.0
  0
POINT
  5
E3
100
AcDbEntity
  8
Defpoints
370
               0
390
0
 62
               0
100
AcDbPoint
 10
-1.7510575800471884
 20
8.9179400000000015
 30
0.0
  0
POINT
  5
E4
100
AcDbEntity
  8
Defpoints
370
               0
390
0
 62
               0
100
AcDbPoint
 10
-10.691057580047188
 20
8.9179400000000015
 30
0.0
  0
ENDBLK
  5
E5
100
AcDbEntity
  8
Dimension
390
0
100
AcDbBlockEnd
  0
BLOCK
  5
E6
100
AcDbEntity
  8
Dimension
390
0
100
AcDbBlockBegin
  2
*D14
 70
               1
 10
0.0
 20
0.0
 30
0.0
  3
*D14
  1

  0
LINE
  5
E7
100
AcDbEntity
  8
Dimension
370
              -2
390
0
  6
Continuous
 62
               0
100
AcDbLine
 10
-0.7810575800471895
 20
-0.948320001182779
 30
0.0
 11
-0.7810575800471895
 21
-6.9449000023655572
 31
0.0
  0
LINE
  5
E8
100
AcDbEntity
  8
Dimension
370
              -2
390
0
  6
Continuous
 62
               0
100
AcDbLine
 10
7.6389424199528122
 20
-0.9483100011827759
 30
0.0
 11
7.6389424199528122
 21
-6.9449000023655572
 31
0.0
  0
LINE
  5
E9
100
AcDbEntity
  8
Dimension
370
              -2
390
0
  6
Continuous
 62
               0
100
AcDbLine
 10
-0.7810575800471895
 20
-5.9924000000000035
 30
0.0
 11
7.6389424199528122
 21
-5.9924000000000035
 31
0.0
  0
SOLID
  5
EA
100
AcDbEntity
  8
Dimension
370
              -2
390
0
 62
               0
100
AcDbTrace
 10
-0.7810575800471895
 20
-5.9924000000000035
 30
0.0
 11
0.0126924199528105
 21
-5.7797153285078
 31
0.0
 12
0.0126924199528105
 22
-6.205084671492207
 32
0.0
 13
0.0126924199528105
 23
-6.205084671492207
 33
0.0
  0
SOLID
  5
EB
100
AcDbEntity
  8
Dimension
370
              -2
390
0
 62
               0
100
AcDbTrace
 10
7.6389424199528122
 20
-5.9924000000000035
 30
0.0
 11
6.845192419952812
 21
-6.205084671492207
 31
0.0
 12
6.845192419952812
 22
-5.7797153285078
 32
0.0
 13
6.845192419952812
 23
-5.7797153285078
 33
0.0
  0
WIPEOUT
  5
EC
100
AcDbEntity
  8
Dimension
370
              -2
390
0
  6
Continuous
 62
               0
 92
        0
100
AcDbWipeout
 90
        0
 10
1.4688633386293901
 20
-6.6009397500000118
 30
0.0
 11
3.8523212485843228
 21
0.0
 31
0.0
 12
0.0
 22
3.8523212485843228
 32
0.0
 13
1.0
 23
1.0
340
0
 70
               7
280
               1
281
              50
282
              50
283
               0
360
0
 71
               2
 91
        5
 14
-0.5
 24
0.5
 14
0.5
 24
0.5
 14
0.5
 24
0.1840659380504001
 14
-0.5
 24
0.1840659380504001
 14
-0.5
 24
0.5
  0
MTEXT
  5
ED
100
AcDbEntity
  8
Dimension
390
0
 62
               0
100
AcDbMText
 10
1.4688633386293901
 20
-5.5784386302083453
 30
0.0
 40
0.7579186197916666
 41
0.0
 71
               1
 72
               1
  1
8.42mm
  7
Helvetica
 73
               1
 44
0.9673603504928806
  0
POINT
  5
EE
100
AcDbEntity
  8
Defpoints
370
               0
390
0
 62
               0
100
AcDbPoint
 10
7.6389424199528122
 20
-0.472059999999999
 30
0.0
  0
POINT
  5
EF
100
AcDbEntity
  8
Defpoints
370
               0
390
0
 62
               0
100
AcDbPoint
 10
-0.7810575800471895
 20
-0.4720700000000022
 30
0.0
  0
POINT
  5
F0
100
AcDbEntity
  8
Defpoints
370
               0
390
0
 62
               0
100
AcDbPoint
 10
-0.7810575800471895
 20
-5.9924000000000017
 30
0.0
  0
ENDBLK
  5
F1
100
AcDbEntity
  8
Dimension
390
0
100
AcDbBlockEnd
  0
BLOCK
  5
F2
100
AcDbEntity
  8
Dimension
390
0
100
AcDbBlockBegin
  2
*D15
 70
               1
 10
0.0
 20
0.0
 30
0.0
  3
*D15
  1

  0
LINE
  5
F3
100
AcDbEntity
  8
Dimension
370
              -2
390
0
  6
Continuous
 62
               0
100
AcDbLine
 10
-3.1835575800471929
 20
11.546690001182782
 30
0.0
 11
-3.1835575800471929
 21
21.81794000236556
 31
0.0
  0
LINE
  5
F4
100
AcDbEntity
  8
Dimension
370
              -2
390
0
  6
Continuous
 62
               0
100
AcDbLine
 10
-4.4335575800471929
 20
12.796690001182782
 30
0.0
 11
-4.4335575800471929
 21
21.81794000236556
 31
0.0
  0
LINE
  5
F5
100
AcDbEntity
  8
Dimension
370
              -2
390
0
  6
Continuous
 62
               0
100
AcDbLine
 10
-4.4335575800471929
 20
20.865440000000007
 30
0.0
 11
-3.1835575800471929
 21
20.865440000000007
 31
0.0
  0
LINE
  5
F6
100
AcDbEntity
  8
Dimension
370
              -2
390
0
  6
Continuous
 62
               0
100
AcDbLine
 10
-3.1835575800471929
 20
20.865440000000007
 30
0.0
 11
-1.1910575800472003
 21
20.865440000000007
 31
0.0
  0
SOLID
  5
F7
100
AcDbEntity
  8
Dimension
370
              -2
390
0
 62
               0
100
AcDbTrace
 10
-3.1835575800471929
 20
20.865440000000007
 30
0.0
 11
-2.3898075800471927
 21
21.078124671492212
 31
0.0
 12
-2.3898075800471927
 22
20.652755328507801
 32
0.0
 13
-2.3898075800471927
 23
20.652755328507801
 33
0.0
  0
LINE
  5
F8
100
AcDbEntity
  8
Dimension
370
              -2
390
0
  6
Continuous
 62
               0
100
AcDbLine
 10
-4.4335575800471929
 20
20.865440000000007
 30
0.0
 11
-6.1835540784140051
 21
20.865440000000007
 31
0.0
  0
SOLID
  5
F9
100
AcDbEntity
  8
Dimension
370
              -2
390
0
 62
               0
100
AcDbTrace
 10
-4.4335575800471929
 20
20.865440000000007
 30
0.0
 11
-5.2273075800471931
 21
20.652755328507801
 31
0.0
 12
-5.2273075800471931
 22
21.078124671492212
 32
0.0
 13
-5.2273075800471931
 23
21.078124671492212
 33
0.0
  0
WIPEOUT
  5
FA
100
AcDbEntity
  8
Dimension
370
              -2
390
0
  6
Continuous
 62
               0
 92
        0
100
AcDbWipeout
 90
        0
 10
-1.1910575800472003
 20
20.256902166666674
 30
0.0
 11
3.8523212485843232
 21
0.0
 31
0.0
 12
0.0
 22
3.8523212485843232
 32
0.0
 13
1.0
 23
1.0
340
0
 70
               7
280
               1
281
              50
282
              50
283
               0
360
0
 71
               2
 91
        5
 14
-0.5
 24
0.5
 14
0.5
 24
0.5
 14
0.5
 24
0.1840659380503998
 14
-0.5
 24
0.1840659380503998
 14
-0.5
 24
0.5
  0
MTEXT
  5
FB
100
AcDbEntity
  8
Dimension
390
0
 62
               0
100
AcDbMText
 10
-1.1910575800472003
 20
21.27940328645834
 30
0.0
 40
0.7579186197916666
 41
0.0
 71
               1
 72
               1
  1
1.25mm
  7
Helvetica
 73
               1
 44
0.9673603504928806
  0
WIPEOUT
  5
FC
100
AcDbEntity
  8
Dimension
370
              -2
390
0
  6
Continuous
 62
               0
 92
        0
100
AcDbWipeout
 90
        0
 10
2.6612636685371172
 20
20.256900500000011
 30
0.0
 11
5.0270675208833486
 21
0.0
 31
0.0
 12
0.0
 22
5.0270675208833486
 32
0.0
 13
1.0
 23
1.0
340
0
 70
               7
280
               1
281
              50
282
              50
283
               0
360
0
 71
               2
 91
        5
 14
-0.5
 24
0.5
 14
0.5
 24
0.5
 14
0.5
 24
0.2578947378478542
 14
-0.5
 24
0.2578947378478542
 14
-0.5
 24
0.5
  0
MTEXT
  5
FD
100
AcDbEntity
  8
Dimension
390
0
 62
               0
100
AcDbMText
 10
2.6612636685371172
 20
21.279401619791678
 30
0.0
 40
0.7579186197916666
 41
0.0
 71
               1
 72
               1
  1
±0.125mm
  7
Helvetica
 73
               1
 44
0.9673603504928806
  0
WIPEOUT
  5
FE
100
AcDbEntity
  8
Dimension
370
              -2
390
0
  6
Continuous
 62
               0
 92
        0
100
AcDbWipeout
 90
        0
 10
7.6883311894204667
 20
20.256898333333343
 30
0.0
 11
2.1060832593176109
 21
0.0
 31
0.0
 12
0.0
 22
2.1060832593176109
 32
0.0
 13
1.0
 23
1.0
340
0
 70
               7
280
               1
281
              50
282
              50
283
               0
360
0
 71
               2
 91
        5
 14
-0.5
 24
0.5
 14
0.5
 24
0.5
 14
0.5
 24
-0.0778894675453984
 14
-0.5
 24
-0.0778894675453984
 14
-0.5
 24
0.5
  0
MTEXT
  5
FF
100
AcDbEntity
  8
Dimension
390
0
 62
               0
100
AcDbMText
 10
7.6883311894204667
 20
21.27940267361112
 30
0.0
 40
0.7579210069444442
 41
0.0
 71
               1
 72
               1
  1
 (x4)
  7
Helvetica
 73
               1
 44
0.9673603504928806
  0
POINT
  5
100
100
AcDbEntity
  8
Defpoints
370
               0
390
0
 62
               0
100
AcDbPoint
 10
-4.4335575800471929
 20
12.320440000000005
 30
0.0
  0
POINT
  5
101
100
AcDbEntity
  8
Defpoints
370
               0
390
0
 62
               0
100
AcDbPoint
 10
-3.1835575800471929
 20
11.070440000000005
 30
0.0
  0
POINT
  5
102
100
AcDbEntity
  8
Defpoints
370
               0
390
0
 62
               0
100
AcDbPoint
 10
-3.1835575800471929
 20
20.865440000000007
 30
0.0
  0
ENDBLK
  5
103
100
AcDbEntity
  8
Dimension
390
0
100
AcDbBlockEnd
  0
BLOCK
  5
104
100
AcDbEntity
  8
Dimension
390
0
100
AcDbBlockBegin
  2
*D16
 70
               1
 10
0.0
 20
0.0
 30
0.0
  3
*D16
  1

  0
LINE
  5
105
100
AcDbEntity
  8
Dimension
370
              -2
390
0
  6
Continuous
 62
               0
100
AcDbLine
 10
-4.9098075812299697
 20
12.320440000000005
 30
0.0
 11
-15.743557582412748
 21
12.320440000000005
 31
0.0
  0
LINE
  5
106
100
AcDbEntity
  8
Dimension
370
              -2
390
0
  6
Continuous
 62
               0
100
AcDbLine
 10
-3.6598075812299697
 20
11.070440000000005
 30
0.0
 11
-15.743557582412748
 21
11.070440000000005
 31
0.0
  0
LINE
  5
107
100
AcDbEntity
  8
Dimension
370
              -2
390
0
  6
Continuous
 62
               0
100
AcDbLine
 10
-14.791057580047195
 20
11.070440000000005
 30
0.0
 11
-14.791057580047195
 21
12.320440000000005
 31
0.0
  0
LINE
  5
108
100
AcDbEntity
  8
Dimension
370
              -2
390
0
  6
Continuous
 62
               0
100
AcDbLine
 10
-14.791057580047195
 20
12.320440000000005
 30
0.0
 11
-14.791057580047195
 21
15.115440000000007
 31
0.0
  0
SOLID
  5
109
100
AcDbEntity
  8
Dimension
370
              -2
390
0
 62
               0
100
AcDbTrace
 10
-14.791057580047195
 20
12.320440000000005
 30
0.0
 11
-15.003742251539398
 21
13.114190000000004
 31
0.0
 12
-14.578372908554991
 22
13.114190000000004
 32
0.0
 13
-14.578372908554991
 23
13.114190000000004
 33
0.0
  0
LINE
  5
10A
100
AcDbEntity
  8
Dimension
370
              -2
390
0
  6
Continuous
 62
               0
100
AcDbLine
 10
-14.791057580047195
 20
11.070440000000005
 30
0.0
 11
-14.791057580047195
 21
9.3204435016331928
 31
0.0
  0
SOLID
  5
10B
100
AcDbEntity
  8
Dimension
370
              -2
390
0
 62
               0
100
AcDbTrace
 10
-14.791057580047195
 20
11.070440000000005
 30
0.0
 11
-14.578372908554991
 21
10.276690000000006
 31
0.0
 12
-15.003742251539398
 22
10.276690000000006
 32
0.0
 13
-15.003742251539398
 23
10.276690000000006
 33
0.0
  0
WIPEOUT
  5
10C
100
AcDbEntity
  8
Dimension
370
              -2
390
0
  6
Continuous
 62
               0
 92
        0
100
AcDbWipeout
 90
        0
 10
-20.283793594439835
 20
14.506902166666674
 30
0.0
 11
3.8523212485843246
 21
0.0
 31
0.0
 12
0.0
 22
3.8523212485843246
 32
0.0
 13
1.0
 23
1.0
340
0
 70
               7
280
               1
281
              50
282
              50
283
               0
360
0
 71
               2
 91
        5
 14
-0.5
 24
0.5
 14
0.5
 24
0.5
 14
0.5
 24
0.1840659380504
 14
-0.5
 24
0.1840659380504
 14
-0.5
 24
0.5
  0
MTEXT
  5
10D
100
AcDbEntity
  8
Dimension
390
0
 62
               0
100
AcDbMText
 10
-20.283793594439835
 20
15.52940328645834
 30
0.0
 40
0.7579186197916666
 41
0.0
 71
               1
 72
               1
  1
1.25mm
  7
Helvetica
 73
               1
 44
0.9673603504928806
  0
WIPEOUT
  5
10E
100
AcDbEntity
  8
Dimension
370
              -2
390
0
  6
Continuous
 62
               0
 92
        0
100
AcDbWipeout
 90
        0
 10
-16.431472345855511
 20
14.506900500000011
 30
0.0
 11
5.0270675208833495
 21
0.0
 31
0.0
 12
0.0
 22
5.0270675208833495
 32
0.0
 13
1.0
 23
1.0
340
0
 70
               7
280
               1
281
              50
282
              50
283
               0
360
0
 71
               2
 91
        5
 14
-0.5
 24
0.5
 14
0.5
 24
0.5
 14
0.5
 24
0.2578947378478543
 14
-0.5
 24
0.2578947378478543
 14
-0.5
 24
0.5
  0
MTEXT
  5
10F
100
AcDbEntity
  8
Dimension
390
0
 62
               0
100
AcDbMText
 10
-16.431472345855511
 20
15.529401619791678
 30
0.0
 40
0.7579186197916666
 41
0.0
 71
               1
 72
               1
  1
±0.125mm
  7
Helvetica
 73
               1
 44
0.9673603504928806
  0
WIPEOUT
  5
110
100
AcDbEntity
  8
Dimension
370
              -2
390
0
  6
Continuous
 62
               0
 92
        0
100
AcDbWipeout
 90
        0
 10
-11.404404824972161
 20
14.506898333333341
 30
0.0
 11
2.1060832593176109
 21
0.0
 31
0.0
 12
0.0
 22
2.1060832593176109
 32
0.0
 13
1.0
 23
1.0
340
0
 70
               7
280
               1
281
              50
282
              50
283
               0
360
0
 71
               2
 91
        5
 14
-0.5
 24
0.5
 14
0.5
 24
0.5
 14
0.5
 24
-0.0778894675453992
 14
-0.5
 24
-0.0778894675453992
 14
-0.5
 24
0.5
  0
MTEXT
  5
111
100
AcDbEntity
  8
Dimension
390
0
 62
               0
100
AcDbMText
 10
-11.404404824972161
 20
15.529402673611118
 30
0.0
 40
0.7579210069444442
 41
0.0
 71
               1
 72
               1
  1
 (x4)
  7
Helvetica
 73
               1
 44
0.9673603504928806
  0
POINT
  5
112
100
AcDbEntity
  8
Defpoints
370
               0
390
0
 62
               0
100
AcDbPoint
 10
-3.1835575800471929
 20
11.070440000000005
 30
0.0
  0
POINT
  5
113
100
AcDbEntity
  8
Defpoints
370
               0
390
0
 62
               0
100
AcDbPoint
 10
-4.4335575800471929
 20
12.320440000000005
 30
0.0
  0
POINT
  5
114
100
AcDbEntity
  8
Defpoints
370
               0
390
0
 62
               0
100
AcDbPoint
 10
-14.791057580047193
 20
12.320440000000005
 30
0.0
  0
ENDBLK
  5
115
100
AcDbEntity
  8
Dimension
390
0
100
AcDbBlockEnd
  0
BLOCK
  5
116
100
AcDbEntity
  8
Dimension
390
0
100
AcDbBlockBegin
  2
*D17
 70
               1
 10
0.0
 20
0.0
 30
0.0
  3
*D17
  1

  0
LINE
  5
117
100
AcDbEntity
  8
Dimension
370
              -2
390
0
  6
Continuous
 62
               0
100
AcDbLine
 10
10.300102419952808
 20
-1.9237499999999983
 30
0.0
 11
16.075525633287654
 21
-3.973036693391478
 31
0.0
  0
SOLID
  5
118
100
AcDbEntity
  8
Dimension
370
              -2
390
0
 62
               0
100
AcDbTrace
 10
10.300102419952808
 20
-1.9237499999999983
 30
0.0
 11
10.845718153507935
 21
-1.9714851913274531
 31
0.0
 12
10.748751910252302
 22
-2.2378977551216486
 32
0.0
 13
10.748751910252302
 23
-2.2378977551216486
 33
0.0
  0
LINE
  5
119
100
AcDbEntity
  8
Dimension
370
              -2
390
0
  6
Continuous
 62
               0
100
AcDbLine
 10
16.075525633287654
 20
-3.973036693391478
 30
0.0
 11
17.575522635267149
 21
-3.973036693391478
 31
0.0
  0
WIPEOUT
  5
11A
100
AcDbEntity
  8
Dimension
370
              -2
390
0
  6
Continuous
 62
               0
 92
        0
100
AcDbWipeout
 90
        0
 10
15.649362010974997
 20
-4.5815747767248096
 30
0.0
 11
4.9741509887907256
 21
0.0
 31
0.0
 12
0.0
 22
4.9741509887907256
 32
0.0
 13
1.0
 23
1.0
340
0
 70
               7
280
               1
281
              50
282
              50
283
               0
360
0
 71
               2
 91
        5
 14
-0.5
 24
0.5
 14
0.5
 24
0.5
 14
0.5
 24
0.2553191483847808
 14
-0.5
 24
0.2553191483847808
 14
-0.5
 24
0.5
  0
MTEXT
  5
11B
100
AcDbEntity
  8
Dimension
390
0
 62
               0
100
AcDbMText
 10
15.649362010974997
 20
-3.5590736569331431
 30
0.0
 40
0.7579186197916666
 41
0.0
 71
               1
 72
               1
  1
Ø 1.61mm
  7
Helvetica
 73
               1
 44
0.9673603504928806
  0
WIPEOUT
  5
11C
100
AcDbEntity
  8
Dimension
370
              -2
390
0
  6
Continuous
 62
               0
 92
        0
100
AcDbWipeout
 90
        0
 10
20.623512999765715
 20
-4.0193385267248116
 30
0.0
 11
1.2170794999999996
 21
0.0
 31
0.0
 12
0.0
 22
1.2170794999999996
 32
0.0
 13
1.0
 23
1.0
340
0
 70
               7
280
               1
281
              50
282
              50
283
               0
360
0
 71
               2
 91
        5
 14
-0.5
 24
0.5
 14
0.0043478278911346
 24
0.5
 14
0.0043478278911346
 24
-0.5
 14
-0.5
 24
-0.5
 14
-0.5
 24
0.5
  0
MTEXT
  5
11D
100
AcDbEntity
  8
Dimension
390
0
 62
               0
100
AcDbMText
 10
20.930428700863629
 20
-2.9968374069331452
 30
0.0
 40
0.7579186197916666
 41
0.0
 71
               2
 72
               1
  1
+
  7
Helvetica
 73
               1
 44
0.9673603504928806
  0
WIPEOUT
  5
11E
100
AcDbEntity
  8
Dimension
370
              -2
390
0
  6
Continuous
 62
               0
 92
        0
100
AcDbWipeout
 90
        0
 10
20.755804245888502
 20
-5.1438143600581467
 30
0.0
 11
1.2170794999999996
 21
0.0
 31
0.0
 12
0.0
 22
1.2170794999999996
 32
0.0
 13
1.0
 23
1.0
340
0
 70
               7
280
               1
281
              50
282
              50
283
               0
360
0
 71
               2
 91
        5
 14
-0.5
 24
0.5
 14
-0.2130434700853519
 24
0.5
 14
-0.2130434700853519
 24
-0.5
 14
-0.5
 24
-0.5
 14
-0.5
 24
0.5
  0
MTEXT
  5
11F
100
AcDbEntity
  8
Dimension
390
0
 62
               0
100
AcDbMText
 10
20.930428700863629
 20
-4.1213132402664803
 30
0.0
 40
0.7579186197916666
 41
0.0
 71
               2
 72
               1
  1
-
  7
Helvetica
 73
               1
 44
0.9673603504928806
  0
WIPEOUT
  5
120
100
AcDbEntity
  8
Dimension
370
              -2
390
0
  6
Continuous
 62
               0
 92
        0
100
AcDbWipeout
 90
        0
 10
21.23734440196155
 20
-4.0193385267248116
 30
0.0
 11
3.8523212485843246
 21
0.0
 31
0.0
 12
0.0
 22
3.8523212485843246
 32
0.0
 13
1.0
 23
1.0
340
0
 70
               7
280
               1
281
              50
282
              50
283
               0
360
0
 71
               2
 91
        5
 14
-0.5
 24
0.5
 14
0.5
 24
0.5
 14
0.5
 24
0.1840659380504002
 14
-0.5
 24
0.1840659380504002
 14
-0.5
 24
0.5
  0
MTEXT
  5
121
100
AcDbEntity
  8
Dimension
390
0
 62
               0
100
AcDbMText
 10
21.23734440196155
 20
-2.9968374069331452
 30
0.0
 40
0.7579186197916666
 41
0.0
 71
               1
 72
               1
  1
0.05mm
  7
Helvetica
 73
               1
 44
0.9673603504928806
  0
WIPEOUT
  5
122
100
AcDbEntity
  8
Dimension
370
              -2
390
0
  6
Continuous
 62
               0
 92
        0
100
AcDbWipeout
 90
        0
 10
21.23734440196155
 20
-5.1438143600581467
 30
0.0
 11
3.8523212485843246
 21
0.0
 31
0.0
 12
0.0
 22
3.8523212485843246
 32
0.0
 13
1.0
 23
1.0
340
0
 70
               7
280
               1
281
              50
282
              50
283
               0
360
0
 71
               2
 91
        5
 14
-0.5
 24
0.5
 14
0.5
 24
0.5
 14
0.5
 24
0.1840659380504002
 14
-0.5
 24
0.1840659380504002
 14
-0.5
 24
0.5
  0
MTEXT
  5
123
100
AcDbEntity
  8
Dimension
390
0
 62
               0
100
AcDbMText
 10
21.23734440196155
 20
-4.1213132402664803
 30
0.0
 40
0.7579186197916666
 41
0.0
 71
               1
 72
               1
  1
0.05mm
  7
Helvetica
 73
               1
 44
0.9673603504928806
  0
WIPEOUT
  5
124
100
AcDbEntity
  8
Dimension
370
              -2
390
0
  6
Continuous
 62
               0
 92
        0
100
AcDbWipeout
 90
        0
 10
25.089665650545868
 20
-4.581578610058143
 30
0.0
 11
2.1060832593176109
 21
0.0
 31
0.0
 12
0.0
 22
2.1060832593176109
 32
0.0
 13
1.0
 23
1.0
340
0
 70
               7
280
               1
281
              50
282
              50
283
               0
360
0
 71
               2
 91
        5
 14
-0.5
 24
0.5
 14
0.5
 24
0.5
 14
0.5
 24
-0.0778894675453992
 14
-0.5
 24
-0.0778894675453992
 14
-0.5
 24
0.5
  0
MTEXT
  5
125
100
AcDbEntity
  8
Dimension
390
0
 62
               0
100
AcDbMText
 10
25.089665650545868
 20
-3.5590742697803655
 30
0.0
 40
0.7579210069444442
 41
0.0
 71
               1
 72
               1
  1
 (x4)
  7
Helvetica
 73
               1
 44
0.9673603504928806
  0
POINT
  5
126
100
AcDbEntity
  8
Defpoints
370
               0
390
0
 62
               0
100
AcDbPoint
 10
8.7827824199528095
 20
-1.3853699999999947
 30
0.0
  0
POINT
  5
127
100
AcDbEntity
  8
Defpoints
370
               0
390
0
 62
               0
100
AcDbPoint
 10
10.300102419952808
 20
-1.9237499999999983
 30
0.0
  0
ENDBLK
  5
128
100
AcDbEntity
  8
Dimension
390
0
100
AcDbBlockEnd
  0
BLOCK
  5
129
100
AcDbEntity
  8
Dimension
390
0
100
AcDbBlockBegin
  2
*D18
 70
               1
 10
0.0
 20
0.0
 30
0.0
  3
*D18
  1

  0
LINE
  5
12A
100
AcDbEntity
  8
Dimension
370
              -2
390
0
  6
Continuous
 62
               0
100
AcDbLine
 10
9.877762419952802
 20
8.2706100000000049
 30
0.0
 11
14.608948465653953
 21
4.6154361733106271
 31
0.0
  0
SOLID
  5
12B
100
AcDbEntity
  8
Dimension
370
              -2
390
0
 62
               0
100
AcDbTrace
 10
9.877762419952802
 20
8.2706100000000049
 30
0.0
 11
10.381922833393643
 21
8.0566066011645461
 31
0.0
 12
10.207376446157307
 22
7.8331974133918632
 32
0.0
 13
10.207376446157307
 23
7.8331974133918632
 33
0.0
  0
LINE
  5
12C
100
AcDbEntity
  8
Dimension
370
              -2
390
0
  6
Continuous
 62
               0
100
AcDbLine
 10
14.608948465653953
 20
4.6154361733106271
 30
0.0
 11
16.108945467633447
 21
4.6154361733106271
 31
0.0
  0
WIPEOUT
  5
12D
100
AcDbEntity
  8
Dimension
370
              -2
390
0
  6
Continuous
 62
               0
 92
        0
100
AcDbWipeout
 90
        0
 10
13.886452465483657
 20
4.0068980899772955
 30
0.0
 11
4.9741509887907256
 21
0.0
 31
0.0
 12
0.0
 22
4.9741509887907256
 32
0.0
 13
1.0
 23
1.0
340
0
 70
               7
280
               1
281
              50
282
              50
283
               0
360
0
 71
               2
 91
        5
 14
-0.5
 24
0.5
 14
0.5
 24
0.5
 14
0.5
 24
0.2553191483847808
 14
-0.5
 24
0.2553191483847808
 14
-0.5
 24
0.5
  0
MTEXT
  5
12E
100
AcDbEntity
  8
Dimension
390
0
 62
               0
100
AcDbMText
 10
13.886452465483657
 20
5.0293992097689619
 30
0.0
 40
0.7579186197916666
 41
0.0
 71
               1
 72
               1
  1
Ø 0.85mm
  7
Helvetica
 73
               1
 44
0.9673603504928806
  0
WIPEOUT
  5
12F
100
AcDbEntity
  8
Dimension
370
              -2
390
0
  6
Continuous
 62
               0
 92
        0
100
AcDbWipeout
 90
        0
 10
18.860603454274376
 20
4.5691343399772935
 30
0.0
 11
1.2170794999999996
 21
0.0
 31
0.0
 12
0.0
 22
1.2170794999999996
 32
0.0
 13
1.0
 23
1.0
340
0
 70
               7
280
               1
281
              50
282
              50
283
               0
360
0
 71
               2
 91
        5
 14
-0.5
 24
0.5
 14
0.0043478278911346
 24
0.5
 14
0.0043478278911346
 24
-0.5
 14
-0.5
 24
-0.5
 14
-0.5
 24
0.5
  0
MTEXT
  5
130
100
AcDbEntity
  8
Dimension
390
0
 62
               0
100
AcDbMText
 10
19.16751915537229
 20
5.5916354597689599
 30
0.0
 40
0.7579186197916666
 41
0.0
 71
               2
 72
               1
  1
+
  7
Helvetica
 73
               1
 44
0.9673603504928806
  0
WIPEOUT
  5
131
100
AcDbEntity
  8
Dimension
370
              -2
390
0
  6
Continuous
 62
               0
 92
        0
100
AcDbWipeout
 90
        0
 10
18.992894700397162
 20
3.4446585066439583
 30
0.0
 11
1.2170794999999996
 21
0.0
 31
0.0
 12
0.0
 22
1.2170794999999996
 32
0.0
 13
1.0
 23
1.0
340
0
 70
               7
280
               1
281
              50
282
              50
283
               0
360
0
 71
               2
 91
        5
 14
-0.5
 24
0.5
 14
-0.2130434700853519
 24
0.5
 14
-0.2130434700853519
 24
-0.5
 14
-0.5
 24
-0.5
 14
-0.5
 24
0.5
  0
MTEXT
  5
132
100
AcDbEntity
  8
Dimension
390
0
 62
               0
100
AcDbMText
 10
19.16751915537229
 20
4.4671596264356248
 30
0.0
 40
0.7579186197916666
 41
0.0
 71
               2
 72
               1
  1
-
  7
Helvetica
 73
               1
 44
0.9673603504928806
  0
WIPEOUT
  5
133
100
AcDbEntity
  8
Dimension
370
              -2
390
0
  6
Continuous
 62
               0
 92
        0
100
AcDbWipeout
 90
        0
 10
19.474434856470211
 20
4.5691343399772935
 30
0.0
 11
4.4449860042995866
 21
0.0
 31
0.0
 12
0.0
 22
4.4449860042995866
 32
0.0
 13
1.0
 23
1.0
340
0
 70
               7
280
               1
281
              50
282
              50
283
               0
360
0
 71
               2
 91
        5
 14
-0.5
 24
0.5
 14
0.5
 24
0.5
 14
0.5
 24
0.2261904764553293
 14
-0.5
 24
0.2261904764553293
 14
-0.5
 24
0.5
  0
MTEXT
  5
134
100
AcDbEntity
  8
Dimension
390
0
 62
               0
100
AcDbMText
 10
19.474434856470211
 20
5.5916354597689599
 30
0.0
 40
0.7579186197916666
 41
0.0
 71
               1
 72
               1
  1
0.025mm
  7
Helvetica
 73
               1
 44
0.9673603504928806
  0
WIPEOUT
  5
135
100
AcDbEntity
  8
Dimension
370
              -2
390
0
  6
Continuous
 62
               0
 92
        0
100
AcDbWipeout
 90
        0
 10
19.474434856470211
 20
3.4446585066439583
 30
0.0
 11
4.4449860042995866
 21
0.0
 31
0.0
 12
0.0
 22
4.4449860042995866
 32
0.0
 13
1.0
 23
1.0
340
0
 70
               7
280
               1
281
              50
282
              50
283
               0
360
0
 71
               2
 91
        5
 14
-0.5
 24
0.5
 14
0.5
 24
0.5
 14
0.5
 24
0.2261904764553293
 14
-0.5
 24
0.2261904764553293
 14
-0.5
 24
0.5
  0
MTEXT
  5
136
100
AcDbEntity
  8
Dimension
390
0
 62
               0
100
AcDbMText
 10
19.474434856470211
 20
4.4671596264356248
 30
0.0
 40
0.7579186197916666
 41
0.0
 71
               1
 72
               1
  1
0.025mm
  7
Helvetica
 73
               1
 44
0.9673603504928806
  0
WIPEOUT
  5
137
100
AcDbEntity
  8
Dimension
370
              -2
390
0
  6
Continuous
 62
               0
 92
        0
100
AcDbWipeout
 90
        0
 10
23.91942086076979
 20
4.006894256643962
 30
0.0
 11
2.1060832593176109
 21
0.0
 31
0.0
 12
0.0
 22
2.1060832593176109
 32
0.0
 13
1.0
 23
1.0
340
0
 70
               7
280
               1
281
              50
282
              50
283
               0
360
0
 71
               2
 91
        5
 14
-0.5
 24
0.5
 14
0.5
 24
0.5
 14
0.5
 24
-0.0778894675453992
 14
-0.5
 24
-0.0778894675453992
 14
-0.5
 24
0.5
  0
MTEXT
  5
138
100
AcDbEntity
  8
Dimension
390
0
 62
               0
100
AcDbMText
 10
23.91942086076979
 20
5.0293985969217392
 30
0.0
 40
0.7579210069444442
 41
0.0
 71
               1
 72
               1
  1
 (x2)
  7
Helvetica
 73
               1
 44
0.9673603504928806
  0
POINT
  5
139
100
AcDbEntity
  8
Defpoints
370
               0
390
0
 62
               0
100
AcDbPoint
 10
9.205122419952815
 20
8.7902700000000067
 30
0.0
  0
POINT
  5
13A
100
AcDbEntity
  8
Defpoints
370
               0
390
0
 62
               0
100
AcDbPoint
 10
9.877762419952802
 20
8.2706100000000049
 30
0.0
  0
ENDBLK
  5
13B
100
AcDbEntity
  8
Dimension
390
0
100
AcDbBlockEnd
  0
BLOCK
  5
13C
100
AcDbEntity
  8
None
390
0
100
AcDbBlockBegin
  2
Group-1
 70
               0
 10
0.0
 20
0.0
 30
0.0
  3
Group-1
  1

  0
POLYLINE
  5
13D
102
{ACAD_REACTORS
330
144
102
}
100
AcDbEntity
  8
None
370
              15
390
0
  6
Continuous
 62
               7
100
AcDb2dPolyline
 66
               1
 10
0.0
 20
0.0
 30
0.0
 70
               1
 75
               5
  0
VERTEX
  5
13E
100
AcDbEntity
  8
None
370
              15
390
0
  6
Continuous
 62
               7
100
AcDbVertex
100
AcDb2dVertex
 10
-0.5710575800471958
 20
8.8279399999999981
 30
0.0
  0
VERTEX
  5
13F
100
AcDbEntity
  8
None
370
              15
390
0
  6
Continuous
 62
               7
100
AcDbVertex
100
AcDb2dVertex
 10
-0.3610575800471878
 20
8.8279399999999981
 30
0.0
  0
VERTEX
  5
140
100
AcDbEntity
  8
None
370
              15
390
0
  6
Continuous
 62
               7
100
AcDbVertex
100
AcDb2dVertex
 10
-0.3610575800471878
 20
9.8879400000000004
 30
0.0
  0
VERTEX
  5
141
100
AcDbEntity
  8
None
370
              15
390
0
  6
Continuous
 62
               7
100
AcDbVertex
100
AcDb2dVertex
 10
-0.7810575800471895
 20
9.8879400000000004
 30
0.0
  0
VERTEX
  5
142
100
AcDbEntity
  8
None
370
              15
390
0
  6
Continuous
 62
               7
100
AcDbVertex
100
AcDb2dVertex
 10
-0.7810575800471895
 20
9.0379400000000061
 30
0.0
  0
SEQEND
  5
143
100
AcDbEntity
  8
None
370
              15
390
0
  6
Continuous
 62
               7
  0
HATCH
  5
144
100
AcDbEntity
  8
None
370
               0
390
0
  6
Continuous
 62
               7
100
AcDbHatch
 10
0.0
 20
0.0
 30
0.0
210
0.0
220
0.0
230
1.0
  2
SOLID
 70
               1
 71
               1
 91
        1
 92
        1
 93
        5
 72
               1
 10
-0.5710575800471958
 20
8.8279399999999981
 11
-0.3610575800471878
 21
8.8279399999999981
 72
               1
 10
-0.3610575800471878
 20
8.8279399999999981
 11
-0.3610575800471878
 21
9.8879400000000004
 72
               1
 10
-0.3610575800471878
 20
9.8879400000000004
 11
-0.7810575800471895
 21
9.8879400000000004
 72
               1
 10
-0.7810575800471895
 20
9.8879400000000004
 11
-0.7810575800471895
 21
9.0379400000000061
 72
               1
 10
-0.7810575800471895
 20
9.0379400000000061
 11
-0.5710575800471958
 21
8.8279399999999981
 97
        1
330
13D
 75
               0
 76
               1
 98
        1
 10
0.0
 20
0.0
  0
POLYLINE
  5
145
102
{ACAD_REACTORS
330
14C
102
}
100
AcDbEntity
  8
None
370
              15
390
0
  6
Continuous
 62
               7
100
AcDb2dPolyline
 66
               1
 10
0.0
 20
0.0
 30
0.0
 70
               1
 75
               5
  0
VERTEX
  5
146
100
AcDbEntity
  8
None
370
              15
390
0
  6
Continuous
 62
               7
100
AcDbVertex
100
AcDb2dVertex
 10
-0.6910575800471861
 20
8.7079300000000046
 30
0.0
  0
VERTEX
  5
147
100
AcDbEntity
  8
None
370
              15
390
0
  6
Continuous
 62
               7
100
AcDbVertex
100
AcDb2dVertex
 10
-0.6910575800471861
 20
8.4979299999999967
 30
0.0
  0
VERTEX
  5
148
100
AcDbEntity
  8
None
370
              15
390
0
  6
Continuous
 62
               7
100
AcDbVertex
100
AcDb2dVertex
 10
-1.7510575800471884
 20
8.4979299999999967
 30
0.0
  0
VERTEX
  5
149
100
AcDbEntity
  8
None
370
              15
390
0
  6
Continuous
 62
               7
100
AcDbVertex
100
AcDb2dVertex
 10
-1.7510575800471884
 20
8.9179400000000015
 30
0.0
  0
VERTEX
  5
14A
100
AcDbEntity
  8
None
370
              15
390
0
  6
Continuous
 62
               7
100
AcDbVertex
100
AcDb2dVertex
 10
-0.9010575800471941
 20
8.9179400000000015
 30
0.0
  0
SEQEND
  5
14B
100
AcDbEntity
  8
None
370
              15
390
0
  6
Continuous
 62
               7
  0
HATCH
  5
14C
100
AcDbEntity
  8
None
370
               0
390
0
  6
Continuous
 62
               7
100
AcDbHatch
 10
0.0
 20
0.0
 30
0.0
210
0.0
220
0.0
230
1.0
  2
SOLID
 70
               1
 71
               1
 91
        1
 92
        1
 93
        5
 72
               1
 10
-0.6910575800471861
 20
8.7079300000000046
 11
-0.6910575800471861
 21
8.4979299999999967
 72
               1
 10
-0.6910575800471861
 20
8.4979299999999967
 11
-1.7510575800471884
 21
8.4979299999999967
 72
               1
 10
-1.7510575800471884
 20
8.4979299999999967
 11
-1.7510575800471884
 21
8.9179400000000015
 72
               1
 10
-1.7510575800471884
 20
8.9179400000000015
 11
-0.9010575800471941
 21
8.9179400000000015
 72
               1
 10
-0.9010575800471941
 20
8.9179400000000015
 11
-0.6910575800471861
 21
8.7079300000000046
 97
        1
330
145
 75
               0
 76
               1
 98
        1
 10
0.0
 20
0.0
  0
ENDBLK
  5
14D
100
AcDbEntity
  8
None
390
0
100
AcDbBlockEnd
  0
BLOCK
  5
14E
100
AcDbEntity
  8
None
390
0
100
AcDbBlockBegin
  2
Group-2
 70
               0
 10
0.0
 20
0.0
 30
0.0
  3
Group-2
  1

  0
POLYLINE
  5
14F
102
{ACAD_REACTORS
330
156
102
}
100
AcDbEntity
  8
None
370
              15
390
0
  6
Continuous
 62
               7
100
AcDb2dPolyline
 66
               1
 10
0.0
 20
0.0
 30
0.0
 70
               1
 75
               5
  0
VERTEX
  5
150
100
AcDbEntity
  8
None
370
              15
390
0
  6
Continuous
 62
               7
100
AcDbVertex
100
AcDb2dVertex
 10
7.4289424199528042
 20
8.8279399999999981
 30
0.0
  0
VERTEX
  5
151
100
AcDbEntity
  8
None
370
              15
390
0
  6
Continuous
 62
               7
100
AcDbVertex
100
AcDb2dVertex
 10
7.2189424199528105
 20
8.8279399999999981
 30
0.0
  0
VERTEX
  5
152
100
AcDbEntity
  8
None
370
              15
390
0
  6
Continuous
 62
               7
100
AcDbVertex
100
AcDb2dVertex
 10
7.2189424199528105
 20
9.8879400000000004
 30
0.0
  0
VERTEX
  5
153
100
AcDbEntity
  8
None
370
              15
390
0
  6
Continuous
 62
               7
100
AcDbVertex
100
AcDb2dVertex
 10
7.6389424199528122
 20
9.8879400000000004
 30
0.0
  0
VERTEX
  5
154
100
AcDbEntity
  8
None
370
              15
390
0
  6
Continuous
 62
               7
100
AcDbVertex
100
AcDb2dVertex
 10
7.6389424199528122
 20
9.0379400000000061
 30
0.0
  0
SEQEND
  5
155
100
AcDbEntity
  8
None
370
              15
390
0
  6
Continuous
 62
               7
  0
HATCH
  5
156
100
AcDbEntity
  8
None
370
               0
390
0
  6
Continuous
 62
               7
100
AcDbHatch
 10
0.0
 20
0.0
 30
0.0
210
0.0
220
0.0
230
1.0
  2
SOLID
 70
               1
 71
               1
 91
        1
 92
        1
 93
        5
 72
               1
 10
7.4289424199528042
 20
8.8279399999999981
 11
7.2189424199528105
 21
8.8279399999999981
 72
               1
 10
7.2189424199528105
 20
8.8279399999999981
 11
7.2189424199528105
 21
9.8879400000000004
 72
               1
 10
7.2189424199528105
 20
9.8879400000000004
 11
7.6389424199528122
 21
9.8879400000000004
 72
               1
 10
7.6389424199528122
 20
9.8879400000000004
 11
7.6389424199528122
 21
9.0379400000000061
 72
               1
 10
7.6389424199528122
 20
9.0379400000000061
 11
7.4289424199528042
 21
8.8279399999999981
 97
        1
330
14F
 75
               0
 76
               1
 98
        1
 10
0.0
 20
0.0
  0
POLYLINE
  5
157
102
{ACAD_REACTORS
330
15E
102
}
100
AcDbEntity
  8
None
370
              15
390
0
  6
Continuous
 62
               7
100
AcDb2dPolyline
 66
               1
 10
0.0
 20
0.0
 30
0.0
 70
               1
 75
               5
  0
VERTEX
  5
158
100
AcDbEntity
  8
None
370
              15
390
0
  6
Continuous
 62
               7
100
AcDbVertex
100
AcDb2dVertex
 10
7.5489424199528088
 20
8.7079300000000046
 30
0.0
  0
VERTEX
  5
159
100
AcDbEntity
  8
None
370
              15
390
0
  6
Continuous
 62
               7
100
AcDbVertex
100
AcDb2dVertex
 10
7.5489424199528088
 20
8.4979299999999967
 30
0.0
  0
VERTEX
  5
15A
100
AcDbEntity
  8
None
370
              15
390
0
  6
Continuous
 62
               7
100
AcDbVertex
100
AcDb2dVertex
 10
8.6089424199528111
 20
8.4979299999999967
 30
0.0
  0
VERTEX
  5
15B
100
AcDbEntity
  8
None
370
              15
390
0
  6
Continuous
 62
               7
100
AcDbVertex
100
AcDb2dVertex
 10
8.6089424199528111
 20
8.9179400000000015
 30
0.0
  0
VERTEX
  5
15C
100
AcDbEntity
  8
None
370
              15
390
0
  6
Continuous
 62
               7
100
AcDbVertex
100
AcDb2dVertex
 10
7.7589424199528025
 20
8.9179400000000015
 30
0.0
  0
SEQEND
  5
15D
100
AcDbEntity
  8
None
370
              15
390
0
  6
Continuous
 62
               7
  0
HATCH
  5
15E
100
AcDbEntity
  8
None
370
               0
390
0
  6
Continuous
 62
               7
100
AcDbHatch
 10
0.0
 20
0.0
 30
0.0
210
0.0
220
0.0
230
1.0
  2
SOLID
 70
               1
 71
               1
 91
        1
 92
        1
 93
        5
 72
               1
 10
7.5489424199528088
 20
8.7079300000000046
 11
7.5489424199528088
 21
8.4979299999999967
 72
               1
 10
7.5489424199528088
 20
8.4979299999999967
 11
8.6089424199528111
 21
8.4979299999999967
 72
               1
 10
8.6089424199528111
 20
8.4979299999999967
 11
8.6089424199528111
 21
8.9179400000000015
 72
               1
 10
8.6089424199528111
 20
8.9179400000000015
 11
7.7589424199528025
 21
8.9179400000000015
 72
               1
 10
7.7589424199528025
 20
8.9179400000000015
 11
7.5489424199528088
 21
8.7079300000000046
 97
        1
330
157
 75
               0
 76
               1
 98
        1
 10
0.0
 20
0.0
  0
ENDBLK
  5
15F
100
AcDbEntity
  8
None
390
0
100
AcDbBlockEnd
  0
BLOCK
  5
160
100
AcDbEntity
  8
None
390
0
100
AcDbBlockBegin
  2
Group-3
 70
               0
 10
0.0
 20
0.0
 30
0.0
  3
Group-3
  1

  0
POLYLINE
  5
161
102
{ACAD_REACTORS
330
168
102
}
100
AcDbEntity
  8
None
370
              15
390
0
  6
Continuous
 62
               7
100
AcDb2dPolyline
 66
               1
 10
0.0
 20
0.0
 30
0.0
 70
               1
 75
               5
  0
VERTEX
  5
162
100
AcDbEntity
  8
None
370
              15
390
0
  6
Continuous
 62
               7
100
AcDbVertex
100
AcDb2dVertex
 10
-0.5710575800471958
 20
0.5879300000000001
 30
0.0
  0
VERTEX
  5
163
100
AcDbEntity
  8
None
370
              15
390
0
  6
Continuous
 62
               7
100
AcDbVertex
100
AcDb2dVertex
 10
-0.3610575800471878
 20
0.5879300000000001
 30
0.0
  0
VERTEX
  5
164
100
AcDbEntity
  8
None
370
              15
390
0
  6
Continuous
 62
               7
100
AcDbVertex
100
AcDb2dVertex
 10
-0.3610575800471878
 20
-0.4720700000000022
 30
0.0
  0
VERTEX
  5
165
100
AcDbEntity
  8
None
370
              15
390
0
  6
Continuous
 62
               7
100
AcDbVertex
100
AcDb2dVertex
 10
-0.7810575800471895
 20
-0.4720700000000022
 30
0.0
  0
VERTEX
  5
166
100
AcDbEntity
  8
None
370
              15
390
0
  6
Continuous
 62
               7
100
AcDbVertex
100
AcDb2dVertex
 10
-0.7810575800471895
 20
0.3779300000000063
 30
0.0
  0
SEQEND
  5
167
100
AcDbEntity
  8
None
370
              15
390
0
  6
Continuous
 62
               7
  0
HATCH
  5
168
100
AcDbEntity
  8
None
370
               0
390
0
  6
Continuous
 62
               7
100
AcDbHatch
 10
0.0
 20
0.0
 30
0.0
210
0.0
220
0.0
230
1.0
  2
SOLID
 70
               1
 71
               1
 91
        1
 92
        1
 93
        5
 72
               1
 10
-0.5710575800471958
 20
0.5879300000000001
 11
-0.3610575800471878
 21
0.5879300000000001
 72
               1
 10
-0.3610575800471878
 20
0.5879300000000001
 11
-0.3610575800471878
 21
-0.4720700000000022
 72
               1
 10
-0.3610575800471878
 20
-0.4720700000000022
 11
-0.7810575800471895
 21
-0.4720700000000022
 72
               1
 10
-0.7810575800471895
 20
-0.4720700000000022
 11
-0.7810575800471895
 21
0.3779300000000063
 72
               1
 10
-0.7810575800471895
 20
0.3779300000000063
 11
-0.5710575800471958
 21
0.5879300000000001
 97
        1
330
161
 75
               0
 76
               1
 98
        1
 10
0.0
 20
0.0
  0
POLYLINE
  5
169
102
{ACAD_REACTORS
330
170
102
}
100
AcDbEntity
  8
None
370
              15
390
0
  6
Continuous
 62
               7
100
AcDb2dPolyline
 66
               1
 10
0.0
 20
0.0
 30
0.0
 70
               1
 75
               5
  0
VERTEX
  5
16A
100
AcDbEntity
  8
None
370
              15
390
0
  6
Continuous
 62
               7
100
AcDbVertex
100
AcDb2dVertex
 10
-0.6910575800471861
 20
0.7079400000000078
 30
0.0
  0
VERTEX
  5
16B
100
AcDbEntity
  8
None
370
              15
390
0
  6
Continuous
 62
               7
100
AcDbVertex
100
AcDb2dVertex
 10
-0.6910575800471861
 20
0.9179400000000015
 30
0.0
  0
VERTEX
  5
16C
100
AcDbEntity
  8
None
370
              15
390
0
  6
Continuous
 62
               7
100
AcDbVertex
100
AcDb2dVertex
 10
-1.7510575800471884
 20
0.9179400000000015
 30
0.0
  0
VERTEX
  5
16D
100
AcDbEntity
  8
None
370
              15
390
0
  6
Continuous
 62
               7
100
AcDbVertex
100
AcDb2dVertex
 10
-1.7510575800471884
 20
0.4979299999999967
 30
0.0
  0
VERTEX
  5
16E
100
AcDbEntity
  8
None
370
              15
390
0
  6
Continuous
 62
               7
100
AcDbVertex
100
AcDb2dVertex
 10
-0.9010575800471941
 20
0.4979299999999967
 30
0.0
  0
SEQEND
  5
16F
100
AcDbEntity
  8
None
370
              15
390
0
  6
Continuous
 62
               7
  0
HATCH
  5
170
100
AcDbEntity
  8
None
370
               0
390
0
  6
Continuous
 62
               7
100
AcDbHatch
 10
0.0
 20
0.0
 30
0.0
210
0.0
220
0.0
230
1.0
  2
SOLID
 70
               1
 71
               1
 91
        1
 92
        1
 93
        5
 72
               1
 10
-0.6910575800471861
 20
0.7079400000000078
 11
-0.6910575800471861
 21
0.9179400000000015
 72
               1
 10
-0.6910575800471861
 20
0.9179400000000015
 11
-1.7510575800471884
 21
0.9179400000000015
 72
               1
 10
-1.7510575800471884
 20
0.9179400000000015
 11
-1.7510575800471884
 21
0.4979299999999967
 72
               1
 10
-1.7510575800471884
 20
0.4979299999999967
 11
-0.9010575800471941
 21
0.4979299999999967
 72
               1
 10
-0.9010575800471941
 20
0.4979299999999967
 11
-0.6910575800471861
 21
0.7079400000000078
 97
        1
330
169
 75
               0
 76
               1
 98
        1
 10
0.0
 20
0.0
  0
ENDBLK
  5
171
100
AcDbEntity
  8
None
390
0
100
AcDbBlockEnd
  0
BLOCK
  5
172
100
AcDbEntity
  8
None
390
0
100
AcDbBlockBegin
  2
Group-4
 70
               0
 10
0.0
 20
0.0
 30
0.0
  3
Group-4
  1

  0
POLYLINE
  5
173
102
{ACAD_REACTORS
330
17A
102
}
100
AcDbEntity
  8
None
370
              15
390
0
  6
Continuous
 62
               7
100
AcDb2dPolyline
 66
               1
 10
0.0
 20
0.0
 30
0.0
 70
               1
 75
               5
  0
VERTEX
  5
174
100
AcDbEntity
  8
None
370
              15
390
0
  6
Continuous
 62
               7
100
AcDbVertex
100
AcDb2dVertex
 10
7.4289424199528042
 20
0.5879400000000032
 30
0.0
  0
VERTEX
  5
175
100
AcDbEntity
  8
None
370
              15
390
0
  6
Continuous
 62
               7
100
AcDbVertex
100
AcDb2dVertex
 10
7.2189424199528105
 20
0.5879400000000032
 30
0.0
  0
VERTEX
  5
176
100
AcDbEntity
  8
None
370
              15
390
0
  6
Continuous
 62
               7
100
AcDbVertex
100
AcDb2dVertex
 10
7.2189424199528105
 20
-0.472059999999999
 30
0.0
  0
VERTEX
  5
177
100
AcDbEntity
  8
None
370
              15
390
0
  6
Continuous
 62
               7
100
AcDbVertex
100
AcDb2dVertex
 10
7.6389424199528122
 20
-0.472059999999999
 30
0.0
  0
VERTEX
  5
178
100
AcDbEntity
  8
None
370
              15
390
0
  6
Continuous
 62
               7
100
AcDbVertex
100
AcDb2dVertex
 10
7.6389424199528122
 20
0.3779300000000063
 30
0.0
  0
SEQEND
  5
179
100
AcDbEntity
  8
None
370
              15
390
0
  6
Continuous
 62
               7
  0
HATCH
  5
17A
100
AcDbEntity
  8
None
370
               0
390
0
  6
Continuous
 62
               7
100
AcDbHatch
 10
0.0
 20
0.0
 30
0.0
210
0.0
220
0.0
230
1.0
  2
SOLID
 70
               1
 71
               1
 91
        1
 92
        1
 93
        5
 72
               1
 10
7.4289424199528042
 20
0.5879400000000032
 11
7.2189424199528105
 21
0.5879400000000032
 72
               1
 10
7.2189424199528105
 20
0.5879400000000032
 11
7.2189424199528105
 21
-0.472059999999999
 72
               1
 10
7.2189424199528105
 20
-0.472059999999999
 11
7.6389424199528122
 21
-0.472059999999999
 72
               1
 10
7.6389424199528122
 20
-0.472059999999999
 11
7.6389424199528122
 21
0.3779300000000063
 72
               1
 10
7.6389424199528122
 20
0.3779300000000063
 11
7.4289424199528042
 21
0.5879400000000032
 97
        1
330
173
 75
               0
 76
               1
 98
        1
 10
0.0
 20
0.0
  0
POLYLINE
  5
17B
102
{ACAD_REACTORS
330
182
102
}
100
AcDbEntity
  8
None
370
              15
390
0
  6
Continuous
 62
               7
100
AcDb2dPolyline
 66
               1
 10
0.0
 20
0.0
 30
0.0
 70
               1
 75
               5
  0
VERTEX
  5
17C
100
AcDbEntity
  8
None
370
              15
390
0
  6
Continuous
 62
               7
100
AcDbVertex
100
AcDb2dVertex
 10
7.5489424199528088
 20
0.7079400000000078
 30
0.0
  0
VERTEX
  5
17D
100
AcDbEntity
  8
None
370
              15
390
0
  6
Continuous
 62
               7
100
AcDbVertex
100
AcDb2dVertex
 10
7.5489424199528088
 20
0.9179400000000015
 30
0.0
  0
VERTEX
  5
17E
100
AcDbEntity
  8
None
370
              15
390
0
  6
Continuous
 62
               7
100
AcDbVertex
100
AcDb2dVertex
 10
8.6089424199528111
 20
0.9179400000000015
 30
0.0
  0
VERTEX
  5
17F
100
AcDbEntity
  8
None
370
              15
390
0
  6
Continuous
 62
               7
100
AcDbVertex
100
AcDb2dVertex
 10
8.6089424199528111
 20
0.4979399999999998
 30
0.0
  0
VERTEX
  5
180
100
AcDbEntity
  8
None
370
              15
390
0
  6
Continuous
 62
               7
100
AcDbVertex
100
AcDb2dVertex
 10
7.7589424199528025
 20
0.4979399999999998
 30
0.0
  0
SEQEND
  5
181
100
AcDbEntity
  8
None
370
              15
390
0
  6
Continuous
 62
               7
  0
HATCH
  5
182
100
AcDbEntity
  8
None
370
               0
390
0
  6
Continuous
 62
               7
100
AcDbHatch
 10
0.0
 20
0.0
 30
0.0
210
0.0
220
0.0
230
1.0
  2
SOLID
 70
               1
 71
               1
 91
        1
 92
        1
 93
        5
 72
               1
 10
7.5489424199528088
 20
0.7079400000000078
 11
7.5489424199528088
 21
0.9179400000000015
 72
               1
 10
7.5489424199528088
 20
0.9179400000000015
 11
8.6089424199528111
 21
0.9179400000000015
 72
               1
 10
8.6089424199528111
 20
0.9179400000000015
 11
8.6089424199528111
 21
0.4979399999999998
 72
               1
 10
8.6089424199528111
 20
0.4979399999999998
 11
7.7589424199528025
 21
0.4979399999999998
 72
               1
 10
7.7589424199528025
 20
0.4979399999999998
 11
7.5489424199528088
 21
0.7079400000000078
 97
        1
330
17B
 75
               0
 76
               1
 98
        1
 10
0.0
 20
0.0
  0
ENDBLK
  5
183
100
AcDbEntity
  8
None
390
0
100
AcDbBlockEnd
  0
BLOCK
  5
184
100
AcDbEntity
  8
Dimension
390
0
100
AcDbBlockBegin
  2
*D23
 70
               1
 10
0.0
 20
0.0
 30
0.0
  3
*D23
  1

  0
LINE
  5
185
100
AcDbEntity
  8
Dimension
370
              -2
390
0
  6
Continuous
 62
               0
100
AcDbLine
 10
5.0289424199528128
 20
10.364190001182777
 30
0.0
 11
5.0289424199528128
 21
15.127000002365563
 31
0.0
  0
LINE
  5
186
100
AcDbEntity
  8
Dimension
370
              -2
390
0
  6
Continuous
 62
               0
100
AcDbLine
 10
5.8289424199528099
 20
10.364190001182777
 30
0.0
 11
5.8289424199528099
 21
15.127000002365548
 31
0.0
  0
LINE
  5
187
100
AcDbEntity
  8
Dimension
370
              -2
390
0
  6
Continuous
 62
               0
100
AcDbLine
 10
5.8289424199528099
 20
14.174499999999995
 30
0.0
 11
5.0289424199528128
 21
14.174499999999995
 31
0.0
  0
LINE
  5
188
100
AcDbEntity
  8
Dimension
370
              -2
390
0
  6
Continuous
 62
               0
100
AcDbLine
 10
5.0289424199528128
 20
14.174499999999995
 30
0.0
 11
3.2789459215860006
 21
14.174499999999995
 31
0.0
  0
SOLID
  5
189
100
AcDbEntity
  8
Dimension
370
              -2
390
0
 62
               0
100
AcDbTrace
 10
5.0289424199528128
 20
14.174499999999995
 30
0.0
 11
4.2351924199528126
 21
13.961815328507791
 31
0.0
 12
4.2351924199528126
 22
14.387184671492198
 32
0.0
 13
4.2351924199528126
 23
14.387184671492198
 33
0.0
  0
LINE
  5
18A
100
AcDbEntity
  8
Dimension
370
              -2
390
0
  6
Continuous
 62
               0
100
AcDbLine
 10
5.8289424199528099
 20
14.174499999999995
 30
0.0
 11
8.2579224199528056
 21
14.174499999999995
 31
0.0
  0
SOLID
  5
18B
100
AcDbEntity
  8
Dimension
370
              -2
390
0
 62
               0
100
AcDbTrace
 10
5.8289424199528099
 20
14.174499999999995
 30
0.0
 11
6.6226924199528101
 21
14.387184671492198
 31
0.0
 12
6.6226924199528101
 22
13.961815328507791
 32
0.0
 13
6.6226924199528101
 23
13.961815328507791
 33
0.0
  0
WIPEOUT
  5
18C
100
AcDbEntity
  8
Dimension
370
              -2
390
0
  6
Continuous
 62
               0
 92
        0
100
AcDbWipeout
 90
        0
 10
8.2579224199528056
 20
13.565960249999986
 30
0.0
 11
5.2599001275168504
 21
0.0
 31
0.0
 12
0.0
 22
5.2599001275168504
 32
0.0
 13
1.0
 23
1.0
340
0
 70
               7
280
               1
281
              50
282
              50
283
               0
360
0
 71
               2
 91
        5
 14
-0.5
 24
0.5
 14
0.5
 24
0.5
 14
0.5
 24
0.2686116712306147
 14
-0.5
 24
0.2686116712306147
 14
-0.5
 24
0.5
  0
MTEXT
  5
18D
100
AcDbEntity
  8
Dimension
390
0
 62
               0
100
AcDbMText
 10
8.2579224199528056
 20
14.588461369791652
 30
0.0
 40
0.7579186197916666
 41
0.0
 71
               1
 72
               1
  1
0.8mm typ.
  7
Helvetica
 73
               1
 44
0.9673603504928806
  0
POINT
  5
18E
100
AcDbEntity
  8
Defpoints
370
               0
390
0
 62
               0
100
AcDbPoint
 10
5.8289424199528099
 20
9.8879400000000004
 30
0.0
  0
POINT
  5
18F
100
AcDbEntity
  8
Defpoints
370
               0
390
0
 62
               0
100
AcDbPoint
 10
5.0289424199528128
 20
9.8879400000000004
 30
0.0
  0
POINT
  5
190
100
AcDbEntity
  8
Defpoints
370
               0
390
0
 62
               0
100
AcDbPoint
 10
5.0289424199528128
 20
14.1745
 30
0.0
  0
ENDBLK
  5
191
100
AcDbEntity
  8
Dimension
390
0
100
AcDbBlockEnd
  0
ENDSEC
  0
SECTION
  2
ENTITIES
  0
WIPEOUT
  5
192
100
AcDbEntity
  8
None
370
               9
390
0
  6
STYLE_11
 62
               7
 92
        0
100
AcDbWipeout
 90
        0
 10
-4.4335575800471929
 20
-2.9045599999999894
 30
0.0
 11
15.224999999999994
 21
0.0
 31
0.0
 12
0.0
 22
15.224999999999994
 32
0.0
 13
1.0
 23
1.0
340
0
 70
               7
280
               1
281
              50
282
              50
283
               0
360
0
 71
               2
 91
        5
 14
-0.5
 24
-0.5
 14
0.5
 24
-0.5
 14
0.5
 24
0.5
 14
-0.5
 24
0.5
 14
-0.5
 24
-0.5
  0
POLYLINE
  5
193
100
AcDbEntity
  8
None
370
               9
390
0
  6
STYLE_11
 62
               7
100
AcDb2dPolyline
 66
               1
 10
0.0
 20
0.0
 30
0.0
 70
               1
 75
               5
  0
VERTEX
  5
194
100
AcDbEntity
  8
None
370
               9
390
0
  6
STYLE_11
 62
               7
100
AcDbVertex
100
AcDb2dVertex
 10
-4.4335575800471929
 20
12.320440000000005
 30
0.0
  0
VERTEX
  5
195
100
AcDbEntity
  8
None
370
               9
390
0
  6
STYLE_11
 62
               7
100
AcDbVertex
100
AcDb2dVertex
 10
10.791442419952801
 20
12.320440000000005
 30
0.0
  0
VERTEX
  5
196
100
AcDbEntity
  8
None
370
               9
390
0
  6
STYLE_11
 62
               7
100
AcDbVertex
100
AcDb2dVertex
 10
10.791442419952801
 20
-2.9045599999999894
 30
0.0
  0
VERTEX
  5
197
100
AcDbEntity
  8
None
370
               9
390
0
  6
STYLE_11
 62
               7
100
AcDbVertex
100
AcDb2dVertex
 10
-4.4335575800471929
 20
-2.9045599999999894
 30
0.0
  0
SEQEND
  5
198
100
AcDbEntity
  8
None
370
               9
390
0
  6
STYLE_11
 62
               7
  0
CIRCLE
  5
199
100
AcDbEntity
  8
None
370
               9
390
0
  6
Continuous
 62
               7
100
AcDbCircle
 10
-3.1835575800471929
 20
11.070440000000005
 30
0.0
 40
0.8050000000000068
  0
CIRCLE
  5
19A
100
AcDbEntity
  8
None
370
               9
390
0
  6
Continuous
 62
               7
100
AcDbCircle
 10
9.5414424199528014
 20
8.5304399999999987
 30
0.0
 40
0.4249999999999972
  0
CIRCLE
  5
19B
100
AcDbEntity
  8
None
370
               9
390
0
  6
Continuous
 62
               7
100
AcDbCircle
 10
9.5414424199528014
 20
11.070440000000005
 30
0.0
 40
0.8049999999999926
  0
CIRCLE
  5
19C
100
AcDbEntity
  8
None
370
               9
390
0
  6
Continuous
 62
               7
100
AcDbCircle
 10
9.5414424199528014
 20
-1.6545599999999894
 30
0.0
 40
0.8049999999999926
  0
CIRCLE
  5
19D
100
AcDbEntity
  8
None
370
               9
390
0
  6
Continuous
 62
               7
100
AcDbCircle
 10
-3.1835575800471929
 20
3.4254400000000089
 30
0.0
 40
0.4250000000000114
  0
CIRCLE
  5
19E
100
AcDbEntity
  8
None
370
               9
390
0
  6
Continuous
 62
               7
100
AcDbCircle
 10
-3.1835575800471929
 20
-1.6545599999999894
 30
0.0
 40
0.8050000000000068
  0
CIRCLE
  5
19F
102
{ACAD_REACTORS
330
1A0
102
}
100
AcDbEntity
  8
None
370
               5
390
0
  6
Continuous
 62
               7
100
AcDbCircle
 10
-1.0585575800471929
 20
10.645440000000008
 30
0.0
 40
0.2124400000000009
  0
HATCH
  5
1A0
100
AcDbEntity
  8
None
370
               0
390
0
  6
Continuous
 62
               7
100
AcDbHatch
 10
0.0
 20
0.0
 30
0.0
210
0.0
220
0.0
230
1.0
  2
SOLID
 70
               1
 71
               1
 91
        1
 92
        1
 93
        1
 72
               2
 10
-1.0585575800471929
 20
10.645440000000008
 40
0.2124400000000009
 50
0.0
 51
360.0
 73
               0
 97
        1
330
19F
 75
               0
 76
               1
 98
        1
 10
0.0
 20
0.0
  0
DIMENSION
  5
1A1
100
AcDbEntity
  8
Dimension
370
               5
390
0
  6
Continuous
 62
               1
100
AcDbDimension
  2
*D3
 10
-25.94105758004719
 20
12.320440000000005
 30
0.0
 11
-25.94105758004719
 21
4.815501874389656
 31
0.0
 70
             128
 71
               5
 72
               1
 41
1.0
 42
0.0
  3
IE Standard
100
AcDbAlignedDimension
 13
-4.4335575800471929
 23
-2.9045599999999894
 33
0.0
 14
-4.4335575800471929
 24
12.320440000000005
 34
0.0
 50
90.0
100
AcDbRotatedDimension
1001
ACAD
1000
DSTYLE
1002
{
1070
             271
1070
               3
1070
             340
1005
39
1070
              71
1070
               1
1070
              47
1040
0.125
1070
              48
1040
0.125
1070
               3
1000
<>mm sqr.
1070
             147
1040
0.09921875
1002
}
  0
WIPEOUT
  5
1A2
100
AcDbEntity
  8
None
370
               5
390
0
  6
Continuous
 62
               1
 92
        0
100
AcDbWipeout
 90
        0
 10
-28.669437580047187
 20
3.0561705000000075
 30
0.0
 11
5.4186498002462429
 21
0.0
 31
0.0
 12
0.0
 22
5.4186498002462429
 32
0.0
 13
1.0
 23
1.0
340
0
 70
               7
280
               1
281
              50
282
              50
283
               0
360
0
 71
               2
 91
        5
 14
-0.5
 24
0.5000000000000006
 14
0.4999999999999993
 24
0.5000000000000006
 14
0.4999999999999993
 24
0.2753906333004417
 14
-0.5
 24
0.2753906333004417
 14
-0.5
 24
0.5000000000000006
  0
MTEXT
  5
1A3
100
AcDbEntity
  8
None
390
0
 62
               1
100
AcDbMText
 10
-28.669437580047187
 20
4.0786716197916713
 30
0.0
 40
0.7579186197916666
 41
0.0
 71
               1
 72
               1
  1
{\C192;\lSocket size}
  7
New Century Schlbk
 73
               1
 44
0.9673603504928806
  0
INSERT
  5
1A4
100
AcDbEntity
  8
Dimension
390
0
 62
               7
100
AcDbBlockReference
  2
Group
 10
0.0
 20
0.0
 30
0.0
  0
WIPEOUT
  5
1A5
100
AcDbEntity
  8
None
370
               5
390
0
  6
Continuous
 62
               1
 92
        0
100
AcDbWipeout
 90
        0
 10
-22.23666758004719
 20
20.782920500000003
 30
0.0
 11
7.8422253988126798
 21
0.0
 31
0.0
 12
0.0
 22
7.8422253988126798
 32
0.0
 13
1.0
 23
1.0
340
0
 70
               7
280
               1
281
              50
282
              50
283
               0
360
0
 71
               2
 91
        5
 14
-0.5
 24
0.5000000000000004
 14
0.4999999999999996
 24
0.5000000000000004
 14
0.4999999999999996
 24
0.3448043204440077
 14
-0.5
 24
0.3448043204440077
 14
-0.5
 24
0.5000000000000004
  0
MTEXT
  5
1A6
100
AcDbEntity
  8
None
390
0
 62
               1
100
AcDbMText
 10
-22.23666758004719
 20
21.805421619791666
 30
0.0
 40
0.7579186197916666
 41
0.0
 71
               1
 72
               1
  1
{\C192;\lOrientation Mark}
  7
New Century Schlbk
 73
               1
 44
0.9673603504928806
  0
WIPEOUT
  5
1A7
100
AcDbEntity
  8
None
370
               5
390
0
  6
Continuous
 62
               1
 92
        0
100
AcDbWipeout
 90
        0
 10
16.992322419952814
 20
-6.2374094999999983
 30
0.0
 11
12.117878889991573
 21
0.0
 31
0.0
 12
0.0
 22
12.117878889991573
 32
0.0
 13
1.0
 23
1.0
340
0
 70
               7
280
               1
281
              50
282
              50
283
               0
360
0
 71
               2
 91
        5
 14
-0.5
 24
0.5000000000000003
 14
0.4999999999999997
 24
0.5000000000000003
 14
0.4999999999999997
 24
0.3995633220096621
 14
-0.5
 24
0.3995633220096621
 14
-0.5
 24
0.5000000000000003
  0
MTEXT
  5
1A8
100
AcDbEntity
  8
None
390
0
 62
               1
100
AcDbMText
 10
16.992322419952814
 20
-5.2149083802083345
 30
0.0
 40
0.7579186197916666
 41
0.0
 71
               1
 72
               1
  1
{\C192;\lNon plated mounting hole}
  7
Arial
 73
               1
 44
0.9673603504928806
  0
WIPEOUT
  5
1A9
100
AcDbEntity
  8
None
370
               5
390
0
  6
Continuous
 62
               1
 92
        0
100
AcDbWipeout
 90
        0
 10
15.428372419952808
 20
2.310780500000007
 30
0.0
 11
12.350711488082325
 21
0.0
 31
0.0
 12
0.0
 22
12.350711488082325
 32
0.0
 13
1.0
 23
1.0
340
0
 70
               7
280
               1
281
              50
282
              50
283
               0
360
0
 71
               2
 91
        5
 14
-0.5
 24
0.5000000000000002
 14
0.4999999999999994
 24
0.5000000000000002
 14
0.4999999999999994
 24
0.4014567297459419
 14
-0.5
 24
0.4014567297459419
 14
-0.5
 24
0.5000000000000002
  0
MTEXT
  5
1AA
100
AcDbEntity
  8
None
390
0
 62
               1
100
AcDbMText
 10
15.428372419952808
 20
3.3332816197916708
 30
0.0
 40
0.7579186197916666
 41
0.0
 71
               1
 72
               1
  1
{\C192;\lNon plated alignment hole}
  7
Arial
 73
               1
 44
0.9673603504928806
  0
DIMENSION
  5
1AB
100
AcDbEntity
  8
Dimension
370
               5
390
0
  6
Continuous
 62
               1
100
AcDbDimension
  2
*D5
 10
-3.1835575800471929
 20
18.503980000000006
 30
0.0
 11
1.6919524199528109
 21
18.503980000000006
 31
0.0
 70
             128
 71
               5
 72
               1
 41
1.0
 42
0.0
  3
IE Standard
100
AcDbAlignedDimension
 13
-0.7810575800471895
 23
9.8879400000000004
 33
0.0
 14
-3.1835575800471929
 24
11.070440000000005
 34
0.0
100
AcDbRotatedDimension
1001
ACAD
1000
DSTYLE
1002
{
1070
             271
1070
               2
1070
             340
1005
39
1070
               3
1000
<>mm*
1070
             174
1070
               0
1070
             147
1040
0.09921875
1002
}
  0
DIMENSION
  5
1AC
100
AcDbEntity
  8
Dimension
370
               5
390
0
  6
Continuous
 62
               1
100
AcDbDimension
  2
*D6
 10
-6.6728575800471894
 20
9.8879400000000004
 30
0.0
 11
-6.6728575800471894
 21
10.479208043518069
 31
0.0
 70
             128
 71
               5
 72
               1
 41
1.0
 42
0.0
  3
IE Standard
100
AcDbAlignedDimension
 13
-3.1835575800471929
 23
11.070440000000005
 33
0.0
 14
-0.7810575800471895
 24
9.8879400000000004
 34
0.0
 50
90.0
100
AcDbRotatedDimension
1001
ACAD
1000
DSTYLE
1002
{
1070
             271
1070
               2
1070
             340
1005
39
1070
             147
1040
0.09921875
1002
}
  0
DIMENSION
  5
1AD
100
AcDbEntity
  8
Dimension
370
               5
390
0
  6
Continuous
 62
               1
100
AcDbDimension
  2
*D7
 10
-7.6097175800471923
 20
-1.6545599999999894
 30
0.0
 11
-7.6097175800471923
 21
1.8454589208984471
 31
0.0
 70
             128
 71
               5
 72
               1
 41
1.0
 42
0.0
  3
IE Standard
100
AcDbAlignedDimension
 13
-3.1835575800471929
 23
3.4254400000000089
 33
0.0
 14
-3.1835575800471929
 24
-1.6545599999999894
 34
0.0
 50
90.0
100
AcDbRotatedDimension
1001
ACAD
1000
DSTYLE
1002
{
1070
             271
1070
               2
1070
             340
1005
39
1070
             147
1040
0.09921875
1002
}
  0
DIMENSION
  5
1AE
100
AcDbEntity
  8
Dimension
370
               5
390
0
  6
Continuous
 62
               1
100
AcDbDimension
  2
*D8
 10
14.738332419952801
 20
8.5304399999999987
 30
0.0
 11
14.738332419952801
 21
9.8004400000000018
 31
0.0
 70
             128
 71
               5
 72
               1
 41
1.0
 42
0.0
  3
IE Standard
100
AcDbAlignedDimension
 13
9.5414424199528014
 23
11.070440000000005
 33
0.0
 14
9.5414424199528014
 24
8.5304399999999987
 34
0.0
 50
90.0
100
AcDbRotatedDimension
1001
ACAD
1000
DSTYLE
1002
{
1070
             271
1070
               2
1070
             340
1005
39
1070
             147
1040
0.09921875
1002
}
  0
DIMENSION
  5
1AF
100
AcDbEntity
  8
Dimension
370
               5
390
0
  6
Continuous
 62
               1
100
AcDbDimension
  2
*D9
 10
-3.1835575800471929
 20
-12.384559999999988
 30
0.0
 11
3.1589431065983122
 21
-12.384559999999988
 31
0.0
 70
             128
 71
               5
 72
               1
 41
1.0
 42
0.0
  3
IE Standard
100
AcDbAlignedDimension
 13
9.5414424199528014
 23
-1.6545599999999894
 33
0.0
 14
-3.1835575800471929
 24
-1.6545599999999894
 34
0.0
100
AcDbRotatedDimension
1001
ACAD
1000
DSTYLE
1002
{
1070
             271
1070
               3
1070
             340
1005
39
1070
              71
1070
               1
1070
              47
1040
0.125
1070
              48
1040
0.125
1070
               3
1000
<>mm (x4)
1070
             147
1040
0.09921875
1002
}
  0
DIMENSION
  5
1B0
100
AcDbEntity
  8
Dimension
370
               5
390
0
  6
Continuous
 62
               1
100
AcDbDimension
  2
*D10
 10
7.588942419952815
 20
2.527940000000001
 30
0.0
 11
15.773482910156293
 21
-0.1266873182898847
 31
0.0
 70
               3
 71
               5
 72
               1
 41
1.0
 42
0.0
  1
1.06 x 0.44 mm 
  3
IE Standard
100
AcDbDiametricDimension
 15
8.6339424199528025
 25
2.1129400000000089
 35
0.0
 40
6.0679799999999995
1001
ACAD
1000
DSTYLE
1002
{
1070
             271
1070
               4
1070
             172
1070
               0
1070
             289
1070
               0
1070
             342
1005
4E
1070
             340
1005
39
1070
              75
1070
               1
1070
              76
1070
               1
1070
             174
1070
               0
1070
             147
1040
0.09921875
1002
}
  0
DIMENSION
  5
1B1
100
AcDbEntity
  8
Dimension
370
               5
390
0
  6
Continuous
 62
               1
100
AcDbDimension
  2
*D11
 10
-1.7510575800471884
 20
-8.7845599999999937
 30
0.0
 11
3.633657385773124
 21
-8.7845599999999937
 31
0.0
 70
             128
 71
               5
 72
               1
 41
1.0
 42
0.0
  3
IE Standard
100
AcDbAlignedDimension
 13
8.6089424199528111
 23
0.4979399999999998
 33
0.0
 14
-1.7510575800471884
 24
0.4579300000000046
 34
0.0
100
AcDbRotatedDimension
1001
ACAD
1000
DSTYLE
1002
{
1070
             271
1070
               2
1070
             340
1005
39
1070
             147
1040
0.09921875
1002
}
  0
DIMENSION
  5
1B2
100
AcDbEntity
  8
Dimension
370
               5
390
0
  6
Continuous
 62
               1
100
AcDbDimension
  2
*D12
 10
-16.141057580047189
 20
9.8879400000000004
 30
0.0
 11
-16.141057580047189
 21
4.2181994198608388
 31
0.0
 70
             128
 71
               5
 72
               1
 41
1.0
 42
0.0
  3
IE Standard
100
AcDbAlignedDimension
 13
-0.7810575800471895
 23
-0.4720700000000022
 33
0.0
 14
-0.7810575800471895
 24
9.8879400000000004
 34
0.0
 50
90.0
100
AcDbRotatedDimension
1001
ACAD
1000
DSTYLE
1002
{
1070
             271
1070
               2
1070
             340
1005
39
1070
             147
1040
0.09921875
1002
}
  0
DIMENSION
  5
1B3
100
AcDbEntity
  8
Dimension
370
               5
390
0
  6
Continuous
 62
               1
100
AcDbDimension
  2
*D13
 10
-10.691057580047188
 20
8.9179400000000015
 30
0.0
 11
-10.691057580047188
 21
4.5430962422180166
 31
0.0
 70
             128
 71
               5
 72
               1
 41
1.0
 42
0.0
  3
IE Standard
100
AcDbAlignedDimension
 13
-1.7510575800471884
 23
0.4979299999999967
 33
0.0
 14
-1.7510575800471884
 24
8.9179400000000015
 34
0.0
 50
90.0
100
AcDbRotatedDimension
1001
ACAD
1000
DSTYLE
1002
{
1070
             271
1070
               2
1070
             340
1005
39
1070
             147
1040
0.09921875
1002
}
  0
DIMENSION
  5
1B4
100
AcDbEntity
  8
Dimension
370
               5
390
0
  6
Continuous
 62
               1
100
AcDbDimension
  2
*D14
 10
-0.7810575800471895
 20
-5.9924000000000017
 30
0.0
 11
3.3950239629215613
 21
-5.9924000000000017
 31
0.0
 70
             128
 71
               5
 72
               1
 41
1.0
 42
0.0
  3
IE Standard
100
AcDbAlignedDimension
 13
7.6389424199528122
 23
-0.472059999999999
 33
0.0
 14
-0.7810575800471895
 24
-0.4720700000000022
 34
0.0
100
AcDbRotatedDimension
1001
ACAD
1000
DSTYLE
1002
{
1070
             271
1070
               2
1070
             340
1005
39
1070
             147
1040
0.09921875
1002
}
  0
DIMENSION
  5
1B5
100
AcDbEntity
  8
Dimension
370
               5
390
0
  6
Continuous
 62
               1
100
AcDbDimension
  2
*D15
 10
-3.1835575800471929
 20
20.865440000000007
 30
0.0
 11
-1.1910575800471932
 21
20.865440000000007
 31
0.0
 70
             128
 71
               5
 72
               1
 41
1.0
 42
0.0
  3
IE Standard
100
AcDbAlignedDimension
 13
-4.4335575800471929
 23
12.320440000000005
 33
0.0
 14
-3.1835575800471929
 24
11.070440000000005
 34
0.0
100
AcDbRotatedDimension
1001
ACAD
1000
DSTYLE
1002
{
1070
             271
1070
               3
1070
             340
1005
39
1070
              71
1070
               1
1070
              47
1040
0.125
1070
              48
1040
0.125
1070
               3
1000
<>mm (x4)
1070
             174
1070
               0
1070
             147
1040
0.09921875
1002
}
  0
DIMENSION
  5
1B6
100
AcDbEntity
  8
Dimension
370
               5
390
0
  6
Continuous
 62
               1
100
AcDbDimension
  2
*D16
 10
-14.791057580047193
 20
12.320440000000005
 30
0.0
 11
-14.791057580047193
 21
15.115440000000005
 31
0.0
 70
             128
 71
               5
 72
               1
 41
1.0
 42
0.0
  3
IE Standard
100
AcDbAlignedDimension
 13
-3.1835575800471929
 23
11.070440000000005
 33
0.0
 14
-4.4335575800471929
 24
12.320440000000005
 34
0.0
 50
90.0
100
AcDbRotatedDimension
1001
ACAD
1000
DSTYLE
1002
{
1070
             271
1070
               3
1070
             340
1005
39
1070
              71
1070
               1
1070
              47
1040
0.125
1070
              48
1040
0.125
1070
               3
1000
<>mm (x4)
1070
             174
1070
               0
1070
             147
1040
0.09921875
1002
}
  0
LINE
  5
1B7
100
AcDbEntity
  8
None
370
               5
390
0
  6
Continuous
 62
               1
100
AcDbLine
 10
-14.394447580047185
 20
21.391459999999995
 30
0.0
 11
-11.891057580047189
 21
21.391459999999995
 31
0.0
  0
LINE
  5
1B8
100
AcDbEntity
  8
None
370
               5
390
0
  6
Continuous
 62
               1
100
AcDbLine
 10
-11.891057580047189
 20
21.391459999999995
 30
0.0
 11
-1.0585575800471929
 21
10.857880000000009
 31
0.0
  0
SOLID
  5
1B9
100
AcDbEntity
  8
None
370
               5
390
0
 62
               1
100
AcDbTrace
 10
-1.0585575800471929
 20
10.857880000000009
 30
0.0
 11
-1.5141152167340961
 21
11.120896324172582
 31
0.0
 12
-1.3215739042197661
 22
11.313437636686912
 32
0.0
 13
-1.3215739042197661
 23
11.313437636686912
 33
0.0
  0
DIMENSION
  5
1BA
100
AcDbEntity
  8
Dimension
370
               5
390
0
  6
Continuous
 62
               1
100
AcDbDimension
  2
*D17
 10
8.7827824199528095
 20
-1.3853699999999947
 30
0.0
 11
17.575532615265466
 21
-3.9730064011722819
 31
0.0
 70
               3
 71
               5
 72
               1
 41
1.0
 42
0.0
  3
IE Standard
100
AcDbDiametricDimension
 15
10.300102419952808
 25
-1.9237499999999983
 35
0.0
 40
6.1282199999999998
1001
ACAD
1000
DSTYLE
1002
{
1070
             271
1070
               3
1070
             172
1070
               0
1070
             289
1070
               0
1070
             342
1005
4E
1070
             340
1005
39
1070
              75
1070
               1
1070
              76
1070
               1
1070
              71
1070
               1
1070
              47
1040
0.05
1070
              48
1040
0.05
1070
               3
1000
mm (x4)
1070
             174
1070
               0
1070
             147
1040
0.09921875
1002
}
  0
DIMENSION
  5
1BB
100
AcDbEntity
  8
Dimension
370
               5
390
0
  6
Continuous
 62
               1
100
AcDbDimension
  2
*D18
 10
9.205122419952815
 20
8.7902700000000067
 30
0.0
 11
16.108948448793193
 21
4.6154457372463993
 31
0.0
 70
               3
 71
               5
 72
               1
 41
1.0
 42
0.0
  3
IE Standard
100
AcDbDiametricDimension
 15
9.877762419952802
 25
8.2706100000000049
 35
0.0
 40
5.9786599999999996
1001
ACAD
1000
DSTYLE
1002
{
1070
             271
1070
               3
1070
             172
1070
               0
1070
             289
1070
               0
1070
             342
1005
4E
1070
             340
1005
39
1070
              75
1070
               1
1070
              76
1070
               1
1070
              71
1070
               1
1070
              47
1040
0.025
1070
              48
1040
0.025
1070
               3
1000
mm (x2)
1070
             174
1070
               0
1070
             147
1040
0.09921875
1002
}
  0
WIPEOUT
  5
1BC
100
AcDbEntity
  8
None
370
               5
390
0
  6
Continuous
 62
               1
 92
        0
100
AcDbWipeout
 90
        0
 10
24.858942419952811
 20
-0.7016394999999989
 30
0.0
 11
4.7730682608602564
 21
0.0
 31
0.0
 12
0.0
 22
4.7730682608602564
 32
0.0
 13
1.0
 23
1.0
340
0
 70
               7
280
               1
281
              50
282
              50
283
               0
360
0
 71
               2
 91
        5
 14
-0.5
 24
0.5000000000000007
 14
0.4999999999999992
 24
0.5000000000000007
 14
0.4999999999999992
 24
0.2450110843835615
 14
-0.5
 24
0.2450110843835615
 14
-0.5
 24
0.5000000000000007
  0
MTEXT
  5
1BD
100
AcDbEntity
  8
None
390
0
 62
               1
100
AcDbMText
 10
24.858942419952811
 20
0.3208616197916647
 30
0.0
 40
0.7579186197916666
 41
0.0
 71
               1
 72
               1
  1
{\C192;\lpad (x 44)}
  7
Arial
 73
               1
 44
0.9673603504928806
  0
WIPEOUT
  5
1BE
100
AcDbEntity
  8
None
370
               5
390
0
  6
Continuous
 62
               7
 92
        0
100
AcDbWipeout
 90
        0
 10
1.2167924199528102
 20
-16.104557999999983
 30
0.0
 11
4.4567370387441656
 21
0.0
 31
0.0
 12
0.0
 22
4.4567370387441656
 32
0.0
 13
1.0
 23
1.0
340
0
 70
               7
280
               1
281
              50
282
              50
283
               0
360
0
 71
               2
 91
        5
 14
-0.5
 24
0.5000000000000016
 14
0.4999999999999996
 24
0.5000000000000016
 14
0.4999999999999996
 24
0.1965699370988575
 14
-0.5
 24
0.1965699370988575
 14
-0.5
 24
0.5000000000000016
  0
MTEXT
  5
1BF
100
AcDbEntity
  8
None
390
0
 62
               7
100
AcDbMText
 10
1.2167924199528102
 20
-14.968447791666657
 30
0.0
 40
0.8421302083333332
 41
0.0
 71
               1
 72
               1
  1
MLF44A
  7
Arial
 73
               1
 44
0.9673603504928806
  0
SOLID
  5
1C0
100
AcDbEntity
  8
None
370
              15
390
0
  6
Continuous
 62
               7
100
AcDbTrace
 10
-1.7510575800471884
 20
7.6979400000000027
 30
0.0
 11
-1.7510575800471884
 21
8.1179400000000044
 31
0.0
 12
-0.6910575800471861
 22
7.6979400000000027
 32
0.0
 13
-0.6910575800471861
 23
8.1179400000000044
 33
0.0
  0
SOLID
  5
1C1
100
AcDbEntity
  8
None
370
              15
390
0
  6
Continuous
 62
               7
100
AcDbTrace
 10
-1.7510575800471884
 20
6.8979300000000023
 30
0.0
 11
-1.7510575800471884
 21
7.3179400000000072
 31
0.0
 12
-0.6910575800471861
 22
6.8979300000000023
 32
0.0
 13
-0.6910575800471861
 23
7.3179400000000072
 33
0.0
  0
SOLID
  5
1C2
100
AcDbEntity
  8
None
370
              15
390
0
  6
Continuous
 62
               7
100
AcDbTrace
 10
-1.7510575800471884
 20
6.0979400000000084
 30
0.0
 11
-1.7510575800471884
 21
6.5179400000000101
 31
0.0
 12
-0.6910575800471861
 22
6.0979400000000084
 32
0.0
 13
-0.6910575800471861
 23
6.5179400000000101
 33
0.0
  0
SOLID
  5
1C3
100
AcDbEntity
  8
None
370
              15
390
0
  6
Continuous
 62
               7
100
AcDbTrace
 10
-1.7510575800471884
 20
5.297939999999997
 30
0.0
 11
-1.7510575800471884
 21
5.7179399999999987
 31
0.0
 12
-0.6910575800471861
 22
5.297939999999997
 32
0.0
 13
-0.6910575800471861
 23
5.7179399999999987
 33
0.0
  0
SOLID
  5
1C4
100
AcDbEntity
  8
None
370
              15
390
0
  6
Continuous
 62
               7
100
AcDbTrace
 10
-1.7510575800471884
 20
4.4979299999999967
 30
0.0
 11
-1.7510575800471884
 21
4.9179400000000015
 31
0.0
 12
-0.6910575800471861
 22
4.4979299999999967
 32
0.0
 13
-0.6910575800471861
 23
4.9179400000000015
 33
0.0
  0
SOLID
  5
1C5
100
AcDbEntity
  8
None
370
              15
390
0
  6
Continuous
 62
               7
100
AcDbTrace
 10
-1.7510575800471884
 20
3.6979400000000027
 30
0.0
 11
-1.7510575800471884
 21
4.1179400000000044
 31
0.0
 12
-0.6910575800471861
 22
3.6979400000000027
 32
0.0
 13
-0.6910575800471861
 23
4.1179400000000044
 33
0.0
  0
SOLID
  5
1C6
100
AcDbEntity
  8
None
370
              15
390
0
  6
Continuous
 62
               7
100
AcDbTrace
 10
-1.7510575800471884
 20
2.8979300000000023
 30
0.0
 11
-1.7510575800471884
 21
3.3179400000000072
 31
0.0
 12
-0.6910575800471861
 22
2.8979300000000023
 32
0.0
 13
-0.6910575800471861
 23
3.3179400000000072
 33
0.0
  0
SOLID
  5
1C7
100
AcDbEntity
  8
None
370
              15
390
0
  6
Continuous
 62
               7
100
AcDbTrace
 10
-1.7510575800471884
 20
2.0979300000000052
 30
0.0
 11
-1.7510575800471884
 21
2.5179400000000101
 31
0.0
 12
-0.6910575800471861
 22
2.0979300000000052
 32
0.0
 13
-0.6910575800471861
 23
2.5179400000000101
 33
0.0
  0
SOLID
  5
1C8
100
AcDbEntity
  8
None
370
              15
390
0
  6
Continuous
 62
               7
100
AcDbTrace
 10
-1.7510575800471884
 20
1.297939999999997
 30
0.0
 11
-1.7510575800471884
 21
1.7179399999999987
 31
0.0
 12
-0.6910575800471861
 22
1.297939999999997
 32
0.0
 13
-0.6910575800471861
 23
1.7179399999999987
 33
0.0
  0
SOLID
  5
1C9
100
AcDbEntity
  8
None
370
              15
390
0
  6
Continuous
 62
               7
100
AcDbTrace
 10
7.5489424199528088
 20
7.6979400000000027
 30
0.0
 11
7.5489424199528088
 21
8.1179400000000044
 31
0.0
 12
8.6089424199528111
 22
7.6979400000000027
 32
0.0
 13
8.6089424199528111
 23
8.1179400000000044
 33
0.0
  0
SOLID
  5
1CA
100
AcDbEntity
  8
None
370
              15
390
0
  6
Continuous
 62
               7
100
AcDbTrace
 10
7.5489424199528088
 20
6.8979300000000023
 30
0.0
 11
7.5489424199528088
 21
7.3179400000000072
 31
0.0
 12
8.6089424199528111
 22
6.8979300000000023
 32
0.0
 13
8.6089424199528111
 23
7.3179400000000072
 33
0.0
  0
SOLID
  5
1CB
100
AcDbEntity
  8
None
370
              15
390
0
  6
Continuous
 62
               7
100
AcDbTrace
 10
7.5489424199528088
 20
6.0979400000000084
 30
0.0
 11
7.5489424199528088
 21
6.5179400000000101
 31
0.0
 12
8.6089424199528111
 22
6.0979400000000084
 32
0.0
 13
8.6089424199528111
 23
6.5179400000000101
 33
0.0
  0
SOLID
  5
1CC
100
AcDbEntity
  8
None
370
              15
390
0
  6
Continuous
 62
               7
100
AcDbTrace
 10
7.5489424199528088
 20
5.297939999999997
 30
0.0
 11
7.5489424199528088
 21
5.7179399999999987
 31
0.0
 12
8.6089424199528111
 22
5.297939999999997
 32
0.0
 13
8.6089424199528111
 23
5.7179399999999987
 33
0.0
  0
SOLID
  5
1CD
100
AcDbEntity
  8
None
370
              15
390
0
  6
Continuous
 62
               7
100
AcDbTrace
 10
7.5489424199528088
 20
4.4979299999999967
 30
0.0
 11
7.5489424199528088
 21
4.9179400000000015
 31
0.0
 12
8.6089424199528111
 22
4.4979299999999967
 32
0.0
 13
8.6089424199528111
 23
4.9179400000000015
 33
0.0
  0
SOLID
  5
1CE
100
AcDbEntity
  8
None
370
              15
390
0
  6
Continuous
 62
               7
100
AcDbTrace
 10
7.5489424199528088
 20
3.6979400000000027
 30
0.0
 11
7.5489424199528088
 21
4.1179400000000044
 31
0.0
 12
8.6089424199528111
 22
3.6979400000000027
 32
0.0
 13
8.6089424199528111
 23
4.1179400000000044
 33
0.0
  0
SOLID
  5
1CF
100
AcDbEntity
  8
None
370
              15
390
0
  6
Continuous
 62
               7
100
AcDbTrace
 10
7.5489424199528088
 20
2.8979300000000023
 30
0.0
 11
7.5489424199528088
 21
3.3179400000000072
 31
0.0
 12
8.6089424199528111
 22
2.8979300000000023
 32
0.0
 13
8.6089424199528111
 23
3.3179400000000072
 33
0.0
  0
SOLID
  5
1D0
100
AcDbEntity
  8
None
370
              15
390
0
  6
Continuous
 62
               7
100
AcDbTrace
 10
7.5489424199528088
 20
2.0979300000000052
 30
0.0
 11
7.5489424199528088
 21
2.5179400000000101
 31
0.0
 12
8.6089424199528111
 22
2.0979300000000052
 32
0.0
 13
8.6089424199528111
 23
2.5179400000000101
 33
0.0
  0
SOLID
  5
1D1
100
AcDbEntity
  8
None
370
              15
390
0
  6
Continuous
 62
               7
100
AcDbTrace
 10
7.5489424199528088
 20
1.297939999999997
 30
0.0
 11
7.5489424199528088
 21
1.7179399999999987
 31
0.0
 12
8.6089424199528111
 22
1.297939999999997
 32
0.0
 13
8.6089424199528111
 23
1.7179399999999987
 33
0.0
  0
SOLID
  5
1D2
100
AcDbEntity
  8
None
370
              15
390
0
  6
Continuous
 62
               7
100
AcDbTrace
 10
0.0189424199528077
 20
-0.472059999999999
 30
0.0
 11
0.0189424199528077
 21
0.5879400000000032
 31
0.0
 12
0.4389424199528094
 22
-0.472059999999999
 32
0.0
 13
0.4389424199528094
 23
0.5879400000000032
 33
0.0
  0
SOLID
  5
1D3
100
AcDbEntity
  8
None
370
              15
390
0
  6
Continuous
 62
               7
100
AcDbTrace
 10
0.8189424199528048
 20
-0.472059999999999
 30
0.0
 11
0.8189424199528048
 21
0.5879400000000032
 31
0.0
 12
1.2389424199528065
 22
-0.472059999999999
 32
0.0
 13
1.2389424199528065
 23
0.5879400000000032
 33
0.0
  0
SOLID
  5
1D4
100
AcDbEntity
  8
None
370
              15
390
0
  6
Continuous
 62
               7
100
AcDbTrace
 10
1.618942419952802
 20
-0.472059999999999
 30
0.0
 11
1.618942419952802
 21
0.5879400000000032
 31
0.0
 12
2.0389424199528037
 22
-0.472059999999999
 32
0.0
 13
2.0389424199528037
 23
0.5879400000000032
 33
0.0
  0
SOLID
  5
1D5
100
AcDbEntity
  8
None
370
              15
390
0
  6
Continuous
 62
               7
100
AcDbTrace
 10
2.4189424199528133
 20
-0.472059999999999
 30
0.0
 11
2.4189424199528133
 21
0.5879400000000032
 31
0.0
 12
2.838942419952815
 22
-0.472059999999999
 32
0.0
 13
2.838942419952815
 23
0.5879400000000032
 33
0.0
  0
SOLID
  5
1D6
100
AcDbEntity
  8
None
370
              15
390
0
  6
Continuous
 62
               7
100
AcDbTrace
 10
3.2189424199528105
 20
-0.472059999999999
 30
0.0
 11
3.2189424199528105
 21
0.5879400000000032
 31
0.0
 12
3.6389424199528122
 22
-0.472059999999999
 32
0.0
 13
3.6389424199528122
 23
0.5879400000000032
 33
0.0
  0
SOLID
  5
1D7
100
AcDbEntity
  8
None
370
              15
390
0
  6
Continuous
 62
               7
100
AcDbTrace
 10
4.0189424199528077
 20
-0.472059999999999
 30
0.0
 11
4.0189424199528077
 21
0.5879400000000032
 31
0.0
 12
4.4389424199528094
 22
-0.472059999999999
 32
0.0
 13
4.4389424199528094
 23
0.5879400000000032
 33
0.0
  0
SOLID
  5
1D8
100
AcDbEntity
  8
None
370
              15
390
0
  6
Continuous
 62
               7
100
AcDbTrace
 10
4.8189424199528048
 20
-0.472059999999999
 30
0.0
 11
4.8189424199528048
 21
0.5879400000000032
 31
0.0
 12
5.2389424199528065
 22
-0.472059999999999
 32
0.0
 13
5.2389424199528065
 23
0.5879400000000032
 33
0.0
  0
SOLID
  5
1D9
100
AcDbEntity
  8
None
370
              15
390
0
  6
Continuous
 62
               7
100
AcDbTrace
 10
5.618942419952802
 20
-0.472059999999999
 30
0.0
 11
5.618942419952802
 21
0.5879400000000032
 31
0.0
 12
6.0389424199528037
 22
-0.472059999999999
 32
0.0
 13
6.0389424199528037
 23
0.5879400000000032
 33
0.0
  0
SOLID
  5
1DA
100
AcDbEntity
  8
None
370
              15
390
0
  6
Continuous
 62
               7
100
AcDbTrace
 10
6.4189424199528133
 20
-0.472059999999999
 30
0.0
 11
6.4189424199528133
 21
0.5879400000000032
 31
0.0
 12
6.838942419952815
 22
-0.472059999999999
 32
0.0
 13
6.838942419952815
 23
0.5879400000000032
 33
0.0
  0
SOLID
  5
1DB
100
AcDbEntity
  8
None
370
              15
390
0
  6
Continuous
 62
               7
100
AcDbTrace
 10
0.0189424199528077
 20
8.8279399999999981
 30
0.0
 11
0.0189424199528077
 21
9.8879400000000004
 31
0.0
 12
0.4389424199528094
 22
8.8279399999999981
 32
0.0
 13
0.4389424199528094
 23
9.8879400000000004
 33
0.0
  0
SOLID
  5
1DC
100
AcDbEntity
  8
None
370
              15
390
0
  6
Continuous
 62
               7
100
AcDbTrace
 10
0.8189424199528048
 20
8.8279399999999981
 30
0.0
 11
0.8189424199528048
 21
9.8879400000000004
 31
0.0
 12
1.2389424199528065
 22
8.8279399999999981
 32
0.0
 13
1.2389424199528065
 23
9.8879400000000004
 33
0.0
  0
SOLID
  5
1DD
100
AcDbEntity
  8
None
370
              15
390
0
  6
Continuous
 62
               7
100
AcDbTrace
 10
1.618942419952802
 20
8.8279399999999981
 30
0.0
 11
1.618942419952802
 21
9.8879400000000004
 31
0.0
 12
2.0389424199528037
 22
8.8279399999999981
 32
0.0
 13
2.0389424199528037
 23
9.8879400000000004
 33
0.0
  0
SOLID
  5
1DE
100
AcDbEntity
  8
None
370
              15
390
0
  6
Continuous
 62
               7
100
AcDbTrace
 10
2.4189424199528133
 20
8.8279399999999981
 30
0.0
 11
2.4189424199528133
 21
9.8879400000000004
 31
0.0
 12
2.838942419952815
 22
8.8279399999999981
 32
0.0
 13
2.838942419952815
 23
9.8879400000000004
 33
0.0
  0
SOLID
  5
1DF
100
AcDbEntity
  8
None
370
              15
390
0
  6
Continuous
 62
               7
100
AcDbTrace
 10
3.2189424199528105
 20
8.8279399999999981
 30
0.0
 11
3.2189424199528105
 21
9.8879400000000004
 31
0.0
 12
3.6389424199528122
 22
8.8279399999999981
 32
0.0
 13
3.6389424199528122
 23
9.8879400000000004
 33
0.0
  0
SOLID
  5
1E0
100
AcDbEntity
  8
None
370
              15
390
0
  6
Continuous
 62
               7
100
AcDbTrace
 10
4.0189424199528077
 20
8.8279399999999981
 30
0.0
 11
4.0189424199528077
 21
9.8879400000000004
 31
0.0
 12
4.4389424199528094
 22
8.8279399999999981
 32
0.0
 13
4.4389424199528094
 23
9.8879400000000004
 33
0.0
  0
SOLID
  5
1E1
100
AcDbEntity
  8
None
370
              15
390
0
  6
Continuous
 62
               7
100
AcDbTrace
 10
4.8189424199528048
 20
8.8279399999999981
 30
0.0
 11
4.8189424199528048
 21
9.8879400000000004
 31
0.0
 12
5.2389424199528065
 22
8.8279399999999981
 32
0.0
 13
5.2389424199528065
 23
9.8879400000000004
 33
0.0
  0
SOLID
  5
1E2
100
AcDbEntity
  8
None
370
              15
390
0
  6
Continuous
 62
               7
100
AcDbTrace
 10
5.618942419952802
 20
8.8279399999999981
 30
0.0
 11
5.618942419952802
 21
9.8879400000000004
 31
0.0
 12
6.0389424199528037
 22
8.8279399999999981
 32
0.0
 13
6.0389424199528037
 23
9.8879400000000004
 33
0.0
  0
SOLID
  5
1E3
100
AcDbEntity
  8
None
370
              15
390
0
  6
Continuous
 62
               7
100
AcDbTrace
 10
6.4189424199528133
 20
8.8279399999999981
 30
0.0
 11
6.4189424199528133
 21
9.8879400000000004
 31
0.0
 12
6.838942419952815
 22
8.8279399999999981
 32
0.0
 13
6.838942419952815
 23
9.8879400000000004
 33
0.0
  0
INSERT
  5
1E4
100
AcDbEntity
  8
None
390
0
 62
               7
100
AcDbBlockReference
  2
Group-1
 10
0.0
 20
0.0
 30
0.0
  0
INSERT
  5
1E5
100
AcDbEntity
  8
None
390
0
 62
               7
100
AcDbBlockReference
  2
Group-2
 10
0.0
 20
0.0
 30
0.0
  0
INSERT
  5
1E6
100
AcDbEntity
  8
None
390
0
 62
               7
100
AcDbBlockReference
  2
Group-3
 10
0.0
 20
0.0
 30
0.0
  0
INSERT
  5
1E7
100
AcDbEntity
  8
None
390
0
 62
               7
100
AcDbBlockReference
  2
Group-4
 10
0.0
 20
0.0
 30
0.0
  0
POLYLINE
  5
1E8
102
{ACAD_REACTORS
330
1EE
102
}
100
AcDbEntity
  8
None
370
               9
390
0
  6
Continuous
 62
               7
100
AcDb2dPolyline
 66
               1
 10
0.0
 20
0.0
 30
0.0
 70
               1
 75
               5
  0
VERTEX
  5
1E9
100
AcDbEntity
  8
None
370
               9
390
0
  6
Continuous
 62
               7
100
AcDbVertex
100
AcDb2dVertex
 10
-0.4910575800471975
 20
8.6279400000000095
 30
0.0
  0
VERTEX
  5
1EA
100
AcDbEntity
  8
None
370
               9
390
0
  6
Continuous
 62
               7
100
AcDbVertex
100
AcDb2dVertex
 10
7.3489424199528059
 20
8.6279400000000095
 30
0.0
  0
VERTEX
  5
1EB
100
AcDbEntity
  8
None
370
               9
390
0
  6
Continuous
 62
               7
100
AcDbVertex
100
AcDb2dVertex
 10
7.3489424199528059
 20
0.7879400000000061
 30
0.0
  0
VERTEX
  5
1EC
100
AcDbEntity
  8
None
370
               9
390
0
  6
Continuous
 62
               7
100
AcDbVertex
100
AcDb2dVertex
 10
-0.4910575800471975
 20
0.7879400000000061
 30
0.0
  0
SEQEND
  5
1ED
100
AcDbEntity
  8
None
370
               9
390
0
  6
Continuous
 62
               7
  0
HATCH
  5
1EE
100
AcDbEntity
  8
None
370
               0
390
0
  6
Continuous
 62
             253
100
AcDbHatch
 10
0.0
 20
0.0
 30
0.0
210
0.0
220
0.0
230
1.0
  2
SOLID
 70
               1
 71
               1
 91
        1
 92
        1
 93
        4
 72
               1
 10
-0.4910575800471975
 20
8.6279400000000095
 11
7.3489424199528059
 21
8.6279400000000095
 72
               1
 10
7.3489424199528059
 20
8.6279400000000095
 11
7.3489424199528059
 21
0.7879400000000061
 72
               1
 10
7.3489424199528059
 20
0.7879400000000061
 11
-0.4910575800471975
 21
0.7879400000000061
 72
               1
 10
-0.4910575800471975
 20
0.7879400000000061
 11
-0.4910575800471975
 21
8.6279400000000095
 97
        1
330
1E8
 75
               0
 76
               1
 98
        1
 10
0.0
 20
0.0
  0
LINE
  5
1EF
100
AcDbEntity
  8
None
370
               9
390
0
  6
Continuous
 62
               1
100
AcDbLine
 10
12.786342419952803
 20
16.223939999999999
 30
0.0
 11
6.1001724199528127
 21
7.412770000000009
 31
0.0
  0
SOLID
  5
1F0
100
AcDbEntity
  8
None
370
               9
390
0
 62
               1
100
AcDbTrace
 10
6.1001724199528127
 20
7.412770000000009
 30
0.0
 11
6.4212559077293845
 21
8.1691952943053874
 31
0.0
 12
6.7564515242557235
 22
7.907311777045301
 32
0.0
 13
6.7564515242557235
 23
7.907311777045301
 33
0.0
  0
LINE
  5
1F1
100
AcDbEntity
  8
None
370
               9
390
0
  6
Continuous
 62
               1
100
AcDbLine
 10
18.74092241995281
 20
16.223939999999999
 30
0.0
 11
12.786342419952803
 21
16.223939999999999
 31
0.0
  0
WIPEOUT
  5
1F2
100
AcDbEntity
  8
None
370
               9
390
0
  6
Continuous
 62
               1
 92
        0
100
AcDbWipeout
 90
        0
 10
17.99092241995281
 20
15.6346305
 30
0.0
 11
17.674111670669561
 21
0.0
 31
0.0
 12
0.0
 22
17.674111670669561
 32
0.0
 13
1.0
 23
1.0
340
0
 70
               7
280
               1
281
              50
282
              50
283
               0
360
0
 71
               2
 91
        5
 14
-0.5
 24
0.5000000000000002
 14
0.5
 24
0.5000000000000002
 14
0.5
 24
0.4311377271639764
 14
-0.5
 24
0.4311377271639764
 14
-0.5
 24
0.5000000000000002
  0
MTEXT
  5
1F3
100
AcDbEntity
  8
None
390
0
 62
               1
100
AcDbMText
 10
17.99092241995281
 20
16.657131619791663
 30
0.0
 40
0.7579186197916666
 41
0.0
 71
               1
 72
               1
  1
{\C192;\l7.84mm x 7.84mm thermal /GND pad}
  7
Arial
 73
               1
 44
0.9673603504928806
  0
DIMENSION
  5
1F4
100
AcDbEntity
  8
Dimension
370
               5
390
0
  6
Continuous
 62
               1
100
AcDbDimension
  2
*D23
 10
5.0289424199528128
 20
14.1745
 30
0.0
 11
8.2579224199528092
 21
14.1745
 31
0.0
 70
             128
 71
               5
 72
               1
 41
1.0
 42
0.0
  3
IE Standard
100
AcDbAlignedDimension
 13
5.8289424199528099
 23
9.8879400000000004
 33
0.0
 14
5.0289424199528128
 24
9.8879400000000004
 34
0.0
100
AcDbRotatedDimension
1001
ACAD
1000
DSTYLE
1002
{
1070
             271
1070
               2
1070
             340
1005
39
1070
               3
1000
<>mm typ.
1070
             174
1070
               0
1070
             147
1040
0.09921875
1002
}
  0
ENDSEC
  0
SECTION
  2
OBJECTS
  0
DICTIONARY
  5
19
100
AcDbDictionary
280
               0
281
               1
  3
ACAD_GROUP
350
1A
  3
ACAD_MLINESTYLE
350
1B
  3
ACAD_LAYOUT
350
1E
  3
ACAD_PLOTSETTINGS
350
22
  3
ACAD_PLOTSTYLENAME
350
1F
  3
ACAD_WIPEOUT_VARS
350
23
  0
DICTIONARY
  5
1A
102
{ACAD_REACTORS
330
19
102
}
100
AcDbDictionary
280
               0
281
               1
  0
DICTIONARY
  5
1B
102
{ACAD_REACTORS
330
19
102
}
100
AcDbDictionary
280
               0
281
               1
  3
Standard
350
1C
  0
MLINESTYLE
  5
1C
102
{ACAD_REACTORS
330
1B
102
}
100
AcDbMlineStyle
  2
Standard
 70
               0
  3

 62
               0
 51
90.0
 52
90.0
 71
               2
 49
0.5
 62
             256
  6
ByLayer
 49
-0.5
 62
             256
  6
ByLayer
  0
ACDBDICTIONARYWDFLT
  5
1F
102
{ACAD_REACTORS
330
19
102
}
100
AcDbDictionary
281
               1
  3
Normal
350
1D
100
AcDbDictionaryWithDefault
340
1D
  0
ACDBPLACEHOLDER
  5
1D
102
{ACAD_REACTORS
330
1F
102
}
  0
LAYOUT
  5
20
102
{ACAD_REACTORS
330
1E
102
}
100
AcDbPlotSettings
  1

  2

  4

  6

 40
0.0
 41
0.0
 42
0.0
 43
0.0
 44
0.0
 45
0.0
 46
0.0
 47
0.0
 48
0.0
 49
0.0
140
0.0
141
0.0
142
1.0
143
1.0
 70
            1024
 72
               0
 73
               0
 74
               0
  7

 75
               0
147
1.0
148
0.0
149
0.0
100
AcDbLayout
  1
Model
 70
               0
 71
               0
 10
0.0
 20
0.0
 11
0.0
 21
0.0
 12
0.0
 22
0.0
 32
0.0
 14
0.0
 24
0.0
 34
0.0
 15
0.0
 25
0.0
 35
0.0
146
0.0
 13
0.0
 23
0.0
 33
0.0
 16
0.0
 26
0.0
 36
0.0
 17
0.0
 27
0.0
 37
0.0
 76
               0
330
A
331
0
345
0
346
0
  0
LAYOUT
  5
21
102
{ACAD_REACTORS
330
1E
102
}
100
AcDbPlotSettings
  1

  2

  4

  6

 40
0.0
 41
0.0
 42
0.0
 43
0.0
 44
0.0
 45
0.0
 46
0.0
 47
0.0
 48
0.0
 49
0.0
140
0.0
141
0.0
142
1.0
143
1.0
 70
               0
 72
               0
 73
               0
 74
               0
  7

 75
               0
147
1.0
148
0.0
149
0.0
100
AcDbLayout
  1
Layout1
 70
               0
 71
               0
 10
0.0
 20
0.0
 11
0.0
 21
0.0
 12
0.0
 22
0.0
 32
0.0
 14
0.0
 24
0.0
 34
0.0
 15
0.0
 25
0.0
 35
0.0
146
0.0
 13
0.0
 23
0.0
 33
0.0
 16
0.0
 26
0.0
 36
0.0
 17
0.0
 27
0.0
 37
0.0
 76
               0
330
B
331
0
345
0
346
0
  0
DICTIONARY
  5
1E
102
{ACAD_REACTORS
330
19
102
}
100
AcDbDictionary
280
               0
281
               1
  3
Layout1
350
21
  3
Model
350
20
  0
DICTIONARY
  5
22
102
{ACAD_REACTORS
330
19
102
}
100
AcDbDictionary
280
               0
281
               1
  0
WIPEOUTVARIABLES
  5
23
100
AcDbWipeoutVariables
 70
               0
  0
ENDSEC
  0
EOF
