  0
SECTION
  2
HEADER
  9
$ACADVER
  1
AC1015
  9
$ACADMAINTVER
 70
               6
  9
$DWGCODEPAGE
  3
ANSI_1252
  9
$INSBASE
 10
0.0
 20
0.0
 30
0.0
  9
$EXTMIN
 10
-33.999999999999986
 20
-16.104557999999997
 30
-0.34925
  9
$EXTMAX
 10
33.665034090622385
 20
22.0
 30
0.34925
  9
$LIMMIN
 10
0.0
 20
0.0
  9
$LIMMAX
 10
0.0
 20
0.0
  9
$ORTHOMODE
 70
               0
  9
$REGENMODE
 70
               1
  9
$FILLMODE
 70
               1
  9
$QTEXTMODE
 70
               0
  9
$MIRRTEXT
 70
               1
  9
$LTSCALE
 40
1.27
  9
$ATTMODE
 70
               1
  9
$TEXTSIZE
 40
0.2
  9
$TRACEWID
 40
1.0
  9
$TEXTSTYLE
  7
Standard
  9
$CLAYER
  8
None
  9
$CELTYPE
  6
Continuous
  9
$CECOLOR
 62
             256
  9
$CELTSCALE
 40
1.0
  9
$DISPSILH
 70
               0
  9
$DIMSCALE
 40
1.0
  9
$DIMASZ
 40
0.5612060546875
  9
$DIMEXO
 40
0.396875
  9
$DIMDLI
 40
10.16
  9
$DIMRND
 40
0.0
  9
$DIMDLE
 40
1.5874999999999999
  9
$DIMEXE
 40
0.79375
  9
$DIMTP
 40
0.0
  9
$DIMTM
 40
0.0
  9
$DIMTXT
 40
0.7579186197916666
  9
$DIMCEN
 40
0.0
  9
$DIMTSZ
 40
0.0
  9
$DIMTOL
 70
               0
  9
$DIMLIM
 70
               0
  9
$DIMTIH
 70
               0
  9
$DIMTOH
 70
               0
  9
$DIMSE1
 70
               0
  9
$DIMSE2
 70
               0
  9
$DIMTAD
 70
               1
  9
$DIMZIN
 70
              11
  9
$DIMBLK
  1
VW_SLASH
  9
$DIMASO
 70
               1
  9
$DIMSHO
 70
               1
  9
$DIMPOST
  1
<>mm
  9
$DIMAPOST
  1
[]
  9
$DIMALT
 70
               0
  9
$DIMALTD
 70
               1
  9
$DIMALTF
 40
1.0
  9
$DIMLFAC
 40
1.0
  9
$DIMTOFL
 70
               1
  9
$DIMTVP
 40
0.0
  9
$DIMTIX
 70
               1
  9
$DIMSOXD
 70
               0
  9
$DIMSAH
 70
               0
  9
$DIMBLK1
  1

  9
$DIMBLK2
  1

  9
$DIMSTYLE
  2
Arch
  9
$DIMCLRD
 70
               0
  9
$DIMCLRE
 70
               0
  9
$DIMCLRT
 70
               0
  9
$DIMTFAC
 40
1.0
  9
$DIMGAP
 40
1.5874999999999999
  9
$DIMJUST
 70
               0
  9
$DIMSD1
 70
               0
  9
$DIMSD2
 70
               0
  9
$DIMTOLJ
 70
               1
  9
$DIMTZIN
 70
              11
  9
$DIMALTZ
 70
              11
  9
$DIMALTTZ
 70
              11
  9
$DIMUPT
 70
               0
  9
$DIMDEC
 70
               1
  9
$DIMTDEC
 70
               1
  9
$DIMALTU
 70
               2
  9
$DIMALTTD
 70
               2
  9
$DIMTXSTY
  7
Helvetica
  9
$DIMAUNIT
 70
               0
  9
$DIMADEC
 70
               2
  9
$DIMALTRND
 40
0.0
  9
$DIMAZIN
 70
               0
  9
$DIMDSEP
 70
              46
  9
$DIMATFIT
 70
               0
  9
$DIMFRAC
 70
               2
  9
$DIMLDRBLK
  1

  9
$DIMLUNIT
 70
               2
  9
$DIMLWD
 70
              -2
  9
$DIMLWE
 70
              -2
  9
$DIMTMOVE
 70
               0
  9
$LUNITS
 70
               2
  9
$LUPREC
 70
               4
  9
$SKETCHINC
 40
0.1
  9
$FILLETRAD
 40
0.0
  9
$AUNITS
 70
               0
  9
$AUPREC
 70
               0
  9
$MENU
  1
acad
  9
$ELEVATION
 40
0.0
  9
$PELEVATION
 40
0.0
  9
$THICKNESS
 40
0.0
  9
$LIMCHECK
 70
               0
  9
$CHAMFERA
 40
0.0
  9
$CHAMFERB
 40
0.0
  9
$CHAMFERC
 40
0.0
  9
$CHAMFERD
 40
0.0
  9
$SKPOLY
 70
               0
  9
$TDCREATE
 40
2454963.595393519
  9
$TDUCREATE
 40
0.000000000
  9
$TDUPDATE
 40
2454963.595393519
  9
$TDUUPDATE
 40
0.000000000
  9
$TDINDWG
 40
0.0000000000
  9
$TDUSRTIMER
 40
0.0000000000
  9
$USRTIMER
 70
               1
  9
$ANGBASE
 50
0.0
  9
$ANGDIR
 70
               0
  9
$PDMODE
 70
               1
  9
$PDSIZE
 40
-2.0
  9
$PLINEWID
 40
0.0
  9
$SPLFRAME
 70
               0
  9
$SPLINETYPE
 70
               6
  9
$SPLINESEGS
 70
               8
  9
$HANDSEED
  5
1D1
  9
$SURFTAB1
 70
               6
  9
$SURFTAB2
 70
               6
  9
$SURFTYPE
 70
               6
  9
$SURFU
 70
               6
  9
$SURFV
 70
               6
  9
$UCSBASE
  2

  9
$UCSNAME
  2

  9
$UCSORG
 10
0.0
 20
0.0
 30
0.0
  9
$UCSXDIR
 10
1.0
 20
0.0
 30
0.0
  9
$UCSYDIR
 10
0.0
 20
1.0
 30
0.0
  9
$UCSORTHOREF
  2

  9
$UCSORTHOVIEW
 70
               0
  9
$UCSORGTOP
 10
0.0
 20
0.0
 30
0.0
  9
$UCSORGBOTTOM
 10
0.0
 20
0.0
 30
0.0
  9
$UCSORGLEFT
 10
0.0
 20
0.0
 30
0.0
  9
$UCSORGRIGHT
 10
0.0
 20
0.0
 30
0.0
  9
$UCSORGFRONT
 10
0.0
 20
0.0
 30
0.0
  9
$UCSORGBACK
 10
0.0
 20
0.0
 30
0.0
  9
$PUCSBASE
  2

  9
$PUCSNAME
  2

  9
$PUCSORG
 10
0.0
 20
0.0
 30
0.0
  9
$PUCSXDIR
 10
1.0
 20
0.0
 30
0.0
  9
$PUCSYDIR
 10
0.0
 20
1.0
 30
0.0
  9
$PUCSORTHOREF
  2

  9
$PUCSORTHOVIEW
 70
               0
  9
$PUCSORGTOP
 10
0.0
 20
0.0
 30
0.0
  9
$PUCSORGBOTTOM
 10
0.0
 20
0.0
 30
0.0
  9
$PUCSORGLEFT
 10
0.0
 20
0.0
 30
0.0
  9
$PUCSORGRIGHT
 10
0.0
 20
0.0
 30
0.0
  9
$PUCSORGFRONT
 10
0.0
 20
0.0
 30
0.0
  9
$PUCSORGBACK
 10
0.0
 20
0.0
 30
0.0
  9
$USERI1
 70
               0
  9
$USERI2
 70
               0
  9
$USERI3
 70
               0
  9
$USERI4
 70
               0
  9
$USERI5
 70
               0
  9
$USERR1
 40
0.0
  9
$USERR2
 40
0.0
  9
$USERR3
 40
0.0
  9
$USERR4
 40
0.0
  9
$USERR5
 40
0.0
  9
$WORLDVIEW
 70
               1
  9
$SHADEDGE
 70
               3
  9
$SHADEDIF
 70
              70
  9
$TILEMODE
 70
               1
  9
$MAXACTVP
 70
              64
  9
$PINSBASE
 10
0.0
 20
0.0
 30
0.0
  9
$PLIMCHECK
 70
               0
  9
$PEXTMIN
 10
1.0000000000000000E+20
 20
1.0000000000000000E+20
 30
1.0000000000000000E+20
  9
$PEXTMAX
 10
-1.0000000000000000E+20
 20
-1.0000000000000000E+20
 30
-1.0000000000000000E+20
  9
$PLIMMIN
 10
0.0
 20
0.0
  9
$PLIMMAX
 10
12.0
 20
9.0
  9
$UNITMODE
 70
               0
  9
$VISRETAIN
 70
               0
  9
$PLINEGEN
 70
               1
  9
$PSLTSCALE
 70
               0
  9
$TREEDEPTH
 70
            3020
  9
$CMLSTYLE
  2
Standard
  9
$CMLJUST
 70
               0
  9
$CMLSCALE
 40
1.0
  9
$PROXYGRAPHICS
 70
               0
  9
$MEASUREMENT
 70
               1
  9
$CELWEIGHT
370
               0
  9
$ENDCAPS
280
               0
  9
$JOINSTYLE
280
               0
  9
$LWDISPLAY
290
               1
  9
$INSUNITS
 70
               4
  9
$HYPERLINKBASE
  1

  9
$STYLESHEET
  1

  9
$XEDIT
290
               1
  9
$CEPSNTYPE
380
               0
  9
$PSTYLEMODE
290
               1
  9
$FINGERPRINTGUID
  2

  9
$VERSIONGUID
  2

  9
$EXTNAMES
290
               1
  9
$PSVPSCALE
 40
0.0
  0
ENDSEC
  0
SECTION
  2
CLASSES
  0
CLASS
  1
LWPOLYLINE
  2
AcDbPolyline
  3
AutoCAD 2000
 90
        0
280
               0
281
               1
  0
CLASS
  1
IMAGE
  2
AcDbRasterImage
  3
ISM
 90
      127
280
               0
281
               1
  0
CLASS
  1
OLE2FRAME
  2
AcDbOle2Frame
  3
AutoCAD 2000
 90
        0
280
               0
281
               1
  0
CLASS
  1
HATCH
  2
AcDbHatch
  3
AutoCAD 2000
 90
        0
280
               0
281
               1
  0
CLASS
  1
DICTIONARYVAR
  2
AcDbDictionaryVar
  3
AutoCAD 2000
 90
        0
280
               0
281
               0
  0
CLASS
  1
RASTERVARIABLES
  2
AcDbRasterVariables
  3
ISM
 90
        0
280
               0
281
               0
  0
CLASS
  1
IMAGEDEF
  2
AcDbRasterImageDef
  3
ISM
 90
        0
280
               0
281
               0
  0
CLASS
  1
IMAGEDEF_REACTOR
  2
AcDbRasterImageDefReactor
  3
ISM
 90
        1
280
               0
281
               0
  0
CLASS
  1
IDBUFFER
  2
AcDbIdBuffer
  3
AutoCAD 2000
 90
        0
280
               0
281
               0
  0
CLASS
  1
SPATIAL_FILTER
  2
AcDbSpatialFilter
  3
AutoCAD 2000
 90
        0
280
               0
281
               0
  0
CLASS
  1
XRECORD
  2
AcDbXrecord
  3
AutoCAD 2000
 90
        0
280
               0
281
               0
  0
CLASS
  1
SORTENTSTABLE
  2
AcDbSortentsTable
  3
AutoCAD 2000
 90
        0
280
               0
281
               0
  0
CLASS
  1
LAYER_INDEX
  2
AcDbLayerIndex
  3
AutoCAD 2000
 90
        0
280
               0
281
               0
  0
CLASS
  1
SPATIAL_INDEX
  2
AcDbSpatialIndex
  3
AutoCAD 2000
 90
        0
280
               0
281
               0
  0
CLASS
  1
OBJECT_PTR
  2
CAseDLPNTableRecord
  3
"ASE-LPNTableRecord"
 90
        1
280
               0
281
               0
  0
CLASS
  1
LAYOUT
  2
AcDbLayout
  3
AutoCAD 2000
 90
        0
280
               0
281
               0
  0
CLASS
  1
PLOTSETTINGS
  2
AcDbPlotSettings
  3
AutoCAD 2000
 90
        0
280
               0
281
               0
  0
CLASS
  1
ACDBDICTIONARYWDFLT
  2
AcDbDictionaryWithDefault
  3
AutoCAD 2000
 90
        0
280
               0
281
               0
  0
CLASS
  1
ACDBPLACEHOLDER
  2
AcDbPlaceHolder
  3
AutoCAD 2000
 90
        0
280
               0
281
               0
  0
CLASS
  1
VBA_PROJECT
  2
AcDbVbaProject
  3
acadvba
 90
        0
280
               0
281
               0
  0
CLASS
  1
WIPEOUT
  2
AcDbWipeout
  3
WipeOut|AutoCAD Express Tool|expresstools@autodesk.com
 90
      127
280
               0
281
               1
  0
CLASS
  1
WIPEOUTVARIABLES
  2
AcDbWipeoutVariables
  3
WipeOut|AutoCAD Express Tool|expresstools@autodesk.com
 90
        0
280
               0
281
               0
  0
CLASS
  1
RTEXT
  2
RText
  3
RText|AutoCAD Express Tool|expresstools@autodesk.com
 90
        0
280
               0
281
               1
  0
CLASS
  1
ARCALIGNEDTEXT
  2
AcDbArcAlignedText
  3
ATEXT|AutoCAD Express Tool|expresstools@autodesk.com
 90
        0
280
               0
281
               1
  0
ENDSEC
  0
SECTION
  2
TABLES
  0
TABLE
  2
VPORT
  5
7
100
AcDbSymbolTable
 70
               1
  0
VPORT
  5
15
100
AcDbSymbolTableRecord
100
AcDbViewportTableRecord
  2
*ACTIVE
 70
               0
 10
0.0
 20
0.0
 11
1.0
 21
1.0
 12
-0.1674829546888006
 22
2.9477210000000014
 13
0.0
 23
0.0
 14
1.0
 24
1.0
 15
0.0
 25
0.0
 16
0.0
 26
0.0
 36
1.0
 17
0.0
 27
0.0
 37
0.0
 40
38.104557999999997
 41
0.688564
 42
50.0
 43
0.0
 44
0.0
 50
0.0
 51
0.0
 71
               0
 72
            2000
 73
               1
 74
               1
 75
               0
 76
               0
 77
               0
 78
               0
281
               0
 65
               0
110
0.0
120
0.0
130
0.0
111
1.0
121
0.0
131
0.0
112
0.0
122
1.0
132
0.0
345
0
346
0
 79
               0
146
0.0
  0
ENDTAB
  0
TABLE
  2
LTYPE
  5
4
100
AcDbSymbolTable
 70
              14
  0
LTYPE
  5
11
100
AcDbSymbolTableRecord
100
AcDbLinetypeTableRecord
  2
ByBlock
 70
              64
  3

 72
              65
 73
               0
 40
0.0
  0
LTYPE
  5
12
100
AcDbSymbolTableRecord
100
AcDbLinetypeTableRecord
  2
ByLayer
 70
              64
  3

 72
              65
 73
               0
 40
0.0
  0
LTYPE
  5
13
100
AcDbSymbolTableRecord
100
AcDbLinetypeTableRecord
  2
Continuous
 70
              64
  3
Solid line
 72
              65
 73
               0
 40
0.0
  0
LTYPE
  5
3C
100
AcDbSymbolTableRecord
100
AcDbLinetypeTableRecord
  2
STYLE_01
 70
               0
  3

 72
              65
 73
               2
 40
0.41664
 49
0.20828
 74
               0
 49
-0.20836
 74
               0
  0
LTYPE
  5
3D
100
AcDbSymbolTableRecord
100
AcDbLinetypeTableRecord
  2
STYLE_02
 70
               0
  3

 72
              65
 73
               2
 40
0.6944250000000001
 49
0.48607
 74
               0
 49
-0.2083550000000001
 74
               0
  0
LTYPE
  5
3E
100
AcDbSymbolTableRecord
100
AcDbLinetypeTableRecord
  2
STYLE_03
 70
               0
  3

 72
              65
 73
               2
 40
1.25
 49
1.0416400000000001
 74
               0
 49
-0.2083599999999999
 74
               0
  0
LTYPE
  5
3F
100
AcDbSymbolTableRecord
100
AcDbLinetypeTableRecord
  2
STYLE_04
 70
               0
  3

 72
              65
 73
               2
 40
1.5277099999999999
 49
1.3194249999999998
 74
               0
 49
-0.208285
 74
               0
  0
LTYPE
  5
40
100
AcDbSymbolTableRecord
100
AcDbLinetypeTableRecord
  2
STYLE_05
 70
               0
  3

 72
              65
 73
               2
 40
0.20828
 49
0.069425
 74
               0
 49
-0.138855
 74
               0
  0
LTYPE
  5
41
100
AcDbSymbolTableRecord
100
AcDbLinetypeTableRecord
  2
STYLE_06
 70
               0
  3

 72
              65
 73
               4
 40
1.0416400000000001
 49
0.625
 74
               0
 49
-0.20828
 74
               0
 49
0.06943
 74
               0
 49
-0.13893
 74
               0
  0
LTYPE
  5
42
100
AcDbSymbolTableRecord
100
AcDbLinetypeTableRecord
  2
STYLE_07
 70
               0
  3

 72
              65
 73
               6
 40
1.875
 49
0.625
 74
               0
 49
-0.20828
 74
               0
 49
0.6250000000000001
 74
               0
 49
-0.2083599999999999
 74
               0
 49
0.06943
 74
               0
 49
-0.1389299999999999
 74
               0
  0
LTYPE
  5
43
100
AcDbSymbolTableRecord
100
AcDbLinetypeTableRecord
  2
STYLE_08
 70
               0
  3

 72
              65
 73
               6
 40
1.25
 49
0.625
 74
               0
 49
-0.20828
 74
               0
 49
0.06943
 74
               0
 49
-0.13893
 74
               0
 49
0.0694299999999999
 74
               0
 49
-0.13893
 74
               0
  0
LTYPE
  5
44
100
AcDbSymbolTableRecord
100
AcDbLinetypeTableRecord
  2
STYLE_09
 70
               0
  3

 72
              65
 73
               4
 40
5.0
 49
3.75
 74
               0
 49
-0.2777849999999998
 74
               0
 49
0.6944300000000003
 74
               0
 49
-0.2777849999999998
 74
               0
  0
LTYPE
  5
45
100
AcDbSymbolTableRecord
100
AcDbLinetypeTableRecord
  2
STYLE_10
 70
               0
  3

 72
              65
 73
               6
 40
5.9375
 49
3.75
 74
               0
 49
-0.2777849999999998
 74
               0
 49
0.6944300000000003
 74
               0
 49
-0.2777849999999998
 74
               0
 49
0.625
 74
               0
 49
-0.3125
 74
               0
  0
LTYPE
  5
46
100
AcDbSymbolTableRecord
100
AcDbLinetypeTableRecord
  2
STYLE_11
 70
               0
  3

 72
              65
 73
               2
 40
0.4166412353515625
 49
0.2777862548828125
 74
               0
 49
-0.13885498046875
 74
               0
  0
ENDTAB
  0
TABLE
  2
LAYER
  5
2
100
AcDbSymbolTable
 70
               4
  0
LAYER
  5
14
100
AcDbSymbolTableRecord
100
AcDbLayerTableRecord
  2
0
 70
               0
 62
               7
  6
Continuous
290
               1
370
              -3
390
1D
  0
LAYER
  5
47
100
AcDbSymbolTableRecord
100
AcDbLayerTableRecord
  2
Defpoints
 70
               0
 62
               7
  6
Continuous
290
               0
370
              -3
390
1D
  0
LAYER
  5
48
100
AcDbSymbolTableRecord
100
AcDbLayerTableRecord
  2
None
 70
               0
 62
               7
  6
Continuous
290
               1
370
               5
390
1D
  0
LAYER
  5
49
100
AcDbSymbolTableRecord
100
AcDbLayerTableRecord
  2
Dimension
 70
               0
 62
               7
  6
Continuous
290
               1
370
               5
390
1D
  0
ENDTAB
  0
TABLE
  2
STYLE
  5
3
100
AcDbSymbolTable
 70
               4
  0
STYLE
  5
17
100
AcDbSymbolTableRecord
100
AcDbTextStyleTableRecord
  2
Standard
 70
               0
 40
0.0
 41
1.0
 50
0.0
 71
               0
 42
0.0
  3
txt
  4

  0
STYLE
  5
39
100
AcDbSymbolTableRecord
100
AcDbTextStyleTableRecord
  2
Arial
 70
               0
 40
0.0
 41
1.0
 50
0.0
 71
               0
 42
0.0
  3
Arial
  4

1001
ACAD
1000
Arial
1071
        0
  0
STYLE
  5
3A
100
AcDbSymbolTableRecord
100
AcDbTextStyleTableRecord
  2
Helvetica
 70
               0
 40
0.0
 41
1.0
 50
0.0
 71
               0
 42
0.0
  3
Helvetica
  4

1001
ACAD
1000
Helvetica
1071
        0
  0
STYLE
  5
3B
100
AcDbSymbolTableRecord
100
AcDbTextStyleTableRecord
  2
New Century Schlbk
 70
               0
 40
0.0
 41
1.0
 50
0.0
 71
               0
 42
0.0
  3
New Century Schlbk
  4

1001
ACAD
1000
New Century Schlbk
1071
        0
  0
ENDTAB
  0
TABLE
  2
VIEW
  5
5
100
AcDbSymbolTable
 70
               0
  0
ENDTAB
  0
TABLE
  2
UCS
  5
6
100
AcDbSymbolTable
 70
               0
  0
ENDTAB
  0
TABLE
  2
APPID
  5
8
100
AcDbSymbolTable
 70
               1
  0
APPID
  5
16
100
AcDbSymbolTableRecord
100
AcDbRegAppTableRecord
  2
ACAD
 70
               0
  0
ENDTAB
  0
TABLE
  2
DIMSTYLE
  5
9
100
AcDbSymbolTable
 70
               3
100
AcDbDimStyleTable
 71
               0
  0
DIMSTYLE
105
18
100
AcDbSymbolTableRecord
100
AcDbDimStyleTableRecord
  2
Standard
 70
               0
  3

  4

 40
1.0
 41
0.18
 42
0.0625
 43
0.38
 44
0.18
 45
0.0
 46
0.0
 47
0.0
 48
0.0
 71
               0
 72
               0
 73
               1
 74
               1
 75
               0
 76
               0
 77
               0
 78
               0
 79
               0
140
0.18
141
0.09
142
0.0
143
25.399999999999999
144
1.0
145
0.0
146
1.0
147
0.09
148
0.0
170
               0
171
               2
172
               0
173
               0
174
               0
175
               0
176
               0
177
               0
178
               0
179
               0
271
               4
272
               4
273
               2
274
               2
275
               0
276
               0
277
               2
278
              46
279
               0
280
               0
281
               0
282
               0
283
               1
284
               0
285
               0
286
               0
288
               0
289
               3
340
17
341
0
342
0
343
0
344
0
371
              -2
372
              -2
  0
DIMSTYLE
105
52
100
AcDbSymbolTableRecord
100
AcDbDimStyleTableRecord
  2
IE Standard
 70
               0
  3
<>mm
  4
[]
 40
1.0
 41
0.79375
 42
0.4762500011827797
 43
6.9999859934672708
 44
0.9525000023655593
 45
0.0
 46
0.0
 47
0.0
 48
0.0
 71
               0
 72
               0
 73
               1
 74
               1
 75
               0
 76
               0
 77
               0
 78
              11
 79
               0
140
0.7579186197916666
141
0.0
142
0.0
143
1.0
144
1.0
145
0.0
146
1.0
147
0.0
148
0.0
170
               0
171
               1
172
               1
173
               0
174
               1
175
               0
176
               0
177
               0
178
               0
179
               2
271
               1
272
               1
273
               2
274
               2
275
               0
276
               2
277
               2
278
              46
279
               0
280
               0
281
               0
282
               0
283
               1
284
              11
285
              11
286
              11
288
               0
289
               0
340
3A
341
4E
342
4A
343
0
344
0
371
              -2
372
              -2
  0
DIMSTYLE
105
58
100
AcDbSymbolTableRecord
100
AcDbDimStyleTableRecord
  2
Arch
 70
               0
  3
<>mm
  4
[]
 40
1.0
 41
0.5612060546875
 42
0.396875
 43
10.16
 44
0.79375
 45
0.0
 46
1.5874999999999999
 47
0.0
 48
0.0
 71
               0
 72
               0
 73
               0
 74
               0
 75
               0
 76
               0
 77
               1
 78
              11
 79
               0
140
0.7579186197916666
141
0.0
142
0.0
143
1.0
144
1.0
145
0.0
146
1.0
147
1.5874999999999999
148
0.0
170
               0
171
               1
172
               1
173
               0
174
               1
175
               0
176
               0
177
               0
178
               0
179
               2
271
               1
272
               1
273
               2
274
               2
275
               0
276
               2
277
               2
278
              46
279
               0
280
               0
281
               0
282
               0
283
               1
284
              11
285
              11
286
              11
288
               0
289
               0
340
3A
341
4A
342
53
343
0
344
0
371
              -2
372
              -2
  0
ENDTAB
  0
TABLE
  2
BLOCK_RECORD
  5
1
100
AcDbSymbolTable
 70
              24
  0
BLOCK_RECORD
  5
A
100
AcDbSymbolTableRecord
100
AcDbBlockTableRecord
  2
*MODEL_SPACE
340
20
  0
BLOCK_RECORD
  5
B
100
AcDbSymbolTableRecord
100
AcDbBlockTableRecord
  2
*PAPER_SPACE
340
21
  0
BLOCK_RECORD
  5
4A
100
AcDbSymbolTableRecord
100
AcDbBlockTableRecord
  2
VW_FILLEDARROW
340
0
  0
BLOCK_RECORD
  5
4E
100
AcDbSymbolTableRecord
100
AcDbBlockTableRecord
  2
VW_FILLEDARROW-1
340
0
  0
BLOCK_RECORD
  5
53
100
AcDbSymbolTableRecord
100
AcDbBlockTableRecord
  2
VW_SLASH
340
0
  0
BLOCK_RECORD
  5
24
100
AcDbSymbolTableRecord
100
AcDbBlockTableRecord
  2
*D3
340
0
  0
BLOCK_RECORD
  5
25
100
AcDbSymbolTableRecord
100
AcDbBlockTableRecord
  2
*D4
340
0
  0
BLOCK_RECORD
  5
26
100
AcDbSymbolTableRecord
100
AcDbBlockTableRecord
  2
*D5
340
0
  0
BLOCK_RECORD
  5
27
100
AcDbSymbolTableRecord
100
AcDbBlockTableRecord
  2
*D6
340
0
  0
BLOCK_RECORD
  5
28
100
AcDbSymbolTableRecord
100
AcDbBlockTableRecord
  2
*D7
340
0
  0
BLOCK_RECORD
  5
29
100
AcDbSymbolTableRecord
100
AcDbBlockTableRecord
  2
*D8
340
0
  0
BLOCK_RECORD
  5
2A
100
AcDbSymbolTableRecord
100
AcDbBlockTableRecord
  2
*D9
340
0
  0
BLOCK_RECORD
  5
2B
100
AcDbSymbolTableRecord
100
AcDbBlockTableRecord
  2
*D10
340
0
  0
BLOCK_RECORD
  5
2C
100
AcDbSymbolTableRecord
100
AcDbBlockTableRecord
  2
*D11
340
0
  0
BLOCK_RECORD
  5
2D
100
AcDbSymbolTableRecord
100
AcDbBlockTableRecord
  2
*D12
340
0
  0
BLOCK_RECORD
  5
2E
100
AcDbSymbolTableRecord
100
AcDbBlockTableRecord
  2
*D13
340
0
  0
BLOCK_RECORD
  5
2F
100
AcDbSymbolTableRecord
100
AcDbBlockTableRecord
  2
*D14
340
0
  0
BLOCK_RECORD
  5
30
100
AcDbSymbolTableRecord
100
AcDbBlockTableRecord
  2
*D15
340
0
  0
BLOCK_RECORD
  5
31
100
AcDbSymbolTableRecord
100
AcDbBlockTableRecord
  2
*D16
340
0
  0
BLOCK_RECORD
  5
32
100
AcDbSymbolTableRecord
100
AcDbBlockTableRecord
  2
*D17
340
0
  0
BLOCK_RECORD
  5
33
100
AcDbSymbolTableRecord
100
AcDbBlockTableRecord
  2
*D18
340
0
  0
BLOCK_RECORD
  5
34
100
AcDbSymbolTableRecord
100
AcDbBlockTableRecord
  2
Group
340
0
102
{BLKREFS
331
187
102
}
  0
BLOCK_RECORD
  5
35
100
AcDbSymbolTableRecord
100
AcDbBlockTableRecord
  2
Group-1
340
0
102
{BLKREFS
331
188
102
}
  0
BLOCK_RECORD
  5
36
100
AcDbSymbolTableRecord
100
AcDbBlockTableRecord
  2
Group-2
340
0
102
{BLKREFS
331
192
102
}
  0
BLOCK_RECORD
  5
37
100
AcDbSymbolTableRecord
100
AcDbBlockTableRecord
  2
Group-3
340
0
102
{BLKREFS
331
1CD
102
}
  0
BLOCK_RECORD
  5
38
100
AcDbSymbolTableRecord
100
AcDbBlockTableRecord
  2
Group-4
340
0
102
{BLKREFS
331
1D0
102
}
  0
ENDTAB
  0
ENDSEC
  0
SECTION
  2
BLOCKS
  0
BLOCK
  5
D
100
AcDbEntity
  8
0
390
0
100
AcDbBlockBegin
  2
*MODEL_SPACE
 70
               0
 10
0.0
 20
0.0
 30
0.0
  3
*MODEL_SPACE
  1

  0
ENDBLK
  5
E
100
AcDbEntity
  8
0
390
0
100
AcDbBlockEnd
  0
BLOCK
  5
F
100
AcDbEntity
 67
               1
  8
0
390
0
100
AcDbBlockBegin
  2
*PAPER_SPACE
 70
               0
 10
0.0
 20
0.0
 30
0.0
  3
*PAPER_SPACE
  1

  0
ENDBLK
  5
10
100
AcDbEntity
 67
               1
  8
0
390
0
100
AcDbBlockEnd
  0
BLOCK
  5
4B
100
AcDbEntity
  8
0
370
              -2
390
0
  6
ByBlock
 62
               0
100
AcDbBlockBegin
  2
VW_FILLEDARROW
 70
               0
 10
0.0
 20
0.0
 30
0.0
  3
VW_FILLEDARROW
  1

  0
SOLID
  5
4C
100
AcDbEntity
  8
0
370
              -2
390
0
 62
               0
100
AcDbTrace
 10
0.0
 20
0.0
 30
0.0
 11
-0.9999389648437499
 21
-0.2679328381102956
 31
0.0
 12
-0.9999389648437499
 22
0.2679328381102958
 32
0.0
 13
-0.9999389648437499
 23
0.2679328381102958
 33
0.0
  0
ENDBLK
  5
4D
100
AcDbEntity
  8
0
390
0
100
AcDbBlockEnd
  0
BLOCK
  5
4F
100
AcDbEntity
  8
0
370
              -2
390
0
  6
ByBlock
 62
               0
100
AcDbBlockBegin
  2
VW_FILLEDARROW-1
 70
               0
 10
0.0
 20
0.0
 30
0.0
  3
VW_FILLEDARROW
  1

  0
SOLID
  5
50
100
AcDbEntity
  8
0
370
              -2
390
0
 62
               0
100
AcDbTrace
 10
0.0
 20
0.0
 30
0.0
 11
-0.6662384033203125
 21
-0.1785180421362784
 31
0.0
 12
-0.6662384033203125
 22
0.1785180421362785
 32
0.0
 13
-0.6662384033203125
 23
0.1785180421362785
 33
0.0
  0
ENDBLK
  5
51
100
AcDbEntity
  8
0
390
0
100
AcDbBlockEnd
  0
BLOCK
  5
54
100
AcDbEntity
  8
0
370
              -2
390
0
  6
ByBlock
 62
               0
100
AcDbBlockBegin
  2
VW_SLASH
 70
               0
 10
0.0
 20
0.0
 30
0.0
  3
VW_SLASH
  1

  0
LINE
  5
55
100
AcDbEntity
  8
0
370
              -2
390
0
  6
ByBlock
 62
               0
100
AcDbLine
 10
0.0
 20
0.0
 30
0.0
 11
-1.0
 21
0.0
 31
0.0
  0
LINE
  5
56
100
AcDbEntity
  8
0
370
              20
390
0
  6
ByBlock
 62
               0
100
AcDbLine
 10
-0.5000145658230796
 20
-0.5000145658230795
 30
0.0
 11
0.5000145658230796
 21
0.5000145658230795
 31
0.0
  0
ENDBLK
  5
57
100
AcDbEntity
  8
0
390
0
100
AcDbBlockEnd
  0
BLOCK
  5
59
100
AcDbEntity
  8
Dimension
390
0
100
AcDbBlockBegin
  2
*D3
 70
               1
 10
0.0
 20
0.0
 30
0.0
  3
*D3
  1

  0
LINE
  5
5A
100
AcDbEntity
  8
Dimension
370
              -2
390
0
  6
Continuous
 62
               0
100
AcDbLine
 10
-6.9098075812299555
 20
12.320439999999991
 30
0.0
 11
-28.89355758241274
 21
12.320439999999991
 31
0.0
  0
LINE
  5
5B
100
AcDbEntity
  8
Dimension
370
              -2
390
0
  6
Continuous
 62
               0
100
AcDbLine
 10
-6.9098075812299555
 20
-2.9045600000000036
 30
0.0
 11
-28.893557582412733
 21
-2.9045600000000036
 31
0.0
  0
LINE
  5
5C
100
AcDbEntity
  8
Dimension
370
              -2
390
0
  6
Continuous
 62
               0
100
AcDbLine
 10
-27.941057580047172
 20
12.320439999999991
 30
0.0
 11
-27.941057580047172
 21
-2.9045600000000036
 31
0.0
  0
SOLID
  5
5D
100
AcDbEntity
  8
Dimension
370
              -2
390
0
 62
               0
100
AcDbTrace
 10
-27.941057580047172
 20
12.320439999999991
 30
0.0
 11
-27.72837290855497
 21
11.526689999999991
 31
0.0
 12
-28.153742251539377
 22
11.526689999999991
 32
0.0
 13
-28.153742251539377
 23
11.526689999999991
 33
0.0
  0
SOLID
  5
5E
100
AcDbEntity
  8
Dimension
370
              -2
390
0
 62
               0
100
AcDbTrace
 10
-27.941057580047172
 20
-2.9045600000000036
 30
0.0
 11
-28.153742251539377
 21
-2.1108100000000034
 31
0.0
 12
-27.728372908554967
 22
-2.1108100000000034
 32
0.0
 13
-27.728372908554967
 23
-2.1108100000000034
 33
0.0
  0
WIPEOUT
  5
5F
100
AcDbEntity
  8
Dimension
370
              -2
390
0
  6
Continuous
 62
               0
 92
        0
100
AcDbWipeout
 90
        0
 10
-33.999999999999986
 20
4.2069640410563069
 30
0.0
 11
5.0376507600148521
 21
0.0
 31
0.0
 12
0.0
 22
5.0376507600148521
 32
0.0
 13
1.0
 23
1.0
340
0
 70
               7
280
               1
281
              50
282
              50
283
               0
360
0
 71
               2
 91
        5
 14
-0.5
 24
0.5
 14
0.5
 24
0.5
 14
0.5
 24
0.2584033594269224
 14
-0.5
 24
0.2584033594269224
 14
-0.5
 24
0.5
  0
MTEXT
  5
60
100
AcDbEntity
  8
Dimension
390
0
 62
               0
100
AcDbMText
 10
-33.999999999999986
 20
5.2294651608479734
 30
0.0
 40
0.7579186197916666
 41
0.0
 71
               1
 72
               1
  1
15.225mm
  7
Helvetica
 73
               1
 44
0.9673603504928806
  0
WIPEOUT
  5
61
100
AcDbEntity
  8
Dimension
370
              -2
390
0
  6
Continuous
 62
               0
 92
        0
100
AcDbWipeout
 90
        0
 10
-28.96234923998513
 20
4.2069623743896161
 30
0.0
 11
5.0270675208833495
 21
0.0
 31
0.0
 12
0.0
 22
5.0270675208833495
 32
0.0
 13
1.0
 23
1.0
340
0
 70
               7
280
               1
281
              50
282
              50
283
               0
360
0
 71
               2
 91
        5
 14
-0.5
 24
0.5
 14
0.5
 24
0.5
 14
0.5
 24
0.2578947378478544
 14
-0.5
 24
0.2578947378478544
 14
-0.5
 24
0.5
  0
MTEXT
  5
62
100
AcDbEntity
  8
Dimension
390
0
 62
               0
100
AcDbMText
 10
-28.96234923998513
 20
5.2294634941812825
 30
0.0
 40
0.7579186197916666
 41
0.0
 71
               1
 72
               1
  1
±0.125mm
  7
Helvetica
 73
               1
 44
0.9673603504928806
  0
WIPEOUT
  5
63
100
AcDbEntity
  8
Dimension
370
              -2
390
0
  6
Continuous
 62
               0
 92
        0
100
AcDbWipeout
 90
        0
 10
-23.935281719101781
 20
4.2069602077229735
 30
0.0
 11
2.0531665590074333
 21
0.0
 31
0.0
 12
0.0
 22
2.0531665590074333
 32
0.0
 13
1.0
 23
1.0
340
0
 70
               7
280
               1
281
              50
282
              50
283
               0
360
0
 71
               2
 91
        5
 14
-0.5
 24
0.5
 14
0.5
 24
0.5
 14
0.5
 24
-0.0927835362376593
 14
-0.5
 24
-0.0927835362376593
 14
-0.5
 24
0.5
  0
MTEXT
  5
64
100
AcDbEntity
  8
Dimension
390
0
 62
               0
100
AcDbMText
 10
-23.935281719101781
 20
5.2294645480007507
 30
0.0
 40
0.7579210069444442
 41
0.0
 71
               1
 72
               1
  1
 sqr.
  7
Helvetica
 73
               1
 44
0.9673603504928806
  0
POINT
  5
65
100
AcDbEntity
  8
Defpoints
370
               0
390
0
 62
               0
100
AcDbPoint
 10
-6.4335575800471787
 20
-2.9045600000000036
 30
0.0
  0
POINT
  5
66
100
AcDbEntity
  8
Defpoints
370
               0
390
0
 62
               0
100
AcDbPoint
 10
-6.4335575800471787
 20
12.320439999999991
 30
0.0
  0
POINT
  5
67
100
AcDbEntity
  8
Defpoints
370
               0
390
0
 62
               0
100
AcDbPoint
 10
-27.941057580047175
 20
12.320439999999991
 30
0.0
  0
ENDBLK
  5
68
100
AcDbEntity
  8
Dimension
390
0
100
AcDbBlockEnd
  0
BLOCK
  5
69
100
AcDbEntity
  8
Dimension
390
0
100
AcDbBlockBegin
  2
*D4
 70
               1
 10
0.0
 20
0.0
 30
0.0
  3
*D4
  1

  0
LINE
  5
6A
100
AcDbEntity
  8
Dimension
370
              -2
390
0
  6
Continuous
 62
               0
100
AcDbLine
 10
-5.1835575800471787
 20
11.546690001182782
 30
0.0
 11
-5.1835575800471787
 21
19.456480002365538
 31
0.0
  0
LINE
  5
6B
100
AcDbEntity
  8
Dimension
370
              -2
390
0
  6
Continuous
 62
               0
100
AcDbLine
 10
-2.4610575800471821
 20
10.364190001182777
 30
0.0
 11
-2.4610575800471821
 21
19.456480002365538
 31
0.0
  0
LINE
  5
6C
100
AcDbEntity
  8
Dimension
370
              -2
390
0
  6
Continuous
 62
               0
100
AcDbLine
 10
-2.4610575800471821
 20
18.503979999999984
 30
0.0
 11
-5.1835575800471787
 21
18.503979999999984
 31
0.0
  0
LINE
  5
6D
100
AcDbEntity
  8
Dimension
370
              -2
390
0
  6
Continuous
 62
               0
100
AcDbLine
 10
-5.1835575800471787
 20
18.503979999999984
 30
0.0
 11
-6.9335540784139909
 21
18.503979999999984
 31
0.0
  0
SOLID
  5
6E
100
AcDbEntity
  8
Dimension
370
              -2
390
0
 62
               0
100
AcDbTrace
 10
-5.1835575800471787
 20
18.503979999999984
 30
0.0
 11
-5.9773075800471789
 21
18.291295328507779
 31
0.0
 12
-5.9773075800471789
 22
18.71666467149219
 32
0.0
 13
-5.9773075800471789
 23
18.71666467149219
 33
0.0
  0
LINE
  5
6F
100
AcDbEntity
  8
Dimension
370
              -2
390
0
  6
Continuous
 62
               0
100
AcDbLine
 10
-2.4610575800471821
 20
18.503979999999984
 30
0.0
 11
0.01195241995282
 21
18.503979999999984
 31
0.0
  0
SOLID
  5
70
100
AcDbEntity
  8
Dimension
370
              -2
390
0
 62
               0
100
AcDbTrace
 10
-2.4610575800471821
 20
18.503979999999984
 30
0.0
 11
-1.6673075800471822
 21
18.71666467149219
 31
0.0
 12
-1.6673075800471822
 22
18.291295328507779
 32
0.0
 13
-1.6673075800471822
 23
18.291295328507779
 33
0.0
  0
WIPEOUT
  5
71
100
AcDbEntity
  8
Dimension
370
              -2
390
0
  6
Continuous
 62
               0
 92
        0
100
AcDbWipeout
 90
        0
 10
0.01195241995282
 20
17.895440249999989
 30
0.0
 11
4.2650699297587078
 21
0.0
 31
0.0
 12
0.0
 22
4.2650699297587078
 32
0.0
 13
1.0
 23
1.0
340
0
 70
               7
280
               1
281
              50
282
              50
283
               0
360
0
 71
               2
 91
        5
 14
-0.5
 24
0.5
 14
0.5
 24
0.5
 14
0.5
 24
0.2146402005022094
 14
-0.5
 24
0.2146402005022094
 14
-0.5
 24
0.5
  0
MTEXT
  5
72
100
AcDbEntity
  8
Dimension
390
0
 62
               0
100
AcDbMText
 10
0.01195241995282
 20
18.917941369791656
 30
0.0
 40
0.7579186197916666
 41
0.0
 71
               1
 72
               1
  1
2.72mm*
  7
Helvetica
 73
               1
 44
0.9673603504928806
  0
POINT
  5
73
100
AcDbEntity
  8
Defpoints
370
               0
390
0
 62
               0
100
AcDbPoint
 10
-2.4610575800471821
 20
9.8879399999999862
 30
0.0
  0
POINT
  5
74
100
AcDbEntity
  8
Defpoints
370
               0
390
0
 62
               0
100
AcDbPoint
 10
-5.1835575800471787
 20
11.070439999999991
 30
0.0
  0
POINT
  5
75
100
AcDbEntity
  8
Defpoints
370
               0
390
0
 62
               0
100
AcDbPoint
 10
-5.1835575800471787
 20
18.503979999999991
 30
0.0
  0
ENDBLK
  5
76
100
AcDbEntity
  8
Dimension
390
0
100
AcDbBlockEnd
  0
BLOCK
  5
77
100
AcDbEntity
  8
Dimension
390
0
100
AcDbBlockBegin
  2
*D5
 70
               1
 10
0.0
 20
0.0
 30
0.0
  3
*D5
  1

  0
LINE
  5
78
100
AcDbEntity
  8
Dimension
370
              -2
390
0
  6
Continuous
 62
               0
100
AcDbLine
 10
-2.9373075812299589
 20
9.8879399999999862
 30
0.0
 11
-9.6253575824127466
 21
9.8879399999999862
 31
0.0
  0
LINE
  5
79
100
AcDbEntity
  8
Dimension
370
              -2
390
0
  6
Continuous
 62
               0
100
AcDbLine
 10
-5.6598075812299555
 20
11.070439999999991
 30
0.0
 11
-9.6253575824127324
 21
11.070439999999991
 31
0.0
  0
LINE
  5
7A
100
AcDbEntity
  8
Dimension
370
              -2
390
0
  6
Continuous
 62
               0
100
AcDbLine
 10
-8.6728575800471788
 20
11.070439999999991
 30
0.0
 11
-8.6728575800471788
 21
9.8879399999999862
 31
0.0
  0
LINE
  5
7B
100
AcDbEntity
  8
Dimension
370
              -2
390
0
  6
Continuous
 62
               0
100
AcDbLine
 10
-8.6728575800471788
 20
9.8879399999999862
 30
0.0
 11
-8.6728575800471788
 21
8.137943501633174
 31
0.0
  0
SOLID
  5
7C
100
AcDbEntity
  8
Dimension
370
              -2
390
0
 62
               0
100
AcDbTrace
 10
-8.6728575800471788
 20
9.8879399999999862
 30
0.0
 11
-8.4601729085549753
 21
9.0941899999999869
 31
0.0
 12
-8.8855422515393823
 22
9.0941899999999869
 32
0.0
 13
-8.8855422515393823
 23
9.0941899999999869
 33
0.0
  0
LINE
  5
7D
100
AcDbEntity
  8
Dimension
370
              -2
390
0
  6
Continuous
 62
               0
100
AcDbLine
 10
-8.6728575800471788
 20
11.070439999999991
 30
0.0
 11
-8.6728575800471788
 21
12.820436498366803
 31
0.0
  0
SOLID
  5
7E
100
AcDbEntity
  8
Dimension
370
              -2
390
0
 62
               0
100
AcDbTrace
 10
-8.6728575800471788
 20
11.070439999999991
 30
0.0
 11
-8.8855422515393823
 21
11.86418999999999
 31
0.0
 12
-8.4601729085549753
 22
11.86418999999999
 32
0.0
 13
-8.4601729085549753
 23
11.86418999999999
 33
0.0
  0
WIPEOUT
  5
7F
100
AcDbEntity
  8
Dimension
370
              -2
390
0
  6
Continuous
 62
               0
 92
        0
100
AcDbWipeout
 90
        0
 10
-10.599018204339345
 20
9.8706682935180474
 30
0.0
 11
3.8523212485843228
 21
0.0
 31
0.0
 12
0.0
 22
3.8523212485843228
 32
0.0
 13
1.0
 23
1.0
340
0
 70
               7
280
               1
281
              50
282
              50
283
               0
360
0
 71
               2
 91
        5
 14
-0.5
 24
0.5
 14
0.5
 24
0.5
 14
0.5
 24
0.1840659380503998
 14
-0.5
 24
0.1840659380503998
 14
-0.5
 24
0.5
  0
MTEXT
  5
80
100
AcDbEntity
  8
Dimension
390
0
 62
               0
100
AcDbMText
 10
-10.599018204339345
 20
10.893169413309714
 30
0.0
 40
0.7579186197916666
 41
0.0
 71
               1
 72
               1
  1
1.18mm
  7
Helvetica
 73
               1
 44
0.9673603504928806
  0
POINT
  5
81
100
AcDbEntity
  8
Defpoints
370
               0
390
0
 62
               0
100
AcDbPoint
 10
-5.1835575800471787
 20
11.070439999999991
 30
0.0
  0
POINT
  5
82
100
AcDbEntity
  8
Defpoints
370
               0
390
0
 62
               0
100
AcDbPoint
 10
-2.4610575800471821
 20
9.8879399999999862
 30
0.0
  0
POINT
  5
83
100
AcDbEntity
  8
Defpoints
370
               0
390
0
 62
               0
100
AcDbPoint
 10
-8.6728575800471823
 20
9.8879399999999862
 30
0.0
  0
ENDBLK
  5
84
100
AcDbEntity
  8
Dimension
390
0
100
AcDbBlockEnd
  0
BLOCK
  5
85
100
AcDbEntity
  8
Dimension
390
0
100
AcDbBlockBegin
  2
*D6
 70
               1
 10
0.0
 20
0.0
 30
0.0
  3
*D6
  1

  0
LINE
  5
86
100
AcDbEntity
  8
Dimension
370
              -2
390
0
  6
Continuous
 62
               0
100
AcDbLine
 10
-5.6598075812299555
 20
-1.6545600000000036
 30
0.0
 11
-10.562217582412742
 21
-1.6545600000000036
 31
0.0
  0
LINE
  5
87
100
AcDbEntity
  8
Dimension
370
              -2
390
0
  6
Continuous
 62
               0
100
AcDbLine
 10
-5.6598075812299555
 20
3.4254399999999805
 30
0.0
 11
-10.562217582412728
 21
3.4254399999999805
 31
0.0
  0
LINE
  5
88
100
AcDbEntity
  8
Dimension
370
              -2
390
0
  6
Continuous
 62
               0
100
AcDbLine
 10
-9.6097175800471746
 20
-1.6545600000000036
 30
0.0
 11
-9.6097175800471746
 21
3.4254399999999805
 31
0.0
  0
SOLID
  5
89
100
AcDbEntity
  8
Dimension
370
              -2
390
0
 62
               0
100
AcDbTrace
 10
-9.6097175800471746
 20
-1.6545600000000036
 30
0.0
 11
-9.8224022515393781
 21
-0.8608100000000036
 31
0.0
 12
-9.3970329085549711
 22
-0.8608100000000036
 32
0.0
 13
-9.3970329085549711
 23
-0.8608100000000036
 33
0.0
  0
SOLID
  5
8A
100
AcDbEntity
  8
Dimension
370
              -2
390
0
 62
               0
100
AcDbTrace
 10
-9.6097175800471746
 20
3.4254399999999805
 30
0.0
 11
-9.3970329085549711
 21
2.6316899999999803
 31
0.0
 12
-9.8224022515393781
 22
2.6316899999999803
 32
0.0
 13
-9.8224022515393781
 23
2.6316899999999803
 33
0.0
  0
WIPEOUT
  5
8B
100
AcDbEntity
  8
Dimension
370
              -2
390
0
  6
Continuous
 62
               0
 92
        0
100
AcDbWipeout
 90
        0
 10
-11.53587820433934
 20
1.2369191708984146
 30
0.0
 11
3.8523212485843228
 21
0.0
 31
0.0
 12
0.0
 22
3.8523212485843228
 32
0.0
 13
1.0
 23
1.0
340
0
 70
               7
280
               1
281
              50
282
              50
283
               0
360
0
 71
               2
 91
        5
 14
-0.5
 24
0.5
 14
0.5
 24
0.5
 14
0.5
 24
0.1840659380504
 14
-0.5
 24
0.1840659380504
 14
-0.5
 24
0.5
  0
MTEXT
  5
8C
100
AcDbEntity
  8
Dimension
390
0
 62
               0
100
AcDbMText
 10
-11.53587820433934
 20
2.2594202906900813
 30
0.0
 40
0.7579186197916666
 41
0.0
 71
               1
 72
               1
  1
5.08mm
  7
Helvetica
 73
               1
 44
0.9673603504928806
  0
POINT
  5
8D
100
AcDbEntity
  8
Defpoints
370
               0
390
0
 62
               0
100
AcDbPoint
 10
-5.1835575800471787
 20
3.4254399999999805
 30
0.0
  0
POINT
  5
8E
100
AcDbEntity
  8
Defpoints
370
               0
390
0
 62
               0
100
AcDbPoint
 10
-5.1835575800471787
 20
-1.6545600000000036
 30
0.0
  0
POINT
  5
8F
100
AcDbEntity
  8
Defpoints
370
               0
390
0
 62
               0
100
AcDbPoint
 10
-9.6097175800471781
 20
-1.6545600000000036
 30
0.0
  0
ENDBLK
  5
90
100
AcDbEntity
  8
Dimension
390
0
100
AcDbBlockEnd
  0
BLOCK
  5
91
100
AcDbEntity
  8
Dimension
390
0
100
AcDbBlockBegin
  2
*D7
 70
               1
 10
0.0
 20
0.0
 30
0.0
  3
*D7
  1

  0
LINE
  5
92
100
AcDbEntity
  8
Dimension
370
              -2
390
0
  6
Continuous
 62
               0
100
AcDbLine
 10
8.0176924211355924
 20
8.5304399999999987
 30
0.0
 11
13.69083242231838
 21
8.5304399999999987
 31
0.0
  0
LINE
  5
93
100
AcDbEntity
  8
Dimension
370
              -2
390
0
  6
Continuous
 62
               0
100
AcDbLine
 10
8.0176924211355924
 20
11.070439999999991
 30
0.0
 11
13.690832422318366
 21
11.070439999999991
 31
0.0
  0
LINE
  5
94
100
AcDbEntity
  8
Dimension
370
              -2
390
0
  6
Continuous
 62
               0
100
AcDbLine
 10
12.738332419952812
 20
11.070439999999991
 30
0.0
 11
12.738332419952812
 21
8.5304399999999987
 31
0.0
  0
LINE
  5
95
100
AcDbEntity
  8
Dimension
370
              -2
390
0
  6
Continuous
 62
               0
100
AcDbLine
 10
12.738332419952812
 20
8.5304399999999987
 30
0.0
 11
12.738332419952812
 21
6.7804435016331865
 31
0.0
  0
SOLID
  5
96
100
AcDbEntity
  8
Dimension
370
              -2
390
0
 62
               0
100
AcDbTrace
 10
12.738332419952812
 20
8.5304399999999987
 30
0.0
 11
12.951017091445015
 21
7.7366899999999985
 31
0.0
 12
12.525647748460608
 22
7.7366899999999985
 32
0.0
 13
12.525647748460608
 23
7.7366899999999985
 33
0.0
  0
LINE
  5
97
100
AcDbEntity
  8
Dimension
370
              -2
390
0
  6
Continuous
 62
               0
100
AcDbLine
 10
12.738332419952812
 20
11.070439999999991
 30
0.0
 11
12.738332419952812
 21
12.820436498366803
 31
0.0
  0
SOLID
  5
98
100
AcDbEntity
  8
Dimension
370
              -2
390
0
 62
               0
100
AcDbTrace
 10
12.738332419952812
 20
11.070439999999991
 30
0.0
 11
12.525647748460608
 21
11.86418999999999
 31
0.0
 12
12.951017091445015
 22
11.86418999999999
 32
0.0
 13
12.951017091445015
 23
11.86418999999999
 33
0.0
  0
WIPEOUT
  5
99
100
AcDbEntity
  8
Dimension
370
              -2
390
0
  6
Continuous
 62
               0
 92
        0
100
AcDbWipeout
 90
        0
 10
10.812171795660646
 20
9.1919002499999856
 30
0.0
 11
3.8523212485843228
 21
0.0
 31
0.0
 12
0.0
 22
3.8523212485843228
 32
0.0
 13
1.0
 23
1.0
340
0
 70
               7
280
               1
281
              50
282
              50
283
               0
360
0
 71
               2
 91
        5
 14
-0.5
 24
0.5
 14
0.5
 24
0.5
 14
0.5
 24
0.1840659380503998
 14
-0.5
 24
0.1840659380503998
 14
-0.5
 24
0.5
  0
MTEXT
  5
9A
100
AcDbEntity
  8
Dimension
390
0
 62
               0
100
AcDbMText
 10
10.812171795660646
 20
10.214401369791652
 30
0.0
 40
0.7579186197916666
 41
0.0
 71
               1
 72
               1
  1
2.54mm
  7
Helvetica
 73
               1
 44
0.9673603504928806
  0
POINT
  5
9B
100
AcDbEntity
  8
Defpoints
370
               0
390
0
 62
               0
100
AcDbPoint
 10
7.5414424199528156
 20
11.070439999999991
 30
0.0
  0
POINT
  5
9C
100
AcDbEntity
  8
Defpoints
370
               0
390
0
 62
               0
100
AcDbPoint
 10
7.5414424199528156
 20
8.5304399999999987
 30
0.0
  0
POINT
  5
9D
100
AcDbEntity
  8
Defpoints
370
               0
390
0
 62
               0
100
AcDbPoint
 10
12.738332419952815
 20
8.5304399999999987
 30
0.0
  0
ENDBLK
  5
9E
100
AcDbEntity
  8
Dimension
390
0
100
AcDbBlockEnd
  0
BLOCK
  5
9F
100
AcDbEntity
  8
Dimension
390
0
100
AcDbBlockBegin
  2
*D8
 70
               1
 10
0.0
 20
0.0
 30
0.0
  3
*D8
  1

  0
LINE
  5
A0
100
AcDbEntity
  8
Dimension
370
              -2
390
0
  6
Continuous
 62
               0
100
AcDbLine
 10
-5.1835575800471787
 20
-2.1308100011827946
 30
0.0
 11
-5.1835575800471787
 21
-13.337060002365547
 31
0.0
  0
LINE
  5
A1
100
AcDbEntity
  8
Dimension
370
              -2
390
0
  6
Continuous
 62
               0
100
AcDbLine
 10
7.5414424199528156
 20
-2.1308100011827946
 30
0.0
 11
7.5414424199528156
 21
-13.337060002365547
 31
0.0
  0
LINE
  5
A2
100
AcDbEntity
  8
Dimension
370
              -2
390
0
  6
Continuous
 62
               0
100
AcDbLine
 10
7.5414424199528156
 20
-12.384559999999993
 30
0.0
 11
-5.1835575800471787
 21
-12.384559999999993
 31
0.0
  0
LINE
  5
A3
100
AcDbEntity
  8
Dimension
370
              -2
390
0
  6
Continuous
 62
               0
100
AcDbLine
 10
-5.1835575800471787
 20
-12.384559999999993
 30
0.0
 11
-6.9335540784139909
 21
-12.384559999999993
 31
0.0
  0
SOLID
  5
A4
100
AcDbEntity
  8
Dimension
370
              -2
390
0
 62
               0
100
AcDbTrace
 10
-5.1835575800471787
 20
-12.384559999999993
 30
0.0
 11
-5.9773075800471789
 21
-12.597244671492197
 31
0.0
 12
-5.9773075800471789
 22
-12.17187532850779
 32
0.0
 13
-5.9773075800471789
 23
-12.17187532850779
 33
0.0
  0
LINE
  5
A5
100
AcDbEntity
  8
Dimension
370
              -2
390
0
  6
Continuous
 62
               0
100
AcDbLine
 10
7.5414424199528156
 20
-12.384559999999993
 30
0.0
 11
9.2914389183196278
 21
-12.384559999999993
 31
0.0
  0
SOLID
  5
A6
100
AcDbEntity
  8
Dimension
370
              -2
390
0
 62
               0
100
AcDbTrace
 10
7.5414424199528156
 20
-12.384559999999993
 30
0.0
 11
8.3351924199528149
 21
-12.17187532850779
 31
0.0
 12
8.3351924199528149
 22
-12.597244671492197
 32
0.0
 13
8.3351924199528149
 23
-12.597244671492197
 33
0.0
  0
WIPEOUT
  5
A7
100
AcDbEntity
  8
Dimension
370
              -2
390
0
  6
Continuous
 62
               0
 92
        0
100
AcDbWipeout
 90
        0
 10
-4.9264576635095807
 20
-12.993097833333326
 30
0.0
 11
5.0376507600148521
 21
0.0
 31
0.0
 12
0.0
 22
5.0376507600148521
 32
0.0
 13
1.0
 23
1.0
340
0
 70
               7
280
               1
281
              50
282
              50
283
               0
360
0
 71
               2
 91
        5
 14
-0.5
 24
0.5
 14
0.5
 24
0.5
 14
0.5
 24
0.2584033594269222
 14
-0.5
 24
0.2584033594269222
 14
-0.5
 24
0.5
  0
MTEXT
  5
A8
100
AcDbEntity
  8
Dimension
390
0
 62
               0
100
AcDbMText
 10
-4.9264576635095807
 20
-11.97059671354166
 30
0.0
 40
0.7579186197916666
 41
0.0
 71
               1
 72
               1
  1
12.725mm
  7
Helvetica
 73
               1
 44
0.9673603504928806
  0
WIPEOUT
  5
A9
100
AcDbEntity
  8
Dimension
370
              -2
390
0
  6
Continuous
 62
               0
 92
        0
100
AcDbWipeout
 90
        0
 10
0.111193096505275
 20
-12.993099500000017
 30
0.0
 11
5.0270675208833486
 21
0.0
 31
0.0
 12
0.0
 22
5.0270675208833486
 32
0.0
 13
1.0
 23
1.0
340
0
 70
               7
280
               1
281
              50
282
              50
283
               0
360
0
 71
               2
 91
        5
 14
-0.5
 24
0.5
 14
0.5
 24
0.5
 14
0.5
 24
0.2578947378478542
 14
-0.5
 24
0.2578947378478542
 14
-0.5
 24
0.5
  0
MTEXT
  5
AA
100
AcDbEntity
  8
Dimension
390
0
 62
               0
100
AcDbMText
 10
0.111193096505275
 20
-11.970598380208351
 30
0.0
 40
0.7579186197916666
 41
0.0
 71
               1
 72
               1
  1
±0.125mm
  7
Helvetica
 73
               1
 44
0.9673603504928806
  0
WIPEOUT
  5
AB
100
AcDbEntity
  8
Dimension
370
              -2
390
0
  6
Continuous
 62
               0
 92
        0
100
AcDbWipeout
 90
        0
 10
5.1382606173886245
 20
-12.993101666666659
 30
0.0
 11
2.10608325931761
 21
0.0
 31
0.0
 12
0.0
 22
2.10608325931761
 32
0.0
 13
1.0
 23
1.0
340
0
 70
               7
280
               1
281
              50
282
              50
283
               0
360
0
 71
               2
 91
        5
 14
-0.5
 24
0.5
 14
0.5
 24
0.5
 14
0.5
 24
-0.0778894675453995
 14
-0.5
 24
-0.0778894675453995
 14
-0.5
 24
0.5
  0
MTEXT
  5
AC
100
AcDbEntity
  8
Dimension
390
0
 62
               0
100
AcDbMText
 10
5.1382606173886245
 20
-11.970597326388882
 30
0.0
 40
0.7579210069444442
 41
0.0
 71
               1
 72
               1
  1
 (x4)
  7
Helvetica
 73
               1
 44
0.9673603504928806
  0
POINT
  5
AD
100
AcDbEntity
  8
Defpoints
370
               0
390
0
 62
               0
100
AcDbPoint
 10
7.5414424199528156
 20
-1.6545600000000036
 30
0.0
  0
POINT
  5
AE
100
AcDbEntity
  8
Defpoints
370
               0
390
0
 62
               0
100
AcDbPoint
 10
-5.1835575800471787
 20
-1.6545600000000036
 30
0.0
  0
POINT
  5
AF
100
AcDbEntity
  8
Defpoints
370
               0
390
0
 62
               0
100
AcDbPoint
 10
-5.1835575800471787
 20
-12.384560000000002
 30
0.0
  0
ENDBLK
  5
B0
100
AcDbEntity
  8
Dimension
390
0
100
AcDbBlockEnd
  0
BLOCK
  5
B1
100
AcDbEntity
  8
Dimension
390
0
100
AcDbBlockBegin
  2
*D9
 70
               1
 10
0.0
 20
0.0
 30
0.0
  3
*D9
  1

  0
LINE
  5
B2
100
AcDbEntity
  8
Dimension
370
              -2
390
0
  6
Continuous
 62
               0
100
AcDbLine
 10
6.6089424199528253
 20
2.317939999999993
 30
0.0
 11
12.424383782900406
 21
0.5856808732566208
 31
0.0
  0
SOLID
  5
B3
100
AcDbEntity
  8
Dimension
370
              -2
390
0
 62
               0
100
AcDbTrace
 10
6.6089424199528253
 20
2.317939999999993
 30
0.0
 11
7.1563086729923198
 21
2.2988255492500391
 31
0.0
 12
7.0734182748843519
 22
2.0277032735513991
 32
0.0
 13
7.0734182748843519
 23
2.0277032735513991
 33
0.0
  0
LINE
  5
B4
100
AcDbEntity
  8
Dimension
370
              -2
390
0
  6
Continuous
 62
               0
100
AcDbLine
 10
12.424383782900406
 20
0.5856808732566208
 30
0.0
 11
13.924380784879901
 21
0.5856808732566208
 31
0.0
  0
WIPEOUT
  5
B5
100
AcDbEntity
  8
Dimension
370
              -2
390
0
  6
Continuous
 62
               0
 92
        0
100
AcDbWipeout
 90
        0
 10
13.924380784879901
 20
-0.0228588767433735
 30
0.0
 11
7.6305594868130129
 21
0.0
 31
0.0
 12
0.0
 22
7.6305594868130129
 32
0.0
 13
1.0
 23
1.0
340
0
 70
               7
280
               1
281
              50
282
              50
283
               0
360
0
 71
               2
 91
        5
 14
-0.5
 24
0.5
 14
0.5
 24
0.5
 14
0.5
 24
0.3404993104236546
 14
-0.5
 24
0.3404993104236546
 14
-0.5
 24
0.5
  0
MTEXT
  5
B6
100
AcDbEntity
  8
Dimension
390
0
 62
               0
100
AcDbMText
 10
13.924380784879901
 20
0.999642243048293
 30
0.0
 40
0.7579186197916666
 41
0.0
 71
               1
 72
               1
  1
0.94 x 0.28 mm 
  7
Helvetica
 73
               1
 44
0.9673603504928806
  0
POINT
  5
B7
100
AcDbEntity
  8
Defpoints
370
               0
390
0
 62
               0
100
AcDbPoint
 10
5.6689424199528275
 20
2.5979399999999941
 30
0.0
  0
POINT
  5
B8
100
AcDbEntity
  8
Defpoints
370
               0
390
0
 62
               0
100
AcDbPoint
 10
6.6089424199528253
 20
2.317939999999993
 30
0.0
  0
ENDBLK
  5
B9
100
AcDbEntity
  8
Dimension
390
0
100
AcDbBlockEnd
  0
BLOCK
  5
BA
100
AcDbEntity
  8
Dimension
390
0
100
AcDbBlockBegin
  2
*D10
 70
               1
 10
0.0
 20
0.0
 30
0.0
  3
*D10
  1

  0
LINE
  5
BB
100
AcDbEntity
  8
Dimension
370
              -2
390
0
  6
Continuous
 62
               0
100
AcDbLine
 10
-3.7510575800471742
 20
0.341689998817202
 30
0.0
 11
-3.7510575800471742
 21
-9.7370600023655527
 31
0.0
  0
LINE
  5
BC
100
AcDbEntity
  8
Dimension
370
              -2
390
0
  6
Continuous
 62
               0
100
AcDbLine
 10
6.6089424199528253
 20
0.341689998817202
 30
0.0
 11
6.6089424199528253
 21
-9.7370600023655527
 31
0.0
  0
LINE
  5
BD
100
AcDbEntity
  8
Dimension
370
              -2
390
0
  6
Continuous
 62
               0
100
AcDbLine
 10
-3.7510575800471742
 20
-8.784559999999999
 30
0.0
 11
6.6089424199528253
 21
-8.784559999999999
 31
0.0
  0
SOLID
  5
BE
100
AcDbEntity
  8
Dimension
370
              -2
390
0
 62
               0
100
AcDbTrace
 10
-3.7510575800471742
 20
-8.784559999999999
 30
0.0
 11
-2.957307580047174
 21
-8.5718753285077955
 31
0.0
 12
-2.957307580047174
 22
-8.9972446714922025
 32
0.0
 13
-2.957307580047174
 23
-8.9972446714922025
 33
0.0
  0
SOLID
  5
BF
100
AcDbEntity
  8
Dimension
370
              -2
390
0
 62
               0
100
AcDbTrace
 10
6.6089424199528253
 20
-8.784559999999999
 30
0.0
 11
5.8151924199528251
 21
-8.9972446714922025
 31
0.0
 12
5.8151924199528251
 22
-8.5718753285077955
 32
0.0
 13
5.8151924199528251
 23
-8.5718753285077955
 33
0.0
  0
WIPEOUT
  5
C0
100
AcDbEntity
  8
Dimension
370
              -2
390
0
  6
Continuous
 62
               0
 92
        0
100
AcDbWipeout
 90
        0
 10
-0.5888356163766559
 20
-9.393099749999994
 30
0.0
 11
4.4449860042995875
 21
0.0
 31
0.0
 12
0.0
 22
4.4449860042995875
 32
0.0
 13
1.0
 23
1.0
340
0
 70
               7
280
               1
281
              50
282
              50
283
               0
360
0
 71
               2
 91
        5
 14
-0.5
 24
0.5
 14
0.5
 24
0.5
 14
0.5
 24
0.2261904764553291
 14
-0.5
 24
0.2261904764553291
 14
-0.5
 24
0.5
  0
MTEXT
  5
C1
100
AcDbEntity
  8
Dimension
390
0
 62
               0
100
AcDbMText
 10
-0.5888356163766559
 20
-8.3705986302083275
 30
0.0
 40
0.7579186197916666
 41
0.0
 71
               1
 72
               1
  1
10.36mm
  7
Helvetica
 73
               1
 44
0.9673603504928806
  0
POINT
  5
C2
100
AcDbEntity
  8
Defpoints
370
               0
390
0
 62
               0
100
AcDbPoint
 10
6.6089424199528253
 20
0.817939999999993
 30
0.0
  0
POINT
  5
C3
100
AcDbEntity
  8
Defpoints
370
               0
390
0
 62
               0
100
AcDbPoint
 10
-3.7510575800471742
 20
0.817939999999993
 30
0.0
  0
POINT
  5
C4
100
AcDbEntity
  8
Defpoints
370
               0
390
0
 62
               0
100
AcDbPoint
 10
-3.7510575800471742
 20
-8.7845600000000061
 30
0.0
  0
ENDBLK
  5
C5
100
AcDbEntity
  8
Dimension
390
0
100
AcDbBlockEnd
  0
BLOCK
  5
C6
100
AcDbEntity
  8
Dimension
390
0
100
AcDbBlockBegin
  2
*D11
 70
               1
 10
0.0
 20
0.0
 30
0.0
  3
*D11
  1

  0
LINE
  5
C7
100
AcDbEntity
  8
Dimension
370
              -2
390
0
  6
Continuous
 62
               0
100
AcDbLine
 10
-2.9373075812299589
 20
9.8879399999999862
 30
0.0
 11
-19.093557582412743
 21
9.8879399999999862
 31
0.0
  0
LINE
  5
C8
100
AcDbEntity
  8
Dimension
370
              -2
390
0
  6
Continuous
 62
               0
100
AcDbLine
 10
-2.9373075812299589
 20
-0.472059999999999
 30
0.0
 11
-19.093557582412728
 21
-0.472059999999999
 31
0.0
  0
LINE
  5
C9
100
AcDbEntity
  8
Dimension
370
              -2
390
0
  6
Continuous
 62
               0
100
AcDbLine
 10
-18.141057580047175
 20
9.8879399999999862
 30
0.0
 11
-18.141057580047175
 21
-0.472059999999999
 31
0.0
  0
SOLID
  5
CA
100
AcDbEntity
  8
Dimension
370
              -2
390
0
 62
               0
100
AcDbTrace
 10
-18.141057580047175
 20
9.8879399999999862
 30
0.0
 11
-17.928372908554973
 21
9.0941899999999869
 31
0.0
 12
-18.35374225153938
 22
9.0941899999999869
 32
0.0
 13
-18.35374225153938
 23
9.0941899999999869
 33
0.0
  0
SOLID
  5
CB
100
AcDbEntity
  8
Dimension
370
              -2
390
0
 62
               0
100
AcDbTrace
 10
-18.141057580047175
 20
-0.472059999999999
 30
0.0
 11
-18.35374225153938
 21
0.3216900000000009
 31
0.0
 12
-17.928372908554969
 22
0.3216900000000009
 32
0.0
 13
-17.928372908554969
 23
0.3216900000000009
 33
0.0
  0
WIPEOUT
  5
CC
100
AcDbEntity
  8
Dimension
370
              -2
390
0
  6
Continuous
 62
               0
 92
        0
100
AcDbWipeout
 90
        0
 10
-20.363550582196964
 20
3.6096651425781205
 30
0.0
 11
4.4449860042995866
 21
0.0
 31
0.0
 12
0.0
 22
4.4449860042995866
 32
0.0
 13
1.0
 23
1.0
340
0
 70
               7
280
               1
281
              50
282
              50
283
               0
360
0
 71
               2
 91
        5
 14
-0.5
 24
0.5
 14
0.5
 24
0.5
 14
0.5
 24
0.2261904764553293
 14
-0.5
 24
0.2261904764553293
 14
-0.5
 24
0.5
  0
MTEXT
  5
CD
100
AcDbEntity
  8
Dimension
390
0
 62
               0
100
AcDbMText
 10
-20.363550582196964
 20
4.632166262369787
 30
0.0
 40
0.7579186197916666
 41
0.0
 71
               1
 72
               1
  1
10.36mm
  7
Helvetica
 73
               1
 44
0.9673603504928806
  0
POINT
  5
CE
100
AcDbEntity
  8
Defpoints
370
               0
390
0
 62
               0
100
AcDbPoint
 10
-2.4610575800471821
 20
-0.472059999999999
 30
0.0
  0
POINT
  5
CF
100
AcDbEntity
  8
Defpoints
370
               0
390
0
 62
               0
100
AcDbPoint
 10
-2.4610575800471821
 20
9.8879399999999862
 30
0.0
  0
POINT
  5
D0
100
AcDbEntity
  8
Defpoints
370
               0
390
0
 62
               0
100
AcDbPoint
 10
-18.141057580047182
 20
9.8879399999999862
 30
0.0
  0
ENDBLK
  5
D1
100
AcDbEntity
  8
Dimension
390
0
100
AcDbBlockEnd
  0
BLOCK
  5
D2
100
AcDbEntity
  8
Dimension
390
0
100
AcDbBlockBegin
  2
*D12
 70
               1
 10
0.0
 20
0.0
 30
0.0
  3
*D12
  1

  0
LINE
  5
D3
100
AcDbEntity
  8
Dimension
370
              -2
390
0
  6
Continuous
 62
               0
100
AcDbLine
 10
-4.0473075812299584
 20
8.5979399999999941
 30
0.0
 11
-13.64355758241274
 21
8.5979399999999941
 31
0.0
  0
LINE
  5
D4
100
AcDbEntity
  8
Dimension
370
              -2
390
0
  6
Continuous
 62
               0
100
AcDbLine
 10
-4.227307581229951
 20
0.817939999999993
 30
0.0
 11
-13.64355758241274
 21
0.817939999999993
 31
0.0
  0
LINE
  5
D5
100
AcDbEntity
  8
Dimension
370
              -2
390
0
  6
Continuous
 62
               0
100
AcDbLine
 10
-12.691057580047186
 20
8.5979399999999941
 30
0.0
 11
-12.691057580047186
 21
0.817939999999993
 31
0.0
  0
SOLID
  5
D6
100
AcDbEntity
  8
Dimension
370
              -2
390
0
 62
               0
100
AcDbTrace
 10
-12.691057580047186
 20
8.5979399999999941
 30
0.0
 11
-12.478372908554983
 21
7.804189999999994
 31
0.0
 12
-12.90374225153939
 22
7.804189999999994
 32
0.0
 13
-12.90374225153939
 23
7.804189999999994
 33
0.0
  0
SOLID
  5
D7
100
AcDbEntity
  8
Dimension
370
              -2
390
0
 62
               0
100
AcDbTrace
 10
-12.691057580047186
 20
0.817939999999993
 30
0.0
 11
-12.90374225153939
 21
1.611689999999993
 31
0.0
 12
-12.478372908554983
 22
1.611689999999993
 32
0.0
 13
-12.478372908554983
 23
1.611689999999993
 33
0.0
  0
WIPEOUT
  5
D8
100
AcDbEntity
  8
Dimension
370
              -2
390
0
  6
Continuous
 62
               0
 92
        0
100
AcDbWipeout
 90
        0
 10
-14.617218204339352
 20
3.9470909848632916
 30
0.0
 11
3.8523212485843228
 21
0.0
 31
0.0
 12
0.0
 22
3.8523212485843228
 32
0.0
 13
1.0
 23
1.0
340
0
 70
               7
280
               1
281
              50
282
              50
283
               0
360
0
 71
               2
 91
        5
 14
-0.5
 24
0.5
 14
0.5
 24
0.5
 14
0.5
 24
0.1840659380504001
 14
-0.5
 24
0.1840659380504001
 14
-0.5
 24
0.5
  0
MTEXT
  5
D9
100
AcDbEntity
  8
Dimension
390
0
 62
               0
100
AcDbMText
 10
-14.617218204339352
 20
4.969592104654958
 30
0.0
 40
0.7579186197916666
 41
0.0
 71
               1
 72
               1
  1
7.78mm
  7
Helvetica
 73
               1
 44
0.9673603504928806
  0
POINT
  5
DA
100
AcDbEntity
  8
Defpoints
370
               0
390
0
 62
               0
100
AcDbPoint
 10
-3.7510575800471742
 20
0.817939999999993
 30
0.0
  0
POINT
  5
DB
100
AcDbEntity
  8
Defpoints
370
               0
390
0
 62
               0
100
AcDbPoint
 10
-3.5710575800471815
 20
8.5979399999999941
 30
0.0
  0
POINT
  5
DC
100
AcDbEntity
  8
Defpoints
370
               0
390
0
 62
               0
100
AcDbPoint
 10
-12.691057580047181
 20
8.5979399999999941
 30
0.0
  0
ENDBLK
  5
DD
100
AcDbEntity
  8
Dimension
390
0
100
AcDbBlockEnd
  0
BLOCK
  5
DE
100
AcDbEntity
  8
Dimension
390
0
100
AcDbBlockBegin
  2
*D13
 70
               1
 10
0.0
 20
0.0
 30
0.0
  3
*D13
  1

  0
LINE
  5
DF
100
AcDbEntity
  8
Dimension
370
              -2
390
0
  6
Continuous
 62
               0
100
AcDbLine
 10
-2.4610575800471821
 20
-0.9483100011827901
 30
0.0
 11
-2.4610575800471821
 21
-6.9449000023655572
 31
0.0
  0
LINE
  5
E0
100
AcDbEntity
  8
Dimension
370
              -2
390
0
  6
Continuous
 62
               0
100
AcDbLine
 10
5.318942419952819
 20
-0.9483100011827901
 30
0.0
 11
5.318942419952819
 21
-6.9449000023655572
 31
0.0
  0
LINE
  5
E1
100
AcDbEntity
  8
Dimension
370
              -2
390
0
  6
Continuous
 62
               0
100
AcDbLine
 10
-2.4610575800471821
 20
-5.9924000000000035
 30
0.0
 11
5.318942419952819
 21
-5.9924000000000035
 31
0.0
  0
SOLID
  5
E2
100
AcDbEntity
  8
Dimension
370
              -2
390
0
 62
               0
100
AcDbTrace
 10
-2.4610575800471821
 20
-5.9924000000000035
 30
0.0
 11
-1.6673075800471822
 21
-5.7797153285078
 31
0.0
 12
-1.6673075800471822
 22
-6.205084671492207
 32
0.0
 13
-1.6673075800471822
 23
-6.205084671492207
 33
0.0
  0
SOLID
  5
E3
100
AcDbEntity
  8
Dimension
370
              -2
390
0
 62
               0
100
AcDbTrace
 10
5.318942419952819
 20
-5.9924000000000035
 30
0.0
 11
4.5251924199528188
 21
-6.205084671492207
 31
0.0
 12
4.5251924199528188
 22
-5.7797153285078
 32
0.0
 13
4.5251924199528188
 23
-5.7797153285078
 33
0.0
  0
WIPEOUT
  5
E4
100
AcDbEntity
  8
Dimension
370
              -2
390
0
  6
Continuous
 62
               0
 92
        0
100
AcDbWipeout
 90
        0
 10
-0.5285585363705962
 20
-6.6009397499999976
 30
0.0
 11
3.8523212485843232
 21
0.0
 31
0.0
 12
0.0
 22
3.8523212485843232
 32
0.0
 13
1.0
 23
1.0
340
0
 70
               7
280
               1
281
              50
282
              50
283
               0
360
0
 71
               2
 91
        5
 14
-0.5
 24
0.5
 14
0.5
 24
0.5
 14
0.5
 24
0.1840659380504001
 14
-0.5
 24
0.1840659380504001
 14
-0.5
 24
0.5
  0
MTEXT
  5
E5
100
AcDbEntity
  8
Dimension
390
0
 62
               0
100
AcDbMText
 10
-0.5285585363705962
 20
-5.5784386302083311
 30
0.0
 40
0.7579186197916666
 41
0.0
 71
               1
 72
               1
  1
7.78mm
  7
Helvetica
 73
               1
 44
0.9673603504928806
  0
POINT
  5
E6
100
AcDbEntity
  8
Defpoints
370
               0
390
0
 62
               0
100
AcDbPoint
 10
5.318942419952819
 20
-0.472059999999999
 30
0.0
  0
POINT
  5
E7
100
AcDbEntity
  8
Defpoints
370
               0
390
0
 62
               0
100
AcDbPoint
 10
-2.4610575800471821
 20
-0.472059999999999
 30
0.0
  0
POINT
  5
E8
100
AcDbEntity
  8
Defpoints
370
               0
390
0
 62
               0
100
AcDbPoint
 10
-2.4610575800471821
 20
-5.9923999999999982
 30
0.0
  0
ENDBLK
  5
E9
100
AcDbEntity
  8
Dimension
390
0
100
AcDbBlockEnd
  0
BLOCK
  5
EA
100
AcDbEntity
  8
Dimension
390
0
100
AcDbBlockBegin
  2
*D14
 70
               1
 10
0.0
 20
0.0
 30
0.0
  3
*D14
  1

  0
LINE
  5
EB
100
AcDbEntity
  8
Dimension
370
              -2
390
0
  6
Continuous
 62
               0
100
AcDbLine
 10
-5.1835575800471787
 20
11.546690001182782
 30
0.0
 11
-5.1835575800471787
 21
21.81794000236556
 31
0.0
  0
LINE
  5
EC
100
AcDbEntity
  8
Dimension
370
              -2
390
0
  6
Continuous
 62
               0
100
AcDbLine
 10
-6.4335575800471787
 20
12.796690001182782
 30
0.0
 11
-6.4335575800471787
 21
21.817940002365532
 31
0.0
  0
LINE
  5
ED
100
AcDbEntity
  8
Dimension
370
              -2
390
0
  6
Continuous
 62
               0
100
AcDbLine
 10
-6.4335575800471787
 20
20.865439999999978
 30
0.0
 11
-5.1835575800471787
 21
20.865439999999978
 31
0.0
  0
LINE
  5
EE
100
AcDbEntity
  8
Dimension
370
              -2
390
0
  6
Continuous
 62
               0
100
AcDbLine
 10
-5.1835575800471787
 20
20.865439999999978
 30
0.0
 11
-3.1910575800471861
 21
20.865439999999978
 31
0.0
  0
SOLID
  5
EF
100
AcDbEntity
  8
Dimension
370
              -2
390
0
 62
               0
100
AcDbTrace
 10
-5.1835575800471787
 20
20.865439999999978
 30
0.0
 11
-4.3898075800471785
 21
21.078124671492183
 31
0.0
 12
-4.3898075800471785
 22
20.652755328507773
 32
0.0
 13
-4.3898075800471785
 23
20.652755328507773
 33
0.0
  0
LINE
  5
F0
100
AcDbEntity
  8
Dimension
370
              -2
390
0
  6
Continuous
 62
               0
100
AcDbLine
 10
-6.4335575800471787
 20
20.865439999999978
 30
0.0
 11
-8.1835540784139909
 21
20.865439999999978
 31
0.0
  0
SOLID
  5
F1
100
AcDbEntity
  8
Dimension
370
              -2
390
0
 62
               0
100
AcDbTrace
 10
-6.4335575800471787
 20
20.865439999999978
 30
0.0
 11
-7.2273075800471789
 21
20.652755328507773
 31
0.0
 12
-7.2273075800471789
 22
21.078124671492183
 32
0.0
 13
-7.2273075800471789
 23
21.078124671492183
 33
0.0
  0
WIPEOUT
  5
F2
100
AcDbEntity
  8
Dimension
370
              -2
390
0
  6
Continuous
 62
               0
 92
        0
100
AcDbWipeout
 90
        0
 10
-3.1910575800471861
 20
20.256902166666645
 30
0.0
 11
3.8523212485843232
 21
0.0
 31
0.0
 12
0.0
 22
3.8523212485843232
 32
0.0
 13
1.0
 23
1.0
340
0
 70
               7
280
               1
281
              50
282
              50
283
               0
360
0
 71
               2
 91
        5
 14
-0.5
 24
0.5
 14
0.5
 24
0.5
 14
0.5
 24
0.1840659380503998
 14
-0.5
 24
0.1840659380503998
 14
-0.5
 24
0.5
  0
MTEXT
  5
F3
100
AcDbEntity
  8
Dimension
390
0
 62
               0
100
AcDbMText
 10
-3.1910575800471861
 20
21.279403286458312
 30
0.0
 40
0.7579186197916666
 41
0.0
 71
               1
 72
               1
  1
1.25mm
  7
Helvetica
 73
               1
 44
0.9673603504928806
  0
WIPEOUT
  5
F4
100
AcDbEntity
  8
Dimension
370
              -2
390
0
  6
Continuous
 62
               0
 92
        0
100
AcDbWipeout
 90
        0
 10
0.6612636685371314
 20
20.256900499999954
 30
0.0
 11
5.0270675208833486
 21
0.0
 31
0.0
 12
0.0
 22
5.0270675208833486
 32
0.0
 13
1.0
 23
1.0
340
0
 70
               7
280
               1
281
              50
282
              50
283
               0
360
0
 71
               2
 91
        5
 14
-0.5
 24
0.5
 14
0.5
 24
0.5
 14
0.5
 24
0.2578947378478542
 14
-0.5
 24
0.2578947378478542
 14
-0.5
 24
0.5
  0
MTEXT
  5
F5
100
AcDbEntity
  8
Dimension
390
0
 62
               0
100
AcDbMText
 10
0.6612636685371314
 20
21.279401619791621
 30
0.0
 40
0.7579186197916666
 41
0.0
 71
               1
 72
               1
  1
±0.125mm
  7
Helvetica
 73
               1
 44
0.9673603504928806
  0
WIPEOUT
  5
F6
100
AcDbEntity
  8
Dimension
370
              -2
390
0
  6
Continuous
 62
               0
 92
        0
100
AcDbWipeout
 90
        0
 10
5.6883311894204809
 20
20.256898333333314
 30
0.0
 11
2.10608325931761
 21
0.0
 31
0.0
 12
0.0
 22
2.10608325931761
 32
0.0
 13
1.0
 23
1.0
340
0
 70
               7
280
               1
281
              50
282
              50
283
               0
360
0
 71
               2
 91
        5
 14
-0.5
 24
0.5
 14
0.5
 24
0.5
 14
0.5
 24
-0.0778894675453986
 14
-0.5
 24
-0.0778894675453986
 14
-0.5
 24
0.5
  0
MTEXT
  5
F7
100
AcDbEntity
  8
Dimension
390
0
 62
               0
100
AcDbMText
 10
5.6883311894204809
 20
21.279402673611092
 30
0.0
 40
0.7579210069444442
 41
0.0
 71
               1
 72
               1
  1
 (x4)
  7
Helvetica
 73
               1
 44
0.9673603504928806
  0
POINT
  5
F8
100
AcDbEntity
  8
Defpoints
370
               0
390
0
 62
               0
100
AcDbPoint
 10
-6.4335575800471787
 20
12.320439999999991
 30
0.0
  0
POINT
  5
F9
100
AcDbEntity
  8
Defpoints
370
               0
390
0
 62
               0
100
AcDbPoint
 10
-5.1835575800471787
 20
11.070439999999991
 30
0.0
  0
POINT
  5
FA
100
AcDbEntity
  8
Defpoints
370
               0
390
0
 62
               0
100
AcDbPoint
 10
-5.1835575800471787
 20
20.865439999999992
 30
0.0
  0
ENDBLK
  5
FB
100
AcDbEntity
  8
Dimension
390
0
100
AcDbBlockEnd
  0
BLOCK
  5
FC
100
AcDbEntity
  8
Dimension
390
0
100
AcDbBlockBegin
  2
*D15
 70
               1
 10
0.0
 20
0.0
 30
0.0
  3
*D15
  1

  0
LINE
  5
FD
100
AcDbEntity
  8
Dimension
370
              -2
390
0
  6
Continuous
 62
               0
100
AcDbLine
 10
-6.9098075812299555
 20
12.320439999999991
 30
0.0
 11
-17.743557582412734
 21
12.320439999999991
 31
0.0
  0
LINE
  5
FE
100
AcDbEntity
  8
Dimension
370
              -2
390
0
  6
Continuous
 62
               0
100
AcDbLine
 10
-5.6598075812299555
 20
11.070439999999991
 30
0.0
 11
-17.743557582412734
 21
11.070439999999991
 31
0.0
  0
LINE
  5
FF
100
AcDbEntity
  8
Dimension
370
              -2
390
0
  6
Continuous
 62
               0
100
AcDbLine
 10
-16.79105758004718
 20
11.070439999999991
 30
0.0
 11
-16.79105758004718
 21
12.320439999999991
 31
0.0
  0
LINE
  5
100
100
AcDbEntity
  8
Dimension
370
              -2
390
0
  6
Continuous
 62
               0
100
AcDbLine
 10
-16.79105758004718
 20
12.320439999999991
 30
0.0
 11
-16.79105758004718
 21
15.115439999999978
 31
0.0
  0
SOLID
  5
101
100
AcDbEntity
  8
Dimension
370
              -2
390
0
 62
               0
100
AcDbTrace
 10
-16.79105758004718
 20
12.320439999999991
 30
0.0
 11
-17.003742251539386
 21
13.11418999999999
 31
0.0
 12
-16.578372908554975
 22
13.11418999999999
 32
0.0
 13
-16.578372908554975
 23
13.11418999999999
 33
0.0
  0
LINE
  5
102
100
AcDbEntity
  8
Dimension
370
              -2
390
0
  6
Continuous
 62
               0
100
AcDbLine
 10
-16.79105758004718
 20
11.070439999999991
 30
0.0
 11
-16.79105758004718
 21
9.3204435016331786
 31
0.0
  0
SOLID
  5
103
100
AcDbEntity
  8
Dimension
370
              -2
390
0
 62
               0
100
AcDbTrace
 10
-16.79105758004718
 20
11.070439999999991
 30
0.0
 11
-16.578372908554979
 21
10.276689999999991
 31
0.0
 12
-17.003742251539386
 22
10.276689999999991
 32
0.0
 13
-17.003742251539386
 23
10.276689999999991
 33
0.0
  0
WIPEOUT
  5
104
100
AcDbEntity
  8
Dimension
370
              -2
390
0
  6
Continuous
 62
               0
 92
        0
100
AcDbWipeout
 90
        0
 10
-22.283793594439821
 20
14.506902166666645
 30
0.0
 11
3.8523212485843246
 21
0.0
 31
0.0
 12
0.0
 22
3.8523212485843246
 32
0.0
 13
1.0
 23
1.0
340
0
 70
               7
280
               1
281
              50
282
              50
283
               0
360
0
 71
               2
 91
        5
 14
-0.5
 24
0.5
 14
0.5
 24
0.5
 14
0.5
 24
0.1840659380504
 14
-0.5
 24
0.1840659380504
 14
-0.5
 24
0.5
  0
MTEXT
  5
105
100
AcDbEntity
  8
Dimension
390
0
 62
               0
100
AcDbMText
 10
-22.283793594439821
 20
15.529403286458312
 30
0.0
 40
0.7579186197916666
 41
0.0
 71
               1
 72
               1
  1
1.25mm
  7
Helvetica
 73
               1
 44
0.9673603504928806
  0
WIPEOUT
  5
106
100
AcDbEntity
  8
Dimension
370
              -2
390
0
  6
Continuous
 62
               0
 92
        0
100
AcDbWipeout
 90
        0
 10
-18.431472345855497
 20
14.506900499999954
 30
0.0
 11
5.0270675208833495
 21
0.0
 31
0.0
 12
0.0
 22
5.0270675208833495
 32
0.0
 13
1.0
 23
1.0
340
0
 70
               7
280
               1
281
              50
282
              50
283
               0
360
0
 71
               2
 91
        5
 14
-0.5
 24
0.5
 14
0.5
 24
0.5
 14
0.5
 24
0.2578947378478543
 14
-0.5
 24
0.2578947378478543
 14
-0.5
 24
0.5
  0
MTEXT
  5
107
100
AcDbEntity
  8
Dimension
390
0
 62
               0
100
AcDbMText
 10
-18.431472345855497
 20
15.529401619791621
 30
0.0
 40
0.7579186197916666
 41
0.0
 71
               1
 72
               1
  1
±0.125mm
  7
Helvetica
 73
               1
 44
0.9673603504928806
  0
WIPEOUT
  5
108
100
AcDbEntity
  8
Dimension
370
              -2
390
0
  6
Continuous
 62
               0
 92
        0
100
AcDbWipeout
 90
        0
 10
-13.404404824972147
 20
14.506898333333313
 30
0.0
 11
2.1060832593176109
 21
0.0
 31
0.0
 12
0.0
 22
2.1060832593176109
 32
0.0
 13
1.0
 23
1.0
340
0
 70
               7
280
               1
281
              50
282
              50
283
               0
360
0
 71
               2
 91
        5
 14
-0.5
 24
0.5
 14
0.5
 24
0.5
 14
0.5
 24
-0.0778894675453992
 14
-0.5
 24
-0.0778894675453992
 14
-0.5
 24
0.5
  0
MTEXT
  5
109
100
AcDbEntity
  8
Dimension
390
0
 62
               0
100
AcDbMText
 10
-13.404404824972147
 20
15.52940267361109
 30
0.0
 40
0.7579210069444442
 41
0.0
 71
               1
 72
               1
  1
 (x4)
  7
Helvetica
 73
               1
 44
0.9673603504928806
  0
POINT
  5
10A
100
AcDbEntity
  8
Defpoints
370
               0
390
0
 62
               0
100
AcDbPoint
 10
-5.1835575800471787
 20
11.070439999999991
 30
0.0
  0
POINT
  5
10B
100
AcDbEntity
  8
Defpoints
370
               0
390
0
 62
               0
100
AcDbPoint
 10
-6.4335575800471787
 20
12.320439999999991
 30
0.0
  0
POINT
  5
10C
100
AcDbEntity
  8
Defpoints
370
               0
390
0
 62
               0
100
AcDbPoint
 10
-16.79105758004718
 20
12.320439999999991
 30
0.0
  0
ENDBLK
  5
10D
100
AcDbEntity
  8
Dimension
390
0
100
AcDbBlockEnd
  0
BLOCK
  5
10E
100
AcDbEntity
  8
Dimension
390
0
100
AcDbBlockBegin
  2
*D16
 70
               1
 10
0.0
 20
0.0
 30
0.0
  3
*D16
  1

  0
LINE
  5
10F
100
AcDbEntity
  8
Dimension
370
              -2
390
0
  6
Continuous
 62
               0
100
AcDbLine
 10
8.3001024199528217
 20
-1.9237500000000125
 30
0.0
 11
14.075525633287668
 21
-3.9730366933914922
 31
0.0
  0
SOLID
  5
110
100
AcDbEntity
  8
Dimension
370
              -2
390
0
 62
               0
100
AcDbTrace
 10
8.3001024199528217
 20
-1.9237500000000125
 30
0.0
 11
8.8457181535079492
 21
-1.9714851913274674
 31
0.0
 12
8.7487519102523166
 22
-2.2378977551216628
 32
0.0
 13
8.7487519102523166
 23
-2.2378977551216628
 33
0.0
  0
LINE
  5
111
100
AcDbEntity
  8
Dimension
370
              -2
390
0
  6
Continuous
 62
               0
100
AcDbLine
 10
14.075525633287668
 20
-3.9730366933914922
 30
0.0
 11
15.575522635267163
 21
-3.9730366933914922
 31
0.0
  0
WIPEOUT
  5
112
100
AcDbEntity
  8
Dimension
370
              -2
390
0
  6
Continuous
 62
               0
 92
        0
100
AcDbWipeout
 90
        0
 10
13.649362010975011
 20
-4.5815747767248238
 30
0.0
 11
4.9741509887907256
 21
0.0
 31
0.0
 12
0.0
 22
4.9741509887907256
 32
0.0
 13
1.0
 23
1.0
340
0
 70
               7
280
               1
281
              50
282
              50
283
               0
360
0
 71
               2
 91
        5
 14
-0.5
 24
0.5
 14
0.5
 24
0.5
 14
0.5
 24
0.2553191483847808
 14
-0.5
 24
0.2553191483847808
 14
-0.5
 24
0.5
  0
MTEXT
  5
113
100
AcDbEntity
  8
Dimension
390
0
 62
               0
100
AcDbMText
 10
13.649362010975011
 20
-3.5590736569331574
 30
0.0
 40
0.7579186197916666
 41
0.0
 71
               1
 72
               1
  1
Ø 1.61mm
  7
Helvetica
 73
               1
 44
0.9673603504928806
  0
WIPEOUT
  5
114
100
AcDbEntity
  8
Dimension
370
              -2
390
0
  6
Continuous
 62
               0
 92
        0
100
AcDbWipeout
 90
        0
 10
18.62351299976573
 20
-4.01933852672484
 30
0.0
 11
1.2170794999999996
 21
0.0
 31
0.0
 12
0.0
 22
1.2170794999999996
 32
0.0
 13
1.0
 23
1.0
340
0
 70
               7
280
               1
281
              50
282
              50
283
               0
360
0
 71
               2
 91
        5
 14
-0.5
 24
0.5
 14
0.0043478278911346
 24
0.5
 14
0.0043478278911346
 24
-0.5
 14
-0.5
 24
-0.5
 14
-0.5
 24
0.5
  0
MTEXT
  5
115
100
AcDbEntity
  8
Dimension
390
0
 62
               0
100
AcDbMText
 10
18.930428700863644
 20
-2.9968374069331736
 30
0.0
 40
0.7579186197916666
 41
0.0
 71
               2
 72
               1
  1
+
  7
Helvetica
 73
               1
 44
0.9673603504928806
  0
WIPEOUT
  5
116
100
AcDbEntity
  8
Dimension
370
              -2
390
0
  6
Continuous
 62
               0
 92
        0
100
AcDbWipeout
 90
        0
 10
18.755804245888516
 20
-5.143814360058161
 30
0.0
 11
1.2170794999999996
 21
0.0
 31
0.0
 12
0.0
 22
1.2170794999999996
 32
0.0
 13
1.0
 23
1.0
340
0
 70
               7
280
               1
281
              50
282
              50
283
               0
360
0
 71
               2
 91
        5
 14
-0.5
 24
0.5
 14
-0.2130434700853519
 24
0.5
 14
-0.2130434700853519
 24
-0.5
 14
-0.5
 24
-0.5
 14
-0.5
 24
0.5
  0
MTEXT
  5
117
100
AcDbEntity
  8
Dimension
390
0
 62
               0
100
AcDbMText
 10
18.930428700863644
 20
-4.1213132402664945
 30
0.0
 40
0.7579186197916666
 41
0.0
 71
               2
 72
               1
  1
-
  7
Helvetica
 73
               1
 44
0.9673603504928806
  0
WIPEOUT
  5
118
100
AcDbEntity
  8
Dimension
370
              -2
390
0
  6
Continuous
 62
               0
 92
        0
100
AcDbWipeout
 90
        0
 10
19.237344401961565
 20
-4.01933852672484
 30
0.0
 11
3.8523212485843246
 21
0.0
 31
0.0
 12
0.0
 22
3.8523212485843246
 32
0.0
 13
1.0
 23
1.0
340
0
 70
               7
280
               1
281
              50
282
              50
283
               0
360
0
 71
               2
 91
        5
 14
-0.5
 24
0.5
 14
0.5
 24
0.5
 14
0.5
 24
0.1840659380504002
 14
-0.5
 24
0.1840659380504002
 14
-0.5
 24
0.5
  0
MTEXT
  5
119
100
AcDbEntity
  8
Dimension
390
0
 62
               0
100
AcDbMText
 10
19.237344401961565
 20
-2.9968374069331736
 30
0.0
 40
0.7579186197916666
 41
0.0
 71
               1
 72
               1
  1
0.05mm
  7
Helvetica
 73
               1
 44
0.9673603504928806
  0
WIPEOUT
  5
11A
100
AcDbEntity
  8
Dimension
370
              -2
390
0
  6
Continuous
 62
               0
 92
        0
100
AcDbWipeout
 90
        0
 10
19.237344401961565
 20
-5.143814360058161
 30
0.0
 11
3.8523212485843246
 21
0.0
 31
0.0
 12
0.0
 22
3.8523212485843246
 32
0.0
 13
1.0
 23
1.0
340
0
 70
               7
280
               1
281
              50
282
              50
283
               0
360
0
 71
               2
 91
        5
 14
-0.5
 24
0.5
 14
0.5
 24
0.5
 14
0.5
 24
0.1840659380504002
 14
-0.5
 24
0.1840659380504002
 14
-0.5
 24
0.5
  0
MTEXT
  5
11B
100
AcDbEntity
  8
Dimension
390
0
 62
               0
100
AcDbMText
 10
19.237344401961565
 20
-4.1213132402664945
 30
0.0
 40
0.7579186197916666
 41
0.0
 71
               1
 72
               1
  1
0.05mm
  7
Helvetica
 73
               1
 44
0.9673603504928806
  0
WIPEOUT
  5
11C
100
AcDbEntity
  8
Dimension
370
              -2
390
0
  6
Continuous
 62
               0
 92
        0
100
AcDbWipeout
 90
        0
 10
23.089665650545882
 20
-4.5815786100581573
 30
0.0
 11
2.1060832593176109
 21
0.0
 31
0.0
 12
0.0
 22
2.1060832593176109
 32
0.0
 13
1.0
 23
1.0
340
0
 70
               7
280
               1
281
              50
282
              50
283
               0
360
0
 71
               2
 91
        5
 14
-0.5
 24
0.5
 14
0.5
 24
0.5
 14
0.5
 24
-0.0778894675453992
 14
-0.5
 24
-0.0778894675453992
 14
-0.5
 24
0.5
  0
MTEXT
  5
11D
100
AcDbEntity
  8
Dimension
390
0
 62
               0
100
AcDbMText
 10
23.089665650545882
 20
-3.5590742697803797
 30
0.0
 40
0.7579210069444442
 41
0.0
 71
               1
 72
               1
  1
 (x4)
  7
Helvetica
 73
               1
 44
0.9673603504928806
  0
POINT
  5
11E
100
AcDbEntity
  8
Defpoints
370
               0
390
0
 62
               0
100
AcDbPoint
 10
6.7827824199528237
 20
-1.3853699999999947
 30
0.0
  0
POINT
  5
11F
100
AcDbEntity
  8
Defpoints
370
               0
390
0
 62
               0
100
AcDbPoint
 10
8.3001024199528217
 20
-1.9237500000000125
 30
0.0
  0
ENDBLK
  5
120
100
AcDbEntity
  8
Dimension
390
0
100
AcDbBlockEnd
  0
BLOCK
  5
121
100
AcDbEntity
  8
Dimension
390
0
100
AcDbBlockBegin
  2
*D17
 70
               1
 10
0.0
 20
0.0
 30
0.0
  3
*D17
  1

  0
LINE
  5
122
100
AcDbEntity
  8
Dimension
370
              -2
390
0
  6
Continuous
 62
               0
100
AcDbLine
 10
7.8777624199528162
 20
8.2706100000000049
 30
0.0
 11
12.608948465653967
 21
4.6154361733106271
 31
0.0
  0
SOLID
  5
123
100
AcDbEntity
  8
Dimension
370
              -2
390
0
 62
               0
100
AcDbTrace
 10
7.8777624199528162
 20
8.2706100000000049
 30
0.0
 11
8.3819228333936575
 21
8.0566066011645461
 31
0.0
 12
8.2073764461573209
 22
7.8331974133918632
 32
0.0
 13
8.2073764461573209
 23
7.8331974133918632
 33
0.0
  0
LINE
  5
124
100
AcDbEntity
  8
Dimension
370
              -2
390
0
  6
Continuous
 62
               0
100
AcDbLine
 10
12.608948465653967
 20
4.6154361733106271
 30
0.0
 11
14.108945467633461
 21
4.6154361733106271
 31
0.0
  0
WIPEOUT
  5
125
100
AcDbEntity
  8
Dimension
370
              -2
390
0
  6
Continuous
 62
               0
 92
        0
100
AcDbWipeout
 90
        0
 10
11.886452465483671
 20
4.0068980899772955
 30
0.0
 11
4.9741509887907256
 21
0.0
 31
0.0
 12
0.0
 22
4.9741509887907256
 32
0.0
 13
1.0
 23
1.0
340
0
 70
               7
280
               1
281
              50
282
              50
283
               0
360
0
 71
               2
 91
        5
 14
-0.5
 24
0.5
 14
0.5
 24
0.5
 14
0.5
 24
0.2553191483847808
 14
-0.5
 24
0.2553191483847808
 14
-0.5
 24
0.5
  0
MTEXT
  5
126
100
AcDbEntity
  8
Dimension
390
0
 62
               0
100
AcDbMText
 10
11.886452465483671
 20
5.0293992097689619
 30
0.0
 40
0.7579186197916666
 41
0.0
 71
               1
 72
               1
  1
Ø 0.85mm
  7
Helvetica
 73
               1
 44
0.9673603504928806
  0
WIPEOUT
  5
127
100
AcDbEntity
  8
Dimension
370
              -2
390
0
  6
Continuous
 62
               0
 92
        0
100
AcDbWipeout
 90
        0
 10
16.86060345427439
 20
4.5691343399772792
 30
0.0
 11
1.2170794999999996
 21
0.0
 31
0.0
 12
0.0
 22
1.2170794999999996
 32
0.0
 13
1.0
 23
1.0
340
0
 70
               7
280
               1
281
              50
282
              50
283
               0
360
0
 71
               2
 91
        5
 14
-0.5
 24
0.5
 14
0.0043478278911346
 24
0.5
 14
0.0043478278911346
 24
-0.5
 14
-0.5
 24
-0.5
 14
-0.5
 24
0.5
  0
MTEXT
  5
128
100
AcDbEntity
  8
Dimension
390
0
 62
               0
100
AcDbMText
 10
17.167519155372304
 20
5.5916354597689457
 30
0.0
 40
0.7579186197916666
 41
0.0
 71
               2
 72
               1
  1
+
  7
Helvetica
 73
               1
 44
0.9673603504928806
  0
WIPEOUT
  5
129
100
AcDbEntity
  8
Dimension
370
              -2
390
0
  6
Continuous
 62
               0
 92
        0
100
AcDbWipeout
 90
        0
 10
16.992894700397176
 20
3.4446585066439583
 30
0.0
 11
1.2170794999999996
 21
0.0
 31
0.0
 12
0.0
 22
1.2170794999999996
 32
0.0
 13
1.0
 23
1.0
340
0
 70
               7
280
               1
281
              50
282
              50
283
               0
360
0
 71
               2
 91
        5
 14
-0.5
 24
0.5
 14
-0.2130434700853519
 24
0.5
 14
-0.2130434700853519
 24
-0.5
 14
-0.5
 24
-0.5
 14
-0.5
 24
0.5
  0
MTEXT
  5
12A
100
AcDbEntity
  8
Dimension
390
0
 62
               0
100
AcDbMText
 10
17.167519155372304
 20
4.4671596264356248
 30
0.0
 40
0.7579186197916666
 41
0.0
 71
               2
 72
               1
  1
-
  7
Helvetica
 73
               1
 44
0.9673603504928806
  0
WIPEOUT
  5
12B
100
AcDbEntity
  8
Dimension
370
              -2
390
0
  6
Continuous
 62
               0
 92
        0
100
AcDbWipeout
 90
        0
 10
17.474434856470225
 20
4.5691343399772792
 30
0.0
 11
4.4449860042995866
 21
0.0
 31
0.0
 12
0.0
 22
4.4449860042995866
 32
0.0
 13
1.0
 23
1.0
340
0
 70
               7
280
               1
281
              50
282
              50
283
               0
360
0
 71
               2
 91
        5
 14
-0.5
 24
0.5
 14
0.5
 24
0.5
 14
0.5
 24
0.2261904764553293
 14
-0.5
 24
0.2261904764553293
 14
-0.5
 24
0.5
  0
MTEXT
  5
12C
100
AcDbEntity
  8
Dimension
390
0
 62
               0
100
AcDbMText
 10
17.474434856470225
 20
5.5916354597689457
 30
0.0
 40
0.7579186197916666
 41
0.0
 71
               1
 72
               1
  1
0.025mm
  7
Helvetica
 73
               1
 44
0.9673603504928806
  0
WIPEOUT
  5
12D
100
AcDbEntity
  8
Dimension
370
              -2
390
0
  6
Continuous
 62
               0
 92
        0
100
AcDbWipeout
 90
        0
 10
17.474434856470225
 20
3.4446585066439583
 30
0.0
 11
4.4449860042995866
 21
0.0
 31
0.0
 12
0.0
 22
4.4449860042995866
 32
0.0
 13
1.0
 23
1.0
340
0
 70
               7
280
               1
281
              50
282
              50
283
               0
360
0
 71
               2
 91
        5
 14
-0.5
 24
0.5
 14
0.5
 24
0.5
 14
0.5
 24
0.2261904764553293
 14
-0.5
 24
0.2261904764553293
 14
-0.5
 24
0.5
  0
MTEXT
  5
12E
100
AcDbEntity
  8
Dimension
390
0
 62
               0
100
AcDbMText
 10
17.474434856470225
 20
4.4671596264356248
 30
0.0
 40
0.7579186197916666
 41
0.0
 71
               1
 72
               1
  1
0.025mm
  7
Helvetica
 73
               1
 44
0.9673603504928806
  0
WIPEOUT
  5
12F
100
AcDbEntity
  8
Dimension
370
              -2
390
0
  6
Continuous
 62
               0
 92
        0
100
AcDbWipeout
 90
        0
 10
21.919420860769804
 20
4.006894256643962
 30
0.0
 11
2.1060832593176109
 21
0.0
 31
0.0
 12
0.0
 22
2.1060832593176109
 32
0.0
 13
1.0
 23
1.0
340
0
 70
               7
280
               1
281
              50
282
              50
283
               0
360
0
 71
               2
 91
        5
 14
-0.5
 24
0.5
 14
0.5
 24
0.5
 14
0.5
 24
-0.0778894675453992
 14
-0.5
 24
-0.0778894675453992
 14
-0.5
 24
0.5
  0
MTEXT
  5
130
100
AcDbEntity
  8
Dimension
390
0
 62
               0
100
AcDbMText
 10
21.919420860769804
 20
5.0293985969217392
 30
0.0
 40
0.7579210069444442
 41
0.0
 71
               1
 72
               1
  1
 (x2)
  7
Helvetica
 73
               1
 44
0.9673603504928806
  0
POINT
  5
131
100
AcDbEntity
  8
Defpoints
370
               0
390
0
 62
               0
100
AcDbPoint
 10
7.2051224199528292
 20
8.7902699999999925
 30
0.0
  0
POINT
  5
132
100
AcDbEntity
  8
Defpoints
370
               0
390
0
 62
               0
100
AcDbPoint
 10
7.8777624199528162
 20
8.2706100000000049
 30
0.0
  0
ENDBLK
  5
133
100
AcDbEntity
  8
Dimension
390
0
100
AcDbBlockEnd
  0
BLOCK
  5
134
100
AcDbEntity
  8
Dimension
390
0
100
AcDbBlockBegin
  2
*D18
 70
               1
 10
0.0
 20
0.0
 30
0.0
  3
*D18
  1

  0
LINE
  5
135
100
AcDbEntity
  8
Dimension
370
              -2
390
0
  6
Continuous
 62
               0
100
AcDbLine
 10
3.1789424199528185
 20
10.18419000118277
 30
0.0
 11
3.1789424199528185
 21
15.127000002365548
 31
0.0
  0
LINE
  5
136
100
AcDbEntity
  8
Dimension
370
              -2
390
0
  6
Continuous
 62
               0
100
AcDbLine
 10
3.6789424199528185
 20
10.18419000118277
 30
0.0
 11
3.6789424199528185
 21
15.12700000236552
 31
0.0
  0
LINE
  5
137
100
AcDbEntity
  8
Dimension
370
              -2
390
0
  6
Continuous
 62
               0
100
AcDbLine
 10
3.6789424199528185
 20
14.174499999999966
 30
0.0
 11
3.1789424199528185
 21
14.174499999999966
 31
0.0
  0
LINE
  5
138
100
AcDbEntity
  8
Dimension
370
              -2
390
0
  6
Continuous
 62
               0
100
AcDbLine
 10
3.1789424199528185
 20
14.174499999999966
 30
0.0
 11
1.4289459215860063
 21
14.174499999999966
 31
0.0
  0
SOLID
  5
139
100
AcDbEntity
  8
Dimension
370
              -2
390
0
 62
               0
100
AcDbTrace
 10
3.1789424199528185
 20
14.174499999999966
 30
0.0
 11
2.3851924199528183
 21
13.961815328507763
 31
0.0
 12
2.3851924199528187
 22
14.38718467149217
 32
0.0
 13
2.3851924199528187
 23
14.38718467149217
 33
0.0
  0
LINE
  5
13A
100
AcDbEntity
  8
Dimension
370
              -2
390
0
  6
Continuous
 62
               0
100
AcDbLine
 10
3.6789424199528185
 20
14.174499999999966
 30
0.0
 11
6.1079224199528142
 21
14.174499999999966
 31
0.0
  0
SOLID
  5
13B
100
AcDbEntity
  8
Dimension
370
              -2
390
0
 62
               0
100
AcDbTrace
 10
3.6789424199528185
 20
14.174499999999966
 30
0.0
 11
4.4726924199528186
 21
14.38718467149217
 31
0.0
 12
4.4726924199528186
 22
13.961815328507763
 32
0.0
 13
4.4726924199528186
 23
13.961815328507763
 33
0.0
  0
WIPEOUT
  5
13C
100
AcDbEntity
  8
Dimension
370
              -2
390
0
  6
Continuous
 62
               0
 92
        0
100
AcDbWipeout
 90
        0
 10
6.1079224199528142
 20
13.565960249999971
 30
0.0
 11
5.2599001275168504
 21
0.0
 31
0.0
 12
0.0
 22
5.2599001275168504
 32
0.0
 13
1.0
 23
1.0
340
0
 70
               7
280
               1
281
              50
282
              50
283
               0
360
0
 71
               2
 91
        5
 14
-0.5
 24
0.5
 14
0.5
 24
0.5
 14
0.5
 24
0.2686116712306147
 14
-0.5
 24
0.2686116712306147
 14
-0.5
 24
0.5
  0
MTEXT
  5
13D
100
AcDbEntity
  8
Dimension
390
0
 62
               0
100
AcDbMText
 10
6.1079224199528142
 20
14.588461369791638
 30
0.0
 40
0.7579186197916666
 41
0.0
 71
               1
 72
               1
  1
0.5mm typ.
  7
Helvetica
 73
               1
 44
0.9673603504928806
  0
POINT
  5
13E
100
AcDbEntity
  8
Defpoints
370
               0
390
0
 62
               0
100
AcDbPoint
 10
3.6789424199528185
 20
9.7079399999999794
 30
0.0
  0
POINT
  5
13F
100
AcDbEntity
  8
Defpoints
370
               0
390
0
 62
               0
100
AcDbPoint
 10
3.1789424199528185
 20
9.7079399999999794
 30
0.0
  0
POINT
  5
140
100
AcDbEntity
  8
Defpoints
370
               0
390
0
 62
               0
100
AcDbPoint
 10
3.1789424199528185
 20
14.174499999999979
 30
0.0
  0
ENDBLK
  5
141
100
AcDbEntity
  8
Dimension
390
0
100
AcDbBlockEnd
  0
BLOCK
  5
142
100
AcDbEntity
  8
None
390
0
100
AcDbBlockBegin
  2
Group
 70
               0
 10
0.0
 20
0.0
 30
0.0
  3
Group
  1

  0
SOLID
  5
143
100
AcDbEntity
  8
None
370
              15
390
0
  6
Continuous
 62
               7
100
AcDbTrace
 10
-3.7510575800471742
 20
8.317939999999993
 30
0.0
 11
-3.7510575800471742
 21
8.5979399999999941
 31
0.0
 12
-2.8110575800471764
 22
8.317939999999993
 32
0.0
 13
-2.8110575800471764
 23
8.5979399999999941
 33
0.0
  0
SOLID
  5
144
100
AcDbEntity
  8
None
370
              15
390
0
  6
Continuous
 62
               7
100
AcDbTrace
 10
5.6689424199528275
 20
8.317939999999993
 30
0.0
 11
5.6689424199528275
 21
8.5979399999999941
 31
0.0
 12
6.6089424199528253
 22
8.317939999999993
 32
0.0
 13
6.6089424199528253
 23
8.5979399999999941
 33
0.0
  0
SOLID
  5
145
100
AcDbEntity
  8
None
370
              15
390
0
  6
Continuous
 62
               7
100
AcDbTrace
 10
-3.7510575800471742
 20
7.817939999999993
 30
0.0
 11
-3.7510575800471742
 21
8.0979399999999941
 31
0.0
 12
-2.8110575800471764
 22
7.817939999999993
 32
0.0
 13
-2.8110575800471764
 23
8.0979399999999941
 33
0.0
  0
SOLID
  5
146
100
AcDbEntity
  8
None
370
              15
390
0
  6
Continuous
 62
               7
100
AcDbTrace
 10
5.6689424199528275
 20
7.817939999999993
 30
0.0
 11
5.6689424199528275
 21
8.0979399999999941
 31
0.0
 12
6.6089424199528253
 22
7.817939999999993
 32
0.0
 13
6.6089424199528253
 23
8.0979399999999941
 33
0.0
  0
SOLID
  5
147
100
AcDbEntity
  8
None
370
              15
390
0
  6
Continuous
 62
               7
100
AcDbTrace
 10
-3.7510575800471742
 20
7.317939999999993
 30
0.0
 11
-3.7510575800471742
 21
7.5979399999999941
 31
0.0
 12
-2.8110575800471764
 22
7.317939999999993
 32
0.0
 13
-2.8110575800471764
 23
7.5979399999999941
 33
0.0
  0
SOLID
  5
148
100
AcDbEntity
  8
None
370
              15
390
0
  6
Continuous
 62
               7
100
AcDbTrace
 10
5.6689424199528275
 20
7.317939999999993
 30
0.0
 11
5.6689424199528275
 21
7.5979399999999941
 31
0.0
 12
6.6089424199528253
 22
7.317939999999993
 32
0.0
 13
6.6089424199528253
 23
7.5979399999999941
 33
0.0
  0
SOLID
  5
149
100
AcDbEntity
  8
None
370
              15
390
0
  6
Continuous
 62
               7
100
AcDbTrace
 10
-3.7510575800471742
 20
6.817939999999993
 30
0.0
 11
-3.7510575800471742
 21
7.0979399999999941
 31
0.0
 12
-2.8110575800471764
 22
6.817939999999993
 32
0.0
 13
-2.8110575800471764
 23
7.0979399999999941
 33
0.0
  0
SOLID
  5
14A
100
AcDbEntity
  8
None
370
              15
390
0
  6
Continuous
 62
               7
100
AcDbTrace
 10
5.6689424199528275
 20
6.817939999999993
 30
0.0
 11
5.6689424199528275
 21
7.0979399999999941
 31
0.0
 12
6.6089424199528253
 22
6.817939999999993
 32
0.0
 13
6.6089424199528253
 23
7.0979399999999941
 33
0.0
  0
SOLID
  5
14B
100
AcDbEntity
  8
None
370
              15
390
0
  6
Continuous
 62
               7
100
AcDbTrace
 10
-3.7510575800471742
 20
6.317939999999993
 30
0.0
 11
-3.7510575800471742
 21
6.5979399999999941
 31
0.0
 12
-2.8110575800471764
 22
6.317939999999993
 32
0.0
 13
-2.8110575800471764
 23
6.5979399999999941
 33
0.0
  0
SOLID
  5
14C
100
AcDbEntity
  8
None
370
              15
390
0
  6
Continuous
 62
               7
100
AcDbTrace
 10
5.6689424199528275
 20
6.317939999999993
 30
0.0
 11
5.6689424199528275
 21
6.5979399999999941
 31
0.0
 12
6.6089424199528253
 22
6.317939999999993
 32
0.0
 13
6.6089424199528253
 23
6.5979399999999941
 33
0.0
  0
SOLID
  5
14D
100
AcDbEntity
  8
None
370
              15
390
0
  6
Continuous
 62
               7
100
AcDbTrace
 10
-3.7510575800471742
 20
5.817939999999993
 30
0.0
 11
-3.7510575800471742
 21
6.0979399999999941
 31
0.0
 12
-2.8110575800471764
 22
5.817939999999993
 32
0.0
 13
-2.8110575800471764
 23
6.0979399999999941
 33
0.0
  0
SOLID
  5
14E
100
AcDbEntity
  8
None
370
              15
390
0
  6
Continuous
 62
               7
100
AcDbTrace
 10
5.6689424199528275
 20
5.817939999999993
 30
0.0
 11
5.6689424199528275
 21
6.0979399999999941
 31
0.0
 12
6.6089424199528253
 22
5.817939999999993
 32
0.0
 13
6.6089424199528253
 23
6.0979399999999941
 33
0.0
  0
SOLID
  5
14F
100
AcDbEntity
  8
None
370
              15
390
0
  6
Continuous
 62
               7
100
AcDbTrace
 10
-3.7510575800471742
 20
5.317939999999993
 30
0.0
 11
-3.7510575800471742
 21
5.5979399999999941
 31
0.0
 12
-2.8110575800471764
 22
5.317939999999993
 32
0.0
 13
-2.8110575800471764
 23
5.5979399999999941
 33
0.0
  0
SOLID
  5
150
100
AcDbEntity
  8
None
370
              15
390
0
  6
Continuous
 62
               7
100
AcDbTrace
 10
5.6689424199528275
 20
5.317939999999993
 30
0.0
 11
5.6689424199528275
 21
5.5979399999999941
 31
0.0
 12
6.6089424199528253
 22
5.317939999999993
 32
0.0
 13
6.6089424199528253
 23
5.5979399999999941
 33
0.0
  0
SOLID
  5
151
100
AcDbEntity
  8
None
370
              15
390
0
  6
Continuous
 62
               7
100
AcDbTrace
 10
-3.7510575800471742
 20
4.817939999999993
 30
0.0
 11
-3.7510575800471742
 21
5.0979399999999941
 31
0.0
 12
-2.8110575800471764
 22
4.817939999999993
 32
0.0
 13
-2.8110575800471764
 23
5.0979399999999941
 33
0.0
  0
SOLID
  5
152
100
AcDbEntity
  8
None
370
              15
390
0
  6
Continuous
 62
               7
100
AcDbTrace
 10
5.6689424199528275
 20
4.817939999999993
 30
0.0
 11
5.6689424199528275
 21
5.0979399999999941
 31
0.0
 12
6.6089424199528253
 22
4.817939999999993
 32
0.0
 13
6.6089424199528253
 23
5.0979399999999941
 33
0.0
  0
SOLID
  5
153
100
AcDbEntity
  8
None
370
              15
390
0
  6
Continuous
 62
               7
100
AcDbTrace
 10
-3.7510575800471742
 20
4.317939999999993
 30
0.0
 11
-3.7510575800471742
 21
4.5979399999999941
 31
0.0
 12
-2.8110575800471764
 22
4.317939999999993
 32
0.0
 13
-2.8110575800471764
 23
4.5979399999999941
 33
0.0
  0
SOLID
  5
154
100
AcDbEntity
  8
None
370
              15
390
0
  6
Continuous
 62
               7
100
AcDbTrace
 10
5.6689424199528275
 20
4.317939999999993
 30
0.0
 11
5.6689424199528275
 21
4.5979399999999941
 31
0.0
 12
6.6089424199528253
 22
4.317939999999993
 32
0.0
 13
6.6089424199528253
 23
4.5979399999999941
 33
0.0
  0
SOLID
  5
155
100
AcDbEntity
  8
None
370
              15
390
0
  6
Continuous
 62
               7
100
AcDbTrace
 10
-3.7510575800471742
 20
3.817939999999993
 30
0.0
 11
-3.7510575800471742
 21
4.0979399999999941
 31
0.0
 12
-2.8110575800471764
 22
3.817939999999993
 32
0.0
 13
-2.8110575800471764
 23
4.0979399999999941
 33
0.0
  0
SOLID
  5
156
100
AcDbEntity
  8
None
370
              15
390
0
  6
Continuous
 62
               7
100
AcDbTrace
 10
5.6689424199528275
 20
3.817939999999993
 30
0.0
 11
5.6689424199528275
 21
4.0979399999999941
 31
0.0
 12
6.6089424199528253
 22
3.817939999999993
 32
0.0
 13
6.6089424199528253
 23
4.0979399999999941
 33
0.0
  0
SOLID
  5
157
100
AcDbEntity
  8
None
370
              15
390
0
  6
Continuous
 62
               7
100
AcDbTrace
 10
-3.7510575800471742
 20
3.317939999999993
 30
0.0
 11
-3.7510575800471742
 21
3.5979399999999941
 31
0.0
 12
-2.8110575800471764
 22
3.317939999999993
 32
0.0
 13
-2.8110575800471764
 23
3.5979399999999941
 33
0.0
  0
SOLID
  5
158
100
AcDbEntity
  8
None
370
              15
390
0
  6
Continuous
 62
               7
100
AcDbTrace
 10
5.6689424199528275
 20
3.317939999999993
 30
0.0
 11
5.6689424199528275
 21
3.5979399999999941
 31
0.0
 12
6.6089424199528253
 22
3.317939999999993
 32
0.0
 13
6.6089424199528253
 23
3.5979399999999941
 33
0.0
  0
SOLID
  5
159
100
AcDbEntity
  8
None
370
              15
390
0
  6
Continuous
 62
               7
100
AcDbTrace
 10
-3.7510575800471742
 20
2.817939999999993
 30
0.0
 11
-3.7510575800471742
 21
3.0979399999999941
 31
0.0
 12
-2.8110575800471764
 22
2.817939999999993
 32
0.0
 13
-2.8110575800471764
 23
3.0979399999999941
 33
0.0
  0
SOLID
  5
15A
100
AcDbEntity
  8
None
370
              15
390
0
  6
Continuous
 62
               7
100
AcDbTrace
 10
5.6689424199528275
 20
2.817939999999993
 30
0.0
 11
5.6689424199528275
 21
3.0979399999999941
 31
0.0
 12
6.6089424199528253
 22
2.817939999999993
 32
0.0
 13
6.6089424199528253
 23
3.0979399999999941
 33
0.0
  0
SOLID
  5
15B
100
AcDbEntity
  8
None
370
              15
390
0
  6
Continuous
 62
               7
100
AcDbTrace
 10
-3.7510575800471742
 20
2.317939999999993
 30
0.0
 11
-3.7510575800471742
 21
2.5979399999999941
 31
0.0
 12
-2.8110575800471764
 22
2.317939999999993
 32
0.0
 13
-2.8110575800471764
 23
2.5979399999999941
 33
0.0
  0
SOLID
  5
15C
100
AcDbEntity
  8
None
370
              15
390
0
  6
Continuous
 62
               7
100
AcDbTrace
 10
5.6689424199528275
 20
2.317939999999993
 30
0.0
 11
5.6689424199528275
 21
2.5979399999999941
 31
0.0
 12
6.6089424199528253
 22
2.317939999999993
 32
0.0
 13
6.6089424199528253
 23
2.5979399999999941
 33
0.0
  0
SOLID
  5
15D
100
AcDbEntity
  8
None
370
              15
390
0
  6
Continuous
 62
               7
100
AcDbTrace
 10
-3.7510575800471742
 20
1.817939999999993
 30
0.0
 11
-3.7510575800471742
 21
2.0979399999999941
 31
0.0
 12
-2.8110575800471764
 22
1.817939999999993
 32
0.0
 13
-2.8110575800471764
 23
2.0979399999999941
 33
0.0
  0
SOLID
  5
15E
100
AcDbEntity
  8
None
370
              15
390
0
  6
Continuous
 62
               7
100
AcDbTrace
 10
5.6689424199528275
 20
1.817939999999993
 30
0.0
 11
5.6689424199528275
 21
2.0979399999999941
 31
0.0
 12
6.6089424199528253
 22
1.817939999999993
 32
0.0
 13
6.6089424199528253
 23
2.0979399999999941
 33
0.0
  0
SOLID
  5
15F
100
AcDbEntity
  8
None
370
              15
390
0
  6
Continuous
 62
               7
100
AcDbTrace
 10
-3.7510575800471742
 20
1.317939999999993
 30
0.0
 11
-3.7510575800471742
 21
1.5979399999999941
 31
0.0
 12
-2.8110575800471764
 22
1.317939999999993
 32
0.0
 13
-2.8110575800471764
 23
1.5979399999999941
 33
0.0
  0
SOLID
  5
160
100
AcDbEntity
  8
None
370
              15
390
0
  6
Continuous
 62
               7
100
AcDbTrace
 10
5.6689424199528275
 20
1.317939999999993
 30
0.0
 11
5.6689424199528275
 21
1.5979399999999941
 31
0.0
 12
6.6089424199528253
 22
1.317939999999993
 32
0.0
 13
6.6089424199528253
 23
1.5979399999999941
 33
0.0
  0
SOLID
  5
161
100
AcDbEntity
  8
None
370
              15
390
0
  6
Continuous
 62
               7
100
AcDbTrace
 10
-3.7510575800471742
 20
0.817939999999993
 30
0.0
 11
-3.7510575800471742
 21
1.0979399999999941
 31
0.0
 12
-2.8110575800471764
 22
0.817939999999993
 32
0.0
 13
-2.8110575800471764
 23
1.0979399999999941
 33
0.0
  0
SOLID
  5
162
100
AcDbEntity
  8
None
370
              15
390
0
  6
Continuous
 62
               7
100
AcDbTrace
 10
5.6689424199528275
 20
0.817939999999993
 30
0.0
 11
5.6689424199528275
 21
1.0979399999999941
 31
0.0
 12
6.6089424199528253
 22
0.817939999999993
 32
0.0
 13
6.6089424199528253
 23
1.0979399999999941
 33
0.0
  0
ENDBLK
  5
163
100
AcDbEntity
  8
None
390
0
100
AcDbBlockEnd
  0
BLOCK
  5
164
100
AcDbEntity
  8
None
390
0
100
AcDbBlockBegin
  2
Group-1
 70
               0
 10
0.0
 20
0.0
 30
0.0
  3
Group-1
  1

  0
SOLID
  5
165
100
AcDbEntity
  8
None
370
              15
390
0
  6
Continuous
 62
               7
100
AcDbTrace
 10
-2.4610575800471821
 20
-0.472059999999999
 30
0.0
 11
-2.4610575800471821
 21
0.4679399999999987
 31
0.0
 12
-2.181057580047181
 22
-0.472059999999999
 32
0.0
 13
-2.181057580047181
 23
0.4679399999999987
 33
0.0
  0
SOLID
  5
166
100
AcDbEntity
  8
None
370
              15
390
0
  6
Continuous
 62
               7
100
AcDbTrace
 10
-2.4610575800471821
 20
8.9479399999999885
 30
0.0
 11
-2.4610575800471821
 21
9.8879399999999862
 31
0.0
 12
-2.181057580047181
 22
8.9479399999999885
 32
0.0
 13
-2.181057580047181
 23
9.8879399999999862
 33
0.0
  0
SOLID
  5
167
100
AcDbEntity
  8
None
370
              15
390
0
  6
Continuous
 62
               7
100
AcDbTrace
 10
-1.9610575800471821
 20
-0.472059999999999
 30
0.0
 11
-1.9610575800471821
 21
0.4679399999999987
 31
0.0
 12
-1.681057580047181
 22
-0.472059999999999
 32
0.0
 13
-1.681057580047181
 23
0.4679399999999987
 33
0.0
  0
SOLID
  5
168
100
AcDbEntity
  8
None
370
              15
390
0
  6
Continuous
 62
               7
100
AcDbTrace
 10
-1.9610575800471821
 20
8.9479399999999885
 30
0.0
 11
-1.9610575800471821
 21
9.8879399999999862
 31
0.0
 12
-1.681057580047181
 22
8.9479399999999885
 32
0.0
 13
-1.681057580047181
 23
9.8879399999999862
 33
0.0
  0
SOLID
  5
169
100
AcDbEntity
  8
None
370
              15
390
0
  6
Continuous
 62
               7
100
AcDbTrace
 10
-1.4610575800471821
 20
-0.472059999999999
 30
0.0
 11
-1.4610575800471821
 21
0.4679399999999987
 31
0.0
 12
-1.181057580047181
 22
-0.472059999999999
 32
0.0
 13
-1.181057580047181
 23
0.4679399999999987
 33
0.0
  0
SOLID
  5
16A
100
AcDbEntity
  8
None
370
              15
390
0
  6
Continuous
 62
               7
100
AcDbTrace
 10
-1.4610575800471821
 20
8.9479399999999885
 30
0.0
 11
-1.4610575800471821
 21
9.8879399999999862
 31
0.0
 12
-1.181057580047181
 22
8.9479399999999885
 32
0.0
 13
-1.181057580047181
 23
9.8879399999999862
 33
0.0
  0
SOLID
  5
16B
100
AcDbEntity
  8
None
370
              15
390
0
  6
Continuous
 62
               7
100
AcDbTrace
 10
-0.9610575800471821
 20
-0.472059999999999
 30
0.0
 11
-0.9610575800471821
 21
0.4679399999999987
 31
0.0
 12
-0.681057580047181
 22
-0.472059999999999
 32
0.0
 13
-0.681057580047181
 23
0.4679399999999987
 33
0.0
  0
SOLID
  5
16C
100
AcDbEntity
  8
None
370
              15
390
0
  6
Continuous
 62
               7
100
AcDbTrace
 10
-0.9610575800471821
 20
8.9479399999999885
 30
0.0
 11
-0.9610575800471821
 21
9.8879399999999862
 31
0.0
 12
-0.681057580047181
 22
8.9479399999999885
 32
0.0
 13
-0.681057580047181
 23
9.8879399999999862
 33
0.0
  0
SOLID
  5
16D
100
AcDbEntity
  8
None
370
              15
390
0
  6
Continuous
 62
               7
100
AcDbTrace
 10
-0.4610575800471821
 20
-0.472059999999999
 30
0.0
 11
-0.4610575800471821
 21
0.4679399999999987
 31
0.0
 12
-0.181057580047181
 22
-0.472059999999999
 32
0.0
 13
-0.181057580047181
 23
0.4679399999999987
 33
0.0
  0
SOLID
  5
16E
100
AcDbEntity
  8
None
370
              15
390
0
  6
Continuous
 62
               7
100
AcDbTrace
 10
-0.4610575800471821
 20
8.9479399999999885
 30
0.0
 11
-0.4610575800471821
 21
9.8879399999999862
 31
0.0
 12
-0.181057580047181
 22
8.9479399999999885
 32
0.0
 13
-0.181057580047181
 23
9.8879399999999862
 33
0.0
  0
SOLID
  5
16F
100
AcDbEntity
  8
None
370
              15
390
0
  6
Continuous
 62
               7
100
AcDbTrace
 10
0.0389424199528179
 20
-0.472059999999999
 30
0.0
 11
0.0389424199528179
 21
0.4679399999999987
 31
0.0
 12
0.318942419952819
 22
-0.472059999999999
 32
0.0
 13
0.318942419952819
 23
0.4679399999999987
 33
0.0
  0
SOLID
  5
170
100
AcDbEntity
  8
None
370
              15
390
0
  6
Continuous
 62
               7
100
AcDbTrace
 10
0.0389424199528179
 20
8.9479399999999885
 30
0.0
 11
0.0389424199528179
 21
9.8879399999999862
 31
0.0
 12
0.318942419952819
 22
8.9479399999999885
 32
0.0
 13
0.318942419952819
 23
9.8879399999999862
 33
0.0
  0
SOLID
  5
171
100
AcDbEntity
  8
None
370
              15
390
0
  6
Continuous
 62
               7
100
AcDbTrace
 10
0.5389424199528179
 20
-0.472059999999999
 30
0.0
 11
0.5389424199528179
 21
0.4679399999999987
 31
0.0
 12
0.818942419952819
 22
-0.472059999999999
 32
0.0
 13
0.818942419952819
 23
0.4679399999999987
 33
0.0
  0
SOLID
  5
172
100
AcDbEntity
  8
None
370
              15
390
0
  6
Continuous
 62
               7
100
AcDbTrace
 10
0.5389424199528179
 20
8.9479399999999885
 30
0.0
 11
0.5389424199528179
 21
9.8879399999999862
 31
0.0
 12
0.818942419952819
 22
8.9479399999999885
 32
0.0
 13
0.818942419952819
 23
9.8879399999999862
 33
0.0
  0
SOLID
  5
173
100
AcDbEntity
  8
None
370
              15
390
0
  6
Continuous
 62
               7
100
AcDbTrace
 10
1.0389424199528179
 20
-0.472059999999999
 30
0.0
 11
1.0389424199528179
 21
0.4679399999999987
 31
0.0
 12
1.318942419952819
 22
-0.472059999999999
 32
0.0
 13
1.318942419952819
 23
0.4679399999999987
 33
0.0
  0
SOLID
  5
174
100
AcDbEntity
  8
None
370
              15
390
0
  6
Continuous
 62
               7
100
AcDbTrace
 10
1.0389424199528179
 20
8.9479399999999885
 30
0.0
 11
1.0389424199528179
 21
9.8879399999999862
 31
0.0
 12
1.318942419952819
 22
8.9479399999999885
 32
0.0
 13
1.318942419952819
 23
9.8879399999999862
 33
0.0
  0
SOLID
  5
175
100
AcDbEntity
  8
None
370
              15
390
0
  6
Continuous
 62
               7
100
AcDbTrace
 10
1.5389424199528179
 20
-0.472059999999999
 30
0.0
 11
1.5389424199528179
 21
0.4679399999999987
 31
0.0
 12
1.818942419952819
 22
-0.472059999999999
 32
0.0
 13
1.818942419952819
 23
0.4679399999999987
 33
0.0
  0
SOLID
  5
176
100
AcDbEntity
  8
None
370
              15
390
0
  6
Continuous
 62
               7
100
AcDbTrace
 10
1.5389424199528179
 20
8.9479399999999885
 30
0.0
 11
1.5389424199528179
 21
9.8879399999999862
 31
0.0
 12
1.818942419952819
 22
8.9479399999999885
 32
0.0
 13
1.818942419952819
 23
9.8879399999999862
 33
0.0
  0
SOLID
  5
177
100
AcDbEntity
  8
None
370
              15
390
0
  6
Continuous
 62
               7
100
AcDbTrace
 10
2.0389424199528179
 20
-0.472059999999999
 30
0.0
 11
2.0389424199528179
 21
0.4679399999999987
 31
0.0
 12
2.318942419952819
 22
-0.472059999999999
 32
0.0
 13
2.318942419952819
 23
0.4679399999999987
 33
0.0
  0
SOLID
  5
178
100
AcDbEntity
  8
None
370
              15
390
0
  6
Continuous
 62
               7
100
AcDbTrace
 10
2.0389424199528179
 20
8.9479399999999885
 30
0.0
 11
2.0389424199528179
 21
9.8879399999999862
 31
0.0
 12
2.318942419952819
 22
8.9479399999999885
 32
0.0
 13
2.318942419952819
 23
9.8879399999999862
 33
0.0
  0
SOLID
  5
179
100
AcDbEntity
  8
None
370
              15
390
0
  6
Continuous
 62
               7
100
AcDbTrace
 10
2.5389424199528179
 20
-0.472059999999999
 30
0.0
 11
2.5389424199528179
 21
0.4679399999999987
 31
0.0
 12
2.818942419952819
 22
-0.472059999999999
 32
0.0
 13
2.818942419952819
 23
0.4679399999999987
 33
0.0
  0
SOLID
  5
17A
100
AcDbEntity
  8
None
370
              15
390
0
  6
Continuous
 62
               7
100
AcDbTrace
 10
2.5389424199528179
 20
8.9479399999999885
 30
0.0
 11
2.5389424199528179
 21
9.8879399999999862
 31
0.0
 12
2.818942419952819
 22
8.9479399999999885
 32
0.0
 13
2.818942419952819
 23
9.8879399999999862
 33
0.0
  0
SOLID
  5
17B
100
AcDbEntity
  8
None
370
              15
390
0
  6
Continuous
 62
               7
100
AcDbTrace
 10
3.0389424199528179
 20
-0.472059999999999
 30
0.0
 11
3.0389424199528179
 21
0.4679399999999987
 31
0.0
 12
3.318942419952819
 22
-0.472059999999999
 32
0.0
 13
3.318942419952819
 23
0.4679399999999987
 33
0.0
  0
SOLID
  5
17C
100
AcDbEntity
  8
None
370
              15
390
0
  6
Continuous
 62
               7
100
AcDbTrace
 10
3.0389424199528179
 20
8.9479399999999885
 30
0.0
 11
3.0389424199528179
 21
9.8879399999999862
 31
0.0
 12
3.318942419952819
 22
8.9479399999999885
 32
0.0
 13
3.318942419952819
 23
9.8879399999999862
 33
0.0
  0
SOLID
  5
17D
100
AcDbEntity
  8
None
370
              15
390
0
  6
Continuous
 62
               7
100
AcDbTrace
 10
3.5389424199528179
 20
-0.472059999999999
 30
0.0
 11
3.5389424199528179
 21
0.4679399999999987
 31
0.0
 12
3.818942419952819
 22
-0.472059999999999
 32
0.0
 13
3.818942419952819
 23
0.4679399999999987
 33
0.0
  0
SOLID
  5
17E
100
AcDbEntity
  8
None
370
              15
390
0
  6
Continuous
 62
               7
100
AcDbTrace
 10
3.5389424199528179
 20
8.9479399999999885
 30
0.0
 11
3.5389424199528179
 21
9.8879399999999862
 31
0.0
 12
3.818942419952819
 22
8.9479399999999885
 32
0.0
 13
3.818942419952819
 23
9.8879399999999862
 33
0.0
  0
SOLID
  5
17F
100
AcDbEntity
  8
None
370
              15
390
0
  6
Continuous
 62
               7
100
AcDbTrace
 10
4.0389424199528179
 20
-0.472059999999999
 30
0.0
 11
4.0389424199528179
 21
0.4679399999999987
 31
0.0
 12
4.318942419952819
 22
-0.472059999999999
 32
0.0
 13
4.318942419952819
 23
0.4679399999999987
 33
0.0
  0
SOLID
  5
180
100
AcDbEntity
  8
None
370
              15
390
0
  6
Continuous
 62
               7
100
AcDbTrace
 10
4.0389424199528179
 20
8.9479399999999885
 30
0.0
 11
4.0389424199528179
 21
9.8879399999999862
 31
0.0
 12
4.318942419952819
 22
8.9479399999999885
 32
0.0
 13
4.318942419952819
 23
9.8879399999999862
 33
0.0
  0
SOLID
  5
181
100
AcDbEntity
  8
None
370
              15
390
0
  6
Continuous
 62
               7
100
AcDbTrace
 10
4.5389424199528179
 20
-0.472059999999999
 30
0.0
 11
4.5389424199528179
 21
0.4679399999999987
 31
0.0
 12
4.818942419952819
 22
-0.472059999999999
 32
0.0
 13
4.818942419952819
 23
0.4679399999999987
 33
0.0
  0
SOLID
  5
182
100
AcDbEntity
  8
None
370
              15
390
0
  6
Continuous
 62
               7
100
AcDbTrace
 10
4.5389424199528179
 20
8.9479399999999885
 30
0.0
 11
4.5389424199528179
 21
9.8879399999999862
 31
0.0
 12
4.818942419952819
 22
8.9479399999999885
 32
0.0
 13
4.818942419952819
 23
9.8879399999999862
 33
0.0
  0
SOLID
  5
183
100
AcDbEntity
  8
None
370
              15
390
0
  6
Continuous
 62
               7
100
AcDbTrace
 10
5.0389424199528179
 20
-0.472059999999999
 30
0.0
 11
5.0389424199528179
 21
0.4679399999999987
 31
0.0
 12
5.318942419952819
 22
-0.472059999999999
 32
0.0
 13
5.318942419952819
 23
0.4679399999999987
 33
0.0
  0
SOLID
  5
184
100
AcDbEntity
  8
None
370
              15
390
0
  6
Continuous
 62
               7
100
AcDbTrace
 10
5.0389424199528179
 20
8.9479399999999885
 30
0.0
 11
5.0389424199528179
 21
9.8879399999999862
 31
0.0
 12
5.318942419952819
 22
8.9479399999999885
 32
0.0
 13
5.318942419952819
 23
9.8879399999999862
 33
0.0
  0
ENDBLK
  5
185
100
AcDbEntity
  8
None
390
0
100
AcDbBlockEnd
  0
BLOCK
  5
186
100
AcDbEntity
  8
None
390
0
100
AcDbBlockBegin
  2
Group-2
 70
               0
 10
0.0
 20
0.0
 30
0.0
  3
Group-2
  1

  0
INSERT
  5
187
100
AcDbEntity
  8
None
390
0
 62
               7
100
AcDbBlockReference
  2
Group
 10
0.0
 20
0.0
 30
0.0
  0
INSERT
  5
188
100
AcDbEntity
  8
None
390
0
 62
               7
100
AcDbBlockReference
  2
Group-1
 10
0.0
 20
0.0
 30
0.0
  0
ENDBLK
  5
189
100
AcDbEntity
  8
None
390
0
100
AcDbBlockEnd
  0
BLOCK
  5
18A
100
AcDbEntity
  8
None
390
0
100
AcDbBlockBegin
  2
Group-3
 70
               0
 10
0.0
 20
0.0
 30
0.0
  3
Group-3
  1

  0
POLYLINE
  5
18B
102
{ACAD_REACTORS
330
191
102
}
100
AcDbEntity
  8
None
370
               5
390
0
  6
Continuous
 62
               7
100
AcDb2dPolyline
 66
               1
 10
0.0
 20
0.0
 30
0.0
 70
               1
 75
               5
  0
VERTEX
  5
18C
100
AcDbEntity
  8
None
370
               5
390
0
  6
Continuous
 62
               7
100
AcDbVertex
100
AcDb2dVertex
 10
-2.6110575800471736
 20
8.7479399999999998
 30
0.0
  0
VERTEX
  5
18D
100
AcDbEntity
  8
None
370
               5
390
0
  6
Continuous
 62
               7
100
AcDbVertex
100
AcDb2dVertex
 10
5.4689424199528247
 20
8.7479399999999998
 30
0.0
  0
VERTEX
  5
18E
100
AcDbEntity
  8
None
370
               5
390
0
  6
Continuous
 62
               7
100
AcDbVertex
100
AcDb2dVertex
 10
5.4689424199528247
 20
0.6679399999999873
 30
0.0
  0
VERTEX
  5
18F
100
AcDbEntity
  8
None
370
               5
390
0
  6
Continuous
 62
               7
100
AcDbVertex
100
AcDb2dVertex
 10
-2.6110575800471736
 20
0.6679399999999873
 30
0.0
  0
SEQEND
  5
190
100
AcDbEntity
  8
None
370
               5
390
0
  6
Continuous
 62
               7
  0
HATCH
  5
191
100
AcDbEntity
  8
None
370
               0
390
0
  6
Continuous
 62
             254
100
AcDbHatch
 10
0.0
 20
0.0
 30
0.0
210
0.0
220
0.0
230
1.0
  2
SOLID
 70
               1
 71
               1
 91
        1
 92
        1
 93
        4
 72
               1
 10
-2.6110575800471736
 20
8.7479399999999998
 11
5.4689424199528247
 21
8.7479399999999998
 72
               1
 10
5.4689424199528247
 20
8.7479399999999998
 11
5.4689424199528247
 21
0.6679399999999873
 72
               1
 10
5.4689424199528247
 20
0.6679399999999873
 11
-2.6110575800471736
 21
0.6679399999999873
 72
               1
 10
-2.6110575800471736
 20
0.6679399999999873
 11
-2.6110575800471736
 21
8.7479399999999998
 97
        1
330
18B
 75
               0
 76
               1
 98
        1
 10
0.0
 20
0.0
  0
INSERT
  5
192
100
AcDbEntity
  8
None
390
0
 62
               7
100
AcDbBlockReference
  2
Group-2
 10
0.0
 20
0.0
 30
0.0
  0
ENDBLK
  5
193
100
AcDbEntity
  8
None
390
0
100
AcDbBlockEnd
  0
BLOCK
  5
194
100
AcDbEntity
  8
Dimension
390
0
100
AcDbBlockBegin
  2
Group-4
 70
               0
 10
0.0
 20
0.0
 30
0.0
  3
Group-4
  1

  0
LINE
  5
195
100
AcDbEntity
  8
None
370
               5
390
0
  6
Continuous
 62
               1
100
AcDbLine
 10
0.5539424199528185
 20
4.7079399999999794
 30
0.0
 11
1.8039424199528185
 21
4.7079399999999794
 31
0.0
  0
LINE
  5
196
100
AcDbEntity
  8
None
370
               5
390
0
  6
Continuous
 62
               1
100
AcDbLine
 10
1.1789424199528185
 20
4.0829399999999794
 30
0.0
 11
1.1789424199528185
 21
5.3329399999999794
 31
0.0
  0
LINE
  5
197
100
AcDbEntity
  8
None
370
               5
390
0
  6
Continuous
 62
               1
100
AcDbLine
 10
-7.1835575800471787
 20
4.7079399999999794
 30
0.0
 11
0.0539424199528185
 21
4.7079399999999794
 31
0.0
  0
LINE
  5
198
100
AcDbEntity
  8
None
370
               5
390
0
  6
Continuous
 62
               1
100
AcDbLine
 10
2.3039424199528185
 20
4.7079399999999794
 30
0.0
 11
9.5414424199528156
 21
4.7079399999999794
 31
0.0
  0
LINE
  5
199
100
AcDbEntity
  8
None
370
               5
390
0
  6
Continuous
 62
               1
100
AcDbLine
 10
1.1789424199528185
 20
13.070439999999991
 30
0.0
 11
1.1789424199528185
 21
5.8329399999999794
 31
0.0
  0
LINE
  5
19A
100
AcDbEntity
  8
None
370
               5
390
0
  6
Continuous
 62
               1
100
AcDbLine
 10
1.1789424199528185
 20
3.5829399999999794
 30
0.0
 11
1.1789424199528185
 21
-3.6545600000000036
 31
0.0
  0
ENDBLK
  5
19B
100
AcDbEntity
  8
Dimension
390
0
100
AcDbBlockEnd
  0
ENDSEC
  0
SECTION
  2
ENTITIES
  0
WIPEOUT
  5
19C
100
AcDbEntity
  8
None
370
               9
390
0
  6
STYLE_11
 62
               7
 92
        0
100
AcDbWipeout
 90
        0
 10
-6.4335575800471787
 20
-2.9045600000000036
 30
0.0
 11
15.224999999999994
 21
0.0
 31
0.0
 12
0.0
 22
15.224999999999994
 32
0.0
 13
1.0
 23
1.0
340
0
 70
               7
280
               1
281
              50
282
              50
283
               0
360
0
 71
               2
 91
        5
 14
-0.5
 24
-0.5
 14
0.5
 24
-0.5
 14
0.5
 24
0.5
 14
-0.5
 24
0.5
 14
-0.5
 24
-0.5
  0
POLYLINE
  5
19D
100
AcDbEntity
  8
None
370
               9
390
0
  6
STYLE_11
 62
               7
100
AcDb2dPolyline
 66
               1
 10
0.0
 20
0.0
 30
0.0
 70
               1
 75
               5
  0
VERTEX
  5
19E
100
AcDbEntity
  8
None
370
               9
390
0
  6
STYLE_11
 62
               7
100
AcDbVertex
100
AcDb2dVertex
 10
-6.4335575800471787
 20
12.320439999999991
 30
0.0
  0
VERTEX
  5
19F
100
AcDbEntity
  8
None
370
               9
390
0
  6
STYLE_11
 62
               7
100
AcDbVertex
100
AcDb2dVertex
 10
8.7914424199528156
 20
12.320439999999991
 30
0.0
  0
VERTEX
  5
1A0
100
AcDbEntity
  8
None
370
               9
390
0
  6
STYLE_11
 62
               7
100
AcDbVertex
100
AcDb2dVertex
 10
8.7914424199528156
 20
-2.9045600000000036
 30
0.0
  0
VERTEX
  5
1A1
100
AcDbEntity
  8
None
370
               9
390
0
  6
STYLE_11
 62
               7
100
AcDbVertex
100
AcDb2dVertex
 10
-6.4335575800471787
 20
-2.9045600000000036
 30
0.0
  0
SEQEND
  5
1A2
100
AcDbEntity
  8
None
370
               9
390
0
  6
STYLE_11
 62
               7
  0
CIRCLE
  5
1A3
100
AcDbEntity
  8
None
370
               9
390
0
  6
Continuous
 62
               7
100
AcDbCircle
 10
-5.1835575800471787
 20
11.070439999999991
 30
0.0
 40
0.8050000000000068
  0
CIRCLE
  5
1A4
100
AcDbEntity
  8
None
370
               9
390
0
  6
Continuous
 62
               7
100
AcDbCircle
 10
7.5414424199528156
 20
8.5304399999999987
 30
0.0
 40
0.424999999999983
  0
CIRCLE
  5
1A5
100
AcDbEntity
  8
None
370
               9
390
0
  6
Continuous
 62
               7
100
AcDbCircle
 10
7.5414424199528156
 20
11.070439999999991
 30
0.0
 40
0.8049999999999926
  0
CIRCLE
  5
1A6
100
AcDbEntity
  8
None
370
               9
390
0
  6
Continuous
 62
               7
100
AcDbCircle
 10
7.5414424199528156
 20
-1.6545600000000036
 30
0.0
 40
0.8049999999999926
  0
CIRCLE
  5
1A7
100
AcDbEntity
  8
None
370
               9
390
0
  6
Continuous
 62
               7
100
AcDbCircle
 10
-5.1835575800471787
 20
3.4254399999999805
 30
0.0
 40
0.424999999999983
  0
CIRCLE
  5
1A8
100
AcDbEntity
  8
None
370
               9
390
0
  6
Continuous
 62
               7
100
AcDbCircle
 10
-5.1835575800471787
 20
-1.6545600000000036
 30
0.0
 40
0.8050000000000068
  0
CIRCLE
  5
1A9
102
{ACAD_REACTORS
330
1AA
102
}
100
AcDbEntity
  8
None
370
               5
390
0
  6
Continuous
 62
               7
100
AcDbCircle
 10
-3.0585575800471787
 20
10.645439999999979
 30
0.0
 40
0.2124400000000151
  0
HATCH
  5
1AA
100
AcDbEntity
  8
None
370
               0
390
0
  6
Continuous
 62
               7
100
AcDbHatch
 10
0.0
 20
0.0
 30
0.0
210
0.0
220
0.0
230
1.0
  2
SOLID
 70
               1
 71
               1
 91
        1
 92
        1
 93
        1
 72
               2
 10
-3.0585575800471787
 20
10.645439999999979
 40
0.2124400000000151
 50
0.0
 51
360.0
 73
               0
 97
        1
330
1A9
 75
               0
 76
               1
 98
        1
 10
0.0
 20
0.0
  0
DIMENSION
  5
1AB
100
AcDbEntity
  8
Dimension
370
               5
390
0
  6
Continuous
 62
               1
100
AcDbDimension
  2
*D3
 10
-27.941057580047175
 20
12.320439999999991
 30
0.0
 11
-27.941057580047175
 21
4.8155018743896418
 31
0.0
 70
             128
 71
               5
 72
               1
 41
1.0
 42
0.0
  3
IE Standard
100
AcDbAlignedDimension
 13
-6.4335575800471787
 23
-2.9045600000000036
 33
0.0
 14
-6.4335575800471787
 24
12.320439999999991
 34
0.0
 50
90.0
100
AcDbRotatedDimension
1001
ACAD
1000
DSTYLE
1002
{
1070
             271
1070
               3
1070
             340
1005
39
1070
              71
1070
               1
1070
              47
1040
0.125
1070
              48
1040
0.125
1070
               3
1000
<>mm sqr.
1070
             147
1040
0.09921875
1002
}
  0
WIPEOUT
  5
1AC
100
AcDbEntity
  8
None
370
               5
390
0
  6
Continuous
 62
               1
 92
        0
100
AcDbWipeout
 90
        0
 10
-30.669437580047173
 20
3.056170499999979
 30
0.0
 11
5.4186498002462429
 21
0.0
 31
0.0
 12
0.0
 22
5.4186498002462429
 32
0.0
 13
1.0
 23
1.0
340
0
 70
               7
280
               1
281
              50
282
              50
283
               0
360
0
 71
               2
 91
        5
 14
-0.5
 24
0.499999999999998
 14
0.4999999999999993
 24
0.499999999999998
 14
0.4999999999999993
 24
0.275390633300439
 14
-0.5
 24
0.275390633300439
 14
-0.5
 24
0.499999999999998
  0
MTEXT
  5
1AD
100
AcDbEntity
  8
None
390
0
 62
               1
100
AcDbMText
 10
-30.669437580047173
 20
4.078671619791657
 30
0.0
 40
0.7579186197916666
 41
0.0
 71
               1
 72
               1
  1
{\C192;\lSocket size}
  7
New Century Schlbk
 73
               1
 44
0.9673603504928806
  0
WIPEOUT
  5
1AE
100
AcDbEntity
  8
None
370
               5
390
0
  6
Continuous
 62
               1
 92
        0
100
AcDbWipeout
 90
        0
 10
-24.236667580047175
 20
20.782920499999989
 30
0.0
 11
7.8422253988126798
 21
0.0
 31
0.0
 12
0.0
 22
7.8422253988126798
 32
0.0
 13
1.0
 23
1.0
340
0
 70
               7
280
               1
281
              50
282
              50
283
               0
360
0
 71
               2
 91
        5
 14
-0.5
 24
0.4999999999999987
 14
0.4999999999999996
 24
0.4999999999999987
 14
0.4999999999999996
 24
0.3448043204440058
 14
-0.5
 24
0.3448043204440058
 14
-0.5
 24
0.4999999999999987
  0
MTEXT
  5
1AF
100
AcDbEntity
  8
None
390
0
 62
               1
100
AcDbMText
 10
-24.236667580047175
 20
21.805421619791666
 30
0.0
 40
0.7579186197916666
 41
0.0
 71
               1
 72
               1
  1
{\C192;\lOrientation Mark}
  7
New Century Schlbk
 73
               1
 44
0.9673603504928806
  0
WIPEOUT
  5
1B0
100
AcDbEntity
  8
None
370
               5
390
0
  6
Continuous
 62
               1
 92
        0
100
AcDbWipeout
 90
        0
 10
14.992322419952828
 20
-6.2374095000000125
 30
0.0
 11
12.117878889991573
 21
0.0
 31
0.0
 12
0.0
 22
12.117878889991573
 32
0.0
 13
1.0
 23
1.0
340
0
 70
               7
280
               1
281
              50
282
              50
283
               0
360
0
 71
               2
 91
        5
 14
-0.5
 24
0.4999999999999991
 14
0.4999999999999997
 24
0.4999999999999991
 14
0.4999999999999997
 24
0.3995633220096609
 14
-0.5
 24
0.3995633220096609
 14
-0.5
 24
0.4999999999999991
  0
MTEXT
  5
1B1
100
AcDbEntity
  8
None
390
0
 62
               1
100
AcDbMText
 10
14.992322419952828
 20
-5.2149083802083345
 30
0.0
 40
0.7579186197916666
 41
0.0
 71
               1
 72
               1
  1
{\C192;\lNon plated mounting hole}
  7
Arial
 73
               1
 44
0.9673603504928806
  0
WIPEOUT
  5
1B2
100
AcDbEntity
  8
None
370
               5
390
0
  6
Continuous
 62
               1
 92
        0
100
AcDbWipeout
 90
        0
 10
13.428372419952822
 20
2.3107804999999928
 30
0.0
 11
12.350711488082325
 21
0.0
 31
0.0
 12
0.0
 22
12.350711488082325
 32
0.0
 13
1.0
 23
1.0
340
0
 70
               7
280
               1
281
              50
282
              50
283
               0
360
0
 71
               2
 91
        5
 14
-0.5
 24
0.4999999999999991
 14
0.4999999999999994
 24
0.4999999999999991
 14
0.4999999999999994
 24
0.4014567297459407
 14
-0.5
 24
0.4014567297459407
 14
-0.5
 24
0.4999999999999991
  0
MTEXT
  5
1B3
100
AcDbEntity
  8
None
390
0
 62
               1
100
AcDbMText
 10
13.428372419952822
 20
3.3332816197916708
 30
0.0
 40
0.7579186197916666
 41
0.0
 71
               1
 72
               1
  1
{\C192;\lNon plated alignment hole}
  7
Arial
 73
               1
 44
0.9673603504928806
  0
DIMENSION
  5
1B4
100
AcDbEntity
  8
Dimension
370
               5
390
0
  6
Continuous
 62
               1
100
AcDbDimension
  2
*D4
 10
-5.1835575800471787
 20
18.503979999999991
 30
0.0
 11
0.0119524199528183
 21
18.503979999999991
 31
0.0
 70
             128
 71
               5
 72
               1
 41
1.0
 42
0.0
  3
IE Standard
100
AcDbAlignedDimension
 13
-2.4610575800471821
 23
9.8879399999999862
 33
0.0
 14
-5.1835575800471787
 24
11.070439999999991
 34
0.0
100
AcDbRotatedDimension
1001
ACAD
1000
DSTYLE
1002
{
1070
             271
1070
               2
1070
             340
1005
39
1070
               3
1000
<>mm*
1070
             174
1070
               0
1070
             147
1040
0.09921875
1002
}
  0
DIMENSION
  5
1B5
100
AcDbEntity
  8
Dimension
370
               5
390
0
  6
Continuous
 62
               1
100
AcDbDimension
  2
*D5
 10
-8.6728575800471823
 20
9.8879399999999862
 30
0.0
 11
-8.6728575800471823
 21
10.479208043518055
 31
0.0
 70
             128
 71
               5
 72
               1
 41
1.0
 42
0.0
  3
IE Standard
100
AcDbAlignedDimension
 13
-5.1835575800471787
 23
11.070439999999991
 33
0.0
 14
-2.4610575800471821
 24
9.8879399999999862
 34
0.0
 50
90.0
100
AcDbRotatedDimension
1001
ACAD
1000
DSTYLE
1002
{
1070
             271
1070
               2
1070
             340
1005
39
1070
             147
1040
0.09921875
1002
}
  0
DIMENSION
  5
1B6
100
AcDbEntity
  8
Dimension
370
               5
390
0
  6
Continuous
 62
               1
100
AcDbDimension
  2
*D6
 10
-9.6097175800471781
 20
-1.6545600000000036
 30
0.0
 11
-9.6097175800471781
 21
1.8454589208984231
 31
0.0
 70
             128
 71
               5
 72
               1
 41
1.0
 42
0.0
  3
IE Standard
100
AcDbAlignedDimension
 13
-5.1835575800471787
 23
3.4254399999999805
 33
0.0
 14
-5.1835575800471787
 24
-1.6545600000000036
 34
0.0
 50
90.0
100
AcDbRotatedDimension
1001
ACAD
1000
DSTYLE
1002
{
1070
             271
1070
               2
1070
             340
1005
39
1070
             147
1040
0.09921875
1002
}
  0
DIMENSION
  5
1B7
100
AcDbEntity
  8
Dimension
370
               5
390
0
  6
Continuous
 62
               1
100
AcDbDimension
  2
*D7
 10
12.738332419952815
 20
8.5304399999999987
 30
0.0
 11
12.738332419952815
 21
9.8004399999999947
 31
0.0
 70
             128
 71
               5
 72
               1
 41
1.0
 42
0.0
  3
IE Standard
100
AcDbAlignedDimension
 13
7.5414424199528156
 23
11.070439999999991
 33
0.0
 14
7.5414424199528156
 24
8.5304399999999987
 34
0.0
 50
90.0
100
AcDbRotatedDimension
1001
ACAD
1000
DSTYLE
1002
{
1070
             271
1070
               2
1070
             340
1005
39
1070
             147
1040
0.09921875
1002
}
  0
DIMENSION
  5
1B8
100
AcDbEntity
  8
Dimension
370
               5
390
0
  6
Continuous
 62
               1
100
AcDbDimension
  2
*D8
 10
-5.1835575800471787
 20
-12.384560000000002
 30
0.0
 11
1.1589431065983264
 21
-12.384560000000002
 31
0.0
 70
             128
 71
               5
 72
               1
 41
1.0
 42
0.0
  3
IE Standard
100
AcDbAlignedDimension
 13
7.5414424199528156
 23
-1.6545600000000036
 33
0.0
 14
-5.1835575800471787
 24
-1.6545600000000036
 34
0.0
100
AcDbRotatedDimension
1001
ACAD
1000
DSTYLE
1002
{
1070
             271
1070
               3
1070
             340
1005
39
1070
              71
1070
               1
1070
              47
1040
0.125
1070
              48
1040
0.125
1070
               3
1000
<>mm (x4)
1070
             147
1040
0.09921875
1002
}
  0
DIMENSION
  5
1B9
100
AcDbEntity
  8
Dimension
370
               5
390
0
  6
Continuous
 62
               1
100
AcDbDimension
  2
*D9
 10
5.6689424199528275
 20
2.5979399999999941
 30
0.0
 11
13.924404582220125
 21
0.5856737820419138
 31
0.0
 70
               3
 71
               5
 72
               1
 41
1.0
 42
0.0
  1
0.94 x 0.28 mm 
  3
IE Standard
100
AcDbDiametricDimension
 15
6.6089424199528253
 25
2.317939999999993
 35
0.0
 40
6.0679799999999995
1001
ACAD
1000
DSTYLE
1002
{
1070
             271
1070
               4
1070
             172
1070
               0
1070
             289
1070
               0
1070
             342
1005
4E
1070
             340
1005
39
1070
              75
1070
               1
1070
              76
1070
               1
1070
             174
1070
               0
1070
             147
1040
0.09921875
1002
}
  0
DIMENSION
  5
1BA
100
AcDbEntity
  8
Dimension
370
               5
390
0
  6
Continuous
 62
               1
100
AcDbDimension
  2
*D10
 10
-3.7510575800471742
 20
-8.7845600000000061
 30
0.0
 11
1.6336573857731382
 21
-8.7845600000000061
 31
0.0
 70
             128
 71
               5
 72
               1
 41
1.0
 42
0.0
  3
IE Standard
100
AcDbAlignedDimension
 13
6.6089424199528253
 23
0.817939999999993
 33
0.0
 14
-3.7510575800471742
 24
0.817939999999993
 34
0.0
100
AcDbRotatedDimension
1001
ACAD
1000
DSTYLE
1002
{
1070
             271
1070
               2
1070
             340
1005
39
1070
             147
1040
0.09921875
1002
}
  0
DIMENSION
  5
1BB
100
AcDbEntity
  8
Dimension
370
               5
390
0
  6
Continuous
 62
               1
100
AcDbDimension
  2
*D11
 10
-18.141057580047182
 20
9.8879399999999862
 30
0.0
 11
-18.141057580047182
 21
4.218204892578119
 31
0.0
 70
             128
 71
               5
 72
               1
 41
1.0
 42
0.0
  3
IE Standard
100
AcDbAlignedDimension
 13
-2.4610575800471821
 23
-0.472059999999999
 33
0.0
 14
-2.4610575800471821
 24
9.8879399999999862
 34
0.0
 50
90.0
100
AcDbRotatedDimension
1001
ACAD
1000
DSTYLE
1002
{
1070
             271
1070
               2
1070
             340
1005
39
1070
             147
1040
0.09921875
1002
}
  0
DIMENSION
  5
1BC
100
AcDbEntity
  8
Dimension
370
               5
390
0
  6
Continuous
 62
               1
100
AcDbDimension
  2
*D12
 10
-12.691057580047181
 20
8.5979399999999941
 30
0.0
 11
-12.691057580047181
 21
4.555630734863275
 31
0.0
 70
             128
 71
               5
 72
               1
 41
1.0
 42
0.0
  3
IE Standard
100
AcDbAlignedDimension
 13
-3.7510575800471742
 23
0.817939999999993
 33
0.0
 14
-3.5710575800471815
 24
8.5979399999999941
 34
0.0
 50
90.0
100
AcDbRotatedDimension
1001
ACAD
1000
DSTYLE
1002
{
1070
             271
1070
               2
1070
             340
1005
39
1070
             147
1040
0.09921875
1002
}
  0
DIMENSION
  5
1BD
100
AcDbEntity
  8
Dimension
370
               5
390
0
  6
Continuous
 62
               1
100
AcDbDimension
  2
*D13
 10
-2.4610575800471821
 20
-5.9923999999999982
 30
0.0
 11
1.3976020879215683
 21
-5.9923999999999982
 31
0.0
 70
             128
 71
               5
 72
               1
 41
1.0
 42
0.0
  3
IE Standard
100
AcDbAlignedDimension
 13
5.318942419952819
 23
-0.472059999999999
 33
0.0
 14
-2.4610575800471821
 24
-0.472059999999999
 34
0.0
100
AcDbRotatedDimension
1001
ACAD
1000
DSTYLE
1002
{
1070
             271
1070
               2
1070
             340
1005
39
1070
             147
1040
0.09921875
1002
}
  0
DIMENSION
  5
1BE
100
AcDbEntity
  8
Dimension
370
               5
390
0
  6
Continuous
 62
               1
100
AcDbDimension
  2
*D14
 10
-5.1835575800471787
 20
20.865439999999992
 30
0.0
 11
-3.191057580047179
 21
20.865439999999992
 31
0.0
 70
             128
 71
               5
 72
               1
 41
1.0
 42
0.0
  3
IE Standard
100
AcDbAlignedDimension
 13
-6.4335575800471787
 23
12.320439999999991
 33
0.0
 14
-5.1835575800471787
 24
11.070439999999991
 34
0.0
100
AcDbRotatedDimension
1001
ACAD
1000
DSTYLE
1002
{
1070
             271
1070
               3
1070
             340
1005
39
1070
              71
1070
               1
1070
              47
1040
0.125
1070
              48
1040
0.125
1070
               3
1000
<>mm (x4)
1070
             174
1070
               0
1070
             147
1040
0.09921875
1002
}
  0
DIMENSION
  5
1BF
100
AcDbEntity
  8
Dimension
370
               5
390
0
  6
Continuous
 62
               1
100
AcDbDimension
  2
*D15
 10
-16.79105758004718
 20
12.320439999999991
 30
0.0
 11
-16.79105758004718
 21
15.115439999999991
 31
0.0
 70
             128
 71
               5
 72
               1
 41
1.0
 42
0.0
  3
IE Standard
100
AcDbAlignedDimension
 13
-5.1835575800471787
 23
11.070439999999991
 33
0.0
 14
-6.4335575800471787
 24
12.320439999999991
 34
0.0
 50
90.0
100
AcDbRotatedDimension
1001
ACAD
1000
DSTYLE
1002
{
1070
             271
1070
               3
1070
             340
1005
39
1070
              71
1070
               1
1070
              47
1040
0.125
1070
              48
1040
0.125
1070
               3
1000
<>mm (x4)
1070
             174
1070
               0
1070
             147
1040
0.09921875
1002
}
  0
LINE
  5
1C0
100
AcDbEntity
  8
None
370
               5
390
0
  6
Continuous
 62
               1
100
AcDbLine
 10
-16.394447580047171
 20
21.391459999999995
 30
0.0
 11
-13.891057580047175
 21
21.391459999999995
 31
0.0
  0
LINE
  5
1C1
100
AcDbEntity
  8
None
370
               5
390
0
  6
Continuous
 62
               1
100
AcDbLine
 10
-13.891057580047175
 20
21.391459999999995
 30
0.0
 11
-3.0585575800471787
 21
10.857879999999994
 31
0.0
  0
SOLID
  5
1C2
100
AcDbEntity
  8
None
370
               5
390
0
 62
               1
100
AcDbTrace
 10
-3.0585575800471787
 20
10.857879999999994
 30
0.0
 11
-3.5141152167340817
 21
11.120896324172568
 31
0.0
 12
-3.3215739042197518
 22
11.313437636686897
 32
0.0
 13
-3.3215739042197518
 23
11.313437636686897
 33
0.0
  0
DIMENSION
  5
1C3
100
AcDbEntity
  8
Dimension
370
               5
390
0
  6
Continuous
 62
               1
100
AcDbDimension
  2
*D16
 10
6.7827824199528237
 20
-1.3853699999999947
 30
0.0
 11
15.575532615265461
 21
-3.973006401172344
 31
0.0
 70
               3
 71
               5
 72
               1
 41
1.0
 42
0.0
  3
IE Standard
100
AcDbDiametricDimension
 15
8.3001024199528217
 25
-1.9237500000000125
 35
0.0
 40
6.1282199999999998
1001
ACAD
1000
DSTYLE
1002
{
1070
             271
1070
               3
1070
             172
1070
               0
1070
             289
1070
               0
1070
             342
1005
4E
1070
             340
1005
39
1070
              75
1070
               1
1070
              76
1070
               1
1070
              71
1070
               1
1070
              47
1040
0.05
1070
              48
1040
0.05
1070
               3
1000
mm (x4)
1070
             174
1070
               0
1070
             147
1040
0.09921875
1002
}
  0
DIMENSION
  5
1C4
100
AcDbEntity
  8
Dimension
370
               5
390
0
  6
Continuous
 62
               1
100
AcDbDimension
  2
*D17
 10
7.2051224199528292
 20
8.7902699999999925
 30
0.0
 11
14.108948448793255
 21
4.6154457372464615
 31
0.0
 70
               3
 71
               5
 72
               1
 41
1.0
 42
0.0
  3
IE Standard
100
AcDbDiametricDimension
 15
7.8777624199528162
 25
8.2706100000000049
 35
0.0
 40
5.9786599999999996
1001
ACAD
1000
DSTYLE
1002
{
1070
             271
1070
               3
1070
             172
1070
               0
1070
             289
1070
               0
1070
             342
1005
4E
1070
             340
1005
39
1070
              75
1070
               1
1070
              76
1070
               1
1070
              71
1070
               1
1070
              47
1040
0.025
1070
              48
1040
0.025
1070
               3
1000
mm (x2)
1070
             174
1070
               0
1070
             147
1040
0.09921875
1002
}
  0
WIPEOUT
  5
1C5
100
AcDbEntity
  8
None
370
               5
390
0
  6
Continuous
 62
               1
 92
        0
100
AcDbWipeout
 90
        0
 10
22.858942419952825
 20
0.0483604999999727
 30
0.0
 11
4.7730682608602564
 21
0.0
 31
0.0
 12
0.0
 22
4.7730682608602564
 32
0.0
 13
1.0
 23
1.0
340
0
 70
               7
280
               1
281
              50
282
              50
283
               0
360
0
 71
               2
 91
        5
 14
-0.5
 24
0.4999999999999977
 14
0.4999999999999992
 24
0.4999999999999977
 14
0.4999999999999992
 24
0.2450110843835585
 14
-0.5
 24
0.2450110843835585
 14
-0.5
 24
0.4999999999999977
  0
MTEXT
  5
1C6
100
AcDbEntity
  8
None
390
0
 62
               1
100
AcDbMText
 10
22.858942419952825
 20
1.0708616197916505
 30
0.0
 40
0.7579186197916666
 41
0.0
 71
               1
 72
               1
  1
{\C192;\lpad (x 64)}
  7
Arial
 73
               1
 44
0.9673603504928806
  0
WIPEOUT
  5
1C7
100
AcDbEntity
  8
None
370
               5
390
0
  6
Continuous
 62
               7
 92
        0
100
AcDbWipeout
 90
        0
 10
-0.7832075800471756
 20
-16.104557999999997
 30
0.0
 11
4.4567370387441656
 21
0.0
 31
0.0
 12
0.0
 22
4.4567370387441656
 32
0.0
 13
1.0
 23
1.0
340
0
 70
               7
280
               1
281
              50
282
              50
283
               0
360
0
 71
               2
 91
        5
 14
-0.5
 24
0.5000000000000016
 14
0.4999999999999996
 24
0.5000000000000016
 14
0.4999999999999996
 24
0.1965699370988575
 14
-0.5
 24
0.1965699370988575
 14
-0.5
 24
0.5000000000000016
  0
MTEXT
  5
1C8
100
AcDbEntity
  8
None
390
0
 62
               7
100
AcDbMText
 10
-0.7832075800471756
 20
-14.968447791666671
 30
0.0
 40
0.8421302083333332
 41
0.0
 71
               1
 72
               1
  1
MLF64B
  7
Arial
 73
               1
 44
0.9673603504928806
  0
LINE
  5
1C9
100
AcDbEntity
  8
None
370
               9
390
0
  6
Continuous
 62
               1
100
AcDbLine
 10
16.740922419952824
 20
16.223939999999999
 30
0.0
 11
10.786342419952817
 21
16.223939999999999
 31
0.0
  0
WIPEOUT
  5
1CA
100
AcDbEntity
  8
None
370
               9
390
0
  6
Continuous
 62
               1
 92
        0
100
AcDbWipeout
 90
        0
 10
15.990922419952824
 20
15.634630499999986
 30
0.0
 11
17.674111670669561
 21
0.0
 31
0.0
 12
0.0
 22
17.674111670669561
 32
0.0
 13
1.0
 23
1.0
340
0
 70
               7
280
               1
281
              50
282
              50
283
               0
360
0
 71
               2
 91
        5
 14
-0.5
 24
0.4999999999999994
 14
0.5
 24
0.4999999999999994
 14
0.5
 24
0.4311377271639756
 14
-0.5
 24
0.4311377271639756
 14
-0.5
 24
0.4999999999999994
  0
MTEXT
  5
1CB
100
AcDbEntity
  8
None
390
0
 62
               1
100
AcDbMText
 10
15.990922419952824
 20
16.657131619791663
 30
0.0
 40
0.7579186197916666
 41
0.0
 71
               1
 72
               1
  1
{\C192;\l8.08mm x 8.08mm thermal /GND pad}
  7
Arial
 73
               1
 44
0.9673603504928806
  0
DIMENSION
  5
1CC
100
AcDbEntity
  8
Dimension
370
               5
390
0
  6
Continuous
 62
               1
100
AcDbDimension
  2
*D18
 10
3.1789424199528185
 20
14.174499999999979
 30
0.0
 11
6.1079224199528177
 21
14.174499999999979
 31
0.0
 70
             128
 71
               5
 72
               1
 41
1.0
 42
0.0
  3
IE Standard
100
AcDbAlignedDimension
 13
3.6789424199528185
 23
9.7079399999999794
 33
0.0
 14
3.1789424199528185
 24
9.7079399999999794
 34
0.0
100
AcDbRotatedDimension
1001
ACAD
1000
DSTYLE
1002
{
1070
             271
1070
               2
1070
             340
1005
39
1070
               3
1000
<>mm typ.
1070
             174
1070
               0
1070
             147
1040
0.09921875
1002
}
  0
INSERT
  5
1CD
100
AcDbEntity
  8
None
390
0
 62
               7
100
AcDbBlockReference
  2
Group-3
 10
0.0
 20
0.0
 30
0.0
  0
LINE
  5
1CE
100
AcDbEntity
  8
None
370
               9
390
0
  6
Continuous
 62
               1
100
AcDbLine
 10
10.786342419952817
 20
16.223939999999999
 30
0.0
 11
4.1001724199528269
 21
7.4127699999999948
 31
0.0
  0
SOLID
  5
1CF
100
AcDbEntity
  8
None
370
               9
390
0
 62
               1
100
AcDbTrace
 10
4.1001724199528269
 20
7.4127699999999948
 30
0.0
 11
4.4212559077293987
 21
8.1691952943053732
 31
0.0
 12
4.7564515242557377
 22
7.9073117770452868
 32
0.0
 13
4.7564515242557377
 23
7.9073117770452868
 33
0.0
  0
INSERT
  5
1D0
100
AcDbEntity
  8
Dimension
390
0
 62
               7
100
AcDbBlockReference
  2
Group-4
 10
0.0
 20
0.0
 30
0.0
  0
ENDSEC
  0
SECTION
  2
OBJECTS
  0
DICTIONARY
  5
19
100
AcDbDictionary
280
               0
281
               1
  3
ACAD_GROUP
350
1A
  3
ACAD_MLINESTYLE
350
1B
  3
ACAD_LAYOUT
350
1E
  3
ACAD_PLOTSETTINGS
350
22
  3
ACAD_PLOTSTYLENAME
350
1F
  3
ACAD_WIPEOUT_VARS
350
23
  0
DICTIONARY
  5
1A
102
{ACAD_REACTORS
330
19
102
}
100
AcDbDictionary
280
               0
281
               1
  0
DICTIONARY
  5
1B
102
{ACAD_REACTORS
330
19
102
}
100
AcDbDictionary
280
               0
281
               1
  3
Standard
350
1C
  0
MLINESTYLE
  5
1C
102
{ACAD_REACTORS
330
1B
102
}
100
AcDbMlineStyle
  2
Standard
 70
               0
  3

 62
               0
 51
90.0
 52
90.0
 71
               2
 49
0.5
 62
             256
  6
ByLayer
 49
-0.5
 62
             256
  6
ByLayer
  0
ACDBDICTIONARYWDFLT
  5
1F
102
{ACAD_REACTORS
330
19
102
}
100
AcDbDictionary
281
               1
  3
Normal
350
1D
100
AcDbDictionaryWithDefault
340
1D
  0
ACDBPLACEHOLDER
  5
1D
102
{ACAD_REACTORS
330
1F
102
}
  0
LAYOUT
  5
20
102
{ACAD_REACTORS
330
1E
102
}
100
AcDbPlotSettings
  1

  2

  4

  6

 40
0.0
 41
0.0
 42
0.0
 43
0.0
 44
0.0
 45
0.0
 46
0.0
 47
0.0
 48
0.0
 49
0.0
140
0.0
141
0.0
142
1.0
143
1.0
 70
            1024
 72
               0
 73
               0
 74
               0
  7

 75
               0
147
1.0
148
0.0
149
0.0
100
AcDbLayout
  1
Model
 70
               0
 71
               0
 10
0.0
 20
0.0
 11
0.0
 21
0.0
 12
0.0
 22
0.0
 32
0.0
 14
0.0
 24
0.0
 34
0.0
 15
0.0
 25
0.0
 35
0.0
146
0.0
 13
0.0
 23
0.0
 33
0.0
 16
0.0
 26
0.0
 36
0.0
 17
0.0
 27
0.0
 37
0.0
 76
               0
330
A
331
0
345
0
346
0
  0
LAYOUT
  5
21
102
{ACAD_REACTORS
330
1E
102
}
100
AcDbPlotSettings
  1

  2

  4

  6

 40
0.0
 41
0.0
 42
0.0
 43
0.0
 44
0.0
 45
0.0
 46
0.0
 47
0.0
 48
0.0
 49
0.0
140
0.0
141
0.0
142
1.0
143
1.0
 70
               0
 72
               0
 73
               0
 74
               0
  7

 75
               0
147
1.0
148
0.0
149
0.0
100
AcDbLayout
  1
Layout1
 70
               0
 71
               0
 10
0.0
 20
0.0
 11
0.0
 21
0.0
 12
0.0
 22
0.0
 32
0.0
 14
0.0
 24
0.0
 34
0.0
 15
0.0
 25
0.0
 35
0.0
146
0.0
 13
0.0
 23
0.0
 33
0.0
 16
0.0
 26
0.0
 36
0.0
 17
0.0
 27
0.0
 37
0.0
 76
               0
330
B
331
0
345
0
346
0
  0
DICTIONARY
  5
1E
102
{ACAD_REACTORS
330
19
102
}
100
AcDbDictionary
280
               0
281
               1
  3
Layout1
350
21
  3
Model
350
20
  0
DICTIONARY
  5
22
102
{ACAD_REACTORS
330
19
102
}
100
AcDbDictionary
280
               0
281
               1
  0
WIPEOUTVARIABLES
  5
23
100
AcDbWipeoutVariables
 70
               0
  0
ENDSEC
  0
EOF
