  0
SECTION
  2
HEADER
  9
$ACADVER
  1
AC1015
  9
$ACADMAINTVER
 70
               6
  9
$DWGCODEPAGE
  3
ANSI_1252
  9
$INSBASE
 10
0.0
 20
0.0
 30
0.0
  9
$EXTMIN
 10
-31.999999999999993
 20
-18.77999800946224
 30
-1.3969999999999998
  9
$EXTMAX
 10
36.228863372965918
 20
19.32455999053775
 30
1.3969999999999998
  9
$LIMMIN
 10
0.0
 20
0.0
  9
$LIMMAX
 10
0.0
 20
0.0
  9
$ORTHOMODE
 70
               0
  9
$REGENMODE
 70
               1
  9
$FILLMODE
 70
               1
  9
$QTEXTMODE
 70
               0
  9
$MIRRTEXT
 70
               1
  9
$LTSCALE
 40
1.27
  9
$ATTMODE
 70
               1
  9
$TEXTSIZE
 40
0.2
  9
$TRACEWID
 40
1.0
  9
$TEXTSTYLE
  7
Standard
  9
$CLAYER
  8
None
  9
$CELTYPE
  6
Continuous
  9
$CECOLOR
 62
             256
  9
$CELTSCALE
 40
1.0
  9
$DISPSILH
 70
               0
  9
$DIMSCALE
 40
1.0
  9
$DIMASZ
 40
0.5612060546875
  9
$DIMEXO
 40
0.396875
  9
$DIMDLI
 40
10.16
  9
$DIMRND
 40
0.0
  9
$DIMDLE
 40
1.5874999999999999
  9
$DIMEXE
 40
0.79375
  9
$DIMTP
 40
0.0
  9
$DIMTM
 40
0.0
  9
$DIMTXT
 40
0.7579186197916666
  9
$DIMCEN
 40
0.0
  9
$DIMTSZ
 40
0.0
  9
$DIMTOL
 70
               0
  9
$DIMLIM
 70
               0
  9
$DIMTIH
 70
               0
  9
$DIMTOH
 70
               0
  9
$DIMSE1
 70
               0
  9
$DIMSE2
 70
               0
  9
$DIMTAD
 70
               1
  9
$DIMZIN
 70
              11
  9
$DIMBLK
  1
VW_SLASH
  9
$DIMASO
 70
               1
  9
$DIMSHO
 70
               1
  9
$DIMPOST
  1
<>mm
  9
$DIMAPOST
  1
[]
  9
$DIMALT
 70
               0
  9
$DIMALTD
 70
               1
  9
$DIMALTF
 40
1.0
  9
$DIMLFAC
 40
1.0
  9
$DIMTOFL
 70
               1
  9
$DIMTVP
 40
0.0
  9
$DIMTIX
 70
               1
  9
$DIMSOXD
 70
               0
  9
$DIMSAH
 70
               0
  9
$DIMBLK1
  1

  9
$DIMBLK2
  1

  9
$DIMSTYLE
  2
Arch
  9
$DIMCLRD
 70
               0
  9
$DIMCLRE
 70
               0
  9
$DIMCLRT
 70
               0
  9
$DIMTFAC
 40
1.0
  9
$DIMGAP
 40
1.5874999999999999
  9
$DIMJUST
 70
               0
  9
$DIMSD1
 70
               0
  9
$DIMSD2
 70
               0
  9
$DIMTOLJ
 70
               1
  9
$DIMTZIN
 70
              11
  9
$DIMALTZ
 70
              11
  9
$DIMALTTZ
 70
              11
  9
$DIMUPT
 70
               0
  9
$DIMDEC
 70
               1
  9
$DIMTDEC
 70
               1
  9
$DIMALTU
 70
               2
  9
$DIMALTTD
 70
               2
  9
$DIMTXSTY
  7
Helvetica
  9
$DIMAUNIT
 70
               0
  9
$DIMADEC
 70
               2
  9
$DIMALTRND
 40
0.0
  9
$DIMAZIN
 70
               0
  9
$DIMDSEP
 70
              46
  9
$DIMATFIT
 70
               0
  9
$DIMFRAC
 70
               2
  9
$DIMLDRBLK
  1

  9
$DIMLUNIT
 70
               2
  9
$DIMLWD
 70
              -2
  9
$DIMLWE
 70
              -2
  9
$DIMTMOVE
 70
               0
  9
$LUNITS
 70
               2
  9
$LUPREC
 70
               4
  9
$SKETCHINC
 40
0.1
  9
$FILLETRAD
 40
0.0
  9
$AUNITS
 70
               0
  9
$AUPREC
 70
               0
  9
$MENU
  1
acad
  9
$ELEVATION
 40
0.0
  9
$PELEVATION
 40
0.0
  9
$THICKNESS
 40
0.0
  9
$LIMCHECK
 70
               0
  9
$CHAMFERA
 40
0.0
  9
$CHAMFERB
 40
0.0
  9
$CHAMFERC
 40
0.0
  9
$CHAMFERD
 40
0.0
  9
$SKPOLY
 70
               0
  9
$TDCREATE
 40
2454963.588703704
  9
$TDUCREATE
 40
0.000000000
  9
$TDUPDATE
 40
2454963.588703704
  9
$TDUUPDATE
 40
0.000000000
  9
$TDINDWG
 40
0.0000000000
  9
$TDUSRTIMER
 40
0.0000000000
  9
$USRTIMER
 70
               1
  9
$ANGBASE
 50
0.0
  9
$ANGDIR
 70
               0
  9
$PDMODE
 70
               1
  9
$PDSIZE
 40
-2.0
  9
$PLINEWID
 40
0.0
  9
$SPLFRAME
 70
               0
  9
$SPLINETYPE
 70
               6
  9
$SPLINESEGS
 70
               8
  9
$HANDSEED
  5
1C5
  9
$SURFTAB1
 70
               6
  9
$SURFTAB2
 70
               6
  9
$SURFTYPE
 70
               6
  9
$SURFU
 70
               6
  9
$SURFV
 70
               6
  9
$UCSBASE
  2

  9
$UCSNAME
  2

  9
$UCSORG
 10
0.0
 20
0.0
 30
0.0
  9
$UCSXDIR
 10
1.0
 20
0.0
 30
0.0
  9
$UCSYDIR
 10
0.0
 20
1.0
 30
0.0
  9
$UCSORTHOREF
  2

  9
$UCSORTHOVIEW
 70
               0
  9
$UCSORGTOP
 10
0.0
 20
0.0
 30
0.0
  9
$UCSORGBOTTOM
 10
0.0
 20
0.0
 30
0.0
  9
$UCSORGLEFT
 10
0.0
 20
0.0
 30
0.0
  9
$UCSORGRIGHT
 10
0.0
 20
0.0
 30
0.0
  9
$UCSORGFRONT
 10
0.0
 20
0.0
 30
0.0
  9
$UCSORGBACK
 10
0.0
 20
0.0
 30
0.0
  9
$PUCSBASE
  2

  9
$PUCSNAME
  2

  9
$PUCSORG
 10
0.0
 20
0.0
 30
0.0
  9
$PUCSXDIR
 10
1.0
 20
0.0
 30
0.0
  9
$PUCSYDIR
 10
0.0
 20
1.0
 30
0.0
  9
$PUCSORTHOREF
  2

  9
$PUCSORTHOVIEW
 70
               0
  9
$PUCSORGTOP
 10
0.0
 20
0.0
 30
0.0
  9
$PUCSORGBOTTOM
 10
0.0
 20
0.0
 30
0.0
  9
$PUCSORGLEFT
 10
0.0
 20
0.0
 30
0.0
  9
$PUCSORGRIGHT
 10
0.0
 20
0.0
 30
0.0
  9
$PUCSORGFRONT
 10
0.0
 20
0.0
 30
0.0
  9
$PUCSORGBACK
 10
0.0
 20
0.0
 30
0.0
  9
$USERI1
 70
               0
  9
$USERI2
 70
               0
  9
$USERI3
 70
               0
  9
$USERI4
 70
               0
  9
$USERI5
 70
               0
  9
$USERR1
 40
0.0
  9
$USERR2
 40
0.0
  9
$USERR3
 40
0.0
  9
$USERR4
 40
0.0
  9
$USERR5
 40
0.0
  9
$WORLDVIEW
 70
               1
  9
$SHADEDGE
 70
               3
  9
$SHADEDIF
 70
              70
  9
$TILEMODE
 70
               1
  9
$MAXACTVP
 70
              64
  9
$PINSBASE
 10
0.0
 20
0.0
 30
0.0
  9
$PLIMCHECK
 70
               0
  9
$PEXTMIN
 10
1.0000000000000000E+20
 20
1.0000000000000000E+20
 30
1.0000000000000000E+20
  9
$PEXTMAX
 10
-1.0000000000000000E+20
 20
-1.0000000000000000E+20
 30
-1.0000000000000000E+20
  9
$PLIMMIN
 10
0.0
 20
0.0
  9
$PLIMMAX
 10
12.0
 20
9.0
  9
$UNITMODE
 70
               0
  9
$VISRETAIN
 70
               0
  9
$PLINEGEN
 70
               1
  9
$PSLTSCALE
 70
               0
  9
$TREEDEPTH
 70
            3020
  9
$CMLSTYLE
  2
Standard
  9
$CMLJUST
 70
               0
  9
$CMLSCALE
 40
1.0
  9
$PROXYGRAPHICS
 70
               0
  9
$MEASUREMENT
 70
               1
  9
$CELWEIGHT
370
               0
  9
$ENDCAPS
280
               0
  9
$JOINSTYLE
280
               0
  9
$LWDISPLAY
290
               1
  9
$INSUNITS
 70
               4
  9
$HYPERLINKBASE
  1

  9
$STYLESHEET
  1

  9
$XEDIT
290
               1
  9
$CEPSNTYPE
380
               0
  9
$PSTYLEMODE
290
               1
  9
$FINGERPRINTGUID
  2

  9
$VERSIONGUID
  2

  9
$EXTNAMES
290
               1
  9
$PSVPSCALE
 40
0.0
  0
ENDSEC
  0
SECTION
  2
CLASSES
  0
CLASS
  1
LWPOLYLINE
  2
AcDbPolyline
  3
AutoCAD 2000
 90
        0
280
               0
281
               1
  0
CLASS
  1
IMAGE
  2
AcDbRasterImage
  3
ISM
 90
      127
280
               0
281
               1
  0
CLASS
  1
OLE2FRAME
  2
AcDbOle2Frame
  3
AutoCAD 2000
 90
        0
280
               0
281
               1
  0
CLASS
  1
HATCH
  2
AcDbHatch
  3
AutoCAD 2000
 90
        0
280
               0
281
               1
  0
CLASS
  1
DICTIONARYVAR
  2
AcDbDictionaryVar
  3
AutoCAD 2000
 90
        0
280
               0
281
               0
  0
CLASS
  1
RASTERVARIABLES
  2
AcDbRasterVariables
  3
ISM
 90
        0
280
               0
281
               0
  0
CLASS
  1
IMAGEDEF
  2
AcDbRasterImageDef
  3
ISM
 90
        0
280
               0
281
               0
  0
CLASS
  1
IMAGEDEF_REACTOR
  2
AcDbRasterImageDefReactor
  3
ISM
 90
        1
280
               0
281
               0
  0
CLASS
  1
IDBUFFER
  2
AcDbIdBuffer
  3
AutoCAD 2000
 90
        0
280
               0
281
               0
  0
CLASS
  1
SPATIAL_FILTER
  2
AcDbSpatialFilter
  3
AutoCAD 2000
 90
        0
280
               0
281
               0
  0
CLASS
  1
XRECORD
  2
AcDbXrecord
  3
AutoCAD 2000
 90
        0
280
               0
281
               0
  0
CLASS
  1
SORTENTSTABLE
  2
AcDbSortentsTable
  3
AutoCAD 2000
 90
        0
280
               0
281
               0
  0
CLASS
  1
LAYER_INDEX
  2
AcDbLayerIndex
  3
AutoCAD 2000
 90
        0
280
               0
281
               0
  0
CLASS
  1
SPATIAL_INDEX
  2
AcDbSpatialIndex
  3
AutoCAD 2000
 90
        0
280
               0
281
               0
  0
CLASS
  1
OBJECT_PTR
  2
CAseDLPNTableRecord
  3
"ASE-LPNTableRecord"
 90
        1
280
               0
281
               0
  0
CLASS
  1
LAYOUT
  2
AcDbLayout
  3
AutoCAD 2000
 90
        0
280
               0
281
               0
  0
CLASS
  1
PLOTSETTINGS
  2
AcDbPlotSettings
  3
AutoCAD 2000
 90
        0
280
               0
281
               0
  0
CLASS
  1
ACDBDICTIONARYWDFLT
  2
AcDbDictionaryWithDefault
  3
AutoCAD 2000
 90
        0
280
               0
281
               0
  0
CLASS
  1
ACDBPLACEHOLDER
  2
AcDbPlaceHolder
  3
AutoCAD 2000
 90
        0
280
               0
281
               0
  0
CLASS
  1
VBA_PROJECT
  2
AcDbVbaProject
  3
acadvba
 90
        0
280
               0
281
               0
  0
CLASS
  1
WIPEOUT
  2
AcDbWipeout
  3
WipeOut|AutoCAD Express Tool|expresstools@autodesk.com
 90
      127
280
               0
281
               1
  0
CLASS
  1
WIPEOUTVARIABLES
  2
AcDbWipeoutVariables
  3
WipeOut|AutoCAD Express Tool|expresstools@autodesk.com
 90
        0
280
               0
281
               0
  0
CLASS
  1
RTEXT
  2
RText
  3
RText|AutoCAD Express Tool|expresstools@autodesk.com
 90
        0
280
               0
281
               1
  0
CLASS
  1
ARCALIGNEDTEXT
  2
AcDbArcAlignedText
  3
ATEXT|AutoCAD Express Tool|expresstools@autodesk.com
 90
        0
280
               0
281
               1
  0
ENDSEC
  0
SECTION
  2
TABLES
  0
TABLE
  2
VPORT
  5
7
100
AcDbSymbolTable
 70
               1
  0
VPORT
  5
15
100
AcDbSymbolTableRecord
100
AcDbViewportTableRecord
  2
*ACTIVE
 70
               0
 10
0.0
 20
0.0
 11
1.0
 21
1.0
 12
2.1144316864829662
 22
0.2722809905377552
 13
0.0
 23
0.0
 14
1.0
 24
1.0
 15
0.0
 25
0.0
 16
0.0
 26
0.0
 36
1.0
 17
0.0
 27
0.0
 37
0.0
 40
38.10455799999999
 41
0.688564
 42
50.0
 43
0.0
 44
0.0
 50
0.0
 51
0.0
 71
               0
 72
            2000
 73
               1
 74
               1
 75
               0
 76
               0
 77
               0
 78
               0
281
               0
 65
               0
110
0.0
120
0.0
130
0.0
111
1.0
121
0.0
131
0.0
112
0.0
122
1.0
132
0.0
345
0
346
0
 79
               0
146
0.0
  0
ENDTAB
  0
TABLE
  2
LTYPE
  5
4
100
AcDbSymbolTable
 70
              14
  0
LTYPE
  5
11
100
AcDbSymbolTableRecord
100
AcDbLinetypeTableRecord
  2
ByBlock
 70
              64
  3

 72
              65
 73
               0
 40
0.0
  0
LTYPE
  5
12
100
AcDbSymbolTableRecord
100
AcDbLinetypeTableRecord
  2
ByLayer
 70
              64
  3

 72
              65
 73
               0
 40
0.0
  0
LTYPE
  5
13
100
AcDbSymbolTableRecord
100
AcDbLinetypeTableRecord
  2
Continuous
 70
              64
  3
Solid line
 72
              65
 73
               0
 40
0.0
  0
LTYPE
  5
38
100
AcDbSymbolTableRecord
100
AcDbLinetypeTableRecord
  2
STYLE_01
 70
               0
  3

 72
              65
 73
               2
 40
0.41664
 49
0.20828
 74
               0
 49
-0.20836
 74
               0
  0
LTYPE
  5
39
100
AcDbSymbolTableRecord
100
AcDbLinetypeTableRecord
  2
STYLE_02
 70
               0
  3

 72
              65
 73
               2
 40
0.6944250000000001
 49
0.48607
 74
               0
 49
-0.2083550000000001
 74
               0
  0
LTYPE
  5
3A
100
AcDbSymbolTableRecord
100
AcDbLinetypeTableRecord
  2
STYLE_03
 70
               0
  3

 72
              65
 73
               2
 40
1.25
 49
1.0416400000000001
 74
               0
 49
-0.2083599999999999
 74
               0
  0
LTYPE
  5
3B
100
AcDbSymbolTableRecord
100
AcDbLinetypeTableRecord
  2
STYLE_04
 70
               0
  3

 72
              65
 73
               2
 40
1.5277099999999999
 49
1.3194249999999998
 74
               0
 49
-0.208285
 74
               0
  0
LTYPE
  5
3C
100
AcDbSymbolTableRecord
100
AcDbLinetypeTableRecord
  2
STYLE_05
 70
               0
  3

 72
              65
 73
               2
 40
0.20828
 49
0.069425
 74
               0
 49
-0.138855
 74
               0
  0
LTYPE
  5
3D
100
AcDbSymbolTableRecord
100
AcDbLinetypeTableRecord
  2
STYLE_06
 70
               0
  3

 72
              65
 73
               4
 40
1.0416400000000001
 49
0.625
 74
               0
 49
-0.20828
 74
               0
 49
0.06943
 74
               0
 49
-0.13893
 74
               0
  0
LTYPE
  5
3E
100
AcDbSymbolTableRecord
100
AcDbLinetypeTableRecord
  2
STYLE_07
 70
               0
  3

 72
              65
 73
               6
 40
1.875
 49
0.625
 74
               0
 49
-0.20828
 74
               0
 49
0.6250000000000001
 74
               0
 49
-0.2083599999999999
 74
               0
 49
0.06943
 74
               0
 49
-0.1389299999999999
 74
               0
  0
LTYPE
  5
3F
100
AcDbSymbolTableRecord
100
AcDbLinetypeTableRecord
  2
STYLE_08
 70
               0
  3

 72
              65
 73
               6
 40
1.25
 49
0.625
 74
               0
 49
-0.20828
 74
               0
 49
0.06943
 74
               0
 49
-0.13893
 74
               0
 49
0.0694299999999999
 74
               0
 49
-0.13893
 74
               0
  0
LTYPE
  5
40
100
AcDbSymbolTableRecord
100
AcDbLinetypeTableRecord
  2
STYLE_09
 70
               0
  3

 72
              65
 73
               4
 40
5.0
 49
3.75
 74
               0
 49
-0.2777849999999998
 74
               0
 49
0.6944300000000003
 74
               0
 49
-0.2777849999999998
 74
               0
  0
LTYPE
  5
41
100
AcDbSymbolTableRecord
100
AcDbLinetypeTableRecord
  2
STYLE_10
 70
               0
  3

 72
              65
 73
               6
 40
5.9375
 49
3.75
 74
               0
 49
-0.2777849999999998
 74
               0
 49
0.6944300000000003
 74
               0
 49
-0.2777849999999998
 74
               0
 49
0.625
 74
               0
 49
-0.3125
 74
               0
  0
LTYPE
  5
42
100
AcDbSymbolTableRecord
100
AcDbLinetypeTableRecord
  2
STYLE_11
 70
               0
  3

 72
              65
 73
               2
 40
0.4166412353515625
 49
0.2777862548828125
 74
               0
 49
-0.13885498046875
 74
               0
  0
ENDTAB
  0
TABLE
  2
LAYER
  5
2
100
AcDbSymbolTable
 70
               4
  0
LAYER
  5
14
100
AcDbSymbolTableRecord
100
AcDbLayerTableRecord
  2
0
 70
               0
 62
               7
  6
Continuous
290
               1
370
              -3
390
1D
  0
LAYER
  5
43
100
AcDbSymbolTableRecord
100
AcDbLayerTableRecord
  2
Defpoints
 70
               0
 62
               7
  6
Continuous
290
               0
370
              -3
390
1D
  0
LAYER
  5
44
100
AcDbSymbolTableRecord
100
AcDbLayerTableRecord
  2
None
 70
               0
 62
               7
  6
Continuous
290
               1
370
               5
390
1D
  0
LAYER
  5
45
100
AcDbSymbolTableRecord
100
AcDbLayerTableRecord
  2
Dimension
 70
               0
 62
               7
  6
Continuous
290
               1
370
               5
390
1D
  0
ENDTAB
  0
TABLE
  2
STYLE
  5
3
100
AcDbSymbolTable
 70
               4
  0
STYLE
  5
17
100
AcDbSymbolTableRecord
100
AcDbTextStyleTableRecord
  2
Standard
 70
               0
 40
0.0
 41
1.0
 50
0.0
 71
               0
 42
0.0
  3
txt
  4

  0
STYLE
  5
35
100
AcDbSymbolTableRecord
100
AcDbTextStyleTableRecord
  2
Arial
 70
               0
 40
0.0
 41
1.0
 50
0.0
 71
               0
 42
0.0
  3
Arial
  4

1001
ACAD
1000
Arial
1071
        0
  0
STYLE
  5
36
100
AcDbSymbolTableRecord
100
AcDbTextStyleTableRecord
  2
Helvetica
 70
               0
 40
0.0
 41
1.0
 50
0.0
 71
               0
 42
0.0
  3
Helvetica
  4

1001
ACAD
1000
Helvetica
1071
        0
  0
STYLE
  5
37
100
AcDbSymbolTableRecord
100
AcDbTextStyleTableRecord
  2
New Century Schlbk
 70
               0
 40
0.0
 41
1.0
 50
0.0
 71
               0
 42
0.0
  3
New Century Schlbk
  4

1001
ACAD
1000
New Century Schlbk
1071
        0
  0
ENDTAB
  0
TABLE
  2
VIEW
  5
5
100
AcDbSymbolTable
 70
               0
  0
ENDTAB
  0
TABLE
  2
UCS
  5
6
100
AcDbSymbolTable
 70
               0
  0
ENDTAB
  0
TABLE
  2
APPID
  5
8
100
AcDbSymbolTable
 70
               1
  0
APPID
  5
16
100
AcDbSymbolTableRecord
100
AcDbRegAppTableRecord
  2
ACAD
 70
               0
  0
ENDTAB
  0
TABLE
  2
DIMSTYLE
  5
9
100
AcDbSymbolTable
 70
               3
100
AcDbDimStyleTable
 71
               0
  0
DIMSTYLE
105
18
100
AcDbSymbolTableRecord
100
AcDbDimStyleTableRecord
  2
Standard
 70
               0
  3

  4

 40
1.0
 41
0.18
 42
0.0625
 43
0.38
 44
0.18
 45
0.0
 46
0.0
 47
0.0
 48
0.0
 71
               0
 72
               0
 73
               1
 74
               1
 75
               0
 76
               0
 77
               0
 78
               0
 79
               0
140
0.18
141
0.09
142
0.0
143
25.399999999999999
144
1.0
145
0.0
146
1.0
147
0.09
148
0.0
170
               0
171
               2
172
               0
173
               0
174
               0
175
               0
176
               0
177
               0
178
               0
179
               0
271
               4
272
               4
273
               2
274
               2
275
               0
276
               0
277
               2
278
              46
279
               0
280
               0
281
               0
282
               0
283
               1
284
               0
285
               0
286
               0
288
               0
289
               3
340
17
341
0
342
0
343
0
344
0
371
              -2
372
              -2
  0
DIMSTYLE
105
4E
100
AcDbSymbolTableRecord
100
AcDbDimStyleTableRecord
  2
IE Standard
 70
               0
  3
<>mm
  4
[]
 40
1.0
 41
0.79375
 42
0.4762500011827797
 43
6.9999859934672708
 44
0.9525000023655593
 45
0.0
 46
0.0
 47
0.0
 48
0.0
 71
               0
 72
               0
 73
               1
 74
               1
 75
               0
 76
               0
 77
               0
 78
              11
 79
               0
140
0.7579186197916666
141
0.0
142
0.0
143
1.0
144
1.0
145
0.0
146
1.0
147
0.0
148
0.0
170
               0
171
               1
172
               1
173
               0
174
               1
175
               0
176
               0
177
               0
178
               0
179
               2
271
               1
272
               1
273
               2
274
               2
275
               0
276
               2
277
               2
278
              46
279
               0
280
               0
281
               0
282
               0
283
               1
284
              11
285
              11
286
              11
288
               0
289
               0
340
36
341
4A
342
46
343
0
344
0
371
              -2
372
              -2
  0
DIMSTYLE
105
54
100
AcDbSymbolTableRecord
100
AcDbDimStyleTableRecord
  2
Arch
 70
               0
  3
<>mm
  4
[]
 40
1.0
 41
0.5612060546875
 42
0.396875
 43
10.16
 44
0.79375
 45
0.0
 46
1.5874999999999999
 47
0.0
 48
0.0
 71
               0
 72
               0
 73
               0
 74
               0
 75
               0
 76
               0
 77
               1
 78
              11
 79
               0
140
0.7579186197916666
141
0.0
142
0.0
143
1.0
144
1.0
145
0.0
146
1.0
147
1.5874999999999999
148
0.0
170
               0
171
               1
172
               1
173
               0
174
               1
175
               0
176
               0
177
               0
178
               0
179
               2
271
               1
272
               1
273
               2
274
               2
275
               0
276
               2
277
               2
278
              46
279
               0
280
               0
281
               0
282
               0
283
               1
284
              11
285
              11
286
              11
288
               0
289
               0
340
36
341
46
342
4F
343
0
344
0
371
              -2
372
              -2
  0
ENDTAB
  0
TABLE
  2
BLOCK_RECORD
  5
1
100
AcDbSymbolTable
 70
              20
  0
BLOCK_RECORD
  5
A
100
AcDbSymbolTableRecord
100
AcDbBlockTableRecord
  2
*MODEL_SPACE
340
20
  0
BLOCK_RECORD
  5
B
100
AcDbSymbolTableRecord
100
AcDbBlockTableRecord
  2
*PAPER_SPACE
340
21
  0
BLOCK_RECORD
  5
46
100
AcDbSymbolTableRecord
100
AcDbBlockTableRecord
  2
VW_FILLEDARROW
340
0
  0
BLOCK_RECORD
  5
4A
100
AcDbSymbolTableRecord
100
AcDbBlockTableRecord
  2
VW_FILLEDARROW-1
340
0
  0
BLOCK_RECORD
  5
4F
100
AcDbSymbolTableRecord
100
AcDbBlockTableRecord
  2
VW_SLASH
340
0
  0
BLOCK_RECORD
  5
24
100
AcDbSymbolTableRecord
100
AcDbBlockTableRecord
  2
*D3
340
0
  0
BLOCK_RECORD
  5
25
100
AcDbSymbolTableRecord
100
AcDbBlockTableRecord
  2
Group
340
0
102
{BLKREFS
331
158
102
}
  0
BLOCK_RECORD
  5
26
100
AcDbSymbolTableRecord
100
AcDbBlockTableRecord
  2
*D5
340
0
  0
BLOCK_RECORD
  5
27
100
AcDbSymbolTableRecord
100
AcDbBlockTableRecord
  2
*D6
340
0
  0
BLOCK_RECORD
  5
28
100
AcDbSymbolTableRecord
100
AcDbBlockTableRecord
  2
*D7
340
0
  0
BLOCK_RECORD
  5
29
100
AcDbSymbolTableRecord
100
AcDbBlockTableRecord
  2
*D8
340
0
  0
BLOCK_RECORD
  5
2A
100
AcDbSymbolTableRecord
100
AcDbBlockTableRecord
  2
*D9
340
0
  0
BLOCK_RECORD
  5
2B
100
AcDbSymbolTableRecord
100
AcDbBlockTableRecord
  2
*D10
340
0
  0
BLOCK_RECORD
  5
2C
100
AcDbSymbolTableRecord
100
AcDbBlockTableRecord
  2
*D11
340
0
  0
BLOCK_RECORD
  5
2D
100
AcDbSymbolTableRecord
100
AcDbBlockTableRecord
  2
*D12
340
0
  0
BLOCK_RECORD
  5
2E
100
AcDbSymbolTableRecord
100
AcDbBlockTableRecord
  2
*D13
340
0
  0
BLOCK_RECORD
  5
2F
100
AcDbSymbolTableRecord
100
AcDbBlockTableRecord
  2
*D14
340
0
  0
BLOCK_RECORD
  5
30
100
AcDbSymbolTableRecord
100
AcDbBlockTableRecord
  2
*D15
340
0
  0
BLOCK_RECORD
  5
31
100
AcDbSymbolTableRecord
100
AcDbBlockTableRecord
  2
*D16
340
0
  0
BLOCK_RECORD
  5
32
100
AcDbSymbolTableRecord
100
AcDbBlockTableRecord
  2
*D17
340
0
  0
BLOCK_RECORD
  5
33
100
AcDbSymbolTableRecord
100
AcDbBlockTableRecord
  2
*D18
340
0
  0
BLOCK_RECORD
  5
34
100
AcDbSymbolTableRecord
100
AcDbBlockTableRecord
  2
*D19
340
0
  0
ENDTAB
  0
ENDSEC
  0
SECTION
  2
BLOCKS
  0
BLOCK
  5
D
100
AcDbEntity
  8
0
390
0
100
AcDbBlockBegin
  2
*MODEL_SPACE
 70
               0
 10
0.0
 20
0.0
 30
0.0
  3
*MODEL_SPACE
  1

  0
ENDBLK
  5
E
100
AcDbEntity
  8
0
390
0
100
AcDbBlockEnd
  0
BLOCK
  5
F
100
AcDbEntity
 67
               1
  8
0
390
0
100
AcDbBlockBegin
  2
*PAPER_SPACE
 70
               0
 10
0.0
 20
0.0
 30
0.0
  3
*PAPER_SPACE
  1

  0
ENDBLK
  5
10
100
AcDbEntity
 67
               1
  8
0
390
0
100
AcDbBlockEnd
  0
BLOCK
  5
47
100
AcDbEntity
  8
0
370
              -2
390
0
  6
ByBlock
 62
               0
100
AcDbBlockBegin
  2
VW_FILLEDARROW
 70
               0
 10
0.0
 20
0.0
 30
0.0
  3
VW_FILLEDARROW
  1

  0
SOLID
  5
48
100
AcDbEntity
  8
0
370
              -2
390
0
 62
               0
100
AcDbTrace
 10
0.0
 20
0.0
 30
0.0
 11
-0.9999389648437499
 21
-0.2679328381102956
 31
0.0
 12
-0.9999389648437499
 22
0.2679328381102958
 32
0.0
 13
-0.9999389648437499
 23
0.2679328381102958
 33
0.0
  0
ENDBLK
  5
49
100
AcDbEntity
  8
0
390
0
100
AcDbBlockEnd
  0
BLOCK
  5
4B
100
AcDbEntity
  8
0
370
              -2
390
0
  6
ByBlock
 62
               0
100
AcDbBlockBegin
  2
VW_FILLEDARROW-1
 70
               0
 10
0.0
 20
0.0
 30
0.0
  3
VW_FILLEDARROW
  1

  0
SOLID
  5
4C
100
AcDbEntity
  8
0
370
              -2
390
0
 62
               0
100
AcDbTrace
 10
0.0
 20
0.0
 30
0.0
 11
-0.6662384033203125
 21
-0.1785180421362784
 31
0.0
 12
-0.6662384033203125
 22
0.1785180421362785
 32
0.0
 13
-0.6662384033203125
 23
0.1785180421362785
 33
0.0
  0
ENDBLK
  5
4D
100
AcDbEntity
  8
0
390
0
100
AcDbBlockEnd
  0
BLOCK
  5
50
100
AcDbEntity
  8
0
370
              -2
390
0
  6
ByBlock
 62
               0
100
AcDbBlockBegin
  2
VW_SLASH
 70
               0
 10
0.0
 20
0.0
 30
0.0
  3
VW_SLASH
  1

  0
LINE
  5
51
100
AcDbEntity
  8
0
370
              -2
390
0
  6
ByBlock
 62
               0
100
AcDbLine
 10
0.0
 20
0.0
 30
0.0
 11
-1.0
 21
0.0
 31
0.0
  0
LINE
  5
52
100
AcDbEntity
  8
0
370
              20
390
0
  6
ByBlock
 62
               0
100
AcDbLine
 10
-0.5000145658230796
 20
-0.5000145658230795
 30
0.0
 11
0.5000145658230796
 21
0.5000145658230795
 31
0.0
  0
ENDBLK
  5
53
100
AcDbEntity
  8
0
390
0
100
AcDbBlockEnd
  0
BLOCK
  5
55
100
AcDbEntity
  8
Dimension
390
0
100
AcDbBlockBegin
  2
*D3
 70
               1
 10
0.0
 20
0.0
 30
0.0
  3
*D3
  1

  0
LINE
  5
56
100
AcDbEntity
  8
Dimension
370
              -2
390
0
  6
Continuous
 62
               0
100
AcDbLine
 10
-4.9098075812299582
 20
9.6449999905377553
 30
0.0
 11
-26.893557582412736
 21
9.6449999905377553
 31
0.0
  0
LINE
  5
57
100
AcDbEntity
  8
Dimension
370
              -2
390
0
  6
Continuous
 62
               0
100
AcDbLine
 10
-4.9098075812299582
 20
-5.5800000094622391
 30
0.0
 11
-26.893557582412736
 21
-5.5800000094622391
 31
0.0
  0
LINE
  5
58
100
AcDbEntity
  8
Dimension
370
              -2
390
0
  6
Continuous
 62
               0
100
AcDbLine
 10
-25.941057580047175
 20
9.6449999905377553
 30
0.0
 11
-25.941057580047175
 21
-5.5800000094622391
 31
0.0
  0
SOLID
  5
59
100
AcDbEntity
  8
Dimension
370
              -2
390
0
 62
               0
100
AcDbTrace
 10
-25.941057580047175
 20
9.6449999905377553
 30
0.0
 11
-25.728372908554974
 21
8.851249990537756
 31
0.0
 12
-26.153742251539381
 22
8.851249990537756
 32
0.0
 13
-26.153742251539381
 23
8.851249990537756
 33
0.0
  0
SOLID
  5
5A
100
AcDbEntity
  8
Dimension
370
              -2
390
0
 62
               0
100
AcDbTrace
 10
-25.941057580047175
 20
-5.5800000094622391
 30
0.0
 11
-26.153742251539381
 21
-4.7862500094622389
 31
0.0
 12
-25.72837290855497
 22
-4.7862500094622389
 32
0.0
 13
-25.72837290855497
 23
-4.7862500094622389
 33
0.0
  0
WIPEOUT
  5
5B
100
AcDbEntity
  8
Dimension
370
              -2
390
0
  6
Continuous
 62
               0
 92
        0
100
AcDbWipeout
 90
        0
 10
-31.999999999999993
 20
1.531524031594073
 30
0.0
 11
5.0376507600148521
 21
0.0
 31
0.0
 12
0.0
 22
5.0376507600148521
 32
0.0
 13
1.0
 23
1.0
340
0
 70
               7
280
               1
281
              50
282
              50
283
               0
360
0
 71
               2
 91
        5
 14
-0.5
 24
0.5
 14
0.5
 24
0.5
 14
0.5
 24
0.2584033594269223
 14
-0.5
 24
0.2584033594269223
 14
-0.5
 24
0.5
  0
MTEXT
  5
5C
100
AcDbEntity
  8
Dimension
390
0
 62
               0
100
AcDbMText
 10
-31.999999999999993
 20
2.5540251513857397
 30
0.0
 40
0.7579186197916666
 41
0.0
 71
               1
 72
               1
  1
15.225mm
  7
Helvetica
 73
               1
 44
0.9673603504928806
  0
WIPEOUT
  5
5D
100
AcDbEntity
  8
Dimension
370
              -2
390
0
  6
Continuous
 62
               0
 92
        0
100
AcDbWipeout
 90
        0
 10
-26.962349239985141
 20
1.5315223649274061
 30
0.0
 11
5.0270675208833495
 21
0.0
 31
0.0
 12
0.0
 22
5.0270675208833495
 32
0.0
 13
1.0
 23
1.0
340
0
 70
               7
280
               1
281
              50
282
              50
283
               0
360
0
 71
               2
 91
        5
 14
-0.5
 24
0.5
 14
0.5
 24
0.5
 14
0.5
 24
0.2578947378478544
 14
-0.5
 24
0.2578947378478544
 14
-0.5
 24
0.5
  0
MTEXT
  5
5E
100
AcDbEntity
  8
Dimension
390
0
 62
               0
100
AcDbMText
 10
-26.962349239985141
 20
2.5540234847190728
 30
0.0
 40
0.7579186197916666
 41
0.0
 71
               1
 72
               1
  1
±0.125mm
  7
Helvetica
 73
               1
 44
0.9673603504928806
  0
WIPEOUT
  5
5F
100
AcDbEntity
  8
Dimension
370
              -2
390
0
  6
Continuous
 62
               0
 92
        0
100
AcDbWipeout
 90
        0
 10
-21.935281719101791
 20
1.53152019826074
 30
0.0
 11
2.0531665590074333
 21
0.0
 31
0.0
 12
0.0
 22
2.0531665590074333
 32
0.0
 13
1.0
 23
1.0
340
0
 70
               7
280
               1
281
              50
282
              50
283
               0
360
0
 71
               2
 91
        5
 14
-0.5
 24
0.5
 14
0.5
 24
0.5
 14
0.5
 24
-0.0927835362376592
 14
-0.5
 24
-0.0927835362376592
 14
-0.5
 24
0.5
  0
MTEXT
  5
60
100
AcDbEntity
  8
Dimension
390
0
 62
               0
100
AcDbMText
 10
-21.935281719101791
 20
2.5540245385385174
 30
0.0
 40
0.7579210069444442
 41
0.0
 71
               1
 72
               1
  1
 sqr.
  7
Helvetica
 73
               1
 44
0.9673603504928806
  0
POINT
  5
61
100
AcDbEntity
  8
Defpoints
370
               0
390
0
 62
               0
100
AcDbPoint
 10
-4.4335575800471787
 20
-5.5800000094622391
 30
0.0
  0
POINT
  5
62
100
AcDbEntity
  8
Defpoints
370
               0
390
0
 62
               0
100
AcDbPoint
 10
-4.4335575800471787
 20
9.6449999905377553
 30
0.0
  0
POINT
  5
63
100
AcDbEntity
  8
Defpoints
370
               0
390
0
 62
               0
100
AcDbPoint
 10
-25.941057580047175
 20
9.6449999905377553
 30
0.0
  0
ENDBLK
  5
64
100
AcDbEntity
  8
Dimension
390
0
100
AcDbBlockEnd
  0
BLOCK
  5
65
100
AcDbEntity
  8
Dimension
390
0
100
AcDbBlockBegin
  2
Group
 70
               0
 10
0.0
 20
0.0
 30
0.0
  3
Group
  1

  0
LINE
  5
66
100
AcDbEntity
  8
None
370
               5
390
0
  6
Continuous
 62
               1
100
AcDbLine
 10
2.5539424199528185
 20
2.0324999905377581
 30
0.0
 11
3.8039424199528185
 21
2.0324999905377581
 31
0.0
  0
LINE
  5
67
100
AcDbEntity
  8
None
370
               5
390
0
  6
Continuous
 62
               1
100
AcDbLine
 10
3.1789424199528185
 20
1.4074999905377581
 30
0.0
 11
3.1789424199528185
 21
2.6574999905377581
 31
0.0
  0
LINE
  5
68
100
AcDbEntity
  8
None
370
               5
390
0
  6
Continuous
 62
               1
100
AcDbLine
 10
-5.1835575800471787
 20
2.0324999905377581
 30
0.0
 11
2.0539424199528185
 21
2.0324999905377581
 31
0.0
  0
LINE
  5
69
100
AcDbEntity
  8
None
370
               5
390
0
  6
Continuous
 62
               1
100
AcDbLine
 10
4.3039424199528185
 20
2.0324999905377581
 30
0.0
 11
11.541442419952816
 21
2.0324999905377581
 31
0.0
  0
LINE
  5
6A
100
AcDbEntity
  8
None
370
               5
390
0
  6
Continuous
 62
               1
100
AcDbLine
 10
3.1789424199528185
 20
10.394999990537755
 30
0.0
 11
3.1789424199528185
 21
3.1574999905377581
 31
0.0
  0
LINE
  5
6B
100
AcDbEntity
  8
None
370
               5
390
0
  6
Continuous
 62
               1
100
AcDbLine
 10
3.1789424199528185
 20
0.9074999905377581
 30
0.0
 11
3.1789424199528185
 21
-6.3300000094622391
 31
0.0
  0
ENDBLK
  5
6C
100
AcDbEntity
  8
Dimension
390
0
100
AcDbBlockEnd
  0
BLOCK
  5
6D
100
AcDbEntity
  8
Dimension
390
0
100
AcDbBlockBegin
  2
*D5
 70
               1
 10
0.0
 20
0.0
 30
0.0
  3
*D5
  1

  0
LINE
  5
6E
100
AcDbEntity
  8
Dimension
370
              -2
390
0
  6
Continuous
 62
               0
100
AcDbLine
 10
-3.1835575800471787
 20
8.8712499917205356
 30
0.0
 11
-3.1835575800471787
 21
16.781039992903313
 31
0.0
  0
LINE
  5
6F
100
AcDbEntity
  8
Dimension
370
              -2
390
0
  6
Continuous
 62
               0
100
AcDbLine
 10
-0.7110575800471821
 20
7.6887499917205302
 30
0.0
 11
-0.7110575800471821
 21
16.781039992903313
 31
0.0
  0
LINE
  5
70
100
AcDbEntity
  8
Dimension
370
              -2
390
0
  6
Continuous
 62
               0
100
AcDbLine
 10
-0.7110575800471821
 20
15.828539990537754
 30
0.0
 11
-3.1835575800471787
 21
15.828539990537754
 31
0.0
  0
LINE
  5
71
100
AcDbEntity
  8
Dimension
370
              -2
390
0
  6
Continuous
 62
               0
100
AcDbLine
 10
-3.1835575800471787
 20
15.828539990537754
 30
0.0
 11
-4.9335540784139962
 21
15.828539990537754
 31
0.0
  0
SOLID
  5
72
100
AcDbEntity
  8
Dimension
370
              -2
390
0
 62
               0
100
AcDbTrace
 10
-3.1835575800471787
 20
15.828539990537754
 30
0.0
 11
-3.9773075800471789
 21
15.615855319045551
 31
0.0
 12
-3.9773075800471784
 22
16.041224662029958
 32
0.0
 13
-3.9773075800471784
 23
16.041224662029958
 33
0.0
  0
LINE
  5
73
100
AcDbEntity
  8
Dimension
370
              -2
390
0
  6
Continuous
 62
               0
100
AcDbLine
 10
-0.7110575800471821
 20
15.828539990537754
 30
0.0
 11
1.7619524199528178
 21
15.828539990537754
 31
0.0
  0
SOLID
  5
74
100
AcDbEntity
  8
Dimension
370
              -2
390
0
 62
               0
100
AcDbTrace
 10
-0.7110575800471821
 20
15.828539990537754
 30
0.0
 11
0.0826924199528178
 21
16.041224662029958
 31
0.0
 12
0.0826924199528178
 22
15.615855319045551
 32
0.0
 13
0.0826924199528178
 23
15.615855319045551
 33
0.0
  0
WIPEOUT
  5
75
100
AcDbEntity
  8
Dimension
370
              -2
390
0
  6
Continuous
 62
               0
 92
        0
100
AcDbWipeout
 90
        0
 10
1.7619524199528174
 20
15.220000240537754
 30
0.0
 11
4.2650699297587078
 21
0.0
 31
0.0
 12
0.0
 22
4.2650699297587078
 32
0.0
 13
1.0
 23
1.0
340
0
 70
               7
280
               1
281
              50
282
              50
283
               0
360
0
 71
               2
 91
        5
 14
-0.5
 24
0.5
 14
0.5
 24
0.5
 14
0.5
 24
0.2146402005022094
 14
-0.5
 24
0.2146402005022094
 14
-0.5
 24
0.5
  0
MTEXT
  5
76
100
AcDbEntity
  8
Dimension
390
0
 62
               0
100
AcDbMText
 10
1.7619524199528174
 20
16.24250136032942
 30
0.0
 40
0.7579186197916666
 41
0.0
 71
               1
 72
               1
  1
2.47mm*
  7
Helvetica
 73
               1
 44
0.9673603504928806
  0
POINT
  5
77
100
AcDbEntity
  8
Defpoints
370
               0
390
0
 62
               0
100
AcDbPoint
 10
-0.7110575800471821
 20
7.2124999905377507
 30
0.0
  0
POINT
  5
78
100
AcDbEntity
  8
Defpoints
370
               0
390
0
 62
               0
100
AcDbPoint
 10
-3.1835575800471787
 20
8.3949999905377553
 30
0.0
  0
POINT
  5
79
100
AcDbEntity
  8
Defpoints
370
               0
390
0
 62
               0
100
AcDbPoint
 10
-3.1835575800471787
 20
15.828539990537754
 30
0.0
  0
ENDBLK
  5
7A
100
AcDbEntity
  8
Dimension
390
0
100
AcDbBlockEnd
  0
BLOCK
  5
7B
100
AcDbEntity
  8
Dimension
390
0
100
AcDbBlockBegin
  2
*D6
 70
               1
 10
0.0
 20
0.0
 30
0.0
  3
*D6
  1

  0
LINE
  5
7C
100
AcDbEntity
  8
Dimension
370
              -2
390
0
  6
Continuous
 62
               0
100
AcDbLine
 10
-1.1873075812299618
 20
7.2124999905377507
 30
0.0
 11
-7.6253575824127404
 21
7.2124999905377507
 31
0.0
  0
LINE
  5
7D
100
AcDbEntity
  8
Dimension
370
              -2
390
0
  6
Continuous
 62
               0
100
AcDbLine
 10
-3.6598075812299582
 20
8.3949999905377553
 30
0.0
 11
-7.6253575824127404
 21
8.3949999905377553
 31
0.0
  0
LINE
  5
7E
100
AcDbEntity
  8
Dimension
370
              -2
390
0
  6
Continuous
 62
               0
100
AcDbLine
 10
-6.6728575800471814
 20
8.3949999905377553
 30
0.0
 11
-6.6728575800471814
 21
7.2124999905377507
 31
0.0
  0
LINE
  5
7F
100
AcDbEntity
  8
Dimension
370
              -2
390
0
  6
Continuous
 62
               0
100
AcDbLine
 10
-6.6728575800471814
 20
7.2124999905377507
 30
0.0
 11
-6.6728575800471814
 21
5.4625034921709332
 31
0.0
  0
SOLID
  5
80
100
AcDbEntity
  8
Dimension
370
              -2
390
0
 62
               0
100
AcDbTrace
 10
-6.6728575800471814
 20
7.2124999905377507
 30
0.0
 11
-6.4601729085549779
 21
6.4187499905377505
 31
0.0
 12
-6.8855422515393849
 22
6.4187499905377505
 32
0.0
 13
-6.8855422515393849
 23
6.4187499905377505
 33
0.0
  0
LINE
  5
81
100
AcDbEntity
  8
Dimension
370
              -2
390
0
  6
Continuous
 62
               0
100
AcDbLine
 10
-6.6728575800471814
 20
8.3949999905377553
 30
0.0
 11
-6.6728575800471814
 21
10.144996488904573
 31
0.0
  0
SOLID
  5
82
100
AcDbEntity
  8
Dimension
370
              -2
390
0
 62
               0
100
AcDbTrace
 10
-6.6728575800471814
 20
8.3949999905377553
 30
0.0
 11
-6.8855422515393849
 21
9.1887499905377545
 31
0.0
 12
-6.4601729085549779
 22
9.1887499905377545
 32
0.0
 13
-6.4601729085549779
 23
9.1887499905377545
 33
0.0
  0
WIPEOUT
  5
83
100
AcDbEntity
  8
Dimension
370
              -2
390
0
  6
Continuous
 62
               0
 92
        0
100
AcDbWipeout
 90
        0
 10
-8.5990182043393428
 20
7.1952282840558199
 30
0.0
 11
3.8523212485843228
 21
0.0
 31
0.0
 12
0.0
 22
3.8523212485843228
 32
0.0
 13
1.0
 23
1.0
340
0
 70
               7
280
               1
281
              50
282
              50
283
               0
360
0
 71
               2
 91
        5
 14
-0.5
 24
0.5
 14
0.5
 24
0.5
 14
0.5
 24
0.1840659380504001
 14
-0.5
 24
0.1840659380504001
 14
-0.5
 24
0.5
  0
MTEXT
  5
84
100
AcDbEntity
  8
Dimension
390
0
 62
               0
100
AcDbMText
 10
-8.5990182043393428
 20
8.2177294038474855
 30
0.0
 40
0.7579186197916666
 41
0.0
 71
               1
 72
               1
  1
1.18mm
  7
Helvetica
 73
               1
 44
0.9673603504928806
  0
POINT
  5
85
100
AcDbEntity
  8
Defpoints
370
               0
390
0
 62
               0
100
AcDbPoint
 10
-3.1835575800471787
 20
8.3949999905377553
 30
0.0
  0
POINT
  5
86
100
AcDbEntity
  8
Defpoints
370
               0
390
0
 62
               0
100
AcDbPoint
 10
-0.7110575800471821
 20
7.2124999905377507
 30
0.0
  0
POINT
  5
87
100
AcDbEntity
  8
Defpoints
370
               0
390
0
 62
               0
100
AcDbPoint
 10
-6.6728575800471814
 20
7.2124999905377507
 30
0.0
  0
ENDBLK
  5
88
100
AcDbEntity
  8
Dimension
390
0
100
AcDbBlockEnd
  0
BLOCK
  5
89
100
AcDbEntity
  8
Dimension
390
0
100
AcDbBlockBegin
  2
*D7
 70
               1
 10
0.0
 20
0.0
 30
0.0
  3
*D7
  1

  0
LINE
  5
8A
100
AcDbEntity
  8
Dimension
370
              -2
390
0
  6
Continuous
 62
               0
100
AcDbLine
 10
5.423942419952823
 20
7.1887499917205302
 30
0.0
 11
5.423942419952823
 21
13.742499992903308
 31
0.0
  0
LINE
  5
8B
100
AcDbEntity
  8
Dimension
370
              -2
390
0
  6
Continuous
 62
               0
100
AcDbLine
 10
5.923942419952823
 20
7.1887499917205302
 30
0.0
 11
5.923942419952823
 21
13.74249999290331
 31
0.0
  0
LINE
  5
8C
100
AcDbEntity
  8
Dimension
370
              -2
390
0
  6
Continuous
 62
               0
100
AcDbLine
 10
5.923942419952823
 20
12.789999990537751
 30
0.0
 11
5.423942419952823
 21
12.789999990537751
 31
0.0
  0
LINE
  5
8D
100
AcDbEntity
  8
Dimension
370
              -2
390
0
  6
Continuous
 62
               0
100
AcDbLine
 10
5.423942419952823
 20
12.789999990537751
 30
0.0
 11
3.6739459215860055
 21
12.789999990537751
 31
0.0
  0
SOLID
  5
8E
100
AcDbEntity
  8
Dimension
370
              -2
390
0
 62
               0
100
AcDbTrace
 10
5.423942419952823
 20
12.789999990537751
 30
0.0
 11
4.6301924199528228
 21
12.577315319045548
 31
0.0
 12
4.6301924199528228
 22
13.002684662029955
 32
0.0
 13
4.6301924199528228
 23
13.002684662029955
 33
0.0
  0
LINE
  5
8F
100
AcDbEntity
  8
Dimension
370
              -2
390
0
  6
Continuous
 62
               0
100
AcDbLine
 10
5.923942419952823
 20
12.789999990537751
 30
0.0
 11
7.9589424199528231
 21
12.789999990537751
 31
0.0
  0
SOLID
  5
90
100
AcDbEntity
  8
Dimension
370
              -2
390
0
 62
               0
100
AcDbTrace
 10
5.923942419952823
 20
12.789999990537751
 30
0.0
 11
6.7176924199528232
 21
13.002684662029955
 31
0.0
 12
6.7176924199528232
 22
12.577315319045548
 32
0.0
 13
6.7176924199528232
 23
12.577315319045548
 33
0.0
  0
WIPEOUT
  5
91
100
AcDbEntity
  8
Dimension
370
              -2
390
0
  6
Continuous
 62
               0
 92
        0
100
AcDbWipeout
 90
        0
 10
7.9589424199528231
 20
12.181460240537751
 30
0.0
 11
5.2599001275168504
 21
0.0
 31
0.0
 12
0.0
 22
5.2599001275168504
 32
0.0
 13
1.0
 23
1.0
340
0
 70
               7
280
               1
281
              50
282
              50
283
               0
360
0
 71
               2
 91
        5
 14
-0.5
 24
0.5
 14
0.5
 24
0.5
 14
0.5
 24
0.2686116712306147
 14
-0.5
 24
0.2686116712306147
 14
-0.5
 24
0.5
  0
MTEXT
  5
92
100
AcDbEntity
  8
Dimension
390
0
 62
               0
100
AcDbMText
 10
7.9589424199528231
 20
13.203961360329417
 30
0.0
 40
0.7579186197916666
 41
0.0
 71
               1
 72
               1
  1
0.5mm typ.
  7
Helvetica
 73
               1
 44
0.9673603504928806
  0
POINT
  5
93
100
AcDbEntity
  8
Defpoints
370
               0
390
0
 62
               0
100
AcDbPoint
 10
5.923942419952823
 20
6.7124999905377507
 30
0.0
  0
POINT
  5
94
100
AcDbEntity
  8
Defpoints
370
               0
390
0
 62
               0
100
AcDbPoint
 10
5.423942419952823
 20
6.7124999905377507
 30
0.0
  0
POINT
  5
95
100
AcDbEntity
  8
Defpoints
370
               0
390
0
 62
               0
100
AcDbPoint
 10
5.423942419952823
 20
12.789999990537751
 30
0.0
  0
ENDBLK
  5
96
100
AcDbEntity
  8
Dimension
390
0
100
AcDbBlockEnd
  0
BLOCK
  5
97
100
AcDbEntity
  8
Dimension
390
0
100
AcDbBlockBegin
  2
*D8
 70
               1
 10
0.0
 20
0.0
 30
0.0
  3
*D8
  1

  0
LINE
  5
98
100
AcDbEntity
  8
Dimension
370
              -2
390
0
  6
Continuous
 62
               0
100
AcDbLine
 10
-3.6598075812299582
 20
-4.3300000094622391
 30
0.0
 11
-8.5622175824127371
 21
-4.3300000094622391
 31
0.0
  0
LINE
  5
99
100
AcDbEntity
  8
Dimension
370
              -2
390
0
  6
Continuous
 62
               0
100
AcDbLine
 10
-3.6598075812299582
 20
0.7499999905377592
 30
0.0
 11
-8.5622175824127371
 21
0.7499999905377592
 31
0.0
  0
LINE
  5
9A
100
AcDbEntity
  8
Dimension
370
              -2
390
0
  6
Continuous
 62
               0
100
AcDbLine
 10
-7.6097175800471781
 20
-4.3300000094622391
 30
0.0
 11
-7.6097175800471781
 21
0.7499999905377592
 31
0.0
  0
SOLID
  5
9B
100
AcDbEntity
  8
Dimension
370
              -2
390
0
 62
               0
100
AcDbTrace
 10
-7.6097175800471781
 20
-4.3300000094622391
 30
0.0
 11
-7.8224022515393816
 21
-3.5362500094622389
 31
0.0
 12
-7.3970329085549746
 22
-3.5362500094622389
 32
0.0
 13
-7.3970329085549746
 23
-3.5362500094622389
 33
0.0
  0
SOLID
  5
9C
100
AcDbEntity
  8
Dimension
370
              -2
390
0
 62
               0
100
AcDbTrace
 10
-7.6097175800471781
 20
0.7499999905377592
 30
0.0
 11
-7.3970329085549746
 21
-0.0437500094622408
 31
0.0
 12
-7.8224022515393816
 22
-0.0437500094622407
 32
0.0
 13
-7.8224022515393816
 23
-0.0437500094622407
 33
0.0
  0
WIPEOUT
  5
9D
100
AcDbEntity
  8
Dimension
370
              -2
390
0
  6
Continuous
 62
               0
 92
        0
100
AcDbWipeout
 90
        0
 10
-9.5358782043393404
 20
-1.4385208385638024
 30
0.0
 11
3.8523212485843228
 21
0.0
 31
0.0
 12
0.0
 22
3.8523212485843228
 32
0.0
 13
1.0
 23
1.0
340
0
 70
               7
280
               1
281
              50
282
              50
283
               0
360
0
 71
               2
 91
        5
 14
-0.5
 24
0.5
 14
0.5
 24
0.5
 14
0.5
 24
0.1840659380504
 14
-0.5
 24
0.1840659380504
 14
-0.5
 24
0.5
  0
MTEXT
  5
9E
100
AcDbEntity
  8
Dimension
390
0
 62
               0
100
AcDbMText
 10
-9.5358782043393404
 20
-0.416019718772136
 30
0.0
 40
0.7579186197916666
 41
0.0
 71
               1
 72
               1
  1
5.08mm
  7
Helvetica
 73
               1
 44
0.9673603504928806
  0
POINT
  5
9F
100
AcDbEntity
  8
Defpoints
370
               0
390
0
 62
               0
100
AcDbPoint
 10
-3.1835575800471787
 20
0.7499999905377592
 30
0.0
  0
POINT
  5
A0
100
AcDbEntity
  8
Defpoints
370
               0
390
0
 62
               0
100
AcDbPoint
 10
-3.1835575800471787
 20
-4.3300000094622391
 30
0.0
  0
POINT
  5
A1
100
AcDbEntity
  8
Defpoints
370
               0
390
0
 62
               0
100
AcDbPoint
 10
-7.6097175800471781
 20
-4.3300000094622391
 30
0.0
  0
ENDBLK
  5
A2
100
AcDbEntity
  8
Dimension
390
0
100
AcDbBlockEnd
  0
BLOCK
  5
A3
100
AcDbEntity
  8
Dimension
390
0
100
AcDbBlockBegin
  2
*D9
 70
               1
 10
0.0
 20
0.0
 30
0.0
  3
*D9
  1

  0
LINE
  5
A4
100
AcDbEntity
  8
Dimension
370
              -2
390
0
  6
Continuous
 62
               0
100
AcDbLine
 10
10.017692421135596
 20
5.854999990537749
 30
0.0
 11
15.690832422318374
 21
5.854999990537749
 31
0.0
  0
LINE
  5
A5
100
AcDbEntity
  8
Dimension
370
              -2
390
0
  6
Continuous
 62
               0
100
AcDbLine
 10
10.017692421135596
 20
8.3949999905377553
 30
0.0
 11
15.690832422318374
 21
8.3949999905377553
 31
0.0
  0
LINE
  5
A6
100
AcDbEntity
  8
Dimension
370
              -2
390
0
  6
Continuous
 62
               0
100
AcDbLine
 10
14.738332419952815
 20
8.3949999905377553
 30
0.0
 11
14.738332419952815
 21
5.854999990537749
 31
0.0
  0
LINE
  5
A7
100
AcDbEntity
  8
Dimension
370
              -2
390
0
  6
Continuous
 62
               0
100
AcDbLine
 10
14.738332419952815
 20
5.854999990537749
 30
0.0
 11
14.738332419952815
 21
4.1050034921709315
 31
0.0
  0
SOLID
  5
A8
100
AcDbEntity
  8
Dimension
370
              -2
390
0
 62
               0
100
AcDbTrace
 10
14.738332419952815
 20
5.854999990537749
 30
0.0
 11
14.951017091445019
 21
5.0612499905377488
 31
0.0
 12
14.525647748460612
 22
5.0612499905377488
 32
0.0
 13
14.525647748460612
 23
5.0612499905377488
 33
0.0
  0
LINE
  5
A9
100
AcDbEntity
  8
Dimension
370
              -2
390
0
  6
Continuous
 62
               0
100
AcDbLine
 10
14.738332419952815
 20
8.3949999905377553
 30
0.0
 11
14.738332419952815
 21
10.144996488904573
 31
0.0
  0
SOLID
  5
AA
100
AcDbEntity
  8
Dimension
370
              -2
390
0
 62
               0
100
AcDbTrace
 10
14.738332419952815
 20
8.3949999905377553
 30
0.0
 11
14.525647748460612
 21
9.1887499905377545
 31
0.0
 12
14.951017091445019
 22
9.1887499905377545
 32
0.0
 13
14.951017091445019
 23
9.1887499905377545
 33
0.0
  0
WIPEOUT
  5
AB
100
AcDbEntity
  8
Dimension
370
              -2
390
0
  6
Continuous
 62
               0
 92
        0
100
AcDbWipeout
 90
        0
 10
12.812171795660653
 20
6.5164602405377519
 30
0.0
 11
3.8523212485843246
 21
0.0
 31
0.0
 12
0.0
 22
3.8523212485843246
 32
0.0
 13
1.0
 23
1.0
340
0
 70
               7
280
               1
281
              50
282
              50
283
               0
360
0
 71
               2
 91
        5
 14
-0.5
 24
0.5
 14
0.5
 24
0.5
 14
0.5
 24
0.1840659380504002
 14
-0.5
 24
0.1840659380504002
 14
-0.5
 24
0.5
  0
MTEXT
  5
AC
100
AcDbEntity
  8
Dimension
390
0
 62
               0
100
AcDbMText
 10
12.812171795660653
 20
7.5389613603294183
 30
0.0
 40
0.7579186197916666
 41
0.0
 71
               1
 72
               1
  1
2.54mm
  7
Helvetica
 73
               1
 44
0.9673603504928806
  0
POINT
  5
AD
100
AcDbEntity
  8
Defpoints
370
               0
390
0
 62
               0
100
AcDbPoint
 10
9.5414424199528156
 20
8.3949999905377553
 30
0.0
  0
POINT
  5
AE
100
AcDbEntity
  8
Defpoints
370
               0
390
0
 62
               0
100
AcDbPoint
 10
9.5414424199528156
 20
5.854999990537749
 30
0.0
  0
POINT
  5
AF
100
AcDbEntity
  8
Defpoints
370
               0
390
0
 62
               0
100
AcDbPoint
 10
14.738332419952815
 20
5.854999990537749
 30
0.0
  0
ENDBLK
  5
B0
100
AcDbEntity
  8
Dimension
390
0
100
AcDbBlockEnd
  0
BLOCK
  5
B1
100
AcDbEntity
  8
Dimension
390
0
100
AcDbBlockBegin
  2
*D10
 70
               1
 10
0.0
 20
0.0
 30
0.0
  3
*D10
  1

  0
LINE
  5
B2
100
AcDbEntity
  8
Dimension
370
              -2
390
0
  6
Continuous
 62
               0
100
AcDbLine
 10
-3.1835575800471787
 20
-4.8062500106450186
 30
0.0
 11
-3.1835575800471787
 21
-16.012500011827797
 31
0.0
  0
LINE
  5
B3
100
AcDbEntity
  8
Dimension
370
              -2
390
0
  6
Continuous
 62
               0
100
AcDbLine
 10
9.5414424199528156
 20
-4.8062500106450186
 30
0.0
 11
9.5414424199528156
 21
-16.012500011827797
 31
0.0
  0
LINE
  5
B4
100
AcDbEntity
  8
Dimension
370
              -2
390
0
  6
Continuous
 62
               0
100
AcDbLine
 10
9.5414424199528156
 20
-15.060000009462238
 30
0.0
 11
-3.1835575800471787
 21
-15.060000009462238
 31
0.0
  0
LINE
  5
B5
100
AcDbEntity
  8
Dimension
370
              -2
390
0
  6
Continuous
 62
               0
100
AcDbLine
 10
-3.1835575800471787
 20
-15.060000009462238
 30
0.0
 11
-4.9335540784139962
 21
-15.060000009462238
 31
0.0
  0
SOLID
  5
B6
100
AcDbEntity
  8
Dimension
370
              -2
390
0
 62
               0
100
AcDbTrace
 10
-3.1835575800471787
 20
-15.060000009462238
 30
0.0
 11
-3.9773075800471789
 21
-15.272684680954441
 31
0.0
 12
-3.9773075800471784
 22
-14.847315337970034
 32
0.0
 13
-3.9773075800471784
 23
-14.847315337970034
 33
0.0
  0
LINE
  5
B7
100
AcDbEntity
  8
Dimension
370
              -2
390
0
  6
Continuous
 62
               0
100
AcDbLine
 10
9.5414424199528156
 20
-15.060000009462238
 30
0.0
 11
11.291438918319633
 21
-15.060000009462238
 31
0.0
  0
SOLID
  5
B8
100
AcDbEntity
  8
Dimension
370
              -2
390
0
 62
               0
100
AcDbTrace
 10
9.5414424199528156
 20
-15.060000009462238
 30
0.0
 11
10.335192419952815
 21
-14.847315337970034
 31
0.0
 12
10.335192419952815
 22
-15.272684680954441
 32
0.0
 13
10.335192419952815
 23
-15.272684680954441
 33
0.0
  0
WIPEOUT
  5
B9
100
AcDbEntity
  8
Dimension
370
              -2
390
0
  6
Continuous
 62
               0
 92
        0
100
AcDbWipeout
 90
        0
 10
-2.9264576635095798
 20
-15.668537842795571
 30
0.0
 11
5.0376507600148521
 21
0.0
 31
0.0
 12
0.0
 22
5.0376507600148521
 32
0.0
 13
1.0
 23
1.0
340
0
 70
               7
280
               1
281
              50
282
              50
283
               0
360
0
 71
               2
 91
        5
 14
-0.5
 24
0.5
 14
0.5
 24
0.5
 14
0.5
 24
0.2584033594269222
 14
-0.5
 24
0.2584033594269222
 14
-0.5
 24
0.5
  0
MTEXT
  5
BA
100
AcDbEntity
  8
Dimension
390
0
 62
               0
100
AcDbMText
 10
-2.9264576635095798
 20
-14.646036723003904
 30
0.0
 40
0.7579186197916666
 41
0.0
 71
               1
 72
               1
  1
12.725mm
  7
Helvetica
 73
               1
 44
0.9673603504928806
  0
WIPEOUT
  5
BB
100
AcDbEntity
  8
Dimension
370
              -2
390
0
  6
Continuous
 62
               0
 92
        0
100
AcDbWipeout
 90
        0
 10
2.1111930965052723
 20
-15.668539509462239
 30
0.0
 11
5.0270675208833486
 21
0.0
 31
0.0
 12
0.0
 22
5.0270675208833486
 32
0.0
 13
1.0
 23
1.0
340
0
 70
               7
280
               1
281
              50
282
              50
283
               0
360
0
 71
               2
 91
        5
 14
-0.5
 24
0.5
 14
0.5
 24
0.5
 14
0.5
 24
0.2578947378478542
 14
-0.5
 24
0.2578947378478542
 14
-0.5
 24
0.5
  0
MTEXT
  5
BC
100
AcDbEntity
  8
Dimension
390
0
 62
               0
100
AcDbMText
 10
2.1111930965052723
 20
-14.646038389670572
 30
0.0
 40
0.7579186197916666
 41
0.0
 71
               1
 72
               1
  1
±0.125mm
  7
Helvetica
 73
               1
 44
0.9673603504928806
  0
WIPEOUT
  5
BD
100
AcDbEntity
  8
Dimension
370
              -2
390
0
  6
Continuous
 62
               0
 92
        0
100
AcDbWipeout
 90
        0
 10
7.1382606173886218
 20
-15.668541676128903
 30
0.0
 11
2.10608325931761
 21
0.0
 31
0.0
 12
0.0
 22
2.10608325931761
 32
0.0
 13
1.0
 23
1.0
340
0
 70
               7
280
               1
281
              50
282
              50
283
               0
360
0
 71
               2
 91
        5
 14
-0.5
 24
0.5
 14
0.5
 24
0.5
 14
0.5
 24
-0.0778894675453995
 14
-0.5
 24
-0.0778894675453995
 14
-0.5
 24
0.5
  0
MTEXT
  5
BE
100
AcDbEntity
  8
Dimension
390
0
 62
               0
100
AcDbMText
 10
7.1382606173886218
 20
-14.646037335851126
 30
0.0
 40
0.7579210069444442
 41
0.0
 71
               1
 72
               1
  1
 (x4)
  7
Helvetica
 73
               1
 44
0.9673603504928806
  0
POINT
  5
BF
100
AcDbEntity
  8
Defpoints
370
               0
390
0
 62
               0
100
AcDbPoint
 10
9.5414424199528156
 20
-4.3300000094622391
 30
0.0
  0
POINT
  5
C0
100
AcDbEntity
  8
Defpoints
370
               0
390
0
 62
               0
100
AcDbPoint
 10
-3.1835575800471787
 20
-4.3300000094622391
 30
0.0
  0
POINT
  5
C1
100
AcDbEntity
  8
Defpoints
370
               0
390
0
 62
               0
100
AcDbPoint
 10
-3.1835575800471787
 20
-15.060000009462238
 30
0.0
  0
ENDBLK
  5
C2
100
AcDbEntity
  8
Dimension
390
0
100
AcDbBlockEnd
  0
BLOCK
  5
C3
100
AcDbEntity
  8
Dimension
390
0
100
AcDbBlockBegin
  2
*D11
 70
               1
 10
0.0
 20
0.0
 30
0.0
  3
*D11
  1

  0
LINE
  5
C4
100
AcDbEntity
  8
Dimension
370
              -2
390
0
  6
Continuous
 62
               0
100
AcDbLine
 10
8.6039424199528156
 20
-0.1075000094622425
 30
0.0
 11
14.419383782900395
 21
-1.8397591362056185
 31
0.0
  0
SOLID
  5
C5
100
AcDbEntity
  8
Dimension
370
              -2
390
0
 62
               0
100
AcDbTrace
 10
8.6039424199528156
 20
-0.1075000094622425
 30
0.0
 11
9.1513086729923092
 21
-0.1266144602121962
 31
0.0
 12
9.0684182748843423
 22
-0.3977367359108362
 32
0.0
 13
9.0684182748843423
 23
-0.3977367359108362
 33
0.0
  0
LINE
  5
C6
100
AcDbEntity
  8
Dimension
370
              -2
390
0
  6
Continuous
 62
               0
100
AcDbLine
 10
14.419383782900395
 20
-1.8397591362056185
 30
0.0
 11
15.919380784879895
 21
-1.8397591362056185
 31
0.0
  0
WIPEOUT
  5
C7
100
AcDbEntity
  8
Dimension
370
              -2
390
0
  6
Continuous
 62
               0
 92
        0
100
AcDbWipeout
 90
        0
 10
15.919380784879895
 20
-2.4482988862056185
 30
0.0
 11
7.6305594868130129
 21
0.0
 31
0.0
 12
0.0
 22
7.6305594868130129
 32
0.0
 13
1.0
 23
1.0
340
0
 70
               7
280
               1
281
              50
282
              50
283
               0
360
0
 71
               2
 91
        5
 14
-0.5
 24
0.5
 14
0.5
 24
0.5
 14
0.5
 24
0.3404993104236546
 14
-0.5
 24
0.3404993104236546
 14
-0.5
 24
0.5
  0
MTEXT
  5
C8
100
AcDbEntity
  8
Dimension
390
0
 62
               0
100
AcDbMText
 10
15.919380784879895
 20
-1.4257977664139521
 30
0.0
 40
0.7579186197916666
 41
0.0
 71
               1
 72
               1
  1
0.94 x 0.28 mm 
  7
Helvetica
 73
               1
 44
0.9673603504928806
  0
POINT
  5
C9
100
AcDbEntity
  8
Defpoints
370
               0
390
0
 62
               0
100
AcDbPoint
 10
7.6639424199528179
 20
0.1724999905377587
 30
0.0
  0
POINT
  5
CA
100
AcDbEntity
  8
Defpoints
370
               0
390
0
 62
               0
100
AcDbPoint
 10
8.6039424199528156
 20
-0.1075000094622425
 30
0.0
  0
ENDBLK
  5
CB
100
AcDbEntity
  8
Dimension
390
0
100
AcDbBlockEnd
  0
BLOCK
  5
CC
100
AcDbEntity
  8
Dimension
390
0
100
AcDbBlockBegin
  2
*D12
 70
               1
 10
0.0
 20
0.0
 30
0.0
  3
*D12
  1

  0
LINE
  5
CD
100
AcDbEntity
  8
Dimension
370
              -2
390
0
  6
Continuous
 62
               0
100
AcDbLine
 10
-1.7510575800471742
 20
-2.583750010645022
 30
0.0
 11
-1.7510575800471742
 21
-12.412500011827801
 31
0.0
  0
LINE
  5
CE
100
AcDbEntity
  8
Dimension
370
              -2
390
0
  6
Continuous
 62
               0
100
AcDbLine
 10
8.6089424199528253
 20
-2.583750010645022
 30
0.0
 11
8.6089424199528253
 21
-12.412500011827801
 31
0.0
  0
LINE
  5
CF
100
AcDbEntity
  8
Dimension
370
              -2
390
0
  6
Continuous
 62
               0
100
AcDbLine
 10
-1.7510575800471742
 20
-11.460000009462242
 30
0.0
 11
8.6089424199528253
 21
-11.460000009462242
 31
0.0
  0
SOLID
  5
D0
100
AcDbEntity
  8
Dimension
370
              -2
390
0
 62
               0
100
AcDbTrace
 10
-1.7510575800471742
 20
-11.460000009462242
 30
0.0
 11
-0.9573075800471742
 21
-11.247315337970038
 31
0.0
 12
-0.9573075800471742
 22
-11.672684680954445
 32
0.0
 13
-0.9573075800471742
 23
-11.672684680954445
 33
0.0
  0
SOLID
  5
D1
100
AcDbEntity
  8
Dimension
370
              -2
390
0
 62
               0
100
AcDbTrace
 10
8.6089424199528253
 20
-11.460000009462242
 30
0.0
 11
7.8151924199528251
 21
-11.672684680954445
 31
0.0
 12
7.8151924199528251
 22
-11.247315337970038
 32
0.0
 13
7.8151924199528251
 23
-11.247315337970038
 33
0.0
  0
WIPEOUT
  5
D2
100
AcDbEntity
  8
Dimension
370
              -2
390
0
  6
Continuous
 62
               0
 92
        0
100
AcDbWipeout
 90
        0
 10
1.4111643836233445
 20
-12.068539759462242
 30
0.0
 11
4.4449860042995883
 21
0.0
 31
0.0
 12
0.0
 22
4.4449860042995883
 32
0.0
 13
1.0
 23
1.0
340
0
 70
               7
280
               1
281
              50
282
              50
283
               0
360
0
 71
               2
 91
        5
 14
-0.5
 24
0.5
 14
0.5
 24
0.5
 14
0.5
 24
0.2261904764553291
 14
-0.5
 24
0.2261904764553291
 14
-0.5
 24
0.5
  0
MTEXT
  5
D3
100
AcDbEntity
  8
Dimension
390
0
 62
               0
100
AcDbMText
 10
1.4111643836233445
 20
-11.046038639670575
 30
0.0
 40
0.7579186197916666
 41
0.0
 71
               1
 72
               1
  1
10.36mm
  7
Helvetica
 73
               1
 44
0.9673603504928806
  0
POINT
  5
D4
100
AcDbEntity
  8
Defpoints
370
               0
390
0
 62
               0
100
AcDbPoint
 10
8.6089424199528253
 20
-2.1075000094622425
 30
0.0
  0
POINT
  5
D5
100
AcDbEntity
  8
Defpoints
370
               0
390
0
 62
               0
100
AcDbPoint
 10
-1.7510575800471742
 20
-2.1075000094622425
 30
0.0
  0
POINT
  5
D6
100
AcDbEntity
  8
Defpoints
370
               0
390
0
 62
               0
100
AcDbPoint
 10
-1.7510575800471742
 20
-11.460000009462242
 30
0.0
  0
ENDBLK
  5
D7
100
AcDbEntity
  8
Dimension
390
0
100
AcDbBlockEnd
  0
BLOCK
  5
D8
100
AcDbEntity
  8
Dimension
390
0
100
AcDbBlockBegin
  2
*D13
 70
               1
 10
0.0
 20
0.0
 30
0.0
  3
*D13
  1

  0
LINE
  5
D9
100
AcDbEntity
  8
Dimension
370
              -2
390
0
  6
Continuous
 62
               0
100
AcDbLine
 10
-1.1873075812299618
 20
7.2124999905377507
 30
0.0
 11
-17.093557582412739
 21
7.2124999905377507
 31
0.0
  0
LINE
  5
DA
100
AcDbEntity
  8
Dimension
370
              -2
390
0
  6
Continuous
 62
               0
100
AcDbLine
 10
-1.1873075812299618
 20
-3.1475000094622487
 30
0.0
 11
-17.093557582412743
 21
-3.1475000094622487
 31
0.0
  0
LINE
  5
DB
100
AcDbEntity
  8
Dimension
370
              -2
390
0
  6
Continuous
 62
               0
100
AcDbLine
 10
-16.141057580047182
 20
7.2124999905377507
 30
0.0
 11
-16.141057580047182
 21
-3.1475000094622487
 31
0.0
  0
SOLID
  5
DC
100
AcDbEntity
  8
Dimension
370
              -2
390
0
 62
               0
100
AcDbTrace
 10
-16.141057580047182
 20
7.2124999905377507
 30
0.0
 11
-15.928372908554978
 21
6.4187499905377505
 31
0.0
 12
-16.353742251539387
 22
6.4187499905377505
 32
0.0
 13
-16.353742251539387
 23
6.4187499905377505
 33
0.0
  0
SOLID
  5
DD
100
AcDbEntity
  8
Dimension
370
              -2
390
0
 62
               0
100
AcDbTrace
 10
-16.141057580047182
 20
-3.1475000094622487
 30
0.0
 11
-16.353742251539387
 21
-2.3537500094622485
 31
0.0
 12
-15.928372908554978
 22
-2.3537500094622485
 32
0.0
 13
-15.928372908554978
 23
-2.3537500094622485
 33
0.0
  0
WIPEOUT
  5
DE
100
AcDbEntity
  8
Dimension
370
              -2
390
0
  6
Continuous
 62
               0
 92
        0
100
AcDbWipeout
 90
        0
 10
-18.363550582196975
 20
0.9342251331158764
 30
0.0
 11
4.4449860042995866
 21
0.0
 31
0.0
 12
0.0
 22
4.4449860042995866
 32
0.0
 13
1.0
 23
1.0
340
0
 70
               7
280
               1
281
              50
282
              50
283
               0
360
0
 71
               2
 91
        5
 14
-0.5
 24
0.5
 14
0.5
 24
0.5
 14
0.5
 24
0.2261904764553292
 14
-0.5
 24
0.2261904764553292
 14
-0.5
 24
0.5
  0
MTEXT
  5
DF
100
AcDbEntity
  8
Dimension
390
0
 62
               0
100
AcDbMText
 10
-18.363550582196975
 20
1.9567262529075429
 30
0.0
 40
0.7579186197916666
 41
0.0
 71
               1
 72
               1
  1
10.36mm
  7
Helvetica
 73
               1
 44
0.9673603504928806
  0
POINT
  5
E0
100
AcDbEntity
  8
Defpoints
370
               0
390
0
 62
               0
100
AcDbPoint
 10
-0.7110575800471821
 20
-3.1475000094622487
 30
0.0
  0
POINT
  5
E1
100
AcDbEntity
  8
Defpoints
370
               0
390
0
 62
               0
100
AcDbPoint
 10
-0.7110575800471821
 20
7.2124999905377507
 30
0.0
  0
POINT
  5
E2
100
AcDbEntity
  8
Defpoints
370
               0
390
0
 62
               0
100
AcDbPoint
 10
-16.141057580047182
 20
7.2124999905377507
 30
0.0
  0
ENDBLK
  5
E3
100
AcDbEntity
  8
Dimension
390
0
100
AcDbBlockEnd
  0
BLOCK
  5
E4
100
AcDbEntity
  8
Dimension
390
0
100
AcDbBlockBegin
  2
*D14
 70
               1
 10
0.0
 20
0.0
 30
0.0
  3
*D14
  1

  0
LINE
  5
E5
100
AcDbEntity
  8
Dimension
370
              -2
390
0
  6
Continuous
 62
               0
100
AcDbLine
 10
-2.2273075812299536
 20
6.1724999905377587
 30
0.0
 11
-11.643557582412733
 21
6.1724999905377587
 31
0.0
  0
LINE
  5
E6
100
AcDbEntity
  8
Dimension
370
              -2
390
0
  6
Continuous
 62
               0
100
AcDbLine
 10
-2.2273075812299536
 20
-2.1075000094622425
 30
0.0
 11
-11.643557582412733
 21
-2.1075000094622425
 31
0.0
  0
LINE
  5
E7
100
AcDbEntity
  8
Dimension
370
              -2
390
0
  6
Continuous
 62
               0
100
AcDbLine
 10
-10.691057580047174
 20
6.1724999905377587
 30
0.0
 11
-10.691057580047174
 21
-2.1075000094622425
 31
0.0
  0
SOLID
  5
E8
100
AcDbEntity
  8
Dimension
370
              -2
390
0
 62
               0
100
AcDbTrace
 10
-10.691057580047174
 20
6.1724999905377587
 30
0.0
 11
-10.47837290855497
 21
5.3787499905377585
 31
0.0
 12
-10.903742251539377
 22
5.3787499905377585
 32
0.0
 13
-10.903742251539377
 23
5.3787499905377585
 33
0.0
  0
SOLID
  5
E9
100
AcDbEntity
  8
Dimension
370
              -2
390
0
 62
               0
100
AcDbTrace
 10
-10.691057580047174
 20
-2.1075000094622425
 30
0.0
 11
-10.903742251539377
 21
-1.3137500094622425
 31
0.0
 12
-10.47837290855497
 22
-1.3137500094622425
 32
0.0
 13
-10.47837290855497
 23
-1.3137500094622425
 33
0.0
  0
WIPEOUT
  5
EA
100
AcDbEntity
  8
Dimension
370
              -2
390
0
  6
Continuous
 62
               0
 92
        0
100
AcDbWipeout
 90
        0
 10
-12.617218204339336
 20
1.2618624622174461
 30
0.0
 11
3.8523212485843228
 21
0.0
 31
0.0
 12
0.0
 22
3.8523212485843228
 32
0.0
 13
1.0
 23
1.0
340
0
 70
               7
280
               1
281
              50
282
              50
283
               0
360
0
 71
               2
 91
        5
 14
-0.5
 24
0.5
 14
0.5
 24
0.5
 14
0.5
 24
0.1840659380504
 14
-0.5
 24
0.1840659380504
 14
-0.5
 24
0.5
  0
MTEXT
  5
EB
100
AcDbEntity
  8
Dimension
390
0
 62
               0
100
AcDbMText
 10
-12.617218204339336
 20
2.2843635820091128
 30
0.0
 40
0.7579186197916666
 41
0.0
 71
               1
 72
               1
  1
8.28mm
  7
Helvetica
 73
               1
 44
0.9673603504928806
  0
POINT
  5
EC
100
AcDbEntity
  8
Defpoints
370
               0
390
0
 62
               0
100
AcDbPoint
 10
-1.7510575800471742
 20
-2.1075000094622425
 30
0.0
  0
POINT
  5
ED
100
AcDbEntity
  8
Defpoints
370
               0
390
0
 62
               0
100
AcDbPoint
 10
-1.7510575800471742
 20
6.1724999905377587
 30
0.0
  0
POINT
  5
EE
100
AcDbEntity
  8
Defpoints
370
               0
390
0
 62
               0
100
AcDbPoint
 10
-10.691057580047174
 20
6.1724999905377587
 30
0.0
  0
ENDBLK
  5
EF
100
AcDbEntity
  8
Dimension
390
0
100
AcDbBlockEnd
  0
BLOCK
  5
F0
100
AcDbEntity
  8
Dimension
390
0
100
AcDbBlockBegin
  2
*D15
 70
               1
 10
0.0
 20
0.0
 30
0.0
  3
*D15
  1

  0
LINE
  5
F1
100
AcDbEntity
  8
Dimension
370
              -2
390
0
  6
Continuous
 62
               0
100
AcDbLine
 10
-0.7110575800471821
 20
-3.6237500106450282
 30
0.0
 11
-0.7110575800471821
 21
-9.6203400118278068
 31
0.0
  0
LINE
  5
F2
100
AcDbEntity
  8
Dimension
370
              -2
390
0
  6
Continuous
 62
               0
100
AcDbLine
 10
7.568942419952819
 20
-3.6237500106450282
 30
0.0
 11
7.568942419952819
 21
-9.6203400118278068
 31
0.0
  0
LINE
  5
F3
100
AcDbEntity
  8
Dimension
370
              -2
390
0
  6
Continuous
 62
               0
100
AcDbLine
 10
-0.7110575800471821
 20
-8.6678400094622479
 30
0.0
 11
7.568942419952819
 21
-8.6678400094622479
 31
0.0
  0
SOLID
  5
F4
100
AcDbEntity
  8
Dimension
370
              -2
390
0
 62
               0
100
AcDbTrace
 10
-0.7110575800471821
 20
-8.6678400094622479
 30
0.0
 11
0.0826924199528178
 21
-8.4551553379700444
 31
0.0
 12
0.0826924199528178
 22
-8.8805246809544514
 32
0.0
 13
0.0826924199528178
 23
-8.8805246809544514
 33
0.0
  0
SOLID
  5
F5
100
AcDbEntity
  8
Dimension
370
              -2
390
0
 62
               0
100
AcDbTrace
 10
7.568942419952819
 20
-8.6678400094622479
 30
0.0
 11
6.7751924199528188
 21
-8.8805246809544514
 31
0.0
 12
6.7751924199528188
 22
-8.4551553379700444
 32
0.0
 13
6.7751924199528188
 23
-8.4551553379700444
 33
0.0
  0
WIPEOUT
  5
F6
100
AcDbEntity
  8
Dimension
370
              -2
390
0
  6
Continuous
 62
               0
 92
        0
100
AcDbWipeout
 90
        0
 10
1.4694273034731571
 20
-9.2763797594622481
 30
0.0
 11
3.8523212485843228
 21
0.0
 31
0.0
 12
0.0
 22
3.8523212485843228
 32
0.0
 13
1.0
 23
1.0
340
0
 70
               7
280
               1
281
              50
282
              50
283
               0
360
0
 71
               2
 91
        5
 14
-0.5
 24
0.5
 14
0.5
 24
0.5
 14
0.5
 24
0.1840659380503998
 14
-0.5
 24
0.1840659380503998
 14
-0.5
 24
0.5
  0
MTEXT
  5
F7
100
AcDbEntity
  8
Dimension
390
0
 62
               0
100
AcDbMText
 10
1.4694273034731571
 20
-8.2538786396705817
 30
0.0
 40
0.7579186197916666
 41
0.0
 71
               1
 72
               1
  1
8.28mm
  7
Helvetica
 73
               1
 44
0.9673603504928806
  0
POINT
  5
F8
100
AcDbEntity
  8
Defpoints
370
               0
390
0
 62
               0
100
AcDbPoint
 10
7.568942419952819
 20
-3.1475000094622487
 30
0.0
  0
POINT
  5
F9
100
AcDbEntity
  8
Defpoints
370
               0
390
0
 62
               0
100
AcDbPoint
 10
-0.7110575800471821
 20
-3.1475000094622487
 30
0.0
  0
POINT
  5
FA
100
AcDbEntity
  8
Defpoints
370
               0
390
0
 62
               0
100
AcDbPoint
 10
-0.7110575800471821
 20
-8.6678400094622479
 30
0.0
  0
ENDBLK
  5
FB
100
AcDbEntity
  8
Dimension
390
0
100
AcDbBlockEnd
  0
BLOCK
  5
FC
100
AcDbEntity
  8
Dimension
390
0
100
AcDbBlockBegin
  2
*D16
 70
               1
 10
0.0
 20
0.0
 30
0.0
  3
*D16
  1

  0
LINE
  5
FD
100
AcDbEntity
  8
Dimension
370
              -2
390
0
  6
Continuous
 62
               0
100
AcDbLine
 10
-3.1835575800471787
 20
8.8712499917205356
 30
0.0
 11
-3.1835575800471787
 21
19.142499992903314
 31
0.0
  0
LINE
  5
FE
100
AcDbEntity
  8
Dimension
370
              -2
390
0
  6
Continuous
 62
               0
100
AcDbLine
 10
-4.4335575800471787
 20
10.121249991720536
 30
0.0
 11
-4.4335575800471787
 21
19.142499992903318
 31
0.0
  0
LINE
  5
FF
100
AcDbEntity
  8
Dimension
370
              -2
390
0
  6
Continuous
 62
               0
100
AcDbLine
 10
-4.4335575800471787
 20
18.189999990537757
 30
0.0
 11
-3.1835575800471787
 21
18.189999990537757
 31
0.0
  0
LINE
  5
100
100
AcDbEntity
  8
Dimension
370
              -2
390
0
  6
Continuous
 62
               0
100
AcDbLine
 10
-3.1835575800471787
 20
18.189999990537757
 30
0.0
 11
-1.191057580047179
 21
18.189999990537757
 31
0.0
  0
SOLID
  5
101
100
AcDbEntity
  8
Dimension
370
              -2
390
0
 62
               0
100
AcDbTrace
 10
-3.1835575800471787
 20
18.189999990537757
 30
0.0
 11
-2.3898075800471785
 21
18.402684662029962
 31
0.0
 12
-2.3898075800471785
 22
17.977315319045552
 32
0.0
 13
-2.3898075800471785
 23
17.977315319045552
 33
0.0
  0
LINE
  5
102
100
AcDbEntity
  8
Dimension
370
              -2
390
0
  6
Continuous
 62
               0
100
AcDbLine
 10
-4.4335575800471787
 20
18.189999990537757
 30
0.0
 11
-6.1835540784139962
 21
18.189999990537757
 31
0.0
  0
SOLID
  5
103
100
AcDbEntity
  8
Dimension
370
              -2
390
0
 62
               0
100
AcDbTrace
 10
-4.4335575800471787
 20
18.189999990537757
 30
0.0
 11
-5.2273075800471789
 21
17.977315319045552
 31
0.0
 12
-5.2273075800471789
 22
18.402684662029962
 32
0.0
 13
-5.2273075800471789
 23
18.402684662029962
 33
0.0
  0
WIPEOUT
  5
104
100
AcDbEntity
  8
Dimension
370
              -2
390
0
  6
Continuous
 62
               0
 92
        0
100
AcDbWipeout
 90
        0
 10
-1.191057580047179
 20
17.581462157204424
 30
0.0
 11
3.8523212485843232
 21
0.0
 31
0.0
 12
0.0
 22
3.8523212485843232
 32
0.0
 13
1.0
 23
1.0
340
0
 70
               7
280
               1
281
              50
282
              50
283
               0
360
0
 71
               2
 91
        5
 14
-0.5
 24
0.5
 14
0.5
 24
0.5
 14
0.5
 24
0.1840659380503998
 14
-0.5
 24
0.1840659380503998
 14
-0.5
 24
0.5
  0
MTEXT
  5
105
100
AcDbEntity
  8
Dimension
390
0
 62
               0
100
AcDbMText
 10
-1.191057580047179
 20
18.60396327699609
 30
0.0
 40
0.7579186197916666
 41
0.0
 71
               1
 72
               1
  1
1.25mm
  7
Helvetica
 73
               1
 44
0.9673603504928806
  0
WIPEOUT
  5
106
100
AcDbEntity
  8
Dimension
370
              -2
390
0
  6
Continuous
 62
               0
 92
        0
100
AcDbWipeout
 90
        0
 10
2.6612636685371442
 20
17.581460490537758
 30
0.0
 11
5.0270675208833495
 21
0.0
 31
0.0
 12
0.0
 22
5.0270675208833495
 32
0.0
 13
1.0
 23
1.0
340
0
 70
               7
280
               1
281
              50
282
              50
283
               0
360
0
 71
               2
 91
        5
 14
-0.5
 24
0.5
 14
0.5
 24
0.5
 14
0.5
 24
0.2578947378478543
 14
-0.5
 24
0.2578947378478543
 14
-0.5
 24
0.5
  0
MTEXT
  5
107
100
AcDbEntity
  8
Dimension
390
0
 62
               0
100
AcDbMText
 10
2.6612636685371442
 20
18.603961610329424
 30
0.0
 40
0.7579186197916666
 41
0.0
 71
               1
 72
               1
  1
±0.125mm
  7
Helvetica
 73
               1
 44
0.9673603504928806
  0
WIPEOUT
  5
108
100
AcDbEntity
  8
Dimension
370
              -2
390
0
  6
Continuous
 62
               0
 92
        0
100
AcDbWipeout
 90
        0
 10
7.6883311894204933
 20
17.581458323871093
 30
0.0
 11
2.1060832593176091
 21
0.0
 31
0.0
 12
0.0
 22
2.1060832593176091
 32
0.0
 13
1.0
 23
1.0
340
0
 70
               7
280
               1
281
              50
282
              50
283
               0
360
0
 71
               2
 91
        5
 14
-0.5
 24
0.5
 14
0.5
 24
0.5
 14
0.5
 24
-0.0778894675453988
 14
-0.5
 24
-0.0778894675453988
 14
-0.5
 24
0.5
  0
MTEXT
  5
109
100
AcDbEntity
  8
Dimension
390
0
 62
               0
100
AcDbMText
 10
7.6883311894204933
 20
18.60396266414887
 30
0.0
 40
0.7579210069444442
 41
0.0
 71
               1
 72
               1
  1
 (x4)
  7
Helvetica
 73
               1
 44
0.9673603504928806
  0
POINT
  5
10A
100
AcDbEntity
  8
Defpoints
370
               0
390
0
 62
               0
100
AcDbPoint
 10
-4.4335575800471787
 20
9.6449999905377553
 30
0.0
  0
POINT
  5
10B
100
AcDbEntity
  8
Defpoints
370
               0
390
0
 62
               0
100
AcDbPoint
 10
-3.1835575800471787
 20
8.3949999905377553
 30
0.0
  0
POINT
  5
10C
100
AcDbEntity
  8
Defpoints
370
               0
390
0
 62
               0
100
AcDbPoint
 10
-3.1835575800471787
 20
18.189999990537757
 30
0.0
  0
ENDBLK
  5
10D
100
AcDbEntity
  8
Dimension
390
0
100
AcDbBlockEnd
  0
BLOCK
  5
10E
100
AcDbEntity
  8
Dimension
390
0
100
AcDbBlockBegin
  2
*D17
 70
               1
 10
0.0
 20
0.0
 30
0.0
  3
*D17
  1

  0
LINE
  5
10F
100
AcDbEntity
  8
Dimension
370
              -2
390
0
  6
Continuous
 62
               0
100
AcDbLine
 10
-4.9098075812299582
 20
9.6449999905377553
 30
0.0
 11
-15.743557582412738
 21
9.6449999905377553
 31
0.0
  0
LINE
  5
110
100
AcDbEntity
  8
Dimension
370
              -2
390
0
  6
Continuous
 62
               0
100
AcDbLine
 10
-3.6598075812299582
 20
8.3949999905377553
 30
0.0
 11
-15.743557582412738
 21
8.3949999905377553
 31
0.0
  0
LINE
  5
111
100
AcDbEntity
  8
Dimension
370
              -2
390
0
  6
Continuous
 62
               0
100
AcDbLine
 10
-14.791057580047179
 20
8.3949999905377553
 30
0.0
 11
-14.791057580047179
 21
9.6449999905377553
 31
0.0
  0
LINE
  5
112
100
AcDbEntity
  8
Dimension
370
              -2
390
0
  6
Continuous
 62
               0
100
AcDbLine
 10
-14.791057580047179
 20
9.6449999905377553
 30
0.0
 11
-14.791057580047179
 21
12.439999990537755
 31
0.0
  0
SOLID
  5
113
100
AcDbEntity
  8
Dimension
370
              -2
390
0
 62
               0
100
AcDbTrace
 10
-14.791057580047179
 20
9.6449999905377553
 30
0.0
 11
-15.003742251539382
 21
10.438749990537755
 31
0.0
 12
-14.578372908554975
 22
10.438749990537755
 32
0.0
 13
-14.578372908554975
 23
10.438749990537755
 33
0.0
  0
LINE
  5
114
100
AcDbEntity
  8
Dimension
370
              -2
390
0
  6
Continuous
 62
               0
100
AcDbLine
 10
-14.791057580047179
 20
8.3949999905377553
 30
0.0
 11
-14.791057580047179
 21
6.6450034921709378
 31
0.0
  0
SOLID
  5
115
100
AcDbEntity
  8
Dimension
370
              -2
390
0
 62
               0
100
AcDbTrace
 10
-14.791057580047179
 20
8.3949999905377553
 30
0.0
 11
-14.578372908554975
 21
7.6012499905377551
 31
0.0
 12
-15.003742251539382
 22
7.6012499905377551
 32
0.0
 13
-15.003742251539382
 23
7.6012499905377551
 33
0.0
  0
WIPEOUT
  5
116
100
AcDbEntity
  8
Dimension
370
              -2
390
0
  6
Continuous
 62
               0
 92
        0
100
AcDbWipeout
 90
        0
 10
-19.987461216582187
 20
11.831462157204422
 30
0.0
 11
3.8523212485843246
 21
0.0
 31
0.0
 12
0.0
 22
3.8523212485843246
 32
0.0
 13
1.0
 23
1.0
340
0
 70
               7
280
               1
281
              50
282
              50
283
               0
360
0
 71
               2
 91
        5
 14
-0.5
 24
0.5
 14
0.5
 24
0.5
 14
0.5
 24
0.1840659380504
 14
-0.5
 24
0.1840659380504
 14
-0.5
 24
0.5
  0
MTEXT
  5
117
100
AcDbEntity
  8
Dimension
390
0
 62
               0
100
AcDbMText
 10
-19.987461216582187
 20
12.853963276996089
 30
0.0
 40
0.7579186197916666
 41
0.0
 71
               1
 72
               1
  1
1.25mm
  7
Helvetica
 73
               1
 44
0.9673603504928806
  0
WIPEOUT
  5
118
100
AcDbEntity
  8
Dimension
370
              -2
390
0
  6
Continuous
 62
               0
 92
        0
100
AcDbWipeout
 90
        0
 10
-16.135139967997862
 20
11.831460490537754
 30
0.0
 11
4.434402765168084
 21
0.0
 31
0.0
 12
0.0
 22
4.434402765168084
 32
0.0
 13
1.0
 23
1.0
340
0
 70
               7
280
               1
281
              50
282
              50
283
               0
360
0
 71
               2
 91
        5
 14
-0.5
 24
0.5
 14
0.5
 24
0.5
 14
0.5
 24
0.22553699687361
 14
-0.5
 24
0.22553699687361
 14
-0.5
 24
0.5
  0
MTEXT
  5
119
100
AcDbEntity
  8
Dimension
390
0
 62
               0
100
AcDbMText
 10
-16.135139967997862
 20
12.853961610329421
 30
0.0
 40
0.7579186197916666
 41
0.0
 71
               1
 72
               1
  1
±0.13mm
  7
Helvetica
 73
               1
 44
0.9673603504928806
  0
WIPEOUT
  5
11A
100
AcDbEntity
  8
Dimension
370
              -2
390
0
  6
Continuous
 62
               0
 92
        0
100
AcDbWipeout
 90
        0
 10
-11.70073720282978
 20
11.83145832387109
 30
0.0
 11
2.1060832593176091
 21
0.0
 31
0.0
 12
0.0
 22
2.1060832593176091
 32
0.0
 13
1.0
 23
1.0
340
0
 70
               7
280
               1
281
              50
282
              50
283
               0
360
0
 71
               2
 91
        5
 14
-0.5
 24
0.5
 14
0.5
 24
0.5
 14
0.5
 24
-0.0778894675453997
 14
-0.5
 24
-0.0778894675453997
 14
-0.5
 24
0.5
  0
MTEXT
  5
11B
100
AcDbEntity
  8
Dimension
390
0
 62
               0
100
AcDbMText
 10
-11.70073720282978
 20
12.853962664148867
 30
0.0
 40
0.7579210069444442
 41
0.0
 71
               1
 72
               1
  1
 (x4)
  7
Helvetica
 73
               1
 44
0.9673603504928806
  0
POINT
  5
11C
100
AcDbEntity
  8
Defpoints
370
               0
390
0
 62
               0
100
AcDbPoint
 10
-3.1835575800471787
 20
8.3949999905377553
 30
0.0
  0
POINT
  5
11D
100
AcDbEntity
  8
Defpoints
370
               0
390
0
 62
               0
100
AcDbPoint
 10
-4.4335575800471787
 20
9.6449999905377553
 30
0.0
  0
POINT
  5
11E
100
AcDbEntity
  8
Defpoints
370
               0
390
0
 62
               0
100
AcDbPoint
 10
-14.791057580047179
 20
9.6449999905377553
 30
0.0
  0
ENDBLK
  5
11F
100
AcDbEntity
  8
Dimension
390
0
100
AcDbBlockEnd
  0
BLOCK
  5
120
100
AcDbEntity
  8
Dimension
390
0
100
AcDbBlockBegin
  2
*D18
 70
               1
 10
0.0
 20
0.0
 30
0.0
  3
*D18
  1

  0
LINE
  5
121
100
AcDbEntity
  8
Dimension
370
              -2
390
0
  6
Continuous
 62
               0
100
AcDbLine
 10
10.300102419952822
 20
-4.599190009462248
 30
0.0
 11
16.075525633287668
 21
-6.6484767028537313
 31
0.0
  0
SOLID
  5
122
100
AcDbEntity
  8
Dimension
370
              -2
390
0
 62
               0
100
AcDbTrace
 10
10.300102419952822
 20
-4.599190009462248
 30
0.0
 11
10.845718153507949
 21
-4.6469252007897026
 31
0.0
 12
10.748751910252317
 22
-4.9133377645838978
 32
0.0
 13
10.748751910252317
 23
-4.9133377645838978
 33
0.0
  0
LINE
  5
123
100
AcDbEntity
  8
Dimension
370
              -2
390
0
  6
Continuous
 62
               0
100
AcDbLine
 10
16.075525633287668
 20
-6.6484767028537313
 30
0.0
 11
17.57552263526717
 21
-6.6484767028537313
 31
0.0
  0
WIPEOUT
  5
124
100
AcDbEntity
  8
Dimension
370
              -2
390
0
  6
Continuous
 62
               0
 92
        0
100
AcDbWipeout
 90
        0
 10
15.649362010975009
 20
-7.2570147861870646
 30
0.0
 11
4.9741509887907238
 21
0.0
 31
0.0
 12
0.0
 22
4.9741509887907238
 32
0.0
 13
1.0
 23
1.0
340
0
 70
               7
280
               1
281
              50
282
              50
283
               0
360
0
 71
               2
 91
        5
 14
-0.5
 24
0.5
 14
0.5
 24
0.5
 14
0.5
 24
0.2553191483847807
 14
-0.5
 24
0.2553191483847807
 14
-0.5
 24
0.5
  0
MTEXT
  5
125
100
AcDbEntity
  8
Dimension
390
0
 62
               0
100
AcDbMText
 10
15.649362010975009
 20
-6.2345136663953982
 30
0.0
 40
0.7579186197916666
 41
0.0
 71
               1
 72
               1
  1
Ø 1.61mm
  7
Helvetica
 73
               1
 44
0.9673603504928806
  0
WIPEOUT
  5
126
100
AcDbEntity
  8
Dimension
370
              -2
390
0
  6
Continuous
 62
               0
 92
        0
100
AcDbWipeout
 90
        0
 10
20.62351299976573
 20
-6.6947785361870649
 30
0.0
 11
1.2170794999999996
 21
0.0
 31
0.0
 12
0.0
 22
1.2170794999999996
 32
0.0
 13
1.0
 23
1.0
340
0
 70
               7
280
               1
281
              50
282
              50
283
               0
360
0
 71
               2
 91
        5
 14
-0.5
 24
0.5
 14
0.0043478278911346
 24
0.5
 14
0.0043478278911346
 24
-0.5
 14
-0.5
 24
-0.5
 14
-0.5
 24
0.5
  0
MTEXT
  5
127
100
AcDbEntity
  8
Dimension
390
0
 62
               0
100
AcDbMText
 10
20.930428700863644
 20
-5.6722774163953984
 30
0.0
 40
0.7579186197916666
 41
0.0
 71
               2
 72
               1
  1
+
  7
Helvetica
 73
               1
 44
0.9673603504928806
  0
WIPEOUT
  5
128
100
AcDbEntity
  8
Dimension
370
              -2
390
0
  6
Continuous
 62
               0
 92
        0
100
AcDbWipeout
 90
        0
 10
20.755804245888516
 20
-7.8192543695203982
 30
0.0
 11
1.2170794999999996
 21
0.0
 31
0.0
 12
0.0
 22
1.2170794999999996
 32
0.0
 13
1.0
 23
1.0
340
0
 70
               7
280
               1
281
              50
282
              50
283
               0
360
0
 71
               2
 91
        5
 14
-0.5
 24
0.5
 14
-0.2130434700853519
 24
0.5
 14
-0.2130434700853519
 24
-0.5
 14
-0.5
 24
-0.5
 14
-0.5
 24
0.5
  0
MTEXT
  5
129
100
AcDbEntity
  8
Dimension
390
0
 62
               0
100
AcDbMText
 10
20.930428700863644
 20
-6.7967532497287317
 30
0.0
 40
0.7579186197916666
 41
0.0
 71
               2
 72
               1
  1
-
  7
Helvetica
 73
               1
 44
0.9673603504928806
  0
WIPEOUT
  5
12A
100
AcDbEntity
  8
Dimension
370
              -2
390
0
  6
Continuous
 62
               0
 92
        0
100
AcDbWipeout
 90
        0
 10
21.237344401961558
 20
-6.6947785361870649
 30
0.0
 11
3.8523212485843246
 21
0.0
 31
0.0
 12
0.0
 22
3.8523212485843246
 32
0.0
 13
1.0
 23
1.0
340
0
 70
               7
280
               1
281
              50
282
              50
283
               0
360
0
 71
               2
 91
        5
 14
-0.5
 24
0.5
 14
0.5
 24
0.5
 14
0.5
 24
0.1840659380504002
 14
-0.5
 24
0.1840659380504002
 14
-0.5
 24
0.5
  0
MTEXT
  5
12B
100
AcDbEntity
  8
Dimension
390
0
 62
               0
100
AcDbMText
 10
21.237344401961558
 20
-5.6722774163953984
 30
0.0
 40
0.7579186197916666
 41
0.0
 71
               1
 72
               1
  1
0.05mm
  7
Helvetica
 73
               1
 44
0.9673603504928806
  0
WIPEOUT
  5
12C
100
AcDbEntity
  8
Dimension
370
              -2
390
0
  6
Continuous
 62
               0
 92
        0
100
AcDbWipeout
 90
        0
 10
21.237344401961558
 20
-7.8192543695203982
 30
0.0
 11
3.8523212485843246
 21
0.0
 31
0.0
 12
0.0
 22
3.8523212485843246
 32
0.0
 13
1.0
 23
1.0
340
0
 70
               7
280
               1
281
              50
282
              50
283
               0
360
0
 71
               2
 91
        5
 14
-0.5
 24
0.5
 14
0.5
 24
0.5
 14
0.5
 24
0.1840659380504002
 14
-0.5
 24
0.1840659380504002
 14
-0.5
 24
0.5
  0
MTEXT
  5
12D
100
AcDbEntity
  8
Dimension
390
0
 62
               0
100
AcDbMText
 10
21.237344401961558
 20
-6.7967532497287317
 30
0.0
 40
0.7579186197916666
 41
0.0
 71
               1
 72
               1
  1
0.05mm
  7
Helvetica
 73
               1
 44
0.9673603504928806
  0
WIPEOUT
  5
12E
100
AcDbEntity
  8
Dimension
370
              -2
390
0
  6
Continuous
 62
               0
 92
        0
100
AcDbWipeout
 90
        0
 10
25.089665650545882
 20
-7.2570186195203981
 30
0.0
 11
2.1060832593176109
 21
0.0
 31
0.0
 12
0.0
 22
2.1060832593176109
 32
0.0
 13
1.0
 23
1.0
340
0
 70
               7
280
               1
281
              50
282
              50
283
               0
360
0
 71
               2
 91
        5
 14
-0.5
 24
0.5
 14
0.5
 24
0.5
 14
0.5
 24
-0.0778894675453992
 14
-0.5
 24
-0.0778894675453992
 14
-0.5
 24
0.5
  0
MTEXT
  5
12F
100
AcDbEntity
  8
Dimension
390
0
 62
               0
100
AcDbMText
 10
25.089665650545882
 20
-6.2345142792426209
 30
0.0
 40
0.7579210069444442
 41
0.0
 71
               1
 72
               1
  1
 (x4)
  7
Helvetica
 73
               1
 44
0.9673603504928806
  0
POINT
  5
130
100
AcDbEntity
  8
Defpoints
370
               0
390
0
 62
               0
100
AcDbPoint
 10
8.7827824199528237
 20
-4.0608100094622444
 30
0.0
  0
POINT
  5
131
100
AcDbEntity
  8
Defpoints
370
               0
390
0
 62
               0
100
AcDbPoint
 10
10.300102419952822
 20
-4.599190009462248
 30
0.0
  0
ENDBLK
  5
132
100
AcDbEntity
  8
Dimension
390
0
100
AcDbBlockEnd
  0
BLOCK
  5
133
100
AcDbEntity
  8
Dimension
390
0
100
AcDbBlockBegin
  2
*D19
 70
               1
 10
0.0
 20
0.0
 30
0.0
  3
*D19
  1

  0
LINE
  5
134
100
AcDbEntity
  8
Dimension
370
              -2
390
0
  6
Continuous
 62
               0
100
AcDbLine
 10
9.8777624199528162
 20
5.5951699905377552
 30
0.0
 11
14.608948465653967
 21
1.9399961638483707
 31
0.0
  0
SOLID
  5
135
100
AcDbEntity
  8
Dimension
370
              -2
390
0
 62
               0
100
AcDbTrace
 10
9.8777624199528162
 20
5.5951699905377552
 30
0.0
 11
10.381922833393658
 21
5.3811665917022964
 31
0.0
 12
10.207376446157321
 22
5.1577574039296135
 32
0.0
 13
10.207376446157321
 23
5.1577574039296135
 33
0.0
  0
LINE
  5
136
100
AcDbEntity
  8
Dimension
370
              -2
390
0
  6
Continuous
 62
               0
100
AcDbLine
 10
14.608948465653967
 20
1.9399961638483707
 30
0.0
 11
16.108945467633468
 21
1.9399961638483707
 31
0.0
  0
WIPEOUT
  5
137
100
AcDbEntity
  8
Dimension
370
              -2
390
0
  6
Continuous
 62
               0
 92
        0
100
AcDbWipeout
 90
        0
 10
13.886452465483675
 20
1.3314580805150376
 30
0.0
 11
4.974150988790722
 21
0.0
 31
0.0
 12
0.0
 22
4.974150988790722
 32
0.0
 13
1.0
 23
1.0
340
0
 70
               7
280
               1
281
              50
282
              50
283
               0
360
0
 71
               2
 91
        5
 14
-0.5
 24
0.5
 14
0.5
 24
0.5
 14
0.5
 24
0.2553191483847805
 14
-0.5
 24
0.2553191483847805
 14
-0.5
 24
0.5
  0
MTEXT
  5
138
100
AcDbEntity
  8
Dimension
390
0
 62
               0
100
AcDbMText
 10
13.886452465483675
 20
2.3539592003067042
 30
0.0
 40
0.7579186197916666
 41
0.0
 71
               1
 72
               1
  1
Ø 0.85mm
  7
Helvetica
 73
               1
 44
0.9673603504928806
  0
WIPEOUT
  5
139
100
AcDbEntity
  8
Dimension
370
              -2
390
0
  6
Continuous
 62
               0
 92
        0
100
AcDbWipeout
 90
        0
 10
18.860603454274397
 20
1.8936943305150373
 30
0.0
 11
1.2170794999999999
 21
0.0
 31
0.0
 12
0.0
 22
1.2170794999999999
 32
0.0
 13
1.0
 23
1.0
340
0
 70
               7
280
               1
281
              50
282
              50
283
               0
360
0
 71
               2
 91
        5
 14
-0.5
 24
0.5
 14
0.0043478278911345
 24
0.5
 14
0.0043478278911345
 24
-0.5
 14
-0.5
 24
-0.5
 14
-0.5
 24
0.5
  0
MTEXT
  5
13A
100
AcDbEntity
  8
Dimension
390
0
 62
               0
100
AcDbMText
 10
19.167519155372311
 20
2.916195450306704
 30
0.0
 40
0.7579186197916666
 41
0.0
 71
               2
 72
               1
  1
+
  7
Helvetica
 73
               1
 44
0.9673603504928806
  0
WIPEOUT
  5
13B
100
AcDbEntity
  8
Dimension
370
              -2
390
0
  6
Continuous
 62
               0
 92
        0
100
AcDbWipeout
 90
        0
 10
18.992894700397184
 20
0.7692184971817042
 30
0.0
 11
1.2170794999999999
 21
0.0
 31
0.0
 12
0.0
 22
1.2170794999999999
 32
0.0
 13
1.0
 23
1.0
340
0
 70
               7
280
               1
281
              50
282
              50
283
               0
360
0
 71
               2
 91
        5
 14
-0.5
 24
0.5
 14
-0.2130434700853519
 24
0.5
 14
-0.2130434700853519
 24
-0.5
 14
-0.5
 24
-0.5
 14
-0.5
 24
0.5
  0
MTEXT
  5
13C
100
AcDbEntity
  8
Dimension
390
0
 62
               0
100
AcDbMText
 10
19.167519155372311
 20
1.7917196169733707
 30
0.0
 40
0.7579186197916666
 41
0.0
 71
               2
 72
               1
  1
-
  7
Helvetica
 73
               1
 44
0.9673603504928806
  0
WIPEOUT
  5
13D
100
AcDbEntity
  8
Dimension
370
              -2
390
0
  6
Continuous
 62
               0
 92
        0
100
AcDbWipeout
 90
        0
 10
19.474434856470225
 20
1.8936943305150373
 30
0.0
 11
4.4449860042995866
 21
0.0
 31
0.0
 12
0.0
 22
4.4449860042995866
 32
0.0
 13
1.0
 23
1.0
340
0
 70
               7
280
               1
281
              50
282
              50
283
               0
360
0
 71
               2
 91
        5
 14
-0.5
 24
0.5
 14
0.5
 24
0.5
 14
0.5
 24
0.2261904764553292
 14
-0.5
 24
0.2261904764553292
 14
-0.5
 24
0.5
  0
MTEXT
  5
13E
100
AcDbEntity
  8
Dimension
390
0
 62
               0
100
AcDbMText
 10
19.474434856470225
 20
2.916195450306704
 30
0.0
 40
0.7579186197916666
 41
0.0
 71
               1
 72
               1
  1
0.025mm
  7
Helvetica
 73
               1
 44
0.9673603504928806
  0
WIPEOUT
  5
13F
100
AcDbEntity
  8
Dimension
370
              -2
390
0
  6
Continuous
 62
               0
 92
        0
100
AcDbWipeout
 90
        0
 10
19.474434856470225
 20
0.7692184971817042
 30
0.0
 11
4.4449860042995866
 21
0.0
 31
0.0
 12
0.0
 22
4.4449860042995866
 32
0.0
 13
1.0
 23
1.0
340
0
 70
               7
280
               1
281
              50
282
              50
283
               0
360
0
 71
               2
 91
        5
 14
-0.5
 24
0.5
 14
0.5
 24
0.5
 14
0.5
 24
0.2261904764553292
 14
-0.5
 24
0.2261904764553292
 14
-0.5
 24
0.5
  0
MTEXT
  5
140
100
AcDbEntity
  8
Dimension
390
0
 62
               0
100
AcDbMText
 10
19.474434856470225
 20
1.7917196169733707
 30
0.0
 40
0.7579186197916666
 41
0.0
 71
               1
 72
               1
  1
0.025mm
  7
Helvetica
 73
               1
 44
0.9673603504928806
  0
WIPEOUT
  5
141
100
AcDbEntity
  8
Dimension
370
              -2
390
0
  6
Continuous
 62
               0
 92
        0
100
AcDbWipeout
 90
        0
 10
23.919420860769812
 20
1.3314542471817046
 30
0.0
 11
2.1060832593176109
 21
0.0
 31
0.0
 12
0.0
 22
2.1060832593176109
 32
0.0
 13
1.0
 23
1.0
340
0
 70
               7
280
               1
281
              50
282
              50
283
               0
360
0
 71
               2
 91
        5
 14
-0.5
 24
0.5
 14
0.5
 24
0.5
 14
0.5
 24
-0.077889467545399
 14
-0.5
 24
-0.077889467545399
 14
-0.5
 24
0.5
  0
MTEXT
  5
142
100
AcDbEntity
  8
Dimension
390
0
 62
               0
100
AcDbMText
 10
23.919420860769812
 20
2.3539585874594819
 30
0.0
 40
0.7579210069444442
 41
0.0
 71
               1
 72
               1
  1
 (x2)
  7
Helvetica
 73
               1
 44
0.9673603504928806
  0
POINT
  5
143
100
AcDbEntity
  8
Defpoints
370
               0
390
0
 62
               0
100
AcDbPoint
 10
9.2051224199528292
 20
6.114829990537757
 30
0.0
  0
POINT
  5
144
100
AcDbEntity
  8
Defpoints
370
               0
390
0
 62
               0
100
AcDbPoint
 10
9.8777624199528162
 20
5.5951699905377552
 30
0.0
  0
ENDBLK
  5
145
100
AcDbEntity
  8
Dimension
390
0
100
AcDbBlockEnd
  0
ENDSEC
  0
SECTION
  2
ENTITIES
  0
WIPEOUT
  5
146
100
AcDbEntity
  8
None
370
               9
390
0
  6
STYLE_11
 62
               7
 92
        0
100
AcDbWipeout
 90
        0
 10
-4.4335575800471787
 20
-5.5800000094622391
 30
0.0
 11
15.224999999999994
 21
0.0
 31
0.0
 12
0.0
 22
15.224999999999994
 32
0.0
 13
1.0
 23
1.0
340
0
 70
               7
280
               1
281
              50
282
              50
283
               0
360
0
 71
               2
 91
        5
 14
-0.5
 24
-0.5
 14
0.5
 24
-0.5
 14
0.5
 24
0.5
 14
-0.5
 24
0.5
 14
-0.5
 24
-0.5
  0
POLYLINE
  5
147
100
AcDbEntity
  8
None
370
               9
390
0
  6
STYLE_11
 62
               7
100
AcDb2dPolyline
 66
               1
 10
0.0
 20
0.0
 30
0.0
 70
               1
 75
               5
  0
VERTEX
  5
148
100
AcDbEntity
  8
None
370
               9
390
0
  6
STYLE_11
 62
               7
100
AcDbVertex
100
AcDb2dVertex
 10
-4.4335575800471787
 20
9.6449999905377553
 30
0.0
  0
VERTEX
  5
149
100
AcDbEntity
  8
None
370
               9
390
0
  6
STYLE_11
 62
               7
100
AcDbVertex
100
AcDb2dVertex
 10
10.791442419952816
 20
9.6449999905377553
 30
0.0
  0
VERTEX
  5
14A
100
AcDbEntity
  8
None
370
               9
390
0
  6
STYLE_11
 62
               7
100
AcDbVertex
100
AcDb2dVertex
 10
10.791442419952816
 20
-5.5800000094622391
 30
0.0
  0
VERTEX
  5
14B
100
AcDbEntity
  8
None
370
               9
390
0
  6
STYLE_11
 62
               7
100
AcDbVertex
100
AcDb2dVertex
 10
-4.4335575800471787
 20
-5.5800000094622391
 30
0.0
  0
SEQEND
  5
14C
100
AcDbEntity
  8
None
370
               9
390
0
  6
STYLE_11
 62
               7
  0
CIRCLE
  5
14D
100
AcDbEntity
  8
None
370
               9
390
0
  6
Continuous
 62
               7
100
AcDbCircle
 10
-3.1835575800471787
 20
8.3949999905377553
 30
0.0
 40
0.8050000000000068
  0
CIRCLE
  5
14E
100
AcDbEntity
  8
None
370
               9
390
0
  6
Continuous
 62
               7
100
AcDbCircle
 10
9.5414424199528156
 20
5.854999990537749
 30
0.0
 40
0.4250000000000114
  0
CIRCLE
  5
14F
100
AcDbEntity
  8
None
370
               9
390
0
  6
Continuous
 62
               7
100
AcDbCircle
 10
9.5414424199528156
 20
8.3949999905377553
 30
0.0
 40
0.8049999999999926
  0
CIRCLE
  5
150
100
AcDbEntity
  8
None
370
               9
390
0
  6
Continuous
 62
               7
100
AcDbCircle
 10
9.5414424199528156
 20
-4.3300000094622391
 30
0.0
 40
0.8049999999999926
  0
CIRCLE
  5
151
100
AcDbEntity
  8
None
370
               9
390
0
  6
Continuous
 62
               7
100
AcDbCircle
 10
-3.1835575800471787
 20
0.7499999905377592
 30
0.0
 40
0.4250000000000114
  0
CIRCLE
  5
152
100
AcDbEntity
  8
None
370
               9
390
0
  6
Continuous
 62
               7
100
AcDbCircle
 10
-3.1835575800471787
 20
-4.3300000094622391
 30
0.0
 40
0.8050000000000068
  0
CIRCLE
  5
153
102
{ACAD_REACTORS
330
154
102
}
100
AcDbEntity
  8
None
370
               5
390
0
  6
Continuous
 62
               7
100
AcDbCircle
 10
-1.0585575800471787
 20
7.9699999905377581
 30
0.0
 40
0.2124400000000009
  0
HATCH
  5
154
100
AcDbEntity
  8
None
370
               0
390
0
  6
Continuous
 62
               7
100
AcDbHatch
 10
0.0
 20
0.0
 30
0.0
210
0.0
220
0.0
230
1.0
  2
SOLID
 70
               1
 71
               1
 91
        1
 92
        1
 93
        1
 72
               2
 10
-1.0585575800471787
 20
7.9699999905377581
 40
0.2124400000000009
 50
0.0
 51
360.0
 73
               0
 97
        1
330
153
 75
               0
 76
               1
 98
        1
 10
0.0
 20
0.0
  0
DIMENSION
  5
155
100
AcDbEntity
  8
Dimension
370
               5
390
0
  6
Continuous
 62
               1
100
AcDbDimension
  2
*D3
 10
-25.941057580047175
 20
9.6449999905377553
 30
0.0
 11
-25.941057580047175
 21
2.1400618649274064
 31
0.0
 70
             128
 71
               5
 72
               1
 41
1.0
 42
0.0
  3
IE Standard
100
AcDbAlignedDimension
 13
-4.4335575800471787
 23
-5.5800000094622391
 33
0.0
 14
-4.4335575800471787
 24
9.6449999905377553
 34
0.0
 50
90.0
100
AcDbRotatedDimension
1001
ACAD
1000
DSTYLE
1002
{
1070
             271
1070
               3
1070
             340
1005
35
1070
              71
1070
               1
1070
              47
1040
0.125
1070
              48
1040
0.125
1070
               3
1000
<>mm sqr.
1070
             147
1040
0.09921875
1002
}
  0
WIPEOUT
  5
156
100
AcDbEntity
  8
None
370
               5
390
0
  6
Continuous
 62
               1
 92
        0
100
AcDbWipeout
 90
        0
 10
-28.669437580047173
 20
0.3807304905377549
 30
0.0
 11
5.4186497237947258
 21
0.0
 31
0.0
 12
0.0
 22
5.4186497237947258
 32
0.0
 13
1.0
 23
1.0
340
0
 70
               7
280
               1
281
              50
282
              50
283
               0
360
0
 71
               2
 91
        5
 14
-0.5
 24
0.5
 14
0.5
 24
0.5
 14
0.5
 24
0.2753906301314363
 14
-0.5
 24
0.2753906301314363
 14
-0.5
 24
0.5
  0
MTEXT
  5
157
100
AcDbEntity
  8
None
390
0
 62
               1
100
AcDbMText
 10
-28.669437580047173
 20
1.4032316103294213
 30
0.0
 40
0.7579186197916666
 41
0.0
 71
               1
 72
               1
  1
{\C192;\lSocket size}
  7
New Century Schlbk
 73
               1
 44
0.9673603504928806
  0
INSERT
  5
158
100
AcDbEntity
  8
Dimension
390
0
 62
               7
100
AcDbBlockReference
  2
Group
 10
0.0
 20
0.0
 30
0.0
  0
WIPEOUT
  5
159
100
AcDbEntity
  8
None
370
               5
390
0
  6
Continuous
 62
               1
 92
        0
100
AcDbWipeout
 90
        0
 10
-22.236667580047175
 20
18.10748049053775
 30
0.0
 11
7.8422256151835104
 21
0.0
 31
0.0
 12
0.0
 22
7.8422256151835104
 32
0.0
 13
1.0
 23
1.0
340
0
 70
               7
280
               1
281
              50
282
              50
283
               0
360
0
 71
               2
 91
        5
 14
-0.5
 24
0.5
 14
0.5
 24
0.5
 14
0.5
 24
0.3448043247259317
 14
-0.5
 24
0.3448043247259317
 14
-0.5
 24
0.5
  0
MTEXT
  5
15A
100
AcDbEntity
  8
None
390
0
 62
               1
100
AcDbMText
 10
-22.236667580047175
 20
19.129981610329416
 30
0.0
 40
0.7579186197916666
 41
0.0
 71
               1
 72
               1
  1
{\C192;\lOrientation Mark}
  7
New Century Schlbk
 73
               1
 44
0.9673603504928806
  0
WIPEOUT
  5
15B
100
AcDbEntity
  8
None
370
               5
390
0
  6
Continuous
 62
               1
 92
        0
100
AcDbWipeout
 90
        0
 10
16.992322419952828
 20
-8.9128495094622515
 30
0.0
 11
12.117878447638617
 21
0.0
 31
0.0
 12
0.0
 22
12.117878447638617
 32
0.0
 13
1.0
 23
1.0
340
0
 70
               7
280
               1
281
              50
282
              50
283
               0
360
0
 71
               2
 91
        5
 14
-0.5
 24
0.5
 14
0.5
 24
0.5
 14
0.5
 24
0.3995633183433054
 14
-0.5
 24
0.3995633183433054
 14
-0.5
 24
0.5
  0
MTEXT
  5
15C
100
AcDbEntity
  8
None
390
0
 62
               1
100
AcDbMText
 10
16.992322419952828
 20
-7.8903483896705842
 30
0.0
 40
0.7579186197916666
 41
0.0
 71
               1
 72
               1
  1
{\C192;\lNon plated mounting hole}
  7
Arial
 73
               1
 44
0.9673603504928806
  0
WIPEOUT
  5
15D
100
AcDbEntity
  8
None
370
               5
390
0
  6
Continuous
 62
               1
 92
        0
100
AcDbWipeout
 90
        0
 10
15.428372419952822
 20
-0.3646595094622456
 30
0.0
 11
12.350711727142333
 21
0.0
 31
0.0
 12
0.0
 22
12.350711727142333
 32
0.0
 13
1.0
 23
1.0
340
0
 70
               7
280
               1
281
              50
282
              50
283
               0
360
0
 71
               2
 91
        5
 14
-0.5
 24
0.5
 14
0.5
 24
0.5
 14
0.5
 24
0.4014567316533422
 14
-0.5
 24
0.4014567316533422
 14
-0.5
 24
0.5
  0
MTEXT
  5
15E
100
AcDbEntity
  8
None
390
0
 62
               1
100
AcDbMText
 10
15.428372419952822
 20
0.6578416103294209
 30
0.0
 40
0.7579186197916666
 41
0.0
 71
               1
 72
               1
  1
{\C192;\lNon plated alignment hole}
  7
Arial
 73
               1
 44
0.9673603504928806
  0
DIMENSION
  5
15F
100
AcDbEntity
  8
Dimension
370
               5
390
0
  6
Continuous
 62
               1
100
AcDbDimension
  2
*D5
 10
-3.1835575800471787
 20
15.828539990537754
 30
0.0
 11
1.7619524199528183
 21
15.828539990537754
 31
0.0
 70
             128
 71
               5
 72
               1
 41
1.0
 42
0.0
  3
IE Standard
100
AcDbAlignedDimension
 13
-0.7110575800471821
 23
7.2124999905377507
 33
0.0
 14
-3.1835575800471787
 24
8.3949999905377553
 34
0.0
100
AcDbRotatedDimension
1001
ACAD
1000
DSTYLE
1002
{
1070
             271
1070
               2
1070
             340
1005
35
1070
               3
1000
<>mm*
1070
             174
1070
               0
1070
             147
1040
0.09921875
1002
}
  0
DIMENSION
  5
160
100
AcDbEntity
  8
Dimension
370
               5
390
0
  6
Continuous
 62
               1
100
AcDbDimension
  2
*D6
 10
-6.6728575800471814
 20
7.2124999905377507
 30
0.0
 11
-6.6728575800471814
 21
7.8037680340558193
 31
0.0
 70
             128
 71
               5
 72
               1
 41
1.0
 42
0.0
  3
IE Standard
100
AcDbAlignedDimension
 13
-3.1835575800471787
 23
8.3949999905377553
 33
0.0
 14
-0.7110575800471821
 24
7.2124999905377507
 34
0.0
 50
90.0
100
AcDbRotatedDimension
1001
ACAD
1000
DSTYLE
1002
{
1070
             271
1070
               2
1070
             340
1005
35
1070
             147
1040
0.09921875
1002
}
  0
DIMENSION
  5
161
100
AcDbEntity
  8
Dimension
370
               5
390
0
  6
Continuous
 62
               1
100
AcDbDimension
  2
*D7
 10
5.423942419952823
 20
12.789999990537751
 30
0.0
 11
7.9589424199528231
 21
12.789999990537751
 31
0.0
 70
             128
 71
               5
 72
               1
 41
1.0
 42
0.0
  3
IE Standard
100
AcDbAlignedDimension
 13
5.923942419952823
 23
6.7124999905377507
 33
0.0
 14
5.423942419952823
 24
6.7124999905377507
 34
0.0
100
AcDbRotatedDimension
1001
ACAD
1000
DSTYLE
1002
{
1070
             271
1070
               2
1070
             340
1005
35
1070
               3
1000
<>mm typ.
1070
             174
1070
               0
1070
             147
1040
0.09921875
1002
}
  0
DIMENSION
  5
162
100
AcDbEntity
  8
Dimension
370
               5
390
0
  6
Continuous
 62
               1
100
AcDbDimension
  2
*D8
 10
-7.6097175800471781
 20
-4.3300000094622391
 30
0.0
 11
-7.6097175800471781
 21
-0.8299810885638026
 31
0.0
 70
             128
 71
               5
 72
               1
 41
1.0
 42
0.0
  3
IE Standard
100
AcDbAlignedDimension
 13
-3.1835575800471787
 23
0.7499999905377592
 33
0.0
 14
-3.1835575800471787
 24
-4.3300000094622391
 34
0.0
 50
90.0
100
AcDbRotatedDimension
1001
ACAD
1000
DSTYLE
1002
{
1070
             271
1070
               2
1070
             340
1005
35
1070
             147
1040
0.09921875
1002
}
  0
DIMENSION
  5
163
100
AcDbEntity
  8
Dimension
370
               5
390
0
  6
Continuous
 62
               1
100
AcDbDimension
  2
*D9
 10
14.738332419952815
 20
5.854999990537749
 30
0.0
 11
14.738332419952815
 21
7.1249999905377521
 31
0.0
 70
             128
 71
               5
 72
               1
 41
1.0
 42
0.0
  3
IE Standard
100
AcDbAlignedDimension
 13
9.5414424199528156
 23
8.3949999905377553
 33
0.0
 14
9.5414424199528156
 24
5.854999990537749
 34
0.0
 50
90.0
100
AcDbRotatedDimension
1001
ACAD
1000
DSTYLE
1002
{
1070
             271
1070
               2
1070
             340
1005
35
1070
             147
1040
0.09921875
1002
}
  0
DIMENSION
  5
164
100
AcDbEntity
  8
Dimension
370
               5
390
0
  6
Continuous
 62
               1
100
AcDbDimension
  2
*D10
 10
-3.1835575800471787
 20
-15.060000009462238
 30
0.0
 11
3.1589431065983264
 21
-15.060000009462238
 31
0.0
 70
             128
 71
               5
 72
               1
 41
1.0
 42
0.0
  3
IE Standard
100
AcDbAlignedDimension
 13
9.5414424199528156
 23
-4.3300000094622391
 33
0.0
 14
-3.1835575800471787
 24
-4.3300000094622391
 34
0.0
100
AcDbRotatedDimension
1001
ACAD
1000
DSTYLE
1002
{
1070
             271
1070
               3
1070
             340
1005
35
1070
              71
1070
               1
1070
              47
1040
0.125
1070
              48
1040
0.125
1070
               3
1000
<>mm (x4)
1070
             147
1040
0.09921875
1002
}
  0
DIMENSION
  5
165
100
AcDbEntity
  8
Dimension
370
               5
390
0
  6
Continuous
 62
               1
100
AcDbDimension
  2
*D11
 10
7.6639424199528179
 20
0.1724999905377587
 30
0.0
 11
15.919404582220116
 21
-1.8397662274203217
 31
0.0
 70
               3
 71
               5
 72
               1
 41
1.0
 42
0.0
  1
0.94 x 0.28 mm 
  3
IE Standard
100
AcDbDiametricDimension
 15
8.6039424199528156
 25
-0.1075000094622425
 35
0.0
 40
6.0679799999999995
1001
ACAD
1000
DSTYLE
1002
{
1070
             271
1070
               4
1070
             172
1070
               0
1070
             289
1070
               0
1070
             342
1005
4A
1070
             340
1005
35
1070
              75
1070
               1
1070
              76
1070
               1
1070
             174
1070
               0
1070
             147
1040
0.09921875
1002
}
  0
DIMENSION
  5
166
100
AcDbEntity
  8
Dimension
370
               5
390
0
  6
Continuous
 62
               1
100
AcDbDimension
  2
*D12
 10
-1.7510575800471742
 20
-11.460000009462242
 30
0.0
 11
3.6336573857731382
 21
-11.460000009462242
 31
0.0
 70
             128
 71
               5
 72
               1
 41
1.0
 42
0.0
  3
IE Standard
100
AcDbAlignedDimension
 13
8.6089424199528253
 23
-2.1075000094622425
 33
0.0
 14
-1.7510575800471742
 24
-2.1075000094622425
 34
0.0
100
AcDbRotatedDimension
1001
ACAD
1000
DSTYLE
1002
{
1070
             271
1070
               2
1070
             340
1005
35
1070
             147
1040
0.09921875
1002
}
  0
DIMENSION
  5
167
100
AcDbEntity
  8
Dimension
370
               5
390
0
  6
Continuous
 62
               1
100
AcDbDimension
  2
*D13
 10
-16.141057580047182
 20
7.2124999905377507
 30
0.0
 11
-16.141057580047182
 21
1.5427648831158765
 31
0.0
 70
             128
 71
               5
 72
               1
 41
1.0
 42
0.0
  3
IE Standard
100
AcDbAlignedDimension
 13
-0.7110575800471821
 23
-3.1475000094622487
 33
0.0
 14
-0.7110575800471821
 24
7.2124999905377507
 34
0.0
 50
90.0
100
AcDbRotatedDimension
1001
ACAD
1000
DSTYLE
1002
{
1070
             271
1070
               2
1070
             340
1005
35
1070
             147
1040
0.09921875
1002
}
  0
DIMENSION
  5
168
100
AcDbEntity
  8
Dimension
370
               5
390
0
  6
Continuous
 62
               1
100
AcDbDimension
  2
*D14
 10
-10.691057580047174
 20
6.1724999905377587
 30
0.0
 11
-10.691057580047174
 21
1.8704022122174457
 31
0.0
 70
             128
 71
               5
 72
               1
 41
1.0
 42
0.0
  3
IE Standard
100
AcDbAlignedDimension
 13
-1.7510575800471742
 23
-2.1075000094622425
 33
0.0
 14
-1.7510575800471742
 24
6.1724999905377587
 34
0.0
 50
90.0
100
AcDbRotatedDimension
1001
ACAD
1000
DSTYLE
1002
{
1070
             271
1070
               2
1070
             340
1005
35
1070
             147
1040
0.09921875
1002
}
  0
DIMENSION
  5
169
100
AcDbEntity
  8
Dimension
370
               5
390
0
  6
Continuous
 62
               1
100
AcDbDimension
  2
*D15
 10
-0.7110575800471821
 20
-8.6678400094622479
 30
0.0
 11
3.3955879277653187
 21
-8.6678400094622479
 31
0.0
 70
             128
 71
               5
 72
               1
 41
1.0
 42
0.0
  3
IE Standard
100
AcDbAlignedDimension
 13
7.568942419952819
 23
-3.1475000094622487
 33
0.0
 14
-0.7110575800471821
 24
-3.1475000094622487
 34
0.0
100
AcDbRotatedDimension
1001
ACAD
1000
DSTYLE
1002
{
1070
             271
1070
               2
1070
             340
1005
35
1070
             147
1040
0.09921875
1002
}
  0
DIMENSION
  5
16A
100
AcDbEntity
  8
Dimension
370
               5
390
0
  6
Continuous
 62
               1
100
AcDbDimension
  2
*D16
 10
-3.1835575800471787
 20
18.189999990537757
 30
0.0
 11
-1.191057580047179
 21
18.189999990537757
 31
0.0
 70
             128
 71
               5
 72
               1
 41
1.0
 42
0.0
  3
IE Standard
100
AcDbAlignedDimension
 13
-4.4335575800471787
 23
9.6449999905377553
 33
0.0
 14
-3.1835575800471787
 24
8.3949999905377553
 34
0.0
100
AcDbRotatedDimension
1001
ACAD
1000
DSTYLE
1002
{
1070
             271
1070
               3
1070
             340
1005
35
1070
              71
1070
               1
1070
              47
1040
0.125
1070
              48
1040
0.125
1070
               3
1000
<>mm (x4)
1070
             174
1070
               0
1070
             147
1040
0.09921875
1002
}
  0
DIMENSION
  5
16B
100
AcDbEntity
  8
Dimension
370
               5
390
0
  6
Continuous
 62
               1
100
AcDbDimension
  2
*D17
 10
-14.791057580047179
 20
9.6449999905377553
 30
0.0
 11
-14.791057580047179
 21
12.439999990537755
 31
0.0
 70
             128
 71
               5
 72
               1
 41
1.0
 42
0.0
  3
IE Standard
100
AcDbAlignedDimension
 13
-3.1835575800471787
 23
8.3949999905377553
 33
0.0
 14
-4.4335575800471787
 24
9.6449999905377553
 34
0.0
 50
90.0
100
AcDbRotatedDimension
1001
ACAD
1000
DSTYLE
1002
{
1070
             271
1070
               2
1070
             340
1005
35
1070
              71
1070
               1
1070
              47
1040
0.125
1070
              48
1040
0.125
1070
               3
1000
<>mm (x4)
1070
             174
1070
               0
1070
             147
1040
0.09921875
1002
}
  0
LINE
  5
16C
100
AcDbEntity
  8
None
370
               5
390
0
  6
Continuous
 62
               1
100
AcDbLine
 10
-14.394447580047171
 20
18.716019990537745
 30
0.0
 11
-11.891057580047175
 21
18.716019990537745
 31
0.0
  0
LINE
  5
16D
100
AcDbEntity
  8
None
370
               5
390
0
  6
Continuous
 62
               1
100
AcDbLine
 10
-11.891057580047175
 20
18.716019990537745
 30
0.0
 11
-1.0585575800471787
 21
8.1824399905377589
 31
0.0
  0
SOLID
  5
16E
100
AcDbEntity
  8
None
370
               5
390
0
 62
               1
100
AcDbTrace
 10
-1.0585575800471787
 20
8.1824399905377589
 30
0.0
 11
-1.5141152167340819
 21
8.4454563147103325
 31
0.0
 12
-1.3215739042197518
 22
8.6379976272246619
 32
0.0
 13
-1.3215739042197518
 23
8.6379976272246619
 33
0.0
  0
DIMENSION
  5
16F
100
AcDbEntity
  8
Dimension
370
               5
390
0
  6
Continuous
 62
               1
100
AcDbDimension
  2
*D18
 10
8.7827824199528237
 20
-4.0608100094622444
 30
0.0
 11
17.57553261526548
 21
-6.6484464106345316
 31
0.0
 70
               3
 71
               5
 72
               1
 41
1.0
 42
0.0
  3
IE Standard
100
AcDbDiametricDimension
 15
10.300102419952822
 25
-4.599190009462248
 35
0.0
 40
6.1282199999999998
1001
ACAD
1000
DSTYLE
1002
{
1070
             271
1070
               3
1070
             172
1070
               0
1070
             289
1070
               0
1070
             342
1005
4A
1070
             340
1005
35
1070
              75
1070
               1
1070
              76
1070
               1
1070
              71
1070
               1
1070
              47
1040
0.05
1070
              48
1040
0.05
1070
               3
1000
mm (x4)
1070
             174
1070
               0
1070
             147
1040
0.09921875
1002
}
  0
DIMENSION
  5
170
100
AcDbEntity
  8
Dimension
370
               5
390
0
  6
Continuous
 62
               1
100
AcDbDimension
  2
*D19
 10
9.2051224199528292
 20
6.114829990537757
 30
0.0
 11
16.108948448793207
 21
1.9400057277841496
 31
0.0
 70
               3
 71
               5
 72
               1
 41
1.0
 42
0.0
  3
IE Standard
100
AcDbDiametricDimension
 15
9.8777624199528162
 25
5.5951699905377552
 35
0.0
 40
5.9786599999999996
1001
ACAD
1000
DSTYLE
1002
{
1070
             271
1070
               3
1070
             172
1070
               0
1070
             289
1070
               0
1070
             342
1005
4A
1070
             340
1005
35
1070
              75
1070
               1
1070
              76
1070
               1
1070
              71
1070
               1
1070
              47
1040
0.025
1070
              48
1040
0.025
1070
               3
1000
mm (x2)
1070
             174
1070
               0
1070
             147
1040
0.09921875
1002
}
  0
WIPEOUT
  5
171
100
AcDbEntity
  8
None
370
               5
390
0
  6
Continuous
 62
               1
 92
        0
100
AcDbWipeout
 90
        0
 10
22.95894241995282
 20
-2.4270795094622484
 30
0.0
 11
4.7730684359868363
 21
0.0
 31
0.0
 12
0.0
 22
4.7730684359868363
 32
0.0
 13
1.0
 23
1.0
340
0
 70
               7
280
               1
281
              50
282
              50
283
               0
360
0
 71
               2
 91
        5
 14
-0.5
 24
0.5
 14
0.5
 24
0.5
 14
0.5
 24
0.2450110937392484
 14
-0.5
 24
0.2450110937392484
 14
-0.5
 24
0.5
  0
MTEXT
  5
172
100
AcDbEntity
  8
None
390
0
 62
               1
100
AcDbMText
 10
22.95894241995282
 20
-1.4045783896705821
 30
0.0
 40
0.7579186197916666
 41
0.0
 71
               1
 72
               1
  1
{\C192;\lpad (x 68)}
  7
Arial
 73
               1
 44
0.9673603504928806
  0
WIPEOUT
  5
173
100
AcDbEntity
  8
None
370
               5
390
0
  6
Continuous
 62
               7
 92
        0
100
AcDbWipeout
 90
        0
 10
1.2167924199528244
 20
-18.77999800946224
 30
0.0
 11
4.4567366732491394
 21
0.0
 31
0.0
 12
0.0
 22
4.4567366732491394
 32
0.0
 13
1.0
 23
1.0
340
0
 70
               7
280
               1
281
              50
282
              50
283
               0
360
0
 71
               2
 91
        5
 14
-0.5
 24
0.5
 14
0.5
 24
0.5
 14
0.5
 24
0.1965699122146891
 14
-0.5
 24
0.1965699122146891
 14
-0.5
 24
0.5
  0
MTEXT
  5
174
100
AcDbEntity
  8
None
390
0
 62
               7
100
AcDbMText
 10
1.2167924199528244
 20
-17.643887801128905
 30
0.0
 40
0.8421302083333332
 41
0.0
 71
               1
 72
               1
  1
MLF68A
  7
Arial
 73
               1
 44
0.9673603504928806
  0
SOLID
  5
175
100
AcDbEntity
  8
None
370
              15
390
0
  6
Continuous
 62
               7
100
AcDbTrace
 10
-0.7110575800471821
 20
-3.1475000094622487
 30
0.0
 11
-0.7110575800471821
 21
-2.207500009462251
 31
0.0
 12
-0.431057580047181
 22
-3.1475000094622487
 32
0.0
 13
-0.431057580047181
 23
-2.207500009462251
 33
0.0
  0
SOLID
  5
176
100
AcDbEntity
  8
None
370
              15
390
0
  6
Continuous
 62
               7
100
AcDbTrace
 10
-0.2110575800471821
 20
-3.1475000094622487
 30
0.0
 11
-0.2110575800471821
 21
-2.207500009462251
 31
0.0
 12
0.068942419952819
 22
-3.1475000094622487
 32
0.0
 13
0.068942419952819
 23
-2.207500009462251
 33
0.0
  0
SOLID
  5
177
100
AcDbEntity
  8
None
370
              15
390
0
  6
Continuous
 62
               7
100
AcDbTrace
 10
0.2889424199528179
 20
-3.1475000094622487
 30
0.0
 11
0.2889424199528179
 21
-2.207500009462251
 31
0.0
 12
0.568942419952819
 22
-3.1475000094622487
 32
0.0
 13
0.568942419952819
 23
-2.207500009462251
 33
0.0
  0
SOLID
  5
178
100
AcDbEntity
  8
None
370
              15
390
0
  6
Continuous
 62
               7
100
AcDbTrace
 10
0.7889424199528179
 20
-3.1475000094622487
 30
0.0
 11
0.7889424199528179
 21
-2.207500009462251
 31
0.0
 12
1.068942419952819
 22
-3.1475000094622487
 32
0.0
 13
1.068942419952819
 23
-2.207500009462251
 33
0.0
  0
SOLID
  5
179
100
AcDbEntity
  8
None
370
              15
390
0
  6
Continuous
 62
               7
100
AcDbTrace
 10
1.2889424199528179
 20
-3.1475000094622487
 30
0.0
 11
1.2889424199528179
 21
-2.207500009462251
 31
0.0
 12
1.568942419952819
 22
-3.1475000094622487
 32
0.0
 13
1.568942419952819
 23
-2.207500009462251
 33
0.0
  0
SOLID
  5
17A
100
AcDbEntity
  8
None
370
              15
390
0
  6
Continuous
 62
               7
100
AcDbTrace
 10
1.7889424199528179
 20
-3.1475000094622487
 30
0.0
 11
1.7889424199528179
 21
-2.207500009462251
 31
0.0
 12
2.068942419952819
 22
-3.1475000094622487
 32
0.0
 13
2.068942419952819
 23
-2.207500009462251
 33
0.0
  0
SOLID
  5
17B
100
AcDbEntity
  8
None
370
              15
390
0
  6
Continuous
 62
               7
100
AcDbTrace
 10
2.2889424199528179
 20
-3.1475000094622487
 30
0.0
 11
2.2889424199528179
 21
-2.207500009462251
 31
0.0
 12
2.568942419952819
 22
-3.1475000094622487
 32
0.0
 13
2.568942419952819
 23
-2.207500009462251
 33
0.0
  0
SOLID
  5
17C
100
AcDbEntity
  8
None
370
              15
390
0
  6
Continuous
 62
               7
100
AcDbTrace
 10
2.7889424199528179
 20
-3.1475000094622487
 30
0.0
 11
2.7889424199528179
 21
-2.207500009462251
 31
0.0
 12
3.068942419952819
 22
-3.1475000094622487
 32
0.0
 13
3.068942419952819
 23
-2.207500009462251
 33
0.0
  0
SOLID
  5
17D
100
AcDbEntity
  8
None
370
              15
390
0
  6
Continuous
 62
               7
100
AcDbTrace
 10
3.2889424199528179
 20
-3.1475000094622487
 30
0.0
 11
3.2889424199528179
 21
-2.207500009462251
 31
0.0
 12
3.568942419952819
 22
-3.1475000094622487
 32
0.0
 13
3.568942419952819
 23
-2.207500009462251
 33
0.0
  0
SOLID
  5
17E
100
AcDbEntity
  8
None
370
              15
390
0
  6
Continuous
 62
               7
100
AcDbTrace
 10
3.7889424199528179
 20
-3.1475000094622487
 30
0.0
 11
3.7889424199528179
 21
-2.207500009462251
 31
0.0
 12
4.068942419952819
 22
-3.1475000094622487
 32
0.0
 13
4.068942419952819
 23
-2.207500009462251
 33
0.0
  0
SOLID
  5
17F
100
AcDbEntity
  8
None
370
              15
390
0
  6
Continuous
 62
               7
100
AcDbTrace
 10
4.2889424199528179
 20
-3.1475000094622487
 30
0.0
 11
4.2889424199528179
 21
-2.207500009462251
 31
0.0
 12
4.568942419952819
 22
-3.1475000094622487
 32
0.0
 13
4.568942419952819
 23
-2.207500009462251
 33
0.0
  0
SOLID
  5
180
100
AcDbEntity
  8
None
370
              15
390
0
  6
Continuous
 62
               7
100
AcDbTrace
 10
4.7889424199528179
 20
-3.1475000094622487
 30
0.0
 11
4.7889424199528179
 21
-2.207500009462251
 31
0.0
 12
5.068942419952819
 22
-3.1475000094622487
 32
0.0
 13
5.068942419952819
 23
-2.207500009462251
 33
0.0
  0
SOLID
  5
181
100
AcDbEntity
  8
None
370
              15
390
0
  6
Continuous
 62
               7
100
AcDbTrace
 10
5.2889424199528179
 20
-3.1475000094622487
 30
0.0
 11
5.2889424199528179
 21
-2.207500009462251
 31
0.0
 12
5.568942419952819
 22
-3.1475000094622487
 32
0.0
 13
5.568942419952819
 23
-2.207500009462251
 33
0.0
  0
SOLID
  5
182
100
AcDbEntity
  8
None
370
              15
390
0
  6
Continuous
 62
               7
100
AcDbTrace
 10
5.7889424199528179
 20
-3.1475000094622487
 30
0.0
 11
5.7889424199528179
 21
-2.207500009462251
 31
0.0
 12
6.068942419952819
 22
-3.1475000094622487
 32
0.0
 13
6.068942419952819
 23
-2.207500009462251
 33
0.0
  0
SOLID
  5
183
100
AcDbEntity
  8
None
370
              15
390
0
  6
Continuous
 62
               7
100
AcDbTrace
 10
6.2889424199528179
 20
-3.1475000094622487
 30
0.0
 11
6.2889424199528179
 21
-2.207500009462251
 31
0.0
 12
6.568942419952819
 22
-3.1475000094622487
 32
0.0
 13
6.568942419952819
 23
-2.207500009462251
 33
0.0
  0
SOLID
  5
184
100
AcDbEntity
  8
None
370
              15
390
0
  6
Continuous
 62
               7
100
AcDbTrace
 10
6.7889424199528179
 20
-3.1475000094622487
 30
0.0
 11
6.7889424199528179
 21
-2.207500009462251
 31
0.0
 12
7.068942419952819
 22
-3.1475000094622487
 32
0.0
 13
7.068942419952819
 23
-2.207500009462251
 33
0.0
  0
SOLID
  5
185
100
AcDbEntity
  8
None
370
              15
390
0
  6
Continuous
 62
               7
100
AcDbTrace
 10
7.2889424199528179
 20
-3.1475000094622487
 30
0.0
 11
7.2889424199528179
 21
-2.207500009462251
 31
0.0
 12
7.568942419952819
 22
-3.1475000094622487
 32
0.0
 13
7.568942419952819
 23
-2.207500009462251
 33
0.0
  0
SOLID
  5
186
100
AcDbEntity
  8
None
370
              15
390
0
  6
Continuous
 62
               7
100
AcDbTrace
 10
-0.7110575800471821
 20
6.272499990537753
 30
0.0
 11
-0.7110575800471821
 21
7.2124999905377507
 31
0.0
 12
-0.431057580047181
 22
6.272499990537753
 32
0.0
 13
-0.431057580047181
 23
7.2124999905377507
 33
0.0
  0
SOLID
  5
187
100
AcDbEntity
  8
None
370
              15
390
0
  6
Continuous
 62
               7
100
AcDbTrace
 10
-0.2110575800471821
 20
6.272499990537753
 30
0.0
 11
-0.2110575800471821
 21
7.2124999905377507
 31
0.0
 12
0.068942419952819
 22
6.272499990537753
 32
0.0
 13
0.068942419952819
 23
7.2124999905377507
 33
0.0
  0
SOLID
  5
188
100
AcDbEntity
  8
None
370
              15
390
0
  6
Continuous
 62
               7
100
AcDbTrace
 10
0.2889424199528179
 20
6.272499990537753
 30
0.0
 11
0.2889424199528179
 21
7.2124999905377507
 31
0.0
 12
0.568942419952819
 22
6.272499990537753
 32
0.0
 13
0.568942419952819
 23
7.2124999905377507
 33
0.0
  0
SOLID
  5
189
100
AcDbEntity
  8
None
370
              15
390
0
  6
Continuous
 62
               7
100
AcDbTrace
 10
0.7889424199528179
 20
6.272499990537753
 30
0.0
 11
0.7889424199528179
 21
7.2124999905377507
 31
0.0
 12
1.068942419952819
 22
6.272499990537753
 32
0.0
 13
1.068942419952819
 23
7.2124999905377507
 33
0.0
  0
SOLID
  5
18A
100
AcDbEntity
  8
None
370
              15
390
0
  6
Continuous
 62
               7
100
AcDbTrace
 10
1.2889424199528179
 20
6.272499990537753
 30
0.0
 11
1.2889424199528179
 21
7.2124999905377507
 31
0.0
 12
1.568942419952819
 22
6.272499990537753
 32
0.0
 13
1.568942419952819
 23
7.2124999905377507
 33
0.0
  0
SOLID
  5
18B
100
AcDbEntity
  8
None
370
              15
390
0
  6
Continuous
 62
               7
100
AcDbTrace
 10
1.7889424199528179
 20
6.272499990537753
 30
0.0
 11
1.7889424199528179
 21
7.2124999905377507
 31
0.0
 12
2.068942419952819
 22
6.272499990537753
 32
0.0
 13
2.068942419952819
 23
7.2124999905377507
 33
0.0
  0
SOLID
  5
18C
100
AcDbEntity
  8
None
370
              15
390
0
  6
Continuous
 62
               7
100
AcDbTrace
 10
2.2889424199528179
 20
6.272499990537753
 30
0.0
 11
2.2889424199528179
 21
7.2124999905377507
 31
0.0
 12
2.568942419952819
 22
6.272499990537753
 32
0.0
 13
2.568942419952819
 23
7.2124999905377507
 33
0.0
  0
SOLID
  5
18D
100
AcDbEntity
  8
None
370
              15
390
0
  6
Continuous
 62
               7
100
AcDbTrace
 10
2.7889424199528179
 20
6.272499990537753
 30
0.0
 11
2.7889424199528179
 21
7.2124999905377507
 31
0.0
 12
3.068942419952819
 22
6.272499990537753
 32
0.0
 13
3.068942419952819
 23
7.2124999905377507
 33
0.0
  0
SOLID
  5
18E
100
AcDbEntity
  8
None
370
              15
390
0
  6
Continuous
 62
               7
100
AcDbTrace
 10
3.2889424199528179
 20
6.272499990537753
 30
0.0
 11
3.2889424199528179
 21
7.2124999905377507
 31
0.0
 12
3.568942419952819
 22
6.272499990537753
 32
0.0
 13
3.568942419952819
 23
7.2124999905377507
 33
0.0
  0
SOLID
  5
18F
100
AcDbEntity
  8
None
370
              15
390
0
  6
Continuous
 62
               7
100
AcDbTrace
 10
3.7889424199528179
 20
6.272499990537753
 30
0.0
 11
3.7889424199528179
 21
7.2124999905377507
 31
0.0
 12
4.068942419952819
 22
6.272499990537753
 32
0.0
 13
4.068942419952819
 23
7.2124999905377507
 33
0.0
  0
SOLID
  5
190
100
AcDbEntity
  8
None
370
              15
390
0
  6
Continuous
 62
               7
100
AcDbTrace
 10
4.2889424199528179
 20
6.272499990537753
 30
0.0
 11
4.2889424199528179
 21
7.2124999905377507
 31
0.0
 12
4.568942419952819
 22
6.272499990537753
 32
0.0
 13
4.568942419952819
 23
7.2124999905377507
 33
0.0
  0
SOLID
  5
191
100
AcDbEntity
  8
None
370
              15
390
0
  6
Continuous
 62
               7
100
AcDbTrace
 10
4.7889424199528179
 20
6.272499990537753
 30
0.0
 11
4.7889424199528179
 21
7.2124999905377507
 31
0.0
 12
5.068942419952819
 22
6.272499990537753
 32
0.0
 13
5.068942419952819
 23
7.2124999905377507
 33
0.0
  0
SOLID
  5
192
100
AcDbEntity
  8
None
370
              15
390
0
  6
Continuous
 62
               7
100
AcDbTrace
 10
5.2889424199528179
 20
6.272499990537753
 30
0.0
 11
5.2889424199528179
 21
7.2124999905377507
 31
0.0
 12
5.568942419952819
 22
6.272499990537753
 32
0.0
 13
5.568942419952819
 23
7.2124999905377507
 33
0.0
  0
SOLID
  5
193
100
AcDbEntity
  8
None
370
              15
390
0
  6
Continuous
 62
               7
100
AcDbTrace
 10
5.7889424199528179
 20
6.272499990537753
 30
0.0
 11
5.7889424199528179
 21
7.2124999905377507
 31
0.0
 12
6.068942419952819
 22
6.272499990537753
 32
0.0
 13
6.068942419952819
 23
7.2124999905377507
 33
0.0
  0
SOLID
  5
194
100
AcDbEntity
  8
None
370
              15
390
0
  6
Continuous
 62
               7
100
AcDbTrace
 10
6.2889424199528179
 20
6.272499990537753
 30
0.0
 11
6.2889424199528179
 21
7.2124999905377507
 31
0.0
 12
6.568942419952819
 22
6.272499990537753
 32
0.0
 13
6.568942419952819
 23
7.2124999905377507
 33
0.0
  0
SOLID
  5
195
100
AcDbEntity
  8
None
370
              15
390
0
  6
Continuous
 62
               7
100
AcDbTrace
 10
6.7889424199528179
 20
6.272499990537753
 30
0.0
 11
6.7889424199528179
 21
7.2124999905377507
 31
0.0
 12
7.068942419952819
 22
6.272499990537753
 32
0.0
 13
7.068942419952819
 23
7.2124999905377507
 33
0.0
  0
SOLID
  5
196
100
AcDbEntity
  8
None
370
              15
390
0
  6
Continuous
 62
               7
100
AcDbTrace
 10
7.2889424199528179
 20
6.272499990537753
 30
0.0
 11
7.2889424199528179
 21
7.2124999905377507
 31
0.0
 12
7.568942419952819
 22
6.272499990537753
 32
0.0
 13
7.568942419952819
 23
7.2124999905377507
 33
0.0
  0
SOLID
  5
197
100
AcDbEntity
  8
None
370
              15
390
0
  6
Continuous
 62
               7
100
AcDbTrace
 10
7.6689424199528275
 20
-2.1075000094622425
 30
0.0
 11
7.6689424199528275
 21
-1.8275000094622413
 31
0.0
 12
8.6089424199528253
 22
-2.1075000094622425
 32
0.0
 13
8.6089424199528253
 23
-1.8275000094622413
 33
0.0
  0
SOLID
  5
198
100
AcDbEntity
  8
None
370
              15
390
0
  6
Continuous
 62
               7
100
AcDbTrace
 10
7.6689424199528275
 20
-1.6075000094622425
 30
0.0
 11
7.6689424199528275
 21
-1.3275000094622413
 31
0.0
 12
8.6089424199528253
 22
-1.6075000094622425
 32
0.0
 13
8.6089424199528253
 23
-1.3275000094622413
 33
0.0
  0
SOLID
  5
199
100
AcDbEntity
  8
None
370
              15
390
0
  6
Continuous
 62
               7
100
AcDbTrace
 10
7.6689424199528275
 20
-1.1075000094622425
 30
0.0
 11
7.6689424199528275
 21
-0.8275000094622413
 31
0.0
 12
8.6089424199528253
 22
-1.1075000094622425
 32
0.0
 13
8.6089424199528253
 23
-0.8275000094622413
 33
0.0
  0
SOLID
  5
19A
100
AcDbEntity
  8
None
370
              15
390
0
  6
Continuous
 62
               7
100
AcDbTrace
 10
7.6689424199528275
 20
-0.6075000094622425
 30
0.0
 11
7.6689424199528275
 21
-0.3275000094622413
 31
0.0
 12
8.6089424199528253
 22
-0.6075000094622425
 32
0.0
 13
8.6089424199528253
 23
-0.3275000094622413
 33
0.0
  0
SOLID
  5
19B
100
AcDbEntity
  8
None
370
              15
390
0
  6
Continuous
 62
               7
100
AcDbTrace
 10
7.6689424199528275
 20
-0.1075000094622425
 30
0.0
 11
7.6689424199528275
 21
0.1724999905377587
 31
0.0
 12
8.6089424199528253
 22
-0.1075000094622425
 32
0.0
 13
8.6089424199528253
 23
0.1724999905377587
 33
0.0
  0
SOLID
  5
19C
100
AcDbEntity
  8
None
370
              15
390
0
  6
Continuous
 62
               7
100
AcDbTrace
 10
7.6689424199528275
 20
0.3924999905377575
 30
0.0
 11
7.6689424199528275
 21
0.6724999905377587
 31
0.0
 12
8.6089424199528253
 22
0.3924999905377575
 32
0.0
 13
8.6089424199528253
 23
0.6724999905377587
 33
0.0
  0
SOLID
  5
19D
100
AcDbEntity
  8
None
370
              15
390
0
  6
Continuous
 62
               7
100
AcDbTrace
 10
7.6689424199528275
 20
0.8924999905377575
 30
0.0
 11
7.6689424199528275
 21
1.1724999905377587
 31
0.0
 12
8.6089424199528253
 22
0.8924999905377575
 32
0.0
 13
8.6089424199528253
 23
1.1724999905377587
 33
0.0
  0
SOLID
  5
19E
100
AcDbEntity
  8
None
370
              15
390
0
  6
Continuous
 62
               7
100
AcDbTrace
 10
7.6689424199528275
 20
1.3924999905377575
 30
0.0
 11
7.6689424199528275
 21
1.6724999905377587
 31
0.0
 12
8.6089424199528253
 22
1.3924999905377575
 32
0.0
 13
8.6089424199528253
 23
1.6724999905377587
 33
0.0
  0
SOLID
  5
19F
100
AcDbEntity
  8
None
370
              15
390
0
  6
Continuous
 62
               7
100
AcDbTrace
 10
7.6689424199528275
 20
1.8924999905377575
 30
0.0
 11
7.6689424199528275
 21
2.1724999905377587
 31
0.0
 12
8.6089424199528253
 22
1.8924999905377575
 32
0.0
 13
8.6089424199528253
 23
2.1724999905377587
 33
0.0
  0
SOLID
  5
1A0
100
AcDbEntity
  8
None
370
              15
390
0
  6
Continuous
 62
               7
100
AcDbTrace
 10
7.6689424199528275
 20
2.3924999905377575
 30
0.0
 11
7.6689424199528275
 21
2.6724999905377587
 31
0.0
 12
8.6089424199528253
 22
2.3924999905377575
 32
0.0
 13
8.6089424199528253
 23
2.6724999905377587
 33
0.0
  0
SOLID
  5
1A1
100
AcDbEntity
  8
None
370
              15
390
0
  6
Continuous
 62
               7
100
AcDbTrace
 10
7.6689424199528275
 20
2.8924999905377575
 30
0.0
 11
7.6689424199528275
 21
3.1724999905377587
 31
0.0
 12
8.6089424199528253
 22
2.8924999905377575
 32
0.0
 13
8.6089424199528253
 23
3.1724999905377587
 33
0.0
  0
SOLID
  5
1A2
100
AcDbEntity
  8
None
370
              15
390
0
  6
Continuous
 62
               7
100
AcDbTrace
 10
7.6689424199528275
 20
3.3924999905377575
 30
0.0
 11
7.6689424199528275
 21
3.6724999905377587
 31
0.0
 12
8.6089424199528253
 22
3.3924999905377575
 32
0.0
 13
8.6089424199528253
 23
3.6724999905377587
 33
0.0
  0
SOLID
  5
1A3
100
AcDbEntity
  8
None
370
              15
390
0
  6
Continuous
 62
               7
100
AcDbTrace
 10
7.6689424199528275
 20
3.8924999905377575
 30
0.0
 11
7.6689424199528275
 21
4.1724999905377587
 31
0.0
 12
8.6089424199528253
 22
3.8924999905377575
 32
0.0
 13
8.6089424199528253
 23
4.1724999905377587
 33
0.0
  0
SOLID
  5
1A4
100
AcDbEntity
  8
None
370
              15
390
0
  6
Continuous
 62
               7
100
AcDbTrace
 10
7.6689424199528275
 20
4.3924999905377575
 30
0.0
 11
7.6689424199528275
 21
4.6724999905377587
 31
0.0
 12
8.6089424199528253
 22
4.3924999905377575
 32
0.0
 13
8.6089424199528253
 23
4.6724999905377587
 33
0.0
  0
SOLID
  5
1A5
100
AcDbEntity
  8
None
370
              15
390
0
  6
Continuous
 62
               7
100
AcDbTrace
 10
7.6689424199528275
 20
4.8924999905377575
 30
0.0
 11
7.6689424199528275
 21
5.1724999905377587
 31
0.0
 12
8.6089424199528253
 22
4.8924999905377575
 32
0.0
 13
8.6089424199528253
 23
5.1724999905377587
 33
0.0
  0
SOLID
  5
1A6
100
AcDbEntity
  8
None
370
              15
390
0
  6
Continuous
 62
               7
100
AcDbTrace
 10
7.6689424199528275
 20
5.3924999905377575
 30
0.0
 11
7.6689424199528275
 21
5.6724999905377587
 31
0.0
 12
8.6089424199528253
 22
5.3924999905377575
 32
0.0
 13
8.6089424199528253
 23
5.6724999905377587
 33
0.0
  0
SOLID
  5
1A7
100
AcDbEntity
  8
None
370
              15
390
0
  6
Continuous
 62
               7
100
AcDbTrace
 10
7.6689424199528275
 20
5.8924999905377575
 30
0.0
 11
7.6689424199528275
 21
6.1724999905377587
 31
0.0
 12
8.6089424199528253
 22
5.8924999905377575
 32
0.0
 13
8.6089424199528253
 23
6.1724999905377587
 33
0.0
  0
SOLID
  5
1A8
100
AcDbEntity
  8
None
370
              15
390
0
  6
Continuous
 62
               7
100
AcDbTrace
 10
-1.7510575800471742
 20
-2.1075000094622425
 30
0.0
 11
-1.7510575800471742
 21
-1.8275000094622413
 31
0.0
 12
-0.8110575800471764
 22
-2.1075000094622425
 32
0.0
 13
-0.8110575800471764
 23
-1.8275000094622413
 33
0.0
  0
SOLID
  5
1A9
100
AcDbEntity
  8
None
370
              15
390
0
  6
Continuous
 62
               7
100
AcDbTrace
 10
-1.7510575800471742
 20
-1.6075000094622425
 30
0.0
 11
-1.7510575800471742
 21
-1.3275000094622413
 31
0.0
 12
-0.8110575800471764
 22
-1.6075000094622425
 32
0.0
 13
-0.8110575800471764
 23
-1.3275000094622413
 33
0.0
  0
SOLID
  5
1AA
100
AcDbEntity
  8
None
370
              15
390
0
  6
Continuous
 62
               7
100
AcDbTrace
 10
-1.7510575800471742
 20
-1.1075000094622425
 30
0.0
 11
-1.7510575800471742
 21
-0.8275000094622413
 31
0.0
 12
-0.8110575800471764
 22
-1.1075000094622425
 32
0.0
 13
-0.8110575800471764
 23
-0.8275000094622413
 33
0.0
  0
SOLID
  5
1AB
100
AcDbEntity
  8
None
370
              15
390
0
  6
Continuous
 62
               7
100
AcDbTrace
 10
-1.7510575800471742
 20
-0.6075000094622425
 30
0.0
 11
-1.7510575800471742
 21
-0.3275000094622413
 31
0.0
 12
-0.8110575800471764
 22
-0.6075000094622425
 32
0.0
 13
-0.8110575800471764
 23
-0.3275000094622413
 33
0.0
  0
SOLID
  5
1AC
100
AcDbEntity
  8
None
370
              15
390
0
  6
Continuous
 62
               7
100
AcDbTrace
 10
-1.7510575800471742
 20
-0.1075000094622425
 30
0.0
 11
-1.7510575800471742
 21
0.1724999905377587
 31
0.0
 12
-0.8110575800471764
 22
-0.1075000094622425
 32
0.0
 13
-0.8110575800471764
 23
0.1724999905377587
 33
0.0
  0
SOLID
  5
1AD
100
AcDbEntity
  8
None
370
              15
390
0
  6
Continuous
 62
               7
100
AcDbTrace
 10
-1.7510575800471742
 20
0.3924999905377575
 30
0.0
 11
-1.7510575800471742
 21
0.6724999905377587
 31
0.0
 12
-0.8110575800471764
 22
0.3924999905377575
 32
0.0
 13
-0.8110575800471764
 23
0.6724999905377587
 33
0.0
  0
SOLID
  5
1AE
100
AcDbEntity
  8
None
370
              15
390
0
  6
Continuous
 62
               7
100
AcDbTrace
 10
-1.7510575800471742
 20
0.8924999905377575
 30
0.0
 11
-1.7510575800471742
 21
1.1724999905377587
 31
0.0
 12
-0.8110575800471764
 22
0.8924999905377575
 32
0.0
 13
-0.8110575800471764
 23
1.1724999905377587
 33
0.0
  0
SOLID
  5
1AF
100
AcDbEntity
  8
None
370
              15
390
0
  6
Continuous
 62
               7
100
AcDbTrace
 10
-1.7510575800471742
 20
1.3924999905377575
 30
0.0
 11
-1.7510575800471742
 21
1.6724999905377587
 31
0.0
 12
-0.8110575800471764
 22
1.3924999905377575
 32
0.0
 13
-0.8110575800471764
 23
1.6724999905377587
 33
0.0
  0
SOLID
  5
1B0
100
AcDbEntity
  8
None
370
              15
390
0
  6
Continuous
 62
               7
100
AcDbTrace
 10
-1.7510575800471742
 20
1.8924999905377575
 30
0.0
 11
-1.7510575800471742
 21
2.1724999905377587
 31
0.0
 12
-0.8110575800471764
 22
1.8924999905377575
 32
0.0
 13
-0.8110575800471764
 23
2.1724999905377587
 33
0.0
  0
SOLID
  5
1B1
100
AcDbEntity
  8
None
370
              15
390
0
  6
Continuous
 62
               7
100
AcDbTrace
 10
-1.7510575800471742
 20
2.3924999905377575
 30
0.0
 11
-1.7510575800471742
 21
2.6724999905377587
 31
0.0
 12
-0.8110575800471764
 22
2.3924999905377575
 32
0.0
 13
-0.8110575800471764
 23
2.6724999905377587
 33
0.0
  0
SOLID
  5
1B2
100
AcDbEntity
  8
None
370
              15
390
0
  6
Continuous
 62
               7
100
AcDbTrace
 10
-1.7510575800471742
 20
2.8924999905377575
 30
0.0
 11
-1.7510575800471742
 21
3.1724999905377587
 31
0.0
 12
-0.8110575800471764
 22
2.8924999905377575
 32
0.0
 13
-0.8110575800471764
 23
3.1724999905377587
 33
0.0
  0
SOLID
  5
1B3
100
AcDbEntity
  8
None
370
              15
390
0
  6
Continuous
 62
               7
100
AcDbTrace
 10
-1.7510575800471742
 20
3.3924999905377575
 30
0.0
 11
-1.7510575800471742
 21
3.6724999905377587
 31
0.0
 12
-0.8110575800471764
 22
3.3924999905377575
 32
0.0
 13
-0.8110575800471764
 23
3.6724999905377587
 33
0.0
  0
SOLID
  5
1B4
100
AcDbEntity
  8
None
370
              15
390
0
  6
Continuous
 62
               7
100
AcDbTrace
 10
-1.7510575800471742
 20
3.8924999905377575
 30
0.0
 11
-1.7510575800471742
 21
4.1724999905377587
 31
0.0
 12
-0.8110575800471764
 22
3.8924999905377575
 32
0.0
 13
-0.8110575800471764
 23
4.1724999905377587
 33
0.0
  0
SOLID
  5
1B5
100
AcDbEntity
  8
None
370
              15
390
0
  6
Continuous
 62
               7
100
AcDbTrace
 10
-1.7510575800471742
 20
4.3924999905377575
 30
0.0
 11
-1.7510575800471742
 21
4.6724999905377587
 31
0.0
 12
-0.8110575800471764
 22
4.3924999905377575
 32
0.0
 13
-0.8110575800471764
 23
4.6724999905377587
 33
0.0
  0
SOLID
  5
1B6
100
AcDbEntity
  8
None
370
              15
390
0
  6
Continuous
 62
               7
100
AcDbTrace
 10
-1.7510575800471742
 20
4.8924999905377575
 30
0.0
 11
-1.7510575800471742
 21
5.1724999905377587
 31
0.0
 12
-0.8110575800471764
 22
4.8924999905377575
 32
0.0
 13
-0.8110575800471764
 23
5.1724999905377587
 33
0.0
  0
SOLID
  5
1B7
100
AcDbEntity
  8
None
370
              15
390
0
  6
Continuous
 62
               7
100
AcDbTrace
 10
-1.7510575800471742
 20
5.3924999905377575
 30
0.0
 11
-1.7510575800471742
 21
5.6724999905377587
 31
0.0
 12
-0.8110575800471764
 22
5.3924999905377575
 32
0.0
 13
-0.8110575800471764
 23
5.6724999905377587
 33
0.0
  0
SOLID
  5
1B8
100
AcDbEntity
  8
None
370
              15
390
0
  6
Continuous
 62
               7
100
AcDbTrace
 10
-1.7510575800471742
 20
5.8924999905377575
 30
0.0
 11
-1.7510575800471742
 21
6.1724999905377587
 31
0.0
 12
-0.8110575800471764
 22
5.8924999905377575
 32
0.0
 13
-0.8110575800471764
 23
6.1724999905377587
 33
0.0
  0
POLYLINE
  5
1B9
102
{ACAD_REACTORS
330
1BF
102
}
100
AcDbEntity
  8
None
370
               9
390
0
  6
Continuous
 62
               7
100
AcDb2dPolyline
 66
               1
 10
0.0
 20
0.0
 30
0.0
 70
               1
 75
               5
  0
VERTEX
  5
1BA
100
AcDbEntity
  8
None
370
               9
390
0
  6
Continuous
 62
               7
100
AcDbVertex
100
AcDb2dVertex
 10
-0.6110575800471736
 20
6.0724999905377501
 30
0.0
  0
VERTEX
  5
1BB
100
AcDbEntity
  8
None
370
               9
390
0
  6
Continuous
 62
               7
100
AcDbVertex
100
AcDb2dVertex
 10
7.4689424199528247
 20
6.0724999905377501
 30
0.0
  0
VERTEX
  5
1BC
100
AcDbEntity
  8
None
370
               9
390
0
  6
Continuous
 62
               7
100
AcDbVertex
100
AcDb2dVertex
 10
7.4689424199528247
 20
-2.0075000094622482
 30
0.0
  0
VERTEX
  5
1BD
100
AcDbEntity
  8
None
370
               9
390
0
  6
Continuous
 62
               7
100
AcDbVertex
100
AcDb2dVertex
 10
-0.6110575800471736
 20
-2.0075000094622482
 30
0.0
  0
SEQEND
  5
1BE
100
AcDbEntity
  8
None
370
               9
390
0
  6
Continuous
 62
               7
  0
HATCH
  5
1BF
100
AcDbEntity
  8
None
370
               0
390
0
  6
Continuous
 62
             253
100
AcDbHatch
 10
0.0
 20
0.0
 30
0.0
210
0.0
220
0.0
230
1.0
  2
SOLID
 70
               1
 71
               1
 91
        1
 92
        1
 93
        4
 72
               1
 10
-0.6110575800471736
 20
6.0724999905377501
 11
7.4689424199528247
 21
6.0724999905377501
 72
               1
 10
7.4689424199528247
 20
6.0724999905377501
 11
7.4689424199528247
 21
-2.0075000094622482
 72
               1
 10
7.4689424199528247
 20
-2.0075000094622482
 11
-0.6110575800471736
 21
-2.0075000094622482
 72
               1
 10
-0.6110575800471736
 20
-2.0075000094622482
 11
-0.6110575800471736
 21
6.0724999905377501
 97
        1
330
1B9
 75
               0
 76
               1
 98
        1
 10
0.0
 20
0.0
  0
LINE
  5
1C0
100
AcDbEntity
  8
None
370
               9
390
0
  6
Continuous
 62
               1
100
AcDbLine
 10
18.55475241995282
 20
-10.868060009462241
 30
0.0
 11
12.600172419952827
 21
-10.868060009462241
 31
0.0
  0
WIPEOUT
  5
1C1
100
AcDbEntity
  8
None
370
               9
390
0
  6
Continuous
 62
               1
 92
        0
100
AcDbWipeout
 90
        0
 10
18.55475241995282
 20
-11.47659950946225
 30
0.0
 11
17.674110953013098
 21
0.0
 31
0.0
 12
0.0
 22
17.674110953013098
 32
0.0
 13
1.0
 23
1.0
340
0
 70
               7
280
               1
281
              50
282
              50
283
               0
360
0
 71
               2
 91
        5
 14
-0.5
 24
0.5
 14
0.5
 24
0.5
 14
0.5
 24
0.4311377243678267
 14
-0.5
 24
0.4311377243678267
 14
-0.5
 24
0.5
  0
MTEXT
  5
1C2
100
AcDbEntity
  8
None
390
0
 62
               1
100
AcDbMText
 10
18.55475241995282
 20
-10.454098389670584
 30
0.0
 40
0.7579186197916666
 41
0.0
 71
               1
 72
               1
  1
{\C192;\l8.08mm x 8.08mm thermal /GND pad}
  7
Arial
 73
               1
 44
0.9673603504928806
  0
LINE
  5
1C3
100
AcDbEntity
  8
None
370
               9
390
0
  6
Continuous
 62
               1
100
AcDbLine
 10
12.600172419952827
 20
-10.868060009462241
 30
0.0
 11
5.3379524199528277
 21
-1.2977400094622453
 31
0.0
  0
SOLID
  5
1C4
100
AcDbEntity
  8
None
370
               9
390
0
 62
               1
100
AcDbTrace
 10
5.3379524199528277
 20
-1.2977400094622453
 30
0.0
 11
5.9855006256761829
 21
-1.8036601150641176
 31
0.0
 12
5.6457855634833489
 22
-2.0596537760604505
 32
0.0
 13
5.6457855634833489
 23
-2.0596537760604505
 33
0.0
  0
ENDSEC
  0
SECTION
  2
OBJECTS
  0
DICTIONARY
  5
19
100
AcDbDictionary
280
               0
281
               1
  3
ACAD_GROUP
350
1A
  3
ACAD_MLINESTYLE
350
1B
  3
ACAD_LAYOUT
350
1E
  3
ACAD_PLOTSETTINGS
350
22
  3
ACAD_PLOTSTYLENAME
350
1F
  3
ACAD_WIPEOUT_VARS
350
23
  0
DICTIONARY
  5
1A
102
{ACAD_REACTORS
330
19
102
}
100
AcDbDictionary
280
               0
281
               1
  0
DICTIONARY
  5
1B
102
{ACAD_REACTORS
330
19
102
}
100
AcDbDictionary
280
               0
281
               1
  3
Standard
350
1C
  0
MLINESTYLE
  5
1C
102
{ACAD_REACTORS
330
1B
102
}
100
AcDbMlineStyle
  2
Standard
 70
               0
  3

 62
               0
 51
90.0
 52
90.0
 71
               2
 49
0.5
 62
             256
  6
ByLayer
 49
-0.5
 62
             256
  6
ByLayer
  0
ACDBDICTIONARYWDFLT
  5
1F
102
{ACAD_REACTORS
330
19
102
}
100
AcDbDictionary
281
               1
  3
Normal
350
1D
100
AcDbDictionaryWithDefault
340
1D
  0
ACDBPLACEHOLDER
  5
1D
102
{ACAD_REACTORS
330
1F
102
}
  0
LAYOUT
  5
20
102
{ACAD_REACTORS
330
1E
102
}
100
AcDbPlotSettings
  1

  2

  4

  6

 40
0.0
 41
0.0
 42
0.0
 43
0.0
 44
0.0
 45
0.0
 46
0.0
 47
0.0
 48
0.0
 49
0.0
140
0.0
141
0.0
142
1.0
143
1.0
 70
            1024
 72
               0
 73
               0
 74
               0
  7

 75
               0
147
1.0
148
0.0
149
0.0
100
AcDbLayout
  1
Model
 70
               0
 71
               0
 10
0.0
 20
0.0
 11
0.0
 21
0.0
 12
0.0
 22
0.0
 32
0.0
 14
0.0
 24
0.0
 34
0.0
 15
0.0
 25
0.0
 35
0.0
146
0.0
 13
0.0
 23
0.0
 33
0.0
 16
0.0
 26
0.0
 36
0.0
 17
0.0
 27
0.0
 37
0.0
 76
               0
330
A
331
0
345
0
346
0
  0
LAYOUT
  5
21
102
{ACAD_REACTORS
330
1E
102
}
100
AcDbPlotSettings
  1

  2

  4

  6

 40
0.0
 41
0.0
 42
0.0
 43
0.0
 44
0.0
 45
0.0
 46
0.0
 47
0.0
 48
0.0
 49
0.0
140
0.0
141
0.0
142
1.0
143
1.0
 70
               0
 72
               0
 73
               0
 74
               0
  7

 75
               0
147
1.0
148
0.0
149
0.0
100
AcDbLayout
  1
Layout1
 70
               0
 71
               0
 10
0.0
 20
0.0
 11
0.0
 21
0.0
 12
0.0
 22
0.0
 32
0.0
 14
0.0
 24
0.0
 34
0.0
 15
0.0
 25
0.0
 35
0.0
146
0.0
 13
0.0
 23
0.0
 33
0.0
 16
0.0
 26
0.0
 36
0.0
 17
0.0
 27
0.0
 37
0.0
 76
               0
330
B
331
0
345
0
346
0
  0
DICTIONARY
  5
1E
102
{ACAD_REACTORS
330
19
102
}
100
AcDbDictionary
280
               0
281
               1
  3
Layout1
350
21
  3
Model
350
20
  0
DICTIONARY
  5
22
102
{ACAD_REACTORS
330
19
102
}
100
AcDbDictionary
280
               0
281
               1
  0
WIPEOUTVARIABLES
  5
23
100
AcDbWipeoutVariables
 70
               0
  0
ENDSEC
  0
EOF
