  0
SECTION
  2
HEADER
  9
$ACADVER
  1
AC1015
  9
$ACADMAINTVER
 70
               6
  9
$DWGCODEPAGE
  3
ANSI_1252
  9
$INSBASE
 10
0.0
 20
0.0
 30
0.0
  9
$EXTMIN
 10
-30.0
 20
-21.776141022749925
 30
-0.34925
  9
$EXTMAX
 10
28.098736436377806
 20
18.000000000000014
 30
0.34925
  9
$LIMMIN
 10
0.0
 20
0.0
  9
$LIMMAX
 10
0.0
 20
0.0
  9
$ORTHOMODE
 70
               0
  9
$REGENMODE
 70
               1
  9
$FILLMODE
 70
               1
  9
$QTEXTMODE
 70
               0
  9
$MIRRTEXT
 70
               1
  9
$LTSCALE
 40
1.27
  9
$ATTMODE
 70
               1
  9
$TEXTSIZE
 40
0.2
  9
$TRACEWID
 40
1.0
  9
$TEXTSTYLE
  7
Standard
  9
$CLAYER
  8
None
  9
$CELTYPE
  6
Continuous
  9
$CECOLOR
 62
             256
  9
$CELTSCALE
 40
1.0
  9
$DISPSILH
 70
               0
  9
$DIMSCALE
 40
1.0
  9
$DIMASZ
 40
0.5612060546875
  9
$DIMEXO
 40
0.396875
  9
$DIMDLI
 40
10.16
  9
$DIMRND
 40
0.0
  9
$DIMDLE
 40
1.5874999999999999
  9
$DIMEXE
 40
0.79375
  9
$DIMTP
 40
0.0
  9
$DIMTM
 40
0.0
  9
$DIMTXT
 40
0.7579186197916666
  9
$DIMCEN
 40
0.0
  9
$DIMTSZ
 40
0.0
  9
$DIMTOL
 70
               0
  9
$DIMLIM
 70
               0
  9
$DIMTIH
 70
               0
  9
$DIMTOH
 70
               0
  9
$DIMSE1
 70
               0
  9
$DIMSE2
 70
               0
  9
$DIMTAD
 70
               1
  9
$DIMZIN
 70
              11
  9
$DIMBLK
  1
VW_SLASH
  9
$DIMASO
 70
               1
  9
$DIMSHO
 70
               1
  9
$DIMPOST
  1
<>mm
  9
$DIMAPOST
  1
[]
  9
$DIMALT
 70
               0
  9
$DIMALTD
 70
               1
  9
$DIMALTF
 40
1.0
  9
$DIMLFAC
 40
1.0
  9
$DIMTOFL
 70
               1
  9
$DIMTVP
 40
0.0
  9
$DIMTIX
 70
               1
  9
$DIMSOXD
 70
               0
  9
$DIMSAH
 70
               0
  9
$DIMBLK1
  1

  9
$DIMBLK2
  1

  9
$DIMSTYLE
  2
Arch
  9
$DIMCLRD
 70
               0
  9
$DIMCLRE
 70
               0
  9
$DIMCLRT
 70
               0
  9
$DIMTFAC
 40
1.0
  9
$DIMGAP
 40
1.5874999999999999
  9
$DIMJUST
 70
               0
  9
$DIMSD1
 70
               0
  9
$DIMSD2
 70
               0
  9
$DIMTOLJ
 70
               1
  9
$DIMTZIN
 70
              11
  9
$DIMALTZ
 70
              11
  9
$DIMALTTZ
 70
              11
  9
$DIMUPT
 70
               0
  9
$DIMDEC
 70
               1
  9
$DIMTDEC
 70
               1
  9
$DIMALTU
 70
               2
  9
$DIMALTTD
 70
               2
  9
$DIMTXSTY
  7
Arial
  9
$DIMAUNIT
 70
               0
  9
$DIMADEC
 70
               2
  9
$DIMALTRND
 40
0.0
  9
$DIMAZIN
 70
               0
  9
$DIMDSEP
 70
              46
  9
$DIMATFIT
 70
               0
  9
$DIMFRAC
 70
               2
  9
$DIMLDRBLK
  1

  9
$DIMLUNIT
 70
               2
  9
$DIMLWD
 70
              -2
  9
$DIMLWE
 70
              -2
  9
$DIMTMOVE
 70
               0
  9
$LUNITS
 70
               2
  9
$LUPREC
 70
               4
  9
$SKETCHINC
 40
0.1
  9
$FILLETRAD
 40
0.0
  9
$AUNITS
 70
               0
  9
$AUPREC
 70
               0
  9
$MENU
  1
acad
  9
$ELEVATION
 40
0.0
  9
$PELEVATION
 40
0.0
  9
$THICKNESS
 40
0.0
  9
$LIMCHECK
 70
               0
  9
$CHAMFERA
 40
0.0
  9
$CHAMFERB
 40
0.0
  9
$CHAMFERC
 40
0.0
  9
$CHAMFERD
 40
0.0
  9
$SKPOLY
 70
               0
  9
$TDCREATE
 40
2454964.556180555
  9
$TDUCREATE
 40
0.000000000
  9
$TDUPDATE
 40
2454964.556180555
  9
$TDUUPDATE
 40
0.000000000
  9
$TDINDWG
 40
0.0000000000
  9
$TDUSRTIMER
 40
0.0000000000
  9
$USRTIMER
 70
               1
  9
$ANGBASE
 50
0.0
  9
$ANGDIR
 70
               0
  9
$PDMODE
 70
               1
  9
$PDSIZE
 40
-2.0
  9
$PLINEWID
 40
0.0
  9
$SPLFRAME
 70
               0
  9
$SPLINETYPE
 70
               6
  9
$SPLINESEGS
 70
               8
  9
$HANDSEED
  5
1A4
  9
$SURFTAB1
 70
               6
  9
$SURFTAB2
 70
               6
  9
$SURFTYPE
 70
               6
  9
$SURFU
 70
               6
  9
$SURFV
 70
               6
  9
$UCSBASE
  2

  9
$UCSNAME
  2

  9
$UCSORG
 10
0.0
 20
0.0
 30
0.0
  9
$UCSXDIR
 10
1.0
 20
0.0
 30
0.0
  9
$UCSYDIR
 10
0.0
 20
1.0
 30
0.0
  9
$UCSORTHOREF
  2

  9
$UCSORTHOVIEW
 70
               0
  9
$UCSORGTOP
 10
0.0
 20
0.0
 30
0.0
  9
$UCSORGBOTTOM
 10
0.0
 20
0.0
 30
0.0
  9
$UCSORGLEFT
 10
0.0
 20
0.0
 30
0.0
  9
$UCSORGRIGHT
 10
0.0
 20
0.0
 30
0.0
  9
$UCSORGFRONT
 10
0.0
 20
0.0
 30
0.0
  9
$UCSORGBACK
 10
0.0
 20
0.0
 30
0.0
  9
$PUCSBASE
  2

  9
$PUCSNAME
  2

  9
$PUCSORG
 10
0.0
 20
0.0
 30
0.0
  9
$PUCSXDIR
 10
1.0
 20
0.0
 30
0.0
  9
$PUCSYDIR
 10
0.0
 20
1.0
 30
0.0
  9
$PUCSORTHOREF
  2

  9
$PUCSORTHOVIEW
 70
               0
  9
$PUCSORGTOP
 10
0.0
 20
0.0
 30
0.0
  9
$PUCSORGBOTTOM
 10
0.0
 20
0.0
 30
0.0
  9
$PUCSORGLEFT
 10
0.0
 20
0.0
 30
0.0
  9
$PUCSORGRIGHT
 10
0.0
 20
0.0
 30
0.0
  9
$PUCSORGFRONT
 10
0.0
 20
0.0
 30
0.0
  9
$PUCSORGBACK
 10
0.0
 20
0.0
 30
0.0
  9
$USERI1
 70
               0
  9
$USERI2
 70
               0
  9
$USERI3
 70
               0
  9
$USERI4
 70
               0
  9
$USERI5
 70
               0
  9
$USERR1
 40
0.0
  9
$USERR2
 40
0.0
  9
$USERR3
 40
0.0
  9
$USERR4
 40
0.0
  9
$USERR5
 40
0.0
  9
$WORLDVIEW
 70
               1
  9
$SHADEDGE
 70
               3
  9
$SHADEDIF
 70
              70
  9
$TILEMODE
 70
               1
  9
$MAXACTVP
 70
              64
  9
$PINSBASE
 10
0.0
 20
0.0
 30
0.0
  9
$PLIMCHECK
 70
               0
  9
$PEXTMIN
 10
1.0000000000000000E+20
 20
1.0000000000000000E+20
 30
1.0000000000000000E+20
  9
$PEXTMAX
 10
-1.0000000000000000E+20
 20
-1.0000000000000000E+20
 30
-1.0000000000000000E+20
  9
$PLIMMIN
 10
0.0
 20
0.0
  9
$PLIMMAX
 10
12.0
 20
9.0
  9
$UNITMODE
 70
               0
  9
$VISRETAIN
 70
               0
  9
$PLINEGEN
 70
               1
  9
$PSLTSCALE
 70
               0
  9
$TREEDEPTH
 70
            3020
  9
$CMLSTYLE
  2
Standard
  9
$CMLJUST
 70
               0
  9
$CMLSCALE
 40
1.0
  9
$PROXYGRAPHICS
 70
               0
  9
$MEASUREMENT
 70
               1
  9
$CELWEIGHT
370
               0
  9
$ENDCAPS
280
               0
  9
$JOINSTYLE
280
               0
  9
$LWDISPLAY
290
               1
  9
$INSUNITS
 70
               4
  9
$HYPERLINKBASE
  1

  9
$STYLESHEET
  1

  9
$XEDIT
290
               1
  9
$CEPSNTYPE
380
               0
  9
$PSTYLEMODE
290
               1
  9
$FINGERPRINTGUID
  2

  9
$VERSIONGUID
  2

  9
$EXTNAMES
290
               1
  9
$PSVPSCALE
 40
0.0
  0
ENDSEC
  0
SECTION
  2
CLASSES
  0
CLASS
  1
LWPOLYLINE
  2
AcDbPolyline
  3
AutoCAD 2000
 90
        0
280
               0
281
               1
  0
CLASS
  1
IMAGE
  2
AcDbRasterImage
  3
ISM
 90
      127
280
               0
281
               1
  0
CLASS
  1
OLE2FRAME
  2
AcDbOle2Frame
  3
AutoCAD 2000
 90
        0
280
               0
281
               1
  0
CLASS
  1
HATCH
  2
AcDbHatch
  3
AutoCAD 2000
 90
        0
280
               0
281
               1
  0
CLASS
  1
DICTIONARYVAR
  2
AcDbDictionaryVar
  3
AutoCAD 2000
 90
        0
280
               0
281
               0
  0
CLASS
  1
RASTERVARIABLES
  2
AcDbRasterVariables
  3
ISM
 90
        0
280
               0
281
               0
  0
CLASS
  1
IMAGEDEF
  2
AcDbRasterImageDef
  3
ISM
 90
        0
280
               0
281
               0
  0
CLASS
  1
IMAGEDEF_REACTOR
  2
AcDbRasterImageDefReactor
  3
ISM
 90
        1
280
               0
281
               0
  0
CLASS
  1
IDBUFFER
  2
AcDbIdBuffer
  3
AutoCAD 2000
 90
        0
280
               0
281
               0
  0
CLASS
  1
SPATIAL_FILTER
  2
AcDbSpatialFilter
  3
AutoCAD 2000
 90
        0
280
               0
281
               0
  0
CLASS
  1
XRECORD
  2
AcDbXrecord
  3
AutoCAD 2000
 90
        0
280
               0
281
               0
  0
CLASS
  1
SORTENTSTABLE
  2
AcDbSortentsTable
  3
AutoCAD 2000
 90
        0
280
               0
281
               0
  0
CLASS
  1
LAYER_INDEX
  2
AcDbLayerIndex
  3
AutoCAD 2000
 90
        0
280
               0
281
               0
  0
CLASS
  1
SPATIAL_INDEX
  2
AcDbSpatialIndex
  3
AutoCAD 2000
 90
        0
280
               0
281
               0
  0
CLASS
  1
OBJECT_PTR
  2
CAseDLPNTableRecord
  3
"ASE-LPNTableRecord"
 90
        1
280
               0
281
               0
  0
CLASS
  1
LAYOUT
  2
AcDbLayout
  3
AutoCAD 2000
 90
        0
280
               0
281
               0
  0
CLASS
  1
PLOTSETTINGS
  2
AcDbPlotSettings
  3
AutoCAD 2000
 90
        0
280
               0
281
               0
  0
CLASS
  1
ACDBDICTIONARYWDFLT
  2
AcDbDictionaryWithDefault
  3
AutoCAD 2000
 90
        0
280
               0
281
               0
  0
CLASS
  1
ACDBPLACEHOLDER
  2
AcDbPlaceHolder
  3
AutoCAD 2000
 90
        0
280
               0
281
               0
  0
CLASS
  1
VBA_PROJECT
  2
AcDbVbaProject
  3
acadvba
 90
        0
280
               0
281
               0
  0
CLASS
  1
WIPEOUT
  2
AcDbWipeout
  3
WipeOut|AutoCAD Express Tool|expresstools@autodesk.com
 90
      127
280
               0
281
               1
  0
CLASS
  1
WIPEOUTVARIABLES
  2
AcDbWipeoutVariables
  3
WipeOut|AutoCAD Express Tool|expresstools@autodesk.com
 90
        0
280
               0
281
               0
  0
CLASS
  1
RTEXT
  2
RText
  3
RText|AutoCAD Express Tool|expresstools@autodesk.com
 90
        0
280
               0
281
               1
  0
CLASS
  1
ARCALIGNEDTEXT
  2
AcDbArcAlignedText
  3
ATEXT|AutoCAD Express Tool|expresstools@autodesk.com
 90
        0
280
               0
281
               1
  0
ENDSEC
  0
SECTION
  2
TABLES
  0
TABLE
  2
VPORT
  5
7
100
AcDbSymbolTable
 70
               1
  0
VPORT
  5
15
100
AcDbSymbolTableRecord
100
AcDbViewportTableRecord
  2
*ACTIVE
 70
               0
 10
0.0
 20
0.0
 11
1.0
 21
1.0
 12
-0.9506317818110972
 22
-1.8880705113749556
 13
0.0
 23
0.0
 14
1.0
 24
1.0
 15
0.0
 25
0.0
 16
0.0
 26
0.0
 36
1.0
 17
0.0
 27
0.0
 37
0.0
 40
39.77614102274994
 41
0.688564
 42
50.0
 43
0.0
 44
0.0
 50
0.0
 51
0.0
 71
               0
 72
            2000
 73
               1
 74
               1
 75
               0
 76
               0
 77
               0
 78
               0
281
               0
 65
               0
110
0.0
120
0.0
130
0.0
111
1.0
121
0.0
131
0.0
112
0.0
122
1.0
132
0.0
345
0
346
0
 79
               0
146
0.0
  0
ENDTAB
  0
TABLE
  2
LTYPE
  5
4
100
AcDbSymbolTable
 70
              16
  0
LTYPE
  5
11
100
AcDbSymbolTableRecord
100
AcDbLinetypeTableRecord
  2
ByBlock
 70
              64
  3

 72
              65
 73
               0
 40
0.0
  0
LTYPE
  5
12
100
AcDbSymbolTableRecord
100
AcDbLinetypeTableRecord
  2
ByLayer
 70
              64
  3

 72
              65
 73
               0
 40
0.0
  0
LTYPE
  5
13
100
AcDbSymbolTableRecord
100
AcDbLinetypeTableRecord
  2
Continuous
 70
              64
  3
Solid line
 72
              65
 73
               0
 40
0.0
  0
LTYPE
  5
3A
100
AcDbSymbolTableRecord
100
AcDbLinetypeTableRecord
  2
STYLE_01
 70
               0
  3

 72
              65
 73
               2
 40
0.41664
 49
0.20828
 74
               0
 49
-0.20836
 74
               0
  0
LTYPE
  5
3B
100
AcDbSymbolTableRecord
100
AcDbLinetypeTableRecord
  2
STYLE_02
 70
               0
  3

 72
              65
 73
               2
 40
0.6944250000000001
 49
0.48607
 74
               0
 49
-0.2083550000000001
 74
               0
  0
LTYPE
  5
3C
100
AcDbSymbolTableRecord
100
AcDbLinetypeTableRecord
  2
STYLE_03
 70
               0
  3

 72
              65
 73
               2
 40
1.25
 49
1.0416400000000001
 74
               0
 49
-0.2083599999999999
 74
               0
  0
LTYPE
  5
3D
100
AcDbSymbolTableRecord
100
AcDbLinetypeTableRecord
  2
STYLE_04
 70
               0
  3

 72
              65
 73
               2
 40
1.5277099999999999
 49
1.3194249999999998
 74
               0
 49
-0.208285
 74
               0
  0
LTYPE
  5
3E
100
AcDbSymbolTableRecord
100
AcDbLinetypeTableRecord
  2
STYLE_05
 70
               0
  3

 72
              65
 73
               2
 40
0.20828
 49
0.069425
 74
               0
 49
-0.138855
 74
               0
  0
LTYPE
  5
3F
100
AcDbSymbolTableRecord
100
AcDbLinetypeTableRecord
  2
STYLE_06
 70
               0
  3

 72
              65
 73
               4
 40
1.0416400000000001
 49
0.625
 74
               0
 49
-0.20828
 74
               0
 49
0.06943
 74
               0
 49
-0.13893
 74
               0
  0
LTYPE
  5
40
100
AcDbSymbolTableRecord
100
AcDbLinetypeTableRecord
  2
STYLE_07
 70
               0
  3

 72
              65
 73
               6
 40
1.875
 49
0.625
 74
               0
 49
-0.20828
 74
               0
 49
0.6250000000000001
 74
               0
 49
-0.2083599999999999
 74
               0
 49
0.06943
 74
               0
 49
-0.1389299999999999
 74
               0
  0
LTYPE
  5
41
100
AcDbSymbolTableRecord
100
AcDbLinetypeTableRecord
  2
STYLE_08
 70
               0
  3

 72
              65
 73
               6
 40
1.25
 49
0.625
 74
               0
 49
-0.20828
 74
               0
 49
0.06943
 74
               0
 49
-0.13893
 74
               0
 49
0.0694299999999999
 74
               0
 49
-0.13893
 74
               0
  0
LTYPE
  5
42
100
AcDbSymbolTableRecord
100
AcDbLinetypeTableRecord
  2
STYLE_09
 70
               0
  3

 72
              65
 73
               4
 40
5.0
 49
3.75
 74
               0
 49
-0.2777849999999998
 74
               0
 49
0.6944300000000003
 74
               0
 49
-0.2777849999999998
 74
               0
  0
LTYPE
  5
43
100
AcDbSymbolTableRecord
100
AcDbLinetypeTableRecord
  2
STYLE_10
 70
               0
  3

 72
              65
 73
               6
 40
5.9375
 49
3.75
 74
               0
 49
-0.2777849999999998
 74
               0
 49
0.6944300000000003
 74
               0
 49
-0.2777849999999998
 74
               0
 49
0.625
 74
               0
 49
-0.3125
 74
               0
  0
LTYPE
  5
44
100
AcDbSymbolTableRecord
100
AcDbLinetypeTableRecord
  2
STYLE_11
 70
               0
  3

 72
              65
 73
               2
 40
0.4166412353515625
 49
0.2777862548828125
 74
               0
 49
-0.13885498046875
 74
               0
  0
LTYPE
  5
45
100
AcDbSymbolTableRecord
100
AcDbLinetypeTableRecord
  2
STYLE_12
 70
               0
  3

 72
              65
 73
               4
 40
2.1527862548828125
 49
1.180572509765625
 74
               0
 49
-0.4166412353515625
 74
               0
 49
0.069427490234375
 74
               0
 49
-0.48614501953125
 74
               0
  0
LTYPE
  5
46
100
AcDbSymbolTableRecord
100
AcDbLinetypeTableRecord
  2
STYLE_13
 70
               0
  3

 72
              65
 73
               2
 40
1.875
 49
1.25
 74
               0
 49
-0.625
 74
               0
  0
ENDTAB
  0
TABLE
  2
LAYER
  5
2
100
AcDbSymbolTable
 70
               5
  0
LAYER
  5
14
100
AcDbSymbolTableRecord
100
AcDbLayerTableRecord
  2
0
 70
               0
 62
               7
  6
Continuous
290
               1
370
              -3
390
1D
  0
LAYER
  5
47
100
AcDbSymbolTableRecord
100
AcDbLayerTableRecord
  2
Defpoints
 70
               0
 62
               7
  6
Continuous
290
               0
370
              -3
390
1D
  0
LAYER
  5
48
100
AcDbSymbolTableRecord
100
AcDbLayerTableRecord
  2
None
 70
               0
 62
               7
  6
Continuous
290
               1
370
               5
390
1D
  0
LAYER
  5
49
100
AcDbSymbolTableRecord
100
AcDbLayerTableRecord
  2
Dimension
 70
               0
 62
               7
  6
Continuous
290
               1
370
               5
390
1D
  0
LAYER
  5
4A
100
AcDbSymbolTableRecord
100
AcDbLayerTableRecord
  2
OUTLINE_PHO
 70
               0
 62
               4
  6
Continuous
290
               1
370
              15
390
1D
  0
ENDTAB
  0
TABLE
  2
STYLE
  5
3
100
AcDbSymbolTable
 70
               3
  0
STYLE
  5
17
100
AcDbSymbolTableRecord
100
AcDbTextStyleTableRecord
  2
Standard
 70
               0
 40
0.0
 41
1.0
 50
0.0
 71
               0
 42
0.0
  3
txt
  4

  0
STYLE
  5
38
100
AcDbSymbolTableRecord
100
AcDbTextStyleTableRecord
  2
Arial
 70
               0
 40
0.0
 41
1.0
 50
0.0
 71
               0
 42
0.0
  3
Arial
  4

1001
ACAD
1000
Arial
1071
        0
  0
STYLE
  5
39
100
AcDbSymbolTableRecord
100
AcDbTextStyleTableRecord
  2
New Century Schlbk
 70
               0
 40
0.0
 41
1.0
 50
0.0
 71
               0
 42
0.0
  3
New Century Schlbk
  4

1001
ACAD
1000
New Century Schlbk
1071
        0
  0
ENDTAB
  0
TABLE
  2
VIEW
  5
5
100
AcDbSymbolTable
 70
               0
  0
ENDTAB
  0
TABLE
  2
UCS
  5
6
100
AcDbSymbolTable
 70
               0
  0
ENDTAB
  0
TABLE
  2
APPID
  5
8
100
AcDbSymbolTable
 70
               1
  0
APPID
  5
16
100
AcDbSymbolTableRecord
100
AcDbRegAppTableRecord
  2
ACAD
 70
               0
  0
ENDTAB
  0
TABLE
  2
DIMSTYLE
  5
9
100
AcDbSymbolTable
 70
               4
100
AcDbDimStyleTable
 71
               0
  0
DIMSTYLE
105
18
100
AcDbSymbolTableRecord
100
AcDbDimStyleTableRecord
  2
Standard
 70
               0
  3

  4

 40
1.0
 41
0.18
 42
0.0625
 43
0.38
 44
0.18
 45
0.0
 46
0.0
 47
0.0
 48
0.0
 71
               0
 72
               0
 73
               1
 74
               1
 75
               0
 76
               0
 77
               0
 78
               0
 79
               0
140
0.18
141
0.09
142
0.0
143
25.399999999999999
144
1.0
145
0.0
146
1.0
147
0.09
148
0.0
170
               0
171
               2
172
               0
173
               0
174
               0
175
               0
176
               0
177
               0
178
               0
179
               0
271
               4
272
               4
273
               2
274
               2
275
               0
276
               0
277
               2
278
              46
279
               0
280
               0
281
               0
282
               0
283
               1
284
               0
285
               0
286
               0
288
               0
289
               3
340
17
341
0
342
0
343
0
344
0
371
              -2
372
              -2
  0
DIMSTYLE
105
53
100
AcDbSymbolTableRecord
100
AcDbDimStyleTableRecord
  2
IE Standard
 70
               0
  3
<>mm
  4
[]
 40
1.0
 41
0.79375
 42
0.4762500011827797
 43
6.9999859934672708
 44
0.9525000023655593
 45
0.0
 46
0.0
 47
0.0
 48
0.0
 71
               0
 72
               0
 73
               1
 74
               1
 75
               0
 76
               0
 77
               0
 78
              11
 79
               0
140
0.7579186197916666
141
0.0
142
0.0
143
1.0
144
1.0
145
0.0
146
1.0
147
0.0
148
0.0
170
               0
171
               1
172
               1
173
               0
174
               1
175
               0
176
               0
177
               0
178
               0
179
               2
271
               1
272
               1
273
               2
274
               2
275
               0
276
               2
277
               2
278
              46
279
               0
280
               0
281
               0
282
               0
283
               1
284
              11
285
              11
286
              11
288
               0
289
               0
340
38
341
4F
342
4B
343
0
344
0
371
              -2
372
              -2
  0
DIMSTYLE
105
59
100
AcDbSymbolTableRecord
100
AcDbDimStyleTableRecord
  2
Arch
 70
               0
  3
<>mm
  4
[]
 40
1.0
 41
0.5612060546875
 42
0.396875
 43
10.16
 44
0.79375
 45
0.0
 46
1.5874999999999999
 47
0.0
 48
0.0
 71
               0
 72
               0
 73
               0
 74
               0
 75
               0
 76
               0
 77
               1
 78
              11
 79
               0
140
0.7579186197916666
141
0.0
142
0.0
143
1.0
144
1.0
145
0.0
146
1.0
147
1.5874999999999999
148
0.0
170
               0
171
               1
172
               1
173
               0
174
               1
175
               0
176
               0
177
               0
178
               0
179
               2
271
               1
272
               1
273
               2
274
               2
275
               0
276
               2
277
               2
278
              46
279
               0
280
               0
281
               0
282
               0
283
               1
284
              11
285
              11
286
              11
288
               0
289
               0
340
38
341
4B
342
54
343
0
344
0
371
              -2
372
              -2
  0
DIMSTYLE
105
5A
100
AcDbSymbolTableRecord
100
AcDbDimStyleTableRecord
  2
ASME
 70
               0
  3
<>mm
  4
[]
 40
1.0
 41
0.79375
 42
0.396875
 43
10.16
 44
0.79375
 45
0.0
 46
0.0
 47
0.0
 48
0.0
 71
               0
 72
               0
 73
               1
 74
               1
 75
               0
 76
               0
 77
               0
 78
              11
 79
               0
140
0.7579186197916666
141
0.0
142
0.0
143
1.0
144
1.0
145
0.0
146
1.0
147
0.0
148
0.0
170
               0
171
               1
172
               0
173
               0
174
               1
175
               0
176
               0
177
               0
178
               0
179
               2
271
               1
272
               1
273
               2
274
               2
275
               0
276
               2
277
               2
278
              46
279
               0
280
               0
281
               0
282
               0
283
               1
284
              11
285
              11
286
              11
288
               0
289
               0
340
38
341
4B
342
4B
343
0
344
0
371
              -2
372
              -2
  0
ENDTAB
  0
TABLE
  2
BLOCK_RECORD
  5
1
100
AcDbSymbolTable
 70
              23
  0
BLOCK_RECORD
  5
A
100
AcDbSymbolTableRecord
100
AcDbBlockTableRecord
  2
*MODEL_SPACE
340
20
  0
BLOCK_RECORD
  5
B
100
AcDbSymbolTableRecord
100
AcDbBlockTableRecord
  2
*PAPER_SPACE
340
21
  0
BLOCK_RECORD
  5
4B
100
AcDbSymbolTableRecord
100
AcDbBlockTableRecord
  2
VW_FILLEDARROW
340
0
  0
BLOCK_RECORD
  5
4F
100
AcDbSymbolTableRecord
100
AcDbBlockTableRecord
  2
VW_FILLEDARROW-1
340
0
  0
BLOCK_RECORD
  5
54
100
AcDbSymbolTableRecord
100
AcDbBlockTableRecord
  2
VW_SLASH
340
0
  0
BLOCK_RECORD
  5
24
100
AcDbSymbolTableRecord
100
AcDbBlockTableRecord
  2
*D3
340
0
  0
BLOCK_RECORD
  5
25
100
AcDbSymbolTableRecord
100
AcDbBlockTableRecord
  2
*D4
340
0
  0
BLOCK_RECORD
  5
26
100
AcDbSymbolTableRecord
100
AcDbBlockTableRecord
  2
*D5
340
0
  0
BLOCK_RECORD
  5
27
100
AcDbSymbolTableRecord
100
AcDbBlockTableRecord
  2
*D6
340
0
  0
BLOCK_RECORD
  5
28
100
AcDbSymbolTableRecord
100
AcDbBlockTableRecord
  2
*D7
340
0
  0
BLOCK_RECORD
  5
29
100
AcDbSymbolTableRecord
100
AcDbBlockTableRecord
  2
*D8
340
0
  0
BLOCK_RECORD
  5
2A
100
AcDbSymbolTableRecord
100
AcDbBlockTableRecord
  2
*D9
340
0
  0
BLOCK_RECORD
  5
2B
100
AcDbSymbolTableRecord
100
AcDbBlockTableRecord
  2
*D10
340
0
  0
BLOCK_RECORD
  5
2C
100
AcDbSymbolTableRecord
100
AcDbBlockTableRecord
  2
*D11
340
0
  0
BLOCK_RECORD
  5
2D
100
AcDbSymbolTableRecord
100
AcDbBlockTableRecord
  2
*D12
340
0
  0
BLOCK_RECORD
  5
2E
100
AcDbSymbolTableRecord
100
AcDbBlockTableRecord
  2
*D13
340
0
  0
BLOCK_RECORD
  5
2F
100
AcDbSymbolTableRecord
100
AcDbBlockTableRecord
  2
*D14
340
0
  0
BLOCK_RECORD
  5
30
100
AcDbSymbolTableRecord
100
AcDbBlockTableRecord
  2
*D15
340
0
  0
BLOCK_RECORD
  5
31
100
AcDbSymbolTableRecord
100
AcDbBlockTableRecord
  2
*D16
340
0
  0
BLOCK_RECORD
  5
32
100
AcDbSymbolTableRecord
100
AcDbBlockTableRecord
  2
*D17
340
0
  0
BLOCK_RECORD
  5
33
100
AcDbSymbolTableRecord
100
AcDbBlockTableRecord
  2
Group
340
0
102
{BLKREFS
331
19B
102
}
  0
BLOCK_RECORD
  5
34
100
AcDbSymbolTableRecord
100
AcDbBlockTableRecord
  2
Group-1
340
0
102
{BLKREFS
331
19C
102
}
  0
BLOCK_RECORD
  5
35
100
AcDbSymbolTableRecord
100
AcDbBlockTableRecord
  2
Group-2
340
0
102
{BLKREFS
331
19D
102
}
  0
BLOCK_RECORD
  5
36
100
AcDbSymbolTableRecord
100
AcDbBlockTableRecord
  2
Group-3
340
0
102
{BLKREFS
331
19E
102
}
  0
BLOCK_RECORD
  5
37
100
AcDbSymbolTableRecord
100
AcDbBlockTableRecord
  2
*D22
340
0
  0
ENDTAB
  0
ENDSEC
  0
SECTION
  2
BLOCKS
  0
BLOCK
  5
D
100
AcDbEntity
  8
0
390
0
100
AcDbBlockBegin
  2
*MODEL_SPACE
 70
               0
 10
0.0
 20
0.0
 30
0.0
  3
*MODEL_SPACE
  1

  0
ENDBLK
  5
E
100
AcDbEntity
  8
0
390
0
100
AcDbBlockEnd
  0
BLOCK
  5
F
100
AcDbEntity
 67
               1
  8
0
390
0
100
AcDbBlockBegin
  2
*PAPER_SPACE
 70
               0
 10
0.0
 20
0.0
 30
0.0
  3
*PAPER_SPACE
  1

  0
ENDBLK
  5
10
100
AcDbEntity
 67
               1
  8
0
390
0
100
AcDbBlockEnd
  0
BLOCK
  5
4C
100
AcDbEntity
  8
0
370
              -2
390
0
  6
ByBlock
 62
               0
100
AcDbBlockBegin
  2
VW_FILLEDARROW
 70
               0
 10
0.0
 20
0.0
 30
0.0
  3
VW_FILLEDARROW
  1

  0
SOLID
  5
4D
100
AcDbEntity
  8
0
370
              -2
390
0
 62
               0
100
AcDbTrace
 10
0.0
 20
0.0
 30
0.0
 11
-0.9999389648437499
 21
-0.2679328381102956
 31
0.0
 12
-0.9999389648437499
 22
0.2679328381102958
 32
0.0
 13
-0.9999389648437499
 23
0.2679328381102958
 33
0.0
  0
ENDBLK
  5
4E
100
AcDbEntity
  8
0
390
0
100
AcDbBlockEnd
  0
BLOCK
  5
50
100
AcDbEntity
  8
0
370
              -2
390
0
  6
ByBlock
 62
               0
100
AcDbBlockBegin
  2
VW_FILLEDARROW-1
 70
               0
 10
0.0
 20
0.0
 30
0.0
  3
VW_FILLEDARROW
  1

  0
SOLID
  5
51
100
AcDbEntity
  8
0
370
              -2
390
0
 62
               0
100
AcDbTrace
 10
0.0
 20
0.0
 30
0.0
 11
-0.6662384033203125
 21
-0.1785180421362784
 31
0.0
 12
-0.6662384033203125
 22
0.1785180421362785
 32
0.0
 13
-0.6662384033203125
 23
0.1785180421362785
 33
0.0
  0
ENDBLK
  5
52
100
AcDbEntity
  8
0
390
0
100
AcDbBlockEnd
  0
BLOCK
  5
55
100
AcDbEntity
  8
0
370
              -2
390
0
  6
ByBlock
 62
               0
100
AcDbBlockBegin
  2
VW_SLASH
 70
               0
 10
0.0
 20
0.0
 30
0.0
  3
VW_SLASH
  1

  0
LINE
  5
56
100
AcDbEntity
  8
0
370
              -2
390
0
  6
ByBlock
 62
               0
100
AcDbLine
 10
0.0
 20
0.0
 30
0.0
 11
-1.0
 21
0.0
 31
0.0
  0
LINE
  5
57
100
AcDbEntity
  8
0
370
              20
390
0
  6
ByBlock
 62
               0
100
AcDbLine
 10
-0.5000145658230796
 20
-0.5000145658230795
 30
0.0
 11
0.5000145658230796
 21
0.5000145658230795
 31
0.0
  0
ENDBLK
  5
58
100
AcDbEntity
  8
0
390
0
100
AcDbBlockEnd
  0
BLOCK
  5
5B
100
AcDbEntity
  8
Dimension
390
0
100
AcDbBlockBegin
  2
*D3
 70
               1
 10
0.0
 20
0.0
 30
0.0
  3
*D3
  1

  0
LINE
  5
5C
100
AcDbEntity
  8
Dimension
370
              -2
390
0
  6
Continuous
 62
               0
100
AcDbLine
 10
-8.9801408595509002
 20
-5.2404900011827635
 30
0.0
 11
-8.9801408595509002
 21
-14.969240002365524
 31
0.0
  0
LINE
  5
5D
100
AcDbEntity
  8
Dimension
370
              -2
390
0
  6
Continuous
 62
               0
100
AcDbLine
 10
3.2448591404490941
 20
-5.2404900011827635
 30
0.0
 11
3.2448591404490941
 21
-14.969240002365524
 31
0.0
  0
LINE
  5
5E
100
AcDbEntity
  8
Dimension
370
              -2
390
0
  6
Continuous
 62
               0
100
AcDbLine
 10
3.2448591404490941
 20
-14.01673999999997
 30
0.0
 11
-8.9801408595509002
 21
-14.01673999999997
 31
0.0
  0
LINE
  5
5F
100
AcDbEntity
  8
Dimension
370
              -2
390
0
  6
Continuous
 62
               0
100
AcDbLine
 10
-8.9801408595509002
 20
-14.01673999999997
 30
0.0
 11
-10.730137357917712
 21
-14.01673999999997
 31
0.0
  0
SOLID
  5
60
100
AcDbEntity
  8
Dimension
370
              -2
390
0
 62
               0
100
AcDbTrace
 10
-8.9801408595509002
 20
-14.01673999999997
 30
0.0
 11
-9.7738908595508995
 21
-14.229424671492174
 31
0.0
 12
-9.7738908595508995
 22
-13.804055328507767
 32
0.0
 13
-9.7738908595508995
 23
-13.804055328507767
 33
0.0
  0
LINE
  5
61
100
AcDbEntity
  8
Dimension
370
              -2
390
0
  6
Continuous
 62
               0
100
AcDbLine
 10
3.2448591404490941
 20
-14.01673999999997
 30
0.0
 11
4.9948556388159062
 21
-14.01673999999997
 31
0.0
  0
SOLID
  5
62
100
AcDbEntity
  8
Dimension
370
              -2
390
0
 62
               0
100
AcDbTrace
 10
3.2448591404490941
 20
-14.01673999999997
 30
0.0
 11
4.0386091404490942
 21
-13.804055328507767
 31
0.0
 12
4.0386091404490942
 22
-14.229424671492174
 32
0.0
 13
4.0386091404490942
 23
-14.229424671492174
 33
0.0
  0
WIPEOUT
  5
63
100
AcDbEntity
  8
Dimension
370
              -2
390
0
  6
Continuous
 62
               0
 92
        0
100
AcDbWipeout
 90
        0
 10
-7.8947083296534117
 20
-14.625278916666634
 30
0.0
 11
5.0376507600148521
 21
0.0
 31
0.0
 12
0.0
 22
5.0376507600148521
 32
0.0
 13
1.0
 23
1.0
340
0
 70
               7
280
               1
281
              50
282
              50
283
               0
360
0
 71
               2
 91
        5
 14
-0.5
 24
0.5
 14
0.5
 24
0.5
 14
0.5
 24
0.2584033594269222
 14
-0.5
 24
0.2584033594269222
 14
-0.5
 24
0.5
  0
MTEXT
  5
64
100
AcDbEntity
  8
Dimension
390
0
 62
               0
100
AcDbMText
 10
-7.8947083296534117
 20
-13.602777796874967
 30
0.0
 40
0.7579186197916666
 41
0.0
 71
               1
 72
               1
  1
12.225mm
  7
Arial
 73
               1
 44
0.9673603504928806
  0
WIPEOUT
  5
65
100
AcDbEntity
  8
Dimension
370
              -2
390
0
  6
Continuous
 62
               0
 92
        0
100
AcDbWipeout
 90
        0
 10
-2.8570575696385561
 20
-14.625280583333296
 30
0.0
 11
5.0270675208833486
 21
0.0
 31
0.0
 12
0.0
 22
5.0270675208833486
 32
0.0
 13
1.0
 23
1.0
340
0
 70
               7
280
               1
281
              50
282
              50
283
               0
360
0
 71
               2
 91
        5
 14
-0.5
 24
0.5
 14
0.5
 24
0.5
 14
0.5
 24
0.2578947378478542
 14
-0.5
 24
0.2578947378478542
 14
-0.5
 24
0.5
  0
MTEXT
  5
66
100
AcDbEntity
  8
Dimension
390
0
 62
               0
100
AcDbMText
 10
-2.8570575696385561
 20
-13.60277946354163
 30
0.0
 40
0.7579186197916666
 41
0.0
 71
               1
 72
               1
  1
±0.125mm
  7
Arial
 73
               1
 44
0.9673603504928806
  0
POINT
  5
67
100
AcDbEntity
  8
Defpoints
370
               0
390
0
 62
               0
100
AcDbPoint
 10
3.2448591404490941
 20
-4.7642399999999867
 30
0.0
  0
POINT
  5
68
100
AcDbEntity
  8
Defpoints
370
               0
390
0
 62
               0
100
AcDbPoint
 10
-8.9801408595509002
 20
-4.7642399999999867
 30
0.0
  0
POINT
  5
69
100
AcDbEntity
  8
Defpoints
370
               0
390
0
 62
               0
100
AcDbPoint
 10
-8.9801408595509002
 20
-14.016739999999972
 30
0.0
  0
ENDBLK
  5
6A
100
AcDbEntity
  8
Dimension
390
0
100
AcDbBlockEnd
  0
BLOCK
  5
6B
100
AcDbEntity
  8
Dimension
390
0
100
AcDbBlockBegin
  2
*D4
 70
               1
 10
0.0
 20
0.0
 30
0.0
  3
*D4
  1

  0
LINE
  5
6C
100
AcDbEntity
  8
Dimension
370
              -2
390
0
  6
Continuous
 62
               0
100
AcDbLine
 10
-8.2063908607336771
 20
-3.5142399999999867
 30
0.0
 11
-13.636300861916453
 21
-3.5142399999999867
 31
0.0
  0
LINE
  5
6D
100
AcDbEntity
  8
Dimension
370
              -2
390
0
  6
Continuous
 62
               0
100
AcDbLine
 10
-8.2063908607336771
 20
-0.5142399999999867
 30
0.0
 11
-13.636300861916453
 21
-0.5142399999999867
 31
0.0
  0
LINE
  5
6E
100
AcDbEntity
  8
Dimension
370
              -2
390
0
  6
Continuous
 62
               0
100
AcDbLine
 10
-12.6838008595509
 20
-0.5142399999999867
 30
0.0
 11
-12.6838008595509
 21
-3.5142399999999867
 31
0.0
  0
LINE
  5
6F
100
AcDbEntity
  8
Dimension
370
              -2
390
0
  6
Continuous
 62
               0
100
AcDbLine
 10
-12.6838008595509
 20
-3.5142399999999867
 30
0.0
 11
-12.6838008595509
 21
-5.2642364983667989
 31
0.0
  0
SOLID
  5
70
100
AcDbEntity
  8
Dimension
370
              -2
390
0
 62
               0
100
AcDbTrace
 10
-12.6838008595509
 20
-3.5142399999999867
 30
0.0
 11
-12.471116188058696
 21
-4.3079899999999869
 31
0.0
 12
-12.896485531043103
 22
-4.3079899999999869
 32
0.0
 13
-12.896485531043103
 23
-4.3079899999999869
 33
0.0
  0
LINE
  5
71
100
AcDbEntity
  8
Dimension
370
              -2
390
0
  6
Continuous
 62
               0
100
AcDbLine
 10
-12.6838008595509
 20
-0.5142399999999867
 30
0.0
 11
-12.6838008595509
 21
1.2357564983668254
 31
0.0
  0
SOLID
  5
72
100
AcDbEntity
  8
Dimension
370
              -2
390
0
 62
               0
100
AcDbTrace
 10
-12.6838008595509
 20
-0.5142399999999867
 30
0.0
 11
-12.896485531043103
 21
0.2795100000000133
 31
0.0
 12
-12.471116188058696
 22
0.2795100000000133
 32
0.0
 13
-12.471116188058696
 23
0.2795100000000133
 33
0.0
  0
WIPEOUT
  5
73
100
AcDbEntity
  8
Dimension
370
              -2
390
0
  6
Continuous
 62
               0
 92
        0
100
AcDbWipeout
 90
        0
 10
-13.8691304550902
 20
-2.7101697499999799
 30
0.0
 11
2.3706591910786088
 21
0.0
 31
0.0
 12
0.0
 22
2.3706591910786088
 32
0.0
 13
1.0
 23
1.0
340
0
 70
               7
280
               1
281
              50
282
              50
283
               0
360
0
 71
               2
 91
        5
 14
-0.5
 24
0.5
 14
0.5
 24
0.5
 14
0.5
 24
-0.0133928590748844
 14
-0.5
 24
-0.0133928590748844
 14
-0.5
 24
0.5
  0
MTEXT
  5
74
100
AcDbEntity
  8
Dimension
390
0
 62
               0
100
AcDbMText
 10
-13.8691304550902
 20
-1.6876686302083137
 30
0.0
 40
0.7579186197916666
 41
0.0
 71
               1
 72
               1
  1
3mm
  7
Arial
 73
               1
 44
0.9673603504928806
  0
POINT
  5
75
100
AcDbEntity
  8
Defpoints
370
               0
390
0
 62
               0
100
AcDbPoint
 10
-7.7301408595509002
 20
-0.5142399999999867
 30
0.0
  0
POINT
  5
76
100
AcDbEntity
  8
Defpoints
370
               0
390
0
 62
               0
100
AcDbPoint
 10
-7.7301408595509002
 20
-3.5142399999999867
 30
0.0
  0
POINT
  5
77
100
AcDbEntity
  8
Defpoints
370
               0
390
0
 62
               0
100
AcDbPoint
 10
-12.6838008595509
 20
-3.5142399999999867
 30
0.0
  0
ENDBLK
  5
78
100
AcDbEntity
  8
Dimension
390
0
100
AcDbBlockEnd
  0
BLOCK
  5
79
100
AcDbEntity
  8
Dimension
390
0
100
AcDbBlockBegin
  2
*D5
 70
               1
 10
0.0
 20
0.0
 30
0.0
  3
*D5
  1

  0
LINE
  5
7A
100
AcDbEntity
  8
Dimension
370
              -2
390
0
  6
Continuous
 62
               0
100
AcDbLine
 10
2.4711091416318709
 20
6.210760000000036
 30
0.0
 11
10.465988989999062
 21
6.210760000000036
 31
0.0
  0
LINE
  5
7B
100
AcDbEntity
  8
Dimension
370
              -2
390
0
  6
Continuous
 62
               0
100
AcDbLine
 10
2.4711091416318709
 20
4.210760000000036
 30
0.0
 11
10.465988989999062
 21
4.210760000000036
 31
0.0
  0
LINE
  5
7C
100
AcDbEntity
  8
Dimension
370
              -2
390
0
  6
Continuous
 62
               0
100
AcDbLine
 10
9.513488987633508
 20
4.210760000000036
 30
0.0
 11
9.513488987633508
 21
6.210760000000036
 31
0.0
  0
LINE
  5
7D
100
AcDbEntity
  8
Dimension
370
              -2
390
0
  6
Continuous
 62
               0
100
AcDbLine
 10
9.513488987633508
 20
6.210760000000036
 30
0.0
 11
9.513488987633508
 21
7.9607564983668553
 31
0.0
  0
SOLID
  5
7E
100
AcDbEntity
  8
Dimension
370
              -2
390
0
 62
               0
100
AcDbTrace
 10
9.513488987633508
 20
6.210760000000036
 30
0.0
 11
9.3008043161413045
 21
7.0045100000000362
 31
0.0
 12
9.7261736591257115
 22
7.0045100000000362
 32
0.0
 13
9.7261736591257115
 23
7.0045100000000362
 33
0.0
  0
LINE
  5
7F
100
AcDbEntity
  8
Dimension
370
              -2
390
0
  6
Continuous
 62
               0
100
AcDbLine
 10
9.513488987633508
 20
4.210760000000036
 30
0.0
 11
9.513488987633508
 21
2.4607635016332168
 31
0.0
  0
SOLID
  5
80
100
AcDbEntity
  8
Dimension
370
              -2
390
0
 62
               0
100
AcDbTrace
 10
9.513488987633508
 20
4.210760000000036
 30
0.0
 11
9.7261736591257115
 21
3.4170100000000359
 31
0.0
 12
9.3008043161413045
 22
3.4170100000000359
 32
0.0
 13
9.3008043161413045
 23
3.4170100000000359
 33
0.0
  0
WIPEOUT
  5
81
100
AcDbEntity
  8
Dimension
370
              -2
390
0
  6
Continuous
 62
               0
 92
        0
100
AcDbWipeout
 90
        0
 10
8.3281593920942072
 20
4.6022202500000349
 30
0.0
 11
2.3706591910786088
 21
0.0
 31
0.0
 12
0.0
 22
2.3706591910786088
 32
0.0
 13
1.0
 23
1.0
340
0
 70
               7
280
               1
281
              50
282
              50
283
               0
360
0
 71
               2
 91
        5
 14
-0.5
 24
0.5
 14
0.5
 24
0.5
 14
0.5
 24
-0.0133928590748844
 14
-0.5
 24
-0.0133928590748844
 14
-0.5
 24
0.5
  0
MTEXT
  5
82
100
AcDbEntity
  8
Dimension
390
0
 62
               0
100
AcDbMText
 10
8.3281593920942072
 20
5.6247213697917013
 30
0.0
 40
0.7579186197916666
 41
0.0
 71
               1
 72
               1
  1
2mm
  7
Arial
 73
               1
 44
0.9673603504928806
  0
POINT
  5
83
100
AcDbEntity
  8
Defpoints
370
               0
390
0
 62
               0
100
AcDbPoint
 10
1.9948591404490941
 20
4.210760000000036
 30
0.0
  0
POINT
  5
84
100
AcDbEntity
  8
Defpoints
370
               0
390
0
 62
               0
100
AcDbPoint
 10
1.9948591404490941
 20
6.210760000000036
 30
0.0
  0
POINT
  5
85
100
AcDbEntity
  8
Defpoints
370
               0
390
0
 62
               0
100
AcDbPoint
 10
9.5134889876335045
 20
6.210760000000036
 30
0.0
  0
ENDBLK
  5
86
100
AcDbEntity
  8
Dimension
390
0
100
AcDbBlockEnd
  0
BLOCK
  5
87
100
AcDbEntity
  8
Dimension
390
0
100
AcDbBlockBegin
  2
*D6
 70
               1
 10
0.0
 20
0.0
 30
0.0
  3
*D6
  1

  0
LINE
  5
88
100
AcDbEntity
  8
Dimension
370
              -2
390
0
  6
Continuous
 62
               0
100
AcDbLine
 10
-8.9801408595509002
 20
7.9370100011828129
 30
0.0
 11
-8.9801408595509002
 21
12.650870002365593
 31
0.0
  0
LINE
  5
89
100
AcDbEntity
  8
Dimension
370
              -2
390
0
  6
Continuous
 62
               0
100
AcDbLine
 10
-7.7301408595509002
 20
6.6870100011828129
 30
0.0
 11
-7.7301408595509002
 21
12.650870002365593
 31
0.0
  0
LINE
  5
8A
100
AcDbEntity
  8
Dimension
370
              -2
390
0
  6
Continuous
 62
               0
100
AcDbLine
 10
-7.7301408595509002
 20
11.698370000000033
 30
0.0
 11
-8.9801408595509002
 21
11.698370000000033
 31
0.0
  0
LINE
  5
8B
100
AcDbEntity
  8
Dimension
370
              -2
390
0
  6
Continuous
 62
               0
100
AcDbLine
 10
-8.9801408595509002
 20
11.698370000000033
 30
0.0
 11
-12.043410859550903
 21
11.698370000000033
 31
0.0
  0
SOLID
  5
8C
100
AcDbEntity
  8
Dimension
370
              -2
390
0
 62
               0
100
AcDbTrace
 10
-8.9801408595509002
 20
11.698370000000033
 30
0.0
 11
-9.7738908595508995
 21
11.485685328507829
 31
0.0
 12
-9.7738908595508995
 22
11.911054671492236
 32
0.0
 13
-9.7738908595508995
 23
11.911054671492236
 33
0.0
  0
LINE
  5
8D
100
AcDbEntity
  8
Dimension
370
              -2
390
0
  6
Continuous
 62
               0
100
AcDbLine
 10
-7.7301408595509002
 20
11.698370000000033
 30
0.0
 11
-5.9801443611840881
 21
11.698370000000033
 31
0.0
  0
SOLID
  5
8E
100
AcDbEntity
  8
Dimension
370
              -2
390
0
 62
               0
100
AcDbTrace
 10
-7.7301408595509002
 20
11.698370000000033
 30
0.0
 11
-6.9363908595509001
 21
11.911054671492236
 31
0.0
 12
-6.9363908595509001
 22
11.485685328507829
 32
0.0
 13
-6.9363908595509001
 23
11.485685328507829
 33
0.0
  0
WIPEOUT
  5
8F
100
AcDbEntity
  8
Dimension
370
              -2
390
0
  6
Continuous
 62
               0
 92
        0
100
AcDbWipeout
 90
        0
 10
-23.028882888336184
 20
11.089832166666692
 30
0.0
 11
3.8523212485843246
 21
0.0
 31
0.0
 12
0.0
 22
3.8523212485843246
 32
0.0
 13
1.0
 23
1.0
340
0
 70
               7
280
               1
281
              50
282
              50
283
               0
360
0
 71
               2
 91
        5
 14
-0.5
 24
0.5
 14
0.5
 24
0.5
 14
0.5
 24
0.1840659380504
 14
-0.5
 24
0.1840659380504
 14
-0.5
 24
0.5
  0
MTEXT
  5
90
100
AcDbEntity
  8
Dimension
390
0
 62
               0
100
AcDbMText
 10
-23.028882888336184
 20
12.112333286458359
 30
0.0
 40
0.7579186197916666
 41
0.0
 71
               1
 72
               1
  1
1.25mm
  7
Arial
 73
               1
 44
0.9673603504928806
  0
WIPEOUT
  5
91
100
AcDbEntity
  8
Dimension
370
              -2
390
0
  6
Continuous
 62
               0
 92
        0
100
AcDbWipeout
 90
        0
 10
-19.176561639751867
 20
11.08983050000003
 30
0.0
 11
5.0270675208833495
 21
0.0
 31
0.0
 12
0.0
 22
5.0270675208833495
 32
0.0
 13
1.0
 23
1.0
340
0
 70
               7
280
               1
281
              50
282
              50
283
               0
360
0
 71
               2
 91
        5
 14
-0.5
 24
0.5
 14
0.5
 24
0.5
 14
0.5
 24
0.2578947378478543
 14
-0.5
 24
0.2578947378478543
 14
-0.5
 24
0.5
  0
MTEXT
  5
92
100
AcDbEntity
  8
Dimension
390
0
 62
               0
100
AcDbMText
 10
-19.176561639751867
 20
12.112331619791696
 30
0.0
 40
0.7579186197916666
 41
0.0
 71
               1
 72
               1
  1
±0.125mm
  7
Arial
 73
               1
 44
0.9673603504928806
  0
WIPEOUT
  5
93
100
AcDbEntity
  8
Dimension
370
              -2
390
0
  6
Continuous
 62
               0
 92
        0
100
AcDbWipeout
 90
        0
 10
-14.149494118868517
 20
11.08982833333336
 30
0.0
 11
2.1060832593176109
 21
0.0
 31
0.0
 12
0.0
 22
2.1060832593176109
 32
0.0
 13
1.0
 23
1.0
340
0
 70
               7
280
               1
281
              50
282
              50
283
               0
360
0
 71
               2
 91
        5
 14
-0.5
 24
0.5
 14
0.5
 24
0.5
 14
0.5
 24
-0.0778894675453992
 14
-0.5
 24
-0.0778894675453992
 14
-0.5
 24
0.5
  0
MTEXT
  5
94
100
AcDbEntity
  8
Dimension
390
0
 62
               0
100
AcDbMText
 10
-14.149494118868517
 20
12.112332673611137
 30
0.0
 40
0.7579210069444442
 41
0.0
 71
               1
 72
               1
  1
 (x4)
  7
Arial
 73
               1
 44
0.9673603504928806
  0
POINT
  5
95
100
AcDbEntity
  8
Defpoints
370
               0
390
0
 62
               0
100
AcDbPoint
 10
-7.7301408595509002
 20
6.210760000000036
 30
0.0
  0
POINT
  5
96
100
AcDbEntity
  8
Defpoints
370
               0
390
0
 62
               0
100
AcDbPoint
 10
-8.9801408595509002
 20
7.460760000000036
 30
0.0
  0
POINT
  5
97
100
AcDbEntity
  8
Defpoints
370
               0
390
0
 62
               0
100
AcDbPoint
 10
-8.9801408595509002
 20
11.698370000000036
 30
0.0
  0
ENDBLK
  5
98
100
AcDbEntity
  8
Dimension
390
0
100
AcDbBlockEnd
  0
BLOCK
  5
99
100
AcDbEntity
  8
Dimension
390
0
100
AcDbBlockBegin
  2
*D7
 70
               1
 10
0.0
 20
0.0
 30
0.0
  3
*D7
  1

  0
LINE
  5
9A
100
AcDbEntity
  8
Dimension
370
              -2
390
0
  6
Continuous
 62
               0
100
AcDbLine
 10
-9.4563908607336771
 20
7.460760000000036
 30
0.0
 11
-19.000430861916456
 21
7.460760000000036
 31
0.0
  0
LINE
  5
9B
100
AcDbEntity
  8
Dimension
370
              -2
390
0
  6
Continuous
 62
               0
100
AcDbLine
 10
-8.2063908607336771
 20
6.210760000000036
 30
0.0
 11
-19.000430861916456
 21
6.210760000000036
 31
0.0
  0
LINE
  5
9C
100
AcDbEntity
  8
Dimension
370
              -2
390
0
  6
Continuous
 62
               0
100
AcDbLine
 10
-18.047930859550902
 20
6.210760000000036
 30
0.0
 11
-18.047930859550902
 21
7.460760000000036
 31
0.0
  0
LINE
  5
9D
100
AcDbEntity
  8
Dimension
370
              -2
390
0
  6
Continuous
 62
               0
100
AcDbLine
 10
-18.047930859550902
 20
7.460760000000036
 30
0.0
 11
-18.047930859550902
 21
9.7586300000000392
 31
0.0
  0
SOLID
  5
9E
100
AcDbEntity
  8
Dimension
370
              -2
390
0
 62
               0
100
AcDbTrace
 10
-18.047930859550902
 20
7.460760000000036
 30
0.0
 11
-18.260615531043108
 21
8.2545100000000353
 31
0.0
 12
-17.835246188058697
 22
8.2545100000000353
 32
0.0
 13
-17.835246188058697
 23
8.2545100000000353
 33
0.0
  0
LINE
  5
9F
100
AcDbEntity
  8
Dimension
370
              -2
390
0
  6
Continuous
 62
               0
100
AcDbLine
 10
-18.047930859550902
 20
6.210760000000036
 30
0.0
 11
-18.047930859550902
 21
4.4607635016332168
 31
0.0
  0
SOLID
  5
A0
100
AcDbEntity
  8
Dimension
370
              -2
390
0
 62
               0
100
AcDbTrace
 10
-18.047930859550902
 20
6.210760000000036
 30
0.0
 11
-17.835246188058701
 21
5.4170100000000359
 31
0.0
 12
-18.260615531043108
 22
5.4170100000000359
 32
0.0
 13
-18.260615531043108
 23
5.4170100000000359
 33
0.0
  0
WIPEOUT
  5
A1
100
AcDbEntity
  8
Dimension
370
              -2
390
0
  6
Continuous
 62
               0
 92
        0
100
AcDbWipeout
 90
        0
 10
-23.54066687394355
 20
9.150092166666699
 30
0.0
 11
3.8523212485843246
 21
0.0
 31
0.0
 12
0.0
 22
3.8523212485843246
 32
0.0
 13
1.0
 23
1.0
340
0
 70
               7
280
               1
281
              50
282
              50
283
               0
360
0
 71
               2
 91
        5
 14
-0.5
 24
0.5
 14
0.5
 24
0.5
 14
0.5
 24
0.1840659380504
 14
-0.5
 24
0.1840659380504
 14
-0.5
 24
0.5
  0
MTEXT
  5
A2
100
AcDbEntity
  8
Dimension
390
0
 62
               0
100
AcDbMText
 10
-23.54066687394355
 20
10.172593286458365
 30
0.0
 40
0.7579186197916666
 41
0.0
 71
               1
 72
               1
  1
1.25mm
  7
Arial
 73
               1
 44
0.9673603504928806
  0
WIPEOUT
  5
A3
100
AcDbEntity
  8
Dimension
370
              -2
390
0
  6
Continuous
 62
               0
 92
        0
100
AcDbWipeout
 90
        0
 10
-19.688345625359233
 20
9.1500905000000365
 30
0.0
 11
5.0270675208833495
 21
0.0
 31
0.0
 12
0.0
 22
5.0270675208833495
 32
0.0
 13
1.0
 23
1.0
340
0
 70
               7
280
               1
281
              50
282
              50
283
               0
360
0
 71
               2
 91
        5
 14
-0.5
 24
0.5
 14
0.5
 24
0.5
 14
0.5
 24
0.2578947378478543
 14
-0.5
 24
0.2578947378478543
 14
-0.5
 24
0.5
  0
MTEXT
  5
A4
100
AcDbEntity
  8
Dimension
390
0
 62
               0
100
AcDbMText
 10
-19.688345625359233
 20
10.172591619791703
 30
0.0
 40
0.7579186197916666
 41
0.0
 71
               1
 72
               1
  1
±0.125mm
  7
Arial
 73
               1
 44
0.9673603504928806
  0
WIPEOUT
  5
A5
100
AcDbEntity
  8
Dimension
370
              -2
390
0
  6
Continuous
 62
               0
 92
        0
100
AcDbWipeout
 90
        0
 10
-14.661278104475883
 20
9.1500883333333665
 30
0.0
 11
2.1060832593176109
 21
0.0
 31
0.0
 12
0.0
 22
2.1060832593176109
 32
0.0
 13
1.0
 23
1.0
340
0
 70
               7
280
               1
281
              50
282
              50
283
               0
360
0
 71
               2
 91
        5
 14
-0.5
 24
0.5
 14
0.5
 24
0.5
 14
0.5
 24
-0.0778894675453992
 14
-0.5
 24
-0.0778894675453992
 14
-0.5
 24
0.5
  0
MTEXT
  5
A6
100
AcDbEntity
  8
Dimension
390
0
 62
               0
100
AcDbMText
 10
-14.661278104475883
 20
10.172592673611144
 30
0.0
 40
0.7579210069444442
 41
0.0
 71
               1
 72
               1
  1
 (x4)
  7
Arial
 73
               1
 44
0.9673603504928806
  0
POINT
  5
A7
100
AcDbEntity
  8
Defpoints
370
               0
390
0
 62
               0
100
AcDbPoint
 10
-7.7301408595509002
 20
6.210760000000036
 30
0.0
  0
POINT
  5
A8
100
AcDbEntity
  8
Defpoints
370
               0
390
0
 62
               0
100
AcDbPoint
 10
-8.9801408595509002
 20
7.460760000000036
 30
0.0
  0
POINT
  5
A9
100
AcDbEntity
  8
Defpoints
370
               0
390
0
 62
               0
100
AcDbPoint
 10
-18.047930859550899
 20
7.460760000000036
 30
0.0
  0
ENDBLK
  5
AA
100
AcDbEntity
  8
Dimension
390
0
100
AcDbBlockEnd
  0
BLOCK
  5
AB
100
AcDbEntity
  8
Dimension
390
0
100
AcDbBlockBegin
  2
*D8
 70
               1
 10
0.0
 20
0.0
 30
0.0
  3
*D8
  1

  0
LINE
  5
AC
100
AcDbEntity
  8
Dimension
370
              -2
390
0
  6
Continuous
 62
               0
100
AcDbLine
 10
-7.7301408595509002
 20
-3.9904900011827635
 30
0.0
 11
-7.7301408595509002
 21
-11.669240002365527
 31
0.0
  0
LINE
  5
AD
100
AcDbEntity
  8
Dimension
370
              -2
390
0
  6
Continuous
 62
               0
100
AcDbLine
 10
1.9948591404490941
 20
-3.9904900011827635
 30
0.0
 11
1.9948591404490941
 21
-11.669240002365527
 31
0.0
  0
LINE
  5
AE
100
AcDbEntity
  8
Dimension
370
              -2
390
0
  6
Continuous
 62
               0
100
AcDbLine
 10
1.9948591404490941
 20
-10.716739999999973
 30
0.0
 11
-7.7301408595509002
 21
-10.716739999999973
 31
0.0
  0
LINE
  5
AF
100
AcDbEntity
  8
Dimension
370
              -2
390
0
  6
Continuous
 62
               0
100
AcDbLine
 10
-7.7301408595509002
 20
-10.716739999999973
 30
0.0
 11
-9.4801373579177124
 21
-10.716739999999973
 31
0.0
  0
SOLID
  5
B0
100
AcDbEntity
  8
Dimension
370
              -2
390
0
 62
               0
100
AcDbTrace
 10
-7.7301408595509002
 20
-10.716739999999973
 30
0.0
 11
-8.5238908595508995
 21
-10.929424671492177
 31
0.0
 12
-8.5238908595508995
 22
-10.50405532850777
 32
0.0
 13
-8.5238908595508995
 23
-10.50405532850777
 33
0.0
  0
LINE
  5
B1
100
AcDbEntity
  8
Dimension
370
              -2
390
0
  6
Continuous
 62
               0
100
AcDbLine
 10
1.9948591404490941
 20
-10.716739999999973
 30
0.0
 11
3.7448556388159062
 21
-10.716739999999973
 31
0.0
  0
SOLID
  5
B2
100
AcDbEntity
  8
Dimension
370
              -2
390
0
 62
               0
100
AcDbTrace
 10
1.9948591404490941
 20
-10.716739999999973
 30
0.0
 11
2.7886091404490942
 21
-10.50405532850777
 31
0.0
 12
2.7886091404490942
 22
-10.929424671492177
 32
0.0
 13
2.7886091404490942
 23
-10.929424671492177
 33
0.0
  0
WIPEOUT
  5
B3
100
AcDbEntity
  8
Dimension
370
              -2
390
0
  6
Continuous
 62
               0
 92
        0
100
AcDbWipeout
 90
        0
 10
-6.1378807089881775
 20
-11.325279749999982
 30
0.0
 11
6.5510630395677349
 21
0.0
 31
0.0
 12
0.0
 22
6.5510630395677349
 32
0.0
 13
1.0
 23
1.0
340
0
 70
               7
280
               1
281
              50
282
              50
283
               0
360
0
 71
               2
 91
        5
 14
-0.5
 24
0.5
 14
0.5
 24
0.5
 14
0.5
 24
0.3142164878205311
 14
-0.5
 24
0.3142164878205311
 14
-0.5
 24
0.5
  0
MTEXT
  5
B4
100
AcDbEntity
  8
Dimension
390
0
 62
               0
100
AcDbMText
 10
-6.1378807089881775
 20
-10.302778630208316
 30
0.0
 40
0.7579186197916666
 41
0.0
 71
               1
 72
               1
  1
9.725mm (x4)
  7
Arial
 73
               1
 44
0.9673603504928806
  0
POINT
  5
B5
100
AcDbEntity
  8
Defpoints
370
               0
390
0
 62
               0
100
AcDbPoint
 10
1.9948591404490941
 20
-3.5142399999999867
 30
0.0
  0
POINT
  5
B6
100
AcDbEntity
  8
Defpoints
370
               0
390
0
 62
               0
100
AcDbPoint
 10
-7.7301408595509002
 20
-3.5142399999999867
 30
0.0
  0
POINT
  5
B7
100
AcDbEntity
  8
Defpoints
370
               0
390
0
 62
               0
100
AcDbPoint
 10
-7.7301408595509002
 20
-10.716739999999973
 30
0.0
  0
ENDBLK
  5
B8
100
AcDbEntity
  8
Dimension
390
0
100
AcDbBlockEnd
  0
BLOCK
  5
B9
100
AcDbEntity
  8
Dimension
390
0
100
AcDbBlockBegin
  2
*D9
 70
               1
 10
0.0
 20
0.0
 30
0.0
  3
*D9
  1

  0
LINE
  5
BA
100
AcDbEntity
  8
Dimension
370
              -2
390
0
  6
Continuous
 62
               0
100
AcDbLine
 10
2.3450519287302143
 20
4.4514558297894453
 30
0.0
 11
9.9122023059476874
 21
9.6832600000000255
 31
0.0
  0
SOLID
  5
BB
100
AcDbEntity
  8
Dimension
370
              -2
390
0
 62
               0
100
AcDbTrace
 10
2.3450519287302143
 20
4.4514558297894453
 30
0.0
 11
2.704375391346308
 21
4.864810189156259
 31
0.0
 12
2.862912355214946
 22
4.6297694744581008
 32
0.0
 13
2.862912355214946
 23
4.6297694744581008
 33
0.0
  0
LINE
  5
BC
100
AcDbEntity
  8
Dimension
370
              -2
390
0
  6
Continuous
 62
               0
100
AcDbLine
 10
9.9122023059476874
 20
9.6832600000000255
 30
0.0
 11
11.412199307927182
 21
9.6832600000000255
 31
0.0
  0
WIPEOUT
  5
BD
100
AcDbEntity
  8
Dimension
370
              -2
390
0
  6
Continuous
 62
               0
 92
        0
100
AcDbWipeout
 90
        0
 10
11.412199307927182
 20
9.0747221666666853
 30
0.0
 11
4.9741509887907256
 21
0.0
 31
0.0
 12
0.0
 22
4.9741509887907256
 32
0.0
 13
1.0
 23
1.0
340
0
 70
               7
280
               1
281
              50
282
              50
283
               0
360
0
 71
               2
 91
        5
 14
-0.5
 24
0.5
 14
0.5
 24
0.5
 14
0.5
 24
0.2553191483847805
 14
-0.5
 24
0.2553191483847805
 14
-0.5
 24
0.5
  0
MTEXT
  5
BE
100
AcDbEntity
  8
Dimension
390
0
 62
               0
100
AcDbMText
 10
11.412199307927182
 20
10.097223286458352
 30
0.0
 40
0.7579186197916666
 41
0.0
 71
               1
 72
               1
  1
Ø 0.85mm
  7
Arial
 73
               1
 44
0.9673603504928806
  0
WIPEOUT
  5
BF
100
AcDbEntity
  8
Dimension
370
              -2
390
0
  6
Continuous
 62
               0
 92
        0
100
AcDbWipeout
 90
        0
 10
16.386350296717907
 20
9.0747205000000228
 30
0.0
 11
5.0270675208833495
 21
0.0
 31
0.0
 12
0.0
 22
5.0270675208833495
 32
0.0
 13
1.0
 23
1.0
340
0
 70
               7
280
               1
281
              50
282
              50
283
               0
360
0
 71
               2
 91
        5
 14
-0.5
 24
0.5
 14
0.5
 24
0.5
 14
0.5
 24
0.2578947378478543
 14
-0.5
 24
0.2578947378478543
 14
-0.5
 24
0.5
  0
MTEXT
  5
C0
100
AcDbEntity
  8
Dimension
390
0
 62
               0
100
AcDbMText
 10
16.386350296717907
 20
10.097221619791689
 30
0.0
 40
0.7579186197916666
 41
0.0
 71
               1
 72
               1
  1
±0.025mm
  7
Arial
 73
               1
 44
0.9673603504928806
  0
WIPEOUT
  5
C1
100
AcDbEntity
  8
Dimension
370
              -2
390
0
  6
Continuous
 62
               0
 92
        0
100
AcDbWipeout
 90
        0
 10
21.413417817601257
 20
9.0747183333333528
 30
0.0
 11
2.1060832593176109
 21
0.0
 31
0.0
 12
0.0
 22
2.1060832593176109
 32
0.0
 13
1.0
 23
1.0
340
0
 70
               7
280
               1
281
              50
282
              50
283
               0
360
0
 71
               2
 91
        5
 14
-0.5
 24
0.5
 14
0.5
 24
0.5
 14
0.5
 24
-0.0778894675453992
 14
-0.5
 24
-0.0778894675453992
 14
-0.5
 24
0.5
  0
MTEXT
  5
C2
100
AcDbEntity
  8
Dimension
390
0
 62
               0
100
AcDbMText
 10
21.413417817601257
 20
10.09722267361113
 30
0.0
 40
0.7579210069444442
 41
0.0
 71
               1
 72
               1
  1
 (x2)
  7
Arial
 73
               1
 44
0.9673603504928806
  0
POINT
  5
C3
100
AcDbEntity
  8
Defpoints
370
               0
390
0
 62
               0
100
AcDbPoint
 10
1.6458863521679774
 20
3.9680641702105888
 30
0.0
  0
POINT
  5
C4
100
AcDbEntity
  8
Defpoints
370
               0
390
0
 62
               0
100
AcDbPoint
 10
2.3450519287302143
 20
4.4514558297894453
 30
0.0
  0
ENDBLK
  5
C5
100
AcDbEntity
  8
Dimension
390
0
100
AcDbBlockEnd
  0
BLOCK
  5
C6
100
AcDbEntity
  8
Dimension
390
0
100
AcDbBlockBegin
  2
*D10
 70
               1
 10
0.0
 20
0.0
 30
0.0
  3
*D10
  1

  0
LINE
  5
C7
100
AcDbEntity
  8
Dimension
370
              -2
390
0
  6
Continuous
 62
               0
100
AcDbLine
 10
0.4154022503904287
 20
0.4435195053723078
 30
0.0
 11
14.553463358198556
 21
-5.5167399999999702
 31
0.0
  0
SOLID
  5
C8
100
AcDbEntity
  8
Dimension
370
              -2
390
0
 62
               0
100
AcDbTrace
 10
0.4154022503904287
 20
0.4435195053723078
 30
0.0
 11
0.9577719696607985
 21
0.367294412308748
 31
0.0
 12
0.8469956589902237
 22
0.1063217787382474
 32
0.0
 13
0.8469956589902237
 23
0.1063217787382474
 33
0.0
  0
LINE
  5
C9
100
AcDbEntity
  8
Dimension
370
              -2
390
0
  6
Continuous
 62
               0
100
AcDbLine
 10
14.553463358198556
 20
-5.5167399999999702
 30
0.0
 11
16.05346036017805
 21
-5.5167399999999702
 31
0.0
  0
WIPEOUT
  5
CA
100
AcDbEntity
  8
Dimension
370
              -2
390
0
  6
Continuous
 62
               0
 92
        0
100
AcDbWipeout
 90
        0
 10
16.05346036017805
 20
-6.1252797499999785
 30
0.0
 11
6.4452299753824889
 21
0.0
 31
0.0
 12
0.0
 22
6.4452299753824889
 32
0.0
 13
1.0
 23
1.0
340
0
 70
               7
280
               1
281
              50
282
              50
283
               0
360
0
 71
               2
 91
        5
 14
-0.5
 24
0.5
 14
0.5
 24
0.5
 14
0.5
 24
0.3111658537168377
 14
-0.5
 24
0.3111658537168377
 14
-0.5
 24
0.5
  0
MTEXT
  5
CB
100
AcDbEntity
  8
Dimension
390
0
 62
               0
100
AcDbMText
 10
16.05346036017805
 20
-5.102778630208312
 30
0.0
 40
0.7579186197916666
 41
0.0
 71
               1
 72
               1
  1
0.6 x 0.35mm
  7
Arial
 73
               1
 44
0.9673603504928806
  0
POINT
  5
CC
100
AcDbEntity
  8
Defpoints
370
               0
390
0
 62
               0
100
AcDbPoint
 10
-0.2707559462266289
 20
0.7327869574218084
 30
0.0
  0
POINT
  5
CD
100
AcDbEntity
  8
Defpoints
370
               0
390
0
 62
               0
100
AcDbPoint
 10
0.4154022503904287
 20
0.4435195053723078
 30
0.0
  0
ENDBLK
  5
CE
100
AcDbEntity
  8
Dimension
390
0
100
AcDbBlockEnd
  0
BLOCK
  5
CF
100
AcDbEntity
  8
Dimension
390
0
100
AcDbBlockBegin
  2
*D11
 70
               1
 10
0.0
 20
0.0
 30
0.0
  3
*D11
  1

  0
LINE
  5
D0
100
AcDbEntity
  8
Dimension
370
              -2
390
0
  6
Continuous
 62
               0
100
AcDbLine
 10
-7.7301408595509002
 20
6.6870100011828129
 30
0.0
 11
-7.7301408595509002
 21
15.910120002365595
 31
0.0
  0
LINE
  5
D1
100
AcDbEntity
  8
Dimension
370
              -2
390
0
  6
Continuous
 62
               0
100
AcDbLine
 10
-5.0676408595380451
 20
4.9695100012192768
 30
0.0
 11
-5.0676408595380451
 21
15.910120002365595
 31
0.0
  0
LINE
  5
D2
100
AcDbEntity
  8
Dimension
370
              -2
390
0
  6
Continuous
 62
               0
100
AcDbLine
 10
-5.0676408595380451
 20
14.957620000000034
 30
0.0
 11
-7.7301408595509002
 21
14.957620000000034
 31
0.0
  0
LINE
  5
D3
100
AcDbEntity
  8
Dimension
370
              -2
390
0
  6
Continuous
 62
               0
100
AcDbLine
 10
-7.7301408595509002
 20
14.957620000000034
 30
0.0
 11
-9.4801373579177124
 21
14.957620000000034
 31
0.0
  0
SOLID
  5
D4
100
AcDbEntity
  8
Dimension
370
              -2
390
0
 62
               0
100
AcDbTrace
 10
-7.7301408595509002
 20
14.957620000000034
 30
0.0
 11
-8.5238908595508995
 21
14.744935328507831
 31
0.0
 12
-8.5238908595508995
 22
15.170304671492238
 32
0.0
 13
-8.5238908595508995
 23
15.170304671492238
 33
0.0
  0
LINE
  5
D5
100
AcDbEntity
  8
Dimension
370
              -2
390
0
  6
Continuous
 62
               0
100
AcDbLine
 10
-5.0676408595380451
 20
14.957620000000034
 30
0.0
 11
-2.9319408595380452
 21
14.957620000000034
 31
0.0
  0
SOLID
  5
D6
100
AcDbEntity
  8
Dimension
370
              -2
390
0
 62
               0
100
AcDbTrace
 10
-5.0676408595380451
 20
14.957620000000034
 30
0.0
 11
-4.2738908595380449
 21
15.170304671492238
 31
0.0
 12
-4.2738908595380449
 22
14.744935328507831
 32
0.0
 13
-4.2738908595380449
 23
14.744935328507831
 33
0.0
  0
WIPEOUT
  5
D7
100
AcDbEntity
  8
Dimension
370
              -2
390
0
  6
Continuous
 62
               0
 92
        0
100
AcDbWipeout
 90
        0
 10
-2.9319408595380452
 20
14.349080250000032
 30
0.0
 11
4.8577346854739716
 21
0.0
 31
0.0
 12
0.0
 22
4.8577346854739716
 32
0.0
 13
1.0
 23
1.0
340
0
 70
               7
280
               1
281
              50
282
              50
283
               0
360
0
 71
               2
 91
        5
 14
-0.5
 24
0.5
 14
0.5
 24
0.5
 14
0.5
 24
0.2494553369414309
 14
-0.5
 24
0.2494553369414309
 14
-0.5
 24
0.5
  0
MTEXT
  5
D8
100
AcDbEntity
  8
Dimension
390
0
 62
               0
100
AcDbMText
 10
-2.9319408595380452
 20
15.371581369791699
 30
0.0
 40
0.7579186197916666
 41
0.0
 71
               1
 72
               1
  1
2.663mm*
  7
Arial
 73
               1
 44
0.9673603504928806
  0
POINT
  5
D9
100
AcDbEntity
  8
Defpoints
370
               0
390
0
 62
               0
100
AcDbPoint
 10
-5.0676408595380451
 20
4.4932600000364999
 30
0.0
  0
POINT
  5
DA
100
AcDbEntity
  8
Defpoints
370
               0
390
0
 62
               0
100
AcDbPoint
 10
-7.7301408595509002
 20
6.210760000000036
 30
0.0
  0
POINT
  5
DB
100
AcDbEntity
  8
Defpoints
370
               0
390
0
 62
               0
100
AcDbPoint
 10
-7.7301408595509002
 20
14.957620000000036
 30
0.0
  0
ENDBLK
  5
DC
100
AcDbEntity
  8
Dimension
390
0
100
AcDbBlockEnd
  0
BLOCK
  5
DD
100
AcDbEntity
  8
Dimension
390
0
100
AcDbBlockBegin
  2
*D12
 70
               1
 10
0.0
 20
0.0
 30
0.0
  3
*D12
  1

  0
LINE
  5
DE
100
AcDbEntity
  8
Dimension
370
              -2
390
0
  6
Continuous
 62
               0
100
AcDbLine
 10
-8.2063908607336771
 20
6.210760000000036
 30
0.0
 11
-14.636300861916453
 21
6.210760000000036
 31
0.0
  0
LINE
  5
DF
100
AcDbEntity
  8
Dimension
370
              -2
390
0
  6
Continuous
 62
               0
100
AcDbLine
 10
-5.5438908607208219
 20
4.4932600000364999
 30
0.0
 11
-14.636300861916453
 21
4.4932600000364999
 31
0.0
  0
LINE
  5
E0
100
AcDbEntity
  8
Dimension
370
              -2
390
0
  6
Continuous
 62
               0
100
AcDbLine
 10
-13.6838008595509
 20
4.4932600000364999
 30
0.0
 11
-13.6838008595509
 21
6.210760000000036
 31
0.0
  0
LINE
  5
E1
100
AcDbEntity
  8
Dimension
370
              -2
390
0
  6
Continuous
 62
               0
100
AcDbLine
 10
-13.6838008595509
 20
6.210760000000036
 30
0.0
 11
-13.6838008595509
 21
7.9607564983668553
 31
0.0
  0
SOLID
  5
E2
100
AcDbEntity
  8
Dimension
370
              -2
390
0
 62
               0
100
AcDbTrace
 10
-13.6838008595509
 20
6.210760000000036
 30
0.0
 11
-13.896485531043103
 21
7.0045100000000362
 31
0.0
 12
-13.471116188058696
 22
7.0045100000000362
 32
0.0
 13
-13.471116188058696
 23
7.0045100000000362
 33
0.0
  0
LINE
  5
E3
100
AcDbEntity
  8
Dimension
370
              -2
390
0
  6
Continuous
 62
               0
100
AcDbLine
 10
-13.6838008595509
 20
4.4932600000364999
 30
0.0
 11
-13.6838008595509
 21
2.7432635016696807
 31
0.0
  0
SOLID
  5
E4
100
AcDbEntity
  8
Dimension
370
              -2
390
0
 62
               0
100
AcDbTrace
 10
-13.6838008595509
 20
4.4932600000364999
 30
0.0
 11
-13.471116188058696
 21
3.6995100000364998
 31
0.0
 12
-13.896485531043103
 22
3.6995100000364998
 32
0.0
 13
-13.896485531043103
 23
3.6995100000364998
 33
0.0
  0
WIPEOUT
  5
E5
100
AcDbEntity
  8
Dimension
370
              -2
390
0
  6
Continuous
 62
               0
 92
        0
100
AcDbWipeout
 90
        0
 10
-15.906293861700689
 20
4.7188881119572672
 30
0.0
 11
4.4449860042995866
 21
0.0
 31
0.0
 12
0.0
 22
4.4449860042995866
 32
0.0
 13
1.0
 23
1.0
340
0
 70
               7
280
               1
281
              50
282
              50
283
               0
360
0
 71
               2
 91
        5
 14
-0.5
 24
0.5
 14
0.5
 24
0.5
 14
0.5
 24
0.2261904764553293
 14
-0.5
 24
0.2261904764553293
 14
-0.5
 24
0.5
  0
MTEXT
  5
E6
100
AcDbEntity
  8
Dimension
390
0
 62
               0
100
AcDbMText
 10
-15.906293861700689
 20
5.7413892317489337
 30
0.0
 40
0.7579186197916666
 41
0.0
 71
               1
 72
               1
  1
1.717mm
  7
Arial
 73
               1
 44
0.9673603504928806
  0
POINT
  5
E7
100
AcDbEntity
  8
Defpoints
370
               0
390
0
 62
               0
100
AcDbPoint
 10
-5.0676408595380451
 20
4.4932600000364999
 30
0.0
  0
POINT
  5
E8
100
AcDbEntity
  8
Defpoints
370
               0
390
0
 62
               0
100
AcDbPoint
 10
-7.7301408595509002
 20
6.210760000000036
 30
0.0
  0
POINT
  5
E9
100
AcDbEntity
  8
Defpoints
370
               0
390
0
 62
               0
100
AcDbPoint
 10
-13.6838008595509
 20
6.210760000000036
 30
0.0
  0
ENDBLK
  5
EA
100
AcDbEntity
  8
Dimension
390
0
100
AcDbBlockEnd
  0
BLOCK
  5
EB
100
AcDbEntity
  8
Dimension
390
0
100
AcDbBlockBegin
  2
*D13
 70
               1
 10
0.0
 20
0.0
 30
0.0
  3
*D13
  1

  0
LINE
  5
EC
100
AcDbEntity
  8
Dimension
370
              -2
390
0
  6
Continuous
 62
               0
100
AcDbLine
 10
2.6231568919976098
 20
6.7140163317029362
 30
0.0
 11
10.762202305947667
 21
13.23326000000003
 31
0.0
  0
SOLID
  5
ED
100
AcDbEntity
  8
Dimension
370
              -2
390
0
 62
               0
100
AcDbTrace
 10
2.6231568919976098
 20
6.7140163317029362
 30
0.0
 11
2.952770918202114
 21
7.1514289183110771
 31
0.0
 12
3.1273173054384507
 22
6.928019730538395
 32
0.0
 13
3.1273173054384507
 23
6.928019730538395
 33
0.0
  0
LINE
  5
EE
100
AcDbEntity
  8
Dimension
370
              -2
390
0
  6
Continuous
 62
               0
100
AcDbLine
 10
10.762202305947667
 20
13.23326000000003
 30
0.0
 11
12.262199307927162
 21
13.23326000000003
 31
0.0
  0
WIPEOUT
  5
EF
100
AcDbEntity
  8
Dimension
370
              -2
390
0
  6
Continuous
 62
               0
 92
        0
100
AcDbWipeout
 90
        0
 10
12.262199307927162
 20
12.62472216666669
 30
0.0
 11
4.9741509887907256
 21
0.0
 31
0.0
 12
0.0
 22
4.9741509887907256
 32
0.0
 13
1.0
 23
1.0
340
0
 70
               7
280
               1
281
              50
282
              50
283
               0
360
0
 71
               2
 91
        5
 14
-0.5
 24
0.5
 14
0.5
 24
0.5
 14
0.5
 24
0.2553191483847805
 14
-0.5
 24
0.2553191483847805
 14
-0.5
 24
0.5
  0
MTEXT
  5
F0
100
AcDbEntity
  8
Dimension
390
0
 62
               0
100
AcDbMText
 10
12.262199307927162
 20
13.647223286458356
 30
0.0
 40
0.7579186197916666
 41
0.0
 71
               1
 72
               1
  1
Ø 1.75mm
  7
Arial
 73
               1
 44
0.9673603504928806
  0
WIPEOUT
  5
F1
100
AcDbEntity
  8
Dimension
370
              -2
390
0
  6
Continuous
 62
               0
 92
        0
100
AcDbWipeout
 90
        0
 10
17.236350296717887
 20
12.624720500000027
 30
0.0
 11
4.434402765168084
 21
0.0
 31
0.0
 12
0.0
 22
4.434402765168084
 32
0.0
 13
1.0
 23
1.0
340
0
 70
               7
280
               1
281
              50
282
              50
283
               0
360
0
 71
               2
 91
        5
 14
-0.5
 24
0.5
 14
0.5
 24
0.5
 14
0.5
 24
0.22553699687361
 14
-0.5
 24
0.22553699687361
 14
-0.5
 24
0.5
  0
MTEXT
  5
F2
100
AcDbEntity
  8
Dimension
390
0
 62
               0
100
AcDbMText
 10
17.236350296717887
 20
13.647221619791694
 30
0.0
 40
0.7579186197916666
 41
0.0
 71
               1
 72
               1
  1
±0.05mm
  7
Arial
 73
               1
 44
0.9673603504928806
  0
WIPEOUT
  5
F3
100
AcDbEntity
  8
Dimension
370
              -2
390
0
  6
Continuous
 62
               0
 92
        0
100
AcDbWipeout
 90
        0
 10
21.670753061885975
 20
12.624718333333357
 30
0.0
 11
1.8097500403722115
 21
0.0
 31
0.0
 12
0.0
 22
1.8097500403722115
 32
0.0
 13
1.0
 23
1.0
340
0
 70
               7
280
               1
281
              50
282
              50
283
               0
360
0
 71
               2
 91
        5
 14
-0.5
 24
0.5
 14
0.5
 24
0.5
 14
0.5
 24
-0.1725146048804703
 14
-0.5
 24
-0.1725146048804703
 14
-0.5
 24
0.5
  0
MTEXT
  5
F4
100
AcDbEntity
  8
Dimension
390
0
 62
               0
100
AcDbMText
 10
21.670753061885975
 20
13.647222673611134
 30
0.0
 40
0.7579210069444442
 41
0.0
 71
               1
 72
               1
  1
(x4)
  7
Arial
 73
               1
 44
0.9673603504928806
  0
POINT
  5
F5
100
AcDbEntity
  8
Defpoints
370
               0
390
0
 62
               0
100
AcDbPoint
 10
1.3665613889005925
 20
5.7075036682971074
 30
0.0
  0
POINT
  5
F6
100
AcDbEntity
  8
Defpoints
370
               0
390
0
 62
               0
100
AcDbPoint
 10
2.6231568919976098
 20
6.7140163317029362
 30
0.0
  0
ENDBLK
  5
F7
100
AcDbEntity
  8
Dimension
390
0
100
AcDbBlockEnd
  0
BLOCK
  5
F8
100
AcDbEntity
  8
Dimension
390
0
100
AcDbBlockBegin
  2
*D14
 70
               1
 10
0.0
 20
0.0
 30
0.0
  3
*D14
  1

  0
LINE
  5
F9
100
AcDbEntity
  8
Dimension
370
              -2
390
0
  6
Continuous
 62
               0
100
AcDbLine
 10
-9.3770158595508946
 20
7.460760000000036
 30
0.0
 11
-25.7613908595509
 21
7.460760000000036
 31
0.0
  0
LINE
  5
FA
100
AcDbEntity
  8
Dimension
370
              -2
390
0
  6
Continuous
 62
               0
100
AcDbLine
 10
-9.3770158595508946
 20
-4.7642399999999867
 30
0.0
 11
-25.7613908595509
 21
-4.7642399999999867
 31
0.0
  0
LINE
  5
FB
100
AcDbEntity
  8
Dimension
370
              -2
390
0
  6
Continuous
 62
               0
100
AcDbLine
 10
-24.967640859550897
 20
7.460760000000036
 30
0.0
 11
-24.967640859550897
 21
-4.7642399999999867
 31
0.0
  0
SOLID
  5
FC
100
AcDbEntity
  8
Dimension
370
              -2
390
0
 62
               0
100
AcDbTrace
 10
-24.967640859550897
 20
7.460760000000036
 30
0.0
 11
-24.754956188058696
 21
6.6670100000000359
 31
0.0
 12
-25.180325531043103
 22
6.6670100000000359
 32
0.0
 13
-25.180325531043103
 23
6.6670100000000359
 33
0.0
  0
SOLID
  5
FD
100
AcDbEntity
  8
Dimension
370
              -2
390
0
 62
               0
100
AcDbTrace
 10
-24.967640859550897
 20
-4.7642399999999867
 30
0.0
 11
-25.180325531043103
 21
-3.9704899999999865
 31
0.0
 12
-24.754956188058692
 22
-3.9704899999999865
 32
0.0
 13
-24.754956188058692
 23
-3.9704899999999865
 33
0.0
  0
WIPEOUT
  5
FE
100
AcDbEntity
  8
Dimension
370
              -2
390
0
  6
Continuous
 62
               0
 92
        0
100
AcDbWipeout
 90
        0
 10
-30.0
 20
0.9747210833333611
 30
0.0
 11
5.0376507600148521
 21
0.0
 31
0.0
 12
0.0
 22
5.0376507600148521
 32
0.0
 13
1.0
 23
1.0
340
0
 70
               7
280
               1
281
              50
282
              50
283
               0
360
0
 71
               2
 91
        5
 14
-0.5
 24
0.5
 14
0.5
 24
0.5
 14
0.5
 24
0.2584033594269223
 14
-0.5
 24
0.2584033594269223
 14
-0.5
 24
0.5
  0
MTEXT
  5
FF
100
AcDbEntity
  8
Dimension
390
0
 62
               0
100
AcDbMText
 10
-30.0
 20
1.9972222031250275
 30
0.0
 40
0.7579186197916666
 41
0.0
 71
               1
 72
               1
  1
12.225mm
  7
Arial
 73
               1
 44
0.9673603504928806
  0
WIPEOUT
  5
100
100
AcDbEntity
  8
Dimension
370
              -2
390
0
  6
Continuous
 62
               0
 92
        0
100
AcDbWipeout
 90
        0
 10
-24.962349239985144
 20
0.9747194166666986
 30
0.0
 11
5.0270675208833495
 21
0.0
 31
0.0
 12
0.0
 22
5.0270675208833495
 32
0.0
 13
1.0
 23
1.0
340
0
 70
               7
280
               1
281
              50
282
              50
283
               0
360
0
 71
               2
 91
        5
 14
-0.5
 24
0.5
 14
0.5
 24
0.5
 14
0.5
 24
0.2578947378478544
 14
-0.5
 24
0.2578947378478544
 14
-0.5
 24
0.5
  0
MTEXT
  5
101
100
AcDbEntity
  8
Dimension
390
0
 62
               0
100
AcDbMText
 10
-24.962349239985144
 20
1.9972205364583651
 30
0.0
 40
0.7579186197916666
 41
0.0
 71
               1
 72
               1
  1
±0.125mm
  7
Arial
 73
               1
 44
0.9673603504928806
  0
POINT
  5
102
100
AcDbEntity
  8
Defpoints
370
               0
390
0
 62
               0
100
AcDbPoint
 10
-8.9801408595509002
 20
-4.7642399999999867
 30
0.0
  0
POINT
  5
103
100
AcDbEntity
  8
Defpoints
370
               0
390
0
 62
               0
100
AcDbPoint
 10
-8.9801408595509002
 20
7.460760000000036
 30
0.0
  0
POINT
  5
104
100
AcDbEntity
  8
Defpoints
370
               0
390
0
 62
               0
100
AcDbPoint
 10
-24.967640859550897
 20
7.460760000000036
 30
0.0
  0
ENDBLK
  5
105
100
AcDbEntity
  8
Dimension
390
0
100
AcDbBlockEnd
  0
BLOCK
  5
106
100
AcDbEntity
  8
Dimension
390
0
100
AcDbBlockBegin
  2
*D15
 70
               1
 10
0.0
 20
0.0
 30
0.0
  3
*D15
  1

  0
LINE
  5
107
100
AcDbEntity
  8
Dimension
370
              -2
390
0
  6
Continuous
 62
               0
100
AcDbLine
 10
-5.7626408595508991
 20
-1.4986150000640066
 30
0.0
 11
-5.7626408595508991
 21
-9.2353799999999637
 31
0.0
  0
LINE
  5
108
100
AcDbEntity
  8
Dimension
370
              -2
390
0
  6
Continuous
 62
               0
100
AcDbLine
 10
0.5273591404490503
 20
-1.4986150000640066
 30
0.0
 11
0.5273591404490503
 21
-9.2353799999999779
 31
0.0
  0
LINE
  5
109
100
AcDbEntity
  8
Dimension
370
              -2
390
0
  6
Continuous
 62
               0
100
AcDbLine
 10
-5.7626408595508991
 20
-8.4416299999999751
 30
0.0
 11
-10.65779769405232
 21
-8.4416299999999751
 31
0.0
  0
SOLID
  5
10A
100
AcDbEntity
  8
Dimension
370
              -2
390
0
 62
               0
100
AcDbTrace
 10
-5.7626408595508991
 20
-8.4416299999999751
 30
0.0
 11
-6.5563908595508993
 21
-8.6543146714921786
 31
0.0
 12
-6.5563908595508993
 22
-8.2289453285077716
 32
0.0
 13
-6.5563908595508993
 23
-8.2289453285077716
 33
0.0
  0
LINE
  5
10B
100
AcDbEntity
  8
Dimension
370
              -2
390
0
  6
Continuous
 62
               0
100
AcDbLine
 10
0.5273591404490503
 20
-8.4416299999999751
 30
0.0
 11
2.4323591404490514
 21
-8.4416299999999751
 31
0.0
  0
SOLID
  5
10C
100
AcDbEntity
  8
Dimension
370
              -2
390
0
 62
               0
100
AcDbTrace
 10
0.5273591404490503
 20
-8.4416299999999751
 30
0.0
 11
1.3211091404490503
 21
-8.2289453285077716
 31
0.0
 12
1.3211091404490503
 22
-8.6543146714921786
 32
0.0
 13
1.3211091404490503
 23
-8.6543146714921786
 33
0.0
  0
WIPEOUT
  5
10D
100
AcDbEntity
  8
Dimension
370
              -2
390
0
  6
Continuous
 62
               0
 92
        0
100
AcDbWipeout
 90
        0
 10
-16.616208089568602
 20
-9.0501710581249757
 30
0.0
 11
5.9584103955162888
 21
0.0
 31
0.0
 12
0.0
 22
5.9584103955162888
 32
0.0
 13
1.0
 23
1.0
340
0
 70
               7
280
               1
281
              50
282
              50
283
               0
360
0
 71
               2
 91
        5
 14
-0.5
 24
0.5
 14
0.5
 24
0.5
 14
0.5
 24
0.2957371118367652
 14
-0.5
 24
0.2957371118367652
 14
-0.5
 24
0.5
  0
MTEXT
  5
10E
100
AcDbEntity
  8
Dimension
390
0
 62
               0
100
AcDbMText
 10
-16.616208089568602
 20
-8.0276677403515393
 30
0.0
 40
0.7579202490234376
 41
0.0
 71
               1
 72
               1
  1
6.29mm (x2)
  7
Arial
 73
               1
 44
0.9673603504928806
  0
POINT
  5
10F
100
AcDbEntity
  8
Defpoints
370
               0
390
0
 62
               0
100
AcDbPoint
 10
0.5273591404490503
 20
-1.1017400000640123
 30
0.0
  0
POINT
  5
110
100
AcDbEntity
  8
Defpoints
370
               0
390
0
 62
               0
100
AcDbPoint
 10
-5.7626408595508991
 20
-1.1017400000640123
 30
0.0
  0
POINT
  5
111
100
AcDbEntity
  8
Defpoints
370
               0
390
0
 62
               0
100
AcDbPoint
 10
-5.7626408595508991
 20
-8.4416299999999715
 30
0.0
  0
ENDBLK
  5
112
100
AcDbEntity
  8
Dimension
390
0
100
AcDbBlockEnd
  0
BLOCK
  5
113
100
AcDbEntity
  8
Dimension
390
0
100
AcDbBlockBegin
  2
*D16
 70
               1
 10
0.0
 20
0.0
 30
0.0
  3
*D16
  1

  0
LINE
  5
114
100
AcDbEntity
  8
Dimension
370
              -2
390
0
  6
Continuous
 62
               0
100
AcDbLine
 10
1.0036091416318271
 20
-0.9267400000640009
 30
0.0
 11
14.264702308313232
 21
-0.9267400000640009
 31
0.0
  0
LINE
  5
115
100
AcDbEntity
  8
Dimension
370
              -2
390
0
  6
Continuous
 62
               0
100
AcDbLine
 10
1.0036091416318271
 20
3.6232599999360744
 30
0.0
 11
14.264702308313232
 21
3.6232599999360744
 31
0.0
  0
LINE
  5
116
100
AcDbEntity
  8
Dimension
370
              -2
390
0
  6
Continuous
 62
               0
100
AcDbLine
 10
13.312202305947679
 20
-0.9267400000640009
 30
0.0
 11
13.312202305947679
 21
3.6232599999360744
 31
0.0
  0
SOLID
  5
117
100
AcDbEntity
  8
Dimension
370
              -2
390
0
 62
               0
100
AcDbTrace
 10
13.312202305947679
 20
-0.9267400000640009
 30
0.0
 11
13.099517634455475
 21
-0.132990000064001
 31
0.0
 12
13.524886977439882
 22
-0.132990000064001
 32
0.0
 13
13.524886977439882
 23
-0.132990000064001
 33
0.0
  0
SOLID
  5
118
100
AcDbEntity
  8
Dimension
370
              -2
390
0
 62
               0
100
AcDbTrace
 10
13.312202305947679
 20
3.6232599999360744
 30
0.0
 11
13.524886977439882
 21
2.8295099999360742
 31
0.0
 12
13.099517634455475
 22
2.8295099999360742
 32
0.0
 13
13.099517634455475
 23
2.8295099999360742
 33
0.0
  0
WIPEOUT
  5
119
100
AcDbEntity
  8
Dimension
370
              -2
390
0
  6
Continuous
 62
               0
 92
        0
100
AcDbWipeout
 90
        0
 10
10.332997108189531
 20
0.7397189418110319
 30
0.0
 11
5.9584103955162888
 21
0.0
 31
0.0
 12
0.0
 22
5.9584103955162888
 32
0.0
 13
1.0
 23
1.0
340
0
 70
               7
280
               1
281
              50
282
              50
283
               0
360
0
 71
               2
 91
        5
 14
-0.5
 24
0.5
 14
0.5
 24
0.5
 14
0.5
 24
0.2957371118367651
 14
-0.5
 24
0.2957371118367651
 14
-0.5
 24
0.5
  0
MTEXT
  5
11A
100
AcDbEntity
  8
Dimension
390
0
 62
               0
100
AcDbMText
 10
10.332997108189531
 20
1.7622222595844694
 30
0.0
 40
0.7579202490234376
 41
0.0
 71
               1
 72
               1
  1
4.55mm (x4)
  7
Arial
 73
               1
 44
0.9673603504928806
  0
POINT
  5
11B
100
AcDbEntity
  8
Defpoints
370
               0
390
0
 62
               0
100
AcDbPoint
 10
0.5273591404490503
 20
3.6232599999360744
 30
0.0
  0
POINT
  5
11C
100
AcDbEntity
  8
Defpoints
370
               0
390
0
 62
               0
100
AcDbPoint
 10
0.5273591404490503
 20
-0.9267400000640009
 30
0.0
  0
POINT
  5
11D
100
AcDbEntity
  8
Defpoints
370
               0
390
0
 62
               0
100
AcDbPoint
 10
13.312202305947675
 20
-0.9267400000640009
 30
0.0
  0
ENDBLK
  5
11E
100
AcDbEntity
  8
Dimension
390
0
100
AcDbBlockEnd
  0
BLOCK
  5
11F
100
AcDbEntity
  8
Dimension
390
0
100
AcDbBlockBegin
  2
*D17
 70
               1
 10
0.0
 20
0.0
 30
0.0
  3
*D17
  1

  0
LINE
  5
120
100
AcDbEntity
  8
Dimension
370
              -2
390
0
  6
Continuous
 62
               0
100
AcDbLine
 10
-2.2926408595380252
 20
4.8995100012192765
 30
0.0
 11
-2.2926408595380252
 21
11.535760002365564
 31
0.0
  0
LINE
  5
121
100
AcDbEntity
  8
Dimension
370
              -2
390
0
  6
Continuous
 62
               0
100
AcDbLine
 10
-1.6426408595380195
 20
4.8995100012192765
 30
0.0
 11
-1.6426408595380195
 21
11.535760002365571
 31
0.0
  0
LINE
  5
122
100
AcDbEntity
  8
Dimension
370
              -2
390
0
  6
Continuous
 62
               0
100
AcDbLine
 10
-1.6426408595380195
 20
10.58326000000001
 30
0.0
 11
-2.2926408595380252
 21
10.58326000000001
 31
0.0
  0
LINE
  5
123
100
AcDbEntity
  8
Dimension
370
              -2
390
0
  6
Continuous
 62
               0
100
AcDbLine
 10
-2.2926408595380252
 20
10.58326000000001
 30
0.0
 11
-4.0426373579048374
 21
10.58326000000001
 31
0.0
  0
SOLID
  5
124
100
AcDbEntity
  8
Dimension
370
              -2
390
0
 62
               0
100
AcDbTrace
 10
-2.2926408595380252
 20
10.58326000000001
 30
0.0
 11
-3.0863908595380254
 21
10.370575328507806
 31
0.0
 12
-3.0863908595380249
 22
10.795944671492213
 32
0.0
 13
-3.0863908595380249
 23
10.795944671492213
 33
0.0
  0
LINE
  5
125
100
AcDbEntity
  8
Dimension
370
              -2
390
0
  6
Continuous
 62
               0
100
AcDbLine
 10
-1.6426408595380195
 20
10.58326000000001
 30
0.0
 11
-0.2377976940523183
 21
10.58326000000001
 31
0.0
  0
SOLID
  5
126
100
AcDbEntity
  8
Dimension
370
              -2
390
0
 62
               0
100
AcDbTrace
 10
-1.6426408595380195
 20
10.58326000000001
 30
0.0
 11
-0.8488908595380196
 21
10.795944671492213
 31
0.0
 12
-0.8488908595380196
 22
10.370575328507806
 32
0.0
 13
-0.8488908595380196
 23
10.370575328507806
 33
0.0
  0
WIPEOUT
  5
127
100
AcDbEntity
  8
Dimension
370
              -2
390
0
  6
Continuous
 62
               0
 92
        0
100
AcDbWipeout
 90
        0
 10
-0.2377976940523183
 20
9.9747189418750093
 30
0.0
 11
5.5562442806031962
 21
0.0
 31
0.0
 12
0.0
 22
5.5562442806031962
 32
0.0
 13
1.0
 23
1.0
340
0
 70
               7
280
               1
281
              50
282
              50
283
               0
360
0
 71
               2
 91
        5
 14
-0.5
 24
0.5
 14
0.5
 24
0.5
 14
0.5
 24
0.280952374520533
 14
-0.5
 24
0.280952374520533
 14
-0.5
 24
0.5
  0
MTEXT
  5
128
100
AcDbEntity
  8
Dimension
390
0
 62
               0
100
AcDbMText
 10
-0.2377976940523183
 20
10.997222259648446
 30
0.0
 40
0.7579202490234376
 41
0.0
 71
               1
 72
               1
  1
0.65mm typ
  7
Arial
 73
               1
 44
0.9673603504928806
  0
POINT
  5
129
100
AcDbEntity
  8
Defpoints
370
               0
390
0
 62
               0
100
AcDbPoint
 10
-1.6426408595380195
 20
4.4232600000364997
 30
0.0
  0
POINT
  5
12A
100
AcDbEntity
  8
Defpoints
370
               0
390
0
 62
               0
100
AcDbPoint
 10
-2.2926408595380252
 20
4.4232600000364997
 30
0.0
  0
POINT
  5
12B
100
AcDbEntity
  8
Defpoints
370
               0
390
0
 62
               0
100
AcDbPoint
 10
-2.2926408595380252
 20
10.583260000000006
 30
0.0
  0
ENDBLK
  5
12C
100
AcDbEntity
  8
Dimension
390
0
100
AcDbBlockEnd
  0
BLOCK
  5
12D
100
AcDbEntity
  8
None
390
0
100
AcDbBlockBegin
  2
Group
 70
               0
 10
0.0
 20
0.0
 30
0.0
  3
Group
  1

  0
SOLID
  5
12E
100
AcDbEntity
  8
None
370
               5
390
0
  6
Continuous
 62
               7
100
AcDbTrace
 10
-4.4176408595380252
 20
3.8932600000364985
 30
0.0
 11
-4.4176408595380252
 21
4.4932600000364999
 31
0.0
 12
-4.0676408595380309
 22
3.8932600000364985
 32
0.0
 13
-4.0676408595380309
 23
4.4932600000364999
 33
0.0
  0
SOLID
  5
12F
100
AcDbEntity
  8
None
370
               5
390
0
  6
Continuous
 62
               7
100
AcDbTrace
 10
-3.7676408595380195
 20
3.8932600000364985
 30
0.0
 11
-3.7676408595380195
 21
4.4932600000364999
 31
0.0
 12
-3.4176408595380252
 22
3.8932600000364985
 32
0.0
 13
-3.4176408595380252
 23
4.4932600000364999
 33
0.0
  0
SOLID
  5
130
100
AcDbEntity
  8
None
370
               5
390
0
  6
Continuous
 62
               7
100
AcDbTrace
 10
-3.1176408595380281
 20
3.8932600000364985
 30
0.0
 11
-3.1176408595380281
 21
4.4932600000364999
 31
0.0
 12
-2.7676408595380195
 22
3.8932600000364985
 32
0.0
 13
-2.7676408595380195
 23
4.4932600000364999
 33
0.0
  0
SOLID
  5
131
100
AcDbEntity
  8
None
370
               5
390
0
  6
Continuous
 62
               7
100
AcDbTrace
 10
-2.4676408595380224
 20
3.8932600000364985
 30
0.0
 11
-2.4676408595380224
 21
4.4932600000364999
 31
0.0
 12
-2.1176408595380281
 22
3.8932600000364985
 32
0.0
 13
-2.1176408595380281
 23
4.4932600000364999
 33
0.0
  0
SOLID
  5
132
100
AcDbEntity
  8
None
370
               5
390
0
  6
Continuous
 62
               7
100
AcDbTrace
 10
-1.8176408595380309
 20
3.8932600000364985
 30
0.0
 11
-1.8176408595380309
 21
4.4932600000364999
 31
0.0
 12
-1.4676408595380224
 22
3.8932600000364985
 32
0.0
 13
-1.4676408595380224
 23
4.4932600000364999
 33
0.0
  0
SOLID
  5
133
100
AcDbEntity
  8
None
370
               5
390
0
  6
Continuous
 62
               7
100
AcDbTrace
 10
-1.1676408595379968
 20
3.8932600000364985
 30
0.0
 11
-1.1676408595379968
 21
4.4932600000364999
 31
0.0
 12
-0.8176408595380025
 22
3.8932600000364985
 32
0.0
 13
-0.8176408595380025
 23
4.4932600000364999
 33
0.0
  0
SOLID
  5
134
100
AcDbEntity
  8
None
370
               5
390
0
  6
Continuous
 62
               7
100
AcDbTrace
 10
-0.5176408595379627
 20
3.8932600000364985
 30
0.0
 11
-0.5176408595379627
 21
4.4932600000364999
 31
0.0
 12
-0.1676408595379684
 22
3.8932600000364985
 32
0.0
 13
-0.1676408595379684
 23
4.4932600000364999
 33
0.0
  0
SOLID
  5
135
100
AcDbEntity
  8
None
370
               5
390
0
  6
Continuous
 62
               7
100
AcDbTrace
 10
-5.0676408595380451
 20
3.8932600000364985
 30
0.0
 11
-5.0676408595380451
 21
4.4932600000364999
 31
0.0
 12
-4.7176408595380366
 22
3.8932600000364985
 32
0.0
 13
-4.7176408595380366
 23
4.4932600000364999
 33
0.0
  0
ENDBLK
  5
136
100
AcDbEntity
  8
None
390
0
100
AcDbBlockEnd
  0
BLOCK
  5
137
100
AcDbEntity
  8
None
390
0
100
AcDbBlockBegin
  2
Group-1
 70
               0
 10
0.0
 20
0.0
 30
0.0
  3
Group-1
  1

  0
SOLID
  5
138
100
AcDbEntity
  8
None
370
               5
390
0
  6
Continuous
 62
               7
100
AcDbTrace
 10
-0.072640859550944
 20
-0.4517400000639782
 30
0.0
 11
-0.072640859550944
 21
-0.1017400000639839
 31
0.0
 12
0.5273591404490503
 22
-0.4517400000639782
 32
0.0
 13
0.5273591404490503
 23
-0.1017400000639839
 33
0.0
  0
SOLID
  5
139
100
AcDbEntity
  8
None
370
               5
390
0
  6
Continuous
 62
               7
100
AcDbTrace
 10
-0.072640859550944
 20
0.1982599999360133
 30
0.0
 11
-0.072640859550944
 21
0.5482599999360218
 31
0.0
 12
0.5273591404490503
 22
0.1982599999360133
 32
0.0
 13
0.5273591404490503
 23
0.5482599999360218
 33
0.0
  0
SOLID
  5
13A
100
AcDbEntity
  8
None
370
               5
390
0
  6
Continuous
 62
               7
100
AcDbTrace
 10
-0.072640859550944
 20
0.8482599999360048
 30
0.0
 11
-0.072640859550944
 21
1.1982599999360133
 31
0.0
 12
0.5273591404490503
 22
0.8482599999360048
 32
0.0
 13
0.5273591404490503
 23
1.1982599999360133
 33
0.0
  0
SOLID
  5
13B
100
AcDbEntity
  8
None
370
               5
390
0
  6
Continuous
 62
               7
100
AcDbTrace
 10
-0.072640859550944
 20
1.4982599999360104
 30
0.0
 11
-0.072640859550944
 21
1.8482599999360048
 31
0.0
 12
0.5273591404490503
 22
1.4982599999360104
 32
0.0
 13
0.5273591404490503
 23
1.8482599999360048
 33
0.0
  0
SOLID
  5
13C
100
AcDbEntity
  8
None
370
               5
390
0
  6
Continuous
 62
               7
100
AcDbTrace
 10
-0.072640859550944
 20
2.1482599999360161
 30
0.0
 11
-0.072640859550944
 21
2.4982599999360104
 31
0.0
 12
0.5273591404490503
 22
2.1482599999360161
 32
0.0
 13
0.5273591404490503
 23
2.4982599999360104
 33
0.0
  0
SOLID
  5
13D
100
AcDbEntity
  8
None
370
               5
390
0
  6
Continuous
 62
               7
100
AcDbTrace
 10
-0.072640859550944
 20
2.7982599999360431
 30
0.0
 11
-0.072640859550944
 21
3.1482599999360374
 31
0.0
 12
0.5273591404490503
 22
2.7982599999360431
 32
0.0
 13
0.5273591404490503
 23
3.1482599999360374
 33
0.0
  0
SOLID
  5
13E
100
AcDbEntity
  8
None
370
               5
390
0
  6
Continuous
 62
               7
100
AcDbTrace
 10
-0.072640859550944
 20
3.4482599999360701
 30
0.0
 11
-0.072640859550944
 21
3.7982599999360716
 31
0.0
 12
0.5273591404490503
 22
3.4482599999360701
 32
0.0
 13
0.5273591404490503
 23
3.7982599999360716
 33
0.0
  0
SOLID
  5
13F
100
AcDbEntity
  8
None
370
               5
390
0
  6
Continuous
 62
               7
100
AcDbTrace
 10
-0.072640859550944
 20
-1.1017400000640123
 30
0.0
 11
-0.072640859550944
 21
-0.7517400000640038
 31
0.0
 12
0.5273591404490503
 22
-1.1017400000640123
 32
0.0
 13
0.5273591404490503
 23
-0.7517400000640038
 33
0.0
  0
ENDBLK
  5
140
100
AcDbEntity
  8
None
390
0
100
AcDbBlockEnd
  0
BLOCK
  5
141
100
AcDbEntity
  8
None
390
0
100
AcDbBlockBegin
  2
Group-2
 70
               0
 10
0.0
 20
0.0
 30
0.0
  3
Group-2
  1

  0
SOLID
  5
142
100
AcDbEntity
  8
None
370
               5
390
0
  6
Continuous
 62
               7
100
AcDbTrace
 10
-4.4176408595380252
 20
-1.7967400000364648
 30
0.0
 11
-4.4176408595380252
 21
-1.1967400000364705
 31
0.0
 12
-4.0676408595380309
 22
-1.7967400000364648
 32
0.0
 13
-4.0676408595380309
 23
-1.1967400000364705
 33
0.0
  0
SOLID
  5
143
100
AcDbEntity
  8
None
370
               5
390
0
  6
Continuous
 62
               7
100
AcDbTrace
 10
-3.7676408595380195
 20
-1.7967400000364648
 30
0.0
 11
-3.7676408595380195
 21
-1.1967400000364705
 31
0.0
 12
-3.4176408595380252
 22
-1.7967400000364648
 32
0.0
 13
-3.4176408595380252
 23
-1.1967400000364705
 33
0.0
  0
SOLID
  5
144
100
AcDbEntity
  8
None
370
               5
390
0
  6
Continuous
 62
               7
100
AcDbTrace
 10
-3.1176408595380281
 20
-1.7967400000364648
 30
0.0
 11
-3.1176408595380281
 21
-1.1967400000364705
 31
0.0
 12
-2.7676408595380195
 22
-1.7967400000364648
 32
0.0
 13
-2.7676408595380195
 23
-1.1967400000364705
 33
0.0
  0
SOLID
  5
145
100
AcDbEntity
  8
None
370
               5
390
0
  6
Continuous
 62
               7
100
AcDbTrace
 10
-2.4676408595380224
 20
-1.7967400000364648
 30
0.0
 11
-2.4676408595380224
 21
-1.1967400000364705
 31
0.0
 12
-2.1176408595380281
 22
-1.7967400000364648
 32
0.0
 13
-2.1176408595380281
 23
-1.1967400000364705
 33
0.0
  0
SOLID
  5
146
100
AcDbEntity
  8
None
370
               5
390
0
  6
Continuous
 62
               7
100
AcDbTrace
 10
-1.8176408595380309
 20
-1.7967400000364648
 30
0.0
 11
-1.8176408595380309
 21
-1.1967400000364705
 31
0.0
 12
-1.4676408595380224
 22
-1.7967400000364648
 32
0.0
 13
-1.4676408595380224
 23
-1.1967400000364705
 33
0.0
  0
SOLID
  5
147
100
AcDbEntity
  8
None
370
               5
390
0
  6
Continuous
 62
               7
100
AcDbTrace
 10
-1.1676408595379968
 20
-1.7967400000364648
 30
0.0
 11
-1.1676408595379968
 21
-1.1967400000364705
 31
0.0
 12
-0.8176408595380025
 22
-1.7967400000364648
 32
0.0
 13
-0.8176408595380025
 23
-1.1967400000364705
 33
0.0
  0
SOLID
  5
148
100
AcDbEntity
  8
None
370
               5
390
0
  6
Continuous
 62
               7
100
AcDbTrace
 10
-0.5176408595379627
 20
-1.7967400000364648
 30
0.0
 11
-0.5176408595379627
 21
-1.1967400000364705
 31
0.0
 12
-0.1676408595379684
 22
-1.7967400000364648
 32
0.0
 13
-0.1676408595379684
 23
-1.1967400000364705
 33
0.0
  0
SOLID
  5
149
100
AcDbEntity
  8
None
370
               5
390
0
  6
Continuous
 62
               7
100
AcDbTrace
 10
-5.0676408595380451
 20
-1.7967400000364648
 30
0.0
 11
-5.0676408595380451
 21
-1.1967400000364705
 31
0.0
 12
-4.7176408595380366
 22
-1.7967400000364648
 32
0.0
 13
-4.7176408595380366
 23
-1.1967400000364705
 33
0.0
  0
ENDBLK
  5
14A
100
AcDbEntity
  8
None
390
0
100
AcDbBlockEnd
  0
BLOCK
  5
14B
100
AcDbEntity
  8
None
390
0
100
AcDbBlockBegin
  2
Group-3
 70
               0
 10
0.0
 20
0.0
 30
0.0
  3
Group-3
  1

  0
SOLID
  5
14C
100
AcDbEntity
  8
None
370
               5
390
0
  6
Continuous
 62
               7
100
AcDbTrace
 10
-5.7626408595508991
 20
-0.4517400000639782
 30
0.0
 11
-5.7626408595508991
 21
-0.1017400000639839
 31
0.0
 12
-5.1626408595509048
 22
-0.4517400000639782
 32
0.0
 13
-5.1626408595509048
 23
-0.1017400000639839
 33
0.0
  0
SOLID
  5
14D
100
AcDbEntity
  8
None
370
               5
390
0
  6
Continuous
 62
               7
100
AcDbTrace
 10
-5.7626408595508991
 20
0.1982599999360133
 30
0.0
 11
-5.7626408595508991
 21
0.5482599999360218
 31
0.0
 12
-5.1626408595509048
 22
0.1982599999360133
 32
0.0
 13
-5.1626408595509048
 23
0.5482599999360218
 33
0.0
  0
SOLID
  5
14E
100
AcDbEntity
  8
None
370
               5
390
0
  6
Continuous
 62
               7
100
AcDbTrace
 10
-5.7626408595508991
 20
0.8482599999360048
 30
0.0
 11
-5.7626408595508991
 21
1.1982599999360133
 31
0.0
 12
-5.1626408595509048
 22
0.8482599999360048
 32
0.0
 13
-5.1626408595509048
 23
1.1982599999360133
 33
0.0
  0
SOLID
  5
14F
100
AcDbEntity
  8
None
370
               5
390
0
  6
Continuous
 62
               7
100
AcDbTrace
 10
-5.7626408595508991
 20
1.4982599999360104
 30
0.0
 11
-5.7626408595508991
 21
1.8482599999360048
 31
0.0
 12
-5.1626408595509048
 22
1.4982599999360104
 32
0.0
 13
-5.1626408595509048
 23
1.8482599999360048
 33
0.0
  0
SOLID
  5
150
100
AcDbEntity
  8
None
370
               5
390
0
  6
Continuous
 62
               7
100
AcDbTrace
 10
-5.7626408595508991
 20
2.148259999936009
 30
0.0
 11
-5.7626408595508991
 21
2.4982599999360104
 31
0.0
 12
-5.1626408595509048
 22
2.148259999936009
 32
0.0
 13
-5.1626408595509048
 23
2.4982599999360104
 33
0.0
  0
SOLID
  5
151
100
AcDbEntity
  8
None
370
               5
390
0
  6
Continuous
 62
               7
100
AcDbTrace
 10
-5.7626408595508991
 20
2.7982599999360431
 30
0.0
 11
-5.7626408595508991
 21
3.1482599999360374
 31
0.0
 12
-5.1626408595509048
 22
2.7982599999360431
 32
0.0
 13
-5.1626408595509048
 23
3.1482599999360374
 33
0.0
  0
SOLID
  5
152
100
AcDbEntity
  8
None
370
               5
390
0
  6
Continuous
 62
               7
100
AcDbTrace
 10
-5.7626408595508991
 20
3.4482599999360701
 30
0.0
 11
-5.7626408595508991
 21
3.7982599999360716
 31
0.0
 12
-5.1626408595509048
 22
3.4482599999360701
 32
0.0
 13
-5.1626408595509048
 23
3.7982599999360716
 33
0.0
  0
SOLID
  5
153
100
AcDbEntity
  8
None
370
               5
390
0
  6
Continuous
 62
               7
100
AcDbTrace
 10
-5.7626408595508991
 20
-1.1017400000640123
 30
0.0
 11
-5.7626408595508991
 21
-0.7517400000640038
 31
0.0
 12
-5.1626408595509048
 22
-1.1017400000640123
 32
0.0
 13
-5.1626408595509048
 23
-0.7517400000640038
 33
0.0
  0
ENDBLK
  5
154
100
AcDbEntity
  8
None
390
0
100
AcDbBlockEnd
  0
BLOCK
  5
155
100
AcDbEntity
  8
Dimension
390
0
100
AcDbBlockBegin
  2
*D22
 70
               1
 10
0.0
 20
0.0
 30
0.0
  3
*D22
  1

  0
LINE
  5
156
100
AcDbEntity
  8
Dimension
370
              -2
390
0
  6
Continuous
 62
               0
100
AcDbLine
 10
-5.0676408595380451
 20
-2.2729900012192417
 30
0.0
 11
-5.0676408595380451
 21
-8.0692400023655182
 31
0.0
  0
LINE
  5
157
100
AcDbEntity
  8
Dimension
370
              -2
390
0
  6
Continuous
 62
               0
100
AcDbLine
 10
-0.1676408595379684
 20
-2.2729900012192417
 30
0.0
 11
-0.1676408595379684
 21
-8.0692400023655182
 31
0.0
  0
LINE
  5
158
100
AcDbEntity
  8
Dimension
370
              -2
390
0
  6
Continuous
 62
               0
100
AcDbLine
 10
-0.1676408595379684
 20
-7.1167399999999645
 30
0.0
 11
-5.0676408595380451
 21
-7.1167399999999645
 31
0.0
  0
LINE
  5
159
100
AcDbEntity
  8
Dimension
370
              -2
390
0
  6
Continuous
 62
               0
100
AcDbLine
 10
-5.0676408595380451
 20
-7.1167399999999645
 30
0.0
 11
-6.8176373579048573
 21
-7.1167399999999645
 31
0.0
  0
SOLID
  5
15A
100
AcDbEntity
  8
Dimension
370
              -2
390
0
 62
               0
100
AcDbTrace
 10
-5.0676408595380451
 20
-7.1167399999999645
 30
0.0
 11
-5.8613908595380453
 21
-7.329424671492168
 31
0.0
 12
-5.8613908595380453
 22
-6.904055328507761
 32
0.0
 13
-5.8613908595380453
 23
-6.904055328507761
 33
0.0
  0
LINE
  5
15B
100
AcDbEntity
  8
Dimension
370
              -2
390
0
  6
Continuous
 62
               0
100
AcDbLine
 10
-0.1676408595379684
 20
-7.1167399999999645
 30
0.0
 11
1.5823556388288438
 21
-7.1167399999999645
 31
0.0
  0
SOLID
  5
15C
100
AcDbEntity
  8
Dimension
370
              -2
390
0
 62
               0
100
AcDbTrace
 10
-0.1676408595379684
 20
-7.1167399999999645
 30
0.0
 11
0.6261091404620316
 21
-6.904055328507761
 31
0.0
 12
0.6261091404620316
 22
-7.329424671492168
 32
0.0
 13
0.6261091404620316
 23
-7.329424671492168
 33
0.0
  0
WIPEOUT
  5
15D
100
AcDbEntity
  8
Dimension
370
              -2
390
0
  6
Continuous
 62
               0
 92
        0
100
AcDbWipeout
 90
        0
 10
-4.2474724703236006
 20
-7.725281058124966
 30
0.0
 11
3.2596632215711798
 21
0.0
 31
0.0
 12
0.0
 22
3.2596632215711798
 32
0.0
 13
1.0
 23
1.0
340
0
 70
               7
280
               1
281
              50
282
              50
283
               0
360
0
 71
               2
 91
        5
 14
-0.5
 24
0.5
 14
0.5
 24
0.5
 14
0.5
 24
0.1266233553835177
 14
-0.5
 24
0.1266233553835177
 14
-0.5
 24
0.5
  0
MTEXT
  5
15E
100
AcDbEntity
  8
Dimension
390
0
 62
               0
100
AcDbMText
 10
-4.2474724703236006
 20
-6.7027777403515287
 30
0.0
 40
0.7579202490234376
 41
0.0
 71
               1
 72
               1
  1
4.9mm
  7
Arial
 73
               1
 44
0.9673603504928806
  0
POINT
  5
15F
100
AcDbEntity
  8
Defpoints
370
               0
390
0
 62
               0
100
AcDbPoint
 10
-0.1676408595379684
 20
-1.7967400000364648
 30
0.0
  0
POINT
  5
160
100
AcDbEntity
  8
Defpoints
370
               0
390
0
 62
               0
100
AcDbPoint
 10
-5.0676408595380451
 20
-1.7967400000364648
 30
0.0
  0
POINT
  5
161
100
AcDbEntity
  8
Defpoints
370
               0
390
0
 62
               0
100
AcDbPoint
 10
-5.0676408595380451
 20
-7.1167399999999654
 30
0.0
  0
ENDBLK
  5
162
100
AcDbEntity
  8
Dimension
390
0
100
AcDbBlockEnd
  0
ENDSEC
  0
SECTION
  2
ENTITIES
  0
LINE
  5
163
100
AcDbEntity
  8
None
370
               9
390
0
  6
Continuous
 62
              12
100
AcDbLine
 10
14.124698947699102
 20
-9.5075060986904418
 30
0.0
 11
14.114698947699111
 21
-6.9848563678800701
 31
0.0
  0
POLYLINE
  5
164
100
AcDbEntity
  8
None
370
               9
390
0
  6
STYLE_11
 62
               7
100
AcDb2dPolyline
 66
               1
 10
0.0
 20
0.0
 30
0.0
 70
               1
 75
               5
  0
VERTEX
  5
165
100
AcDbEntity
  8
None
370
               9
390
0
  6
STYLE_11
 62
               7
100
AcDbVertex
100
AcDb2dVertex
 10
-8.9801408595509002
 20
7.460760000000036
 30
0.0
  0
VERTEX
  5
166
100
AcDbEntity
  8
None
370
               9
390
0
  6
STYLE_11
 62
               7
100
AcDbVertex
100
AcDb2dVertex
 10
3.2448591404490941
 20
7.460760000000036
 30
0.0
  0
VERTEX
  5
167
100
AcDbEntity
  8
None
370
               9
390
0
  6
STYLE_11
 62
               7
100
AcDbVertex
100
AcDb2dVertex
 10
3.2448591404490941
 20
-4.7642399999999867
 30
0.0
  0
VERTEX
  5
168
100
AcDbEntity
  8
None
370
               9
390
0
  6
STYLE_11
 62
               7
100
AcDbVertex
100
AcDb2dVertex
 10
-8.9801408595509002
 20
-4.7642399999999867
 30
0.0
  0
SEQEND
  5
169
100
AcDbEntity
  8
None
370
               9
390
0
  6
STYLE_11
 62
               7
  0
CIRCLE
  5
16A
102
{ACAD_REACTORS
330
16B
102
}
100
AcDbEntity
  8
None
370
               9
390
0
  6
Continuous
 62
             180
100
AcDbCircle
 10
-5.9629808595509104
 20
6.4430200000000326
 30
0.0
 40
0.2500014851955809
  0
HATCH
  5
16B
100
AcDbEntity
  8
None
370
               0
390
0
  6
Continuous
 62
             180
100
AcDbHatch
 10
0.0
 20
0.0
 30
0.0
210
0.0
220
0.0
230
1.0
  2
SOLID
 70
               1
 71
               1
 91
        1
 92
        1
 93
        1
 72
               2
 10
-5.9629808595509104
 20
6.4430200000000326
 40
0.2500014851955809
 50
0.0
 51
360.0
 73
               0
 97
        1
330
16A
 75
               0
 76
               1
 98
        1
 10
0.0
 20
0.0
  0
WIPEOUT
  5
16C
100
AcDbEntity
  8
None
370
               9
390
0
  6
Continuous
 62
               7
 92
        0
100
AcDbWipeout
 90
        0
 10
-8.6051408595509002
 20
5.335760000000036
 30
0.0
 11
1.75
 21
0.0
 31
0.0
 12
0.0
 22
1.75
 32
0.0
 13
1.0
 23
1.0
340
0
 70
               7
280
               1
281
              50
282
              50
283
               0
360
0
 71
               2
 91
        9
 14
0.5
 24
0.0
 14
0.3535533905932736
 24
0.3535533905932736
 14
0.0
 24
0.5
 14
-0.3535533905932736
 24
0.3535533905932736
 14
-0.5
 24
0.0
 14
-0.3535533905932736
 24
-0.3535533905932736
 14
0.0
 24
-0.5
 14
0.3535533905932736
 24
-0.3535533905932736
 14
0.5
 24
0.0
  0
CIRCLE
  5
16D
100
AcDbEntity
  8
None
370
               9
390
0
  6
Continuous
 62
               7
100
AcDbCircle
 10
-7.7301408595509002
 20
6.210760000000036
 30
0.0
 40
0.875
  0
WIPEOUT
  5
16E
100
AcDbEntity
  8
None
370
               9
390
0
  6
Continuous
 62
               7
 92
        0
100
AcDbWipeout
 90
        0
 10
1.1198591404490941
 20
-4.3892399999999867
 30
0.0
 11
1.75
 21
0.0
 31
0.0
 12
0.0
 22
1.75
 32
0.0
 13
1.0
 23
1.0
340
0
 70
               7
280
               1
281
              50
282
              50
283
               0
360
0
 71
               2
 91
        9
 14
-0.5
 24
0.0
 14
-0.3535533905932737
 24
-0.3535533905932738
 14
0.0
 24
-0.5
 14
0.3535533905932736
 24
-0.3535533905932738
 14
0.5
 24
0.0
 14
0.3535533905932736
 24
0.3535533905932736
 14
0.0
 24
0.5
 14
-0.3535533905932737
 24
0.3535533905932736
 14
-0.5
 24
0.0
  0
CIRCLE
  5
16F
100
AcDbEntity
  8
None
370
               9
390
0
  6
Continuous
 62
               7
100
AcDbCircle
 10
1.9948591404490941
 20
-3.5142399999999867
 30
0.0
 40
0.875
  0
WIPEOUT
  5
170
100
AcDbEntity
  8
None
370
               9
390
0
  6
Continuous
 62
               7
 92
        0
100
AcDbWipeout
 90
        0
 10
-8.6051408595509002
 20
-4.3892399999999867
 30
0.0
 11
1.75
 21
0.0
 31
0.0
 12
0.0
 22
1.75
 32
0.0
 13
1.0
 23
1.0
340
0
 70
               7
280
               1
281
              50
282
              50
283
               0
360
0
 71
               2
 91
        9
 14
0.5
 24
0.0
 14
0.3535533905932736
 24
0.3535533905932736
 14
0.0
 24
0.5
 14
-0.3535533905932736
 24
0.3535533905932736
 14
-0.5
 24
0.0
 14
-0.3535533905932736
 24
-0.3535533905932738
 14
0.0
 24
-0.5
 14
0.3535533905932736
 24
-0.3535533905932738
 14
0.5
 24
0.0
  0
CIRCLE
  5
171
100
AcDbEntity
  8
None
370
               9
390
0
  6
Continuous
 62
               7
100
AcDbCircle
 10
-7.7301408595509002
 20
-3.5142399999999867
 30
0.0
 40
0.875
  0
WIPEOUT
  5
172
100
AcDbEntity
  8
None
370
               9
390
0
  6
Continuous
 62
               7
 92
        0
100
AcDbWipeout
 90
        0
 10
1.1198591404490941
 20
5.335760000000036
 30
0.0
 11
1.75
 21
0.0
 31
0.0
 12
0.0
 22
1.75
 32
0.0
 13
1.0
 23
1.0
340
0
 70
               7
280
               1
281
              50
282
              50
283
               0
360
0
 71
               2
 91
        9
 14
-0.5
 24
0.0
 14
-0.3535533905932737
 24
-0.3535533905932736
 14
0.0
 24
-0.5
 14
0.3535533905932736
 24
-0.3535533905932736
 14
0.5
 24
0.0
 14
0.3535533905932736
 24
0.3535533905932736
 14
0.0
 24
0.5
 14
-0.3535533905932737
 24
0.3535533905932736
 14
-0.5
 24
0.0
  0
CIRCLE
  5
173
100
AcDbEntity
  8
None
370
               9
390
0
  6
Continuous
 62
               7
100
AcDbCircle
 10
1.9948591404490941
 20
6.210760000000036
 30
0.0
 40
0.875
  0
WIPEOUT
  5
174
100
AcDbEntity
  8
None
370
               9
390
0
  6
Continuous
 62
               7
 92
        0
100
AcDbWipeout
 90
        0
 10
1.5698591404490827
 20
3.7857600000000247
 30
0.0
 11
0.8500000000000227
 21
0.0
 31
0.0
 12
0.0
 22
0.8500000000000227
 32
0.0
 13
1.0
 23
1.0
340
0
 70
               7
280
               1
281
              50
282
              50
283
               0
360
0
 71
               2
 91
        9
 14
0.5
 24
0.0
 14
0.3535533905932735
 24
0.3535533905932741
 14
0.0
 24
0.5
 14
-0.3535533905932738
 24
0.3535533905932741
 14
-0.5
 24
0.0
 14
-0.3535533905932738
 24
-0.3535533905932741
 14
0.0
 24
-0.5
 14
0.3535533905932735
 24
-0.3535533905932741
 14
0.5
 24
0.0
  0
CIRCLE
  5
175
100
AcDbEntity
  8
None
370
               9
390
0
  6
Continuous
 62
               7
100
AcDbCircle
 10
1.9948591404490941
 20
4.210760000000036
 30
0.0
 40
0.4250000000000114
  0
WIPEOUT
  5
176
100
AcDbEntity
  8
None
370
               9
390
0
  6
Continuous
 62
               7
 92
        0
100
AcDbWipeout
 90
        0
 10
-8.1551408595509116
 20
-0.9392399999999981
 30
0.0
 11
0.8500000000000227
 21
0.0
 31
0.0
 12
0.0
 22
0.8500000000000227
 32
0.0
 13
1.0
 23
1.0
340
0
 70
               7
280
               1
281
              50
282
              50
283
               0
360
0
 71
               2
 91
        9
 14
0.5
 24
0.0
 14
0.3535533905932741
 24
0.3535533905932738
 14
0.0
 24
0.5
 14
-0.353553390593273
 24
0.3535533905932738
 14
-0.5
 24
0.0
 14
-0.353553390593273
 24
-0.3535533905932738
 14
0.0
 24
-0.5
 14
0.3535533905932741
 24
-0.3535533905932738
 14
0.5
 24
0.0
  0
CIRCLE
  5
177
100
AcDbEntity
  8
None
370
               9
390
0
  6
Continuous
 62
               7
100
AcDbCircle
 10
-7.7301408595509002
 20
-0.5142399999999867
 30
0.0
 40
0.4250000000000114
  0
DIMENSION
  5
178
100
AcDbEntity
  8
Dimension
370
               9
390
0
  6
Continuous
 62
              12
100
AcDbDimension
  2
*D3
 10
-8.9801408595509002
 20
-14.016739999999972
 30
0.0
 11
-2.8623491892043083
 21
-14.016739999999972
 31
0.0
 70
             128
 71
               5
 72
               1
 41
1.0
 42
0.0
  3
IE Standard
100
AcDbAlignedDimension
 13
3.2448591404490941
 23
-4.7642399999999867
 33
0.0
 14
-8.9801408595509002
 24
-4.7642399999999867
 34
0.0
100
AcDbRotatedDimension
1001
ACAD
1000
DSTYLE
1002
{
1070
             271
1070
               3
1070
             340
1005
38
1070
              71
1070
               1
1070
              47
1040
0.125
1070
              48
1040
0.125
1070
             147
1040
0.09921875
1002
}
  0
DIMENSION
  5
179
100
AcDbEntity
  8
Dimension
370
               9
390
0
  6
Continuous
 62
              12
100
AcDbDimension
  2
*D4
 10
-12.6838008595509
 20
-3.5142399999999867
 30
0.0
 11
-12.6838008595509
 21
-2.1016299999999646
 31
0.0
 70
             128
 71
               5
 72
               1
 41
1.0
 42
0.0
  3
IE Standard
100
AcDbAlignedDimension
 13
-7.7301408595509002
 23
-0.5142399999999867
 33
0.0
 14
-7.7301408595509002
 24
-3.5142399999999867
 34
0.0
 50
90.0
100
AcDbRotatedDimension
1001
ACAD
1000
DSTYLE
1002
{
1070
             271
1070
               2
1070
             340
1005
38
1070
             147
1040
0.09921875
1002
}
  0
DIMENSION
  5
17A
100
AcDbEntity
  8
Dimension
370
               9
390
0
  6
Continuous
 62
              12
100
AcDbDimension
  2
*D5
 10
9.5134889876335045
 20
6.210760000000036
 30
0.0
 11
9.5134889876335045
 21
5.210760000000036
 31
0.0
 70
             128
 71
               5
 72
               1
 41
1.0
 42
0.0
  3
IE Standard
100
AcDbAlignedDimension
 13
1.9948591404490941
 23
4.210760000000036
 33
0.0
 14
1.9948591404490941
 24
6.210760000000036
 34
0.0
 50
90.0
100
AcDbRotatedDimension
1001
ACAD
1000
DSTYLE
1002
{
1070
             271
1070
               2
1070
             340
1005
38
1070
             147
1040
0.09921875
1002
}
  0
DIMENSION
  5
17B
100
AcDbEntity
  8
Dimension
370
               9
390
0
  6
Continuous
 62
              12
100
AcDbDimension
  2
*D6
 10
-8.9801408595509002
 20
11.698370000000036
 30
0.0
 11
-12.0434108595509
 21
11.698370000000036
 31
0.0
 70
             128
 71
               5
 72
               1
 41
1.0
 42
0.0
  3
IE Standard
100
AcDbAlignedDimension
 13
-7.7301408595509002
 23
6.210760000000036
 33
0.0
 14
-8.9801408595509002
 24
7.460760000000036
 34
0.0
100
AcDbRotatedDimension
1001
ACAD
1000
DSTYLE
1002
{
1070
             271
1070
               3
1070
             340
1005
38
1070
              71
1070
               1
1070
              47
1040
0.125
1070
              48
1040
0.125
1070
               3
1000
<>mm (x4)
1070
             174
1070
               0
1070
             147
1040
0.09921875
1002
}
  0
DIMENSION
  5
17C
100
AcDbEntity
  8
Dimension
370
               9
390
0
  6
Continuous
 62
              12
100
AcDbDimension
  2
*D7
 10
-18.047930859550899
 20
7.460760000000036
 30
0.0
 11
-18.047930859550899
 21
9.7586300000000357
 31
0.0
 70
             128
 71
               5
 72
               1
 41
1.0
 42
0.0
  3
IE Standard
100
AcDbAlignedDimension
 13
-7.7301408595509002
 23
6.210760000000036
 33
0.0
 14
-8.9801408595509002
 24
7.460760000000036
 34
0.0
 50
90.0
100
AcDbRotatedDimension
1001
ACAD
1000
DSTYLE
1002
{
1070
             271
1070
               3
1070
             340
1005
38
1070
              71
1070
               1
1070
              47
1040
0.125
1070
              48
1040
0.125
1070
               3
1000
<>mm (x4)
1070
             174
1070
               0
1070
             147
1040
0.09921875
1002
}
  0
DIMENSION
  5
17D
100
AcDbEntity
  8
Dimension
370
               9
390
0
  6
Continuous
 62
              12
100
AcDbDimension
  2
*D8
 10
-7.7301408595509002
 20
-10.716739999999973
 30
0.0
 11
-2.8623491892043083
 21
-10.716739999999973
 31
0.0
 70
             128
 71
               5
 72
               1
 41
1.0
 42
0.0
  3
IE Standard
100
AcDbAlignedDimension
 13
1.9948591404490941
 23
-3.5142399999999867
 33
0.0
 14
-7.7301408595509002
 24
-3.5142399999999867
 34
0.0
100
AcDbRotatedDimension
1001
ACAD
1000
DSTYLE
1002
{
1070
             271
1070
               3
1070
             340
1005
38
1070
               3
1000
<>mm (x4)
1070
             147
1040
0.09921875
1002
}
  0
DIMENSION
  5
17E
100
AcDbEntity
  8
Dimension
370
               9
390
0
  6
Continuous
 62
              12
100
AcDbDimension
  2
*D9
 10
1.6458863521679774
 20
3.9680641702105888
 30
0.0
 11
11.412199307927233
 21
9.683259999999958
 31
0.0
 70
               3
 71
               5
 72
               1
 41
1.0
 42
0.0
  3
IE Standard
100
AcDbDiametricDimension
 15
2.3450519287302143
 25
4.4514558297894453
 35
0.0
 40
9.1996488904118152
1001
ACAD
1000
DSTYLE
1002
{
1070
             271
1070
               3
1070
             172
1070
               0
1070
             289
1070
               0
1070
             342
1005
4F
1070
             340
1005
38
1070
              75
1070
               1
1070
              76
1070
               1
1070
              71
1070
               1
1070
              47
1040
0.025
1070
              48
1040
0.025
1070
               3
1000
mm (x2)
1070
             174
1070
               0
1070
             147
1040
0.09921875
1002
}
  0
LINE
  5
17F
100
AcDbEntity
  8
None
370
               9
390
0
  6
Continuous
 62
              12
100
AcDbLine
 10
-13.867640859550889
 20
17.391460000000009
 30
0.0
 11
-17.834730859550902
 21
17.391460000000009
 31
0.0
  0
LINE
  5
180
100
AcDbEntity
  8
None
370
               9
390
0
  6
Continuous
 62
              12
100
AcDbLine
 10
-6.0879808595509104
 20
6.6595300000000037
 30
0.0
 11
-13.867640859550889
 21
17.391460000000009
 31
0.0
  0
SOLID
  5
181
100
AcDbEntity
  8
None
370
               9
390
0
 62
              12
100
AcDbTrace
 10
-6.0879808595509104
 20
6.6595300000000037
 30
0.0
 11
-6.4909452467148689
 21
6.9976572686468606
 31
0.0
 12
-6.2678946213318989
 22
7.1538389979424064
 32
0.0
 13
-6.2678946213318989
 23
7.1538389979424064
 33
0.0
  0
WIPEOUT
  5
182
100
AcDbEntity
  8
None
370
               9
390
0
  6
Continuous
 62
              12
 92
        0
100
AcDbWipeout
 90
        0
 10
12.602309140449108
 20
7.6286785518387603
 30
0.0
 11
12.350711488082325
 21
0.0
 31
0.0
 12
0.0
 22
12.350711488082325
 32
0.0
 13
1.0
 23
1.0
340
0
 70
               7
280
               1
281
              50
282
              50
283
               0
360
0
 71
               2
 91
        5
 14
-0.5
 24
0.5000000000000003
 14
0.4999999999999994
 24
0.5000000000000003
 14
0.4999999999999994
 24
0.4014567297459419
 14
-0.5
 24
0.4014567297459419
 14
-0.5
 24
0.5000000000000003
  0
MTEXT
  5
183
100
AcDbEntity
  8
None
390
0
 62
              12
100
AcDbMText
 10
12.602309140449108
 20
8.6511796716304232
 30
0.0
 40
0.7579186197916666
 41
0.0
 71
               1
 72
               1
  1
{\C226;\lNon plated alignment hole}
  7
Arial
 73
               1
 44
0.9673603504928806
  0
DIMENSION
  5
184
100
AcDbEntity
  8
Dimension
370
               9
390
0
  6
Continuous
 62
              12
100
AcDbDimension
  2
*D10
 10
-0.2707559462266289
 20
0.7327869574218084
 30
0.0
 11
16.053460360178125
 21
-5.5167399999998237
 31
0.0
 70
               3
 71
               5
 72
               1
 41
1.0
 42
0.0
  1
0.6 x 0.35mm
  3
IE Standard
100
AcDbDiametricDimension
 15
0.4154022503904287
 25
0.4435195053723078
 35
0.0
 40
15.343059188424501
1001
ACAD
1000
DSTYLE
1002
{
1070
             271
1070
               4
1070
             172
1070
               0
1070
             289
1070
               0
1070
             342
1005
4F
1070
             340
1005
38
1070
              75
1070
               1
1070
              76
1070
               1
1070
             174
1070
               0
1070
             147
1040
0.09921875
1002
}
  0
WIPEOUT
  5
185
100
AcDbEntity
  8
None
370
               9
390
0
  6
Continuous
 62
              12
 92
        0
100
AcDbWipeout
 90
        0
 10
-25.6769508595509
 20
16.782920500000017
 30
0.0
 11
7.8422253988126727
 21
0.0
 31
0.0
 12
0.0
 22
7.8422253988126727
 32
0.0
 13
1.0
 23
1.0
340
0
 70
               7
280
               1
281
              50
282
              50
283
               0
360
0
 71
               2
 91
        5
 14
-0.5
 24
0.5000000000000004
 14
0.5000000000000004
 24
0.5000000000000004
 14
0.5000000000000004
 24
0.3448043204440075
 14
-0.5
 24
0.3448043204440075
 14
-0.5
 24
0.5000000000000004
  0
MTEXT
  5
186
100
AcDbEntity
  8
None
390
0
 62
              12
100
AcDbMText
 10
-25.6769508595509
 20
17.80542161979168
 30
0.0
 40
0.7579186197916666
 41
0.0
 71
               1
 72
               1
  1
{\C226;\lOrientation Mark}
  7
New Century Schlbk
 73
               1
 44
0.9673603504928806
  0
WIPEOUT
  5
187
100
AcDbEntity
  8
None
370
               9
390
0
  6
Continuous
 62
              12
 92
        0
100
AcDbWipeout
 90
        0
 10
23.325668175517549
 20
-6.1252797499999616
 30
0.0
 11
4.7730682608602564
 21
0.0
 31
0.0
 12
0.0
 22
4.7730682608602564
 32
0.0
 13
1.0
 23
1.0
340
0
 70
               7
280
               1
281
              50
282
              50
283
               0
360
0
 71
               2
 91
        5
 14
-0.5
 24
0.5000000000000008
 14
0.4999999999999992
 24
0.5000000000000008
 14
0.4999999999999992
 24
0.2450110843835615
 14
-0.5
 24
0.2450110843835615
 14
-0.5
 24
0.5000000000000008
  0
MTEXT
  5
188
100
AcDbEntity
  8
None
390
0
 62
              12
100
AcDbMText
 10
23.325668175517549
 20
-5.1027786302082978
 30
0.0
 40
0.7579186197916666
 41
0.0
 71
               1
 72
               1
  1
{\C226;\lpad (x 32)}
  7
Arial
 73
               1
 44
0.9673603504928806
  0
DIMENSION
  5
189
100
AcDbEntity
  8
Dimension
370
               9
390
0
  6
Continuous
 62
              12
100
AcDbDimension
  2
*D11
 10
-7.7301408595509002
 20
14.957620000000036
 30
0.0
 11
-2.9319408595380452
 21
14.957620000000036
 31
0.0
 70
             128
 71
               5
 72
               1
 41
1.0
 42
0.0
  3
IE Standard
100
AcDbAlignedDimension
 13
-5.0676408595380451
 23
4.4932600000364999
 33
0.0
 14
-7.7301408595509002
 24
6.210760000000036
 34
0.0
100
AcDbRotatedDimension
1001
ACAD
1000
DSTYLE
1002
{
1070
             271
1070
               3
1070
             340
1005
38
1070
               3
1000
<>mm*
1070
             174
1070
               0
1070
             147
1040
0.09921875
1002
}
  0
DIMENSION
  5
18A
100
AcDbEntity
  8
Dimension
370
               9
390
0
  6
Continuous
 62
              12
100
AcDbDimension
  2
*D12
 10
-13.6838008595509
 20
6.210760000000036
 30
0.0
 11
-13.6838008595509
 21
5.3274278619572666
 31
0.0
 70
             128
 71
               5
 72
               1
 41
1.0
 42
0.0
  3
IE Standard
100
AcDbAlignedDimension
 13
-5.0676408595380451
 23
4.4932600000364999
 33
0.0
 14
-7.7301408595509002
 24
6.210760000000036
 34
0.0
 50
90.0
100
AcDbRotatedDimension
1001
ACAD
1000
DSTYLE
1002
{
1070
             271
1070
               3
1070
             340
1005
38
1070
             147
1040
0.09921875
1002
}
  0
WIPEOUT
  5
18B
100
AcDbEntity
  8
None
370
               9
390
0
  6
Continuous
 62
              12
 92
        0
100
AcDbWipeout
 90
        0
 10
8.4444789476991104
 20
-10.724585598690439
 30
0.0
 11
17.081446386169816
 21
0.0
 31
0.0
 12
0.0
 22
17.081446386169816
 32
0.0
 13
1.0
 23
1.0
340
0
 70
               7
280
               1
281
              50
282
              50
283
               0
360
0
 71
               2
 91
        5
 14
-0.5
 24
0.5000000000000002
 14
0.5
 24
0.5000000000000002
 14
0.5
 24
0.4287484518298509
 14
-0.5
 24
0.4287484518298509
 14
-0.5
 24
0.5000000000000002
  0
MTEXT
  5
18C
100
AcDbEntity
  8
None
390
0
 62
              12
100
AcDbMText
 10
8.4444789476991104
 20
-9.7020844788987759
 30
0.0
 40
0.7579186197916666
 41
0.0
 71
               1
 72
               1
  1
{\C226;\l4.3 mm x 4.3 mm thermal /GND pad}
  7
Arial
 73
               1
 44
0.9673603504928806
  0
WIPEOUT
  5
18D
100
AcDbEntity
  8
None
370
               9
390
0
  6
Continuous
 62
              12
 92
        0
100
AcDbWipeout
 90
        0
 10
12.436039140449097
 20
11.464150500000024
 30
0.0
 11
12.117878889991573
 21
0.0
 31
0.0
 12
0.0
 22
12.117878889991573
 32
0.0
 13
1.0
 23
1.0
340
0
 70
               7
280
               1
281
              50
282
              50
283
               0
360
0
 71
               2
 91
        5
 14
-0.5
 24
0.5000000000000003
 14
0.4999999999999997
 24
0.5000000000000003
 14
0.4999999999999997
 24
0.3995633220096621
 14
-0.5
 24
0.3995633220096621
 14
-0.5
 24
0.5000000000000003
  0
MTEXT
  5
18E
100
AcDbEntity
  8
None
390
0
 62
              12
100
AcDbMText
 10
12.436039140449097
 20
12.486651619791687
 30
0.0
 40
0.7579186197916666
 41
0.0
 71
               1
 72
               1
  1
{\C226;\lNon plated mounting hole}
  7
Arial
 73
               1
 44
0.9673603504928806
  0
DIMENSION
  5
18F
100
AcDbEntity
  8
Dimension
370
               9
390
0
  6
Continuous
 62
              12
100
AcDbDimension
  2
*D13
 10
1.3665613889005925
 20
5.7075036682971074
 30
0.0
 11
12.262199307927155
 21
13.233260000000049
 31
0.0
 70
               3
 71
               5
 72
               1
 41
1.0
 42
0.0
  1
(x4)
  3
IE Standard
100
AcDbDiametricDimension
 15
2.6231568919976098
 25
6.7140163317029362
 35
0.0
 40
10.428067810336355
1001
ACAD
1000
DSTYLE
1002
{
1070
             271
1070
               3
1070
             172
1070
               0
1070
             289
1070
               0
1070
             342
1005
4F
1070
             340
1005
38
1070
              75
1070
               1
1070
              76
1070
               1
1070
              71
1070
               1
1070
              47
1040
0.05
1070
              48
1040
0.05
1070
             174
1070
               0
1070
             147
1040
0.09921875
1002
}
  0
DIMENSION
  5
190
100
AcDbEntity
  8
Dimension
370
               9
390
0
  6
Continuous
 62
              12
100
AcDbDimension
  2
*D14
 10
-24.967640859550897
 20
7.460760000000036
 30
0.0
 11
-24.967640859550897
 21
1.5832600000000285
 31
0.0
 70
             128
 71
               5
 72
               1
 41
1.0
 42
0.0
  3
ASME
100
AcDbAlignedDimension
 13
-8.9801408595509002
 23
-4.7642399999999867
 33
0.0
 14
-8.9801408595509002
 24
7.460760000000036
 34
0.0
 50
90.0
100
AcDbRotatedDimension
1001
ACAD
1000
DSTYLE
1002
{
1070
             271
1070
               3
1070
             340
1005
38
1070
              71
1070
               1
1070
              47
1040
0.125
1070
              48
1040
0.125
1070
             147
1040
0.09921875
1002
}
  0
WIPEOUT
  5
191
100
AcDbEntity
  8
None
370
               9
390
0
  6
Continuous
 62
              12
 92
        0
100
AcDbWipeout
 90
        0
 10
-29.141874025049745
 20
-0.5255792499999785
 30
0.0
 11
8.4220700000000051
 21
0.0
 31
0.0
 12
0.0
 22
8.4220700000000051
 32
0.0
 13
1.0
 23
1.0
340
0
 70
               7
280
               1
281
              50
282
              50
283
               0
360
0
 71
               2
 91
        5
 14
-0.5
 24
0.5000000000000003
 14
0.4999999999999991
 24
0.5000000000000003
 14
0.4999999999999991
 24
0.3554892680778008
 14
-0.5
 24
0.3554892680778008
 14
-0.5
 24
0.5000000000000003
  0
MTEXT
  5
192
100
AcDbEntity
  8
None
390
0
 62
              12
100
AcDbMText
 10
-29.141874025049745
 20
0.4969218697916851
 30
0.0
 40
0.7579186197916666
 41
8.4220699999999997
 71
               1
 72
               1
  1
{\C226;\lSocket Body Size}
  7
New Century Schlbk
 73
               1
 44
0.9673603504928806
  0
WIPEOUT
  5
193
100
AcDbEntity
  8
None
370
               9
390
0
  6
Continuous
 62
              12
 92
        0
100
AcDbWipeout
 90
        0
 10
-6.8344708595509047
 20
-16.252359499999969
 30
0.0
 11
8.4220700000000051
 21
0.0
 31
0.0
 12
0.0
 22
8.4220700000000051
 32
0.0
 13
1.0
 23
1.0
340
0
 70
               7
280
               1
281
              50
282
              50
283
               0
360
0
 71
               2
 91
        5
 14
-0.5
 24
0.5000000000000004
 14
0.4999999999999993
 24
0.5000000000000004
 14
0.4999999999999993
 24
0.3554892680778008
 14
-0.5
 24
0.3554892680778008
 14
-0.5
 24
0.5000000000000004
  0
MTEXT
  5
194
100
AcDbEntity
  8
None
390
0
 62
              12
100
AcDbMText
 10
-6.8344708595509047
 20
-15.229858380208306
 30
0.0
 40
0.7579186197916666
 41
8.4220699999999997
 71
               1
 72
               1
  1
{\C226;\lSocket Body Size}
  7
New Century Schlbk
 73
               1
 44
0.9673603504928806
  0
LINE
  5
195
100
AcDbEntity
  8
None
370
               9
390
0
  6
STYLE_06
 62
              40
100
AcDbLine
 10
-2.8676408595508889
 20
-7.1517399999999753
 30
0.0
 11
-2.8676408595508889
 21
9.8482600000000247
 31
0.0
  0
LINE
  5
196
100
AcDbEntity
  8
None
370
               9
390
0
  6
STYLE_06
 62
              40
100
AcDbLine
 10
5.6323591404491111
 20
1.3482600000000247
 30
0.0
 11
-11.367640859550889
 21
1.3482600000000247
 31
0.0
  0
DIMENSION
  5
197
100
AcDbEntity
  8
Dimension
370
               9
390
0
  6
Continuous
 62
              12
100
AcDbDimension
  2
*D15
 10
-5.7626408595508991
 20
-8.4416299999999715
 30
0.0
 11
-10.657797694052315
 21
-8.4416299999999715
 31
0.0
 70
             128
 71
               5
 72
               1
 41
1.0
 42
0.0
  3
ASME
100
AcDbAlignedDimension
 13
0.5273591404490503
 23
-1.1017400000640123
 33
0.0
 14
-5.7626408595508991
 24
-1.1017400000640123
 34
0.0
100
AcDbRotatedDimension
1001
ACAD
1000
DSTYLE
1002
{
1070
             271
1070
               2
1070
             340
1005
38
1070
             140
1040
0.7579202490234376
1070
               3
1000
<>mm (x2)
1070
             174
1070
               0
1070
             147
1040
0.09921875
1002
}
  0
DIMENSION
  5
198
100
AcDbEntity
  8
Dimension
370
               9
390
0
  6
Continuous
 62
              12
100
AcDbDimension
  2
*D16
 10
13.312202305947675
 20
-0.9267400000640009
 30
0.0
 11
13.312202305947675
 21
1.3482599999360367
 31
0.0
 71
               5
 72
               1
 41
1.0
 42
0.0
  3
IE Standard
100
AcDbAlignedDimension
 13
0.5273591404490503
 23
3.6232599999360744
 33
0.0
 14
0.5273591404490503
 24
-0.9267400000640009
 34
0.0
 50
90.0
100
AcDbRotatedDimension
1001
ACAD
1000
DSTYLE
1002
{
1070
             271
1070
               2
1070
             340
1005
38
1070
             140
1040
0.7579202490234376
1070
               3
1000
<>mm (x4)
1070
             147
1040
0.09921875
1002
}
  0
DIMENSION
  5
199
100
AcDbEntity
  8
Dimension
370
               5
390
0
  6
Continuous
 62
              12
100
AcDbDimension
  2
*D17
 10
-2.2926408595380252
 20
10.583260000000006
 30
0.0
 11
-0.2377976940523174
 21
10.583260000000006
 31
0.0
 70
             128
 71
               5
 72
               1
 41
1.0
 42
0.0
  3
IE Standard
100
AcDbAlignedDimension
 13
-1.6426408595380195
 23
4.4232600000364997
 33
0.0
 14
-2.2926408595380252
 24
4.4232600000364997
 34
0.0
100
AcDbRotatedDimension
1001
ACAD
1000
DSTYLE
1002
{
1070
             271
1070
               2
1070
             340
1005
38
1070
             140
1040
0.7579202490234376
1070
               3
1000
<>mm typ
1070
             174
1070
               0
1070
             147
1040
0.09921875
1002
}
  0
SOLID
  5
19A
100
AcDbEntity
  8
None
370
               9
390
0
  6
Continuous
 62
               7
100
AcDbTrace
 10
-0.4676408595509258
 20
-0.8017399999999952
 30
0.0
 11
-4.767640859550923
 21
-0.8017399999999952
 31
0.0
 12
-0.4676408595509258
 22
3.4982600000000161
 32
0.0
 13
-4.767640859550923
 23
3.4982600000000161
 33
0.0
  0
INSERT
  5
19B
100
AcDbEntity
  8
None
390
0
 62
               7
100
AcDbBlockReference
  2
Group
 10
0.0
 20
0.0
 30
0.0
  0
INSERT
  5
19C
100
AcDbEntity
  8
None
390
0
 62
               7
100
AcDbBlockReference
  2
Group-1
 10
0.0
 20
0.0
 30
0.0
  0
INSERT
  5
19D
100
AcDbEntity
  8
None
390
0
 62
               7
100
AcDbBlockReference
  2
Group-2
 10
0.0
 20
0.0
 30
0.0
  0
INSERT
  5
19E
100
AcDbEntity
  8
None
390
0
 62
               7
100
AcDbBlockReference
  2
Group-3
 10
0.0
 20
0.0
 30
0.0
  0
LINE
  5
19F
100
AcDbEntity
  8
None
370
               9
390
0
  6
Continuous
 62
              12
100
AcDbLine
 10
14.114698947699111
 20
-6.9848563678800701
 30
0.0
 11
-1.1853010523009146
 21
-0.4476863678800669
 31
0.0
  0
SOLID
  5
1A0
100
AcDbEntity
  8
None
370
               9
390
0
 62
              12
100
AcDbTrace
 10
-1.1853010523009146
 20
-0.4476863678800669
 30
0.0
 11
-0.3736676959806821
 21
-0.5762364627695721
 31
0.0
 12
-0.5466809946135187
 22
-0.964830693873395
 32
0.0
 13
-0.5466809946135187
 23
-0.964830693873395
 33
0.0
  0
DIMENSION
  5
1A1
100
AcDbEntity
  8
Dimension
370
               5
390
0
  6
Continuous
 62
               7
100
AcDbDimension
  2
*D22
 10
-5.0676408595380451
 20
-7.1167399999999654
 30
0.0
 11
-2.6176408595380067
 21
-7.1167399999999654
 31
0.0
 71
               5
 72
               1
 41
1.0
 42
0.0
  3
IE Standard
100
AcDbAlignedDimension
 13
-0.1676408595379684
 23
-1.7967400000364648
 33
0.0
 14
-5.0676408595380451
 24
-1.7967400000364648
 34
0.0
100
AcDbRotatedDimension
1001
ACAD
1000
DSTYLE
1002
{
1070
             271
1070
               3
1070
             340
1005
38
1070
             140
1040
0.7579202490234376
1070
             147
1040
0.09921875
1002
}
  0
WIPEOUT
  5
1A2
100
AcDbEntity
  8
None
370
               5
390
0
  6
Continuous
 62
               7
 92
        0
100
AcDbWipeout
 90
        0
 10
-4.9337194481112334
 20
-21.776141022749925
 30
0.0
 11
4.844790770789146
 21
0.0
 31
0.0
 12
0.0
 22
4.844790770789146
 32
0.0
 13
1.0
 23
1.0
340
0
 70
               7
280
               1
281
              50
282
              50
283
               0
360
0
 71
               2
 91
        5
 14
-0.5
 24
0.5000000000000014
 14
0.5000000000000002
 24
0.5000000000000014
 14
0.5000000000000002
 24
0.2208738077702946
 14
-0.5
 24
0.2208738077702946
 14
-0.5
 24
0.5000000000000014
  0
MTEXT
  5
1A3
100
AcDbEntity
  8
None
390
0
 62
               7
100
AcDbMText
 10
-4.9337194481112334
 20
-20.640030814416598
 30
0.0
 40
0.8421302083333332
 41
0.0
 71
               1
 72
               1
  1
MLF 32D
  7
Arial
 73
               1
 44
0.9673603504928806
  0
ENDSEC
  0
SECTION
  2
OBJECTS
  0
DICTIONARY
  5
19
100
AcDbDictionary
280
               0
281
               1
  3
ACAD_GROUP
350
1A
  3
ACAD_MLINESTYLE
350
1B
  3
ACAD_LAYOUT
350
1E
  3
ACAD_PLOTSETTINGS
350
22
  3
ACAD_PLOTSTYLENAME
350
1F
  3
ACAD_WIPEOUT_VARS
350
23
  0
DICTIONARY
  5
1A
102
{ACAD_REACTORS
330
19
102
}
100
AcDbDictionary
280
               0
281
               1
  0
DICTIONARY
  5
1B
102
{ACAD_REACTORS
330
19
102
}
100
AcDbDictionary
280
               0
281
               1
  3
Standard
350
1C
  0
MLINESTYLE
  5
1C
102
{ACAD_REACTORS
330
1B
102
}
100
AcDbMlineStyle
  2
Standard
 70
               0
  3

 62
               0
 51
90.0
 52
90.0
 71
               2
 49
0.5
 62
             256
  6
ByLayer
 49
-0.5
 62
             256
  6
ByLayer
  0
ACDBDICTIONARYWDFLT
  5
1F
102
{ACAD_REACTORS
330
19
102
}
100
AcDbDictionary
281
               1
  3
Normal
350
1D
100
AcDbDictionaryWithDefault
340
1D
  0
ACDBPLACEHOLDER
  5
1D
102
{ACAD_REACTORS
330
1F
102
}
  0
LAYOUT
  5
20
102
{ACAD_REACTORS
330
1E
102
}
100
AcDbPlotSettings
  1

  2

  4

  6

 40
0.0
 41
0.0
 42
0.0
 43
0.0
 44
0.0
 45
0.0
 46
0.0
 47
0.0
 48
0.0
 49
0.0
140
0.0
141
0.0
142
1.0
143
1.0
 70
            1024
 72
               0
 73
               0
 74
               0
  7

 75
               0
147
1.0
148
0.0
149
0.0
100
AcDbLayout
  1
Model
 70
               0
 71
               0
 10
0.0
 20
0.0
 11
0.0
 21
0.0
 12
0.0
 22
0.0
 32
0.0
 14
0.0
 24
0.0
 34
0.0
 15
0.0
 25
0.0
 35
0.0
146
0.0
 13
0.0
 23
0.0
 33
0.0
 16
0.0
 26
0.0
 36
0.0
 17
0.0
 27
0.0
 37
0.0
 76
               0
330
A
331
0
345
0
346
0
  0
LAYOUT
  5
21
102
{ACAD_REACTORS
330
1E
102
}
100
AcDbPlotSettings
  1

  2

  4

  6

 40
0.0
 41
0.0
 42
0.0
 43
0.0
 44
0.0
 45
0.0
 46
0.0
 47
0.0
 48
0.0
 49
0.0
140
0.0
141
0.0
142
1.0
143
1.0
 70
               0
 72
               0
 73
               0
 74
               0
  7

 75
               0
147
1.0
148
0.0
149
0.0
100
AcDbLayout
  1
Layout1
 70
               0
 71
               0
 10
0.0
 20
0.0
 11
0.0
 21
0.0
 12
0.0
 22
0.0
 32
0.0
 14
0.0
 24
0.0
 34
0.0
 15
0.0
 25
0.0
 35
0.0
146
0.0
 13
0.0
 23
0.0
 33
0.0
 16
0.0
 26
0.0
 36
0.0
 17
0.0
 27
0.0
 37
0.0
 76
               0
330
B
331
0
345
0
346
0
  0
DICTIONARY
  5
1E
102
{ACAD_REACTORS
330
19
102
}
100
AcDbDictionary
280
               0
281
               1
  3
Layout1
350
21
  3
Model
350
20
  0
DICTIONARY
  5
22
102
{ACAD_REACTORS
330
19
102
}
100
AcDbDictionary
280
               0
281
               1
  0
WIPEOUTVARIABLES
  5
23
100
AcDbWipeoutVariables
 70
               0
  0
ENDSEC
  0
EOF
