  0
SECTION
  2
HEADER
  9
$ACADVER
  1
AC1015
  9
$ACADMAINTVER
 70
     6
  9
$DWGCODEPAGE
  3
ANSI_1252
  9
$INSBASE
 10
0.0
 20
0.0
 30
0.0
  9
$EXTMIN
 10
-27.01706865462811
 20
-19.39653501992383
 30
0.0
  9
$EXTMAX
 10
30.92228694450527
 20
22.45716161979166
 30
0.0
  9
$LIMMIN
 10
0.0
 20
0.0
  9
$LIMMAX
 10
0.0
 20
0.0
  9
$ORTHOMODE
 70
     0
  9
$REGENMODE
 70
     1
  9
$FILLMODE
 70
     1
  9
$QTEXTMODE
 70
     0
  9
$MIRRTEXT
 70
     1
  9
$LTSCALE
 40
1.27
  9
$ATTMODE
 70
     1
  9
$TEXTSIZE
 40
0.2
  9
$TRACEWID
 40
1.0
  9
$TEXTSTYLE
  7
Standard
  9
$CLAYER
  8
None
  9
$CELTYPE
  6
Continuous
  9
$CECOLOR
 62
   256
  9
$CELTSCALE
 40
1.0
  9
$DISPSILH
 70
     0
  9
$DIMSCALE
 40
1.0
  9
$DIMASZ
 40
0.5612060546875
  9
$DIMEXO
 40
0.396875
  9
$DIMDLI
 40
10.16
  9
$DIMRND
 40
0.0
  9
$DIMDLE
 40
1.5875
  9
$DIMEXE
 40
0.79375
  9
$DIMTP
 40
0.0
  9
$DIMTM
 40
0.0
  9
$DIMTXT
 40
0.7579186197916666
  9
$DIMCEN
 40
0.0
  9
$DIMTSZ
 40
0.0
  9
$DIMTOL
 70
     0
  9
$DIMLIM
 70
     0
  9
$DIMTIH
 70
     0
  9
$DIMTOH
 70
     0
  9
$DIMSE1
 70
     0
  9
$DIMSE2
 70
     0
  9
$DIMTAD
 70
     1
  9
$DIMZIN
 70
    11
  9
$DIMBLK
  1

  9
$DIMASO
 70
     1
  9
$DIMSHO
 70
     1
  9
$DIMPOST
  1
<>mm
  9
$DIMAPOST
  1
[]
  9
$DIMALT
 70
     0
  9
$DIMALTD
 70
     1
  9
$DIMALTF
 40
1.0
  9
$DIMLFAC
 40
1.0
  9
$DIMTOFL
 70
     1
  9
$DIMTVP
 40
0.0
  9
$DIMTIX
 70
     1
  9
$DIMSOXD
 70
     0
  9
$DIMSAH
 70
     0
  9
$DIMBLK1
  1

  9
$DIMBLK2
  1

  9
$DIMSTYLE
  2
Arch
  9
$DIMCLRD
 70
     0
  9
$DIMCLRE
 70
     0
  9
$DIMCLRT
 70
     0
  9
$DIMTFAC
 40
1.0
  9
$DIMGAP
 40
1.5875
  9
$DIMJUST
 70
     0
  9
$DIMSD1
 70
     0
  9
$DIMSD2
 70
     0
  9
$DIMTOLJ
 70
     1
  9
$DIMTZIN
 70
    11
  9
$DIMALTZ
 70
    11
  9
$DIMALTTZ
 70
    11
  9
$DIMUPT
 70
     0
  9
$DIMDEC
 70
     1
  9
$DIMTDEC
 70
     1
  9
$DIMALTU
 70
     2
  9
$DIMALTTD
 70
     2
  9
$DIMTXSTY
  7
Arial
  9
$DIMAUNIT
 70
     0
  9
$DIMADEC
 70
     2
  9
$DIMALTRND
 40
0.0
  9
$DIMAZIN
 70
     0
  9
$DIMDSEP
 70
    46
  9
$DIMATFIT
 70
     3
  9
$DIMFRAC
 70
     2
  9
$DIMLDRBLK
  1

  9
$DIMLUNIT
 70
     2
  9
$DIMLWD
 70
    -2
  9
$DIMLWE
 70
    -2
  9
$DIMTMOVE
 70
     0
  9
$LUNITS
 70
     2
  9
$LUPREC
 70
     4
  9
$SKETCHINC
 40
0.1
  9
$FILLETRAD
 40
0.0
  9
$AUNITS
 70
     0
  9
$AUPREC
 70
     0
  9
$MENU
  1
.
  9
$ELEVATION
 40
0.0
  9
$PELEVATION
 40
0.0
  9
$THICKNESS
 40
0.0
  9
$LIMCHECK
 70
     0
  9
$CHAMFERA
 40
0.0
  9
$CHAMFERB
 40
0.0
  9
$CHAMFERC
 40
0.0
  9
$CHAMFERD
 40
0.0
  9
$SKPOLY
 70
     0
  9
$TDCREATE
 40
2453353.508792488
  9
$TDUCREATE
 40
2453353.717125822
  9
$TDUPDATE
 40
2447892.834039364
  9
$TDUUPDATE
 40
2447893.042372697
  9
$TDINDWG
 40
0.0966203819
  9
$TDUSRTIMER
 40
0.0966203819
  9
$USRTIMER
 70
     1
  9
$ANGBASE
 50
0.0
  9
$ANGDIR
 70
     0
  9
$PDMODE
 70
     1
  9
$PDSIZE
 40
-2.0
  9
$PLINEWID
 40
0.0
  9
$SPLFRAME
 70
     0
  9
$SPLINETYPE
 70
     6
  9
$SPLINESEGS
 70
     8
  9
$HANDSEED
  5
234
  9
$SURFTAB1
 70
     6
  9
$SURFTAB2
 70
     6
  9
$SURFTYPE
 70
     6
  9
$SURFU
 70
     6
  9
$SURFV
 70
     6
  9
$UCSBASE
  2

  9
$UCSNAME
  2

  9
$UCSORG
 10
0.0
 20
0.0
 30
0.0
  9
$UCSXDIR
 10
1.0
 20
0.0
 30
0.0
  9
$UCSYDIR
 10
0.0
 20
1.0
 30
0.0
  9
$UCSORTHOREF
  2

  9
$UCSORTHOVIEW
 70
     0
  9
$UCSORGTOP
 10
0.0
 20
0.0
 30
0.0
  9
$UCSORGBOTTOM
 10
0.0
 20
0.0
 30
0.0
  9
$UCSORGLEFT
 10
0.0
 20
0.0
 30
0.0
  9
$UCSORGRIGHT
 10
0.0
 20
0.0
 30
0.0
  9
$UCSORGFRONT
 10
0.0
 20
0.0
 30
0.0
  9
$UCSORGBACK
 10
0.0
 20
0.0
 30
0.0
  9
$PUCSBASE
  2

  9
$PUCSNAME
  2

  9
$PUCSORG
 10
0.0
 20
0.0
 30
0.0
  9
$PUCSXDIR
 10
1.0
 20
0.0
 30
0.0
  9
$PUCSYDIR
 10
0.0
 20
1.0
 30
0.0
  9
$PUCSORTHOREF
  2

  9
$PUCSORTHOVIEW
 70
     0
  9
$PUCSORGTOP
 10
0.0
 20
0.0
 30
0.0
  9
$PUCSORGBOTTOM
 10
0.0
 20
0.0
 30
0.0
  9
$PUCSORGLEFT
 10
0.0
 20
0.0
 30
0.0
  9
$PUCSORGRIGHT
 10
0.0
 20
0.0
 30
0.0
  9
$PUCSORGFRONT
 10
0.0
 20
0.0
 30
0.0
  9
$PUCSORGBACK
 10
0.0
 20
0.0
 30
0.0
  9
$USERI1
 70
     0
  9
$USERI2
 70
     0
  9
$USERI3
 70
     0
  9
$USERI4
 70
     0
  9
$USERI5
 70
     0
  9
$USERR1
 40
0.0
  9
$USERR2
 40
0.0
  9
$USERR3
 40
0.0
  9
$USERR4
 40
0.0
  9
$USERR5
 40
0.0
  9
$WORLDVIEW
 70
     1
  9
$SHADEDGE
 70
     3
  9
$SHADEDIF
 70
    70
  9
$TILEMODE
 70
     1
  9
$MAXACTVP
 70
    64
  9
$PINSBASE
 10
0.0
 20
0.0
 30
0.0
  9
$PLIMCHECK
 70
     0
  9
$PEXTMIN
 10
0.0
 20
0.0
 30
0.0
  9
$PEXTMAX
 10
0.0
 20
0.0
 30
0.0
  9
$PLIMMIN
 10
0.0
 20
0.0
  9
$PLIMMAX
 10
0.0
 20
0.0
  9
$UNITMODE
 70
     0
  9
$VISRETAIN
 70
     0
  9
$PLINEGEN
 70
     1
  9
$PSLTSCALE
 70
     0
  9
$TREEDEPTH
 70
  3020
  9
$CMLSTYLE
  2
Standard
  9
$CMLJUST
 70
     0
  9
$CMLSCALE
 40
1.0
  9
$PROXYGRAPHICS
 70
     0
  9
$MEASUREMENT
 70
     1
  9
$CELWEIGHT
370
     0
  9
$ENDCAPS
280
     0
  9
$JOINSTYLE
280
     0
  9
$LWDISPLAY
290
     1
  9
$INSUNITS
 70
     4
  9
$HYPERLINKBASE
  1

  9
$STYLESHEET
  1

  9
$XEDIT
290
     0
  9
$CEPSNTYPE
380
     0
  9
$PSTYLEMODE
290
     1
  9
$FINGERPRINTGUID
  2

  9
$VERSIONGUID
  2

  9
$EXTNAMES
290
     1
  9
$PSVPSCALE
 40
0.0
  9
$OLESTARTUP
290
     0
  0
ENDSEC
  0
SECTION
  2
CLASSES
  0
CLASS
  1
ACDBDICTIONARYWDFLT
  2
AcDbDictionaryWithDefault
  3
ObjectDBX Classes
 90
        0
280
     0
281
     0
  0
CLASS
  1
ACDBPLACEHOLDER
  2
AcDbPlaceHolder
  3
ObjectDBX Classes
 90
        0
280
     0
281
     0
  0
CLASS
  1
LAYOUT
  2
AcDbLayout
  3
ObjectDBX Classes
 90
        0
280
     0
281
     0
  0
CLASS
  1
DICTIONARYVAR
  2
AcDbDictionaryVar
  3
ObjectDBX Classes
 90
        0
280
     0
281
     0
  0
CLASS
  1
TABLESTYLE
  2
AcDbTableStyle
  3
ObjectDBX Classes
 90
     4095
280
     0
281
     0
  0
CLASS
  1
SCALE
  2
AcDbScale
  3
ObjectDBX Classes
 90
     1153
280
     0
281
     0
  0
CLASS
  1
WIPEOUTVARIABLES
  2
AcDbWipeoutVariables
  3
WipeOut|AutoCAD Express Tool|expresstools@autodesk.com
 90
        0
280
     0
281
     0
  0
ENDSEC
  0
SECTION
  2
TABLES
  0
TABLE
  2
VPORT
  5
8
330
0
100
AcDbSymbolTable
 70
     2
  0
VPORT
  5
97
330
8
100
AcDbSymbolTableRecord
100
AcDbViewportTableRecord
  2
*ACTIVE
 70
     0
 10
0.0
 20
0.0
 11
1.0
 21
1.0
 12
-7.86905124923182
 22
-1.694215425398399
 13
0.0
 23
0.0
 14
1.0
 24
1.0
 15
0.0
 25
0.0
 16
0.0
 26
0.0
 36
1.0
 17
0.0
 27
0.0
 37
0.0
 40
57.03714149547496
 41
0.6885640000000001
 42
50.0
 43
0.0
 44
0.0
 50
0.0
 51
0.0
 71
    16
 72
  2000
 73
     1
 74
     1
 75
     0
 76
     0
 77
     0
 78
     0
281
     0
 65
     0
110
0.0
120
0.0
130
0.0
111
1.0
121
0.0
131
0.0
112
0.0
122
1.0
132
0.0
 79
     0
146
0.0
  0
ENDTAB
  0
TABLE
  2
LTYPE
  5
5
330
0
100
AcDbSymbolTable
 70
    14
  0
LTYPE
  5
14
330
5
100
AcDbSymbolTableRecord
100
AcDbLinetypeTableRecord
  2
ByBlock
 70
     0
  3

 72
    65
 73
     0
 40
0.0
  0
LTYPE
  5
15
330
5
100
AcDbSymbolTableRecord
100
AcDbLinetypeTableRecord
  2
ByLayer
 70
     0
  3

 72
    65
 73
     0
 40
0.0
  0
LTYPE
  5
16
330
5
100
AcDbSymbolTableRecord
100
AcDbLinetypeTableRecord
  2
Continuous
 70
     0
  3
Solid line
 72
    65
 73
     0
 40
0.0
  0
LTYPE
  5
1CD
330
5
100
AcDbSymbolTableRecord
100
AcDbLinetypeTableRecord
  2
STYLE_01
 70
     0
  3

 72
    65
 73
     2
 40
0.41664
 49
0.20828
 74
     4
 75
     0
340
0
 46
1.0
 50
0.0
 44
0.0
 45
0.0
 49
-0.20836
 74
     4
 75
     0
340
0
 46
1.0
 50
0.0
 44
0.0
 45
0.0
  0
LTYPE
  5
1CE
330
5
100
AcDbSymbolTableRecord
100
AcDbLinetypeTableRecord
  2
STYLE_02
 70
     0
  3

 72
    65
 73
     2
 40
0.6944250000000001
 49
0.48607
 74
     4
 75
     0
340
0
 46
1.0
 50
0.0
 44
0.0
 45
0.0
 49
-0.2083550000000001
 74
     4
 75
     0
340
0
 46
1.0
 50
0.0
 44
0.0
 45
0.0
  0
LTYPE
  5
1CF
330
5
100
AcDbSymbolTableRecord
100
AcDbLinetypeTableRecord
  2
STYLE_03
 70
     0
  3

 72
    65
 73
     2
 40
1.25
 49
1.04164
 74
     4
 75
     0
340
0
 46
1.0
 50
0.0
 44
0.0
 45
0.0
 49
-0.2083599999999999
 74
     4
 75
     0
340
0
 46
1.0
 50
0.0
 44
0.0
 45
0.0
  0
LTYPE
  5
1D0
330
5
100
AcDbSymbolTableRecord
100
AcDbLinetypeTableRecord
  2
STYLE_04
 70
     0
  3

 72
    65
 73
     2
 40
1.52771
 49
1.319425
 74
     4
 75
     0
340
0
 46
1.0
 50
0.0
 44
0.0
 45
0.0
 49
-0.208285
 74
     4
 75
     0
340
0
 46
1.0
 50
0.0
 44
0.0
 45
0.0
  0
LTYPE
  5
1D1
330
5
100
AcDbSymbolTableRecord
100
AcDbLinetypeTableRecord
  2
STYLE_05
 70
     0
  3

 72
    65
 73
     2
 40
0.20828
 49
0.069425
 74
     4
 75
     0
340
0
 46
1.0
 50
0.0
 44
0.0
 45
0.0
 49
-0.138855
 74
     4
 75
     0
340
0
 46
1.0
 50
0.0
 44
0.0
 45
0.0
  0
LTYPE
  5
1D2
330
5
100
AcDbSymbolTableRecord
100
AcDbLinetypeTableRecord
  2
STYLE_06
 70
     0
  3

 72
    65
 73
     4
 40
1.04164
 49
0.625
 74
     4
 75
     0
340
0
 46
1.0
 50
0.0
 44
0.0
 45
0.0
 49
-0.20828
 74
     4
 75
     0
340
0
 46
1.0
 50
0.0
 44
0.0
 45
0.0
 49
0.06943
 74
     4
 75
     0
340
0
 46
1.0
 50
0.0
 44
0.0
 45
0.0
 49
-0.13893
 74
     4
 75
     0
340
0
 46
1.0
 50
0.0
 44
0.0
 45
0.0
  0
LTYPE
  5
1D3
330
5
100
AcDbSymbolTableRecord
100
AcDbLinetypeTableRecord
  2
STYLE_07
 70
     0
  3

 72
    65
 73
     6
 40
1.875
 49
0.625
 74
     4
 75
     0
340
0
 46
1.0
 50
0.0
 44
0.0
 45
0.0
 49
-0.20828
 74
     4
 75
     0
340
0
 46
1.0
 50
0.0
 44
0.0
 45
0.0
 49
0.6250000000000001
 74
     4
 75
     0
340
0
 46
1.0
 50
0.0
 44
0.0
 45
0.0
 49
-0.2083599999999999
 74
     4
 75
     0
340
0
 46
1.0
 50
0.0
 44
0.0
 45
0.0
 49
0.06943
 74
     4
 75
     0
340
0
 46
1.0
 50
0.0
 44
0.0
 45
0.0
 49
-0.1389299999999999
 74
     4
 75
     0
340
0
 46
1.0
 50
0.0
 44
0.0
 45
0.0
  0
LTYPE
  5
1D4
330
5
100
AcDbSymbolTableRecord
100
AcDbLinetypeTableRecord
  2
STYLE_08
 70
     0
  3

 72
    65
 73
     6
 40
1.25
 49
0.625
 74
     4
 75
     0
340
0
 46
1.0
 50
0.0
 44
0.0
 45
0.0
 49
-0.20828
 74
     4
 75
     0
340
0
 46
1.0
 50
0.0
 44
0.0
 45
0.0
 49
0.06943
 74
     4
 75
     0
340
0
 46
1.0
 50
0.0
 44
0.0
 45
0.0
 49
-0.13893
 74
     4
 75
     0
340
0
 46
1.0
 50
0.0
 44
0.0
 45
0.0
 49
0.0694299999999999
 74
     4
 75
     0
340
0
 46
1.0
 50
0.0
 44
0.0
 45
0.0
 49
-0.13893
 74
     4
 75
     0
340
0
 46
1.0
 50
0.0
 44
0.0
 45
0.0
  0
LTYPE
  5
1D5
330
5
100
AcDbSymbolTableRecord
100
AcDbLinetypeTableRecord
  2
STYLE_09
 70
     0
  3

 72
    65
 73
     4
 40
5.0
 49
3.75
 74
     4
 75
     0
340
0
 46
1.0
 50
0.0
 44
0.0
 45
0.0
 49
-0.2777849999999998
 74
     4
 75
     0
340
0
 46
1.0
 50
0.0
 44
0.0
 45
0.0
 49
0.6944300000000003
 74
     4
 75
     0
340
0
 46
1.0
 50
0.0
 44
0.0
 45
0.0
 49
-0.2777849999999998
 74
     4
 75
     0
340
0
 46
1.0
 50
0.0
 44
0.0
 45
0.0
  0
LTYPE
  5
1D6
330
5
100
AcDbSymbolTableRecord
100
AcDbLinetypeTableRecord
  2
STYLE_10
 70
     0
  3

 72
    65
 73
     6
 40
5.9375
 49
3.75
 74
     4
 75
     0
340
0
 46
1.0
 50
0.0
 44
0.0
 45
0.0
 49
-0.2777849999999998
 74
     4
 75
     0
340
0
 46
1.0
 50
0.0
 44
0.0
 45
0.0
 49
0.6944300000000003
 74
     4
 75
     0
340
0
 46
1.0
 50
0.0
 44
0.0
 45
0.0
 49
-0.2777849999999998
 74
     4
 75
     0
340
0
 46
1.0
 50
0.0
 44
0.0
 45
0.0
 49
0.625
 74
     4
 75
     0
340
0
 46
1.0
 50
0.0
 44
0.0
 45
0.0
 49
-0.3125
 74
     4
 75
     0
340
0
 46
1.0
 50
0.0
 44
0.0
 45
0.0
  0
LTYPE
  5
1D7
330
5
100
AcDbSymbolTableRecord
100
AcDbLinetypeTableRecord
  2
STYLE_11
 70
     0
  3

 72
    65
 73
     2
 40
0.4166412353515625
 49
0.2777862548828125
 74
     4
 75
     0
340
0
 46
1.0
 50
0.0
 44
0.0
 45
0.0
 49
-0.13885498046875
 74
     4
 75
     0
340
0
 46
1.0
 50
0.0
 44
0.0
 45
0.0
  0
LTYPE
  5
1D8
330
5
100
AcDbSymbolTableRecord
100
AcDbLinetypeTableRecord
  2
STYLE_12
 70
     0
  3

 72
    65
 73
     4
 40
2.152786254882812
 49
1.180572509765625
 74
     4
 75
     0
340
0
 46
1.0
 50
0.0
 44
0.0
 45
0.0
 49
-0.4166412353515625
 74
     4
 75
     0
340
0
 46
1.0
 50
0.0
 44
0.0
 45
0.0
 49
0.069427490234375
 74
     4
 75
     0
340
0
 46
1.0
 50
0.0
 44
0.0
 45
0.0
 49
-0.48614501953125
 74
     4
 75
     0
340
0
 46
1.0
 50
0.0
 44
0.0
 45
0.0
  0
LTYPE
  5
1D9
330
5
100
AcDbSymbolTableRecord
100
AcDbLinetypeTableRecord
  2
STYLE_13
 70
     0
  3

 72
    65
 73
     2
 40
1.875
 49
1.25
 74
     4
 75
     0
340
0
 46
1.0
 50
0.0
 44
0.0
 45
0.0
 49
-0.625
 74
     4
 75
     0
340
0
 46
1.0
 50
0.0
 44
0.0
 45
0.0
  0
ENDTAB
  0
TABLE
  2
LAYER
  5
2
330
0
100
AcDbSymbolTable
 70
     5
  0
LAYER
  5
10
330
2
100
AcDbSymbolTableRecord
100
AcDbLayerTableRecord
  2
0
 70
     0
 62
     7
  6
Continuous
370
    -3
390
F
  0
LAYER
  5
46
330
2
100
AcDbSymbolTableRecord
100
AcDbLayerTableRecord
  2
Defpoints
 70
     0
 62
     7
  6
Continuous
290
     0
370
    -3
390
F
  0
LAYER
  5
47
330
2
100
AcDbSymbolTableRecord
100
AcDbLayerTableRecord
  2
None
 70
     0
 62
     7
  6
Continuous
370
     5
390
F
  0
LAYER
  5
48
330
2
100
AcDbSymbolTableRecord
100
AcDbLayerTableRecord
  2
Dimension
 70
     0
 62
     7
  6
Continuous
370
     5
390
F
  0
LAYER
  5
49
330
2
100
AcDbSymbolTableRecord
100
AcDbLayerTableRecord
  2
OUTLINE_PHO
 70
     0
 62
     4
  6
Continuous
370
    15
390
F
  0
ENDTAB
  0
TABLE
  2
STYLE
  5
3
330
0
100
AcDbSymbolTable
 70
     3
  0
STYLE
  5
11
330
3
100
AcDbSymbolTableRecord
100
AcDbTextStyleTableRecord
  2
Standard
 70
     0
 40
0.0
 41
1.0
 50
0.0
 71
     0
 42
0.2
  3
txt
  4

  0
STYLE
  5
37
330
3
100
AcDbSymbolTableRecord
100
AcDbTextStyleTableRecord
  2
Arial
 70
     0
 40
0.0
 41
1.0
 50
0.0
 71
     0
 42
0.2
  3
Arial
  4

1001
ACAD
1000
Arial
1071
        0
  0
STYLE
  5
38
330
3
100
AcDbSymbolTableRecord
100
AcDbTextStyleTableRecord
  2
New Century Schlbk
 70
     0
 40
0.0
 41
1.0
 50
0.0
 71
     0
 42
0.2
  3
New Century Schlbk
  4

1001
ACAD
1000
New Century Schlbk
1071
        0
  0
ENDTAB
  0
TABLE
  2
VIEW
  5
6
330
0
100
AcDbSymbolTable
 70
     0
  0
ENDTAB
  0
TABLE
  2
UCS
  5
7
330
0
100
AcDbSymbolTable
 70
     0
  0
ENDTAB
  0
TABLE
  2
APPID
  5
9
330
0
100
AcDbSymbolTable
 70
     1
  0
APPID
  5
12
330
9
100
AcDbSymbolTableRecord
100
AcDbRegAppTableRecord
  2
ACAD
 70
     0
  0
ENDTAB
  0
TABLE
  2
DIMSTYLE
  5
A
330
0
100
AcDbSymbolTable
 70
     4
100
AcDbDimStyleTable
  0
DIMSTYLE
105
27
330
A
100
AcDbSymbolTableRecord
100
AcDbDimStyleTableRecord
  2
Standard
 70
     0
340
11
  0
DIMSTYLE
105
52
102
{ACAD_REACTORS
330
182
330
183
330
184
330
185
330
186
330
187
330
188
330
18E
330
193
330
194
330
199
330
1A2
330
1A5
102
}
330
A
100
AcDbSymbolTableRecord
100
AcDbDimStyleTableRecord
  2
IE Standard
 70
     0
  3
<>mm
  4
[]
 41
0.79375
 42
0.4762500011827797
 43
6.999985993467271
 44
0.9525000023655593
 78
    11
140
0.7579186197916666
141
0.0
143
1.0
147
0.0
171
     1
172
     1
174
     1
179
     2
271
     1
272
     1
276
     2
284
    11
285
    11
286
    11
289
     0
340
37
  0
DIMSTYLE
105
58
330
A
100
AcDbSymbolTableRecord
100
AcDbDimStyleTableRecord
  2
Arch
 70
     0
  3
<>mm
  4
[]
 41
0.5612060546875
 42
0.396875
 43
10.16
 44
0.79375
 46
1.5875
 73
     0
 74
     0
 77
     1
 78
    11
140
0.7579186197916666
141
0.0
143
1.0
147
1.5875
171
     1
172
     1
174
     1
179
     2
271
     1
272
     1
276
     2
284
    11
285
    11
286
    11
289
     0
340
37
  0
DIMSTYLE
105
1DA
102
{ACAD_REACTORS
330
19A
330
1A1
102
}
330
A
100
AcDbSymbolTableRecord
100
AcDbDimStyleTableRecord
  2
ASME
 70
     0
  3
<>mm
  4
[]
 41
0.79375
 42
0.396875
 43
10.16
 44
0.79375
 78
    11
140
0.7579186197916666
141
0.0
143
1.0
147
0.0
171
     1
174
     1
179
     2
271
     1
272
     1
276
     2
284
    11
285
    11
286
    11
289
     0
340
37
  0
ENDTAB
  0
TABLE
  2
BLOCK_RECORD
  5
1
330
0
100
AcDbSymbolTable
 70
    22
  0
BLOCK_RECORD
  5
1F
102
{ACAD_XDICTIONARY
360
22D
102
}
330
1
100
AcDbSymbolTableRecord
100
AcDbBlockTableRecord
  2
*Model_Space
340
22
  0
BLOCK_RECORD
  5
73
330
1
100
AcDbSymbolTableRecord
100
AcDbBlockTableRecord
  2
*Paper_Space
340
74
  0
BLOCK_RECORD
  5
4A
330
1
100
AcDbSymbolTableRecord
100
AcDbBlockTableRecord
  2
VW_FILLEDARROW
340
0
  0
BLOCK_RECORD
  5
4E
330
1
100
AcDbSymbolTableRecord
100
AcDbBlockTableRecord
  2
VW_FILLEDARROW-1
340
0
  0
BLOCK_RECORD
  5
53
330
1
100
AcDbSymbolTableRecord
100
AcDbBlockTableRecord
  2
VW_SLASH
340
0
  0
BLOCK_RECORD
  5
24
330
1
100
AcDbSymbolTableRecord
100
AcDbBlockTableRecord
  2
Symbol-1
340
0
102
{BLKREFS
331
209
331
5F
331
60
331
61
331
62
331
63
331
64
331
65
331
66
331
67
331
68
331
69
331
20A
331
6D
331
6E
331
6F
331
70
331
71
331
72
331
20B
331
20C
331
20D
331
20E
331
77
331
78
331
79
331
7A
331
7B
331
7C
331
7D
331
7E
331
7F
331
80
331
81
331
82
331
83
331
84
331
85
331
86
331
87
331
88
331
89
331
8A
331
8B
331
8C
331
8D
331
8E
331
8F
102
}
  0
BLOCK_RECORD
  5
25
330
1
100
AcDbSymbolTableRecord
100
AcDbBlockTableRecord
  2
Group
340
0
102
{BLKREFS
331
90
102
}
  0
BLOCK_RECORD
  5
26
330
1
100
AcDbSymbolTableRecord
100
AcDbBlockTableRecord
  2
Group-1
340
0
102
{BLKREFS
331
20F
102
}
  0
BLOCK_RECORD
  5
1E8
330
1
100
AcDbSymbolTableRecord
100
AcDbBlockTableRecord
  2
Group-2
340
0
102
{BLKREFS
331
16A
102
}
  0
BLOCK_RECORD
  5
28
330
1
100
AcDbSymbolTableRecord
100
AcDbBlockTableRecord
  2
*D7
340
0
  0
BLOCK_RECORD
  5
29
330
1
100
AcDbSymbolTableRecord
100
AcDbBlockTableRecord
  2
*D8
340
0
  0
BLOCK_RECORD
  5
2A
330
1
100
AcDbSymbolTableRecord
100
AcDbBlockTableRecord
  2
*D9
340
0
  0
BLOCK_RECORD
  5
2B
330
1
100
AcDbSymbolTableRecord
100
AcDbBlockTableRecord
  2
*D10
340
0
  0
BLOCK_RECORD
  5
2C
330
1
100
AcDbSymbolTableRecord
100
AcDbBlockTableRecord
  2
*D11
340
0
  0
BLOCK_RECORD
  5
2D
330
1
100
AcDbSymbolTableRecord
100
AcDbBlockTableRecord
  2
*D12
340
0
  0
BLOCK_RECORD
  5
2E
330
1
100
AcDbSymbolTableRecord
100
AcDbBlockTableRecord
  2
*D13
340
0
  0
BLOCK_RECORD
  5
2F
330
1
100
AcDbSymbolTableRecord
100
AcDbBlockTableRecord
  2
*D14
340
0
  0
BLOCK_RECORD
  5
30
330
1
100
AcDbSymbolTableRecord
100
AcDbBlockTableRecord
  2
*D15
340
0
  0
BLOCK_RECORD
  5
31
330
1
100
AcDbSymbolTableRecord
100
AcDbBlockTableRecord
  2
*D16
340
0
  0
BLOCK_RECORD
  5
32
330
1
100
AcDbSymbolTableRecord
100
AcDbBlockTableRecord
  2
*D17
340
0
  0
BLOCK_RECORD
  5
33
330
1
100
AcDbSymbolTableRecord
100
AcDbBlockTableRecord
  2
*D18
340
0
  0
BLOCK_RECORD
  5
34
330
1
100
AcDbSymbolTableRecord
100
AcDbBlockTableRecord
  2
*D19
340
0
  0
BLOCK_RECORD
  5
35
330
1
100
AcDbSymbolTableRecord
100
AcDbBlockTableRecord
  2
*D20
340
0
  0
BLOCK_RECORD
  5
36
330
1
100
AcDbSymbolTableRecord
100
AcDbBlockTableRecord
  2
*D21
340
0
  0
ENDTAB
  0
ENDSEC
  0
SECTION
  2
BLOCKS
  0
BLOCK
  5
20
330
1F
100
AcDbEntity
  8
0
100
AcDbBlockBegin
  2
*Model_Space
 70
     0
 10
0.0
 20
0.0
 30
0.0
  3
*Model_Space
  1

  0
ENDBLK
  5
21
330
1F
100
AcDbEntity
  8
0
100
AcDbBlockEnd
  0
BLOCK
  5
75
330
73
100
AcDbEntity
 67
     1
  8
0
100
AcDbBlockBegin
  2
*Paper_Space
 70
     0
 10
0.0
 20
0.0
 30
0.0
  3
*Paper_Space
  1

  0
ENDBLK
  5
76
330
73
100
AcDbEntity
 67
     1
  8
0
100
AcDbBlockEnd
  0
BLOCK
  5
1DC
330
4A
100
AcDbEntity
  8
0
100
AcDbBlockBegin
  2
VW_FILLEDARROW
 70
     0
 10
0.0
 20
0.0
 30
0.0
  3
VW_FILLEDARROW
  1

  0
SOLID
  5
4C
330
4A
100
AcDbEntity
  8
0
 62
     0
370
    -2
100
AcDbTrace
 10
0.0
 20
0.0
 30
0.0
 11
-0.9999389648437499
 21
-0.2679328381102956
 31
0.0
 12
-0.9999389648437499
 22
0.2679328381102958
 32
0.0
 13
-0.9999389648437499
 23
0.2679328381102958
 33
0.0
  0
ENDBLK
  5
1DD
330
4A
100
AcDbEntity
  8
0
100
AcDbBlockEnd
  0
BLOCK
  5
1DE
330
4E
100
AcDbEntity
  8
0
100
AcDbBlockBegin
  2
VW_FILLEDARROW-1
 70
     0
 10
0.0
 20
0.0
 30
0.0
  3
VW_FILLEDARROW-1
  1

  0
SOLID
  5
50
330
4E
100
AcDbEntity
  8
0
 62
     0
370
    -2
100
AcDbTrace
 10
0.0
 20
0.0
 30
0.0
 11
-0.6662384033203125
 21
-0.1785180421362784
 31
0.0
 12
-0.6662384033203125
 22
0.1785180421362785
 32
0.0
 13
-0.6662384033203125
 23
0.1785180421362785
 33
0.0
  0
ENDBLK
  5
1DF
330
4E
100
AcDbEntity
  8
0
100
AcDbBlockEnd
  0
BLOCK
  5
1E0
330
53
100
AcDbEntity
  8
0
100
AcDbBlockBegin
  2
VW_SLASH
 70
     0
 10
0.0
 20
0.0
 30
0.0
  3
VW_SLASH
  1

  0
LINE
  5
55
330
53
100
AcDbEntity
  8
0
  6
ByBlock
 62
     0
370
    -2
100
AcDbLine
 10
0.0
 20
0.0
 30
0.0
 11
-1.0
 21
0.0
 31
0.0
  0
LINE
  5
56
330
53
100
AcDbEntity
  8
0
  6
ByBlock
 62
     0
370
    20
100
AcDbLine
 10
-0.5000145658230796
 20
-0.5000145658230795
 30
0.0
 11
0.5000145658230796
 21
0.5000145658230795
 31
0.0
  0
ENDBLK
  5
1E1
330
53
100
AcDbEntity
  8
0
100
AcDbBlockEnd
  0
BLOCK
  5
1E2
330
24
100
AcDbEntity
  8
None
100
AcDbBlockBegin
  2
Symbol-1
 70
     0
 10
0.0
 20
0.0
 30
0.0
  3
Symbol-1
  1

  0
SOLID
  5
5B
330
24
100
AcDbEntity
  8
None
  6
Continuous
 62
     7
370
     5
100
AcDbTrace
 10
-0.3
 20
-0.15
 30
0.0
 11
-0.3
 21
0.15
 31
0.0
 12
0.3
 22
-0.15
 32
0.0
 13
0.3
 23
0.15
 33
0.0
  0
ENDBLK
  5
1E3
330
24
100
AcDbEntity
  8
None
100
AcDbBlockEnd
  0
BLOCK
  5
1E4
330
25
100
AcDbEntity
  8
None
100
AcDbBlockBegin
  2
Group
 70
     0
 10
0.0
 20
0.0
 30
0.0
  3
Group
  1

  0
INSERT
  5
209
330
25
100
AcDbEntity
  8
None
 62
     7
100
AcDbBlockReference
  2
Symbol-1
 10
2.450000000000045
 20
8.799999999999997
 30
0.0
 50
90.0
  0
INSERT
  5
5F
330
25
100
AcDbEntity
  8
None
 62
     7
100
AcDbBlockReference
  2
Symbol-1
 10
2.05000000000004
 20
8.799999999999997
 30
0.0
 50
90.0
  0
INSERT
  5
60
330
25
100
AcDbEntity
  8
None
 62
     7
100
AcDbBlockReference
  2
Symbol-1
 10
1.650000000000034
 20
8.799999999999997
 30
0.0
 50
90.0
  0
INSERT
  5
61
330
25
100
AcDbEntity
  8
None
 62
     7
100
AcDbBlockReference
  2
Symbol-1
 10
1.250000000000057
 20
8.799999999999997
 30
0.0
 50
90.0
  0
INSERT
  5
62
330
25
100
AcDbEntity
  8
None
 62
     7
100
AcDbBlockReference
  2
Symbol-1
 10
0.8500000000000227
 20
8.799999999999997
 30
0.0
 50
90.0
  0
INSERT
  5
63
330
25
100
AcDbEntity
  8
None
 62
     7
100
AcDbBlockReference
  2
Symbol-1
 10
0.4500000000000455
 20
8.799999999999997
 30
0.0
 50
90.0
  0
INSERT
  5
64
330
25
100
AcDbEntity
  8
None
 62
     7
100
AcDbBlockReference
  2
Symbol-1
 10
0.0500000000000398
 20
8.799999999999997
 30
0.0
 50
90.0
  0
INSERT
  5
65
330
25
100
AcDbEntity
  8
None
 62
     7
100
AcDbBlockReference
  2
Symbol-1
 10
-0.3499999999999659
 20
8.799999999999997
 30
0.0
 50
90.0
  0
INSERT
  5
66
330
25
100
AcDbEntity
  8
None
 62
     7
100
AcDbBlockReference
  2
Symbol-1
 10
-0.7499999999999432
 20
8.799999999999997
 30
0.0
 50
90.0
  0
INSERT
  5
67
330
25
100
AcDbEntity
  8
None
 62
     7
100
AcDbBlockReference
  2
Symbol-1
 10
-1.149999999999977
 20
8.799999999999997
 30
0.0
 50
90.0
  0
INSERT
  5
68
330
25
100
AcDbEntity
  8
None
 62
     7
100
AcDbBlockReference
  2
Symbol-1
 10
-1.549999999999955
 20
8.799999999999997
 30
0.0
 50
90.0
  0
INSERT
  5
69
330
25
100
AcDbEntity
  8
None
 62
     7
100
AcDbBlockReference
  2
Symbol-1
 10
-1.94999999999996
 20
8.799999999999997
 30
0.0
 50
90.0
  0
ENDBLK
  5
1E5
330
25
100
AcDbEntity
  8
None
100
AcDbBlockEnd
  0
BLOCK
  5
1E6
330
26
100
AcDbEntity
  8
None
100
AcDbBlockBegin
  2
Group-1
 70
     0
 10
0.0
 20
0.0
 30
0.0
  3
Group-1
  1

  0
INSERT
  5
20A
330
26
100
AcDbEntity
  8
None
 62
     7
100
AcDbBlockReference
  2
Symbol-1
 10
3.050000000000011
 20
3.799999999999997
 30
0.0
  0
INSERT
  5
6D
330
26
100
AcDbEntity
  8
None
 62
     7
100
AcDbBlockReference
  2
Symbol-1
 10
3.050000000000011
 20
4.200000000000003
 30
0.0
  0
INSERT
  5
6E
330
26
100
AcDbEntity
  8
None
 62
     7
100
AcDbBlockReference
  2
Symbol-1
 10
3.050000000000011
 20
4.600000000000009
 30
0.0
  0
INSERT
  5
6F
330
26
100
AcDbEntity
  8
None
 62
     7
100
AcDbBlockReference
  2
Symbol-1
 10
3.050000000000011
 20
5.0
 30
0.0
  0
INSERT
  5
70
330
26
100
AcDbEntity
  8
None
 62
     7
100
AcDbBlockReference
  2
Symbol-1
 10
3.050000000000011
 20
5.400000000000006
 30
0.0
  0
INSERT
  5
71
330
26
100
AcDbEntity
  8
None
 62
     7
100
AcDbBlockReference
  2
Symbol-1
 10
3.050000000000011
 20
5.799999999999997
 30
0.0
  0
INSERT
  5
72
330
26
100
AcDbEntity
  8
None
 62
     7
100
AcDbBlockReference
  2
Symbol-1
 10
3.050000000000011
 20
6.200000000000003
 30
0.0
  0
INSERT
  5
20B
330
26
100
AcDbEntity
  8
None
 62
     7
100
AcDbBlockReference
  2
Symbol-1
 10
3.050000000000011
 20
6.599999999999994
 30
0.0
  0
INSERT
  5
20C
330
26
100
AcDbEntity
  8
None
 62
     7
100
AcDbBlockReference
  2
Symbol-1
 10
3.050000000000011
 20
7.0
 30
0.0
  0
INSERT
  5
20D
330
26
100
AcDbEntity
  8
None
 62
     7
100
AcDbBlockReference
  2
Symbol-1
 10
3.050000000000011
 20
7.400000000000006
 30
0.0
  0
INSERT
  5
20E
330
26
100
AcDbEntity
  8
None
 62
     7
100
AcDbBlockReference
  2
Symbol-1
 10
3.050000000000011
 20
7.799999999999997
 30
0.0
  0
INSERT
  5
77
330
26
100
AcDbEntity
  8
None
 62
     7
100
AcDbBlockReference
  2
Symbol-1
 10
3.050000000000011
 20
8.200000000000003
 30
0.0
  0
INSERT
  5
78
330
26
100
AcDbEntity
  8
None
 62
     7
100
AcDbBlockReference
  2
Symbol-1
 10
-2.549999999999955
 20
3.799999999999997
 30
0.0
  0
INSERT
  5
79
330
26
100
AcDbEntity
  8
None
 62
     7
100
AcDbBlockReference
  2
Symbol-1
 10
-2.549999999999955
 20
4.200000000000003
 30
0.0
  0
INSERT
  5
7A
330
26
100
AcDbEntity
  8
None
 62
     7
100
AcDbBlockReference
  2
Symbol-1
 10
-2.549999999999955
 20
4.599999999999994
 30
0.0
  0
INSERT
  5
7B
330
26
100
AcDbEntity
  8
None
 62
     7
100
AcDbBlockReference
  2
Symbol-1
 10
-2.549999999999955
 20
5.0
 30
0.0
  0
INSERT
  5
7C
330
26
100
AcDbEntity
  8
None
 62
     7
100
AcDbBlockReference
  2
Symbol-1
 10
-2.549999999999955
 20
5.400000000000006
 30
0.0
  0
INSERT
  5
7D
330
26
100
AcDbEntity
  8
None
 62
     7
100
AcDbBlockReference
  2
Symbol-1
 10
-2.549999999999955
 20
5.799999999999997
 30
0.0
  0
INSERT
  5
7E
330
26
100
AcDbEntity
  8
None
 62
     7
100
AcDbBlockReference
  2
Symbol-1
 10
-2.549999999999955
 20
6.199999999999989
 30
0.0
  0
INSERT
  5
7F
330
26
100
AcDbEntity
  8
None
 62
     7
100
AcDbBlockReference
  2
Symbol-1
 10
-2.549999999999955
 20
6.599999999999994
 30
0.0
  0
INSERT
  5
80
330
26
100
AcDbEntity
  8
None
 62
     7
100
AcDbBlockReference
  2
Symbol-1
 10
-2.549999999999955
 20
7.0
 30
0.0
  0
INSERT
  5
81
330
26
100
AcDbEntity
  8
None
 62
     7
100
AcDbBlockReference
  2
Symbol-1
 10
-2.549999999999955
 20
7.399999999999991
 30
0.0
  0
INSERT
  5
82
330
26
100
AcDbEntity
  8
None
 62
     7
100
AcDbBlockReference
  2
Symbol-1
 10
-2.549999999999955
 20
7.799999999999997
 30
0.0
  0
INSERT
  5
83
330
26
100
AcDbEntity
  8
None
 62
     7
100
AcDbBlockReference
  2
Symbol-1
 10
-2.549999999999955
 20
8.199999999999989
 30
0.0
  0
INSERT
  5
84
330
26
100
AcDbEntity
  8
None
 62
     7
100
AcDbBlockReference
  2
Symbol-1
 10
-1.949999999999989
 20
3.200000000000003
 30
0.0
 50
270.0
  0
INSERT
  5
85
330
26
100
AcDbEntity
  8
None
 62
     7
100
AcDbBlockReference
  2
Symbol-1
 10
-1.549999999999983
 20
3.200000000000003
 30
0.0
 50
270.0
  0
INSERT
  5
86
330
26
100
AcDbEntity
  8
None
 62
     7
100
AcDbBlockReference
  2
Symbol-1
 10
-1.149999999999977
 20
3.200000000000003
 30
0.0
 50
270.0
  0
INSERT
  5
87
330
26
100
AcDbEntity
  8
None
 62
     7
100
AcDbBlockReference
  2
Symbol-1
 10
-0.75
 20
3.200000000000003
 30
0.0
 50
270.0
  0
INSERT
  5
88
330
26
100
AcDbEntity
  8
None
 62
     7
100
AcDbBlockReference
  2
Symbol-1
 10
-0.3499999999999659
 20
3.200000000000003
 30
0.0
 50
270.0
  0
INSERT
  5
89
330
26
100
AcDbEntity
  8
None
 62
     7
100
AcDbBlockReference
  2
Symbol-1
 10
0.0500000000000114
 20
3.200000000000003
 30
0.0
 50
270.0
  0
INSERT
  5
8A
330
26
100
AcDbEntity
  8
None
 62
     7
100
AcDbBlockReference
  2
Symbol-1
 10
0.4500000000000171
 20
3.200000000000003
 30
0.0
 50
270.0
  0
INSERT
  5
8B
330
26
100
AcDbEntity
  8
None
 62
     7
100
AcDbBlockReference
  2
Symbol-1
 10
0.8500000000000227
 20
3.200000000000003
 30
0.0
 50
270.0
  0
INSERT
  5
8C
330
26
100
AcDbEntity
  8
None
 62
     7
100
AcDbBlockReference
  2
Symbol-1
 10
1.25
 20
3.200000000000003
 30
0.0
 50
270.0
  0
INSERT
  5
8D
330
26
100
AcDbEntity
  8
None
 62
     7
100
AcDbBlockReference
  2
Symbol-1
 10
1.650000000000034
 20
3.200000000000003
 30
0.0
 50
270.0
  0
INSERT
  5
8E
330
26
100
AcDbEntity
  8
None
 62
     7
100
AcDbBlockReference
  2
Symbol-1
 10
2.050000000000011
 20
3.200000000000003
 30
0.0
 50
270.0
  0
INSERT
  5
8F
330
26
100
AcDbEntity
  8
None
 62
     7
100
AcDbBlockReference
  2
Symbol-1
 10
2.450000000000017
 20
3.200000000000003
 30
0.0
 50
270.0
  0
INSERT
  5
90
330
26
100
AcDbEntity
  8
None
 62
     7
100
AcDbBlockReference
  2
Group
 10
0.0
 20
0.0
 30
0.0
  0
ENDBLK
  5
1E7
330
26
100
AcDbEntity
  8
None
100
AcDbBlockEnd
  0
BLOCK
  5
1E9
330
1E8
100
AcDbEntity
  8
None
100
AcDbBlockBegin
  2
Group-2
 70
     0
 10
0.0
 20
0.0
 30
0.0
  3
Group-2
  1

  0
INSERT
  5
20F
330
1E8
100
AcDbEntity
  8
None
 62
     7
100
AcDbBlockReference
  2
Group-1
 10
0.0
 20
0.0
 30
0.0
  0
SOLID
  5
94
330
1E8
100
AcDbEntity
  8
None
  6
Continuous
 62
     7
370
     5
100
AcDbTrace
 10
-1.799999999999983
 20
3.950000000000003
 30
0.0
 11
-1.799999999999983
 21
8.049999999999997
 31
0.0
 12
2.300000000000011
 22
3.950000000000003
 32
0.0
 13
2.300000000000011
 23
8.049999999999997
 33
0.0
  0
ENDBLK
  5
1EA
330
1E8
100
AcDbEntity
  8
None
100
AcDbBlockEnd
  0
BLOCK
  5
1EB
330
28
100
AcDbEntity
  8
Dimension
100
AcDbBlockBegin
  2
*D7
 70
     1
 10
0.0
 20
0.0
 30
0.0
  3
*D7
  1

  0
LINE
  5
210
330
28
100
AcDbEntity
  8
Dimension
  6
Continuous
 62
     0
370
    -2
100
AcDbLine
 10
-6.112499999999983
 20
-0.5887500011827882
 30
0.0
 11
-6.112499999999983
 21
-10.31750000236556
 31
0.0
  0
LINE
  5
211
330
28
100
AcDbEntity
  8
Dimension
  6
Continuous
 62
     0
370
    -2
100
AcDbLine
 10
6.112499999999983
 20
-0.5887500011827882
 30
0.0
 11
6.112499999999983
 21
-10.31750000236555
 31
0.0
  0
LINE
  5
212
330
28
100
AcDbEntity
  8
Dimension
  6
Continuous
 62
     0
370
    -2
100
AcDbLine
 10
6.112499999999983
 20
-9.364999999999995
 30
0.0
 11
-6.112499999999983
 21
-9.364999999999995
 31
0.0
  0
LINE
  5
213
330
28
100
AcDbEntity
  8
Dimension
  6
Continuous
 62
     0
370
    -2
100
AcDbLine
 10
-6.112499999999983
 20
-9.364999999999995
 30
0.0
 11
-7.862496498366795
 21
-9.364999999999995
 31
0.0
  0
SOLID
  5
214
330
28
100
AcDbEntity
  8
Dimension
 62
     0
370
    -2
100
AcDbTrace
 10
-6.112499999999983
 20
-9.364999999999995
 30
0.0
 11
-6.906249999999983
 21
-9.577684671492198
 31
0.0
 12
-6.906249999999983
 22
-9.152315328507791
 32
0.0
 13
-6.906249999999983
 23
-9.152315328507791
 33
0.0
  0
LINE
  5
215
330
28
100
AcDbEntity
  8
Dimension
  6
Continuous
 62
     0
370
    -2
100
AcDbLine
 10
6.112499999999983
 20
-9.364999999999995
 30
0.0
 11
7.862496498366795
 21
-9.364999999999995
 31
0.0
  0
SOLID
  5
216
330
28
100
AcDbEntity
  8
Dimension
 62
     0
370
    -2
100
AcDbTrace
 10
6.112499999999983
 20
-9.364999999999995
 30
0.0
 11
6.906249999999983
 21
-9.152315328507791
 31
0.0
 12
6.906249999999983
 22
-9.577684671492198
 32
0.0
 13
6.906249999999983
 23
-9.577684671492198
 33
0.0
  0
MTEXT
  5
217
330
28
100
AcDbEntity
  8
Dimension
 62
     0
100
AcDbMText
 10
-5.027067470102509
 20
-8.951037796874992
 30
0.0
 40
0.7579186197916666
 41
0.0
 71
     1
 72
     1
  1
12.225mm
  7
Arial
 73
     1
 44
0.9673603504928806
  0
MTEXT
  5
218
330
28
100
AcDbEntity
  8
Dimension
 62
     0
100
AcDbMText
 10
0.010583289912347
 20
-8.951039463541655
 30
0.0
 40
0.7579186197916666
 41
0.0
 71
     1
 72
     1
  1
%%p0.125mm
  7
Arial
 73
     1
 44
0.9673603504928806
  0
POINT
  5
219
330
28
100
AcDbEntity
  8
Defpoints
 62
     0
370
     0
100
AcDbPoint
 10
6.112499999999983
 20
-0.1125000000000114
 30
0.0
  0
POINT
  5
21A
330
28
100
AcDbEntity
  8
Defpoints
 62
     0
370
     0
100
AcDbPoint
 10
-6.112499999999983
 20
-0.1125000000000114
 30
0.0
  0
POINT
  5
21B
330
28
100
AcDbEntity
  8
Defpoints
 62
     0
370
     0
100
AcDbPoint
 10
-6.112499999999983
 20
-9.364999999999997
 30
0.0
  0
ENDBLK
  5
1EC
330
28
100
AcDbEntity
  8
Dimension
100
AcDbBlockEnd
  0
BLOCK
  5
1ED
330
29
100
AcDbEntity
  8
Dimension
100
AcDbBlockBegin
  2
*D8
 70
     1
 10
0.0
 20
0.0
 30
0.0
  3
*D8
  1

  0
LINE
  5
21C
330
29
100
AcDbEntity
  8
Dimension
  6
Continuous
 62
     0
370
    -2
100
AcDbLine
 10
-5.33875000118276
 20
1.137499999999989
 30
0.0
 11
-10.76866000236554
 21
1.137499999999989
 31
0.0
  0
LINE
  5
21D
330
29
100
AcDbEntity
  8
Dimension
  6
Continuous
 62
     0
370
    -2
100
AcDbLine
 10
-5.33875000118276
 20
4.137499999999989
 30
0.0
 11
-10.76866000236554
 21
4.137499999999989
 31
0.0
  0
LINE
  5
21E
330
29
100
AcDbEntity
  8
Dimension
  6
Continuous
 62
     0
370
    -2
100
AcDbLine
 10
-9.816159999999982
 20
4.137499999999989
 30
0.0
 11
-9.816159999999982
 21
1.137499999999989
 31
0.0
  0
LINE
  5
21F
330
29
100
AcDbEntity
  8
Dimension
  6
Continuous
 62
     0
370
    -2
100
AcDbLine
 10
-9.816159999999982
 20
1.137499999999989
 30
0.0
 11
-9.816159999999982
 21
-0.6124964983668235
 31
0.0
  0
SOLID
  5
220
330
29
100
AcDbEntity
  8
Dimension
 62
     0
370
    -2
100
AcDbTrace
 10
-9.816159999999982
 20
1.137499999999989
 30
0.0
 11
-9.603475328507779
 21
0.3437499999999886
 31
0.0
 12
-10.02884467149219
 22
0.3437499999999887
 32
0.0
 13
-10.02884467149219
 23
0.3437499999999887
 33
0.0
  0
LINE
  5
221
330
29
100
AcDbEntity
  8
Dimension
  6
Continuous
 62
     0
370
    -2
100
AcDbLine
 10
-9.816159999999982
 20
4.137499999999989
 30
0.0
 11
-9.816159999999982
 21
5.887496498366801
 31
0.0
  0
SOLID
  5
222
330
29
100
AcDbEntity
  8
Dimension
 62
     0
370
    -2
100
AcDbTrace
 10
-9.816159999999982
 20
4.137499999999989
 30
0.0
 11
-10.02884467149219
 21
4.931249999999989
 31
0.0
 12
-9.603475328507779
 22
4.931249999999989
 32
0.0
 13
-9.603475328507779
 23
4.931249999999989
 33
0.0
  0
MTEXT
  5
223
330
29
100
AcDbEntity
  8
Dimension
 62
     0
100
AcDbMText
 10
-11.00148959553928
 20
2.964071369791676
 30
0.0
 40
0.7579186197916666
 41
0.0
 71
     1
 72
     1
  1
3mm
  7
Arial
 73
     1
 44
0.9673603504928806
  0
POINT
  5
224
330
29
100
AcDbEntity
  8
Defpoints
 62
     0
370
     0
100
AcDbPoint
 10
-4.862499999999983
 20
4.137499999999989
 30
0.0
  0
POINT
  5
225
330
29
100
AcDbEntity
  8
Defpoints
 62
     0
370
     0
100
AcDbPoint
 10
-4.862499999999983
 20
1.137499999999989
 30
0.0
  0
POINT
  5
226
330
29
100
AcDbEntity
  8
Defpoints
 62
     0
370
     0
100
AcDbPoint
 10
-9.816159999999982
 20
1.137499999999989
 30
0.0
  0
ENDBLK
  5
1EE
330
29
100
AcDbEntity
  8
Dimension
100
AcDbBlockEnd
  0
BLOCK
  5
1EF
330
2A
100
AcDbEntity
  8
Dimension
100
AcDbBlockBegin
  2
*D9
 70
     1
 10
0.0
 20
0.0
 30
0.0
  3
*D9
  1

  0
LINE
  5
227
330
2A
100
AcDbEntity
  8
Dimension
  6
Continuous
 62
     0
370
    -2
100
AcDbLine
 10
5.33875000118276
 20
10.86250000000001
 30
0.0
 11
13.33362984954995
 21
10.86250000000001
 31
0.0
  0
LINE
  5
228
330
2A
100
AcDbEntity
  8
Dimension
  6
Continuous
 62
     0
370
    -2
100
AcDbLine
 10
5.33875000118276
 20
8.862500000000011
 30
0.0
 11
13.33362984954995
 21
8.862500000000011
 31
0.0
  0
LINE
  5
229
330
2A
100
AcDbEntity
  8
Dimension
  6
Continuous
 62
     0
370
    -2
100
AcDbLine
 10
12.3811298471844
 20
8.862500000000011
 30
0.0
 11
12.3811298471844
 21
10.86250000000001
 31
0.0
  0
LINE
  5
22A
330
2A
100
AcDbEntity
  8
Dimension
  6
Continuous
 62
     0
370
    -2
100
AcDbLine
 10
12.3811298471844
 20
10.86250000000001
 30
0.0
 11
12.3811298471844
 21
12.61249649836682
 31
0.0
  0
SOLID
  5
22B
330
2A
100
AcDbEntity
  8
Dimension
 62
     0
370
    -2
100
AcDbTrace
 10
12.3811298471844
 20
10.86250000000001
 30
0.0
 11
12.16844517569219
 21
11.65625000000001
 31
0.0
 12
12.5938145186766
 22
11.65625000000001
 32
0.0
 13
12.5938145186766
 23
11.65625000000001
 33
0.0
  0
LINE
  5
22C
330
2A
100
AcDbEntity
  8
Dimension
  6
Continuous
 62
     0
370
    -2
100
AcDbLine
 10
12.3811298471844
 20
8.862500000000011
 30
0.0
 11
12.3811298471844
 21
7.112503501633199
 31
0.0
  0
SOLID
  5
BB
330
2A
100
AcDbEntity
  8
Dimension
 62
     0
370
    -2
100
AcDbTrace
 10
12.3811298471844
 20
8.862500000000011
 30
0.0
 11
12.5938145186766
 21
8.068750000000012
 31
0.0
 12
12.16844517569219
 22
8.068750000000012
 32
0.0
 13
12.16844517569219
 23
8.068750000000012
 33
0.0
  0
MTEXT
  5
BD
330
2A
100
AcDbEntity
  8
Dimension
 62
     0
100
AcDbMText
 10
11.1958002516451
 20
10.27646136979167
 30
0.0
 40
0.7579186197916666
 41
0.0
 71
     1
 72
     1
  1
2mm
  7
Arial
 73
     1
 44
0.9673603504928806
  0
POINT
  5
BE
330
2A
100
AcDbEntity
  8
Defpoints
 62
     0
370
     0
100
AcDbPoint
 10
4.862499999999983
 20
8.862500000000011
 30
0.0
  0
POINT
  5
BF
330
2A
100
AcDbEntity
  8
Defpoints
 62
     0
370
     0
100
AcDbPoint
 10
4.862499999999983
 20
10.86250000000001
 30
0.0
  0
POINT
  5
C0
330
2A
100
AcDbEntity
  8
Defpoints
 62
     0
370
     0
100
AcDbPoint
 10
12.38112984718439
 20
10.86250000000001
 30
0.0
  0
ENDBLK
  5
1F0
330
2A
100
AcDbEntity
  8
Dimension
100
AcDbBlockEnd
  0
BLOCK
  5
1F1
330
2B
100
AcDbEntity
  8
Dimension
100
AcDbBlockBegin
  2
*D10
 70
     1
 10
0.0
 20
0.0
 30
0.0
  3
*D10
  1

  0
LINE
  5
C3
330
2B
100
AcDbEntity
  8
Dimension
  6
Continuous
 62
     0
370
    -2
100
AcDbLine
 10
-6.112499999999983
 20
12.58875000118279
 30
0.0
 11
-6.112499999999983
 21
17.30261000236557
 31
0.0
  0
LINE
  5
C4
330
2B
100
AcDbEntity
  8
Dimension
  6
Continuous
 62
     0
370
    -2
100
AcDbLine
 10
-4.862499999999983
 20
11.33875000118279
 30
0.0
 11
-4.862499999999983
 21
17.30261000236557
 31
0.0
  0
LINE
  5
C5
330
2B
100
AcDbEntity
  8
Dimension
  6
Continuous
 62
     0
370
    -2
100
AcDbLine
 10
-4.862499999999983
 20
16.35011000000002
 30
0.0
 11
-6.112499999999983
 21
16.35011000000002
 31
0.0
  0
LINE
  5
C6
330
2B
100
AcDbEntity
  8
Dimension
  6
Continuous
 62
     0
370
    -2
100
AcDbLine
 10
-6.112499999999983
 20
16.35011000000002
 30
0.0
 11
-9.175769999999986
 21
16.35011000000002
 31
0.0
  0
SOLID
  5
C7
330
2B
100
AcDbEntity
  8
Dimension
 62
     0
370
    -2
100
AcDbTrace
 10
-6.112499999999983
 20
16.35011000000002
 30
0.0
 11
-6.906249999999983
 21
16.13742532850781
 31
0.0
 12
-6.906249999999983
 22
16.56279467149222
 32
0.0
 13
-6.906249999999983
 23
16.56279467149222
 33
0.0
  0
LINE
  5
C8
330
2B
100
AcDbEntity
  8
Dimension
  6
Continuous
 62
     0
370
    -2
100
AcDbLine
 10
-4.862499999999983
 20
16.35011000000002
 30
0.0
 11
-3.112503501633171
 21
16.35011000000002
 31
0.0
  0
SOLID
  5
C9
330
2B
100
AcDbEntity
  8
Dimension
 62
     0
370
    -2
100
AcDbTrace
 10
-4.862499999999983
 20
16.35011000000002
 30
0.0
 11
-4.068749999999983
 21
16.56279467149222
 31
0.0
 12
-4.068749999999983
 22
16.13742532850781
 32
0.0
 13
-4.068749999999983
 23
16.13742532850781
 33
0.0
  0
MTEXT
  5
CB
330
2B
100
AcDbEntity
  8
Dimension
 62
     0
100
AcDbMText
 10
-20.16124202878525
 20
16.76407328645835
 30
0.0
 40
0.7579186197916666
 41
0.0
 71
     1
 72
     1
  1
1.25mm
  7
Arial
 73
     1
 44
0.9673603504928806
  0
MTEXT
  5
CD
330
2B
100
AcDbEntity
  8
Dimension
 62
     0
100
AcDbMText
 10
-16.30892078020094
 20
16.76407161979169
 30
0.0
 40
0.7579186197916666
 41
0.0
 71
     1
 72
     1
  1
%%p0.125mm
  7
Arial
 73
     1
 44
0.9673603504928806
  0
MTEXT
  5
CF
330
2B
100
AcDbEntity
  8
Dimension
 62
     0
100
AcDbMText
 10
-11.28185325931759
 20
16.76407267361113
 30
0.0
 40
0.7579210069444442
 41
0.0
 71
     1
 72
     1
  1
 (x4)
  7
Arial
 73
     1
 44
0.9673603504928806
  0
POINT
  5
D0
330
2B
100
AcDbEntity
  8
Defpoints
 62
     0
370
     0
100
AcDbPoint
 10
-4.862499999999983
 20
10.86250000000001
 30
0.0
  0
POINT
  5
D1
330
2B
100
AcDbEntity
  8
Defpoints
 62
     0
370
     0
100
AcDbPoint
 10
-6.112499999999983
 20
12.11250000000001
 30
0.0
  0
POINT
  5
D2
330
2B
100
AcDbEntity
  8
Defpoints
 62
     0
370
     0
100
AcDbPoint
 10
-6.112499999999983
 20
16.35011000000001
 30
0.0
  0
ENDBLK
  5
1F2
330
2B
100
AcDbEntity
  8
Dimension
100
AcDbBlockEnd
  0
BLOCK
  5
1F3
330
2C
100
AcDbEntity
  8
Dimension
100
AcDbBlockBegin
  2
*D11
 70
     1
 10
0.0
 20
0.0
 30
0.0
  3
*D11
  1

  0
LINE
  5
D5
330
2C
100
AcDbEntity
  8
Dimension
  6
Continuous
 62
     0
370
    -2
100
AcDbLine
 10
-6.58875000118276
 20
12.11250000000001
 30
0.0
 11
-15.63279000236554
 21
12.11250000000001
 31
0.0
  0
LINE
  5
D6
330
2C
100
AcDbEntity
  8
Dimension
  6
Continuous
 62
     0
370
    -2
100
AcDbLine
 10
-5.33875000118276
 20
10.86250000000001
 30
0.0
 11
-15.63279000236554
 21
10.86250000000001
 31
0.0
  0
LINE
  5
D7
330
2C
100
AcDbEntity
  8
Dimension
  6
Continuous
 62
     0
370
    -2
100
AcDbLine
 10
-14.68028999999999
 20
10.86250000000001
 30
0.0
 11
-14.68028999999999
 21
12.11250000000001
 31
0.0
  0
LINE
  5
D8
330
2C
100
AcDbEntity
  8
Dimension
  6
Continuous
 62
     0
370
    -2
100
AcDbLine
 10
-14.68028999999999
 20
12.11250000000001
 30
0.0
 11
-14.68028999999999
 21
14.72730260000002
 31
0.0
  0
SOLID
  5
D9
330
2C
100
AcDbEntity
  8
Dimension
 62
     0
370
    -2
100
AcDbTrace
 10
-14.68028999999999
 20
12.11250000000001
 30
0.0
 11
-14.89297467149219
 21
12.90625000000001
 31
0.0
 12
-14.46760532850778
 22
12.90625000000001
 32
0.0
 13
-14.46760532850778
 23
12.90625000000001
 33
0.0
  0
LINE
  5
DA
330
2C
100
AcDbEntity
  8
Dimension
  6
Continuous
 62
     0
370
    -2
100
AcDbLine
 10
-14.68028999999999
 20
10.86250000000001
 30
0.0
 11
-14.68028999999999
 21
9.1125035016332
 31
0.0
  0
SOLID
  5
DB
330
2C
100
AcDbEntity
  8
Dimension
 62
     0
370
    -2
100
AcDbTrace
 10
-14.68028999999999
 20
10.86250000000001
 30
0.0
 11
-14.46760532850778
 21
10.06875000000001
 31
0.0
 12
-14.89297467149219
 22
10.06875000000001
 32
0.0
 13
-14.89297467149219
 23
10.06875000000001
 33
0.0
  0
MTEXT
  5
DD
330
2C
100
AcDbEntity
  8
Dimension
 62
     0
100
AcDbMText
 10
-20.17302601439262
 20
15.14126588645835
 30
0.0
 40
0.7579186197916666
 41
0.0
 71
     1
 72
     1
  1
1.25mm
  7
Arial
 73
     1
 44
0.9673603504928806
  0
MTEXT
  5
DF
330
2C
100
AcDbEntity
  8
Dimension
 62
     0
100
AcDbMText
 10
-16.3207047658083
 20
15.14126421979169
 30
0.0
 40
0.7579186197916666
 41
0.0
 71
     1
 72
     1
  1
%%p0.125mm
  7
Arial
 73
     1
 44
0.9673603504928806
  0
MTEXT
  5
E1
330
2C
100
AcDbEntity
  8
Dimension
 62
     0
100
AcDbMText
 10
-11.29363724492495
 20
15.14126527361113
 30
0.0
 40
0.7579210069444442
 41
0.0
 71
     1
 72
     1
  1
 (x4)
  7
Arial
 73
     1
 44
0.9673603504928806
  0
POINT
  5
E2
330
2C
100
AcDbEntity
  8
Defpoints
 62
     0
370
     0
100
AcDbPoint
 10
-4.862499999999983
 20
10.86250000000001
 30
0.0
  0
POINT
  5
E3
330
2C
100
AcDbEntity
  8
Defpoints
 62
     0
370
     0
100
AcDbPoint
 10
-6.112499999999983
 20
12.11250000000001
 30
0.0
  0
POINT
  5
E4
330
2C
100
AcDbEntity
  8
Defpoints
 62
     0
370
     0
100
AcDbPoint
 10
-14.68028999999999
 20
12.11250000000001
 30
0.0
  0
ENDBLK
  5
1F4
330
2C
100
AcDbEntity
  8
Dimension
100
AcDbBlockEnd
  0
BLOCK
  5
1F5
330
2D
100
AcDbEntity
  8
Dimension
100
AcDbBlockBegin
  2
*D12
 70
     1
 10
0.0
 20
0.0
 30
0.0
  3
*D12
  1

  0
LINE
  5
E7
330
2D
100
AcDbEntity
  8
Dimension
  6
Continuous
 62
     0
370
    -2
100
AcDbLine
 10
-4.862499999999983
 20
0.6612499988172118
 30
0.0
 11
-4.862499999999983
 21
-7.017500002365551
 31
0.0
  0
LINE
  5
E8
330
2D
100
AcDbEntity
  8
Dimension
  6
Continuous
 62
     0
370
    -2
100
AcDbLine
 10
4.862499999999983
 20
0.6612499988172118
 30
0.0
 11
4.862499999999983
 21
-7.017500002365551
 31
0.0
  0
LINE
  5
E9
330
2D
100
AcDbEntity
  8
Dimension
  6
Continuous
 62
     0
370
    -2
100
AcDbLine
 10
4.862499999999983
 20
-6.064999999999998
 30
0.0
 11
-4.862499999999983
 21
-6.064999999999998
 31
0.0
  0
LINE
  5
EA
330
2D
100
AcDbEntity
  8
Dimension
  6
Continuous
 62
     0
370
    -2
100
AcDbLine
 10
-4.862499999999983
 20
-6.064999999999998
 30
0.0
 11
-6.612496498366795
 21
-6.064999999999998
 31
0.0
  0
SOLID
  5
EB
330
2D
100
AcDbEntity
  8
Dimension
 62
     0
370
    -2
100
AcDbTrace
 10
-4.862499999999983
 20
-6.064999999999998
 30
0.0
 11
-5.656249999999983
 21
-6.277684671492201
 31
0.0
 12
-5.656249999999983
 22
-5.852315328507794
 32
0.0
 13
-5.656249999999983
 23
-5.852315328507794
 33
0.0
  0
LINE
  5
EC
330
2D
100
AcDbEntity
  8
Dimension
  6
Continuous
 62
     0
370
    -2
100
AcDbLine
 10
4.862499999999983
 20
-6.064999999999998
 30
0.0
 11
6.612496498366795
 21
-6.064999999999998
 31
0.0
  0
SOLID
  5
ED
330
2D
100
AcDbEntity
  8
Dimension
 62
     0
370
    -2
100
AcDbTrace
 10
4.862499999999983
 20
-6.064999999999998
 30
0.0
 11
5.656249999999983
 21
-5.852315328507794
 31
0.0
 12
5.656249999999983
 22
-6.277684671492201
 32
0.0
 13
5.656249999999983
 23
-6.277684671492201
 33
0.0
  0
MTEXT
  5
EF
330
2D
100
AcDbEntity
  8
Dimension
 62
     0
100
AcDbMText
 10
-3.270239849437274
 20
-5.65103863020834
 30
0.0
 40
0.7579186197916666
 41
0.0
 71
     1
 72
     1
  1
9.725mm (x4)
  7
Arial
 73
     1
 44
0.9673603504928806
  0
POINT
  5
F0
330
2D
100
AcDbEntity
  8
Defpoints
 62
     0
370
     0
100
AcDbPoint
 10
4.862499999999983
 20
1.137499999999989
 30
0.0
  0
POINT
  5
F1
330
2D
100
AcDbEntity
  8
Defpoints
 62
     0
370
     0
100
AcDbPoint
 10
-4.862499999999983
 20
1.137499999999989
 30
0.0
  0
POINT
  5
F2
330
2D
100
AcDbEntity
  8
Defpoints
 62
     0
370
     0
100
AcDbPoint
 10
-4.862499999999983
 20
-6.064999999999997
 30
0.0
  0
ENDBLK
  5
1F6
330
2D
100
AcDbEntity
  8
Dimension
100
AcDbBlockEnd
  0
BLOCK
  5
1F7
330
2E
100
AcDbEntity
  8
Dimension
100
AcDbBlockBegin
  2
*D13
 70
     1
 10
0.0
 20
0.0
 30
0.0
  3
*D13
  1

  0
LINE
  5
F5
330
2E
100
AcDbEntity
  8
Dimension
  6
Continuous
 62
     0
370
    -2
100
AcDbLine
 10
5.212692788281117
 20
9.103195829789414
 30
0.0
 11
12.77984316549859
 21
14.33499999999999
 31
0.0
  0
SOLID
  5
F6
330
2E
100
AcDbEntity
  8
Dimension
 62
     0
370
    -2
100
AcDbTrace
 10
5.212692788281117
 20
9.103195829789414
 30
0.0
 11
5.572016250897211
 21
9.516550189156227
 31
0.0
 12
5.730553214765849
 22
9.281509474458069
 32
0.0
 13
5.730553214765849
 23
9.281509474458069
 33
0.0
  0
LINE
  5
F7
330
2E
100
AcDbEntity
  8
Dimension
  6
Continuous
 62
     0
370
    -2
100
AcDbLine
 10
12.77984316549859
 20
14.33499999999999
 30
0.0
 11
14.27984016747808
 21
14.33499999999999
 31
0.0
  0
MTEXT
  5
F9
330
2E
100
AcDbEntity
  8
Dimension
 62
     0
100
AcDbMText
 10
14.27984016747808
 20
14.74896328645833
 30
0.0
 40
0.7579186197916666
 41
0.0
 71
     1
 72
     1
  1
Ø 0.85mm
  7
Arial
 73
     1
 44
0.9673603504928806
  0
MTEXT
  5
FB
330
2E
100
AcDbEntity
  8
Dimension
 62
     0
100
AcDbMText
 10
19.25399115626881
 20
14.74896161979166
 30
0.0
 40
0.7579186197916666
 41
0.0
 71
     1
 72
     1
  1
%%p0.025mm
  7
Arial
 73
     1
 44
0.9673603504928806
  0
MTEXT
  5
FD
330
2E
100
AcDbEntity
  8
Dimension
 62
     0
100
AcDbMText
 10
24.28105867715216
 20
14.74896267361111
 30
0.0
 40
0.7579210069444442
 41
0.0
 71
     1
 72
     1
  1
 (x2)
  7
Arial
 73
     1
 44
0.9673603504928806
  0
POINT
  5
FE
330
2E
100
AcDbEntity
  8
Defpoints
 62
     0
370
     0
100
AcDbPoint
 10
4.513527211718866
 20
8.619804170210557
 30
0.0
  0
POINT
  5
FF
330
2E
100
AcDbEntity
  8
Defpoints
 62
     0
370
     0
100
AcDbPoint
 10
5.212692788281117
 20
9.103195829789414
 30
0.0
  0
ENDBLK
  5
1F8
330
2E
100
AcDbEntity
  8
Dimension
100
AcDbBlockEnd
  0
BLOCK
  5
1F9
330
2F
100
AcDbEntity
  8
Dimension
100
AcDbBlockBegin
  2
*D14
 70
     1
 10
0.0
 20
0.0
 30
0.0
  3
*D14
  1

  0
LINE
  5
102
330
2F
100
AcDbEntity
  8
Dimension
  6
Continuous
 62
     0
370
    -2
100
AcDbLine
 10
3.283043109941332
 20
5.095259505372269
 30
0.0
 11
17.42110421774946
 21
-0.8650000000000091
 31
0.0
  0
SOLID
  5
103
330
2F
100
AcDbEntity
  8
Dimension
 62
     0
370
    -2
100
AcDbTrace
 10
3.283043109941332
 20
5.095259505372269
 30
0.0
 11
3.825412829211702
 21
5.019034412308709
 31
0.0
 12
3.714636518541127
 22
4.758061778738209
 32
0.0
 13
3.714636518541127
 23
4.758061778738209
 33
0.0
  0
LINE
  5
104
330
2F
100
AcDbEntity
  8
Dimension
  6
Continuous
 62
     0
370
    -2
100
AcDbLine
 10
17.42110421774946
 20
-0.8650000000000091
 30
0.0
 11
18.92110121972895
 21
-0.8650000000000091
 31
0.0
  0
MTEXT
  5
106
330
2F
100
AcDbEntity
  8
Dimension
 62
     0
100
AcDbMText
 10
18.92110121972895
 20
-0.4510386302083511
 30
0.0
 40
0.7579186197916666
 41
0.0
 71
     1
 72
     1
  1
0.6 x 0.2mm
  7
Arial
 73
     1
 44
0.9673603504928806
  0
POINT
  5
107
330
2F
100
AcDbEntity
  8
Defpoints
 62
     0
370
     0
100
AcDbPoint
 10
2.59688491332426
 20
5.38452695742177
 30
0.0
  0
POINT
  5
108
330
2F
100
AcDbEntity
  8
Defpoints
 62
     0
370
     0
100
AcDbPoint
 10
3.283043109941332
 20
5.095259505372269
 30
0.0
  0
ENDBLK
  5
1FA
330
2F
100
AcDbEntity
  8
Dimension
100
AcDbBlockEnd
  0
BLOCK
  5
1FB
330
30
100
AcDbEntity
  8
Dimension
100
AcDbBlockBegin
  2
*D15
 70
     1
 10
0.0
 20
0.0
 30
0.0
  3
*D15
  1

  0
LINE
  5
10B
330
30
100
AcDbEntity
  8
Dimension
  6
Continuous
 62
     0
370
    -2
100
AcDbLine
 10
-4.862499999999983
 20
11.33875000118279
 30
0.0
 11
-4.862499999999983
 21
20.56186000236556
 31
0.0
  0
LINE
  5
10C
330
30
100
AcDbEntity
  8
Dimension
  6
Continuous
 62
     0
370
    -2
100
AcDbLine
 10
-2.049999999999955
 20
9.576250001182771
 30
0.0
 11
-2.049999999999955
 21
20.56186000236556
 31
0.0
  0
LINE
  5
10D
330
30
100
AcDbEntity
  8
Dimension
  6
Continuous
 62
     0
370
    -2
100
AcDbLine
 10
-2.049999999999955
 20
19.60936000000001
 30
0.0
 11
-4.862499999999983
 21
19.60936000000001
 31
0.0
  0
LINE
  5
10E
330
30
100
AcDbEntity
  8
Dimension
  6
Continuous
 62
     0
370
    -2
100
AcDbLine
 10
-4.862499999999983
 20
19.60936000000001
 30
0.0
 11
-6.612496498366795
 21
19.60936000000001
 31
0.0
  0
SOLID
  5
10F
330
30
100
AcDbEntity
  8
Dimension
 62
     0
370
    -2
100
AcDbTrace
 10
-4.862499999999983
 20
19.60936000000001
 30
0.0
 11
-5.656249999999983
 21
19.3966753285078
 31
0.0
 12
-5.656249999999983
 22
19.82204467149221
 32
0.0
 13
-5.656249999999983
 23
19.82204467149221
 33
0.0
  0
LINE
  5
110
330
30
100
AcDbEntity
  8
Dimension
  6
Continuous
 62
     0
370
    -2
100
AcDbLine
 10
-2.049999999999955
 20
19.60936000000001
 30
0.0
 11
0.0857000000000454
 21
19.60936000000001
 31
0.0
  0
SOLID
  5
111
330
30
100
AcDbEntity
  8
Dimension
 62
     0
370
    -2
100
AcDbTrace
 10
-2.049999999999955
 20
19.60936000000001
 30
0.0
 11
-1.256249999999955
 21
19.82204467149221
 31
0.0
 12
-1.256249999999955
 22
19.3966753285078
 32
0.0
 13
-1.256249999999955
 23
19.3966753285078
 33
0.0
  0
MTEXT
  5
113
330
30
100
AcDbEntity
  8
Dimension
 62
     0
100
AcDbMText
 10
0.0857000000000454
 20
20.02332136979167
 30
0.0
 40
0.7579186197916666
 41
0.0
 71
     1
 72
     1
  1
2.8125mm*
  7
Arial
 73
     1
 44
0.9673603504928806
  0
POINT
  5
114
330
30
100
AcDbEntity
  8
Defpoints
 62
     0
370
     0
100
AcDbPoint
 10
-2.049999999999955
 20
9.099999999999994
 30
0.0
  0
POINT
  5
115
330
30
100
AcDbEntity
  8
Defpoints
 62
     0
370
     0
100
AcDbPoint
 10
-4.862499999999983
 20
10.86250000000001
 30
0.0
  0
POINT
  5
116
330
30
100
AcDbEntity
  8
Defpoints
 62
     0
370
     0
100
AcDbPoint
 10
-4.862499999999983
 20
19.60936000000001
 30
0.0
  0
ENDBLK
  5
1FC
330
30
100
AcDbEntity
  8
Dimension
100
AcDbBlockEnd
  0
BLOCK
  5
1FD
330
31
100
AcDbEntity
  8
Dimension
100
AcDbBlockBegin
  2
*D16
 70
     1
 10
0.0
 20
0.0
 30
0.0
  3
*D16
  1

  0
LINE
  5
119
330
31
100
AcDbEntity
  8
Dimension
  6
Continuous
 62
     0
370
    -2
100
AcDbLine
 10
-5.33875000118276
 20
10.86250000000001
 30
0.0
 11
-11.76866000236554
 21
10.86250000000001
 31
0.0
  0
LINE
  5
11A
330
31
100
AcDbEntity
  8
Dimension
  6
Continuous
 62
     0
370
    -2
100
AcDbLine
 10
-2.426250001182737
 20
9.099999999999994
 30
0.0
 11
-11.76866000236554
 21
9.099999999999994
 31
0.0
  0
LINE
  5
11B
330
31
100
AcDbEntity
  8
Dimension
  6
Continuous
 62
     0
370
    -2
100
AcDbLine
 10
-10.81615999999998
 20
9.099999999999994
 30
0.0
 11
-10.81615999999998
 21
10.86250000000001
 31
0.0
  0
LINE
  5
11C
330
31
100
AcDbEntity
  8
Dimension
  6
Continuous
 62
     0
370
    -2
100
AcDbLine
 10
-10.81615999999998
 20
10.86250000000001
 30
0.0
 11
-10.81615999999998
 21
12.61249649836682
 31
0.0
  0
SOLID
  5
11D
330
31
100
AcDbEntity
  8
Dimension
 62
     0
370
    -2
100
AcDbTrace
 10
-10.81615999999998
 20
10.86250000000001
 30
0.0
 11
-11.02884467149219
 21
11.65625000000001
 31
0.0
 12
-10.60347532850778
 22
11.65625000000001
 32
0.0
 13
-10.60347532850778
 23
11.65625000000001
 33
0.0
  0
LINE
  5
11E
330
31
100
AcDbEntity
  8
Dimension
  6
Continuous
 62
     0
370
    -2
100
AcDbLine
 10
-10.81615999999998
 20
9.099999999999994
 30
0.0
 11
-10.81615999999998
 21
7.350003501633182
 31
0.0
  0
SOLID
  5
11F
330
31
100
AcDbEntity
  8
Dimension
 62
     0
370
    -2
100
AcDbTrace
 10
-10.81615999999998
 20
9.099999999999994
 30
0.0
 11
-10.60347532850778
 21
8.306249999999995
 31
0.0
 12
-11.02884467149219
 22
8.306249999999995
 32
0.0
 13
-11.02884467149219
 23
8.306249999999995
 33
0.0
  0
MTEXT
  5
121
330
31
100
AcDbEntity
  8
Dimension
 62
     0
100
AcDbMText
 10
-13.33498538000741
 20
10.36998515824381
 30
0.0
 40
0.7579186197916666
 41
0.0
 71
     1
 72
     1
  1
1.7625mm
  7
Arial
 73
     1
 44
0.9673603504928806
  0
POINT
  5
122
330
31
100
AcDbEntity
  8
Defpoints
 62
     0
370
     0
100
AcDbPoint
 10
-1.94999999999996
 20
9.099999999999994
 30
0.0
  0
POINT
  5
123
330
31
100
AcDbEntity
  8
Defpoints
 62
     0
370
     0
100
AcDbPoint
 10
-4.862499999999983
 20
10.86250000000001
 30
0.0
  0
POINT
  5
124
330
31
100
AcDbEntity
  8
Defpoints
 62
     0
370
     0
100
AcDbPoint
 10
-10.81615999999998
 20
10.86250000000001
 30
0.0
  0
ENDBLK
  5
1FE
330
31
100
AcDbEntity
  8
Dimension
100
AcDbBlockEnd
  0
BLOCK
  5
1FF
330
32
100
AcDbEntity
  8
Dimension
100
AcDbBlockBegin
  2
*D17
 70
     1
 10
0.0
 20
0.0
 30
0.0
  3
*D17
  1

  0
LINE
  5
127
330
32
100
AcDbEntity
  8
Dimension
  6
Continuous
 62
     0
370
    -2
100
AcDbLine
 10
5.490797751548513
 20
11.3657563317029
 30
0.0
 11
13.62984316549857
 21
17.88499999999999
 31
0.0
  0
SOLID
  5
128
330
32
100
AcDbEntity
  8
Dimension
 62
     0
370
    -2
100
AcDbTrace
 10
5.490797751548513
 20
11.3657563317029
 30
0.0
 11
5.820411777753017
 21
11.80316891831104
 31
0.0
 12
5.994958164989353
 22
11.57975973053836
 32
0.0
 13
5.994958164989353
 23
11.57975973053836
 33
0.0
  0
LINE
  5
129
330
32
100
AcDbEntity
  8
Dimension
  6
Continuous
 62
     0
370
    -2
100
AcDbLine
 10
13.62984316549857
 20
17.88499999999999
 30
0.0
 11
15.12984016747806
 21
17.88499999999999
 31
0.0
  0
MTEXT
  5
12B
330
32
100
AcDbEntity
  8
Dimension
 62
     0
100
AcDbMText
 10
15.12984016747806
 20
18.29896328645832
 30
0.0
 40
0.7579186197916666
 41
0.0
 71
     1
 72
     1
  1
Ø 1.75mm
  7
Arial
 73
     1
 44
0.9673603504928806
  0
MTEXT
  5
12D
330
32
100
AcDbEntity
  8
Dimension
 62
     0
100
AcDbMText
 10
20.10399115626879
 20
18.29896161979166
 30
0.0
 40
0.7579186197916666
 41
0.0
 71
     1
 72
     1
  1
%%p0.05mm
  7
Arial
 73
     1
 44
0.9673603504928806
  0
MTEXT
  5
12F
330
32
100
AcDbEntity
  8
Dimension
 62
     0
100
AcDbMText
 10
24.53839392143688
 20
18.2989626736111
 30
0.0
 40
0.7579210069444442
 41
0.0
 71
     1
 72
     1
  1
(x4)
  7
Arial
 73
     1
 44
0.9673603504928806
  0
POINT
  5
130
330
32
100
AcDbEntity
  8
Defpoints
 62
     0
370
     0
100
AcDbPoint
 10
4.23420224845151
 20
10.35924366829707
 30
0.0
  0
POINT
  5
131
330
32
100
AcDbEntity
  8
Defpoints
 62
     0
370
     0
100
AcDbPoint
 10
5.490797751548513
 20
11.3657563317029
 30
0.0
  0
ENDBLK
  5
200
330
32
100
AcDbEntity
  8
Dimension
100
AcDbBlockEnd
  0
BLOCK
  5
201
330
33
100
AcDbEntity
  8
Dimension
100
AcDbBlockBegin
  2
*D18
 70
     1
 10
0.0
 20
0.0
 30
0.0
  3
*D18
  1

  0
LINE
  5
134
330
33
100
AcDbEntity
  8
Dimension
  6
Continuous
 62
     0
370
    -2
100
AcDbLine
 10
-6.509374999999977
 20
12.11250000000001
 30
0.0
 11
-22.89374999999998
 21
12.11250000000001
 31
0.0
  0
LINE
  5
135
330
33
100
AcDbEntity
  8
Dimension
  6
Continuous
 62
     0
370
    -2
100
AcDbLine
 10
-6.509374999999977
 20
-0.1125000000000114
 30
0.0
 11
-22.89374999999998
 21
-0.1125000000000114
 31
0.0
  0
LINE
  5
136
330
33
100
AcDbEntity
  8
Dimension
  6
Continuous
 62
     0
370
    -2
100
AcDbLine
 10
-22.09999999999998
 20
12.11250000000001
 30
0.0
 11
-22.09999999999998
 21
-0.1125000000000114
 31
0.0
  0
SOLID
  5
137
330
33
100
AcDbEntity
  8
Dimension
 62
     0
370
    -2
100
AcDbTrace
 10
-22.09999999999998
 20
12.11250000000001
 30
0.0
 11
-21.88731532850778
 21
11.31875000000001
 31
0.0
 12
-22.31268467149219
 22
11.31875000000001
 32
0.0
 13
-22.31268467149219
 23
11.31875000000001
 33
0.0
  0
SOLID
  5
138
330
33
100
AcDbEntity
  8
Dimension
 62
     0
370
    -2
100
AcDbTrace
 10
-22.09999999999998
 20
-0.1125000000000114
 30
0.0
 11
-22.31268467149219
 21
0.6812499999999886
 31
0.0
 12
-21.88731532850777
 22
0.6812499999999886
 32
0.0
 13
-21.88731532850777
 23
0.6812499999999886
 33
0.0
  0
MTEXT
  5
13A
330
33
100
AcDbEntity
  8
Dimension
 62
     0
100
AcDbMText
 10
-27.13235914044908
 20
6.648962203125003
 30
0.0
 40
0.7579186197916666
 41
0.0
 71
     1
 72
     1
  1
12.225mm
  7
Arial
 73
     1
 44
0.9673603504928806
  0
MTEXT
  5
13C
330
33
100
AcDbEntity
  8
Dimension
 62
     0
100
AcDbMText
 10
-22.09470838043423
 20
6.648960536458341
 30
0.0
 40
0.7579186197916666
 41
0.0
 71
     1
 72
     1
  1
%%p0.125mm
  7
Arial
 73
     1
 44
0.9673603504928806
  0
POINT
  5
13D
330
33
100
AcDbEntity
  8
Defpoints
 62
     0
370
     0
100
AcDbPoint
 10
-6.112499999999983
 20
-0.1125000000000114
 30
0.0
  0
POINT
  5
13E
330
33
100
AcDbEntity
  8
Defpoints
 62
     0
370
     0
100
AcDbPoint
 10
-6.112499999999983
 20
12.11250000000001
 30
0.0
  0
POINT
  5
13F
330
33
100
AcDbEntity
  8
Defpoints
 62
     0
370
     0
100
AcDbPoint
 10
-22.09999999999998
 20
12.11250000000001
 30
0.0
  0
ENDBLK
  5
202
330
33
100
AcDbEntity
  8
Dimension
100
AcDbBlockEnd
  0
BLOCK
  5
203
330
34
100
AcDbEntity
  8
Dimension
100
AcDbBlockBegin
  2
*D19
 70
     1
 10
0.0
 20
0.0
 30
0.0
  3
*D19
  1

  0
LINE
  5
142
330
34
100
AcDbEntity
  8
Dimension
  6
Continuous
 62
     0
370
    -2
100
AcDbLine
 10
-2.849999999999966
 20
3.403125000000017
 30
0.0
 11
-2.849999999999966
 21
-4.583640000000017
 31
0.0
  0
LINE
  5
143
330
34
100
AcDbEntity
  8
Dimension
  6
Continuous
 62
     0
370
    -2
100
AcDbLine
 10
3.350000000000023
 20
3.403125000000017
 30
0.0
 11
3.350000000000023
 21
-4.583640000000017
 31
0.0
  0
LINE
  5
144
330
34
100
AcDbEntity
  8
Dimension
  6
Continuous
 62
     0
370
    -2
100
AcDbLine
 10
-2.849999999999966
 20
-3.789890000000014
 30
0.0
 11
-7.745156834501387
 21
-3.789890000000014
 31
0.0
  0
SOLID
  5
145
330
34
100
AcDbEntity
  8
Dimension
 62
     0
370
    -2
100
AcDbTrace
 10
-2.849999999999966
 20
-3.789890000000014
 30
0.0
 11
-3.643749999999966
 21
-4.002574671492217
 31
0.0
 12
-3.643749999999966
 22
-3.57720532850781
 32
0.0
 13
-3.643749999999966
 23
-3.57720532850781
 33
0.0
  0
LINE
  5
146
330
34
100
AcDbEntity
  8
Dimension
  6
Continuous
 62
     0
370
    -2
100
AcDbLine
 10
3.350000000000023
 20
-3.789890000000014
 30
0.0
 11
5.255000000000024
 21
-3.789890000000014
 31
0.0
  0
SOLID
  5
147
330
34
100
AcDbEntity
  8
Dimension
 62
     0
370
    -2
100
AcDbTrace
 10
3.350000000000023
 20
-3.789890000000014
 30
0.0
 11
4.143750000000023
 21
-3.57720532850781
 31
0.0
 12
4.143750000000023
 22
-4.002574671492217
 32
0.0
 13
4.143750000000023
 23
-4.002574671492217
 33
0.0
  0
MTEXT
  5
149
330
34
100
AcDbEntity
  8
Dimension
 62
     0
100
AcDbMText
 10
-13.11090146499708
 20
-3.375927740351578
 30
0.0
 40
0.7579202490234376
 41
0.0
 71
     1
 72
     1
  1
6.2mm (x4)
  7
Arial
 73
     1
 44
0.9673603504928806
  0
POINT
  5
14A
330
34
100
AcDbEntity
  8
Defpoints
 62
     0
370
     0
100
AcDbPoint
 10
3.350000000000023
 20
3.800000000000011
 30
0.0
  0
POINT
  5
14B
330
34
100
AcDbEntity
  8
Defpoints
 62
     0
370
     0
100
AcDbPoint
 10
-2.849999999999966
 20
3.800000000000011
 30
0.0
  0
POINT
  5
14C
330
34
100
AcDbEntity
  8
Defpoints
 62
     0
370
     0
100
AcDbPoint
 10
-2.849999999999966
 20
-3.789890000000014
 30
0.0
  0
ENDBLK
  5
204
330
34
100
AcDbEntity
  8
Dimension
100
AcDbBlockEnd
  0
BLOCK
  5
205
330
35
100
AcDbEntity
  8
Dimension
100
AcDbBlockBegin
  2
*D20
 70
     1
 10
0.0
 20
0.0
 30
0.0
  3
*D20
  1

  0
LINE
  5
14F
330
35
100
AcDbEntity
  8
Dimension
  6
Continuous
 62
     0
370
    -2
100
AcDbLine
 10
1.250000000000057
 20
9.576250001182771
 30
0.0
 11
1.250000000000057
 21
16.18750000236552
 31
0.0
  0
LINE
  5
150
330
35
100
AcDbEntity
  8
Dimension
  6
Continuous
 62
     0
370
    -2
100
AcDbLine
 10
1.650000000000034
 20
9.576250001182771
 30
0.0
 11
1.650000000000034
 21
16.18750000236552
 31
0.0
  0
LINE
  5
151
330
35
100
AcDbEntity
  8
Dimension
  6
Continuous
 62
     0
370
    -2
100
AcDbLine
 10
1.650000000000034
 20
15.23499999999997
 30
0.0
 11
1.250000000000057
 21
15.23499999999997
 31
0.0
  0
LINE
  5
152
330
35
100
AcDbEntity
  8
Dimension
  6
Continuous
 62
     0
370
    -2
100
AcDbLine
 10
1.250000000000057
 20
15.23499999999997
 30
0.0
 11
-0.4999964983667553
 21
15.23499999999997
 31
0.0
  0
SOLID
  5
153
330
35
100
AcDbEntity
  8
Dimension
 62
     0
370
    -2
100
AcDbTrace
 10
1.250000000000057
 20
15.23499999999997
 30
0.0
 11
0.4562500000000569
 21
15.02231532850777
 31
0.0
 12
0.456250000000057
 22
15.44768467149217
 32
0.0
 13
0.456250000000057
 23
15.44768467149217
 33
0.0
  0
LINE
  5
154
330
35
100
AcDbEntity
  8
Dimension
  6
Continuous
 62
     0
370
    -2
100
AcDbLine
 10
1.650000000000034
 20
15.23499999999997
 30
0.0
 11
3.054843165485735
 21
15.23499999999997
 31
0.0
  0
SOLID
  5
155
330
35
100
AcDbEntity
  8
Dimension
 62
     0
370
    -2
100
AcDbTrace
 10
1.650000000000034
 20
15.23499999999997
 30
0.0
 11
2.443750000000034
 21
15.44768467149217
 31
0.0
 12
2.443750000000034
 22
15.02231532850777
 32
0.0
 13
2.443750000000034
 23
15.02231532850777
 33
0.0
  0
MTEXT
  5
157
330
35
100
AcDbEntity
  8
Dimension
 62
     0
100
AcDbMText
 10
3.054843165485735
 20
15.64896225964841
 30
0.0
 40
0.7579202490234376
 41
0.0
 71
     1
 72
     1
  1
0.4mm typ
  7
Arial
 73
     1
 44
0.9673603504928806
  0
POINT
  5
158
330
35
100
AcDbEntity
  8
Defpoints
 62
     0
370
     0
100
AcDbPoint
 10
1.650000000000034
 20
9.099999999999994
 30
0.0
  0
POINT
  5
159
330
35
100
AcDbEntity
  8
Defpoints
 62
     0
370
     0
100
AcDbPoint
 10
1.250000000000057
 20
9.099999999999994
 30
0.0
  0
POINT
  5
15A
330
35
100
AcDbEntity
  8
Defpoints
 62
     0
370
     0
100
AcDbPoint
 10
1.250000000000057
 20
15.23499999999997
 30
0.0
  0
ENDBLK
  5
206
330
35
100
AcDbEntity
  8
Dimension
100
AcDbBlockEnd
  0
BLOCK
  5
207
330
36
100
AcDbEntity
  8
Dimension
100
AcDbBlockBegin
  2
*D21
 70
     1
 10
0.0
 20
0.0
 30
0.0
  3
*D21
  1

  0
LINE
  5
15D
330
36
100
AcDbEntity
  8
Dimension
  6
Continuous
 62
     0
370
    -2
100
AcDbLine
 10
-2.049999999999983
 20
2.423749998817229
 30
0.0
 11
-2.049999999999983
 21
-3.317500002365549
 31
0.0
  0
LINE
  5
15E
330
36
100
AcDbEntity
  8
Dimension
  6
Continuous
 62
     0
370
    -2
100
AcDbLine
 10
2.550000000000011
 20
2.423749998817229
 30
0.0
 11
2.550000000000011
 21
-3.317500002365549
 31
0.0
  0
LINE
  5
15F
330
36
100
AcDbEntity
  8
Dimension
  6
Continuous
 62
     0
370
    -2
100
AcDbLine
 10
2.550000000000011
 20
-2.364999999999995
 30
0.0
 11
-2.049999999999983
 21
-2.364999999999995
 31
0.0
  0
LINE
  5
160
330
36
100
AcDbEntity
  8
Dimension
  6
Continuous
 62
     0
370
    -2
100
AcDbLine
 10
-2.049999999999983
 20
-2.364999999999995
 30
0.0
 11
-7.882359210683973
 21
-2.364999999999995
 31
0.0
  0
SOLID
  5
161
330
36
100
AcDbEntity
  8
Dimension
 62
     0
370
    -2
100
AcDbTrace
 10
-2.049999999999983
 20
-2.364999999999995
 30
0.0
 11
-2.843749999999983
 21
-2.577684671492198
 31
0.0
 12
-2.843749999999983
 22
-2.152315328507791
 32
0.0
 13
-2.843749999999983
 23
-2.152315328507791
 33
0.0
  0
LINE
  5
162
330
36
100
AcDbEntity
  8
Dimension
  6
Continuous
 62
     0
370
    -2
100
AcDbLine
 10
2.550000000000011
 20
-2.364999999999995
 30
0.0
 11
4.299996498366824
 21
-2.364999999999995
 31
0.0
  0
SOLID
  5
163
330
36
100
AcDbEntity
  8
Dimension
 62
     0
370
    -2
100
AcDbTrace
 10
2.550000000000011
 20
-2.364999999999995
 30
0.0
 11
3.343750000000012
 21
-2.152315328507791
 31
0.0
 12
3.343750000000012
 22
-2.577684671492198
 32
0.0
 13
3.343750000000012
 23
-2.577684671492198
 33
0.0
  0
MTEXT
  5
165
330
36
100
AcDbEntity
  8
Dimension
 62
     0
100
AcDbMText
 10
-12.95177079045183
 20
-1.951037740351559
 30
0.0
 40
0.7579202490234376
 41
0.0
 71
     1
 72
     1
  1
4.6mm(x4)
  7
Arial
 73
     1
 44
0.9673603504928806
  0
POINT
  5
166
330
36
100
AcDbEntity
  8
Defpoints
 62
     0
370
     0
100
AcDbPoint
 10
2.550000000000011
 20
2.900000000000006
 30
0.0
  0
POINT
  5
167
330
36
100
AcDbEntity
  8
Defpoints
 62
     0
370
     0
100
AcDbPoint
 10
-2.049999999999983
 20
2.900000000000006
 30
0.0
  0
POINT
  5
168
330
36
100
AcDbEntity
  8
Defpoints
 62
     0
370
     0
100
AcDbPoint
 10
-2.049999999999983
 20
-2.364999999999995
 30
0.0
  0
ENDBLK
  5
208
330
36
100
AcDbEntity
  8
Dimension
100
AcDbBlockEnd
  0
ENDSEC
  0
SECTION
  2
ENTITIES
  0
INSERT
  5
16A
330
1F
100
AcDbEntity
  8
None
 62
     7
100
AcDbBlockReference
  2
Group-2
 10
0.0
 20
0.0
 30
0.0
  0
MTEXT
  5
16C
330
1F
100
AcDbEntity
  8
None
 62
     7
100
AcDbMText
 10
-1.97513921451349
 20
-18.54004379166667
 30
0.0
 40
0.8421302083333332
 41
0.0
 71
     1
 72
     1
  1
MLF48G
  7
Arial
 73
     1
 44
0.9673603504928806
  0
LINE
  5
16D
330
1F
100
AcDbEntity
  8
None
  6
Continuous
 62
    12
370
     9
100
AcDbLine
 10
16.99233980725
 20
-4.855766098690481
 30
0.0
 11
16.98233980725001
 21
-2.333116367880109
 31
0.0
  0
LWPOLYLINE
  5
16E
330
1F
100
AcDbEntity
  8
None
  6
STYLE_11
 62
     7
370
     9
100
AcDbPolyline
 90
        4
 70
     1
 43
0.0
 10
-6.112499999999983
 20
12.11250000000001
 10
6.112499999999983
 20
12.11250000000001
 10
6.112499999999983
 20
-0.1125000000000114
 10
-6.112499999999983
 20
-0.1125000000000114
  0
CIRCLE
  5
174
102
{ACAD_REACTORS
330
175
102
}
330
1F
100
AcDbEntity
  8
None
  6
Continuous
 62
   180
370
     9
100
AcDbCircle
 10
-3.095339999999993
 20
11.09476000000001
 30
0.0
 40
0.2500014851955809
  0
HATCH
  5
175
330
1F
100
AcDbEntity
  8
None
  6
Continuous
 62
   180
370
     0
100
AcDbHatch
 10
0.0
 20
0.0
 30
0.0
210
0.0
220
0.0
230
1.0
  2
SOLID
 70
     1
 71
     1
 91
        1
 92
        1
 93
        1
 72
     2
 10
-3.095339999999993
 20
11.09476000000001
 40
0.2500014851955809
 50
0.0
 51
360.0
 73
     0
 97
        1
330
174
 75
     0
 76
     1
 98
        1
 10
0.0
 20
0.0
  0
CIRCLE
  5
177
330
1F
100
AcDbEntity
  8
None
  6
Continuous
 62
     7
370
     9
100
AcDbCircle
 10
-4.862499999999983
 20
10.86250000000001
 30
0.0
 40
0.875
  0
CIRCLE
  5
179
330
1F
100
AcDbEntity
  8
None
  6
Continuous
 62
     7
370
     9
100
AcDbCircle
 10
4.862499999999983
 20
1.137499999999989
 30
0.0
 40
0.875
  0
CIRCLE
  5
17B
330
1F
100
AcDbEntity
  8
None
  6
Continuous
 62
     7
370
     9
100
AcDbCircle
 10
-4.862499999999983
 20
1.137499999999989
 30
0.0
 40
0.875
  0
CIRCLE
  5
17D
330
1F
100
AcDbEntity
  8
None
  6
Continuous
 62
     7
370
     9
100
AcDbCircle
 10
4.862499999999983
 20
10.86250000000001
 30
0.0
 40
0.875
  0
CIRCLE
  5
17F
330
1F
100
AcDbEntity
  8
None
  6
Continuous
 62
     7
370
     9
100
AcDbCircle
 10
4.862499999999983
 20
8.862500000000011
 30
0.0
 40
0.4250000000000114
  0
CIRCLE
  5
181
330
1F
100
AcDbEntity
  8
None
  6
Continuous
 62
     7
370
     9
100
AcDbCircle
 10
-4.862499999999983
 20
4.137499999999989
 30
0.0
 40
0.4250000000000114
  0
DIMENSION
  5
182
330
1F
100
AcDbEntity
  8
Dimension
  6
Continuous
 62
    12
370
     9
100
AcDbDimension
  2
*D7
 10
-6.112499999999983
 20
-9.364999999999997
 30
0.0
 11
0.0052916703465948
 21
-9.364999999999997
 31
0.0
 70
    32
 71
     5
 42
-1.0
  3
IE Standard
100
AcDbAlignedDimension
 13
6.112499999999983
 23
-0.1125000000000114
 33
0.0
 14
-6.112499999999983
 24
-0.1125000000000114
 34
0.0
100
AcDbRotatedDimension
1001
ACAD
1000
DSTYLE
1002
{
1070
   271
1070
     3
1070
   340
1005
37
1070
    71
1070
     1
1070
    47
1040
0.125
1070
    48
1040
0.125
1070
   147
1040
0.09921875
1002
}
  0
DIMENSION
  5
183
330
1F
100
AcDbEntity
  8
Dimension
  6
Continuous
 62
    12
370
     9
100
AcDbDimension
  2
*D8
 10
-9.816159999999982
 20
1.137499999999989
 30
0.0
 11
-9.816159999999982
 21
2.550110000000011
 31
0.0
 70
    32
 71
     5
 42
-1.0
  3
IE Standard
100
AcDbAlignedDimension
 13
-4.862499999999983
 23
4.137499999999989
 33
0.0
 14
-4.862499999999983
 24
1.137499999999989
 34
0.0
 50
90.0
100
AcDbRotatedDimension
1001
ACAD
1000
DSTYLE
1002
{
1070
   271
1070
     2
1070
   340
1005
37
1070
   147
1040
0.09921875
1002
}
  0
DIMENSION
  5
184
330
1F
100
AcDbEntity
  8
Dimension
  6
Continuous
 62
    12
370
     9
100
AcDbDimension
  2
*D9
 10
12.38112984718439
 20
10.86250000000001
 30
0.0
 11
12.38112984718439
 21
9.862500000000011
 31
0.0
 70
    32
 71
     5
 42
-1.0
  3
IE Standard
100
AcDbAlignedDimension
 13
4.862499999999983
 23
8.862500000000011
 33
0.0
 14
4.862499999999983
 24
10.86250000000001
 34
0.0
 50
90.0
100
AcDbRotatedDimension
1001
ACAD
1000
DSTYLE
1002
{
1070
   271
1070
     2
1070
   340
1005
37
1070
   147
1040
0.09921875
1002
}
  0
DIMENSION
  5
185
330
1F
100
AcDbEntity
  8
Dimension
  6
Continuous
 62
    12
370
     9
100
AcDbDimension
  2
*D10
 10
-6.112499999999983
 20
16.35011000000001
 30
0.0
 11
-9.175769999999982
 21
16.35011000000001
 31
0.0
 70
    32
 71
     5
 42
-1.0
  3
IE Standard
100
AcDbAlignedDimension
 13
-4.862499999999983
 23
10.86250000000001
 33
0.0
 14
-6.112499999999983
 24
12.11250000000001
 34
0.0
100
AcDbRotatedDimension
1001
ACAD
1000
DSTYLE
1002
{
1070
   271
1070
     3
1070
   340
1005
37
1070
    71
1070
     1
1070
    47
1040
0.125
1070
    48
1040
0.125
1070
     3
1000
<>mm (x4)
1070
   174
1070
     0
1070
   147
1040
0.09921875
1002
}
  0
DIMENSION
  5
186
330
1F
100
AcDbEntity
  8
Dimension
  6
Continuous
 62
    12
370
     9
100
AcDbDimension
  2
*D11
 10
-14.68028999999999
 20
12.11250000000001
 30
0.0
 11
-14.68028999999999
 21
14.72730260000002
 31
0.0
 70
    32
 71
     5
 42
-1.0
  3
IE Standard
100
AcDbAlignedDimension
 13
-4.862499999999983
 23
10.86250000000001
 33
0.0
 14
-6.112499999999983
 24
12.11250000000001
 34
0.0
 50
90.0
100
AcDbRotatedDimension
1001
ACAD
1000
DSTYLE
1002
{
1070
   271
1070
     3
1070
   340
1005
37
1070
    71
1070
     1
1070
    47
1040
0.125
1070
    48
1040
0.125
1070
     3
1000
<>mm (x4)
1070
   174
1070
     0
1070
   147
1040
0.09921875
1002
}
  0
DIMENSION
  5
187
330
1F
100
AcDbEntity
  8
Dimension
  6
Continuous
 62
    12
370
     9
100
AcDbDimension
  2
*D12
 10
-4.862499999999983
 20
-6.064999999999997
 30
0.0
 11
0.0052916703465948
 21
-6.064999999999997
 31
0.0
 70
    32
 71
     5
 42
-1.0
  3
IE Standard
100
AcDbAlignedDimension
 13
4.862499999999983
 23
1.137499999999989
 33
0.0
 14
-4.862499999999983
 24
1.137499999999989
 34
0.0
100
AcDbRotatedDimension
1001
ACAD
1000
DSTYLE
1002
{
1070
   271
1070
     3
1070
   340
1005
37
1070
     3
1000
<>mm (x4)
1070
   147
1040
0.09921875
1002
}
  0
DIMENSION
  5
188
330
1F
100
AcDbEntity
  8
Dimension
  6
Continuous
 62
    12
370
     9
100
AcDbDimension
  2
*D13
 10
4.513527211718866
 20
8.619804170210557
 30
0.0
 11
14.27984016747819
 21
14.33499999999985
 31
0.0
 70
    35
 71
     5
 42
-1.0
  3
IE Standard
100
AcDbDiametricDimension
 15
5.212692788281117
 25
9.103195829789414
 35
0.0
 40
9.199648890411815
1001
ACAD
1000
DSTYLE
1002
{
1070
   271
1070
     3
1070
   172
1070
     0
1070
   289
1070
     0
1070
   342
1005
4E
1070
   340
1005
37
1070
    75
1070
     1
1070
    76
1070
     1
1070
    71
1070
     1
1070
    47
1040
0.025
1070
    48
1040
0.025
1070
     3
1000
mm (x2)
1070
   174
1070
     0
1070
   147
1040
0.09921875
1002
}
  0
LINE
  5
189
330
1F
100
AcDbEntity
  8
None
  6
Continuous
 62
    12
370
     9
100
AcDbLine
 10
-10.99999999999997
 20
22.04319999999998
 30
0.0
 11
-14.96709000000001
 21
22.04319999999998
 31
0.0
  0
LINE
  5
18A
330
1F
100
AcDbEntity
  8
None
  6
Continuous
 62
    12
370
     9
100
AcDbLine
 10
-3.220339999999993
 20
11.31126999999998
 30
0.0
 11
-10.99999999999997
 21
22.04319999999998
 31
0.0
  0
SOLID
  5
18B
330
1F
100
AcDbEntity
  8
None
 62
    12
370
     9
100
AcDbTrace
 10
-3.220339999999993
 20
11.31126999999998
 30
0.0
 11
-3.623304387163952
 21
11.64939726864684
 31
0.0
 12
-3.400253761780981
 22
11.80557899794238
 32
0.0
 13
-3.400253761780981
 23
11.80557899794238
 33
0.0
  0
MTEXT
  5
18D
330
1F
100
AcDbEntity
  8
None
 62
    12
100
AcDbMText
 10
15.46995000000001
 20
13.3029196716304
 30
0.0
 40
0.7579186197916666
 41
0.0
 71
     1
 72
     1
  1
{\C226;\lNon plated alignment hole}
  7
Arial
 73
     1
 44
0.9673603504928806
  0
DIMENSION
  5
18E
330
1F
100
AcDbEntity
  8
Dimension
  6
Continuous
 62
    12
370
     9
100
AcDbDimension
  2
*D14
 10
2.59688491332426
 20
5.38452695742177
 30
0.0
 11
18.92110121972907
 21
-0.8649999999997577
 31
0.0
 70
    35
  1
0.6 x 0.2mm
 71
     5
 42
-1.0
  3
IE Standard
100
AcDbDiametricDimension
 15
3.283043109941332
 25
5.095259505372269
 35
0.0
 40
15.3430591884245
1001
ACAD
1000
DSTYLE
1002
{
1070
   271
1070
     4
1070
   172
1070
     0
1070
   289
1070
     0
1070
   342
1005
4E
1070
   340
1005
37
1070
    75
1070
     1
1070
    76
1070
     1
1070
   174
1070
     0
1070
   147
1040
0.09921875
1002
}
  0
MTEXT
  5
190
330
1F
100
AcDbEntity
  8
None
 62
    12
100
AcDbMText
 10
-22.80931000000001
 20
22.45716161979166
 30
0.0
 40
0.7579186197916666
 41
0.0
 71
     1
 72
     1
  1
{\C226;\lOrientation Mark}
  7
New Century Schlbk
 73
     1
 44
0.9673603504928806
  0
MTEXT
  5
192
330
1F
100
AcDbEntity
  8
None
 62
    12
100
AcDbMText
 10
26.19330903506845
 20
-0.4510386302083369
 30
0.0
 40
0.7579186197916666
 41
0.0
 71
     1
 72
     1
  1
{\C226;\lpad (x 48)}
  7
Arial
 73
     1
 44
0.9673603504928806
  0
DIMENSION
  5
193
330
1F
100
AcDbEntity
  8
Dimension
  6
Continuous
 62
    12
370
     9
100
AcDbDimension
  2
*D15
 10
-4.862499999999983
 20
19.60936000000001
 30
0.0
 11
0.0857000000000454
 21
19.60936000000001
 31
0.0
 70
    32
 71
     5
 42
-1.0
  3
IE Standard
100
AcDbAlignedDimension
 13
-2.049999999999955
 23
9.099999999999994
 33
0.0
 14
-4.862499999999983
 24
10.86250000000001
 34
0.0
100
AcDbRotatedDimension
1001
ACAD
1000
DSTYLE
1002
{
1070
   271
1070
     4
1070
   340
1005
37
1070
     3
1000
<>mm*
1070
   174
1070
     0
1070
   147
1040
0.09921875
1002
}
  0
DIMENSION
  5
194
330
1F
100
AcDbEntity
  8
Dimension
  6
Continuous
 62
    12
370
     9
100
AcDbDimension
  2
*D16
 10
-10.81615999999998
 20
10.86250000000001
 30
0.0
 11
-10.81615999999998
 21
9.956023788452152
 31
0.0
 70
    32
 71
     5
 42
-1.0
  3
IE Standard
100
AcDbAlignedDimension
 13
-1.94999999999996
 23
9.099999999999994
 33
0.0
 14
-4.862499999999983
 24
10.86250000000001
 34
0.0
 50
90.0
100
AcDbRotatedDimension
1001
ACAD
1000
DSTYLE
1002
{
1070
   271
1070
     4
1070
   340
1005
37
1070
   147
1040
0.09921875
1002
}
  0
MTEXT
  5
196
330
1F
100
AcDbEntity
  8
None
 62
    12
100
AcDbMText
 10
11.31211980725001
 20
-5.050344478898814
 30
0.0
 40
0.7579186197916666
 41
0.0
 71
     1
 72
     1
  1
{\C226;\l4.1 mm x 4.1 mm thermal /GND pad}
  7
Arial
 73
     1
 44
0.9673603504928806
  0
MTEXT
  5
198
330
1F
100
AcDbEntity
  8
None
 62
    12
100
AcDbMText
 10
15.30368
 20
17.13839161979165
 30
0.0
 40
0.7579186197916666
 41
0.0
 71
     1
 72
     1
  1
{\C226;\lNon plated mounting hole}
  7
Arial
 73
     1
 44
0.9673603504928806
  0
DIMENSION
  5
199
330
1F
100
AcDbEntity
  8
Dimension
  6
Continuous
 62
    12
370
     9
100
AcDbDimension
  2
*D17
 10
4.23420224845151
 20
10.35924366829707
 30
0.0
 11
15.12984016747802
 21
17.88500000000005
 31
0.0
 70
    35
  1
(x4)
 71
     5
 42
-1.0
  3
IE Standard
100
AcDbDiametricDimension
 15
5.490797751548513
 25
11.3657563317029
 35
0.0
 40
10.42806781033635
1001
ACAD
1000
DSTYLE
1002
{
1070
   271
1070
     3
1070
   172
1070
     0
1070
   289
1070
     0
1070
   342
1005
4E
1070
   340
1005
37
1070
    75
1070
     1
1070
    76
1070
     1
1070
    71
1070
     1
1070
    47
1040
0.05
1070
    48
1040
0.05
1070
   174
1070
     0
1070
   147
1040
0.09921875
1002
}
  0
DIMENSION
  5
19A
330
1F
100
AcDbEntity
  8
Dimension
  6
Continuous
 62
    12
370
     9
100
AcDbDimension
  2
*D18
 10
-22.09999999999998
 20
12.11250000000001
 30
0.0
 11
-22.09999999999998
 21
6.235000000000004
 31
0.0
 70
    32
 71
     5
 42
-1.0
  3
ASME
100
AcDbAlignedDimension
 13
-6.112499999999983
 23
-0.1125000000000114
 33
0.0
 14
-6.112499999999983
 24
12.11250000000001
 34
0.0
 50
90.0
100
AcDbRotatedDimension
1001
ACAD
1000
DSTYLE
1002
{
1070
   271
1070
     3
1070
   340
1005
37
1070
    71
1070
     1
1070
    47
1040
0.125
1070
    48
1040
0.125
1070
   147
1040
0.09921875
1002
}
  0
MTEXT
  5
19C
330
1F
100
AcDbEntity
  8
None
 62
    12
100
AcDbMText
 10
-26.27423316549883
 20
5.148661869791646
 30
0.0
 40
0.7579186197916666
 41
8.42207
 71
     1
 72
     1
  1
{\C226;\lSocket Body Size}
  7
New Century Schlbk
 73
     1
 44
0.9673603504928806
  0
MTEXT
  5
19E
330
1F
100
AcDbEntity
  8
None
 62
    12
100
AcDbMText
 10
-3.966829999999987
 20
-10.57811838020834
 30
0.0
 40
0.7579186197916666
 41
8.42207
 71
     1
 72
     1
  1
{\C226;\lSocket Body Size}
  7
New Century Schlbk
 73
     1
 44
0.9673603504928806
  0
LINE
  5
19F
330
1F
100
AcDbEntity
  8
None
  6
STYLE_06
 62
    40
370
     9
100
AcDbLine
 10
0.0000000000000284
 20
-2.5
 30
0.0
 11
0.0000000000000284
 21
14.5
 31
0.0
  0
LINE
  5
1A0
330
1F
100
AcDbEntity
  8
None
  6
STYLE_06
 62
    40
370
     9
100
AcDbLine
 10
8.500000000000028
 20
6.0
 30
0.0
 11
-8.499999999999972
 21
6.0
 31
0.0
  0
DIMENSION
  5
1A1
330
1F
100
AcDbEntity
  8
Dimension
  6
Continuous
 62
    12
370
     9
100
AcDbDimension
  2
*D19
 10
-2.849999999999966
 20
-3.789890000000014
 30
0.0
 11
-7.745156834501381
 21
-3.789890000000014
 31
0.0
 70
    32
 71
     5
 42
-1.0
  3
ASME
100
AcDbAlignedDimension
 13
3.350000000000023
 23
3.800000000000011
 33
0.0
 14
-2.849999999999966
 24
3.800000000000011
 34
0.0
100
AcDbRotatedDimension
1001
ACAD
1000
DSTYLE
1002
{
1070
   271
1070
     2
1070
   340
1005
37
1070
   140
1040
0.7579202490234376
1070
     3
1000
<>mm (x4)
1070
   174
1070
     0
1070
   147
1040
0.09921875
1002
}
  0
DIMENSION
  5
1A2
330
1F
100
AcDbEntity
  8
Dimension
  6
Continuous
 62
    12
370
     5
100
AcDbDimension
  2
*D20
 10
1.250000000000057
 20
15.23499999999997
 30
0.0
 11
3.054843165485736
 21
15.23499999999997
 31
0.0
 70
    32
 71
     5
 42
-1.0
  3
IE Standard
100
AcDbAlignedDimension
 13
1.650000000000034
 23
9.099999999999994
 33
0.0
 14
1.250000000000057
 24
9.099999999999994
 34
0.0
100
AcDbRotatedDimension
1001
ACAD
1000
DSTYLE
1002
{
1070
   271
1070
     2
1070
   340
1005
37
1070
   140
1040
0.7579202490234376
1070
     3
1000
<>mm typ
1070
   174
1070
     0
1070
   147
1040
0.09921875
1002
}
  0
LINE
  5
1A3
330
1F
100
AcDbEntity
  8
None
  6
Continuous
 62
    12
370
     9
100
AcDbLine
 10
16.98233980725001
 20
-2.333116367880109
 30
0.0
 11
1.682339807249974
 21
4.204053632119894
 31
0.0
  0
SOLID
  5
1A4
330
1F
100
AcDbEntity
  8
None
 62
    12
370
     9
100
AcDbTrace
 10
1.682339807249974
 20
4.204053632119894
 30
0.0
 11
2.493973163570207
 21
4.075503537230389
 31
0.0
 12
2.32095986493737
 22
3.686909306126566
 32
0.0
 13
2.32095986493737
 23
3.686909306126566
 33
0.0
  0
DIMENSION
  5
1A5
330
1F
100
AcDbEntity
  8
Dimension
  6
Continuous
 62
    12
370
     5
100
AcDbDimension
  2
*D21
 10
-2.049999999999983
 20
-2.364999999999995
 30
0.0
 11
-7.882359210683973
 21
-2.364999999999995
 31
0.0
 70
    32
 71
     5
 42
-1.0
  3
IE Standard
100
AcDbAlignedDimension
 13
2.550000000000011
 23
2.900000000000006
 33
0.0
 14
-2.049999999999983
 24
2.900000000000006
 34
0.0
100
AcDbRotatedDimension
1001
ACAD
1000
DSTYLE
1002
{
1070
   271
1070
     4
1070
   340
1005
37
1070
   140
1040
0.7579202490234376
1070
     3
1000
<>mm(x4)
1070
   174
1070
     0
1070
   147
1040
0.09921875
1002
}
  0
ENDSEC
  0
SECTION
  2
OBJECTS
  0
DICTIONARY
  5
C
330
0
100
AcDbDictionary
281
     1
  3
ACAD_COLOR
350
6C
  3
ACAD_GROUP
350
D
  3
ACAD_LAYOUT
350
1A
  3
ACAD_MATERIAL
350
6B
  3
ACAD_MLEADERSTYLE
350
22E
  3
ACAD_MLINESTYLE
350
17
  3
ACAD_PLOTSETTINGS
350
19
  3
ACAD_PLOTSTYLENAME
350
E
  3
ACAD_SCALELIST
350
99
  3
ACAD_TABLESTYLE
350
92
  3
ACAD_WIPEOUT_VARS
350
1DB
  3
ACDBHEADERROUNDTRIPXREC
350
230
  3
AcDbVariableDictionary
350
59
  3
DWGPROPS
350
233
  0
DICTIONARY
  5
22D
330
1F
100
AcDbDictionary
280
     1
281
     1
  0
DICTIONARY
  5
6C
102
{ACAD_REACTORS
330
C
102
}
330
C
100
AcDbDictionary
281
     1
  0
DICTIONARY
  5
D
102
{ACAD_REACTORS
330
C
102
}
330
C
100
AcDbDictionary
281
     1
  0
DICTIONARY
  5
1A
102
{ACAD_REACTORS
330
C
102
}
330
C
100
AcDbDictionary
281
     1
  3
Layout1
350
74
  3
Model
350
22
  0
DICTIONARY
  5
6B
102
{ACAD_REACTORS
330
C
102
}
330
C
100
AcDbDictionary
281
     1
  0
DICTIONARY
  5
22E
102
{ACAD_REACTORS
330
C
102
}
330
C
100
AcDbDictionary
281
     1
  0
DICTIONARY
  5
17
102
{ACAD_REACTORS
330
C
102
}
330
C
100
AcDbDictionary
281
     1
  3
Standard
350
18
  0
DICTIONARY
  5
19
102
{ACAD_REACTORS
330
C
102
}
330
C
100
AcDbDictionary
281
     1
  0
ACDBDICTIONARYWDFLT
  5
E
102
{ACAD_REACTORS
330
C
102
}
330
C
100
AcDbDictionary
281
     1
  3
Normal
350
F
100
AcDbDictionaryWithDefault
340
F
  0
DICTIONARY
  5
99
102
{ACAD_REACTORS
330
C
102
}
330
C
100
AcDbDictionary
281
     1
  3
A0
350
9A
  3
A1
350
9B
  3
A2
350
9C
  3
A3
350
9D
  3
A4
350
9E
  3
A5
350
9F
  3
A6
350
A0
  3
A7
350
A1
  3
A8
350
A2
  3
A9
350
A3
  3
B0
350
A4
  3
B1
350
A5
  3
B2
350
A6
  3
B3
350
A7
  3
B4
350
A8
  3
B5
350
A9
  3
B6
350
AA
  3
B7
350
AB
  3
B8
350
AC
  3
B9
350
AD
  3
C0
350
AE
  3
C1
350
AF
  3
C2
350
B0
  3
C3
350
B1
  3
C4
350
B2
  3
C5
350
B3
  3
C6
350
B4
  3
C7
350
B5
  3
C8
350
B6
  3
C9
350
B7
  3
D0
350
B8
  3
D1
350
B9
  3
D2
350
BA
  0
DICTIONARY
  5
92
102
{ACAD_REACTORS
330
C
102
}
330
C
100
AcDbDictionary
281
     1
  0
WIPEOUTVARIABLES
  5
1DB
102
{ACAD_REACTORS
330
C
102
}
330
C
100
AcDbWipeoutVariables
 70
     0
  0
DICTIONARY
  5
230
102
{ACAD_REACTORS
330
C
102
}
330
C
100
AcDbDictionary
281
     1
  3
COLORDICT
350
231
  3
MATERIALDICT
350
232
  0
DICTIONARY
  5
59
102
{ACAD_REACTORS
330
C
102
}
330
C
100
AcDbDictionary
281
     1
  3
CANNOSCALE
350
22F
  3
CTABLESTYLE
350
98
  3
DIMASSOC
350
1C9
  3
HIDETEXT
350
5E
  0
XRECORD
  5
233
102
{ACAD_REACTORS
330
C
102
}
330
C
100
AcDbXrecord
280
     1
  1
DWGPROPS COOKIE
  2

  3

  4

  6

  7

  8
umer
  9

300
=
301
=
302
=
303
=
304
=
305
=
306
=
307
=
308
=
309
=
 40
0.0
 41
2453353.717125822
 42
2447893.042372697
  1

 90
        0
  0
LAYOUT
  5
74
102
{ACAD_REACTORS
330
1A
102
}
330
1A
100
AcDbPlotSettings
  1

  2
none_device
  4
ISO_C5_(229.00_x_162.00_MM)
  6

 40
0.0
 41
0.0
 42
0.0
 43
0.0
 44
229.0
 45
162.0
 46
0.0
 47
0.0
 48
0.0
 49
0.0
140
0.0
141
0.0
142
1.0
143
1.0
 70
   544
 72
     1
 73
     0
 74
     0
  7

 75
    16
147
1.0
148
0.0
149
0.0
100
AcDbLayout
  1
Layout1
 70
     0
 71
     0
 10
0.0
 20
0.0
 11
0.0
 21
0.0
 12
0.0
 22
0.0
 32
0.0
 14
0.0
 24
0.0
 34
0.0
 15
0.0
 25
0.0
 35
0.0
146
0.0
 13
0.0
 23
0.0
 33
0.0
 16
1.0
 26
0.0
 36
0.0
 17
0.0
 27
1.0
 37
0.0
 76
     0
330
73
  0
LAYOUT
  5
22
102
{ACAD_REACTORS
330
1A
102
}
330
1A
100
AcDbPlotSettings
  1

  2
none_device
  4
ISO_C5_(229.00_x_162.00_MM)
  6

 40
0.0
 41
0.0
 42
0.0
 43
0.0
 44
229.0
 45
162.0
 46
0.0
 47
0.0
 48
0.0
 49
0.0
140
0.0
141
0.0
142
1.0
143
1.0
 70
 11936
 72
     1
 73
     0
 74
     0
  7

 75
     0
147
2.138957121644655
148
0.0
149
0.0
100
AcDbLayout
  1
Model
 70
     1
 71
     0
 10
0.0
 20
0.0
 11
0.0
 21
0.0
 12
0.0
 22
0.0
 32
0.0
 14
-27.01706865462811
 24
-19.39653501992383
 34
0.0
 15
30.92228694450527
 25
22.45716161979166
 35
0.0
146
0.0
 13
0.0
 23
0.0
 33
0.0
 16
1.0
 26
0.0
 36
0.0
 17
0.0
 27
1.0
 37
0.0
 76
     0
330
1F
331
97
  0
MLINESTYLE
  5
18
102
{ACAD_REACTORS
330
17
102
}
330
17
100
AcDbMlineStyle
  2
Standard
 70
     0
  3

 62
     0
 51
90.0
 52
90.0
 71
     2
 49
0.5
 62
   256
  6
BYLAYER
 49
-0.5
 62
   256
  6
BYLAYER
  0
ACDBPLACEHOLDER
  5
F
102
{ACAD_REACTORS
330
E
102
}
330
E
  0
SCALE
  5
9A
102
{ACAD_REACTORS
330
99
102
}
330
99
100
AcDbScale
 70
     0
300
1:1
140
1.0
141
1.0
290
     1
  0
SCALE
  5
9B
102
{ACAD_REACTORS
330
99
102
}
330
99
100
AcDbScale
 70
     0
300
1:2
140
1.0
141
2.0
290
     0
  0
SCALE
  5
9C
102
{ACAD_REACTORS
330
99
102
}
330
99
100
AcDbScale
 70
     0
300
1:4
140
1.0
141
4.0
290
     0
  0
SCALE
  5
9D
102
{ACAD_REACTORS
330
99
102
}
330
99
100
AcDbScale
 70
     0
300
1:5
140
1.0
141
5.0
290
     0
  0
SCALE
  5
9E
102
{ACAD_REACTORS
330
99
102
}
330
99
100
AcDbScale
 70
     0
300
1:8
140
1.0
141
8.0
290
     0
  0
SCALE
  5
9F
102
{ACAD_REACTORS
330
99
102
}
330
99
100
AcDbScale
 70
     0
300
1:10
140
1.0
141
10.0
290
     0
  0
SCALE
  5
A0
102
{ACAD_REACTORS
330
99
102
}
330
99
100
AcDbScale
 70
     0
300
1:16
140
1.0
141
16.0
290
     0
  0
SCALE
  5
A1
102
{ACAD_REACTORS
330
99
102
}
330
99
100
AcDbScale
 70
     0
300
1:20
140
1.0
141
20.0
290
     0
  0
SCALE
  5
A2
102
{ACAD_REACTORS
330
99
102
}
330
99
100
AcDbScale
 70
     0
300
1:30
140
1.0
141
30.0
290
     0
  0
SCALE
  5
A3
102
{ACAD_REACTORS
330
99
102
}
330
99
100
AcDbScale
 70
     0
300
1:40
140
1.0
141
40.0
290
     0
  0
SCALE
  5
A4
102
{ACAD_REACTORS
330
99
102
}
330
99
100
AcDbScale
 70
     0
300
1:50
140
1.0
141
50.0
290
     0
  0
SCALE
  5
A5
102
{ACAD_REACTORS
330
99
102
}
330
99
100
AcDbScale
 70
     0
300
1:100
140
1.0
141
100.0
290
     0
  0
SCALE
  5
A6
102
{ACAD_REACTORS
330
99
102
}
330
99
100
AcDbScale
 70
     0
300
2:1
140
2.0
141
1.0
290
     0
  0
SCALE
  5
A7
102
{ACAD_REACTORS
330
99
102
}
330
99
100
AcDbScale
 70
     0
300
4:1
140
4.0
141
1.0
290
     0
  0
SCALE
  5
A8
102
{ACAD_REACTORS
330
99
102
}
330
99
100
AcDbScale
 70
     0
300
8:1
140
8.0
141
1.0
290
     0
  0
SCALE
  5
A9
102
{ACAD_REACTORS
330
99
102
}
330
99
100
AcDbScale
 70
     0
300
10:1
140
10.0
141
1.0
290
     0
  0
SCALE
  5
AA
102
{ACAD_REACTORS
330
99
102
}
330
99
100
AcDbScale
 70
     0
300
100:1
140
100.0
141
1.0
290
     0
  0
SCALE
  5
AB
102
{ACAD_REACTORS
330
99
102
}
330
99
100
AcDbScale
 70
     0
300
1/128" = 1'-0"
140
0.0078125
141
12.0
290
     0
  0
SCALE
  5
AC
102
{ACAD_REACTORS
330
99
102
}
330
99
100
AcDbScale
 70
     0
300
1/64" = 1'-0"
140
0.015625
141
12.0
290
     0
  0
SCALE
  5
AD
102
{ACAD_REACTORS
330
99
102
}
330
99
100
AcDbScale
 70
     0
300
1/32" = 1'-0"
140
0.03125
141
12.0
290
     0
  0
SCALE
  5
AE
102
{ACAD_REACTORS
330
99
102
}
330
99
100
AcDbScale
 70
     0
300
1/16" = 1'-0"
140
0.0625
141
12.0
290
     0
  0
SCALE
  5
AF
102
{ACAD_REACTORS
330
99
102
}
330
99
100
AcDbScale
 70
     0
300
3/32" = 1'-0"
140
0.09375
141
12.0
290
     0
  0
SCALE
  5
B0
102
{ACAD_REACTORS
330
99
102
}
330
99
100
AcDbScale
 70
     0
300
1/8" = 1'-0"
140
0.125
141
12.0
290
     0
  0
SCALE
  5
B1
102
{ACAD_REACTORS
330
99
102
}
330
99
100
AcDbScale
 70
     0
300
3/16" = 1'-0"
140
0.1875
141
12.0
290
     0
  0
SCALE
  5
B2
102
{ACAD_REACTORS
330
99
102
}
330
99
100
AcDbScale
 70
     0
300
1/4" = 1'-0"
140
0.25
141
12.0
290
     0
  0
SCALE
  5
B3
102
{ACAD_REACTORS
330
99
102
}
330
99
100
AcDbScale
 70
     0
300
3/8" = 1'-0"
140
0.375
141
12.0
290
     0
  0
SCALE
  5
B4
102
{ACAD_REACTORS
330
99
102
}
330
99
100
AcDbScale
 70
     0
300
1/2" = 1'-0"
140
0.5
141
12.0
290
     0
  0
SCALE
  5
B5
102
{ACAD_REACTORS
330
99
102
}
330
99
100
AcDbScale
 70
     0
300
3/4" = 1'-0"
140
0.75
141
12.0
290
     0
  0
SCALE
  5
B6
102
{ACAD_REACTORS
330
99
102
}
330
99
100
AcDbScale
 70
     0
300
1" = 1'-0"
140
1.0
141
12.0
290
     0
  0
SCALE
  5
B7
102
{ACAD_REACTORS
330
99
102
}
330
99
100
AcDbScale
 70
     0
300
1-1/2" = 1'-0"
140
1.5
141
12.0
290
     0
  0
SCALE
  5
B8
102
{ACAD_REACTORS
330
99
102
}
330
99
100
AcDbScale
 70
     0
300
3" = 1'-0"
140
3.0
141
12.0
290
     0
  0
SCALE
  5
B9
102
{ACAD_REACTORS
330
99
102
}
330
99
100
AcDbScale
 70
     0
300
6" = 1'-0"
140
6.0
141
12.0
290
     0
  0
SCALE
  5
BA
102
{ACAD_REACTORS
330
99
102
}
330
99
100
AcDbScale
 70
     0
300
1'-0" = 1'-0"
140
12.0
141
12.0
290
     0
  0
XRECORD
  5
231
102
{ACAD_REACTORS
330
230
102
}
330
230
100
AcDbXrecord
280
     1
340
6C
  0
XRECORD
  5
232
102
{ACAD_REACTORS
330
230
102
}
330
230
100
AcDbXrecord
280
     1
340
6B
  0
DICTIONARYVAR
  5
22F
102
{ACAD_REACTORS
330
59
102
}
330
59
100
DictionaryVariables
280
     0
  1
1:1
  0
DICTIONARYVAR
  5
98
102
{ACAD_REACTORS
330
59
102
}
330
59
100
DictionaryVariables
280
     0
  1
Standard
  0
DICTIONARYVAR
  5
1C9
102
{ACAD_REACTORS
330
59
102
}
330
59
100
DictionaryVariables
280
     0
  1
2
  0
DICTIONARYVAR
  5
5E
102
{ACAD_REACTORS
330
59
102
}
330
59
100
DictionaryVariables
280
     0
  1
1
  0
ENDSEC
  0
EOF
