  0
SECTION
  2
HEADER
  9
$ACADVER
  1
AC1015
  9
$ACADMAINTVER
 70
               6
  9
$DWGCODEPAGE
  3
ANSI_1252
  9
$INSBASE
 10
0.0
 20
0.0
 30
0.0
  9
$EXTMIN
 10
-34.0
 20
-14.824367999999993
 30
-0.34925
  9
$EXTMAX
 10
32.294334090622371
 20
23.999999999999993
 30
0.34925
  9
$LIMMIN
 10
0.0
 20
0.0
  9
$LIMMAX
 10
0.0
 20
0.0
  9
$ORTHOMODE
 70
               0
  9
$REGENMODE
 70
               1
  9
$FILLMODE
 70
               1
  9
$QTEXTMODE
 70
               0
  9
$MIRRTEXT
 70
               1
  9
$LTSCALE
 40
1.27
  9
$ATTMODE
 70
               1
  9
$TEXTSIZE
 40
0.2
  9
$TRACEWID
 40
1.0
  9
$TEXTSTYLE
  7
Standard
  9
$CLAYER
  8
None
  9
$CELTYPE
  6
Continuous
  9
$CECOLOR
 62
             256
  9
$CELTSCALE
 40
1.0
  9
$DISPSILH
 70
               0
  9
$DIMSCALE
 40
1.0
  9
$DIMASZ
 40
0.5612060546875
  9
$DIMEXO
 40
0.396875
  9
$DIMDLI
 40
10.16
  9
$DIMRND
 40
0.0
  9
$DIMDLE
 40
1.5874999999999999
  9
$DIMEXE
 40
0.79375
  9
$DIMTP
 40
0.0
  9
$DIMTM
 40
0.0
  9
$DIMTXT
 40
0.7579186197916666
  9
$DIMCEN
 40
0.0
  9
$DIMTSZ
 40
0.0
  9
$DIMTOL
 70
               0
  9
$DIMLIM
 70
               0
  9
$DIMTIH
 70
               0
  9
$DIMTOH
 70
               0
  9
$DIMSE1
 70
               0
  9
$DIMSE2
 70
               0
  9
$DIMTAD
 70
               1
  9
$DIMZIN
 70
              11
  9
$DIMBLK
  1
VW_SLASH
  9
$DIMASO
 70
               1
  9
$DIMSHO
 70
               1
  9
$DIMPOST
  1
<>mm
  9
$DIMAPOST
  1
[]
  9
$DIMALT
 70
               0
  9
$DIMALTD
 70
               1
  9
$DIMALTF
 40
1.0
  9
$DIMLFAC
 40
1.0
  9
$DIMTOFL
 70
               1
  9
$DIMTVP
 40
0.0
  9
$DIMTIX
 70
               1
  9
$DIMSOXD
 70
               0
  9
$DIMSAH
 70
               0
  9
$DIMBLK1
  1

  9
$DIMBLK2
  1

  9
$DIMSTYLE
  2
Arch
  9
$DIMCLRD
 70
               0
  9
$DIMCLRE
 70
               0
  9
$DIMCLRT
 70
               0
  9
$DIMTFAC
 40
1.0
  9
$DIMGAP
 40
1.5874999999999999
  9
$DIMJUST
 70
               0
  9
$DIMSD1
 70
               0
  9
$DIMSD2
 70
               0
  9
$DIMTOLJ
 70
               1
  9
$DIMTZIN
 70
              11
  9
$DIMALTZ
 70
              11
  9
$DIMALTTZ
 70
              11
  9
$DIMUPT
 70
               0
  9
$DIMDEC
 70
               1
  9
$DIMTDEC
 70
               1
  9
$DIMALTU
 70
               2
  9
$DIMALTTD
 70
               2
  9
$DIMTXSTY
  7
Helvetica
  9
$DIMAUNIT
 70
               0
  9
$DIMADEC
 70
               2
  9
$DIMALTRND
 40
0.0
  9
$DIMAZIN
 70
               0
  9
$DIMDSEP
 70
              46
  9
$DIMATFIT
 70
               0
  9
$DIMFRAC
 70
               2
  9
$DIMLDRBLK
  1

  9
$DIMLUNIT
 70
               2
  9
$DIMLWD
 70
              -2
  9
$DIMLWE
 70
              -2
  9
$DIMTMOVE
 70
               0
  9
$LUNITS
 70
               2
  9
$LUPREC
 70
               4
  9
$SKETCHINC
 40
0.1
  9
$FILLETRAD
 40
0.0
  9
$AUNITS
 70
               0
  9
$AUPREC
 70
               0
  9
$MENU
  1
acad
  9
$ELEVATION
 40
0.0
  9
$PELEVATION
 40
0.0
  9
$THICKNESS
 40
0.0
  9
$LIMCHECK
 70
               0
  9
$CHAMFERA
 40
0.0
  9
$CHAMFERB
 40
0.0
  9
$CHAMFERC
 40
0.0
  9
$CHAMFERD
 40
0.0
  9
$SKPOLY
 70
               0
  9
$TDCREATE
 40
2454966.637581019
  9
$TDUCREATE
 40
0.000000000
  9
$TDUPDATE
 40
2454966.637581019
  9
$TDUUPDATE
 40
0.000000000
  9
$TDINDWG
 40
0.0000000000
  9
$TDUSRTIMER
 40
0.0000000000
  9
$USRTIMER
 70
               1
  9
$ANGBASE
 50
0.0
  9
$ANGDIR
 70
               0
  9
$PDMODE
 70
               1
  9
$PDSIZE
 40
-2.0
  9
$PLINEWID
 40
0.0
  9
$SPLFRAME
 70
               0
  9
$SPLINETYPE
 70
               6
  9
$SPLINESEGS
 70
               8
  9
$HANDSEED
  5
1A8
  9
$SURFTAB1
 70
               6
  9
$SURFTAB2
 70
               6
  9
$SURFTYPE
 70
               6
  9
$SURFU
 70
               6
  9
$SURFV
 70
               6
  9
$UCSBASE
  2

  9
$UCSNAME
  2

  9
$UCSORG
 10
0.0
 20
0.0
 30
0.0
  9
$UCSXDIR
 10
1.0
 20
0.0
 30
0.0
  9
$UCSYDIR
 10
0.0
 20
1.0
 30
0.0
  9
$UCSORTHOREF
  2

  9
$UCSORTHOVIEW
 70
               0
  9
$UCSORGTOP
 10
0.0
 20
0.0
 30
0.0
  9
$UCSORGBOTTOM
 10
0.0
 20
0.0
 30
0.0
  9
$UCSORGLEFT
 10
0.0
 20
0.0
 30
0.0
  9
$UCSORGRIGHT
 10
0.0
 20
0.0
 30
0.0
  9
$UCSORGFRONT
 10
0.0
 20
0.0
 30
0.0
  9
$UCSORGBACK
 10
0.0
 20
0.0
 30
0.0
  9
$PUCSBASE
  2

  9
$PUCSNAME
  2

  9
$PUCSORG
 10
0.0
 20
0.0
 30
0.0
  9
$PUCSXDIR
 10
1.0
 20
0.0
 30
0.0
  9
$PUCSYDIR
 10
0.0
 20
1.0
 30
0.0
  9
$PUCSORTHOREF
  2

  9
$PUCSORTHOVIEW
 70
               0
  9
$PUCSORGTOP
 10
0.0
 20
0.0
 30
0.0
  9
$PUCSORGBOTTOM
 10
0.0
 20
0.0
 30
0.0
  9
$PUCSORGLEFT
 10
0.0
 20
0.0
 30
0.0
  9
$PUCSORGRIGHT
 10
0.0
 20
0.0
 30
0.0
  9
$PUCSORGFRONT
 10
0.0
 20
0.0
 30
0.0
  9
$PUCSORGBACK
 10
0.0
 20
0.0
 30
0.0
  9
$USERI1
 70
               0
  9
$USERI2
 70
               0
  9
$USERI3
 70
               0
  9
$USERI4
 70
               0
  9
$USERI5
 70
               0
  9
$USERR1
 40
0.0
  9
$USERR2
 40
0.0
  9
$USERR3
 40
0.0
  9
$USERR4
 40
0.0
  9
$USERR5
 40
0.0
  9
$WORLDVIEW
 70
               1
  9
$SHADEDGE
 70
               3
  9
$SHADEDIF
 70
              70
  9
$TILEMODE
 70
               1
  9
$MAXACTVP
 70
              64
  9
$PINSBASE
 10
0.0
 20
0.0
 30
0.0
  9
$PLIMCHECK
 70
               0
  9
$PEXTMIN
 10
1.0000000000000000E+20
 20
1.0000000000000000E+20
 30
1.0000000000000000E+20
  9
$PEXTMAX
 10
-1.0000000000000000E+20
 20
-1.0000000000000000E+20
 30
-1.0000000000000000E+20
  9
$PLIMMIN
 10
0.0
 20
0.0
  9
$PLIMMAX
 10
12.0
 20
9.0
  9
$UNITMODE
 70
               0
  9
$VISRETAIN
 70
               0
  9
$PLINEGEN
 70
               1
  9
$PSLTSCALE
 70
               0
  9
$TREEDEPTH
 70
            3020
  9
$CMLSTYLE
  2
Standard
  9
$CMLJUST
 70
               0
  9
$CMLSCALE
 40
1.0
  9
$PROXYGRAPHICS
 70
               0
  9
$MEASUREMENT
 70
               1
  9
$CELWEIGHT
370
               0
  9
$ENDCAPS
280
               0
  9
$JOINSTYLE
280
               0
  9
$LWDISPLAY
290
               1
  9
$INSUNITS
 70
               4
  9
$HYPERLINKBASE
  1

  9
$STYLESHEET
  1

  9
$XEDIT
290
               1
  9
$CEPSNTYPE
380
               0
  9
$PSTYLEMODE
290
               1
  9
$FINGERPRINTGUID
  2

  9
$VERSIONGUID
  2

  9
$EXTNAMES
290
               1
  9
$PSVPSCALE
 40
0.0
  0
ENDSEC
  0
SECTION
  2
CLASSES
  0
CLASS
  1
LWPOLYLINE
  2
AcDbPolyline
  3
AutoCAD 2000
 90
        0
280
               0
281
               1
  0
CLASS
  1
IMAGE
  2
AcDbRasterImage
  3
ISM
 90
      127
280
               0
281
               1
  0
CLASS
  1
OLE2FRAME
  2
AcDbOle2Frame
  3
AutoCAD 2000
 90
        0
280
               0
281
               1
  0
CLASS
  1
HATCH
  2
AcDbHatch
  3
AutoCAD 2000
 90
        0
280
               0
281
               1
  0
CLASS
  1
DICTIONARYVAR
  2
AcDbDictionaryVar
  3
AutoCAD 2000
 90
        0
280
               0
281
               0
  0
CLASS
  1
RASTERVARIABLES
  2
AcDbRasterVariables
  3
ISM
 90
        0
280
               0
281
               0
  0
CLASS
  1
IMAGEDEF
  2
AcDbRasterImageDef
  3
ISM
 90
        0
280
               0
281
               0
  0
CLASS
  1
IMAGEDEF_REACTOR
  2
AcDbRasterImageDefReactor
  3
ISM
 90
        1
280
               0
281
               0
  0
CLASS
  1
IDBUFFER
  2
AcDbIdBuffer
  3
AutoCAD 2000
 90
        0
280
               0
281
               0
  0
CLASS
  1
SPATIAL_FILTER
  2
AcDbSpatialFilter
  3
AutoCAD 2000
 90
        0
280
               0
281
               0
  0
CLASS
  1
XRECORD
  2
AcDbXrecord
  3
AutoCAD 2000
 90
        0
280
               0
281
               0
  0
CLASS
  1
SORTENTSTABLE
  2
AcDbSortentsTable
  3
AutoCAD 2000
 90
        0
280
               0
281
               0
  0
CLASS
  1
LAYER_INDEX
  2
AcDbLayerIndex
  3
AutoCAD 2000
 90
        0
280
               0
281
               0
  0
CLASS
  1
SPATIAL_INDEX
  2
AcDbSpatialIndex
  3
AutoCAD 2000
 90
        0
280
               0
281
               0
  0
CLASS
  1
OBJECT_PTR
  2
CAseDLPNTableRecord
  3
"ASE-LPNTableRecord"
 90
        1
280
               0
281
               0
  0
CLASS
  1
LAYOUT
  2
AcDbLayout
  3
AutoCAD 2000
 90
        0
280
               0
281
               0
  0
CLASS
  1
PLOTSETTINGS
  2
AcDbPlotSettings
  3
AutoCAD 2000
 90
        0
280
               0
281
               0
  0
CLASS
  1
ACDBDICTIONARYWDFLT
  2
AcDbDictionaryWithDefault
  3
AutoCAD 2000
 90
        0
280
               0
281
               0
  0
CLASS
  1
ACDBPLACEHOLDER
  2
AcDbPlaceHolder
  3
AutoCAD 2000
 90
        0
280
               0
281
               0
  0
CLASS
  1
VBA_PROJECT
  2
AcDbVbaProject
  3
acadvba
 90
        0
280
               0
281
               0
  0
CLASS
  1
WIPEOUT
  2
AcDbWipeout
  3
WipeOut|AutoCAD Express Tool|expresstools@autodesk.com
 90
      127
280
               0
281
               1
  0
CLASS
  1
WIPEOUTVARIABLES
  2
AcDbWipeoutVariables
  3
WipeOut|AutoCAD Express Tool|expresstools@autodesk.com
 90
        0
280
               0
281
               0
  0
CLASS
  1
RTEXT
  2
RText
  3
RText|AutoCAD Express Tool|expresstools@autodesk.com
 90
        0
280
               0
281
               1
  0
CLASS
  1
ARCALIGNEDTEXT
  2
AcDbArcAlignedText
  3
ATEXT|AutoCAD Express Tool|expresstools@autodesk.com
 90
        0
280
               0
281
               1
  0
ENDSEC
  0
SECTION
  2
TABLES
  0
TABLE
  2
VPORT
  5
7
100
AcDbSymbolTable
 70
               1
  0
VPORT
  5
15
100
AcDbSymbolTableRecord
100
AcDbViewportTableRecord
  2
*ACTIVE
 70
               0
 10
0.0
 20
0.0
 11
1.0
 21
1.0
 12
-0.8528329546888145
 22
4.5878160000000001
 13
0.0
 23
0.0
 14
1.0
 24
1.0
 15
0.0
 25
0.0
 16
0.0
 26
0.0
 36
1.0
 17
0.0
 27
0.0
 37
0.0
 40
38.824367999999986
 41
0.688564
 42
50.0
 43
0.0
 44
0.0
 50
0.0
 51
0.0
 71
               0
 72
            2000
 73
               1
 74
               1
 75
               0
 76
               0
 77
               0
 78
               0
281
               0
 65
               0
110
0.0
120
0.0
130
0.0
111
1.0
121
0.0
131
0.0
112
0.0
122
1.0
132
0.0
345
0
346
0
 79
               0
146
0.0
  0
ENDTAB
  0
TABLE
  2
LTYPE
  5
4
100
AcDbSymbolTable
 70
              15
  0
LTYPE
  5
11
100
AcDbSymbolTableRecord
100
AcDbLinetypeTableRecord
  2
ByBlock
 70
              64
  3

 72
              65
 73
               0
 40
0.0
  0
LTYPE
  5
12
100
AcDbSymbolTableRecord
100
AcDbLinetypeTableRecord
  2
ByLayer
 70
              64
  3

 72
              65
 73
               0
 40
0.0
  0
LTYPE
  5
13
100
AcDbSymbolTableRecord
100
AcDbLinetypeTableRecord
  2
Continuous
 70
              64
  3
Solid line
 72
              65
 73
               0
 40
0.0
  0
LTYPE
  5
38
100
AcDbSymbolTableRecord
100
AcDbLinetypeTableRecord
  2
STYLE_01
 70
               0
  3

 72
              65
 73
               2
 40
0.41664
 49
0.20828
 74
               0
 49
-0.20836
 74
               0
  0
LTYPE
  5
39
100
AcDbSymbolTableRecord
100
AcDbLinetypeTableRecord
  2
STYLE_02
 70
               0
  3

 72
              65
 73
               2
 40
0.6944250000000001
 49
0.48607
 74
               0
 49
-0.2083550000000001
 74
               0
  0
LTYPE
  5
3A
100
AcDbSymbolTableRecord
100
AcDbLinetypeTableRecord
  2
STYLE_03
 70
               0
  3

 72
              65
 73
               2
 40
1.25
 49
1.0416400000000001
 74
               0
 49
-0.2083599999999999
 74
               0
  0
LTYPE
  5
3B
100
AcDbSymbolTableRecord
100
AcDbLinetypeTableRecord
  2
STYLE_04
 70
               0
  3

 72
              65
 73
               2
 40
1.5277099999999999
 49
1.3194249999999998
 74
               0
 49
-0.208285
 74
               0
  0
LTYPE
  5
3C
100
AcDbSymbolTableRecord
100
AcDbLinetypeTableRecord
  2
STYLE_05
 70
               0
  3

 72
              65
 73
               2
 40
0.20828
 49
0.069425
 74
               0
 49
-0.138855
 74
               0
  0
LTYPE
  5
3D
100
AcDbSymbolTableRecord
100
AcDbLinetypeTableRecord
  2
STYLE_06
 70
               0
  3

 72
              65
 73
               4
 40
1.0416400000000001
 49
0.625
 74
               0
 49
-0.20828
 74
               0
 49
0.06943
 74
               0
 49
-0.13893
 74
               0
  0
LTYPE
  5
3E
100
AcDbSymbolTableRecord
100
AcDbLinetypeTableRecord
  2
STYLE_07
 70
               0
  3

 72
              65
 73
               6
 40
1.875
 49
0.625
 74
               0
 49
-0.20828
 74
               0
 49
0.6250000000000001
 74
               0
 49
-0.2083599999999999
 74
               0
 49
0.06943
 74
               0
 49
-0.1389299999999999
 74
               0
  0
LTYPE
  5
3F
100
AcDbSymbolTableRecord
100
AcDbLinetypeTableRecord
  2
STYLE_08
 70
               0
  3

 72
              65
 73
               6
 40
1.25
 49
0.625
 74
               0
 49
-0.20828
 74
               0
 49
0.06943
 74
               0
 49
-0.13893
 74
               0
 49
0.0694299999999999
 74
               0
 49
-0.13893
 74
               0
  0
LTYPE
  5
40
100
AcDbSymbolTableRecord
100
AcDbLinetypeTableRecord
  2
STYLE_09
 70
               0
  3

 72
              65
 73
               4
 40
5.0
 49
3.75
 74
               0
 49
-0.2777849999999998
 74
               0
 49
0.6944300000000003
 74
               0
 49
-0.2777849999999998
 74
               0
  0
LTYPE
  5
41
100
AcDbSymbolTableRecord
100
AcDbLinetypeTableRecord
  2
STYLE_10
 70
               0
  3

 72
              65
 73
               6
 40
5.9375
 49
3.75
 74
               0
 49
-0.2777849999999998
 74
               0
 49
0.6944300000000003
 74
               0
 49
-0.2777849999999998
 74
               0
 49
0.625
 74
               0
 49
-0.3125
 74
               0
  0
LTYPE
  5
42
100
AcDbSymbolTableRecord
100
AcDbLinetypeTableRecord
  2
STYLE_11
 70
               0
  3

 72
              65
 73
               2
 40
0.4166412353515625
 49
0.2777862548828125
 74
               0
 49
-0.13885498046875
 74
               0
  0
LTYPE
  5
43
100
AcDbSymbolTableRecord
100
AcDbLinetypeTableRecord
  2
STYLE_12
 70
               0
  3

 72
              65
 73
               2
 40
1.875
 49
1.25
 74
               0
 49
-0.625
 74
               0
  0
ENDTAB
  0
TABLE
  2
LAYER
  5
2
100
AcDbSymbolTable
 70
               4
  0
LAYER
  5
14
100
AcDbSymbolTableRecord
100
AcDbLayerTableRecord
  2
0
 70
               0
 62
               7
  6
Continuous
290
               1
370
              -3
390
1D
  0
LAYER
  5
44
100
AcDbSymbolTableRecord
100
AcDbLayerTableRecord
  2
Defpoints
 70
               0
 62
               7
  6
Continuous
290
               0
370
              -3
390
1D
  0
LAYER
  5
45
100
AcDbSymbolTableRecord
100
AcDbLayerTableRecord
  2
None
 70
               0
 62
               7
  6
Continuous
290
               1
370
               5
390
1D
  0
LAYER
  5
46
100
AcDbSymbolTableRecord
100
AcDbLayerTableRecord
  2
Dimension
 70
               0
 62
               7
  6
Continuous
290
               1
370
               5
390
1D
  0
ENDTAB
  0
TABLE
  2
STYLE
  5
3
100
AcDbSymbolTable
 70
               4
  0
STYLE
  5
17
100
AcDbSymbolTableRecord
100
AcDbTextStyleTableRecord
  2
Standard
 70
               0
 40
0.0
 41
1.0
 50
0.0
 71
               0
 42
0.0
  3
txt
  4

  0
STYLE
  5
35
100
AcDbSymbolTableRecord
100
AcDbTextStyleTableRecord
  2
Arial
 70
               0
 40
0.0
 41
1.0
 50
0.0
 71
               0
 42
0.0
  3
Arial
  4

1001
ACAD
1000
Arial
1071
        0
  0
STYLE
  5
36
100
AcDbSymbolTableRecord
100
AcDbTextStyleTableRecord
  2
Helvetica
 70
               0
 40
0.0
 41
1.0
 50
0.0
 71
               0
 42
0.0
  3
Helvetica
  4

1001
ACAD
1000
Helvetica
1071
        0
  0
STYLE
  5
37
100
AcDbSymbolTableRecord
100
AcDbTextStyleTableRecord
  2
New Century Schlbk
 70
               0
 40
0.0
 41
1.0
 50
0.0
 71
               0
 42
0.0
  3
New Century Schlbk
  4

1001
ACAD
1000
New Century Schlbk
1071
        0
  0
ENDTAB
  0
TABLE
  2
VIEW
  5
5
100
AcDbSymbolTable
 70
               0
  0
ENDTAB
  0
TABLE
  2
UCS
  5
6
100
AcDbSymbolTable
 70
               0
  0
ENDTAB
  0
TABLE
  2
APPID
  5
8
100
AcDbSymbolTable
 70
               1
  0
APPID
  5
16
100
AcDbSymbolTableRecord
100
AcDbRegAppTableRecord
  2
ACAD
 70
               0
  0
ENDTAB
  0
TABLE
  2
DIMSTYLE
  5
9
100
AcDbSymbolTable
 70
               3
100
AcDbDimStyleTable
 71
               0
  0
DIMSTYLE
105
18
100
AcDbSymbolTableRecord
100
AcDbDimStyleTableRecord
  2
Standard
 70
               0
  3

  4

 40
1.0
 41
0.18
 42
0.0625
 43
0.38
 44
0.18
 45
0.0
 46
0.0
 47
0.0
 48
0.0
 71
               0
 72
               0
 73
               1
 74
               1
 75
               0
 76
               0
 77
               0
 78
               0
 79
               0
140
0.18
141
0.09
142
0.0
143
25.399999999999999
144
1.0
145
0.0
146
1.0
147
0.09
148
0.0
170
               0
171
               2
172
               0
173
               0
174
               0
175
               0
176
               0
177
               0
178
               0
179
               0
271
               4
272
               4
273
               2
274
               2
275
               0
276
               0
277
               2
278
              46
279
               0
280
               0
281
               0
282
               0
283
               1
284
               0
285
               0
286
               0
288
               0
289
               3
340
17
341
0
342
0
343
0
344
0
371
              -2
372
              -2
  0
DIMSTYLE
105
4F
100
AcDbSymbolTableRecord
100
AcDbDimStyleTableRecord
  2
IE Standard
 70
               0
  3
<>mm
  4
[]
 40
1.0
 41
0.79375
 42
0.4762500011827797
 43
6.9999859934672708
 44
0.9525000023655593
 45
0.0
 46
0.0
 47
0.0
 48
0.0
 71
               0
 72
               0
 73
               1
 74
               1
 75
               0
 76
               0
 77
               0
 78
              11
 79
               0
140
0.7579186197916666
141
0.0
142
0.0
143
1.0
144
1.0
145
0.0
146
1.0
147
0.0
148
0.0
170
               0
171
               1
172
               1
173
               0
174
               1
175
               0
176
               0
177
               0
178
               0
179
               2
271
               1
272
               1
273
               2
274
               2
275
               0
276
               2
277
               2
278
              46
279
               0
280
               0
281
               0
282
               0
283
               1
284
              11
285
              11
286
              11
288
               0
289
               0
340
36
341
4B
342
47
343
0
344
0
371
              -2
372
              -2
  0
DIMSTYLE
105
55
100
AcDbSymbolTableRecord
100
AcDbDimStyleTableRecord
  2
Arch
 70
               0
  3
<>mm
  4
[]
 40
1.0
 41
0.5612060546875
 42
0.396875
 43
10.16
 44
0.79375
 45
0.0
 46
1.5874999999999999
 47
0.0
 48
0.0
 71
               0
 72
               0
 73
               0
 74
               0
 75
               0
 76
               0
 77
               1
 78
              11
 79
               0
140
0.7579186197916666
141
0.0
142
0.0
143
1.0
144
1.0
145
0.0
146
1.0
147
1.5874999999999999
148
0.0
170
               0
171
               1
172
               1
173
               0
174
               1
175
               0
176
               0
177
               0
178
               0
179
               2
271
               1
272
               1
273
               2
274
               2
275
               0
276
               2
277
               2
278
              46
279
               0
280
               0
281
               0
282
               0
283
               1
284
              11
285
              11
286
              11
288
               0
289
               0
340
36
341
47
342
50
343
0
344
0
371
              -2
372
              -2
  0
ENDTAB
  0
TABLE
  2
BLOCK_RECORD
  5
1
100
AcDbSymbolTable
 70
              20
  0
BLOCK_RECORD
  5
A
100
AcDbSymbolTableRecord
100
AcDbBlockTableRecord
  2
*MODEL_SPACE
340
20
  0
BLOCK_RECORD
  5
B
100
AcDbSymbolTableRecord
100
AcDbBlockTableRecord
  2
*PAPER_SPACE
340
21
  0
BLOCK_RECORD
  5
47
100
AcDbSymbolTableRecord
100
AcDbBlockTableRecord
  2
VW_FILLEDARROW
340
0
  0
BLOCK_RECORD
  5
4B
100
AcDbSymbolTableRecord
100
AcDbBlockTableRecord
  2
VW_FILLEDARROW-1
340
0
  0
BLOCK_RECORD
  5
50
100
AcDbSymbolTableRecord
100
AcDbBlockTableRecord
  2
VW_SLASH
340
0
  0
BLOCK_RECORD
  5
24
100
AcDbSymbolTableRecord
100
AcDbBlockTableRecord
  2
*D3
340
0
  0
BLOCK_RECORD
  5
25
100
AcDbSymbolTableRecord
100
AcDbBlockTableRecord
  2
Group
340
0
102
{BLKREFS
331
157
102
}
  0
BLOCK_RECORD
  5
26
100
AcDbSymbolTableRecord
100
AcDbBlockTableRecord
  2
*D5
340
0
  0
BLOCK_RECORD
  5
27
100
AcDbSymbolTableRecord
100
AcDbBlockTableRecord
  2
*D6
340
0
  0
BLOCK_RECORD
  5
28
100
AcDbSymbolTableRecord
100
AcDbBlockTableRecord
  2
*D7
340
0
  0
BLOCK_RECORD
  5
29
100
AcDbSymbolTableRecord
100
AcDbBlockTableRecord
  2
*D8
340
0
  0
BLOCK_RECORD
  5
2A
100
AcDbSymbolTableRecord
100
AcDbBlockTableRecord
  2
*D9
340
0
  0
BLOCK_RECORD
  5
2B
100
AcDbSymbolTableRecord
100
AcDbBlockTableRecord
  2
*D10
340
0
  0
BLOCK_RECORD
  5
2C
100
AcDbSymbolTableRecord
100
AcDbBlockTableRecord
  2
*D11
340
0
  0
BLOCK_RECORD
  5
2D
100
AcDbSymbolTableRecord
100
AcDbBlockTableRecord
  2
*D12
340
0
  0
BLOCK_RECORD
  5
2E
100
AcDbSymbolTableRecord
100
AcDbBlockTableRecord
  2
*D13
340
0
  0
BLOCK_RECORD
  5
2F
100
AcDbSymbolTableRecord
100
AcDbBlockTableRecord
  2
*D14
340
0
  0
BLOCK_RECORD
  5
30
100
AcDbSymbolTableRecord
100
AcDbBlockTableRecord
  2
*D15
340
0
  0
BLOCK_RECORD
  5
31
100
AcDbSymbolTableRecord
100
AcDbBlockTableRecord
  2
*D16
340
0
  0
BLOCK_RECORD
  5
32
100
AcDbSymbolTableRecord
100
AcDbBlockTableRecord
  2
*D17
340
0
  0
BLOCK_RECORD
  5
33
100
AcDbSymbolTableRecord
100
AcDbBlockTableRecord
  2
*D18
340
0
  0
BLOCK_RECORD
  5
34
100
AcDbSymbolTableRecord
100
AcDbBlockTableRecord
  2
*D19
340
0
  0
ENDTAB
  0
ENDSEC
  0
SECTION
  2
BLOCKS
  0
BLOCK
  5
D
100
AcDbEntity
  8
0
390
0
100
AcDbBlockBegin
  2
*MODEL_SPACE
 70
               0
 10
0.0
 20
0.0
 30
0.0
  3
*MODEL_SPACE
  1

  0
ENDBLK
  5
E
100
AcDbEntity
  8
0
390
0
100
AcDbBlockEnd
  0
BLOCK
  5
F
100
AcDbEntity
 67
               1
  8
0
390
0
100
AcDbBlockBegin
  2
*PAPER_SPACE
 70
               0
 10
0.0
 20
0.0
 30
0.0
  3
*PAPER_SPACE
  1

  0
ENDBLK
  5
10
100
AcDbEntity
 67
               1
  8
0
390
0
100
AcDbBlockEnd
  0
BLOCK
  5
48
100
AcDbEntity
  8
0
370
              -2
390
0
  6
ByBlock
 62
               0
100
AcDbBlockBegin
  2
VW_FILLEDARROW
 70
               0
 10
0.0
 20
0.0
 30
0.0
  3
VW_FILLEDARROW
  1

  0
SOLID
  5
49
100
AcDbEntity
  8
0
370
              -2
390
0
 62
               0
100
AcDbTrace
 10
0.0
 20
0.0
 30
0.0
 11
-0.9999389648437499
 21
-0.2679328381102956
 31
0.0
 12
-0.9999389648437499
 22
0.2679328381102958
 32
0.0
 13
-0.9999389648437499
 23
0.2679328381102958
 33
0.0
  0
ENDBLK
  5
4A
100
AcDbEntity
  8
0
390
0
100
AcDbBlockEnd
  0
BLOCK
  5
4C
100
AcDbEntity
  8
0
370
              -2
390
0
  6
ByBlock
 62
               0
100
AcDbBlockBegin
  2
VW_FILLEDARROW-1
 70
               0
 10
0.0
 20
0.0
 30
0.0
  3
VW_FILLEDARROW
  1

  0
SOLID
  5
4D
100
AcDbEntity
  8
0
370
              -2
390
0
 62
               0
100
AcDbTrace
 10
0.0
 20
0.0
 30
0.0
 11
-0.6662384033203125
 21
-0.1785180421362784
 31
0.0
 12
-0.6662384033203125
 22
0.1785180421362785
 32
0.0
 13
-0.6662384033203125
 23
0.1785180421362785
 33
0.0
  0
ENDBLK
  5
4E
100
AcDbEntity
  8
0
390
0
100
AcDbBlockEnd
  0
BLOCK
  5
51
100
AcDbEntity
  8
0
370
              -2
390
0
  6
ByBlock
 62
               0
100
AcDbBlockBegin
  2
VW_SLASH
 70
               0
 10
0.0
 20
0.0
 30
0.0
  3
VW_SLASH
  1

  0
LINE
  5
52
100
AcDbEntity
  8
0
370
              -2
390
0
  6
ByBlock
 62
               0
100
AcDbLine
 10
0.0
 20
0.0
 30
0.0
 11
-1.0
 21
0.0
 31
0.0
  0
LINE
  5
53
100
AcDbEntity
  8
0
370
              20
390
0
  6
ByBlock
 62
               0
100
AcDbLine
 10
-0.5000145658230796
 20
-0.5000145658230795
 30
0.0
 11
0.5000145658230796
 21
0.5000145658230795
 31
0.0
  0
ENDBLK
  5
54
100
AcDbEntity
  8
0
390
0
100
AcDbBlockEnd
  0
BLOCK
  5
56
100
AcDbEntity
  8
Dimension
390
0
100
AcDbBlockBegin
  2
*D3
 70
               1
 10
0.0
 20
0.0
 30
0.0
  3
*D3
  1

  0
LINE
  5
57
100
AcDbEntity
  8
Dimension
370
              -2
390
0
  6
Continuous
 62
               0
100
AcDbLine
 10
-6.9098075812299697
 20
14.320439999999991
 30
0.0
 11
-28.893557582412754
 21
14.320439999999991
 31
0.0
  0
LINE
  5
58
100
AcDbEntity
  8
Dimension
370
              -2
390
0
  6
Continuous
 62
               0
100
AcDbLine
 10
-6.9098075812299697
 20
-0.9045600000000036
 30
0.0
 11
-28.893557582412747
 21
-0.9045600000000036
 31
0.0
  0
LINE
  5
59
100
AcDbEntity
  8
Dimension
370
              -2
390
0
  6
Continuous
 62
               0
100
AcDbLine
 10
-27.941057580047186
 20
14.320439999999991
 30
0.0
 11
-27.941057580047186
 21
-0.9045600000000036
 31
0.0
  0
SOLID
  5
5A
100
AcDbEntity
  8
Dimension
370
              -2
390
0
 62
               0
100
AcDbTrace
 10
-27.941057580047186
 20
14.320439999999991
 30
0.0
 11
-27.728372908554984
 21
13.526689999999991
 31
0.0
 12
-28.153742251539391
 22
13.526689999999991
 32
0.0
 13
-28.153742251539391
 23
13.526689999999991
 33
0.0
  0
SOLID
  5
5B
100
AcDbEntity
  8
Dimension
370
              -2
390
0
 62
               0
100
AcDbTrace
 10
-27.941057580047186
 20
-0.9045600000000036
 30
0.0
 11
-28.153742251539391
 21
-0.1108100000000036
 31
0.0
 12
-27.728372908554981
 22
-0.1108100000000036
 32
0.0
 13
-27.728372908554981
 23
-0.1108100000000036
 33
0.0
  0
WIPEOUT
  5
5C
100
AcDbEntity
  8
Dimension
370
              -2
390
0
  6
Continuous
 62
               0
 92
        0
100
AcDbWipeout
 90
        0
 10
-34.0
 20
6.2069640410562998
 30
0.0
 11
5.0376507600148521
 21
0.0
 31
0.0
 12
0.0
 22
5.0376507600148521
 32
0.0
 13
1.0
 23
1.0
340
0
 70
               7
280
               1
281
              50
282
              50
283
               0
360
0
 71
               2
 91
        5
 14
-0.5
 24
0.5
 14
0.5
 24
0.5
 14
0.5
 24
0.2584033594269224
 14
-0.5
 24
0.2584033594269224
 14
-0.5
 24
0.5
  0
MTEXT
  5
5D
100
AcDbEntity
  8
Dimension
390
0
 62
               0
100
AcDbMText
 10
-34.0
 20
7.2294651608479663
 30
0.0
 40
0.7579186197916666
 41
0.0
 71
               1
 72
               1
  1
15.225mm
  7
Helvetica
 73
               1
 44
0.9673603504928806
  0
WIPEOUT
  5
5E
100
AcDbEntity
  8
Dimension
370
              -2
390
0
  6
Continuous
 62
               0
 92
        0
100
AcDbWipeout
 90
        0
 10
-28.962349239985144
 20
6.2069623743896374
 30
0.0
 11
5.0270675208833495
 21
0.0
 31
0.0
 12
0.0
 22
5.0270675208833495
 32
0.0
 13
1.0
 23
1.0
340
0
 70
               7
280
               1
281
              50
282
              50
283
               0
360
0
 71
               2
 91
        5
 14
-0.5
 24
0.5
 14
0.5
 24
0.5
 14
0.5
 24
0.2578947378478544
 14
-0.5
 24
0.2578947378478544
 14
-0.5
 24
0.5
  0
MTEXT
  5
5F
100
AcDbEntity
  8
Dimension
390
0
 62
               0
100
AcDbMText
 10
-28.962349239985144
 20
7.2294634941813039
 30
0.0
 40
0.7579186197916666
 41
0.0
 71
               1
 72
               1
  1
±0.125mm
  7
Helvetica
 73
               1
 44
0.9673603504928806
  0
WIPEOUT
  5
60
100
AcDbEntity
  8
Dimension
370
              -2
390
0
  6
Continuous
 62
               0
 92
        0
100
AcDbWipeout
 90
        0
 10
-23.935281719101795
 20
6.2069602077229664
 30
0.0
 11
2.0531665590074333
 21
0.0
 31
0.0
 12
0.0
 22
2.0531665590074333
 32
0.0
 13
1.0
 23
1.0
340
0
 70
               7
280
               1
281
              50
282
              50
283
               0
360
0
 71
               2
 91
        5
 14
-0.5
 24
0.5
 14
0.5
 24
0.5
 14
0.5
 24
-0.0927835362376593
 14
-0.5
 24
-0.0927835362376593
 14
-0.5
 24
0.5
  0
MTEXT
  5
61
100
AcDbEntity
  8
Dimension
390
0
 62
               0
100
AcDbMText
 10
-23.935281719101795
 20
7.2294645480007436
 30
0.0
 40
0.7579210069444442
 41
0.0
 71
               1
 72
               1
  1
 sqr.
  7
Helvetica
 73
               1
 44
0.9673603504928806
  0
POINT
  5
62
100
AcDbEntity
  8
Defpoints
370
               0
390
0
 62
               0
100
AcDbPoint
 10
-6.4335575800471929
 20
-0.9045600000000036
 30
0.0
  0
POINT
  5
63
100
AcDbEntity
  8
Defpoints
370
               0
390
0
 62
               0
100
AcDbPoint
 10
-6.4335575800471929
 20
14.320439999999991
 30
0.0
  0
POINT
  5
64
100
AcDbEntity
  8
Defpoints
370
               0
390
0
 62
               0
100
AcDbPoint
 10
-27.94105758004719
 20
14.320439999999991
 30
0.0
  0
ENDBLK
  5
65
100
AcDbEntity
  8
Dimension
390
0
100
AcDbBlockEnd
  0
BLOCK
  5
66
100
AcDbEntity
  8
Dimension
390
0
100
AcDbBlockBegin
  2
Group
 70
               0
 10
0.0
 20
0.0
 30
0.0
  3
Group
  1

  0
LINE
  5
67
100
AcDbEntity
  8
None
370
               5
390
0
  6
Continuous
 62
               1
100
AcDbLine
 10
0.5539424199528042
 20
6.7079399999999936
 30
0.0
 11
1.8039424199528042
 21
6.7079399999999936
 31
0.0
  0
LINE
  5
68
100
AcDbEntity
  8
None
370
               5
390
0
  6
Continuous
 62
               1
100
AcDbLine
 10
1.1789424199528042
 20
6.0829399999999936
 30
0.0
 11
1.1789424199528042
 21
7.3329399999999936
 31
0.0
  0
LINE
  5
69
100
AcDbEntity
  8
None
370
               5
390
0
  6
Continuous
 62
               1
100
AcDbLine
 10
-7.1835575800471929
 20
6.7079399999999936
 30
0.0
 11
0.0539424199528042
 21
6.7079399999999936
 31
0.0
  0
LINE
  5
6A
100
AcDbEntity
  8
None
370
               5
390
0
  6
Continuous
 62
               1
100
AcDbLine
 10
2.3039424199528042
 20
6.7079399999999936
 30
0.0
 11
9.5414424199528156
 21
6.7079399999999936
 31
0.0
  0
LINE
  5
6B
100
AcDbEntity
  8
None
370
               5
390
0
  6
Continuous
 62
               1
100
AcDbLine
 10
1.1789424199528042
 20
15.070439999999991
 30
0.0
 11
1.1789424199528042
 21
7.8329399999999936
 31
0.0
  0
LINE
  5
6C
100
AcDbEntity
  8
None
370
               5
390
0
  6
Continuous
 62
               1
100
AcDbLine
 10
1.1789424199528042
 20
5.5829399999999936
 30
0.0
 11
1.1789424199528042
 21
-1.6545600000000036
 31
0.0
  0
ENDBLK
  5
6D
100
AcDbEntity
  8
Dimension
390
0
100
AcDbBlockEnd
  0
BLOCK
  5
6E
100
AcDbEntity
  8
Dimension
390
0
100
AcDbBlockBegin
  2
*D5
 70
               1
 10
0.0
 20
0.0
 30
0.0
  3
*D5
  1

  0
LINE
  5
6F
100
AcDbEntity
  8
Dimension
370
              -2
390
0
  6
Continuous
 62
               0
100
AcDbLine
 10
-5.1835575800471929
 20
13.546690001182768
 30
0.0
 11
-5.1835575800471929
 21
20.585250002365548
 31
0.0
  0
LINE
  5
70
100
AcDbEntity
  8
Dimension
370
              -2
390
0
  6
Continuous
 62
               0
100
AcDbLine
 10
-1.6810575800471952
 20
11.36419000118277
 30
0.0
 11
-1.6810575800471952
 21
20.585250002365548
 31
0.0
  0
LINE
  5
71
100
AcDbEntity
  8
Dimension
370
              -2
390
0
  6
Continuous
 62
               0
100
AcDbLine
 10
-1.6810575800471952
 20
19.632749999999987
 30
0.0
 11
-5.1835575800471929
 21
19.632749999999987
 31
0.0
  0
LINE
  5
72
100
AcDbEntity
  8
Dimension
370
              -2
390
0
  6
Continuous
 62
               0
100
AcDbLine
 10
-5.1835575800471929
 20
19.632749999999987
 30
0.0
 11
-6.9335540784140051
 21
19.632749999999987
 31
0.0
  0
SOLID
  5
73
100
AcDbEntity
  8
Dimension
370
              -2
390
0
 62
               0
100
AcDbTrace
 10
-5.1835575800471929
 20
19.632749999999987
 30
0.0
 11
-5.9773075800471931
 21
19.420065328507782
 31
0.0
 12
-5.9773075800471931
 22
19.845434671492193
 32
0.0
 13
-5.9773075800471931
 23
19.845434671492193
 33
0.0
  0
LINE
  5
74
100
AcDbEntity
  8
Dimension
370
              -2
390
0
  6
Continuous
 62
               0
100
AcDbLine
 10
-1.6810575800471952
 20
19.632749999999987
 30
0.0
 11
0.1094824199527977
 21
19.632749999999987
 31
0.0
  0
SOLID
  5
75
100
AcDbEntity
  8
Dimension
370
              -2
390
0
 62
               0
100
AcDbTrace
 10
-1.6810575800471952
 20
19.632749999999987
 30
0.0
 11
-0.8873075800471952
 21
19.845434671492193
 31
0.0
 12
-0.8873075800471952
 22
19.420065328507782
 32
0.0
 13
-0.8873075800471952
 23
19.420065328507782
 33
0.0
  0
WIPEOUT
  5
76
100
AcDbEntity
  8
Dimension
370
              -2
390
0
  6
Continuous
 62
               0
 92
        0
100
AcDbWipeout
 90
        0
 10
0.1094824199528119
 20
19.024210249999985
 30
0.0
 11
3.6724051740434431
 21
0.0
 31
0.0
 12
0.0
 22
3.6724051740434431
 32
0.0
 13
1.0
 23
1.0
340
0
 70
               7
280
               1
281
              50
282
              50
283
               0
360
0
 71
               2
 91
        5
 14
-0.5
 24
0.5
 14
0.5
 24
0.5
 14
0.5
 24
0.16858790293557
 14
-0.5
 24
0.16858790293557
 14
-0.5
 24
0.5
  0
MTEXT
  5
77
100
AcDbEntity
  8
Dimension
390
0
 62
               0
100
AcDbMText
 10
0.1094824199528119
 20
20.046711369791652
 30
0.0
 40
0.7579186197916666
 41
0.0
 71
               1
 72
               1
  1
3.5mm*
  7
Helvetica
 73
               1
 44
0.9673603504928806
  0
POINT
  5
78
100
AcDbEntity
  8
Defpoints
370
               0
390
0
 62
               0
100
AcDbPoint
 10
-1.6810575800471952
 20
10.887939999999993
 30
0.0
  0
POINT
  5
79
100
AcDbEntity
  8
Defpoints
370
               0
390
0
 62
               0
100
AcDbPoint
 10
-5.1835575800471929
 20
13.070439999999991
 30
0.0
  0
POINT
  5
7A
100
AcDbEntity
  8
Defpoints
370
               0
390
0
 62
               0
100
AcDbPoint
 10
-5.1835575800471929
 20
19.632749999999991
 30
0.0
  0
ENDBLK
  5
7B
100
AcDbEntity
  8
Dimension
390
0
100
AcDbBlockEnd
  0
BLOCK
  5
7C
100
AcDbEntity
  8
Dimension
390
0
100
AcDbBlockBegin
  2
*D6
 70
               1
 10
0.0
 20
0.0
 30
0.0
  3
*D6
  1

  0
LINE
  5
7D
100
AcDbEntity
  8
Dimension
370
              -2
390
0
  6
Continuous
 62
               0
100
AcDbLine
 10
-2.1873075812299732
 20
10.887939999999993
 30
0.0
 11
-9.6253575824127608
 21
10.887939999999993
 31
0.0
  0
LINE
  5
7E
100
AcDbEntity
  8
Dimension
370
              -2
390
0
  6
Continuous
 62
               0
100
AcDbLine
 10
-5.6598075812299697
 20
13.070439999999991
 30
0.0
 11
-9.6253575824127466
 21
13.070439999999991
 31
0.0
  0
LINE
  5
7F
100
AcDbEntity
  8
Dimension
370
              -2
390
0
  6
Continuous
 62
               0
100
AcDbLine
 10
-8.672857580047193
 20
13.070439999999991
 30
0.0
 11
-8.672857580047193
 21
10.887939999999993
 31
0.0
  0
LINE
  5
80
100
AcDbEntity
  8
Dimension
370
              -2
390
0
  6
Continuous
 62
               0
100
AcDbLine
 10
-8.672857580047193
 20
10.887939999999993
 30
0.0
 11
-8.672857580047193
 21
9.137943501633174
 31
0.0
  0
SOLID
  5
81
100
AcDbEntity
  8
Dimension
370
              -2
390
0
 62
               0
100
AcDbTrace
 10
-8.672857580047193
 20
10.887939999999993
 30
0.0
 11
-8.4601729085549895
 21
10.094189999999994
 31
0.0
 12
-8.8855422515393965
 22
10.094189999999994
 32
0.0
 13
-8.8855422515393965
 23
10.094189999999994
 33
0.0
  0
LINE
  5
82
100
AcDbEntity
  8
Dimension
370
              -2
390
0
  6
Continuous
 62
               0
100
AcDbLine
 10
-8.672857580047193
 20
13.070439999999991
 30
0.0
 11
-8.672857580047193
 21
14.82043649836681
 31
0.0
  0
SOLID
  5
83
100
AcDbEntity
  8
Dimension
370
              -2
390
0
 62
               0
100
AcDbTrace
 10
-8.672857580047193
 20
13.070439999999991
 30
0.0
 11
-8.8855422515393965
 21
13.86418999999999
 31
0.0
 12
-8.4601729085549895
 22
13.86418999999999
 32
0.0
 13
-8.4601729085549895
 23
13.86418999999999
 33
0.0
  0
WIPEOUT
  5
84
100
AcDbEntity
  8
Dimension
370
              -2
390
0
  6
Continuous
 62
               0
 92
        0
100
AcDbWipeout
 90
        0
 10
-10.599018204339359
 20
11.370683552307117
 30
0.0
 11
3.8523212485843228
 21
0.0
 31
0.0
 12
0.0
 22
3.8523212485843228
 32
0.0
 13
1.0
 23
1.0
340
0
 70
               7
280
               1
281
              50
282
              50
283
               0
360
0
 71
               2
 91
        5
 14
-0.5
 24
0.5
 14
0.5
 24
0.5
 14
0.5
 24
0.1840659380503998
 14
-0.5
 24
0.1840659380503998
 14
-0.5
 24
0.5
  0
MTEXT
  5
85
100
AcDbEntity
  8
Dimension
390
0
 62
               0
100
AcDbMText
 10
-10.599018204339359
 20
12.393184672098783
 30
0.0
 40
0.7579186197916666
 41
0.0
 71
               1
 72
               1
  1
2.18mm
  7
Helvetica
 73
               1
 44
0.9673603504928806
  0
POINT
  5
86
100
AcDbEntity
  8
Defpoints
370
               0
390
0
 62
               0
100
AcDbPoint
 10
-5.1835575800471929
 20
13.070439999999991
 30
0.0
  0
POINT
  5
87
100
AcDbEntity
  8
Defpoints
370
               0
390
0
 62
               0
100
AcDbPoint
 10
-1.7110575800471963
 20
10.887939999999993
 30
0.0
  0
POINT
  5
88
100
AcDbEntity
  8
Defpoints
370
               0
390
0
 62
               0
100
AcDbPoint
 10
-8.6728575800471965
 20
10.887939999999993
 30
0.0
  0
ENDBLK
  5
89
100
AcDbEntity
  8
Dimension
390
0
100
AcDbBlockEnd
  0
BLOCK
  5
8A
100
AcDbEntity
  8
Dimension
390
0
100
AcDbBlockBegin
  2
*D7
 70
               1
 10
0.0
 20
0.0
 30
0.0
  3
*D7
  1

  0
LINE
  5
8B
100
AcDbEntity
  8
Dimension
370
              -2
390
0
  6
Continuous
 62
               0
100
AcDbLine
 10
-5.6598075812299697
 20
0.3454399999999964
 30
0.0
 11
-10.562217582412757
 21
0.3454399999999964
 31
0.0
  0
LINE
  5
8C
100
AcDbEntity
  8
Dimension
370
              -2
390
0
  6
Continuous
 62
               0
100
AcDbLine
 10
-5.6598075812299697
 20
5.4254399999999947
 30
0.0
 11
-10.562217582412742
 21
5.4254399999999947
 31
0.0
  0
LINE
  5
8D
100
AcDbEntity
  8
Dimension
370
              -2
390
0
  6
Continuous
 62
               0
100
AcDbLine
 10
-9.6097175800471888
 20
0.3454399999999964
 30
0.0
 11
-9.6097175800471888
 21
5.4254399999999947
 31
0.0
  0
SOLID
  5
8E
100
AcDbEntity
  8
Dimension
370
              -2
390
0
 62
               0
100
AcDbTrace
 10
-9.6097175800471888
 20
0.3454399999999964
 30
0.0
 11
-9.8224022515393923
 21
1.1391899999999964
 31
0.0
 12
-9.3970329085549853
 22
1.1391899999999964
 32
0.0
 13
-9.3970329085549853
 23
1.1391899999999964
 33
0.0
  0
SOLID
  5
8F
100
AcDbEntity
  8
Dimension
370
              -2
390
0
 62
               0
100
AcDbTrace
 10
-9.6097175800471888
 20
5.4254399999999947
 30
0.0
 11
-9.3970329085549853
 21
4.6316899999999945
 31
0.0
 12
-9.8224022515393923
 22
4.6316899999999945
 32
0.0
 13
-9.8224022515393923
 23
4.6316899999999945
 33
0.0
  0
WIPEOUT
  5
90
100
AcDbEntity
  8
Dimension
370
              -2
390
0
  6
Continuous
 62
               0
 92
        0
100
AcDbWipeout
 90
        0
 10
-11.535878204339355
 20
0.9741890683593695
 30
0.0
 11
3.8523212485843228
 21
0.0
 31
0.0
 12
0.0
 22
3.8523212485843228
 32
0.0
 13
1.0
 23
1.0
340
0
 70
               7
280
               1
281
              50
282
              50
283
               0
360
0
 71
               2
 91
        5
 14
-0.5
 24
0.5
 14
0.5
 24
0.5
 14
0.5
 24
0.1840659380504
 14
-0.5
 24
0.1840659380504
 14
-0.5
 24
0.5
  0
MTEXT
  5
91
100
AcDbEntity
  8
Dimension
390
0
 62
               0
100
AcDbMText
 10
-11.535878204339355
 20
1.9966901881510359
 30
0.0
 40
0.7579186197916666
 41
0.0
 71
               1
 72
               1
  1
5.08mm
  7
Helvetica
 73
               1
 44
0.9673603504928806
  0
POINT
  5
92
100
AcDbEntity
  8
Defpoints
370
               0
390
0
 62
               0
100
AcDbPoint
 10
-5.1835575800471929
 20
5.4254399999999947
 30
0.0
  0
POINT
  5
93
100
AcDbEntity
  8
Defpoints
370
               0
390
0
 62
               0
100
AcDbPoint
 10
-5.1835575800471929
 20
0.3454399999999964
 30
0.0
  0
POINT
  5
94
100
AcDbEntity
  8
Defpoints
370
               0
390
0
 62
               0
100
AcDbPoint
 10
-9.6097175800471923
 20
0.3454399999999964
 30
0.0
  0
ENDBLK
  5
95
100
AcDbEntity
  8
Dimension
390
0
100
AcDbBlockEnd
  0
BLOCK
  5
96
100
AcDbEntity
  8
Dimension
390
0
100
AcDbBlockBegin
  2
*D8
 70
               1
 10
0.0
 20
0.0
 30
0.0
  3
*D8
  1

  0
LINE
  5
97
100
AcDbEntity
  8
Dimension
370
              -2
390
0
  6
Continuous
 62
               0
100
AcDbLine
 10
8.0176924211355924
 20
10.530439999999992
 30
0.0
 11
13.69083242231838
 21
10.530439999999992
 31
0.0
  0
LINE
  5
98
100
AcDbEntity
  8
Dimension
370
              -2
390
0
  6
Continuous
 62
               0
100
AcDbLine
 10
8.0176924211355924
 20
13.070439999999991
 30
0.0
 11
13.690832422318366
 21
13.070439999999991
 31
0.0
  0
LINE
  5
99
100
AcDbEntity
  8
Dimension
370
              -2
390
0
  6
Continuous
 62
               0
100
AcDbLine
 10
12.738332419952812
 20
13.070439999999991
 30
0.0
 11
12.738332419952812
 21
10.530439999999992
 31
0.0
  0
LINE
  5
9A
100
AcDbEntity
  8
Dimension
370
              -2
390
0
  6
Continuous
 62
               0
100
AcDbLine
 10
12.738332419952812
 20
10.530439999999992
 30
0.0
 11
12.738332419952812
 21
8.7804435016331723
 31
0.0
  0
SOLID
  5
9B
100
AcDbEntity
  8
Dimension
370
              -2
390
0
 62
               0
100
AcDbTrace
 10
12.738332419952812
 20
10.530439999999992
 30
0.0
 11
12.951017091445015
 21
9.7366899999999923
 31
0.0
 12
12.525647748460608
 22
9.7366899999999923
 32
0.0
 13
12.525647748460608
 23
9.7366899999999923
 33
0.0
  0
LINE
  5
9C
100
AcDbEntity
  8
Dimension
370
              -2
390
0
  6
Continuous
 62
               0
100
AcDbLine
 10
12.738332419952812
 20
13.070439999999991
 30
0.0
 11
12.738332419952812
 21
14.82043649836681
 31
0.0
  0
SOLID
  5
9D
100
AcDbEntity
  8
Dimension
370
              -2
390
0
 62
               0
100
AcDbTrace
 10
12.738332419952812
 20
13.070439999999991
 30
0.0
 11
12.525647748460608
 21
13.86418999999999
 31
0.0
 12
12.951017091445015
 22
13.86418999999999
 32
0.0
 13
12.951017091445015
 23
13.86418999999999
 33
0.0
  0
WIPEOUT
  5
9E
100
AcDbEntity
  8
Dimension
370
              -2
390
0
  6
Continuous
 62
               0
 92
        0
100
AcDbWipeout
 90
        0
 10
10.812171795660646
 20
11.191900249999993
 30
0.0
 11
3.8523212485843228
 21
0.0
 31
0.0
 12
0.0
 22
3.8523212485843228
 32
0.0
 13
1.0
 23
1.0
340
0
 70
               7
280
               1
281
              50
282
              50
283
               0
360
0
 71
               2
 91
        5
 14
-0.5
 24
0.5
 14
0.5
 24
0.5
 14
0.5
 24
0.1840659380503998
 14
-0.5
 24
0.1840659380503998
 14
-0.5
 24
0.5
  0
MTEXT
  5
9F
100
AcDbEntity
  8
Dimension
390
0
 62
               0
100
AcDbMText
 10
10.812171795660646
 20
12.214401369791659
 30
0.0
 40
0.7579186197916666
 41
0.0
 71
               1
 72
               1
  1
2.54mm
  7
Helvetica
 73
               1
 44
0.9673603504928806
  0
POINT
  5
A0
100
AcDbEntity
  8
Defpoints
370
               0
390
0
 62
               0
100
AcDbPoint
 10
7.5414424199528156
 20
13.070439999999991
 30
0.0
  0
POINT
  5
A1
100
AcDbEntity
  8
Defpoints
370
               0
390
0
 62
               0
100
AcDbPoint
 10
7.5414424199528156
 20
10.530439999999992
 30
0.0
  0
POINT
  5
A2
100
AcDbEntity
  8
Defpoints
370
               0
390
0
 62
               0
100
AcDbPoint
 10
12.738332419952815
 20
10.530439999999992
 30
0.0
  0
ENDBLK
  5
A3
100
AcDbEntity
  8
Dimension
390
0
100
AcDbBlockEnd
  0
BLOCK
  5
A4
100
AcDbEntity
  8
Dimension
390
0
100
AcDbBlockBegin
  2
*D9
 70
               1
 10
0.0
 20
0.0
 30
0.0
  3
*D9
  1

  0
LINE
  5
A5
100
AcDbEntity
  8
Dimension
370
              -2
390
0
  6
Continuous
 62
               0
100
AcDbLine
 10
-5.1835575800471929
 20
-0.1308100011827804
 30
0.0
 11
-5.1835575800471929
 21
-11.337060002365561
 31
0.0
  0
LINE
  5
A6
100
AcDbEntity
  8
Dimension
370
              -2
390
0
  6
Continuous
 62
               0
100
AcDbLine
 10
7.5414424199528156
 20
-0.1308100011827804
 30
0.0
 11
7.5414424199528156
 21
-11.337060002365561
 31
0.0
  0
LINE
  5
A7
100
AcDbEntity
  8
Dimension
370
              -2
390
0
  6
Continuous
 62
               0
100
AcDbLine
 10
7.5414424199528156
 20
-10.384560000000008
 30
0.0
 11
-5.1835575800471929
 21
-10.384560000000008
 31
0.0
  0
LINE
  5
A8
100
AcDbEntity
  8
Dimension
370
              -2
390
0
  6
Continuous
 62
               0
100
AcDbLine
 10
-5.1835575800471929
 20
-10.384560000000008
 30
0.0
 11
-6.9335540784140051
 21
-10.384560000000008
 31
0.0
  0
SOLID
  5
A9
100
AcDbEntity
  8
Dimension
370
              -2
390
0
 62
               0
100
AcDbTrace
 10
-5.1835575800471929
 20
-10.384560000000008
 30
0.0
 11
-5.9773075800471931
 21
-10.597244671492211
 31
0.0
 12
-5.9773075800471931
 22
-10.171875328507804
 32
0.0
 13
-5.9773075800471931
 23
-10.171875328507804
 33
0.0
  0
LINE
  5
AA
100
AcDbEntity
  8
Dimension
370
              -2
390
0
  6
Continuous
 62
               0
100
AcDbLine
 10
7.5414424199528156
 20
-10.384560000000008
 30
0.0
 11
9.2914389183196278
 21
-10.384560000000008
 31
0.0
  0
SOLID
  5
AB
100
AcDbEntity
  8
Dimension
370
              -2
390
0
 62
               0
100
AcDbTrace
 10
7.5414424199528156
 20
-10.384560000000008
 30
0.0
 11
8.3351924199528149
 21
-10.171875328507804
 31
0.0
 12
8.3351924199528149
 22
-10.597244671492211
 32
0.0
 13
8.3351924199528149
 23
-10.597244671492211
 33
0.0
  0
WIPEOUT
  5
AC
100
AcDbEntity
  8
Dimension
370
              -2
390
0
  6
Continuous
 62
               0
 92
        0
100
AcDbWipeout
 90
        0
 10
-4.9264576635095949
 20
-10.993097833333341
 30
0.0
 11
5.0376507600148521
 21
0.0
 31
0.0
 12
0.0
 22
5.0376507600148521
 32
0.0
 13
1.0
 23
1.0
340
0
 70
               7
280
               1
281
              50
282
              50
283
               0
360
0
 71
               2
 91
        5
 14
-0.5
 24
0.5
 14
0.5
 24
0.5
 14
0.5
 24
0.2584033594269222
 14
-0.5
 24
0.2584033594269222
 14
-0.5
 24
0.5
  0
MTEXT
  5
AD
100
AcDbEntity
  8
Dimension
390
0
 62
               0
100
AcDbMText
 10
-4.9264576635095949
 20
-9.9705967135416742
 30
0.0
 40
0.7579186197916666
 41
0.0
 71
               1
 72
               1
  1
12.725mm
  7
Helvetica
 73
               1
 44
0.9673603504928806
  0
WIPEOUT
  5
AE
100
AcDbEntity
  8
Dimension
370
              -2
390
0
  6
Continuous
 62
               0
 92
        0
100
AcDbWipeout
 90
        0
 10
0.1111930965052608
 20
-10.993099500000003
 30
0.0
 11
5.0270675208833486
 21
0.0
 31
0.0
 12
0.0
 22
5.0270675208833486
 32
0.0
 13
1.0
 23
1.0
340
0
 70
               7
280
               1
281
              50
282
              50
283
               0
360
0
 71
               2
 91
        5
 14
-0.5
 24
0.5
 14
0.5
 24
0.5
 14
0.5
 24
0.2578947378478542
 14
-0.5
 24
0.2578947378478542
 14
-0.5
 24
0.5
  0
MTEXT
  5
AF
100
AcDbEntity
  8
Dimension
390
0
 62
               0
100
AcDbMText
 10
0.1111930965052608
 20
-9.9705983802083367
 30
0.0
 40
0.7579186197916666
 41
0.0
 71
               1
 72
               1
  1
±0.125mm
  7
Helvetica
 73
               1
 44
0.9673603504928806
  0
WIPEOUT
  5
B0
100
AcDbEntity
  8
Dimension
370
              -2
390
0
  6
Continuous
 62
               0
 92
        0
100
AcDbWipeout
 90
        0
 10
5.1382606173886103
 20
-10.993101666666673
 30
0.0
 11
2.10608325931761
 21
0.0
 31
0.0
 12
0.0
 22
2.10608325931761
 32
0.0
 13
1.0
 23
1.0
340
0
 70
               7
280
               1
281
              50
282
              50
283
               0
360
0
 71
               2
 91
        5
 14
-0.5
 24
0.5
 14
0.5
 24
0.5
 14
0.5
 24
-0.0778894675453995
 14
-0.5
 24
-0.0778894675453995
 14
-0.5
 24
0.5
  0
MTEXT
  5
B1
100
AcDbEntity
  8
Dimension
390
0
 62
               0
100
AcDbMText
 10
5.1382606173886103
 20
-9.9705973263888961
 30
0.0
 40
0.7579210069444442
 41
0.0
 71
               1
 72
               1
  1
 (x4)
  7
Helvetica
 73
               1
 44
0.9673603504928806
  0
POINT
  5
B2
100
AcDbEntity
  8
Defpoints
370
               0
390
0
 62
               0
100
AcDbPoint
 10
7.5414424199528156
 20
0.3454399999999964
 30
0.0
  0
POINT
  5
B3
100
AcDbEntity
  8
Defpoints
370
               0
390
0
 62
               0
100
AcDbPoint
 10
-5.1835575800471929
 20
0.3454399999999964
 30
0.0
  0
POINT
  5
B4
100
AcDbEntity
  8
Defpoints
370
               0
390
0
 62
               0
100
AcDbPoint
 10
-5.1835575800471929
 20
-10.384560000000002
 30
0.0
  0
ENDBLK
  5
B5
100
AcDbEntity
  8
Dimension
390
0
100
AcDbBlockEnd
  0
BLOCK
  5
B6
100
AcDbEntity
  8
Dimension
390
0
100
AcDbBlockBegin
  2
*D10
 70
               1
 10
0.0
 20
0.0
 30
0.0
  3
*D10
  1

  0
LINE
  5
B7
100
AcDbEntity
  8
Dimension
370
              -2
390
0
  6
Continuous
 62
               0
100
AcDbLine
 10
5.6089424199528111
 20
4.2479399999999927
 30
0.0
 11
11.278476887682572
 21
2.0853340700007124
 31
0.0
  0
SOLID
  5
B8
100
AcDbEntity
  8
Dimension
370
              -2
390
0
 62
               0
100
AcDbTrace
 10
5.6089424199528111
 20
4.2479399999999927
 30
0.0
 11
6.1536419596285601
 21
4.1906897714328073
 31
0.0
 12
6.0520409444581071
 22
3.9260100778504698
 32
0.0
 13
6.0520409444581071
 23
3.9260100778504698
 33
0.0
  0
LINE
  5
B9
100
AcDbEntity
  8
Dimension
370
              -2
390
0
  6
Continuous
 62
               0
100
AcDbLine
 10
11.278476887682572
 20
2.0853340700007124
 30
0.0
 11
12.778473889662067
 21
2.0853340700007124
 31
0.0
  0
WIPEOUT
  5
BA
100
AcDbEntity
  8
Dimension
370
              -2
390
0
  6
Continuous
 62
               0
 92
        0
100
AcDbWipeout
 90
        0
 10
12.778473889662067
 20
1.476794320000711
 30
0.0
 11
7.6305594868130129
 21
0.0
 31
0.0
 12
0.0
 22
7.6305594868130129
 32
0.0
 13
1.0
 23
1.0
340
0
 70
               7
280
               1
281
              50
282
              50
283
               0
360
0
 71
               2
 91
        5
 14
-0.5
 24
0.5
 14
0.5
 24
0.5
 14
0.5
 24
0.3404993104236546
 14
-0.5
 24
0.3404993104236546
 14
-0.5
 24
0.5
  0
MTEXT
  5
BB
100
AcDbEntity
  8
Dimension
390
0
 62
               0
100
AcDbMText
 10
12.778473889662067
 20
2.4992954397923777
 30
0.0
 40
0.7579186197916666
 41
0.0
 71
               1
 72
               1
  1
0.97 x 0.37 mm 
  7
Helvetica
 73
               1
 44
0.9673603504928806
  0
POINT
  5
BC
100
AcDbEntity
  8
Defpoints
370
               0
390
0
 62
               0
100
AcDbPoint
 10
4.6389424199528122
 20
4.6179399999999973
 30
0.0
  0
POINT
  5
BD
100
AcDbEntity
  8
Defpoints
370
               0
390
0
 62
               0
100
AcDbPoint
 10
5.6089424199528111
 20
4.2479399999999927
 30
0.0
  0
ENDBLK
  5
BE
100
AcDbEntity
  8
Dimension
390
0
100
AcDbBlockEnd
  0
BLOCK
  5
BF
100
AcDbEntity
  8
Dimension
390
0
100
AcDbBlockBegin
  2
*D11
 70
               1
 10
0.0
 20
0.0
 30
0.0
  3
*D11
  1

  0
LINE
  5
C0
100
AcDbEntity
  8
Dimension
370
              -2
390
0
  6
Continuous
 62
               0
100
AcDbLine
 10
-2.7510575800471884
 20
3.0916899988172162
 30
0.0
 11
-2.7510575800471884
 21
-7.7370600023655669
 31
0.0
  0
LINE
  5
C1
100
AcDbEntity
  8
Dimension
370
              -2
390
0
  6
Continuous
 62
               0
100
AcDbLine
 10
5.6089424199528111
 20
3.0916899988172162
 30
0.0
 11
5.6089424199528111
 21
-7.7370600023655527
 31
0.0
  0
LINE
  5
C2
100
AcDbEntity
  8
Dimension
370
              -2
390
0
  6
Continuous
 62
               0
100
AcDbLine
 10
-2.7510575800471884
 20
-6.784559999999999
 30
0.0
 11
5.6089424199528111
 21
-6.784559999999999
 31
0.0
  0
SOLID
  5
C3
100
AcDbEntity
  8
Dimension
370
              -2
390
0
 62
               0
100
AcDbTrace
 10
-2.7510575800471884
 20
-6.784559999999999
 30
0.0
 11
-1.9573075800471884
 21
-6.5718753285077955
 31
0.0
 12
-1.9573075800471884
 22
-6.9972446714922025
 32
0.0
 13
-1.9573075800471884
 23
-6.9972446714922025
 33
0.0
  0
SOLID
  5
C4
100
AcDbEntity
  8
Dimension
370
              -2
390
0
 62
               0
100
AcDbTrace
 10
5.6089424199528111
 20
-6.784559999999999
 30
0.0
 11
4.8151924199528109
 21
-6.9972446714922025
 31
0.0
 12
4.8151924199528109
 22
-6.5718753285077955
 32
0.0
 13
4.8151924199528109
 23
-6.5718753285077955
 33
0.0
  0
WIPEOUT
  5
C5
100
AcDbEntity
  8
Dimension
370
              -2
390
0
  6
Continuous
 62
               0
 92
        0
100
AcDbWipeout
 90
        0
 10
-0.3320235021909213
 20
-7.3930997500000073
 30
0.0
 11
3.8523212485843232
 21
0.0
 31
0.0
 12
0.0
 22
3.8523212485843232
 32
0.0
 13
1.0
 23
1.0
340
0
 70
               7
280
               1
281
              50
282
              50
283
               0
360
0
 71
               2
 91
        5
 14
-0.5
 24
0.5
 14
0.5
 24
0.5
 14
0.5
 24
0.1840659380504001
 14
-0.5
 24
0.1840659380504001
 14
-0.5
 24
0.5
  0
MTEXT
  5
C6
100
AcDbEntity
  8
Dimension
390
0
 62
               0
100
AcDbMText
 10
-0.3320235021909213
 20
-6.3705986302083408
 30
0.0
 40
0.7579186197916666
 41
0.0
 71
               1
 72
               1
  1
8.36mm
  7
Helvetica
 73
               1
 44
0.9673603504928806
  0
POINT
  5
C7
100
AcDbEntity
  8
Defpoints
370
               0
390
0
 62
               0
100
AcDbPoint
 10
5.6089424199528111
 20
3.567939999999993
 30
0.0
  0
POINT
  5
C8
100
AcDbEntity
  8
Defpoints
370
               0
390
0
 62
               0
100
AcDbPoint
 10
-2.7510575800471884
 20
3.567939999999993
 30
0.0
  0
POINT
  5
C9
100
AcDbEntity
  8
Defpoints
370
               0
390
0
 62
               0
100
AcDbPoint
 10
-2.7510575800471884
 20
-6.7845600000000061
 30
0.0
  0
ENDBLK
  5
CA
100
AcDbEntity
  8
Dimension
390
0
100
AcDbBlockEnd
  0
BLOCK
  5
CB
100
AcDbEntity
  8
Dimension
390
0
100
AcDbBlockBegin
  2
*D12
 70
               1
 10
0.0
 20
0.0
 30
0.0
  3
*D12
  1

  0
LINE
  5
CC
100
AcDbEntity
  8
Dimension
370
              -2
390
0
  6
Continuous
 62
               0
100
AcDbLine
 10
-2.157307581229972
 20
10.887939999999993
 30
0.0
 11
-19.093557582412757
 21
10.887939999999993
 31
0.0
  0
LINE
  5
CD
100
AcDbEntity
  8
Dimension
370
              -2
390
0
  6
Continuous
 62
               0
100
AcDbLine
 10
-2.157307581229972
 20
2.5279399999999939
 30
0.0
 11
-19.093557582412743
 21
2.5279399999999939
 31
0.0
  0
LINE
  5
CE
100
AcDbEntity
  8
Dimension
370
              -2
390
0
  6
Continuous
 62
               0
100
AcDbLine
 10
-18.141057580047189
 20
10.887939999999993
 30
0.0
 11
-18.141057580047189
 21
2.5279399999999939
 31
0.0
  0
SOLID
  5
CF
100
AcDbEntity
  8
Dimension
370
              -2
390
0
 62
               0
100
AcDbTrace
 10
-18.141057580047189
 20
10.887939999999993
 30
0.0
 11
-17.928372908554987
 21
10.094189999999994
 31
0.0
 12
-18.353742251539394
 22
10.094189999999994
 32
0.0
 13
-18.353742251539394
 23
10.094189999999994
 33
0.0
  0
SOLID
  5
D0
100
AcDbEntity
  8
Dimension
370
              -2
390
0
 62
               0
100
AcDbTrace
 10
-18.141057580047189
 20
2.5279399999999939
 30
0.0
 11
-18.353742251539394
 21
3.321689999999994
 31
0.0
 12
-17.928372908554984
 22
3.321689999999994
 32
0.0
 13
-17.928372908554984
 23
3.321689999999994
 33
0.0
  0
WIPEOUT
  5
D1
100
AcDbEntity
  8
Dimension
370
              -2
390
0
  6
Continuous
 62
               0
 92
        0
100
AcDbWipeout
 90
        0
 10
-20.067218204339355
 20
5.7042085996093705
 30
0.0
 11
3.8523212485843246
 21
0.0
 31
0.0
 12
0.0
 22
3.8523212485843246
 32
0.0
 13
1.0
 23
1.0
340
0
 70
               7
280
               1
281
              50
282
              50
283
               0
360
0
 71
               2
 91
        5
 14
-0.5
 24
0.5
 14
0.5
 24
0.5
 14
0.5
 24
0.1840659380504002
 14
-0.5
 24
0.1840659380504002
 14
-0.5
 24
0.5
  0
MTEXT
  5
D2
100
AcDbEntity
  8
Dimension
390
0
 62
               0
100
AcDbMText
 10
-20.067218204339355
 20
6.726709719401037
 30
0.0
 40
0.7579186197916666
 41
0.0
 71
               1
 72
               1
  1
8.36mm
  7
Helvetica
 73
               1
 44
0.9673603504928806
  0
POINT
  5
D3
100
AcDbEntity
  8
Defpoints
370
               0
390
0
 62
               0
100
AcDbPoint
 10
-1.6810575800471952
 20
2.5279399999999939
 30
0.0
  0
POINT
  5
D4
100
AcDbEntity
  8
Defpoints
370
               0
390
0
 62
               0
100
AcDbPoint
 10
-1.6810575800471952
 20
10.887939999999993
 30
0.0
  0
POINT
  5
D5
100
AcDbEntity
  8
Defpoints
370
               0
390
0
 62
               0
100
AcDbPoint
 10
-18.141057580047192
 20
10.887939999999993
 30
0.0
  0
ENDBLK
  5
D6
100
AcDbEntity
  8
Dimension
390
0
100
AcDbBlockEnd
  0
BLOCK
  5
D7
100
AcDbEntity
  8
Dimension
390
0
100
AcDbBlockBegin
  2
*D13
 70
               1
 10
0.0
 20
0.0
 30
0.0
  3
*D13
  1

  0
LINE
  5
D8
100
AcDbEntity
  8
Dimension
370
              -2
390
0
  6
Continuous
 62
               0
100
AcDbLine
 10
-3.2273075812299652
 20
9.817939999999993
 30
0.0
 11
-13.64355758241274
 21
9.817939999999993
 31
0.0
  0
LINE
  5
D9
100
AcDbEntity
  8
Dimension
370
              -2
390
0
  6
Continuous
 62
               0
100
AcDbLine
 10
-3.2273075812299652
 20
3.5979399999999941
 30
0.0
 11
-13.64355758241274
 21
3.5979399999999941
 31
0.0
  0
LINE
  5
DA
100
AcDbEntity
  8
Dimension
370
              -2
390
0
  6
Continuous
 62
               0
100
AcDbLine
 10
-12.691057580047186
 20
9.817939999999993
 30
0.0
 11
-12.691057580047186
 21
3.5979399999999941
 31
0.0
  0
SOLID
  5
DB
100
AcDbEntity
  8
Dimension
370
              -2
390
0
 62
               0
100
AcDbTrace
 10
-12.691057580047186
 20
9.817939999999993
 30
0.0
 11
-12.478372908554983
 21
9.0241899999999937
 31
0.0
 12
-12.90374225153939
 22
9.0241899999999937
 32
0.0
 13
-12.90374225153939
 23
9.0241899999999937
 33
0.0
  0
SOLID
  5
DC
100
AcDbEntity
  8
Dimension
370
              -2
390
0
 62
               0
100
AcDbTrace
 10
-12.691057580047186
 20
3.5979399999999941
 30
0.0
 11
-12.90374225153939
 21
4.3916899999999943
 31
0.0
 12
-12.478372908554983
 22
4.3916899999999943
 32
0.0
 13
-12.478372908554983
 23
4.3916899999999943
 33
0.0
  0
WIPEOUT
  5
DD
100
AcDbEntity
  8
Dimension
370
              -2
390
0
  6
Continuous
 62
               0
 92
        0
100
AcDbWipeout
 90
        0
 10
-14.617218204339352
 20
5.9776311459960896
 30
0.0
 11
3.8523212485843228
 21
0.0
 31
0.0
 12
0.0
 22
3.8523212485843228
 32
0.0
 13
1.0
 23
1.0
340
0
 70
               7
280
               1
281
              50
282
              50
283
               0
360
0
 71
               2
 91
        5
 14
-0.5
 24
0.5
 14
0.5
 24
0.5
 14
0.5
 24
0.1840659380504001
 14
-0.5
 24
0.1840659380504001
 14
-0.5
 24
0.5
  0
MTEXT
  5
DE
100
AcDbEntity
  8
Dimension
390
0
 62
               0
100
AcDbMText
 10
-14.617218204339352
 20
7.000132265787756
 30
0.0
 40
0.7579186197916666
 41
0.0
 71
               1
 72
               1
  1
6.22mm
  7
Helvetica
 73
               1
 44
0.9673603504928806
  0
POINT
  5
DF
100
AcDbEntity
  8
Defpoints
370
               0
390
0
 62
               0
100
AcDbPoint
 10
-2.7510575800471884
 20
3.5979399999999941
 30
0.0
  0
POINT
  5
E0
100
AcDbEntity
  8
Defpoints
370
               0
390
0
 62
               0
100
AcDbPoint
 10
-2.7510575800471884
 20
9.817939999999993
 30
0.0
  0
POINT
  5
E1
100
AcDbEntity
  8
Defpoints
370
               0
390
0
 62
               0
100
AcDbPoint
 10
-12.691057580047188
 20
9.817939999999993
 30
0.0
  0
ENDBLK
  5
E2
100
AcDbEntity
  8
Dimension
390
0
100
AcDbBlockEnd
  0
BLOCK
  5
E3
100
AcDbEntity
  8
Dimension
390
0
100
AcDbBlockBegin
  2
*D14
 70
               1
 10
0.0
 20
0.0
 30
0.0
  3
*D14
  1

  0
LINE
  5
E4
100
AcDbEntity
  8
Dimension
370
              -2
390
0
  6
Continuous
 62
               0
100
AcDbLine
 10
-1.6810575800471952
 20
2.051689998817217
 30
0.0
 11
-1.6810575800471952
 21
-4.9449000023655572
 31
0.0
  0
LINE
  5
E5
100
AcDbEntity
  8
Dimension
370
              -2
390
0
  6
Continuous
 62
               0
100
AcDbLine
 10
4.5389424199528037
 20
2.051689998817217
 30
0.0
 11
4.5389424199528037
 21
-4.9449000023655572
 31
0.0
  0
LINE
  5
E6
100
AcDbEntity
  8
Dimension
370
              -2
390
0
  6
Continuous
 62
               0
100
AcDbLine
 10
4.5389424199528037
 20
-3.9924000000000035
 30
0.0
 11
-1.6810575800471952
 21
-3.9924000000000035
 31
0.0
  0
LINE
  5
E7
100
AcDbEntity
  8
Dimension
370
              -2
390
0
  6
Continuous
 62
               0
100
AcDbLine
 10
-1.6810575800471952
 20
-3.9924000000000035
 30
0.0
 11
-3.4310540784140073
 21
-3.9924000000000035
 31
0.0
  0
SOLID
  5
E8
100
AcDbEntity
  8
Dimension
370
              -2
390
0
 62
               0
100
AcDbTrace
 10
-1.6810575800471952
 20
-3.9924000000000035
 30
0.0
 11
-2.4748075800471954
 21
-4.205084671492207
 31
0.0
 12
-2.4748075800471949
 22
-3.7797153285077996
 32
0.0
 13
-2.4748075800471949
 23
-3.7797153285077996
 33
0.0
  0
LINE
  5
E9
100
AcDbEntity
  8
Dimension
370
              -2
390
0
  6
Continuous
 62
               0
100
AcDbLine
 10
4.5389424199528037
 20
-3.9924000000000035
 30
0.0
 11
6.2889389183196158
 21
-3.9924000000000035
 31
0.0
  0
SOLID
  5
EA
100
AcDbEntity
  8
Dimension
370
              -2
390
0
 62
               0
100
AcDbTrace
 10
4.5389424199528037
 20
-3.9924000000000035
 30
0.0
 11
5.3326924199528039
 21
-3.7797153285078
 31
0.0
 12
5.3326924199528039
 22
-4.205084671492207
 32
0.0
 13
5.3326924199528039
 23
-4.205084671492207
 33
0.0
  0
WIPEOUT
  5
EB
100
AcDbEntity
  8
Dimension
370
              -2
390
0
  6
Continuous
 62
               0
 92
        0
100
AcDbWipeout
 90
        0
 10
-0.5222743566831127
 20
-4.6009397500000118
 30
0.0
 11
3.8523212485843232
 21
0.0
 31
0.0
 12
0.0
 22
3.8523212485843232
 32
0.0
 13
1.0
 23
1.0
340
0
 70
               7
280
               1
281
              50
282
              50
283
               0
360
0
 71
               2
 91
        5
 14
-0.5
 24
0.5
 14
0.5
 24
0.5
 14
0.5
 24
0.1840659380504001
 14
-0.5
 24
0.1840659380504001
 14
-0.5
 24
0.5
  0
MTEXT
  5
EC
100
AcDbEntity
  8
Dimension
390
0
 62
               0
100
AcDbMText
 10
-0.5222743566831127
 20
-3.5784386302083453
 30
0.0
 40
0.7579186197916666
 41
0.0
 71
               1
 72
               1
  1
6.22mm
  7
Helvetica
 73
               1
 44
0.9673603504928806
  0
POINT
  5
ED
100
AcDbEntity
  8
Defpoints
370
               0
390
0
 62
               0
100
AcDbPoint
 10
4.5389424199528037
 20
2.5279399999999939
 30
0.0
  0
POINT
  5
EE
100
AcDbEntity
  8
Defpoints
370
               0
390
0
 62
               0
100
AcDbPoint
 10
-1.6810575800471952
 20
2.5279399999999939
 30
0.0
  0
POINT
  5
EF
100
AcDbEntity
  8
Defpoints
370
               0
390
0
 62
               0
100
AcDbPoint
 10
-1.6810575800471952
 20
-3.9924000000000053
 30
0.0
  0
ENDBLK
  5
F0
100
AcDbEntity
  8
Dimension
390
0
100
AcDbBlockEnd
  0
BLOCK
  5
F1
100
AcDbEntity
  8
Dimension
390
0
100
AcDbBlockBegin
  2
*D15
 70
               1
 10
0.0
 20
0.0
 30
0.0
  3
*D15
  1

  0
LINE
  5
F2
100
AcDbEntity
  8
Dimension
370
              -2
390
0
  6
Continuous
 62
               0
100
AcDbLine
 10
-5.1835575800471929
 20
13.546690001182768
 30
0.0
 11
-5.1835575800471929
 21
23.817940002365546
 31
0.0
  0
LINE
  5
F3
100
AcDbEntity
  8
Dimension
370
              -2
390
0
  6
Continuous
 62
               0
100
AcDbLine
 10
-6.4335575800471929
 20
14.796690001182768
 30
0.0
 11
-6.4335575800471929
 21
23.817940002365553
 31
0.0
  0
LINE
  5
F4
100
AcDbEntity
  8
Dimension
370
              -2
390
0
  6
Continuous
 62
               0
100
AcDbLine
 10
-6.4335575800471929
 20
22.865439999999992
 30
0.0
 11
-5.1835575800471929
 21
22.865439999999992
 31
0.0
  0
LINE
  5
F5
100
AcDbEntity
  8
Dimension
370
              -2
390
0
  6
Continuous
 62
               0
100
AcDbLine
 10
-5.1835575800471929
 20
22.865439999999992
 30
0.0
 11
-3.1910575800471861
 21
22.865439999999992
 31
0.0
  0
SOLID
  5
F6
100
AcDbEntity
  8
Dimension
370
              -2
390
0
 62
               0
100
AcDbTrace
 10
-5.1835575800471929
 20
22.865439999999992
 30
0.0
 11
-4.3898075800471927
 21
23.078124671492198
 31
0.0
 12
-4.3898075800471927
 22
22.652755328507787
 32
0.0
 13
-4.3898075800471927
 23
22.652755328507787
 33
0.0
  0
LINE
  5
F7
100
AcDbEntity
  8
Dimension
370
              -2
390
0
  6
Continuous
 62
               0
100
AcDbLine
 10
-6.4335575800471929
 20
22.865439999999992
 30
0.0
 11
-8.1835540784140051
 21
22.865439999999992
 31
0.0
  0
SOLID
  5
F8
100
AcDbEntity
  8
Dimension
370
              -2
390
0
 62
               0
100
AcDbTrace
 10
-6.4335575800471929
 20
22.865439999999992
 30
0.0
 11
-7.2273075800471931
 21
22.652755328507787
 31
0.0
 12
-7.2273075800471931
 22
23.078124671492198
 32
0.0
 13
-7.2273075800471931
 23
23.078124671492198
 33
0.0
  0
WIPEOUT
  5
F9
100
AcDbEntity
  8
Dimension
370
              -2
390
0
  6
Continuous
 62
               0
 92
        0
100
AcDbWipeout
 90
        0
 10
-3.1910575800471861
 20
22.256902166666652
 30
0.0
 11
3.8523212485843232
 21
0.0
 31
0.0
 12
0.0
 22
3.8523212485843232
 32
0.0
 13
1.0
 23
1.0
340
0
 70
               7
280
               1
281
              50
282
              50
283
               0
360
0
 71
               2
 91
        5
 14
-0.5
 24
0.5
 14
0.5
 24
0.5
 14
0.5
 24
0.1840659380503998
 14
-0.5
 24
0.1840659380503998
 14
-0.5
 24
0.5
  0
MTEXT
  5
FA
100
AcDbEntity
  8
Dimension
390
0
 62
               0
100
AcDbMText
 10
-3.1910575800471861
 20
23.279403286458319
 30
0.0
 40
0.7579186197916666
 41
0.0
 71
               1
 72
               1
  1
1.25mm
  7
Helvetica
 73
               1
 44
0.9673603504928806
  0
WIPEOUT
  5
FB
100
AcDbEntity
  8
Dimension
370
              -2
390
0
  6
Continuous
 62
               0
 92
        0
100
AcDbWipeout
 90
        0
 10
0.6612636685371314
 20
22.25690049999999
 30
0.0
 11
5.0270675208833486
 21
0.0
 31
0.0
 12
0.0
 22
5.0270675208833486
 32
0.0
 13
1.0
 23
1.0
340
0
 70
               7
280
               1
281
              50
282
              50
283
               0
360
0
 71
               2
 91
        5
 14
-0.5
 24
0.5
 14
0.5
 24
0.5
 14
0.5
 24
0.2578947378478542
 14
-0.5
 24
0.2578947378478542
 14
-0.5
 24
0.5
  0
MTEXT
  5
FC
100
AcDbEntity
  8
Dimension
390
0
 62
               0
100
AcDbMText
 10
0.6612636685371314
 20
23.279401619791656
 30
0.0
 40
0.7579186197916666
 41
0.0
 71
               1
 72
               1
  1
±0.125mm
  7
Helvetica
 73
               1
 44
0.9673603504928806
  0
WIPEOUT
  5
FD
100
AcDbEntity
  8
Dimension
370
              -2
390
0
  6
Continuous
 62
               0
 92
        0
100
AcDbWipeout
 90
        0
 10
5.6883311894204809
 20
22.256898333333321
 30
0.0
 11
2.10608325931761
 21
0.0
 31
0.0
 12
0.0
 22
2.10608325931761
 32
0.0
 13
1.0
 23
1.0
340
0
 70
               7
280
               1
281
              50
282
              50
283
               0
360
0
 71
               2
 91
        5
 14
-0.5
 24
0.5
 14
0.5
 24
0.5
 14
0.5
 24
-0.0778894675453986
 14
-0.5
 24
-0.0778894675453986
 14
-0.5
 24
0.5
  0
MTEXT
  5
FE
100
AcDbEntity
  8
Dimension
390
0
 62
               0
100
AcDbMText
 10
5.6883311894204809
 20
23.279402673611099
 30
0.0
 40
0.7579210069444442
 41
0.0
 71
               1
 72
               1
  1
 (x4)
  7
Helvetica
 73
               1
 44
0.9673603504928806
  0
POINT
  5
FF
100
AcDbEntity
  8
Defpoints
370
               0
390
0
 62
               0
100
AcDbPoint
 10
-6.4335575800471929
 20
14.320439999999991
 30
0.0
  0
POINT
  5
100
100
AcDbEntity
  8
Defpoints
370
               0
390
0
 62
               0
100
AcDbPoint
 10
-5.1835575800471929
 20
13.070439999999991
 30
0.0
  0
POINT
  5
101
100
AcDbEntity
  8
Defpoints
370
               0
390
0
 62
               0
100
AcDbPoint
 10
-5.1835575800471929
 20
22.865439999999992
 30
0.0
  0
ENDBLK
  5
102
100
AcDbEntity
  8
Dimension
390
0
100
AcDbBlockEnd
  0
BLOCK
  5
103
100
AcDbEntity
  8
Dimension
390
0
100
AcDbBlockBegin
  2
*D16
 70
               1
 10
0.0
 20
0.0
 30
0.0
  3
*D16
  1

  0
LINE
  5
104
100
AcDbEntity
  8
Dimension
370
              -2
390
0
  6
Continuous
 62
               0
100
AcDbLine
 10
-6.9098075812299697
 20
14.320439999999991
 30
0.0
 11
-17.743557582412748
 21
14.320439999999991
 31
0.0
  0
LINE
  5
105
100
AcDbEntity
  8
Dimension
370
              -2
390
0
  6
Continuous
 62
               0
100
AcDbLine
 10
-5.6598075812299697
 20
13.070439999999991
 30
0.0
 11
-17.743557582412748
 21
13.070439999999991
 31
0.0
  0
LINE
  5
106
100
AcDbEntity
  8
Dimension
370
              -2
390
0
  6
Continuous
 62
               0
100
AcDbLine
 10
-16.791057580047195
 20
13.070439999999991
 30
0.0
 11
-16.791057580047195
 21
14.320439999999991
 31
0.0
  0
LINE
  5
107
100
AcDbEntity
  8
Dimension
370
              -2
390
0
  6
Continuous
 62
               0
100
AcDbLine
 10
-16.791057580047195
 20
14.320439999999991
 30
0.0
 11
-16.791057580047195
 21
17.115439999999992
 31
0.0
  0
SOLID
  5
108
100
AcDbEntity
  8
Dimension
370
              -2
390
0
 62
               0
100
AcDbTrace
 10
-16.791057580047195
 20
14.320439999999991
 30
0.0
 11
-17.0037422515394
 21
15.11418999999999
 31
0.0
 12
-16.578372908554989
 22
15.11418999999999
 32
0.0
 13
-16.578372908554989
 23
15.11418999999999
 33
0.0
  0
LINE
  5
109
100
AcDbEntity
  8
Dimension
370
              -2
390
0
  6
Continuous
 62
               0
100
AcDbLine
 10
-16.791057580047195
 20
13.070439999999991
 30
0.0
 11
-16.791057580047195
 21
11.320443501633171
 31
0.0
  0
SOLID
  5
10A
100
AcDbEntity
  8
Dimension
370
              -2
390
0
 62
               0
100
AcDbTrace
 10
-16.791057580047195
 20
13.070439999999991
 30
0.0
 11
-16.578372908554993
 21
12.276689999999991
 31
0.0
 12
-17.0037422515394
 22
12.276689999999991
 32
0.0
 13
-17.0037422515394
 23
12.276689999999991
 33
0.0
  0
WIPEOUT
  5
10B
100
AcDbEntity
  8
Dimension
370
              -2
390
0
  6
Continuous
 62
               0
 92
        0
100
AcDbWipeout
 90
        0
 10
-22.283793594439828
 20
16.506902166666652
 30
0.0
 11
3.8523212485843246
 21
0.0
 31
0.0
 12
0.0
 22
3.8523212485843246
 32
0.0
 13
1.0
 23
1.0
340
0
 70
               7
280
               1
281
              50
282
              50
283
               0
360
0
 71
               2
 91
        5
 14
-0.5
 24
0.5
 14
0.5
 24
0.5
 14
0.5
 24
0.1840659380504
 14
-0.5
 24
0.1840659380504
 14
-0.5
 24
0.5
  0
MTEXT
  5
10C
100
AcDbEntity
  8
Dimension
390
0
 62
               0
100
AcDbMText
 10
-22.283793594439828
 20
17.529403286458319
 30
0.0
 40
0.7579186197916666
 41
0.0
 71
               1
 72
               1
  1
1.25mm
  7
Helvetica
 73
               1
 44
0.9673603504928806
  0
WIPEOUT
  5
10D
100
AcDbEntity
  8
Dimension
370
              -2
390
0
  6
Continuous
 62
               0
 92
        0
100
AcDbWipeout
 90
        0
 10
-18.431472345855511
 20
16.50690049999999
 30
0.0
 11
5.0270675208833495
 21
0.0
 31
0.0
 12
0.0
 22
5.0270675208833495
 32
0.0
 13
1.0
 23
1.0
340
0
 70
               7
280
               1
281
              50
282
              50
283
               0
360
0
 71
               2
 91
        5
 14
-0.5
 24
0.5
 14
0.5
 24
0.5
 14
0.5
 24
0.2578947378478543
 14
-0.5
 24
0.2578947378478543
 14
-0.5
 24
0.5
  0
MTEXT
  5
10E
100
AcDbEntity
  8
Dimension
390
0
 62
               0
100
AcDbMText
 10
-18.431472345855511
 20
17.529401619791656
 30
0.0
 40
0.7579186197916666
 41
0.0
 71
               1
 72
               1
  1
±0.125mm
  7
Helvetica
 73
               1
 44
0.9673603504928806
  0
WIPEOUT
  5
10F
100
AcDbEntity
  8
Dimension
370
              -2
390
0
  6
Continuous
 62
               0
 92
        0
100
AcDbWipeout
 90
        0
 10
-13.404404824972161
 20
16.506898333333321
 30
0.0
 11
2.1060832593176109
 21
0.0
 31
0.0
 12
0.0
 22
2.1060832593176109
 32
0.0
 13
1.0
 23
1.0
340
0
 70
               7
280
               1
281
              50
282
              50
283
               0
360
0
 71
               2
 91
        5
 14
-0.5
 24
0.5
 14
0.5
 24
0.5
 14
0.5
 24
-0.0778894675453984
 14
-0.5
 24
-0.0778894675453984
 14
-0.5
 24
0.5
  0
MTEXT
  5
110
100
AcDbEntity
  8
Dimension
390
0
 62
               0
100
AcDbMText
 10
-13.404404824972161
 20
17.529402673611099
 30
0.0
 40
0.7579210069444442
 41
0.0
 71
               1
 72
               1
  1
 (x4)
  7
Helvetica
 73
               1
 44
0.9673603504928806
  0
POINT
  5
111
100
AcDbEntity
  8
Defpoints
370
               0
390
0
 62
               0
100
AcDbPoint
 10
-5.1835575800471929
 20
13.070439999999991
 30
0.0
  0
POINT
  5
112
100
AcDbEntity
  8
Defpoints
370
               0
390
0
 62
               0
100
AcDbPoint
 10
-6.4335575800471929
 20
14.320439999999991
 30
0.0
  0
POINT
  5
113
100
AcDbEntity
  8
Defpoints
370
               0
390
0
 62
               0
100
AcDbPoint
 10
-16.791057580047195
 20
14.320439999999991
 30
0.0
  0
ENDBLK
  5
114
100
AcDbEntity
  8
Dimension
390
0
100
AcDbBlockEnd
  0
BLOCK
  5
115
100
AcDbEntity
  8
Dimension
390
0
100
AcDbBlockBegin
  2
*D17
 70
               1
 10
0.0
 20
0.0
 30
0.0
  3
*D17
  1

  0
LINE
  5
116
100
AcDbEntity
  8
Dimension
370
              -2
390
0
  6
Continuous
 62
               0
100
AcDbLine
 10
8.3001024199528075
 20
0.0762499999999946
 30
0.0
 11
14.075525633287654
 21
-1.9730366933914922
 31
0.0
  0
SOLID
  5
117
100
AcDbEntity
  8
Dimension
370
              -2
390
0
 62
               0
100
AcDbTrace
 10
8.3001024199528075
 20
0.0762499999999946
 30
0.0
 11
8.845718153507935
 21
0.0285148086725398
 31
0.0
 12
8.7487519102523024
 22
-0.2378977551216555
 32
0.0
 13
8.7487519102523024
 23
-0.2378977551216555
 33
0.0
  0
LINE
  5
118
100
AcDbEntity
  8
Dimension
370
              -2
390
0
  6
Continuous
 62
               0
100
AcDbLine
 10
14.075525633287654
 20
-1.9730366933914922
 30
0.0
 11
15.575522635267149
 21
-1.9730366933914922
 31
0.0
  0
WIPEOUT
  5
119
100
AcDbEntity
  8
Dimension
370
              -2
390
0
  6
Continuous
 62
               0
 92
        0
100
AcDbWipeout
 90
        0
 10
14.363734773681543
 20
-2.5815747767248238
 30
0.0
 11
4.9741509887907256
 21
0.0
 31
0.0
 12
0.0
 22
4.9741509887907256
 32
0.0
 13
1.0
 23
1.0
340
0
 70
               7
280
               1
281
              50
282
              50
283
               0
360
0
 71
               2
 91
        5
 14
-0.5
 24
0.5
 14
0.5
 24
0.5
 14
0.5
 24
0.2553191483847808
 14
-0.5
 24
0.2553191483847808
 14
-0.5
 24
0.5
  0
MTEXT
  5
11A
100
AcDbEntity
  8
Dimension
390
0
 62
               0
100
AcDbMText
 10
14.363734773681543
 20
-1.5590736569331576
 30
0.0
 40
0.7579186197916666
 41
0.0
 71
               1
 72
               1
  1
Ø 1.61mm
  7
Helvetica
 73
               1
 44
0.9673603504928806
  0
WIPEOUT
  5
11B
100
AcDbEntity
  8
Dimension
370
              -2
390
0
  6
Continuous
 62
               0
 92
        0
100
AcDbWipeout
 90
        0
 10
19.337885762472272
 20
-3.143814360058161
 30
0.0
 11
1.2170794999999996
 21
0.0
 31
0.0
 12
0.0
 22
1.2170794999999996
 32
0.0
 13
1.0
 23
1.0
340
0
 70
               7
280
               1
281
              50
282
              50
283
               0
360
0
 71
               2
 91
        5
 14
-0.5
 24
0.5
 14
-0.2130434700853519
 24
0.5
 14
-0.2130434700853519
 24
-0.5
 14
-0.5
 24
-0.5
 14
-0.5
 24
0.5
  0
MTEXT
  5
11C
100
AcDbEntity
  8
Dimension
390
0
 62
               0
100
AcDbMText
 10
19.512510217447399
 20
-2.1213132402664945
 30
0.0
 40
0.7579186197916666
 41
0.0
 71
               2
 72
               1
  1
-
  7
Helvetica
 73
               1
 44
0.9673603504928806
  0
WIPEOUT
  5
11D
100
AcDbEntity
  8
Dimension
370
              -2
390
0
  6
Continuous
 62
               0
 92
        0
100
AcDbWipeout
 90
        0
 10
19.68713467242253
 20
-2.0193385267248187
 30
0.0
 11
2.3706591910786088
 21
0.0
 31
0.0
 12
0.0
 22
2.3706591910786088
 32
0.0
 13
1.0
 23
1.0
340
0
 70
               7
280
               1
281
              50
282
              50
283
               0
360
0
 71
               2
 91
        5
 14
-0.5
 24
0.5
 14
0.5
 24
0.5
 14
0.5
 24
-0.0133928590748844
 14
-0.5
 24
-0.0133928590748844
 14
-0.5
 24
0.5
  0
MTEXT
  5
11E
100
AcDbEntity
  8
Dimension
390
0
 62
               0
100
AcDbMText
 10
19.68713467242253
 20
-0.9968374069331525
 30
0.0
 40
0.7579186197916666
 41
0.0
 71
               1
 72
               1
  1
0mm
  7
Helvetica
 73
               1
 44
0.9673603504928806
  0
WIPEOUT
  5
11F
100
AcDbEntity
  8
Dimension
370
              -2
390
0
  6
Continuous
 62
               0
 92
        0
100
AcDbWipeout
 90
        0
 10
19.68713467242253
 20
-3.143814360058161
 30
0.0
 11
4.4449860042995866
 21
0.0
 31
0.0
 12
0.0
 22
4.4449860042995866
 32
0.0
 13
1.0
 23
1.0
340
0
 70
               7
280
               1
281
              50
282
              50
283
               0
360
0
 71
               2
 91
        5
 14
-0.5
 24
0.5
 14
0.5
 24
0.5
 14
0.5
 24
0.2261904764553293
 14
-0.5
 24
0.2261904764553293
 14
-0.5
 24
0.5
  0
MTEXT
  5
120
100
AcDbEntity
  8
Dimension
390
0
 62
               0
100
AcDbMText
 10
19.68713467242253
 20
-2.1213132402664945
 30
0.0
 40
0.7579186197916666
 41
0.0
 71
               1
 72
               1
  1
0.025mm
  7
Helvetica
 73
               1
 44
0.9673603504928806
  0
WIPEOUT
  5
121
100
AcDbEntity
  8
Dimension
370
              -2
390
0
  6
Continuous
 62
               0
 92
        0
100
AcDbWipeout
 90
        0
 10
24.13212067672211
 20
-2.5815786100581573
 30
0.0
 11
2.1060832593176109
 21
0.0
 31
0.0
 12
0.0
 22
2.1060832593176109
 32
0.0
 13
1.0
 23
1.0
340
0
 70
               7
280
               1
281
              50
282
              50
283
               0
360
0
 71
               2
 91
        5
 14
-0.5
 24
0.5
 14
0.5
 24
0.5
 14
0.5
 24
-0.0778894675453992
 14
-0.5
 24
-0.0778894675453992
 14
-0.5
 24
0.5
  0
MTEXT
  5
122
100
AcDbEntity
  8
Dimension
390
0
 62
               0
100
AcDbMText
 10
24.13212067672211
 20
-1.5590742697803797
 30
0.0
 40
0.7579210069444442
 41
0.0
 71
               1
 72
               1
  1
 (x4)
  7
Helvetica
 73
               1
 44
0.9673603504928806
  0
POINT
  5
123
100
AcDbEntity
  8
Defpoints
370
               0
390
0
 62
               0
100
AcDbPoint
 10
6.7827824199528095
 20
0.6146299999999911
 30
0.0
  0
POINT
  5
124
100
AcDbEntity
  8
Defpoints
370
               0
390
0
 62
               0
100
AcDbPoint
 10
8.3001024199528075
 20
0.0762499999999946
 30
0.0
  0
ENDBLK
  5
125
100
AcDbEntity
  8
Dimension
390
0
100
AcDbBlockEnd
  0
BLOCK
  5
126
100
AcDbEntity
  8
Dimension
390
0
100
AcDbBlockBegin
  2
*D18
 70
               1
 10
0.0
 20
0.0
 30
0.0
  3
*D18
  1

  0
LINE
  5
127
100
AcDbEntity
  8
Dimension
370
              -2
390
0
  6
Continuous
 62
               0
100
AcDbLine
 10
7.877762419952802
 20
10.270609999999991
 30
0.0
 11
12.608948465653953
 21
6.6154361733106057
 31
0.0
  0
SOLID
  5
128
100
AcDbEntity
  8
Dimension
370
              -2
390
0
 62
               0
100
AcDbTrace
 10
7.877762419952802
 20
10.270609999999991
 30
0.0
 11
8.3819228333936433
 21
10.056606601164532
 31
0.0
 12
8.2073764461573067
 22
9.8331974133918489
 32
0.0
 13
8.2073764461573067
 23
9.8331974133918489
 33
0.0
  0
LINE
  5
129
100
AcDbEntity
  8
Dimension
370
              -2
390
0
  6
Continuous
 62
               0
100
AcDbLine
 10
12.608948465653953
 20
6.6154361733106057
 30
0.0
 11
14.108945467633447
 21
6.6154361733106057
 31
0.0
  0
WIPEOUT
  5
12A
100
AcDbEntity
  8
Dimension
370
              -2
390
0
  6
Continuous
 62
               0
 92
        0
100
AcDbWipeout
 90
        0
 10
12.897157606047841
 20
6.006898089977267
 30
0.0
 11
4.9741509887907256
 21
0.0
 31
0.0
 12
0.0
 22
4.9741509887907256
 32
0.0
 13
1.0
 23
1.0
340
0
 70
               7
280
               1
281
              50
282
              50
283
               0
360
0
 71
               2
 91
        5
 14
-0.5
 24
0.5
 14
0.5
 24
0.5
 14
0.5
 24
0.2553191483847808
 14
-0.5
 24
0.2553191483847808
 14
-0.5
 24
0.5
  0
MTEXT
  5
12B
100
AcDbEntity
  8
Dimension
390
0
 62
               0
100
AcDbMText
 10
12.897157606047841
 20
7.0293992097689335
 30
0.0
 40
0.7579186197916666
 41
0.0
 71
               1
 72
               1
  1
Ø 0.85mm
  7
Helvetica
 73
               1
 44
0.9673603504928806
  0
WIPEOUT
  5
12C
100
AcDbEntity
  8
Dimension
370
              -2
390
0
  6
Continuous
 62
               0
 92
        0
100
AcDbWipeout
 90
        0
 10
17.87130859483857
 20
5.444658506643937
 30
0.0
 11
1.2170794999999996
 21
0.0
 31
0.0
 12
0.0
 22
1.2170794999999996
 32
0.0
 13
1.0
 23
1.0
340
0
 70
               7
280
               1
281
              50
282
              50
283
               0
360
0
 71
               2
 91
        5
 14
-0.5
 24
0.5
 14
-0.2130434700853519
 24
0.5
 14
-0.2130434700853519
 24
-0.5
 14
-0.5
 24
-0.5
 14
-0.5
 24
0.5
  0
MTEXT
  5
12D
100
AcDbEntity
  8
Dimension
390
0
 62
               0
100
AcDbMText
 10
18.045933049813698
 20
6.4671596264356035
 30
0.0
 40
0.7579186197916666
 41
0.0
 71
               2
 72
               1
  1
-
  7
Helvetica
 73
               1
 44
0.9673603504928806
  0
WIPEOUT
  5
12E
100
AcDbEntity
  8
Dimension
370
              -2
390
0
  6
Continuous
 62
               0
 92
        0
100
AcDbWipeout
 90
        0
 10
18.220557504788815
 20
6.5691343399772721
 30
0.0
 11
2.3706591910786088
 21
0.0
 31
0.0
 12
0.0
 22
2.3706591910786088
 32
0.0
 13
1.0
 23
1.0
340
0
 70
               7
280
               1
281
              50
282
              50
283
               0
360
0
 71
               2
 91
        5
 14
-0.5
 24
0.5
 14
0.5
 24
0.5
 14
0.5
 24
-0.0133928590748844
 14
-0.5
 24
-0.0133928590748844
 14
-0.5
 24
0.5
  0
MTEXT
  5
12F
100
AcDbEntity
  8
Dimension
390
0
 62
               0
100
AcDbMText
 10
18.220557504788815
 20
7.5916354597689386
 30
0.0
 40
0.7579186197916666
 41
0.0
 71
               1
 72
               1
  1
0mm
  7
Helvetica
 73
               1
 44
0.9673603504928806
  0
WIPEOUT
  5
130
100
AcDbEntity
  8
Dimension
370
              -2
390
0
  6
Continuous
 62
               0
 92
        0
100
AcDbWipeout
 90
        0
 10
18.220557504788815
 20
5.444658506643937
 30
0.0
 11
4.4449860042995866
 21
0.0
 31
0.0
 12
0.0
 22
4.4449860042995866
 32
0.0
 13
1.0
 23
1.0
340
0
 70
               7
280
               1
281
              50
282
              50
283
               0
360
0
 71
               2
 91
        5
 14
-0.5
 24
0.5
 14
0.5
 24
0.5
 14
0.5
 24
0.2261904764553293
 14
-0.5
 24
0.2261904764553293
 14
-0.5
 24
0.5
  0
MTEXT
  5
131
100
AcDbEntity
  8
Dimension
390
0
 62
               0
100
AcDbMText
 10
18.220557504788815
 20
6.4671596264356035
 30
0.0
 40
0.7579186197916666
 41
0.0
 71
               1
 72
               1
  1
0.025mm
  7
Helvetica
 73
               1
 44
0.9673603504928806
  0
WIPEOUT
  5
132
100
AcDbEntity
  8
Dimension
370
              -2
390
0
  6
Continuous
 62
               0
 92
        0
100
AcDbWipeout
 90
        0
 10
22.665543509088408
 20
6.0068942566439336
 30
0.0
 11
2.1060832593176109
 21
0.0
 31
0.0
 12
0.0
 22
2.1060832593176109
 32
0.0
 13
1.0
 23
1.0
340
0
 70
               7
280
               1
281
              50
282
              50
283
               0
360
0
 71
               2
 91
        5
 14
-0.5
 24
0.5
 14
0.5
 24
0.5
 14
0.5
 24
-0.0778894675453992
 14
-0.5
 24
-0.0778894675453992
 14
-0.5
 24
0.5
  0
MTEXT
  5
133
100
AcDbEntity
  8
Dimension
390
0
 62
               0
100
AcDbMText
 10
22.665543509088408
 20
7.0293985969217108
 30
0.0
 40
0.7579210069444442
 41
0.0
 71
               1
 72
               1
  1
 (x2)
  7
Helvetica
 73
               1
 44
0.9673603504928806
  0
POINT
  5
134
100
AcDbEntity
  8
Defpoints
370
               0
390
0
 62
               0
100
AcDbPoint
 10
7.205122419952815
 20
10.790269999999992
 30
0.0
  0
POINT
  5
135
100
AcDbEntity
  8
Defpoints
370
               0
390
0
 62
               0
100
AcDbPoint
 10
7.877762419952802
 20
10.270609999999991
 30
0.0
  0
ENDBLK
  5
136
100
AcDbEntity
  8
Dimension
390
0
100
AcDbBlockEnd
  0
BLOCK
  5
137
100
AcDbEntity
  8
Dimension
390
0
100
AcDbBlockBegin
  2
*D19
 70
               1
 10
0.0
 20
0.0
 30
0.0
  3
*D19
  1

  0
LINE
  5
138
100
AcDbEntity
  8
Dimension
370
              -2
390
0
  6
Continuous
 62
               0
100
AcDbLine
 10
3.0539424199528042
 20
11.36419000118277
 30
0.0
 11
3.0539424199528042
 21
17.069400002365555
 31
0.0
  0
LINE
  5
139
100
AcDbEntity
  8
Dimension
370
              -2
390
0
  6
Continuous
 62
               0
100
AcDbLine
 10
3.7039424199528099
 20
11.36419000118277
 30
0.0
 11
3.7039424199528099
 21
17.069400002365555
 31
0.0
  0
LINE
  5
13A
100
AcDbEntity
  8
Dimension
370
              -2
390
0
  6
Continuous
 62
               0
100
AcDbLine
 10
3.7039424199528099
 20
16.116899999999994
 30
0.0
 11
3.0539424199528042
 21
16.116899999999994
 31
0.0
  0
LINE
  5
13B
100
AcDbEntity
  8
Dimension
370
              -2
390
0
  6
Continuous
 62
               0
100
AcDbLine
 10
3.0539424199528042
 20
16.116899999999994
 30
0.0
 11
1.3039459215859921
 21
16.116899999999994
 31
0.0
  0
SOLID
  5
13C
100
AcDbEntity
  8
Dimension
370
              -2
390
0
 62
               0
100
AcDbTrace
 10
3.0539424199528042
 20
16.116899999999994
 30
0.0
 11
2.2601924199528041
 21
15.904215328507791
 31
0.0
 12
2.2601924199528045
 22
16.329584671492199
 32
0.0
 13
2.2601924199528045
 23
16.329584671492199
 33
0.0
  0
LINE
  5
13D
100
AcDbEntity
  8
Dimension
370
              -2
390
0
  6
Continuous
 62
               0
100
AcDbLine
 10
3.7039424199528099
 20
16.116899999999994
 30
0.0
 11
6.3294824199528108
 21
16.116899999999994
 31
0.0
  0
SOLID
  5
13E
100
AcDbEntity
  8
Dimension
370
              -2
390
0
 62
               0
100
AcDbTrace
 10
3.7039424199528099
 20
16.116899999999994
 30
0.0
 11
4.4976924199528101
 21
16.329584671492199
 31
0.0
 12
4.4976924199528101
 22
15.904215328507791
 32
0.0
 13
4.4976924199528101
 23
15.904215328507791
 33
0.0
  0
WIPEOUT
  5
13F
100
AcDbEntity
  8
Dimension
370
              -2
390
0
  6
Continuous
 62
               0
 92
        0
100
AcDbWipeout
 90
        0
 10
6.3294824199528108
 20
15.508360249999992
 30
0.0
 11
5.8525652196672233
 21
0.0
 31
0.0
 12
0.0
 22
5.8525652196672233
 32
0.0
 13
1.0
 23
1.0
340
0
 70
               7
280
               1
281
              50
282
              50
283
               0
360
0
 71
               2
 91
        5
 14
-0.5
 24
0.5
 14
0.5
 24
0.5
 14
0.5
 24
0.2920434109969297
 14
-0.5
 24
0.2920434109969297
 14
-0.5
 24
0.5
  0
MTEXT
  5
140
100
AcDbEntity
  8
Dimension
390
0
 62
               0
100
AcDbMText
 10
6.3294824199528108
 20
16.530861369791658
 30
0.0
 40
0.7579186197916666
 41
0.0
 71
               1
 72
               1
  1
0.65mm typ.
  7
Helvetica
 73
               1
 44
0.9673603504928806
  0
POINT
  5
141
100
AcDbEntity
  8
Defpoints
370
               0
390
0
 62
               0
100
AcDbPoint
 10
3.7039424199528099
 20
10.887939999999993
 30
0.0
  0
POINT
  5
142
100
AcDbEntity
  8
Defpoints
370
               0
390
0
 62
               0
100
AcDbPoint
 10
3.0539424199528042
 20
10.887939999999993
 30
0.0
  0
POINT
  5
143
100
AcDbEntity
  8
Defpoints
370
               0
390
0
 62
               0
100
AcDbPoint
 10
3.0539424199528042
 20
16.116899999999994
 30
0.0
  0
ENDBLK
  5
144
100
AcDbEntity
  8
Dimension
390
0
100
AcDbBlockEnd
  0
ENDSEC
  0
SECTION
  2
ENTITIES
  0
WIPEOUT
  5
145
100
AcDbEntity
  8
None
370
               9
390
0
  6
STYLE_11
 62
               7
 92
        0
100
AcDbWipeout
 90
        0
 10
-6.4335575800471929
 20
-0.9045600000000036
 30
0.0
 11
15.225000000000009
 21
0.0
 31
0.0
 12
0.0
 22
15.225000000000009
 32
0.0
 13
1.0
 23
1.0
340
0
 70
               7
280
               1
281
              50
282
              50
283
               0
360
0
 71
               2
 91
        5
 14
-0.5
 24
-0.4999999999999991
 14
0.5
 24
-0.4999999999999991
 14
0.5
 24
0.5
 14
-0.5
 24
0.5
 14
-0.5
 24
-0.4999999999999991
  0
POLYLINE
  5
146
100
AcDbEntity
  8
None
370
               9
390
0
  6
STYLE_11
 62
               7
100
AcDb2dPolyline
 66
               1
 10
0.0
 20
0.0
 30
0.0
 70
               1
 75
               5
  0
VERTEX
  5
147
100
AcDbEntity
  8
None
370
               9
390
0
  6
STYLE_11
 62
               7
100
AcDbVertex
100
AcDb2dVertex
 10
-6.4335575800471929
 20
14.320439999999991
 30
0.0
  0
VERTEX
  5
148
100
AcDbEntity
  8
None
370
               9
390
0
  6
STYLE_11
 62
               7
100
AcDbVertex
100
AcDb2dVertex
 10
8.7914424199528156
 20
14.320439999999991
 30
0.0
  0
VERTEX
  5
149
100
AcDbEntity
  8
None
370
               9
390
0
  6
STYLE_11
 62
               7
100
AcDbVertex
100
AcDb2dVertex
 10
8.7914424199528156
 20
-0.9045600000000036
 30
0.0
  0
VERTEX
  5
14A
100
AcDbEntity
  8
None
370
               9
390
0
  6
STYLE_11
 62
               7
100
AcDbVertex
100
AcDb2dVertex
 10
-6.4335575800471929
 20
-0.9045600000000036
 30
0.0
  0
SEQEND
  5
14B
100
AcDbEntity
  8
None
370
               9
390
0
  6
STYLE_11
 62
               7
  0
CIRCLE
  5
14C
100
AcDbEntity
  8
None
370
               9
390
0
  6
Continuous
 62
               7
100
AcDbCircle
 10
-5.1835575800471929
 20
13.070439999999991
 30
0.0
 40
0.8050000000000068
  0
CIRCLE
  5
14D
100
AcDbEntity
  8
None
370
               9
390
0
  6
Continuous
 62
               7
100
AcDbCircle
 10
7.5414424199528156
 20
10.530439999999992
 30
0.0
 40
0.4250000000000043
  0
CIRCLE
  5
14E
100
AcDbEntity
  8
None
370
               9
390
0
  6
Continuous
 62
               7
100
AcDbCircle
 10
7.5414424199528156
 20
13.070439999999991
 30
0.0
 40
0.8050000000000068
  0
CIRCLE
  5
14F
100
AcDbEntity
  8
None
370
               9
390
0
  6
Continuous
 62
               7
100
AcDbCircle
 10
7.5414424199528156
 20
0.3454399999999964
 30
0.0
 40
0.8050000000000068
  0
CIRCLE
  5
150
100
AcDbEntity
  8
None
370
               9
390
0
  6
Continuous
 62
               7
100
AcDbCircle
 10
-5.1835575800471929
 20
5.4254399999999947
 30
0.0
 40
0.4249999999999972
  0
CIRCLE
  5
151
100
AcDbEntity
  8
None
370
               9
390
0
  6
Continuous
 62
               7
100
AcDbCircle
 10
-5.1835575800471929
 20
0.3454399999999964
 30
0.0
 40
0.8050000000000068
  0
CIRCLE
  5
152
102
{ACAD_REACTORS
330
153
102
}
100
AcDbEntity
  8
None
370
               5
390
0
  6
Continuous
 62
               7
100
AcDbCircle
 10
-3.0585575800471929
 20
12.645439999999994
 30
0.0
 40
0.2124400000000009
  0
HATCH
  5
153
100
AcDbEntity
  8
None
370
               0
390
0
  6
Continuous
 62
               7
100
AcDbHatch
 10
0.0
 20
0.0
 30
0.0
210
0.0
220
0.0
230
1.0
  2
SOLID
 70
               1
 71
               1
 91
        1
 92
        1
 93
        1
 72
               2
 10
-3.0585575800471929
 20
12.645439999999994
 40
0.2124400000000009
 50
0.0
 51
360.0
 73
               0
 97
        1
330
152
 75
               0
 76
               1
 98
        1
 10
0.0
 20
0.0
  0
DIMENSION
  5
154
100
AcDbEntity
  8
Dimension
370
               5
390
0
  6
Continuous
 62
               1
100
AcDbDimension
  2
*D3
 10
-27.94105758004719
 20
14.320439999999991
 30
0.0
 11
-27.94105758004719
 21
6.8155018743896418
 31
0.0
 70
             128
 71
               5
 72
               1
 41
1.0
 42
0.0
  3
IE Standard
100
AcDbAlignedDimension
 13
-6.4335575800471929
 23
-0.9045600000000036
 33
0.0
 14
-6.4335575800471929
 24
14.320439999999991
 34
0.0
 50
90.0
100
AcDbRotatedDimension
1001
ACAD
1000
DSTYLE
1002
{
1070
             271
1070
               3
1070
             340
1005
35
1070
              71
1070
               1
1070
              47
1040
0.125
1070
              48
1040
0.125
1070
               3
1000
<>mm sqr.
1070
             147
1040
0.09921875
1002
}
  0
WIPEOUT
  5
155
100
AcDbEntity
  8
None
370
               5
390
0
  6
Continuous
 62
               1
 92
        0
100
AcDbWipeout
 90
        0
 10
-30.669437580047187
 20
5.0561705000000003
 30
0.0
 11
5.4186498002462429
 21
0.0
 31
0.0
 12
0.0
 22
5.4186498002462429
 32
0.0
 13
1.0
 23
1.0
340
0
 70
               7
280
               1
281
              50
282
              50
283
               0
360
0
 71
               2
 91
        5
 14
-0.5
 24
0.5000000000000007
 14
0.4999999999999993
 24
0.5000000000000007
 14
0.4999999999999993
 24
0.2753906333004417
 14
-0.5
 24
0.2753906333004417
 14
-0.5
 24
0.5000000000000007
  0
MTEXT
  5
156
100
AcDbEntity
  8
None
390
0
 62
               1
100
AcDbMText
 10
-30.669437580047187
 20
6.0786716197916641
 30
0.0
 40
0.7579186197916666
 41
0.0
 71
               1
 72
               1
  1
{\C192;\lSocket size}
  7
New Century Schlbk
 73
               1
 44
0.9673603504928806
  0
INSERT
  5
157
100
AcDbEntity
  8
Dimension
390
0
 62
               7
100
AcDbBlockReference
  2
Group
 10
0.0
 20
0.0
 30
0.0
  0
WIPEOUT
  5
158
100
AcDbEntity
  8
None
370
               5
390
0
  6
Continuous
 62
               1
 92
        0
100
AcDbWipeout
 90
        0
 10
-24.236667580047182
 20
22.782920499999996
 30
0.0
 11
7.8422253988126727
 21
0.0
 31
0.0
 12
0.0
 22
7.8422253988126727
 32
0.0
 13
1.0
 23
1.0
340
0
 70
               7
280
               1
281
              50
282
              50
283
               0
360
0
 71
               2
 91
        5
 14
-0.5
 24
0.5000000000000004
 14
0.5000000000000004
 24
0.5000000000000004
 14
0.5000000000000004
 24
0.3448043204440075
 14
-0.5
 24
0.3448043204440075
 14
-0.5
 24
0.5000000000000004
  0
MTEXT
  5
159
100
AcDbEntity
  8
None
390
0
 62
               1
100
AcDbMText
 10
-24.236667580047182
 20
23.805421619791659
 30
0.0
 40
0.7579186197916666
 41
0.0
 71
               1
 72
               1
  1
{\C192;\lOrientation Mark}
  7
New Century Schlbk
 73
               1
 44
0.9673603504928806
  0
WIPEOUT
  5
15A
100
AcDbEntity
  8
None
370
               5
390
0
  6
Continuous
 62
               1
 92
        0
100
AcDbWipeout
 90
        0
 10
14.992322419952814
 20
-4.2374094999999983
 30
0.0
 11
12.117878889991573
 21
0.0
 31
0.0
 12
0.0
 22
12.117878889991573
 32
0.0
 13
1.0
 23
1.0
340
0
 70
               7
280
               1
281
              50
282
              50
283
               0
360
0
 71
               2
 91
        5
 14
-0.5
 24
0.5000000000000003
 14
0.4999999999999997
 24
0.5000000000000003
 14
0.4999999999999997
 24
0.3995633220096621
 14
-0.5
 24
0.3995633220096621
 14
-0.5
 24
0.5000000000000003
  0
MTEXT
  5
15B
100
AcDbEntity
  8
None
390
0
 62
               1
100
AcDbMText
 10
14.992322419952814
 20
-3.2149083802083345
 30
0.0
 40
0.7579186197916666
 41
0.0
 71
               1
 72
               1
  1
{\C192;\lNon plated mounting hole}
  7
Arial
 73
               1
 44
0.9673603504928806
  0
WIPEOUT
  5
15C
100
AcDbEntity
  8
None
370
               5
390
0
  6
Continuous
 62
               1
 92
        0
100
AcDbWipeout
 90
        0
 10
13.428372419952808
 20
4.3107804999999999
 30
0.0
 11
12.350711488082311
 21
0.0
 31
0.0
 12
0.0
 22
12.350711488082311
 32
0.0
 13
1.0
 23
1.0
340
0
 70
               7
280
               1
281
              50
282
              50
283
               0
360
0
 71
               2
 91
        5
 14
-0.5
 24
0.5000000000000003
 14
0.5000000000000007
 24
0.5000000000000003
 14
0.5000000000000007
 24
0.4014567297459418
 14
-0.5
 24
0.4014567297459418
 14
-0.5
 24
0.5000000000000003
  0
MTEXT
  5
15D
100
AcDbEntity
  8
None
390
0
 62
               1
100
AcDbMText
 10
13.428372419952808
 20
5.3332816197916637
 30
0.0
 40
0.7579186197916666
 41
0.0
 71
               1
 72
               1
  1
{\C192;\lNon plated alignment hole}
  7
Arial
 73
               1
 44
0.9673603504928806
  0
DIMENSION
  5
15E
100
AcDbEntity
  8
Dimension
370
               5
390
0
  6
Continuous
 62
               1
100
AcDbDimension
  2
*D5
 10
-5.1835575800471929
 20
19.632749999999991
 30
0.0
 11
0.1094824199528048
 21
19.632749999999991
 31
0.0
 70
             128
 71
               5
 72
               1
 41
1.0
 42
0.0
  3
IE Standard
100
AcDbAlignedDimension
 13
-1.6810575800471952
 23
10.887939999999993
 33
0.0
 14
-5.1835575800471929
 24
13.070439999999991
 34
0.0
100
AcDbRotatedDimension
1001
ACAD
1000
DSTYLE
1002
{
1070
             271
1070
               2
1070
             340
1005
35
1070
               3
1000
<>mm*
1070
             174
1070
               0
1070
             147
1040
0.09921875
1002
}
  0
DIMENSION
  5
15F
100
AcDbEntity
  8
Dimension
370
               5
390
0
  6
Continuous
 62
               1
100
AcDbDimension
  2
*D6
 10
-8.6728575800471965
 20
10.887939999999993
 30
0.0
 11
-8.6728575800471965
 21
11.979223302307121
 31
0.0
 70
             128
 71
               5
 72
               1
 41
1.0
 42
0.0
  3
IE Standard
100
AcDbAlignedDimension
 13
-5.1835575800471929
 23
13.070439999999991
 33
0.0
 14
-1.7110575800471963
 24
10.887939999999993
 34
0.0
 50
90.0
100
AcDbRotatedDimension
1001
ACAD
1000
DSTYLE
1002
{
1070
             271
1070
               2
1070
             340
1005
35
1070
             147
1040
0.09921875
1002
}
  0
DIMENSION
  5
160
100
AcDbEntity
  8
Dimension
370
               5
390
0
  6
Continuous
 62
               1
100
AcDbDimension
  2
*D7
 10
-9.6097175800471923
 20
0.3454399999999964
 30
0.0
 11
-9.6097175800471923
 21
1.5827288183593711
 31
0.0
 70
             128
 71
               5
 72
               1
 41
1.0
 42
0.0
  3
IE Standard
100
AcDbAlignedDimension
 13
-5.1835575800471929
 23
5.4254399999999947
 33
0.0
 14
-5.1835575800471929
 24
0.3454399999999964
 34
0.0
 50
90.0
100
AcDbRotatedDimension
1001
ACAD
1000
DSTYLE
1002
{
1070
             271
1070
               2
1070
             340
1005
35
1070
             147
1040
0.09921875
1002
}
  0
DIMENSION
  5
161
100
AcDbEntity
  8
Dimension
370
               5
390
0
  6
Continuous
 62
               1
100
AcDbDimension
  2
*D8
 10
12.738332419952815
 20
10.530439999999992
 30
0.0
 11
12.738332419952815
 21
11.800439999999991
 31
0.0
 70
             128
 71
               5
 72
               1
 41
1.0
 42
0.0
  3
IE Standard
100
AcDbAlignedDimension
 13
7.5414424199528156
 23
13.070439999999991
 33
0.0
 14
7.5414424199528156
 24
10.530439999999992
 34
0.0
 50
90.0
100
AcDbRotatedDimension
1001
ACAD
1000
DSTYLE
1002
{
1070
             271
1070
               2
1070
             340
1005
35
1070
             147
1040
0.09921875
1002
}
  0
DIMENSION
  5
162
100
AcDbEntity
  8
Dimension
370
               5
390
0
  6
Continuous
 62
               1
100
AcDbDimension
  2
*D9
 10
-5.1835575800471929
 20
-10.384560000000002
 30
0.0
 11
1.1589431065983193
 21
-10.384560000000002
 31
0.0
 70
             128
 71
               5
 72
               1
 41
1.0
 42
0.0
  3
IE Standard
100
AcDbAlignedDimension
 13
7.5414424199528156
 23
0.3454399999999964
 33
0.0
 14
-5.1835575800471929
 24
0.3454399999999964
 34
0.0
100
AcDbRotatedDimension
1001
ACAD
1000
DSTYLE
1002
{
1070
             271
1070
               3
1070
             340
1005
35
1070
              71
1070
               1
1070
              47
1040
0.125
1070
              48
1040
0.125
1070
               3
1000
<>mm (x4)
1070
             147
1040
0.09921875
1002
}
  0
DIMENSION
  5
163
100
AcDbEntity
  8
Dimension
370
               5
390
0
  6
Continuous
 62
               1
100
AcDbDimension
  2
*D10
 10
4.6389424199528122
 20
4.6179399999999973
 30
0.0
 11
12.778465866406405
 21
2.0853371294273715
 31
0.0
 70
               3
 71
               5
 72
               1
 41
1.0
 42
0.0
  1
0.97 x 0.37 mm 
  3
IE Standard
100
AcDbDiametricDimension
 15
5.6089424199528111
 25
4.2479399999999927
 35
0.0
 40
6.0679799999999995
1001
ACAD
1000
DSTYLE
1002
{
1070
             271
1070
               4
1070
             172
1070
               0
1070
             289
1070
               0
1070
             342
1005
4B
1070
             340
1005
35
1070
              75
1070
               1
1070
              76
1070
               1
1070
             174
1070
               0
1070
             147
1040
0.09921875
1002
}
  0
DIMENSION
  5
164
100
AcDbEntity
  8
Dimension
370
               5
390
0
  6
Continuous
 62
               1
100
AcDbDimension
  2
*D11
 10
-2.7510575800471884
 20
-6.7845600000000061
 30
0.0
 11
1.594137122101249
 21
-6.7845600000000061
 31
0.0
 70
             128
 71
               5
 72
               1
 41
1.0
 42
0.0
  3
IE Standard
100
AcDbAlignedDimension
 13
5.6089424199528111
 23
3.567939999999993
 33
0.0
 14
-2.7510575800471884
 24
3.567939999999993
 34
0.0
100
AcDbRotatedDimension
1001
ACAD
1000
DSTYLE
1002
{
1070
             271
1070
               2
1070
             340
1005
35
1070
             147
1040
0.09921875
1002
}
  0
DIMENSION
  5
165
100
AcDbEntity
  8
Dimension
370
               5
390
0
  6
Continuous
 62
               1
100
AcDbDimension
  2
*D12
 10
-18.141057580047192
 20
10.887939999999993
 30
0.0
 11
-18.141057580047192
 21
6.312748349609369
 31
0.0
 70
             128
 71
               5
 72
               1
 41
1.0
 42
0.0
  3
IE Standard
100
AcDbAlignedDimension
 13
-1.6810575800471952
 23
2.5279399999999939
 33
0.0
 14
-1.6810575800471952
 24
10.887939999999993
 34
0.0
 50
90.0
100
AcDbRotatedDimension
1001
ACAD
1000
DSTYLE
1002
{
1070
             271
1070
               2
1070
             340
1005
35
1070
             147
1040
0.09921875
1002
}
  0
DIMENSION
  5
166
100
AcDbEntity
  8
Dimension
370
               5
390
0
  6
Continuous
 62
               1
100
AcDbDimension
  2
*D13
 10
-12.691057580047188
 20
9.817939999999993
 30
0.0
 11
-12.691057580047188
 21
6.5861708959960872
 31
0.0
 70
             128
 71
               5
 72
               1
 41
1.0
 42
0.0
  3
IE Standard
100
AcDbAlignedDimension
 13
-2.7510575800471884
 23
3.5979399999999941
 33
0.0
 14
-2.7510575800471884
 24
9.817939999999993
 34
0.0
 50
90.0
100
AcDbRotatedDimension
1001
ACAD
1000
DSTYLE
1002
{
1070
             271
1070
               2
1070
             340
1005
35
1070
             147
1040
0.09921875
1002
}
  0
DIMENSION
  5
167
100
AcDbEntity
  8
Dimension
370
               5
390
0
  6
Continuous
 62
               1
100
AcDbDimension
  2
*D14
 10
-1.6810575800471952
 20
-3.9924000000000053
 30
0.0
 11
1.4038862676090544
 21
-3.9924000000000053
 31
0.0
 70
             128
 71
               5
 72
               1
 41
1.0
 42
0.0
  3
IE Standard
100
AcDbAlignedDimension
 13
4.5389424199528037
 23
2.5279399999999939
 33
0.0
 14
-1.6810575800471952
 24
2.5279399999999939
 34
0.0
100
AcDbRotatedDimension
1001
ACAD
1000
DSTYLE
1002
{
1070
             271
1070
               2
1070
             340
1005
35
1070
             147
1040
0.09921875
1002
}
  0
DIMENSION
  5
168
100
AcDbEntity
  8
Dimension
370
               5
390
0
  6
Continuous
 62
               1
100
AcDbDimension
  2
*D15
 10
-5.1835575800471929
 20
22.865439999999992
 30
0.0
 11
-3.1910575800471932
 21
22.865439999999992
 31
0.0
 70
             128
 71
               5
 72
               1
 41
1.0
 42
0.0
  3
IE Standard
100
AcDbAlignedDimension
 13
-6.4335575800471929
 23
14.320439999999991
 33
0.0
 14
-5.1835575800471929
 24
13.070439999999991
 34
0.0
100
AcDbRotatedDimension
1001
ACAD
1000
DSTYLE
1002
{
1070
             271
1070
               3
1070
             340
1005
35
1070
              71
1070
               1
1070
              47
1040
0.125
1070
              48
1040
0.125
1070
               3
1000
<>mm (x4)
1070
             174
1070
               0
1070
             147
1040
0.09921875
1002
}
  0
DIMENSION
  5
169
100
AcDbEntity
  8
Dimension
370
               5
390
0
  6
Continuous
 62
               1
100
AcDbDimension
  2
*D16
 10
-16.791057580047195
 20
14.320439999999991
 30
0.0
 11
-16.791057580047195
 21
17.115439999999992
 31
0.0
 70
             128
 71
               5
 72
               1
 41
1.0
 42
0.0
  3
IE Standard
100
AcDbAlignedDimension
 13
-5.1835575800471929
 23
13.070439999999991
 33
0.0
 14
-6.4335575800471929
 24
14.320439999999991
 34
0.0
 50
90.0
100
AcDbRotatedDimension
1001
ACAD
1000
DSTYLE
1002
{
1070
             271
1070
               3
1070
             340
1005
35
1070
              71
1070
               1
1070
              47
1040
0.125
1070
              48
1040
0.125
1070
               3
1000
<>mm (x4)
1070
             174
1070
               0
1070
             147
1040
0.09921875
1002
}
  0
LINE
  5
16A
100
AcDbEntity
  8
None
370
               5
390
0
  6
Continuous
 62
               1
100
AcDbLine
 10
-16.394447580047185
 20
23.391459999999995
 30
0.0
 11
-13.891057580047189
 21
23.391459999999995
 31
0.0
  0
LINE
  5
16B
100
AcDbEntity
  8
None
370
               5
390
0
  6
Continuous
 62
               1
100
AcDbLine
 10
-13.891057580047189
 20
23.391459999999995
 30
0.0
 11
-3.0585575800471929
 21
12.857879999999994
 31
0.0
  0
SOLID
  5
16C
100
AcDbEntity
  8
None
370
               5
390
0
 62
               1
100
AcDbTrace
 10
-3.0585575800471929
 20
12.857879999999994
 30
0.0
 11
-3.5141152167340959
 21
13.120896324172568
 31
0.0
 12
-3.3215739042197661
 22
13.313437636686897
 32
0.0
 13
-3.3215739042197661
 23
13.313437636686897
 33
0.0
  0
DIMENSION
  5
16D
100
AcDbEntity
  8
Dimension
370
               5
390
0
  6
Continuous
 62
               1
100
AcDbDimension
  2
*D17
 10
6.7827824199528095
 20
0.6146299999999911
 30
0.0
 11
15.575532615265471
 21
-1.973006401172265
 31
0.0
 70
               3
 71
               5
 72
               1
 41
1.0
 42
0.0
  3
IE Standard
100
AcDbDiametricDimension
 15
8.3001024199528075
 25
0.0762499999999946
 35
0.0
 40
6.1282199999999998
1001
ACAD
1000
DSTYLE
1002
{
1070
             271
1070
               3
1070
             172
1070
               0
1070
             289
1070
               0
1070
             342
1005
4B
1070
             340
1005
35
1070
              75
1070
               1
1070
              76
1070
               1
1070
              71
1070
               1
1070
              48
1040
0.025
1070
               3
1000
mm (x4)
1070
             174
1070
               0
1070
             147
1040
0.09921875
1002
}
  0
DIMENSION
  5
16E
100
AcDbEntity
  8
Dimension
370
               5
390
0
  6
Continuous
 62
               1
100
AcDbDimension
  2
*D18
 10
7.205122419952815
 20
10.790269999999992
 30
0.0
 11
14.108948448793191
 21
6.6154457372463851
 31
0.0
 70
               3
 71
               5
 72
               1
 41
1.0
 42
0.0
  3
IE Standard
100
AcDbDiametricDimension
 15
7.877762419952802
 25
10.270609999999991
 35
0.0
 40
5.9786599999999996
1001
ACAD
1000
DSTYLE
1002
{
1070
             271
1070
               3
1070
             172
1070
               0
1070
             289
1070
               0
1070
             342
1005
4B
1070
             340
1005
35
1070
              75
1070
               1
1070
              76
1070
               1
1070
              71
1070
               1
1070
              48
1040
0.025
1070
               3
1000
mm (x2)
1070
             174
1070
               0
1070
             147
1040
0.09921875
1002
}
  0
WIPEOUT
  5
16F
100
AcDbEntity
  8
None
370
               5
390
0
  6
Continuous
 62
               1
 92
        0
100
AcDbWipeout
 90
        0
 10
22.158942419952808
 20
1.4483604999999997
 30
0.0
 11
4.7730682608602564
 21
0.0
 31
0.0
 12
0.0
 22
4.7730682608602564
 32
0.0
 13
1.0
 23
1.0
340
0
 70
               7
280
               1
281
              50
282
              50
283
               0
360
0
 71
               2
 91
        5
 14
-0.5
 24
0.5000000000000007
 14
0.4999999999999992
 24
0.5000000000000007
 14
0.4999999999999992
 24
0.2450110843835615
 14
-0.5
 24
0.2450110843835615
 14
-0.5
 24
0.5000000000000007
  0
MTEXT
  5
170
100
AcDbEntity
  8
None
390
0
 62
               1
100
AcDbMText
 10
22.158942419952808
 20
2.4708616197916635
 30
0.0
 40
0.7579186197916666
 41
0.0
 71
               1
 72
               1
  1
{\C192;\lpad (x 40)}
  7
Arial
 73
               1
 44
0.9673603504928806
  0
WIPEOUT
  5
171
100
AcDbEntity
  8
None
370
               5
390
0
  6
Continuous
 62
               7
 92
        0
100
AcDbWipeout
 90
        0
 10
-0.9705175800471864
 20
-14.824367999999993
 30
0.0
 11
4.4567370387441656
 21
0.0
 31
0.0
 12
0.0
 22
4.4567370387441656
 32
0.0
 13
1.0
 23
1.0
340
0
 70
               7
280
               1
281
              50
282
              50
283
               0
360
0
 71
               2
 91
        5
 14
-0.5
 24
0.5000000000000016
 14
0.4999999999999996
 24
0.5000000000000016
 14
0.4999999999999996
 24
0.1965699370988575
 14
-0.5
 24
0.1965699370988575
 14
-0.5
 24
0.5000000000000016
  0
MTEXT
  5
172
100
AcDbEntity
  8
None
390
0
 62
               7
100
AcDbMText
 10
-0.9705175800471864
 20
-13.688257791666667
 30
0.0
 40
0.8421302083333332
 41
0.0
 71
               1
 72
               1
  1
MLF40B
  7
Arial
 73
               1
 44
0.9673603504928806
  0
SOLID
  5
173
100
AcDbEntity
  8
None
370
               5
390
0
  6
Continuous
 62
               7
100
AcDbTrace
 10
-2.7510575800471884
 20
9.4479399999999956
 30
0.0
 11
-2.7510575800471884
 21
9.817939999999993
 31
0.0
 12
-1.7810575800471895
 22
9.4479399999999956
 32
0.0
 13
-1.7810575800471895
 23
9.817939999999993
 33
0.0
  0
SOLID
  5
174
100
AcDbEntity
  8
None
370
               5
390
0
  6
Continuous
 62
               7
100
AcDbTrace
 10
4.6389424199528122
 20
9.4479399999999956
 30
0.0
 11
4.6389424199528122
 21
9.817939999999993
 31
0.0
 12
5.6089424199528111
 22
9.4479399999999956
 32
0.0
 13
5.6089424199528111
 23
9.817939999999993
 33
0.0
  0
SOLID
  5
175
100
AcDbEntity
  8
None
370
               5
390
0
  6
Continuous
 62
               7
100
AcDbTrace
 10
-1.6810575800471952
 20
9.9179399999999944
 30
0.0
 11
-1.6810575800471952
 21
10.887939999999993
 31
0.0
 12
-1.3110575800471906
 22
9.9179399999999944
 32
0.0
 13
-1.3110575800471906
 23
10.887939999999993
 33
0.0
  0
SOLID
  5
176
100
AcDbEntity
  8
None
370
               5
390
0
  6
Continuous
 62
               7
100
AcDbTrace
 10
-1.6810575800471952
 20
2.5279399999999939
 30
0.0
 11
-1.6810575800471952
 21
3.4979399999999927
 31
0.0
 12
-1.3110575800471906
 22
2.5279399999999939
 32
0.0
 13
-1.3110575800471906
 23
3.4979399999999927
 33
0.0
  0
SOLID
  5
177
100
AcDbEntity
  8
None
370
               5
390
0
  6
Continuous
 62
               7
100
AcDbTrace
 10
-1.0310575800471895
 20
9.9179399999999944
 30
0.0
 11
-1.0310575800471895
 21
10.887939999999993
 31
0.0
 12
-0.661057580047185
 22
9.9179399999999944
 32
0.0
 13
-0.661057580047185
 23
10.887939999999993
 33
0.0
  0
SOLID
  5
178
100
AcDbEntity
  8
None
370
               5
390
0
  6
Continuous
 62
               7
100
AcDbTrace
 10
-0.3810575800471838
 20
9.9179399999999944
 30
0.0
 11
-0.3810575800471838
 21
10.887939999999993
 31
0.0
 12
-0.0110575800471935
 22
9.9179399999999944
 32
0.0
 13
-0.0110575800471935
 23
10.887939999999993
 33
0.0
  0
SOLID
  5
179
100
AcDbEntity
  8
None
370
               5
390
0
  6
Continuous
 62
               7
100
AcDbTrace
 10
0.2689424199528077
 20
9.9179399999999944
 30
0.0
 11
0.2689424199528077
 21
10.887939999999993
 31
0.0
 12
0.6389424199528122
 22
9.9179399999999944
 32
0.0
 13
0.6389424199528122
 23
10.887939999999993
 33
0.0
  0
SOLID
  5
17A
100
AcDbEntity
  8
None
370
               5
390
0
  6
Continuous
 62
               7
100
AcDbTrace
 10
0.9189424199528133
 20
9.9179399999999944
 30
0.0
 11
0.9189424199528133
 21
10.887939999999993
 31
0.0
 12
1.2889424199528037
 22
9.9179399999999944
 32
0.0
 13
1.2889424199528037
 23
10.887939999999993
 33
0.0
  0
SOLID
  5
17B
100
AcDbEntity
  8
None
370
               5
390
0
  6
Continuous
 62
               7
100
AcDbTrace
 10
1.5689424199528048
 20
9.9179399999999944
 30
0.0
 11
1.5689424199528048
 21
10.887939999999993
 31
0.0
 12
1.9389424199528094
 22
9.9179399999999944
 32
0.0
 13
1.9389424199528094
 23
10.887939999999993
 33
0.0
  0
SOLID
  5
17C
100
AcDbEntity
  8
None
370
               5
390
0
  6
Continuous
 62
               7
100
AcDbTrace
 10
2.2189424199528105
 20
9.9179399999999944
 30
0.0
 11
2.2189424199528105
 21
10.887939999999993
 31
0.0
 12
2.588942419952815
 22
9.9179399999999944
 32
0.0
 13
2.588942419952815
 23
10.887939999999993
 33
0.0
  0
SOLID
  5
17D
100
AcDbEntity
  8
None
370
               5
390
0
  6
Continuous
 62
               7
100
AcDbTrace
 10
2.8689424199528162
 20
9.9179399999999944
 30
0.0
 11
2.8689424199528162
 21
10.887939999999993
 31
0.0
 12
3.2389424199528065
 22
9.9179399999999944
 32
0.0
 13
3.2389424199528065
 23
10.887939999999993
 33
0.0
  0
SOLID
  5
17E
100
AcDbEntity
  8
None
370
               5
390
0
  6
Continuous
 62
               7
100
AcDbTrace
 10
3.5189424199528077
 20
9.9179399999999944
 30
0.0
 11
3.5189424199528077
 21
10.887939999999993
 31
0.0
 12
3.8889424199528122
 22
9.9179399999999944
 32
0.0
 13
3.8889424199528122
 23
10.887939999999993
 33
0.0
  0
SOLID
  5
17F
100
AcDbEntity
  8
None
370
               5
390
0
  6
Continuous
 62
               7
100
AcDbTrace
 10
4.1689424199528133
 20
9.9179399999999944
 30
0.0
 11
4.1689424199528133
 21
10.887939999999993
 31
0.0
 12
4.5389424199528037
 22
9.9179399999999944
 32
0.0
 13
4.5389424199528037
 23
10.887939999999993
 33
0.0
  0
SOLID
  5
180
100
AcDbEntity
  8
None
370
               5
390
0
  6
Continuous
 62
               7
100
AcDbTrace
 10
-1.0310575800471895
 20
2.5279399999999939
 30
0.0
 11
-1.0310575800471895
 21
3.4979399999999927
 31
0.0
 12
-0.661057580047185
 22
2.5279399999999939
 32
0.0
 13
-0.661057580047185
 23
3.4979399999999927
 33
0.0
  0
SOLID
  5
181
100
AcDbEntity
  8
None
370
               5
390
0
  6
Continuous
 62
               7
100
AcDbTrace
 10
-0.3810575800471838
 20
2.5279399999999939
 30
0.0
 11
-0.3810575800471838
 21
3.4979399999999927
 31
0.0
 12
-0.0110575800471935
 22
2.5279399999999939
 32
0.0
 13
-0.0110575800471935
 23
3.4979399999999927
 33
0.0
  0
SOLID
  5
182
100
AcDbEntity
  8
None
370
               5
390
0
  6
Continuous
 62
               7
100
AcDbTrace
 10
0.2689424199528077
 20
2.5279399999999939
 30
0.0
 11
0.2689424199528077
 21
3.4979399999999927
 31
0.0
 12
0.6389424199528122
 22
2.5279399999999939
 32
0.0
 13
0.6389424199528122
 23
3.4979399999999927
 33
0.0
  0
SOLID
  5
183
100
AcDbEntity
  8
None
370
               5
390
0
  6
Continuous
 62
               7
100
AcDbTrace
 10
0.9189424199528133
 20
2.5279399999999939
 30
0.0
 11
0.9189424199528133
 21
3.4979399999999927
 31
0.0
 12
1.2889424199528037
 22
2.5279399999999939
 32
0.0
 13
1.2889424199528037
 23
3.4979399999999927
 33
0.0
  0
SOLID
  5
184
100
AcDbEntity
  8
None
370
               5
390
0
  6
Continuous
 62
               7
100
AcDbTrace
 10
1.5689424199528048
 20
2.5279399999999939
 30
0.0
 11
1.5689424199528048
 21
3.4979399999999927
 31
0.0
 12
1.9389424199528094
 22
2.5279399999999939
 32
0.0
 13
1.9389424199528094
 23
3.4979399999999927
 33
0.0
  0
SOLID
  5
185
100
AcDbEntity
  8
None
370
               5
390
0
  6
Continuous
 62
               7
100
AcDbTrace
 10
2.2189424199528105
 20
2.5279399999999939
 30
0.0
 11
2.2189424199528105
 21
3.4979399999999927
 31
0.0
 12
2.588942419952815
 22
2.5279399999999939
 32
0.0
 13
2.588942419952815
 23
3.4979399999999927
 33
0.0
  0
SOLID
  5
186
100
AcDbEntity
  8
None
370
               5
390
0
  6
Continuous
 62
               7
100
AcDbTrace
 10
2.8689424199528162
 20
2.5279399999999939
 30
0.0
 11
2.8689424199528162
 21
3.4979399999999927
 31
0.0
 12
3.2389424199528065
 22
2.5279399999999939
 32
0.0
 13
3.2389424199528065
 23
3.4979399999999927
 33
0.0
  0
SOLID
  5
187
100
AcDbEntity
  8
None
370
               5
390
0
  6
Continuous
 62
               7
100
AcDbTrace
 10
3.5189424199528077
 20
2.5279399999999939
 30
0.0
 11
3.5189424199528077
 21
3.4979399999999927
 31
0.0
 12
3.8889424199528122
 22
2.5279399999999939
 32
0.0
 13
3.8889424199528122
 23
3.4979399999999927
 33
0.0
  0
SOLID
  5
188
100
AcDbEntity
  8
None
370
               5
390
0
  6
Continuous
 62
               7
100
AcDbTrace
 10
4.1689424199528133
 20
2.5279399999999939
 30
0.0
 11
4.1689424199528133
 21
3.4979399999999927
 31
0.0
 12
4.5389424199528037
 22
2.5279399999999939
 32
0.0
 13
4.5389424199528037
 23
3.4979399999999927
 33
0.0
  0
SOLID
  5
189
100
AcDbEntity
  8
None
370
               5
390
0
  6
Continuous
 62
               7
100
AcDbTrace
 10
-2.7510575800471884
 20
8.797939999999997
 30
0.0
 11
-2.7510575800471884
 21
9.1679399999999944
 31
0.0
 12
-1.7810575800471895
 22
8.797939999999997
 32
0.0
 13
-1.7810575800471895
 23
9.1679399999999944
 33
0.0
  0
SOLID
  5
18A
100
AcDbEntity
  8
None
370
               5
390
0
  6
Continuous
 62
               7
100
AcDbTrace
 10
-2.7510575800471884
 20
8.1479399999999913
 30
0.0
 11
-2.7510575800471884
 21
8.5179399999999958
 31
0.0
 12
-1.7810575800471895
 22
8.1479399999999913
 32
0.0
 13
-1.7810575800471895
 23
8.5179399999999958
 33
0.0
  0
SOLID
  5
18B
100
AcDbEntity
  8
None
370
               5
390
0
  6
Continuous
 62
               7
100
AcDbTrace
 10
-2.7510575800471884
 20
7.4979399999999927
 30
0.0
 11
-2.7510575800471884
 21
7.8679399999999973
 31
0.0
 12
-1.7810575800471895
 22
7.4979399999999927
 32
0.0
 13
-1.7810575800471895
 23
7.8679399999999973
 33
0.0
  0
SOLID
  5
18C
100
AcDbEntity
  8
None
370
               5
390
0
  6
Continuous
 62
               7
100
AcDbTrace
 10
-2.7510575800471884
 20
6.8479399999999941
 30
0.0
 11
-2.7510575800471884
 21
7.2179399999999916
 31
0.0
 12
-1.7810575800471895
 22
6.8479399999999941
 32
0.0
 13
-1.7810575800471895
 23
7.2179399999999916
 33
0.0
  0
SOLID
  5
18D
100
AcDbEntity
  8
None
370
               5
390
0
  6
Continuous
 62
               7
100
AcDbTrace
 10
-2.7510575800471884
 20
6.1979399999999956
 30
0.0
 11
-2.7510575800471884
 21
6.567939999999993
 31
0.0
 12
-1.7810575800471895
 22
6.1979399999999956
 32
0.0
 13
-1.7810575800471895
 23
6.567939999999993
 33
0.0
  0
SOLID
  5
18E
100
AcDbEntity
  8
None
370
               5
390
0
  6
Continuous
 62
               7
100
AcDbTrace
 10
-2.7510575800471884
 20
5.547939999999997
 30
0.0
 11
-2.7510575800471884
 21
5.9179399999999944
 31
0.0
 12
-1.7810575800471895
 22
5.547939999999997
 32
0.0
 13
-1.7810575800471895
 23
5.9179399999999944
 33
0.0
  0
SOLID
  5
18F
100
AcDbEntity
  8
None
370
               5
390
0
  6
Continuous
 62
               7
100
AcDbTrace
 10
-2.7510575800471884
 20
4.8979399999999913
 30
0.0
 11
-2.7510575800471884
 21
5.2679399999999958
 31
0.0
 12
-1.7810575800471895
 22
4.8979399999999913
 32
0.0
 13
-1.7810575800471895
 23
5.2679399999999958
 33
0.0
  0
SOLID
  5
190
100
AcDbEntity
  8
None
370
               5
390
0
  6
Continuous
 62
               7
100
AcDbTrace
 10
-2.7510575800471884
 20
4.2479399999999927
 30
0.0
 11
-2.7510575800471884
 21
4.6179399999999973
 31
0.0
 12
-1.7810575800471895
 22
4.2479399999999927
 32
0.0
 13
-1.7810575800471895
 23
4.6179399999999973
 33
0.0
  0
SOLID
  5
191
100
AcDbEntity
  8
None
370
               5
390
0
  6
Continuous
 62
               7
100
AcDbTrace
 10
-2.7510575800471884
 20
3.5979399999999941
 30
0.0
 11
-2.7510575800471884
 21
3.9679399999999916
 31
0.0
 12
-1.7810575800471895
 22
3.5979399999999941
 32
0.0
 13
-1.7810575800471895
 23
3.9679399999999916
 33
0.0
  0
SOLID
  5
192
100
AcDbEntity
  8
None
370
               5
390
0
  6
Continuous
 62
               7
100
AcDbTrace
 10
4.6389424199528122
 20
8.797939999999997
 30
0.0
 11
4.6389424199528122
 21
9.1679399999999944
 31
0.0
 12
5.6089424199528111
 22
8.797939999999997
 32
0.0
 13
5.6089424199528111
 23
9.1679399999999944
 33
0.0
  0
SOLID
  5
193
100
AcDbEntity
  8
None
370
               5
390
0
  6
Continuous
 62
               7
100
AcDbTrace
 10
4.6389424199528122
 20
8.1479399999999913
 30
0.0
 11
4.6389424199528122
 21
8.5179399999999958
 31
0.0
 12
5.6089424199528111
 22
8.1479399999999913
 32
0.0
 13
5.6089424199528111
 23
8.5179399999999958
 33
0.0
  0
SOLID
  5
194
100
AcDbEntity
  8
None
370
               5
390
0
  6
Continuous
 62
               7
100
AcDbTrace
 10
4.6389424199528122
 20
7.4979399999999927
 30
0.0
 11
4.6389424199528122
 21
7.8679399999999973
 31
0.0
 12
5.6089424199528111
 22
7.4979399999999927
 32
0.0
 13
5.6089424199528111
 23
7.8679399999999973
 33
0.0
  0
SOLID
  5
195
100
AcDbEntity
  8
None
370
               5
390
0
  6
Continuous
 62
               7
100
AcDbTrace
 10
4.6389424199528122
 20
6.8479399999999941
 30
0.0
 11
4.6389424199528122
 21
7.2179399999999916
 31
0.0
 12
5.6089424199528111
 22
6.8479399999999941
 32
0.0
 13
5.6089424199528111
 23
7.2179399999999916
 33
0.0
  0
SOLID
  5
196
100
AcDbEntity
  8
None
370
               5
390
0
  6
Continuous
 62
               7
100
AcDbTrace
 10
4.6389424199528122
 20
6.1979399999999956
 30
0.0
 11
4.6389424199528122
 21
6.567939999999993
 31
0.0
 12
5.6089424199528111
 22
6.1979399999999956
 32
0.0
 13
5.6089424199528111
 23
6.567939999999993
 33
0.0
  0
SOLID
  5
197
100
AcDbEntity
  8
None
370
               5
390
0
  6
Continuous
 62
               7
100
AcDbTrace
 10
4.6389424199528122
 20
5.547939999999997
 30
0.0
 11
4.6389424199528122
 21
5.9179399999999944
 31
0.0
 12
5.6089424199528111
 22
5.547939999999997
 32
0.0
 13
5.6089424199528111
 23
5.9179399999999944
 33
0.0
  0
SOLID
  5
198
100
AcDbEntity
  8
None
370
               5
390
0
  6
Continuous
 62
               7
100
AcDbTrace
 10
4.6389424199528122
 20
4.8979399999999913
 30
0.0
 11
4.6389424199528122
 21
5.2679399999999958
 31
0.0
 12
5.6089424199528111
 22
4.8979399999999913
 32
0.0
 13
5.6089424199528111
 23
5.2679399999999958
 33
0.0
  0
SOLID
  5
199
100
AcDbEntity
  8
None
370
               5
390
0
  6
Continuous
 62
               7
100
AcDbTrace
 10
4.6389424199528122
 20
4.2479399999999927
 30
0.0
 11
4.6389424199528122
 21
4.6179399999999973
 31
0.0
 12
5.6089424199528111
 22
4.2479399999999927
 32
0.0
 13
5.6089424199528111
 23
4.6179399999999973
 33
0.0
  0
SOLID
  5
19A
100
AcDbEntity
  8
None
370
               5
390
0
  6
Continuous
 62
               7
100
AcDbTrace
 10
4.6389424199528122
 20
3.5979399999999941
 30
0.0
 11
4.6389424199528122
 21
3.9679399999999916
 31
0.0
 12
5.6089424199528111
 22
3.5979399999999941
 32
0.0
 13
5.6089424199528111
 23
3.9679399999999916
 33
0.0
  0
POLYLINE
  5
19B
102
{ACAD_REACTORS
330
1A1
102
}
100
AcDbEntity
  8
None
370
               5
390
0
  6
Continuous
 62
               7
100
AcDb2dPolyline
 66
               1
 10
0.0
 20
0.0
 30
0.0
 70
               1
 75
               5
  0
VERTEX
  5
19C
100
AcDbEntity
  8
None
370
               5
390
0
  6
Continuous
 62
               7
100
AcDbVertex
100
AcDb2dVertex
 10
-1.5810575800471867
 20
9.7179399999999916
 30
0.0
  0
VERTEX
  5
19D
100
AcDbEntity
  8
None
370
               5
390
0
  6
Continuous
 62
               7
100
AcDbVertex
100
AcDb2dVertex
 10
4.4389424199528094
 20
9.7179399999999916
 30
0.0
  0
VERTEX
  5
19E
100
AcDbEntity
  8
None
370
               5
390
0
  6
Continuous
 62
               7
100
AcDbVertex
100
AcDb2dVertex
 10
4.4389424199528094
 20
3.6979399999999956
 30
0.0
  0
VERTEX
  5
19F
100
AcDbEntity
  8
None
370
               5
390
0
  6
Continuous
 62
               7
100
AcDbVertex
100
AcDb2dVertex
 10
-1.5810575800471867
 20
3.6979399999999956
 30
0.0
  0
SEQEND
  5
1A0
100
AcDbEntity
  8
None
370
               5
390
0
  6
Continuous
 62
               7
  0
HATCH
  5
1A1
100
AcDbEntity
  8
None
370
               0
390
0
  6
Continuous
 62
             253
100
AcDbHatch
 10
0.0
 20
0.0
 30
0.0
210
0.0
220
0.0
230
1.0
  2
SOLID
 70
               1
 71
               1
 91
        1
 92
        1
 93
        4
 72
               1
 10
-1.5810575800471867
 20
9.7179399999999916
 11
4.4389424199528094
 21
9.7179399999999916
 72
               1
 10
4.4389424199528094
 20
9.7179399999999916
 11
4.4389424199528094
 21
3.6979399999999956
 72
               1
 10
4.4389424199528094
 20
3.6979399999999956
 11
-1.5810575800471867
 21
3.6979399999999956
 72
               1
 10
-1.5810575800471867
 20
3.6979399999999956
 11
-1.5810575800471867
 21
9.7179399999999916
 97
        1
330
19B
 75
               0
 76
               1
 98
        1
 10
0.0
 20
0.0
  0
LINE
  5
1A2
100
AcDbEntity
  8
None
370
               5
390
0
  6
Continuous
 62
               1
100
AcDbLine
 10
9.4156424199528033
 20
17.03911999999999
 30
0.0
 11
2.7294824199528023
 21
8.2279399999999967
 31
0.0
  0
SOLID
  5
1A3
100
AcDbEntity
  8
None
370
               5
390
0
 62
               1
100
AcDbTrace
 10
2.7294824199528023
 20
8.2279399999999967
 30
0.0
 11
3.0505659077293741
 21
8.9843652943053751
 31
0.0
 12
3.3857615242557131
 22
8.7224817770452887
 32
0.0
 13
3.3857615242557131
 23
8.7224817770452887
 33
0.0
  0
LINE
  5
1A4
100
AcDbEntity
  8
None
370
               5
390
0
  6
Continuous
 62
               1
100
AcDbLine
 10
15.37022241995281
 20
17.03911999999999
 30
0.0
 11
9.4156424199528033
 21
17.03911999999999
 31
0.0
  0
WIPEOUT
  5
1A5
100
AcDbEntity
  8
None
370
               5
390
0
  6
Continuous
 62
               1
 92
        0
100
AcDbWipeout
 90
        0
 10
14.62022241995281
 20
16.449800499999995
 30
0.0
 11
17.674111670669561
 21
0.0
 31
0.0
 12
0.0
 22
17.674111670669561
 32
0.0
 13
1.0
 23
1.0
340
0
 70
               7
280
               1
281
              50
282
              50
283
               0
360
0
 71
               2
 91
        5
 14
-0.5
 24
0.5000000000000002
 14
0.5
 24
0.5000000000000002
 14
0.5
 24
0.4311377271639764
 14
-0.5
 24
0.4311377271639764
 14
-0.5
 24
0.5000000000000002
  0
MTEXT
  5
1A6
100
AcDbEntity
  8
None
390
0
 62
               1
100
AcDbMText
 10
14.62022241995281
 20
17.472301619791658
 30
0.0
 40
0.7579186197916666
 41
0.0
 71
               1
 72
               1
  1
{\C192;\l6.02mm x 6.02mm thermal /GND pad}
  7
Arial
 73
               1
 44
0.9673603504928806
  0
DIMENSION
  5
1A7
100
AcDbEntity
  8
Dimension
370
               5
390
0
  6
Continuous
 62
               1
100
AcDbDimension
  2
*D19
 10
3.0539424199528042
 20
16.116899999999994
 30
0.0
 11
6.3294824199528099
 21
16.116899999999994
 31
0.0
 70
             128
 71
               5
 72
               1
 41
1.0
 42
0.0
  3
IE Standard
100
AcDbAlignedDimension
 13
3.7039424199528099
 23
10.887939999999993
 33
0.0
 14
3.0539424199528042
 24
10.887939999999993
 34
0.0
100
AcDbRotatedDimension
1001
ACAD
1000
DSTYLE
1002
{
1070
             271
1070
               2
1070
             340
1005
35
1070
               3
1000
<>mm typ.
1070
             174
1070
               0
1070
             147
1040
0.09921875
1002
}
  0
ENDSEC
  0
SECTION
  2
OBJECTS
  0
DICTIONARY
  5
19
100
AcDbDictionary
280
               0
281
               1
  3
ACAD_GROUP
350
1A
  3
ACAD_MLINESTYLE
350
1B
  3
ACAD_LAYOUT
350
1E
  3
ACAD_PLOTSETTINGS
350
22
  3
ACAD_PLOTSTYLENAME
350
1F
  3
ACAD_WIPEOUT_VARS
350
23
  0
DICTIONARY
  5
1A
102
{ACAD_REACTORS
330
19
102
}
100
AcDbDictionary
280
               0
281
               1
  0
DICTIONARY
  5
1B
102
{ACAD_REACTORS
330
19
102
}
100
AcDbDictionary
280
               0
281
               1
  3
Standard
350
1C
  0
MLINESTYLE
  5
1C
102
{ACAD_REACTORS
330
1B
102
}
100
AcDbMlineStyle
  2
Standard
 70
               0
  3

 62
               0
 51
90.0
 52
90.0
 71
               2
 49
0.5
 62
             256
  6
ByLayer
 49
-0.5
 62
             256
  6
ByLayer
  0
ACDBDICTIONARYWDFLT
  5
1F
102
{ACAD_REACTORS
330
19
102
}
100
AcDbDictionary
281
               1
  3
Normal
350
1D
100
AcDbDictionaryWithDefault
340
1D
  0
ACDBPLACEHOLDER
  5
1D
102
{ACAD_REACTORS
330
1F
102
}
  0
LAYOUT
  5
20
102
{ACAD_REACTORS
330
1E
102
}
100
AcDbPlotSettings
  1

  2

  4

  6

 40
0.0
 41
0.0
 42
0.0
 43
0.0
 44
0.0
 45
0.0
 46
0.0
 47
0.0
 48
0.0
 49
0.0
140
0.0
141
0.0
142
1.0
143
1.0
 70
            1024
 72
               0
 73
               0
 74
               0
  7

 75
               0
147
1.0
148
0.0
149
0.0
100
AcDbLayout
  1
Model
 70
               0
 71
               0
 10
0.0
 20
0.0
 11
0.0
 21
0.0
 12
0.0
 22
0.0
 32
0.0
 14
0.0
 24
0.0
 34
0.0
 15
0.0
 25
0.0
 35
0.0
146
0.0
 13
0.0
 23
0.0
 33
0.0
 16
0.0
 26
0.0
 36
0.0
 17
0.0
 27
0.0
 37
0.0
 76
               0
330
A
331
0
345
0
346
0
  0
LAYOUT
  5
21
102
{ACAD_REACTORS
330
1E
102
}
100
AcDbPlotSettings
  1

  2

  4

  6

 40
0.0
 41
0.0
 42
0.0
 43
0.0
 44
0.0
 45
0.0
 46
0.0
 47
0.0
 48
0.0
 49
0.0
140
0.0
141
0.0
142
1.0
143
1.0
 70
               0
 72
               0
 73
               0
 74
               0
  7

 75
               0
147
1.0
148
0.0
149
0.0
100
AcDbLayout
  1
Layout1
 70
               0
 71
               0
 10
0.0
 20
0.0
 11
0.0
 21
0.0
 12
0.0
 22
0.0
 32
0.0
 14
0.0
 24
0.0
 34
0.0
 15
0.0
 25
0.0
 35
0.0
146
0.0
 13
0.0
 23
0.0
 33
0.0
 16
0.0
 26
0.0
 36
0.0
 17
0.0
 27
0.0
 37
0.0
 76
               0
330
B
331
0
345
0
346
0
  0
DICTIONARY
  5
1E
102
{ACAD_REACTORS
330
19
102
}
100
AcDbDictionary
280
               0
281
               1
  3
Layout1
350
21
  3
Model
350
20
  0
DICTIONARY
  5
22
102
{ACAD_REACTORS
330
19
102
}
100
AcDbDictionary
280
               0
281
               1
  0
WIPEOUTVARIABLES
  5
23
100
AcDbWipeoutVariables
 70
               0
  0
ENDSEC
  0
EOF
