  0
SECTION
  2
HEADER
  9
$ACADVER
  1
AC1015
  9
$ACADMAINTVER
 70
               6
  9
$DWGCODEPAGE
  3
ANSI_1252
  9
$INSBASE
 10
0.0
 20
0.0
 30
0.0
  9
$EXTMIN
 10
-25.999999999999986
 20
-19.158655269211497
 30
-0.34925
  9
$EXTMAX
 10
28.256549804541663
 20
24.0
 30
0.34925
  9
$LIMMIN
 10
0.0
 20
0.0
  9
$LIMMAX
 10
0.0
 20
0.0
  9
$ORTHOMODE
 70
               0
  9
$REGENMODE
 70
               1
  9
$FILLMODE
 70
               1
  9
$QTEXTMODE
 70
               0
  9
$MIRRTEXT
 70
               1
  9
$LTSCALE
 40
1.27
  9
$ATTMODE
 70
               1
  9
$TEXTSIZE
 40
0.2
  9
$TRACEWID
 40
1.0
  9
$TEXTSTYLE
  7
Standard
  9
$CLAYER
  8
None
  9
$CELTYPE
  6
Continuous
  9
$CECOLOR
 62
             256
  9
$CELTSCALE
 40
1.0
  9
$DISPSILH
 70
               0
  9
$DIMSCALE
 40
1.0
  9
$DIMASZ
 40
0.5612060546875
  9
$DIMEXO
 40
0.396875
  9
$DIMDLI
 40
10.16
  9
$DIMRND
 40
0.0
  9
$DIMDLE
 40
1.5874999999999999
  9
$DIMEXE
 40
0.79375
  9
$DIMTP
 40
0.0
  9
$DIMTM
 40
0.0
  9
$DIMTXT
 40
0.7579186197916666
  9
$DIMCEN
 40
0.0
  9
$DIMTSZ
 40
0.0
  9
$DIMTOL
 70
               0
  9
$DIMLIM
 70
               0
  9
$DIMTIH
 70
               0
  9
$DIMTOH
 70
               0
  9
$DIMSE1
 70
               0
  9
$DIMSE2
 70
               0
  9
$DIMTAD
 70
               1
  9
$DIMZIN
 70
              11
  9
$DIMBLK
  1
VW_SLASH
  9
$DIMASO
 70
               1
  9
$DIMSHO
 70
               1
  9
$DIMPOST
  1
<>mm
  9
$DIMAPOST
  1
[]
  9
$DIMALT
 70
               0
  9
$DIMALTD
 70
               1
  9
$DIMALTF
 40
1.0
  9
$DIMLFAC
 40
1.0
  9
$DIMTOFL
 70
               1
  9
$DIMTVP
 40
0.0
  9
$DIMTIX
 70
               1
  9
$DIMSOXD
 70
               0
  9
$DIMSAH
 70
               0
  9
$DIMBLK1
  1

  9
$DIMBLK2
  1

  9
$DIMSTYLE
  2
Arch
  9
$DIMCLRD
 70
               0
  9
$DIMCLRE
 70
               0
  9
$DIMCLRT
 70
               0
  9
$DIMTFAC
 40
1.0
  9
$DIMGAP
 40
1.5874999999999999
  9
$DIMJUST
 70
               0
  9
$DIMSD1
 70
               0
  9
$DIMSD2
 70
               0
  9
$DIMTOLJ
 70
               1
  9
$DIMTZIN
 70
              11
  9
$DIMALTZ
 70
              11
  9
$DIMALTTZ
 70
              11
  9
$DIMUPT
 70
               0
  9
$DIMDEC
 70
               1
  9
$DIMTDEC
 70
               1
  9
$DIMALTU
 70
               2
  9
$DIMALTTD
 70
               2
  9
$DIMTXSTY
  7
Helvetica
  9
$DIMAUNIT
 70
               0
  9
$DIMADEC
 70
               2
  9
$DIMALTRND
 40
0.0
  9
$DIMAZIN
 70
               0
  9
$DIMDSEP
 70
              46
  9
$DIMATFIT
 70
               0
  9
$DIMFRAC
 70
               2
  9
$DIMLDRBLK
  1

  9
$DIMLUNIT
 70
               2
  9
$DIMLWD
 70
              -2
  9
$DIMLWE
 70
              -2
  9
$DIMTMOVE
 70
               0
  9
$LUNITS
 70
               2
  9
$LUPREC
 70
               4
  9
$SKETCHINC
 40
0.1
  9
$FILLETRAD
 40
0.0
  9
$AUNITS
 70
               0
  9
$AUPREC
 70
               0
  9
$MENU
  1
acad
  9
$ELEVATION
 40
0.0
  9
$PELEVATION
 40
0.0
  9
$THICKNESS
 40
0.0
  9
$LIMCHECK
 70
               0
  9
$CHAMFERA
 40
0.0
  9
$CHAMFERB
 40
0.0
  9
$CHAMFERC
 40
0.0
  9
$CHAMFERD
 40
0.0
  9
$SKPOLY
 70
               0
  9
$TDCREATE
 40
2454966.608414352
  9
$TDUCREATE
 40
0.000000000
  9
$TDUPDATE
 40
2454966.608414352
  9
$TDUUPDATE
 40
0.000000000
  9
$TDINDWG
 40
0.0000000000
  9
$TDUSRTIMER
 40
0.0000000000
  9
$USRTIMER
 70
               1
  9
$ANGBASE
 50
0.0
  9
$ANGDIR
 70
               0
  9
$PDMODE
 70
               1
  9
$PDSIZE
 40
-2.0
  9
$PLINEWID
 40
0.0
  9
$SPLFRAME
 70
               0
  9
$SPLINETYPE
 70
               6
  9
$SPLINESEGS
 70
               8
  9
$HANDSEED
  5
1C0
  9
$SURFTAB1
 70
               6
  9
$SURFTAB2
 70
               6
  9
$SURFTYPE
 70
               6
  9
$SURFU
 70
               6
  9
$SURFV
 70
               6
  9
$UCSBASE
  2

  9
$UCSNAME
  2

  9
$UCSORG
 10
0.0
 20
0.0
 30
0.0
  9
$UCSXDIR
 10
1.0
 20
0.0
 30
0.0
  9
$UCSYDIR
 10
0.0
 20
1.0
 30
0.0
  9
$UCSORTHOREF
  2

  9
$UCSORTHOVIEW
 70
               0
  9
$UCSORGTOP
 10
0.0
 20
0.0
 30
0.0
  9
$UCSORGBOTTOM
 10
0.0
 20
0.0
 30
0.0
  9
$UCSORGLEFT
 10
0.0
 20
0.0
 30
0.0
  9
$UCSORGRIGHT
 10
0.0
 20
0.0
 30
0.0
  9
$UCSORGFRONT
 10
0.0
 20
0.0
 30
0.0
  9
$UCSORGBACK
 10
0.0
 20
0.0
 30
0.0
  9
$PUCSBASE
  2

  9
$PUCSNAME
  2

  9
$PUCSORG
 10
0.0
 20
0.0
 30
0.0
  9
$PUCSXDIR
 10
1.0
 20
0.0
 30
0.0
  9
$PUCSYDIR
 10
0.0
 20
1.0
 30
0.0
  9
$PUCSORTHOREF
  2

  9
$PUCSORTHOVIEW
 70
               0
  9
$PUCSORGTOP
 10
0.0
 20
0.0
 30
0.0
  9
$PUCSORGBOTTOM
 10
0.0
 20
0.0
 30
0.0
  9
$PUCSORGLEFT
 10
0.0
 20
0.0
 30
0.0
  9
$PUCSORGRIGHT
 10
0.0
 20
0.0
 30
0.0
  9
$PUCSORGFRONT
 10
0.0
 20
0.0
 30
0.0
  9
$PUCSORGBACK
 10
0.0
 20
0.0
 30
0.0
  9
$USERI1
 70
               0
  9
$USERI2
 70
               0
  9
$USERI3
 70
               0
  9
$USERI4
 70
               0
  9
$USERI5
 70
               0
  9
$USERR1
 40
0.0
  9
$USERR2
 40
0.0
  9
$USERR3
 40
0.0
  9
$USERR4
 40
0.0
  9
$USERR5
 40
0.0
  9
$WORLDVIEW
 70
               1
  9
$SHADEDGE
 70
               3
  9
$SHADEDIF
 70
              70
  9
$TILEMODE
 70
               1
  9
$MAXACTVP
 70
              64
  9
$PINSBASE
 10
0.0
 20
0.0
 30
0.0
  9
$PLIMCHECK
 70
               0
  9
$PEXTMIN
 10
1.0000000000000000E+20
 20
1.0000000000000000E+20
 30
1.0000000000000000E+20
  9
$PEXTMAX
 10
-1.0000000000000000E+20
 20
-1.0000000000000000E+20
 30
-1.0000000000000000E+20
  9
$PLIMMIN
 10
0.0
 20
0.0
  9
$PLIMMAX
 10
12.0
 20
9.0
  9
$UNITMODE
 70
               0
  9
$VISRETAIN
 70
               0
  9
$PLINEGEN
 70
               1
  9
$PSLTSCALE
 70
               0
  9
$TREEDEPTH
 70
            3020
  9
$CMLSTYLE
  2
Standard
  9
$CMLJUST
 70
               0
  9
$CMLSCALE
 40
1.0
  9
$PROXYGRAPHICS
 70
               0
  9
$MEASUREMENT
 70
               1
  9
$CELWEIGHT
370
               0
  9
$ENDCAPS
280
               0
  9
$JOINSTYLE
280
               0
  9
$LWDISPLAY
290
               1
  9
$INSUNITS
 70
               4
  9
$HYPERLINKBASE
  1

  9
$STYLESHEET
  1

  9
$XEDIT
290
               1
  9
$CEPSNTYPE
380
               0
  9
$PSTYLEMODE
290
               1
  9
$FINGERPRINTGUID
  2

  9
$VERSIONGUID
  2

  9
$EXTNAMES
290
               1
  9
$PSVPSCALE
 40
0.0
  0
ENDSEC
  0
SECTION
  2
CLASSES
  0
CLASS
  1
LWPOLYLINE
  2
AcDbPolyline
  3
AutoCAD 2000
 90
        0
280
               0
281
               1
  0
CLASS
  1
IMAGE
  2
AcDbRasterImage
  3
ISM
 90
      127
280
               0
281
               1
  0
CLASS
  1
OLE2FRAME
  2
AcDbOle2Frame
  3
AutoCAD 2000
 90
        0
280
               0
281
               1
  0
CLASS
  1
HATCH
  2
AcDbHatch
  3
AutoCAD 2000
 90
        0
280
               0
281
               1
  0
CLASS
  1
DICTIONARYVAR
  2
AcDbDictionaryVar
  3
AutoCAD 2000
 90
        0
280
               0
281
               0
  0
CLASS
  1
RASTERVARIABLES
  2
AcDbRasterVariables
  3
ISM
 90
        0
280
               0
281
               0
  0
CLASS
  1
IMAGEDEF
  2
AcDbRasterImageDef
  3
ISM
 90
        0
280
               0
281
               0
  0
CLASS
  1
IMAGEDEF_REACTOR
  2
AcDbRasterImageDefReactor
  3
ISM
 90
        1
280
               0
281
               0
  0
CLASS
  1
IDBUFFER
  2
AcDbIdBuffer
  3
AutoCAD 2000
 90
        0
280
               0
281
               0
  0
CLASS
  1
SPATIAL_FILTER
  2
AcDbSpatialFilter
  3
AutoCAD 2000
 90
        0
280
               0
281
               0
  0
CLASS
  1
XRECORD
  2
AcDbXrecord
  3
AutoCAD 2000
 90
        0
280
               0
281
               0
  0
CLASS
  1
SORTENTSTABLE
  2
AcDbSortentsTable
  3
AutoCAD 2000
 90
        0
280
               0
281
               0
  0
CLASS
  1
LAYER_INDEX
  2
AcDbLayerIndex
  3
AutoCAD 2000
 90
        0
280
               0
281
               0
  0
CLASS
  1
SPATIAL_INDEX
  2
AcDbSpatialIndex
  3
AutoCAD 2000
 90
        0
280
               0
281
               0
  0
CLASS
  1
OBJECT_PTR
  2
CAseDLPNTableRecord
  3
"ASE-LPNTableRecord"
 90
        1
280
               0
281
               0
  0
CLASS
  1
LAYOUT
  2
AcDbLayout
  3
AutoCAD 2000
 90
        0
280
               0
281
               0
  0
CLASS
  1
PLOTSETTINGS
  2
AcDbPlotSettings
  3
AutoCAD 2000
 90
        0
280
               0
281
               0
  0
CLASS
  1
ACDBDICTIONARYWDFLT
  2
AcDbDictionaryWithDefault
  3
AutoCAD 2000
 90
        0
280
               0
281
               0
  0
CLASS
  1
ACDBPLACEHOLDER
  2
AcDbPlaceHolder
  3
AutoCAD 2000
 90
        0
280
               0
281
               0
  0
CLASS
  1
VBA_PROJECT
  2
AcDbVbaProject
  3
acadvba
 90
        0
280
               0
281
               0
  0
CLASS
  1
WIPEOUT
  2
AcDbWipeout
  3
WipeOut|AutoCAD Express Tool|expresstools@autodesk.com
 90
      127
280
               0
281
               1
  0
CLASS
  1
WIPEOUTVARIABLES
  2
AcDbWipeoutVariables
  3
WipeOut|AutoCAD Express Tool|expresstools@autodesk.com
 90
        0
280
               0
281
               0
  0
CLASS
  1
RTEXT
  2
RText
  3
RText|AutoCAD Express Tool|expresstools@autodesk.com
 90
        0
280
               0
281
               1
  0
CLASS
  1
ARCALIGNEDTEXT
  2
AcDbArcAlignedText
  3
ATEXT|AutoCAD Express Tool|expresstools@autodesk.com
 90
        0
280
               0
281
               1
  0
ENDSEC
  0
SECTION
  2
TABLES
  0
TABLE
  2
VPORT
  5
7
100
AcDbSymbolTable
 70
               1
  0
VPORT
  5
15
100
AcDbSymbolTableRecord
100
AcDbViewportTableRecord
  2
*ACTIVE
 70
               0
 10
0.0
 20
0.0
 11
1.0
 21
1.0
 12
1.1282749022708387
 22
2.4206723653942497
 13
0.0
 23
0.0
 14
1.0
 24
1.0
 15
0.0
 25
0.0
 16
0.0
 26
0.0
 36
1.0
 17
0.0
 27
0.0
 37
0.0
 40
43.158655269211494
 41
0.688564
 42
50.0
 43
0.0
 44
0.0
 50
0.0
 51
0.0
 71
               0
 72
            2000
 73
               1
 74
               1
 75
               0
 76
               0
 77
               0
 78
               0
281
               0
 65
               0
110
0.0
120
0.0
130
0.0
111
1.0
121
0.0
131
0.0
112
0.0
122
1.0
132
0.0
345
0
346
0
 79
               0
146
0.0
  0
ENDTAB
  0
TABLE
  2
LTYPE
  5
4
100
AcDbSymbolTable
 70
              15
  0
LTYPE
  5
11
100
AcDbSymbolTableRecord
100
AcDbLinetypeTableRecord
  2
ByBlock
 70
              64
  3

 72
              65
 73
               0
 40
0.0
  0
LTYPE
  5
12
100
AcDbSymbolTableRecord
100
AcDbLinetypeTableRecord
  2
ByLayer
 70
              64
  3

 72
              65
 73
               0
 40
0.0
  0
LTYPE
  5
13
100
AcDbSymbolTableRecord
100
AcDbLinetypeTableRecord
  2
Continuous
 70
              64
  3
Solid line
 72
              65
 73
               0
 40
0.0
  0
LTYPE
  5
3C
100
AcDbSymbolTableRecord
100
AcDbLinetypeTableRecord
  2
STYLE_01
 70
               0
  3

 72
              65
 73
               2
 40
0.41664
 49
0.20828
 74
               0
 49
-0.20836
 74
               0
  0
LTYPE
  5
3D
100
AcDbSymbolTableRecord
100
AcDbLinetypeTableRecord
  2
STYLE_02
 70
               0
  3

 72
              65
 73
               2
 40
0.6944250000000001
 49
0.48607
 74
               0
 49
-0.2083550000000001
 74
               0
  0
LTYPE
  5
3E
100
AcDbSymbolTableRecord
100
AcDbLinetypeTableRecord
  2
STYLE_03
 70
               0
  3

 72
              65
 73
               2
 40
1.25
 49
1.0416400000000001
 74
               0
 49
-0.2083599999999999
 74
               0
  0
LTYPE
  5
3F
100
AcDbSymbolTableRecord
100
AcDbLinetypeTableRecord
  2
STYLE_04
 70
               0
  3

 72
              65
 73
               2
 40
1.5277099999999999
 49
1.3194249999999998
 74
               0
 49
-0.208285
 74
               0
  0
LTYPE
  5
40
100
AcDbSymbolTableRecord
100
AcDbLinetypeTableRecord
  2
STYLE_05
 70
               0
  3

 72
              65
 73
               2
 40
0.20828
 49
0.069425
 74
               0
 49
-0.138855
 74
               0
  0
LTYPE
  5
41
100
AcDbSymbolTableRecord
100
AcDbLinetypeTableRecord
  2
STYLE_06
 70
               0
  3

 72
              65
 73
               4
 40
1.0416400000000001
 49
0.625
 74
               0
 49
-0.20828
 74
               0
 49
0.06943
 74
               0
 49
-0.13893
 74
               0
  0
LTYPE
  5
42
100
AcDbSymbolTableRecord
100
AcDbLinetypeTableRecord
  2
STYLE_07
 70
               0
  3

 72
              65
 73
               6
 40
1.875
 49
0.625
 74
               0
 49
-0.20828
 74
               0
 49
0.6250000000000001
 74
               0
 49
-0.2083599999999999
 74
               0
 49
0.06943
 74
               0
 49
-0.1389299999999999
 74
               0
  0
LTYPE
  5
43
100
AcDbSymbolTableRecord
100
AcDbLinetypeTableRecord
  2
STYLE_08
 70
               0
  3

 72
              65
 73
               6
 40
1.25
 49
0.625
 74
               0
 49
-0.20828
 74
               0
 49
0.06943
 74
               0
 49
-0.13893
 74
               0
 49
0.0694299999999999
 74
               0
 49
-0.13893
 74
               0
  0
LTYPE
  5
44
100
AcDbSymbolTableRecord
100
AcDbLinetypeTableRecord
  2
STYLE_09
 70
               0
  3

 72
              65
 73
               4
 40
5.0
 49
3.75
 74
               0
 49
-0.2777849999999998
 74
               0
 49
0.6944300000000003
 74
               0
 49
-0.2777849999999998
 74
               0
  0
LTYPE
  5
45
100
AcDbSymbolTableRecord
100
AcDbLinetypeTableRecord
  2
STYLE_10
 70
               0
  3

 72
              65
 73
               6
 40
5.9375
 49
3.75
 74
               0
 49
-0.2777849999999998
 74
               0
 49
0.6944300000000003
 74
               0
 49
-0.2777849999999998
 74
               0
 49
0.625
 74
               0
 49
-0.3125
 74
               0
  0
LTYPE
  5
46
100
AcDbSymbolTableRecord
100
AcDbLinetypeTableRecord
  2
STYLE_11
 70
               0
  3

 72
              65
 73
               2
 40
0.4166412353515625
 49
0.2777862548828125
 74
               0
 49
-0.13885498046875
 74
               0
  0
LTYPE
  5
47
100
AcDbSymbolTableRecord
100
AcDbLinetypeTableRecord
  2
STYLE_12
 70
               0
  3

 72
              65
 73
               2
 40
1.875
 49
1.25
 74
               0
 49
-0.625
 74
               0
  0
ENDTAB
  0
TABLE
  2
LAYER
  5
2
100
AcDbSymbolTable
 70
               4
  0
LAYER
  5
14
100
AcDbSymbolTableRecord
100
AcDbLayerTableRecord
  2
0
 70
               0
 62
               7
  6
Continuous
290
               1
370
              -3
390
1D
  0
LAYER
  5
48
100
AcDbSymbolTableRecord
100
AcDbLayerTableRecord
  2
Defpoints
 70
               0
 62
               7
  6
Continuous
290
               0
370
              -3
390
1D
  0
LAYER
  5
49
100
AcDbSymbolTableRecord
100
AcDbLayerTableRecord
  2
None
 70
               0
 62
               7
  6
Continuous
290
               1
370
               5
390
1D
  0
LAYER
  5
4A
100
AcDbSymbolTableRecord
100
AcDbLayerTableRecord
  2
Dimension
 70
               0
 62
               7
  6
Continuous
290
               1
370
               5
390
1D
  0
ENDTAB
  0
TABLE
  2
STYLE
  5
3
100
AcDbSymbolTable
 70
               4
  0
STYLE
  5
17
100
AcDbSymbolTableRecord
100
AcDbTextStyleTableRecord
  2
Standard
 70
               0
 40
0.0
 41
1.0
 50
0.0
 71
               0
 42
0.0
  3
txt
  4

  0
STYLE
  5
39
100
AcDbSymbolTableRecord
100
AcDbTextStyleTableRecord
  2
Arial
 70
               0
 40
0.0
 41
1.0
 50
0.0
 71
               0
 42
0.0
  3
Arial
  4

1001
ACAD
1000
Arial
1071
        0
  0
STYLE
  5
3A
100
AcDbSymbolTableRecord
100
AcDbTextStyleTableRecord
  2
Helvetica
 70
               0
 40
0.0
 41
1.0
 50
0.0
 71
               0
 42
0.0
  3
Helvetica
  4

1001
ACAD
1000
Helvetica
1071
        0
  0
STYLE
  5
3B
100
AcDbSymbolTableRecord
100
AcDbTextStyleTableRecord
  2
New Century Schlbk
 70
               0
 40
0.0
 41
1.0
 50
0.0
 71
               0
 42
0.0
  3
New Century Schlbk
  4

1001
ACAD
1000
New Century Schlbk
1071
        0
  0
ENDTAB
  0
TABLE
  2
VIEW
  5
5
100
AcDbSymbolTable
 70
               0
  0
ENDTAB
  0
TABLE
  2
UCS
  5
6
100
AcDbSymbolTable
 70
               0
  0
ENDTAB
  0
TABLE
  2
APPID
  5
8
100
AcDbSymbolTable
 70
               1
  0
APPID
  5
16
100
AcDbSymbolTableRecord
100
AcDbRegAppTableRecord
  2
ACAD
 70
               0
  0
ENDTAB
  0
TABLE
  2
DIMSTYLE
  5
9
100
AcDbSymbolTable
 70
               3
100
AcDbDimStyleTable
 71
               0
  0
DIMSTYLE
105
18
100
AcDbSymbolTableRecord
100
AcDbDimStyleTableRecord
  2
Standard
 70
               0
  3

  4

 40
1.0
 41
0.18
 42
0.0625
 43
0.38
 44
0.18
 45
0.0
 46
0.0
 47
0.0
 48
0.0
 71
               0
 72
               0
 73
               1
 74
               1
 75
               0
 76
               0
 77
               0
 78
               0
 79
               0
140
0.18
141
0.09
142
0.0
143
25.399999999999999
144
1.0
145
0.0
146
1.0
147
0.09
148
0.0
170
               0
171
               2
172
               0
173
               0
174
               0
175
               0
176
               0
177
               0
178
               0
179
               0
271
               4
272
               4
273
               2
274
               2
275
               0
276
               0
277
               2
278
              46
279
               0
280
               0
281
               0
282
               0
283
               1
284
               0
285
               0
286
               0
288
               0
289
               3
340
17
341
0
342
0
343
0
344
0
371
              -2
372
              -2
  0
DIMSTYLE
105
53
100
AcDbSymbolTableRecord
100
AcDbDimStyleTableRecord
  2
IE Standard
 70
               0
  3
<>mm
  4
[]
 40
1.0
 41
0.79375
 42
0.4762500011827797
 43
6.9999859934672708
 44
0.9525000023655593
 45
0.0
 46
0.0
 47
0.0
 48
0.0
 71
               0
 72
               0
 73
               1
 74
               1
 75
               0
 76
               0
 77
               0
 78
              11
 79
               0
140
0.7579186197916666
141
0.0
142
0.0
143
1.0
144
1.0
145
0.0
146
1.0
147
0.0
148
0.0
170
               0
171
               1
172
               1
173
               0
174
               1
175
               0
176
               0
177
               0
178
               0
179
               2
271
               1
272
               1
273
               2
274
               2
275
               0
276
               2
277
               2
278
              46
279
               0
280
               0
281
               0
282
               0
283
               1
284
              11
285
              11
286
              11
288
               0
289
               0
340
3A
341
4F
342
4B
343
0
344
0
371
              -2
372
              -2
  0
DIMSTYLE
105
59
100
AcDbSymbolTableRecord
100
AcDbDimStyleTableRecord
  2
Arch
 70
               0
  3
<>mm
  4
[]
 40
1.0
 41
0.5612060546875
 42
0.396875
 43
10.16
 44
0.79375
 45
0.0
 46
1.5874999999999999
 47
0.0
 48
0.0
 71
               0
 72
               0
 73
               0
 74
               0
 75
               0
 76
               0
 77
               1
 78
              11
 79
               0
140
0.7579186197916666
141
0.0
142
0.0
143
1.0
144
1.0
145
0.0
146
1.0
147
1.5874999999999999
148
0.0
170
               0
171
               1
172
               1
173
               0
174
               1
175
               0
176
               0
177
               0
178
               0
179
               2
271
               1
272
               1
273
               2
274
               2
275
               0
276
               2
277
               2
278
              46
279
               0
280
               0
281
               0
282
               0
283
               1
284
              11
285
              11
286
              11
288
               0
289
               0
340
3A
341
4B
342
54
343
0
344
0
371
              -2
372
              -2
  0
ENDTAB
  0
TABLE
  2
BLOCK_RECORD
  5
1
100
AcDbSymbolTable
 70
              24
  0
BLOCK_RECORD
  5
A
100
AcDbSymbolTableRecord
100
AcDbBlockTableRecord
  2
*MODEL_SPACE
340
20
  0
BLOCK_RECORD
  5
B
100
AcDbSymbolTableRecord
100
AcDbBlockTableRecord
  2
*PAPER_SPACE
340
21
  0
BLOCK_RECORD
  5
4B
100
AcDbSymbolTableRecord
100
AcDbBlockTableRecord
  2
VW_FILLEDARROW
340
0
  0
BLOCK_RECORD
  5
4F
100
AcDbSymbolTableRecord
100
AcDbBlockTableRecord
  2
VW_FILLEDARROW-1
340
0
  0
BLOCK_RECORD
  5
54
100
AcDbSymbolTableRecord
100
AcDbBlockTableRecord
  2
VW_SLASH
340
0
  0
BLOCK_RECORD
  5
24
100
AcDbSymbolTableRecord
100
AcDbBlockTableRecord
  2
*D3
340
0
  0
BLOCK_RECORD
  5
25
100
AcDbSymbolTableRecord
100
AcDbBlockTableRecord
  2
*D4
340
0
  0
BLOCK_RECORD
  5
26
100
AcDbSymbolTableRecord
100
AcDbBlockTableRecord
  2
*D5
340
0
  0
BLOCK_RECORD
  5
27
100
AcDbSymbolTableRecord
100
AcDbBlockTableRecord
  2
*D6
340
0
  0
BLOCK_RECORD
  5
28
100
AcDbSymbolTableRecord
100
AcDbBlockTableRecord
  2
*D7
340
0
  0
BLOCK_RECORD
  5
29
100
AcDbSymbolTableRecord
100
AcDbBlockTableRecord
  2
*D8
340
0
  0
BLOCK_RECORD
  5
2A
100
AcDbSymbolTableRecord
100
AcDbBlockTableRecord
  2
*D9
340
0
  0
BLOCK_RECORD
  5
2B
100
AcDbSymbolTableRecord
100
AcDbBlockTableRecord
  2
*D10
340
0
  0
BLOCK_RECORD
  5
2C
100
AcDbSymbolTableRecord
100
AcDbBlockTableRecord
  2
*D11
340
0
  0
BLOCK_RECORD
  5
2D
100
AcDbSymbolTableRecord
100
AcDbBlockTableRecord
  2
*D12
340
0
  0
BLOCK_RECORD
  5
2E
100
AcDbSymbolTableRecord
100
AcDbBlockTableRecord
  2
*D13
340
0
  0
BLOCK_RECORD
  5
2F
100
AcDbSymbolTableRecord
100
AcDbBlockTableRecord
  2
*D14
340
0
  0
BLOCK_RECORD
  5
30
100
AcDbSymbolTableRecord
100
AcDbBlockTableRecord
  2
*D15
340
0
  0
BLOCK_RECORD
  5
31
100
AcDbSymbolTableRecord
100
AcDbBlockTableRecord
  2
*D16
340
0
  0
BLOCK_RECORD
  5
32
100
AcDbSymbolTableRecord
100
AcDbBlockTableRecord
  2
Symbol-1
340
0
102
{BLKREFS
331
12D
331
12E
331
12F
331
130
331
131
331
132
331
133
331
134
331
135
331
136
331
137
331
138
331
139
331
13A
331
13B
331
13C
331
13D
331
140
331
141
331
142
331
143
331
144
331
145
331
146
331
147
331
148
331
149
331
14A
331
14B
331
14C
331
14D
331
14E
331
14F
331
150
331
153
331
154
331
155
331
156
331
157
331
158
331
159
331
15A
331
15B
331
15C
331
15D
331
15E
331
15F
331
160
331
161
331
162
331
163
331
166
331
167
331
168
331
169
331
16A
331
16B
331
16C
331
16D
331
16E
331
16F
331
170
331
171
331
172
331
173
331
174
331
175
331
176
102
}
  0
BLOCK_RECORD
  5
33
100
AcDbSymbolTableRecord
100
AcDbBlockTableRecord
  2
Group
340
0
102
{BLKREFS
331
179
102
}
  0
BLOCK_RECORD
  5
34
100
AcDbSymbolTableRecord
100
AcDbBlockTableRecord
  2
Group-1
340
0
102
{BLKREFS
331
17A
102
}
  0
BLOCK_RECORD
  5
35
100
AcDbSymbolTableRecord
100
AcDbBlockTableRecord
  2
Group-2
340
0
102
{BLKREFS
331
17B
102
}
  0
BLOCK_RECORD
  5
36
100
AcDbSymbolTableRecord
100
AcDbBlockTableRecord
  2
Group-3
340
0
102
{BLKREFS
331
17C
102
}
  0
BLOCK_RECORD
  5
37
100
AcDbSymbolTableRecord
100
AcDbBlockTableRecord
  2
Group-4
340
0
102
{BLKREFS
331
1BA
102
}
  0
BLOCK_RECORD
  5
38
100
AcDbSymbolTableRecord
100
AcDbBlockTableRecord
  2
Group-5
340
0
102
{BLKREFS
331
1BD
102
}
  0
ENDTAB
  0
ENDSEC
  0
SECTION
  2
BLOCKS
  0
BLOCK
  5
D
100
AcDbEntity
  8
0
390
0
100
AcDbBlockBegin
  2
*MODEL_SPACE
 70
               0
 10
0.0
 20
0.0
 30
0.0
  3
*MODEL_SPACE
  1

  0
ENDBLK
  5
E
100
AcDbEntity
  8
0
390
0
100
AcDbBlockEnd
  0
BLOCK
  5
F
100
AcDbEntity
 67
               1
  8
0
390
0
100
AcDbBlockBegin
  2
*PAPER_SPACE
 70
               0
 10
0.0
 20
0.0
 30
0.0
  3
*PAPER_SPACE
  1

  0
ENDBLK
  5
10
100
AcDbEntity
 67
               1
  8
0
390
0
100
AcDbBlockEnd
  0
BLOCK
  5
4C
100
AcDbEntity
  8
0
370
              -2
390
0
  6
ByBlock
 62
               0
100
AcDbBlockBegin
  2
VW_FILLEDARROW
 70
               0
 10
0.0
 20
0.0
 30
0.0
  3
VW_FILLEDARROW
  1

  0
SOLID
  5
4D
100
AcDbEntity
  8
0
370
              -2
390
0
 62
               0
100
AcDbTrace
 10
0.0
 20
0.0
 30
0.0
 11
-0.9999389648437499
 21
-0.2679328381102956
 31
0.0
 12
-0.9999389648437499
 22
0.2679328381102958
 32
0.0
 13
-0.9999389648437499
 23
0.2679328381102958
 33
0.0
  0
ENDBLK
  5
4E
100
AcDbEntity
  8
0
390
0
100
AcDbBlockEnd
  0
BLOCK
  5
50
100
AcDbEntity
  8
0
370
              -2
390
0
  6
ByBlock
 62
               0
100
AcDbBlockBegin
  2
VW_FILLEDARROW-1
 70
               0
 10
0.0
 20
0.0
 30
0.0
  3
VW_FILLEDARROW
  1

  0
SOLID
  5
51
100
AcDbEntity
  8
0
370
              -2
390
0
 62
               0
100
AcDbTrace
 10
0.0
 20
0.0
 30
0.0
 11
-0.6662384033203125
 21
-0.1785180421362784
 31
0.0
 12
-0.6662384033203125
 22
0.1785180421362785
 32
0.0
 13
-0.6662384033203125
 23
0.1785180421362785
 33
0.0
  0
ENDBLK
  5
52
100
AcDbEntity
  8
0
390
0
100
AcDbBlockEnd
  0
BLOCK
  5
55
100
AcDbEntity
  8
0
370
              -2
390
0
  6
ByBlock
 62
               0
100
AcDbBlockBegin
  2
VW_SLASH
 70
               0
 10
0.0
 20
0.0
 30
0.0
  3
VW_SLASH
  1

  0
LINE
  5
56
100
AcDbEntity
  8
0
370
              -2
390
0
  6
ByBlock
 62
               0
100
AcDbLine
 10
0.0
 20
0.0
 30
0.0
 11
-1.0
 21
0.0
 31
0.0
  0
LINE
  5
57
100
AcDbEntity
  8
0
370
              20
390
0
  6
ByBlock
 62
               0
100
AcDbLine
 10
-0.5000145658230796
 20
-0.5000145658230795
 30
0.0
 11
0.5000145658230796
 21
0.5000145658230795
 31
0.0
  0
ENDBLK
  5
58
100
AcDbEntity
  8
0
390
0
100
AcDbBlockEnd
  0
BLOCK
  5
5A
100
AcDbEntity
  8
Dimension
390
0
100
AcDbBlockBegin
  2
*D3
 70
               1
 10
0.0
 20
0.0
 30
0.0
  3
*D3
  1

  0
LINE
  5
5B
100
AcDbEntity
  8
Dimension
370
              -2
390
0
  6
Continuous
 62
               0
100
AcDbLine
 10
-5.7634590866326789
 20
12.002499997634438
 30
0.0
 11
-20.893557582412726
 21
12.002499997634438
 31
0.0
  0
LINE
  5
5C
100
AcDbEntity
  8
Dimension
370
              -2
390
0
  6
Continuous
 62
               0
100
AcDbLine
 10
-5.7634590866326789
 20
-3.2225000023655603
 30
0.0
 11
-20.893557582412726
 21
-3.2225000023655603
 31
0.0
  0
LINE
  5
5D
100
AcDbEntity
  8
Dimension
370
              -2
390
0
  6
Continuous
 62
               0
100
AcDbLine
 10
-19.941057580047172
 20
12.002499997634438
 30
0.0
 11
-19.941057580047172
 21
-3.2225000023655603
 31
0.0
  0
SOLID
  5
5E
100
AcDbEntity
  8
Dimension
370
              -2
390
0
 62
               0
100
AcDbTrace
 10
-19.941057580047172
 20
12.002499997634438
 30
0.0
 11
-19.72837290855497
 21
11.208749997634438
 31
0.0
 12
-20.153742251539377
 22
11.208749997634438
 32
0.0
 13
-20.153742251539377
 23
11.208749997634438
 33
0.0
  0
SOLID
  5
5F
100
AcDbEntity
  8
Dimension
370
              -2
390
0
 62
               0
100
AcDbTrace
 10
-19.941057580047172
 20
-3.2225000023655603
 30
0.0
 11
-20.153742251539377
 21
-2.4287500023655602
 31
0.0
 12
-19.728372908554967
 22
-2.4287500023655602
 32
0.0
 13
-19.728372908554967
 23
-2.4287500023655602
 33
0.0
  0
WIPEOUT
  5
60
100
AcDbEntity
  8
Dimension
370
              -2
390
0
  6
Continuous
 62
               0
 92
        0
100
AcDbWipeout
 90
        0
 10
-25.999999999999986
 20
4.8804285061760924
 30
0.0
 11
5.0376507600148521
 21
0.0
 31
0.0
 12
0.0
 22
5.0376507600148521
 32
0.0
 13
1.0
 23
1.0
340
0
 70
               7
280
               1
281
              50
282
              50
283
               0
360
0
 71
               2
 91
        5
 14
-0.5
 24
0.5
 14
0.5
 24
0.5
 14
0.5
 24
0.2584033594269224
 14
-0.5
 24
0.2584033594269224
 14
-0.5
 24
0.5
  0
MTEXT
  5
61
100
AcDbEntity
  8
Dimension
390
0
 62
               0
100
AcDbMText
 10
-25.999999999999986
 20
5.9029296259677588
 30
0.0
 40
0.7579186197916666
 41
0.0
 71
               1
 72
               1
  1
15.225mm
  7
Helvetica
 73
               1
 44
0.9673603504928806
  0
WIPEOUT
  5
62
100
AcDbEntity
  8
Dimension
370
              -2
390
0
  6
Continuous
 62
               0
 92
        0
100
AcDbWipeout
 90
        0
 10
-20.96234923998513
 20
4.8804268395094246
 30
0.0
 11
5.0270675208833495
 21
0.0
 31
0.0
 12
0.0
 22
5.0270675208833495
 32
0.0
 13
1.0
 23
1.0
340
0
 70
               7
280
               1
281
              50
282
              50
283
               0
360
0
 71
               2
 91
        5
 14
-0.5
 24
0.5
 14
0.5
 24
0.5
 14
0.5
 24
0.2578947378478544
 14
-0.5
 24
0.2578947378478544
 14
-0.5
 24
0.5
  0
MTEXT
  5
63
100
AcDbEntity
  8
Dimension
390
0
 62
               0
100
AcDbMText
 10
-20.96234923998513
 20
5.902927959301091
 30
0.0
 40
0.7579186197916666
 41
0.0
 71
               1
 72
               1
  1
±0.125mm
  7
Helvetica
 73
               1
 44
0.9673603504928806
  0
WIPEOUT
  5
64
100
AcDbEntity
  8
Dimension
370
              -2
390
0
  6
Continuous
 62
               0
 92
        0
100
AcDbWipeout
 90
        0
 10
-15.935281719101781
 20
4.8804246728427589
 30
0.0
 11
2.0531665590074333
 21
0.0
 31
0.0
 12
0.0
 22
2.0531665590074333
 32
0.0
 13
1.0
 23
1.0
340
0
 70
               7
280
               1
281
              50
282
              50
283
               0
360
0
 71
               2
 91
        5
 14
-0.5
 24
0.5
 14
0.5
 24
0.5
 14
0.5
 24
-0.0927835362376593
 14
-0.5
 24
-0.0927835362376593
 14
-0.5
 24
0.5
  0
MTEXT
  5
65
100
AcDbEntity
  8
Dimension
390
0
 62
               0
100
AcDbMText
 10
-15.935281719101781
 20
5.9029290131205361
 30
0.0
 40
0.7579210069444442
 41
0.0
 71
               1
 72
               1
  1
 sqr.
  7
Helvetica
 73
               1
 44
0.9673603504928806
  0
POINT
  5
66
100
AcDbEntity
  8
Defpoints
370
               0
390
0
 62
               0
100
AcDbPoint
 10
-5.2872090854499021
 20
-3.2225000023655603
 30
0.0
  0
POINT
  5
67
100
AcDbEntity
  8
Defpoints
370
               0
390
0
 62
               0
100
AcDbPoint
 10
-5.2872090854499021
 20
12.002499997634438
 30
0.0
  0
POINT
  5
68
100
AcDbEntity
  8
Defpoints
370
               0
390
0
 62
               0
100
AcDbPoint
 10
-19.941057580047168
 20
12.002499997634438
 30
0.0
  0
ENDBLK
  5
69
100
AcDbEntity
  8
Dimension
390
0
100
AcDbBlockEnd
  0
BLOCK
  5
6A
100
AcDbEntity
  8
Dimension
390
0
100
AcDbBlockBegin
  2
*D4
 70
               1
 10
0.0
 20
0.0
 30
0.0
  3
*D4
  1

  0
LINE
  5
6B
100
AcDbEntity
  8
Dimension
370
              -2
390
0
  6
Continuous
 62
               0
100
AcDbLine
 10
-4.0372090854499021
 20
11.228749998817218
 30
0.0
 11
-4.0372090854499021
 21
20.150007399999978
 31
0.0
  0
LINE
  5
6C
100
AcDbEntity
  8
Dimension
370
              -2
390
0
  6
Continuous
 62
               0
100
AcDbLine
 10
-0.7497090854499078
 20
8.9662499988172186
 30
0.0
 11
-0.7497090854499078
 21
20.150007399999978
 31
0.0
  0
LINE
  5
6D
100
AcDbEntity
  8
Dimension
370
              -2
390
0
  6
Continuous
 62
               0
100
AcDbLine
 10
-0.7497090854499078
 20
19.197507397634418
 30
0.0
 11
-4.0372090854499021
 21
19.197507397634418
 31
0.0
  0
LINE
  5
6E
100
AcDbEntity
  8
Dimension
370
              -2
390
0
  6
Continuous
 62
               0
100
AcDbLine
 10
-4.0372090854499021
 20
19.197507397634418
 30
0.0
 11
-5.7872055838167142
 21
19.197507397634418
 31
0.0
  0
SOLID
  5
6F
100
AcDbEntity
  8
Dimension
370
              -2
390
0
 62
               0
100
AcDbTrace
 10
-4.0372090854499021
 20
19.197507397634418
 30
0.0
 11
-4.8309590854499023
 21
18.984822726142212
 31
0.0
 12
-4.8309590854499023
 22
19.410192069126623
 32
0.0
 13
-4.8309590854499023
 23
19.410192069126623
 33
0.0
  0
LINE
  5
70
100
AcDbEntity
  8
Dimension
370
              -2
390
0
  6
Continuous
 62
               0
100
AcDbLine
 10
-0.7497090854499078
 20
19.197507397634418
 30
0.0
 11
1.8802893145501116
 21
19.197507397634418
 31
0.0
  0
SOLID
  5
71
100
AcDbEntity
  8
Dimension
370
              -2
390
0
 62
               0
100
AcDbTrace
 10
-0.7497090854499078
 20
19.197507397634418
 30
0.0
 11
0.0440409145500922
 21
19.410192069126623
 31
0.0
 12
0.0440409145500922
 22
18.984822726142212
 32
0.0
 13
0.0440409145500922
 23
18.984822726142212
 33
0.0
  0
WIPEOUT
  5
72
100
AcDbEntity
  8
Dimension
370
              -2
390
0
  6
Continuous
 62
               0
 92
        0
100
AcDbWipeout
 90
        0
 10
1.8802893145501116
 20
18.588967647634419
 30
0.0
 11
5.4503997776243427
 21
0.0
 31
0.0
 12
0.0
 22
5.4503997776243427
 32
0.0
 13
1.0
 23
1.0
340
0
 70
               7
280
               1
281
              50
282
              50
283
               0
360
0
 71
               2
 91
        5
 14
-0.5
 24
0.5
 14
0.5
 24
0.5
 14
0.5
 24
0.2766990405003856
 14
-0.5
 24
0.2766990405003856
 14
-0.5
 24
0.5
  0
MTEXT
  5
73
100
AcDbEntity
  8
Dimension
390
0
 62
               0
100
AcDbMText
 10
1.8802893145501116
 20
19.611468767426086
 30
0.0
 40
0.7579186197916666
 41
0.0
 71
               1
 72
               1
  1
3.2875mm*
  7
Helvetica
 73
               1
 44
0.9673603504928806
  0
POINT
  5
74
100
AcDbEntity
  8
Defpoints
370
               0
390
0
 62
               0
100
AcDbPoint
 10
-0.7497090854499078
 20
8.4899999976344382
 30
0.0
  0
POINT
  5
75
100
AcDbEntity
  8
Defpoints
370
               0
390
0
 62
               0
100
AcDbPoint
 10
-4.0372090854499021
 20
10.752499997634438
 30
0.0
  0
POINT
  5
76
100
AcDbEntity
  8
Defpoints
370
               0
390
0
 62
               0
100
AcDbPoint
 10
-4.0372090854499021
 20
19.197507397634418
 30
0.0
  0
ENDBLK
  5
77
100
AcDbEntity
  8
Dimension
390
0
100
AcDbBlockEnd
  0
BLOCK
  5
78
100
AcDbEntity
  8
Dimension
390
0
100
AcDbBlockBegin
  2
*D5
 70
               1
 10
0.0
 20
0.0
 30
0.0
  3
*D5
  1

  0
LINE
  5
79
100
AcDbEntity
  8
Dimension
370
              -2
390
0
  6
Continuous
 62
               0
100
AcDbLine
 10
-1.2259590866326846
 20
8.4899999976344382
 30
0.0
 11
-9.779009087815453
 21
8.4899999976344382
 31
0.0
  0
LINE
  5
7A
100
AcDbEntity
  8
Dimension
370
              -2
390
0
  6
Continuous
 62
               0
100
AcDbLine
 10
-4.5134590866326789
 20
10.752499997634438
 30
0.0
 11
-9.779009087815453
 21
10.752499997634438
 31
0.0
  0
LINE
  5
7B
100
AcDbEntity
  8
Dimension
370
              -2
390
0
  6
Continuous
 62
               0
100
AcDbLine
 10
-8.8265090854498993
 20
10.752499997634438
 30
0.0
 11
-8.8265090854498993
 21
8.4899999976344382
 31
0.0
  0
LINE
  5
7C
100
AcDbEntity
  8
Dimension
370
              -2
390
0
  6
Continuous
 62
               0
100
AcDbLine
 10
-8.8265090854498993
 20
8.4899999976344382
 30
0.0
 11
-8.8265090854498993
 21
6.740003499267619
 31
0.0
  0
SOLID
  5
7D
100
AcDbEntity
  8
Dimension
370
              -2
390
0
 62
               0
100
AcDbTrace
 10
-8.8265090854498993
 20
8.4899999976344382
 30
0.0
 11
-8.6138244139576958
 21
7.6962499976344381
 31
0.0
 12
-9.0391937569421028
 22
7.6962499976344381
 32
0.0
 13
-9.0391937569421028
 23
7.6962499976344381
 33
0.0
  0
LINE
  5
7E
100
AcDbEntity
  8
Dimension
370
              -2
390
0
  6
Continuous
 62
               0
100
AcDbLine
 10
-8.8265090854498993
 20
10.752499997634438
 30
0.0
 11
-8.8265090854498993
 21
12.502496496001257
 31
0.0
  0
SOLID
  5
7F
100
AcDbEntity
  8
Dimension
370
              -2
390
0
 62
               0
100
AcDbTrace
 10
-8.8265090854498993
 20
10.752499997634438
 30
0.0
 11
-9.0391937569421028
 21
11.546249997634437
 31
0.0
 12
-8.6138244139576958
 22
11.546249997634437
 32
0.0
 13
-8.6138244139576958
 23
11.546249997634437
 33
0.0
  0
WIPEOUT
  5
80
100
AcDbEntity
  8
Dimension
370
              -2
390
0
  6
Continuous
 62
               0
 92
        0
100
AcDbWipeout
 90
        0
 10
-11.345334465457327
 20
9.0358936105612564
 30
0.0
 11
5.0376507600148521
 21
0.0
 31
0.0
 12
0.0
 22
5.0376507600148521
 32
0.0
 13
1.0
 23
1.0
340
0
 70
               7
280
               1
281
              50
282
              50
283
               0
360
0
 71
               2
 91
        5
 14
-0.5
 24
0.5
 14
0.5
 24
0.5
 14
0.5
 24
0.2584033594269222
 14
-0.5
 24
0.2584033594269222
 14
-0.5
 24
0.5
  0
MTEXT
  5
81
100
AcDbEntity
  8
Dimension
390
0
 62
               0
100
AcDbMText
 10
-11.345334465457327
 20
10.058394730352923
 30
0.0
 40
0.7579186197916666
 41
0.0
 71
               1
 72
               1
  1
2.2625mm
  7
Helvetica
 73
               1
 44
0.9673603504928806
  0
POINT
  5
82
100
AcDbEntity
  8
Defpoints
370
               0
390
0
 62
               0
100
AcDbPoint
 10
-4.0372090854499021
 20
10.752499997634438
 30
0.0
  0
POINT
  5
83
100
AcDbEntity
  8
Defpoints
370
               0
390
0
 62
               0
100
AcDbPoint
 10
-0.7497090854499078
 20
8.4899999976344382
 30
0.0
  0
POINT
  5
84
100
AcDbEntity
  8
Defpoints
370
               0
390
0
 62
               0
100
AcDbPoint
 10
-8.8265090854498993
 20
8.4899999976344382
 30
0.0
  0
ENDBLK
  5
85
100
AcDbEntity
  8
Dimension
390
0
100
AcDbBlockEnd
  0
BLOCK
  5
86
100
AcDbEntity
  8
Dimension
390
0
100
AcDbBlockBegin
  2
*D6
 70
               1
 10
0.0
 20
0.0
 30
0.0
  3
*D6
  1

  0
LINE
  5
87
100
AcDbEntity
  8
Dimension
370
              -2
390
0
  6
Continuous
 62
               0
100
AcDbLine
 10
4.1752909145501036
 20
8.9662499988172222
 30
0.0
 11
4.1752909145501036
 21
16.100000000000001
 31
0.0
  0
LINE
  5
88
100
AcDbEntity
  8
Dimension
370
              -2
390
0
  6
Continuous
 62
               0
100
AcDbLine
 10
4.5752909145500951
 20
8.9662499988172222
 30
0.0
 11
4.5752909145500951
 21
16.100000000000001
 31
0.0
  0
LINE
  5
89
100
AcDbEntity
  8
Dimension
370
              -2
390
0
  6
Continuous
 62
               0
100
AcDbLine
 10
4.5752909145500951
 20
15.147499997634441
 30
0.0
 11
4.1752909145501036
 21
15.147499997634441
 31
0.0
  0
LINE
  5
8A
100
AcDbEntity
  8
Dimension
370
              -2
390
0
  6
Continuous
 62
               0
100
AcDbLine
 10
4.1752909145501036
 20
15.147499997634441
 30
0.0
 11
2.4252944161832914
 21
15.147499997634441
 31
0.0
  0
SOLID
  5
8B
100
AcDbEntity
  8
Dimension
370
              -2
390
0
 62
               0
100
AcDbTrace
 10
4.1752909145501036
 20
15.147499997634441
 30
0.0
 11
3.3815409145501034
 21
14.934815326142237
 31
0.0
 12
3.3815409145501039
 22
15.360184669126644
 32
0.0
 13
3.3815409145501039
 23
15.360184669126644
 33
0.0
  0
LINE
  5
8C
100
AcDbEntity
  8
Dimension
370
              -2
390
0
  6
Continuous
 62
               0
100
AcDbLine
 10
4.5752909145500951
 20
15.147499997634441
 30
0.0
 11
6.8852893145501071
 21
15.147499997634441
 31
0.0
  0
SOLID
  5
8D
100
AcDbEntity
  8
Dimension
370
              -2
390
0
 62
               0
100
AcDbTrace
 10
4.5752909145500951
 20
15.147499997634441
 30
0.0
 11
5.3690409145500952
 21
15.360184669126644
 31
0.0
 12
5.3690409145500952
 22
14.934815326142237
 32
0.0
 13
5.3690409145500952
 23
14.934815326142237
 33
0.0
  0
WIPEOUT
  5
8E
100
AcDbEntity
  8
Dimension
370
              -2
390
0
  6
Continuous
 62
               0
 92
        0
100
AcDbWipeout
 90
        0
 10
6.8852893145501071
 20
14.538960247634442
 30
0.0
 11
3.259656492869059
 21
0.0
 31
0.0
 12
0.0
 22
3.259656492869059
 32
0.0
 13
1.0
 23
1.0
340
0
 70
               7
280
               1
281
              50
282
              50
283
               0
360
0
 71
               2
 91
        5
 14
-0.5
 24
0.5
 14
0.5
 24
0.5
 14
0.5
 24
0.1266233872610421
 14
-0.5
 24
0.1266233872610421
 14
-0.5
 24
0.5
  0
MTEXT
  5
8F
100
AcDbEntity
  8
Dimension
390
0
 62
               0
100
AcDbMText
 10
6.8852893145501071
 20
15.561461367426109
 30
0.0
 40
0.7579186197916666
 41
0.0
 71
               1
 72
               1
  1
0.4mm
  7
Helvetica
 73
               1
 44
0.9673603504928806
  0
POINT
  5
90
100
AcDbEntity
  8
Defpoints
370
               0
390
0
 62
               0
100
AcDbPoint
 10
4.5752909145500951
 20
8.4899999976344418
 30
0.0
  0
POINT
  5
91
100
AcDbEntity
  8
Defpoints
370
               0
390
0
 62
               0
100
AcDbPoint
 10
4.1752909145501036
 20
8.4899999976344418
 30
0.0
  0
POINT
  5
92
100
AcDbEntity
  8
Defpoints
370
               0
390
0
 62
               0
100
AcDbPoint
 10
4.1752909145501036
 20
15.147499997634441
 30
0.0
  0
ENDBLK
  5
93
100
AcDbEntity
  8
Dimension
390
0
100
AcDbBlockEnd
  0
BLOCK
  5
94
100
AcDbEntity
  8
Dimension
390
0
100
AcDbBlockBegin
  2
*D7
 70
               1
 10
0.0
 20
0.0
 30
0.0
  3
*D7
  1

  0
LINE
  5
95
100
AcDbEntity
  8
Dimension
370
              -2
390
0
  6
Continuous
 62
               0
100
AcDbLine
 10
9.1640409157328691
 20
8.2124999976344384
 30
0.0
 11
14.837180916915649
 21
8.2124999976344384
 31
0.0
  0
LINE
  5
96
100
AcDbEntity
  8
Dimension
370
              -2
390
0
  6
Continuous
 62
               0
100
AcDbLine
 10
9.1640409157328691
 20
10.752499997634438
 30
0.0
 11
14.837180916915649
 21
10.752499997634438
 31
0.0
  0
LINE
  5
97
100
AcDbEntity
  8
Dimension
370
              -2
390
0
  6
Continuous
 62
               0
100
AcDbLine
 10
13.884680914550088
 20
10.752499997634438
 30
0.0
 11
13.884680914550088
 21
8.2124999976344384
 31
0.0
  0
LINE
  5
98
100
AcDbEntity
  8
Dimension
370
              -2
390
0
  6
Continuous
 62
               0
100
AcDbLine
 10
13.884680914550088
 20
8.2124999976344384
 30
0.0
 11
13.884680914550088
 21
6.4625034992676191
 31
0.0
  0
SOLID
  5
99
100
AcDbEntity
  8
Dimension
370
              -2
390
0
 62
               0
100
AcDbTrace
 10
13.884680914550088
 20
8.2124999976344384
 30
0.0
 11
14.097365586042292
 21
7.4187499976344382
 31
0.0
 12
13.671996243057885
 22
7.4187499976344382
 32
0.0
 13
13.671996243057885
 23
7.4187499976344382
 33
0.0
  0
LINE
  5
9A
100
AcDbEntity
  8
Dimension
370
              -2
390
0
  6
Continuous
 62
               0
100
AcDbLine
 10
13.884680914550088
 20
10.752499997634438
 30
0.0
 11
13.884680914550088
 21
12.502496496001257
 31
0.0
  0
SOLID
  5
9B
100
AcDbEntity
  8
Dimension
370
              -2
390
0
 62
               0
100
AcDbTrace
 10
13.884680914550088
 20
10.752499997634438
 30
0.0
 11
13.671996243057885
 21
11.546249997634437
 31
0.0
 12
14.097365586042292
 22
11.546249997634437
 32
0.0
 13
14.097365586042292
 23
11.546249997634437
 33
0.0
  0
WIPEOUT
  5
9C
100
AcDbEntity
  8
Dimension
370
              -2
390
0
  6
Continuous
 62
               0
 92
        0
100
AcDbWipeout
 90
        0
 10
11.958520290257923
 20
8.8739602476344395
 30
0.0
 11
3.8523212485843228
 21
0.0
 31
0.0
 12
0.0
 22
3.8523212485843228
 32
0.0
 13
1.0
 23
1.0
340
0
 70
               7
280
               1
281
              50
282
              50
283
               0
360
0
 71
               2
 91
        5
 14
-0.5
 24
0.5
 14
0.5
 24
0.5
 14
0.5
 24
0.1840659380503998
 14
-0.5
 24
0.1840659380503998
 14
-0.5
 24
0.5
  0
MTEXT
  5
9D
100
AcDbEntity
  8
Dimension
390
0
 62
               0
100
AcDbMText
 10
11.958520290257923
 20
9.8964613674261059
 30
0.0
 40
0.7579186197916666
 41
0.0
 71
               1
 72
               1
  1
2.54mm
  7
Helvetica
 73
               1
 44
0.9673603504928806
  0
POINT
  5
9E
100
AcDbEntity
  8
Defpoints
370
               0
390
0
 62
               0
100
AcDbPoint
 10
8.6877909145500922
 20
10.752499997634438
 30
0.0
  0
POINT
  5
9F
100
AcDbEntity
  8
Defpoints
370
               0
390
0
 62
               0
100
AcDbPoint
 10
8.6877909145500922
 20
8.2124999976344384
 30
0.0
  0
POINT
  5
A0
100
AcDbEntity
  8
Defpoints
370
               0
390
0
 62
               0
100
AcDbPoint
 10
13.884680914550092
 20
8.2124999976344384
 30
0.0
  0
ENDBLK
  5
A1
100
AcDbEntity
  8
Dimension
390
0
100
AcDbBlockEnd
  0
BLOCK
  5
A2
100
AcDbEntity
  8
Dimension
390
0
100
AcDbBlockBegin
  2
*D8
 70
               1
 10
0.0
 20
0.0
 30
0.0
  3
*D8
  1

  0
LINE
  5
A3
100
AcDbEntity
  8
Dimension
370
              -2
390
0
  6
Continuous
 62
               0
100
AcDbLine
 10
-4.0372090854499021
 20
-2.4487500035483398
 30
0.0
 11
-4.0372090854499021
 21
-13.655000004731118
 31
0.0
  0
LINE
  5
A4
100
AcDbEntity
  8
Dimension
370
              -2
390
0
  6
Continuous
 62
               0
100
AcDbLine
 10
8.6877909145500922
 20
-2.4487500035483398
 30
0.0
 11
8.6877909145500922
 21
-13.655000004731118
 31
0.0
  0
LINE
  5
A5
100
AcDbEntity
  8
Dimension
370
              -2
390
0
  6
Continuous
 62
               0
100
AcDbLine
 10
8.6877909145500922
 20
-12.702500002365559
 30
0.0
 11
-4.0372090854499021
 21
-12.702500002365559
 31
0.0
  0
LINE
  5
A6
100
AcDbEntity
  8
Dimension
370
              -2
390
0
  6
Continuous
 62
               0
100
AcDbLine
 10
-4.0372090854499021
 20
-12.702500002365559
 30
0.0
 11
-5.7872055838167142
 21
-12.702500002365559
 31
0.0
  0
SOLID
  5
A7
100
AcDbEntity
  8
Dimension
370
              -2
390
0
 62
               0
100
AcDbTrace
 10
-4.0372090854499021
 20
-12.702500002365559
 30
0.0
 11
-4.8309590854499023
 21
-12.915184673857762
 31
0.0
 12
-4.8309590854499023
 22
-12.489815330873355
 32
0.0
 13
-4.8309590854499023
 23
-12.489815330873355
 33
0.0
  0
LINE
  5
A8
100
AcDbEntity
  8
Dimension
370
              -2
390
0
  6
Continuous
 62
               0
100
AcDbLine
 10
8.6877909145500922
 20
-12.702500002365559
 30
0.0
 11
10.437787412916904
 21
-12.702500002365559
 31
0.0
  0
SOLID
  5
A9
100
AcDbEntity
  8
Dimension
370
              -2
390
0
 62
               0
100
AcDbTrace
 10
8.6877909145500922
 20
-12.702500002365559
 30
0.0
 11
9.4815409145500915
 21
-12.489815330873355
 31
0.0
 12
9.4815409145500915
 22
-12.915184673857762
 32
0.0
 13
9.4815409145500915
 23
-12.915184673857762
 33
0.0
  0
WIPEOUT
  5
AA
100
AcDbEntity
  8
Dimension
370
              -2
390
0
  6
Continuous
 62
               0
 92
        0
100
AcDbWipeout
 90
        0
 10
-3.7801091689123041
 20
-13.311037835698894
 30
0.0
 11
5.0376507600148521
 21
0.0
 31
0.0
 12
0.0
 22
5.0376507600148521
 32
0.0
 13
1.0
 23
1.0
340
0
 70
               7
280
               1
281
              50
282
              50
283
               0
360
0
 71
               2
 91
        5
 14
-0.5
 24
0.5
 14
0.5
 24
0.5
 14
0.5
 24
0.2584033594269222
 14
-0.5
 24
0.2584033594269222
 14
-0.5
 24
0.5
  0
MTEXT
  5
AB
100
AcDbEntity
  8
Dimension
390
0
 62
               0
100
AcDbMText
 10
-3.7801091689123041
 20
-12.288536715907227
 30
0.0
 40
0.7579186197916666
 41
0.0
 71
               1
 72
               1
  1
12.725mm
  7
Helvetica
 73
               1
 44
0.9673603504928806
  0
WIPEOUT
  5
AC
100
AcDbEntity
  8
Dimension
370
              -2
390
0
  6
Continuous
 62
               0
 92
        0
100
AcDbWipeout
 90
        0
 10
1.2575415911025516
 20
-13.31103950236556
 30
0.0
 11
5.0270675208833486
 21
0.0
 31
0.0
 12
0.0
 22
5.0270675208833486
 32
0.0
 13
1.0
 23
1.0
340
0
 70
               7
280
               1
281
              50
282
              50
283
               0
360
0
 71
               2
 91
        5
 14
-0.5
 24
0.5
 14
0.5
 24
0.5
 14
0.5
 24
0.2578947378478542
 14
-0.5
 24
0.2578947378478542
 14
-0.5
 24
0.5
  0
MTEXT
  5
AD
100
AcDbEntity
  8
Dimension
390
0
 62
               0
100
AcDbMText
 10
1.2575415911025516
 20
-12.288538382573893
 30
0.0
 40
0.7579186197916666
 41
0.0
 71
               1
 72
               1
  1
±0.125mm
  7
Helvetica
 73
               1
 44
0.9673603504928806
  0
WIPEOUT
  5
AE
100
AcDbEntity
  8
Dimension
370
              -2
390
0
  6
Continuous
 62
               0
 92
        0
100
AcDbWipeout
 90
        0
 10
6.2846091119859011
 20
-13.311041669032226
 30
0.0
 11
2.1060832593176109
 21
0.0
 31
0.0
 12
0.0
 22
2.1060832593176109
 32
0.0
 13
1.0
 23
1.0
340
0
 70
               7
280
               1
281
              50
282
              50
283
               0
360
0
 71
               2
 91
        5
 14
-0.5
 24
0.5
 14
0.5
 24
0.5
 14
0.5
 24
-0.0778894675453992
 14
-0.5
 24
-0.0778894675453992
 14
-0.5
 24
0.5
  0
MTEXT
  5
AF
100
AcDbEntity
  8
Dimension
390
0
 62
               0
100
AcDbMText
 10
6.2846091119859011
 20
-12.288537328754449
 30
0.0
 40
0.7579210069444442
 41
0.0
 71
               1
 72
               1
  1
 (x4)
  7
Helvetica
 73
               1
 44
0.9673603504928806
  0
POINT
  5
B0
100
AcDbEntity
  8
Defpoints
370
               0
390
0
 62
               0
100
AcDbPoint
 10
8.6877909145500922
 20
-1.9725000023655603
 30
0.0
  0
POINT
  5
B1
100
AcDbEntity
  8
Defpoints
370
               0
390
0
 62
               0
100
AcDbPoint
 10
-4.0372090854499021
 20
-1.9725000023655603
 30
0.0
  0
POINT
  5
B2
100
AcDbEntity
  8
Defpoints
370
               0
390
0
 62
               0
100
AcDbPoint
 10
-4.0372090854499021
 20
-12.702500002365559
 30
0.0
  0
ENDBLK
  5
B3
100
AcDbEntity
  8
Dimension
390
0
100
AcDbBlockEnd
  0
BLOCK
  5
B4
100
AcDbEntity
  8
Dimension
390
0
100
AcDbBlockBegin
  2
*D9
 70
               1
 10
0.0
 20
0.0
 30
0.0
  3
*D9
  1

  0
LINE
  5
B5
100
AcDbEntity
  8
Dimension
370
              -2
390
0
  6
Continuous
 62
               0
100
AcDbLine
 10
6.5024123650606072
 20
2.3150329149813516
 30
0.0
 11
12.317853728008188
 21
0.5827737882379758
 31
0.0
  0
SOLID
  5
B6
100
AcDbEntity
  8
Dimension
370
              -2
390
0
 62
               0
100
AcDbTrace
 10
6.5024123650606072
 20
2.3150329149813516
 30
0.0
 11
7.0497786181001016
 21
2.2959184642313977
 31
0.0
 12
6.9668882199921338
 22
2.0247961885327577
 32
0.0
 13
6.9668882199921338
 23
2.0247961885327577
 33
0.0
  0
LINE
  5
B7
100
AcDbEntity
  8
Dimension
370
              -2
390
0
  6
Continuous
 62
               0
100
AcDbLine
 10
12.317853728008188
 20
0.5827737882379758
 30
0.0
 11
13.817850729987683
 21
0.5827737882379758
 31
0.0
  0
WIPEOUT
  5
B8
100
AcDbEntity
  8
Dimension
370
              -2
390
0
  6
Continuous
 62
               0
 92
        0
100
AcDbWipeout
 90
        0
 10
13.817850729987683
 20
-0.0257659617620238
 30
0.0
 11
8.5195569568210168
 21
0.0
 31
0.0
 12
0.0
 22
8.5195569568210168
 32
0.0
 13
1.0
 23
1.0
340
0
 70
               7
280
               1
281
              50
282
              50
283
               0
360
0
 71
               2
 91
        5
 14
-0.5
 24
0.5
 14
0.5
 24
0.5
 14
0.5
 24
0.3571428648028969
 14
-0.5
 24
0.3571428648028969
 14
-0.5
 24
0.5
  0
MTEXT
  5
B9
100
AcDbEntity
  8
Dimension
390
0
 62
               0
100
AcDbMText
 10
13.817850729987683
 20
0.9967351580296426
 30
0.0
 40
0.7579186197916666
 41
0.0
 71
               1
 72
               1
  1
0.6mm x 0.25mm 
  7
Helvetica
 73
               1
 44
0.9673603504928806
  0
POINT
  5
BA
100
AcDbEntity
  8
Defpoints
370
               0
390
0
 62
               0
100
AcDbPoint
 10
5.5624123650606094
 20
2.5950329149813509
 30
0.0
  0
POINT
  5
BB
100
AcDbEntity
  8
Defpoints
370
               0
390
0
 62
               0
100
AcDbPoint
 10
6.5024123650606072
 20
2.3150329149813516
 30
0.0
  0
ENDBLK
  5
BC
100
AcDbEntity
  8
Dimension
390
0
100
AcDbBlockEnd
  0
BLOCK
  5
BD
100
AcDbEntity
  8
Dimension
390
0
100
AcDbBlockBegin
  2
*D10
 70
               1
 10
0.0
 20
0.0
 30
0.0
  3
*D10
  1

  0
LINE
  5
BE
100
AcDbEntity
  8
Dimension
370
              -2
390
0
  6
Continuous
 62
               0
100
AcDbLine
 10
-1.5247090854499135
 20
0.5887499964516589
 30
0.0
 11
-1.5247090854499135
 21
-10.055000004731118
 31
0.0
  0
LINE
  5
BF
100
AcDbEntity
  8
Dimension
370
              -2
390
0
  6
Continuous
 62
               0
100
AcDbLine
 10
6.6752909145500894
 20
0.7137499964516589
 30
0.0
 11
6.6752909145500894
 21
-10.055000004731118
 31
0.0
  0
LINE
  5
C0
100
AcDbEntity
  8
Dimension
370
              -2
390
0
  6
Continuous
 62
               0
100
AcDbLine
 10
-1.5247090854499135
 20
-9.1025000023655593
 30
0.0
 11
6.6752909145500894
 21
-9.1025000023655593
 31
0.0
  0
SOLID
  5
C1
100
AcDbEntity
  8
Dimension
370
              -2
390
0
 62
               0
100
AcDbTrace
 10
-1.5247090854499135
 20
-9.1025000023655593
 30
0.0
 11
-0.7309590854499135
 21
-8.8898153308733558
 31
0.0
 12
-0.7309590854499135
 22
-9.3151846738577628
 32
0.0
 13
-0.7309590854499135
 23
-9.3151846738577628
 33
0.0
  0
SOLID
  5
C2
100
AcDbEntity
  8
Dimension
370
              -2
390
0
 62
               0
100
AcDbTrace
 10
6.6752909145500894
 20
-9.1025000023655593
 30
0.0
 11
5.8815409145500892
 21
-9.3151846738577628
 31
0.0
 12
5.8815409145500892
 22
-8.8898153308733558
 32
0.0
 13
5.8815409145500892
 23
-8.8898153308733558
 33
0.0
  0
WIPEOUT
  5
C3
100
AcDbEntity
  8
Dimension
370
              -2
390
0
  6
Continuous
 62
               0
 92
        0
100
AcDbWipeout
 90
        0
 10
1.1074957491702406
 20
-9.7110397523655596
 30
0.0
 11
3.259656492869059
 21
0.0
 31
0.0
 12
0.0
 22
3.259656492869059
 32
0.0
 13
1.0
 23
1.0
340
0
 70
               7
280
               1
281
              50
282
              50
283
               0
360
0
 71
               2
 91
        5
 14
-0.5
 24
0.5
 14
0.5
 24
0.5
 14
0.5
 24
0.1266233872610421
 14
-0.5
 24
0.1266233872610421
 14
-0.5
 24
0.5
  0
MTEXT
  5
C4
100
AcDbEntity
  8
Dimension
390
0
 62
               0
100
AcDbMText
 10
1.1074957491702406
 20
-8.6885386325738931
 30
0.0
 40
0.7579186197916666
 41
0.0
 71
               1
 72
               1
  1
8.2mm
  7
Helvetica
 73
               1
 44
0.9673603504928806
  0
POINT
  5
C5
100
AcDbEntity
  8
Defpoints
370
               0
390
0
 62
               0
100
AcDbPoint
 10
6.6752909145500894
 20
1.1899999976344393
 30
0.0
  0
POINT
  5
C6
100
AcDbEntity
  8
Defpoints
370
               0
390
0
 62
               0
100
AcDbPoint
 10
-1.5247090854499135
 20
1.0649999976344393
 30
0.0
  0
POINT
  5
C7
100
AcDbEntity
  8
Defpoints
370
               0
390
0
 62
               0
100
AcDbPoint
 10
-1.5247090854499135
 20
-9.1025000023655593
 30
0.0
  0
ENDBLK
  5
C8
100
AcDbEntity
  8
Dimension
390
0
100
AcDbBlockEnd
  0
BLOCK
  5
C9
100
AcDbEntity
  8
Dimension
390
0
100
AcDbBlockBegin
  2
*D11
 70
               1
 10
0.0
 20
0.0
 30
0.0
  3
*D11
  1

  0
LINE
  5
CA
100
AcDbEntity
  8
Dimension
370
              -2
390
0
  6
Continuous
 62
               0
100
AcDbLine
 10
-0.7497090854499078
 20
-0.082630003548342
 30
0.0
 11
-0.7497090854499078
 21
-7.2628400047311192
 31
0.0
  0
LINE
  5
CB
100
AcDbEntity
  8
Dimension
370
              -2
390
0
  6
Continuous
 62
               0
100
AcDbLine
 10
5.9002909145500979
 20
-0.082630003548342
 30
0.0
 11
5.9002909145500979
 21
-7.2628400047311192
 31
0.0
  0
LINE
  5
CC
100
AcDbEntity
  8
Dimension
370
              -2
390
0
  6
Continuous
 62
               0
100
AcDbLine
 10
5.9002909145500979
 20
-6.3103400023655603
 30
0.0
 11
-0.7497090854499078
 21
-6.3103400023655603
 31
0.0
  0
LINE
  5
CD
100
AcDbEntity
  8
Dimension
370
              -2
390
0
  6
Continuous
 62
               0
100
AcDbLine
 10
-0.7497090854499078
 20
-6.3103400023655603
 30
0.0
 11
-2.4997055838167199
 21
-6.3103400023655603
 31
0.0
  0
SOLID
  5
CE
100
AcDbEntity
  8
Dimension
370
              -2
390
0
 62
               0
100
AcDbTrace
 10
-0.7497090854499078
 20
-6.3103400023655603
 30
0.0
 11
-1.5434590854499077
 21
-6.5230246738577637
 31
0.0
 12
-1.5434590854499075
 22
-6.0976553308733568
 32
0.0
 13
-1.5434590854499075
 23
-6.0976553308733568
 33
0.0
  0
LINE
  5
CF
100
AcDbEntity
  8
Dimension
370
              -2
390
0
  6
Continuous
 62
               0
100
AcDbLine
 10
5.9002909145500979
 20
-6.3103400023655603
 30
0.0
 11
7.6502874129169101
 21
-6.3103400023655603
 31
0.0
  0
SOLID
  5
D0
100
AcDbEntity
  8
Dimension
370
              -2
390
0
 62
               0
100
AcDbTrace
 10
5.9002909145500979
 20
-6.3103400023655603
 30
0.0
 11
6.6940409145500981
 21
-6.0976553308733568
 31
0.0
 12
6.6940409145500981
 22
-6.5230246738577637
 32
0.0
 13
6.6940409145500981
 23
-6.5230246738577637
 33
0.0
  0
WIPEOUT
  5
D1
100
AcDbEntity
  8
Dimension
370
              -2
390
0
  6
Continuous
 62
               0
 92
        0
100
AcDbWipeout
 90
        0
 10
0.6223419601798099
 20
-6.9188797523655596
 30
0.0
 11
3.8523212485843228
 21
0.0
 31
0.0
 12
0.0
 22
3.8523212485843228
 32
0.0
 13
1.0
 23
1.0
340
0
 70
               7
280
               1
281
              50
282
              50
283
               0
360
0
 71
               2
 91
        5
 14
-0.5
 24
0.5
 14
0.5
 24
0.5
 14
0.5
 24
0.1840659380504001
 14
-0.5
 24
0.1840659380504001
 14
-0.5
 24
0.5
  0
MTEXT
  5
D2
100
AcDbEntity
  8
Dimension
390
0
 62
               0
100
AcDbMText
 10
0.6223419601798099
 20
-5.8963786325738932
 30
0.0
 40
0.7579186197916666
 41
0.0
 71
               1
 72
               1
  1
6.65mm
  7
Helvetica
 73
               1
 44
0.9673603504928806
  0
POINT
  5
D3
100
AcDbEntity
  8
Defpoints
370
               0
390
0
 62
               0
100
AcDbPoint
 10
5.9002909145500979
 20
0.3936199976344383
 30
0.0
  0
POINT
  5
D4
100
AcDbEntity
  8
Defpoints
370
               0
390
0
 62
               0
100
AcDbPoint
 10
-0.7497090854499078
 20
0.3936199976344383
 30
0.0
  0
POINT
  5
D5
100
AcDbEntity
  8
Defpoints
370
               0
390
0
 62
               0
100
AcDbPoint
 10
-0.7497090854499078
 20
-6.3103400023655603
 30
0.0
  0
ENDBLK
  5
D6
100
AcDbEntity
  8
Dimension
390
0
100
AcDbBlockEnd
  0
BLOCK
  5
D7
100
AcDbEntity
  8
Dimension
390
0
100
AcDbBlockBegin
  2
*D12
 70
               1
 10
0.0
 20
0.0
 30
0.0
  3
*D12
  1

  0
LINE
  5
D8
100
AcDbEntity
  8
Dimension
370
              -2
390
0
  6
Continuous
 62
               0
100
AcDbLine
 10
-4.0372090854499021
 20
11.228749998817218
 30
0.0
 11
-4.0372090854499021
 21
23.999999999999993
 31
0.0
  0
LINE
  5
D9
100
AcDbEntity
  8
Dimension
370
              -2
390
0
  6
Continuous
 62
               0
100
AcDbLine
 10
-5.2872090854499021
 20
12.478749998817218
 30
0.0
 11
-5.2872090854499021
 21
24.0
 31
0.0
  0
LINE
  5
DA
100
AcDbEntity
  8
Dimension
370
              -2
390
0
  6
Continuous
 62
               0
100
AcDbLine
 10
-5.2872090854499021
 20
23.047499997634439
 30
0.0
 11
-4.0372090854499021
 21
23.047499997634439
 31
0.0
  0
LINE
  5
DB
100
AcDbEntity
  8
Dimension
370
              -2
390
0
  6
Continuous
 62
               0
100
AcDbLine
 10
-4.0372090854499021
 20
23.047499997634439
 30
0.0
 11
-1.9447106854498912
 21
23.047499997634439
 31
0.0
  0
SOLID
  5
DC
100
AcDbEntity
  8
Dimension
370
              -2
390
0
 62
               0
100
AcDbTrace
 10
-4.0372090854499021
 20
23.047499997634439
 30
0.0
 11
-3.2434590854499019
 21
23.260184669126645
 31
0.0
 12
-3.2434590854499019
 22
22.834815326142234
 32
0.0
 13
-3.2434590854499019
 23
22.834815326142234
 33
0.0
  0
LINE
  5
DD
100
AcDbEntity
  8
Dimension
370
              -2
390
0
  6
Continuous
 62
               0
100
AcDbLine
 10
-5.2872090854499021
 20
23.047499997634439
 30
0.0
 11
-7.0372055838167142
 21
23.047499997634439
 31
0.0
  0
SOLID
  5
DE
100
AcDbEntity
  8
Dimension
370
              -2
390
0
 62
               0
100
AcDbTrace
 10
-5.2872090854499021
 20
23.047499997634439
 30
0.0
 11
-6.0809590854499023
 21
22.834815326142234
 31
0.0
 12
-6.0809590854499023
 22
23.260184669126645
 32
0.0
 13
-6.0809590854499023
 23
23.260184669126645
 33
0.0
  0
WIPEOUT
  5
DF
100
AcDbEntity
  8
Dimension
370
              -2
390
0
  6
Continuous
 62
               0
 92
        0
100
AcDbWipeout
 90
        0
 10
-1.9447106854498912
 20
22.438962164301099
 30
0.0
 11
3.8523212485843232
 21
0.0
 31
0.0
 12
0.0
 22
3.8523212485843232
 32
0.0
 13
1.0
 23
1.0
340
0
 70
               7
280
               1
281
              50
282
              50
283
               0
360
0
 71
               2
 91
        5
 14
-0.5
 24
0.5
 14
0.5
 24
0.5
 14
0.5
 24
0.1840659380503998
 14
-0.5
 24
0.1840659380503998
 14
-0.5
 24
0.5
  0
MTEXT
  5
E0
100
AcDbEntity
  8
Dimension
390
0
 62
               0
100
AcDbMText
 10
-1.9447106854498912
 20
23.461463284092765
 30
0.0
 40
0.7579186197916666
 41
0.0
 71
               1
 72
               1
  1
1.25mm
  7
Helvetica
 73
               1
 44
0.9673603504928806
  0
WIPEOUT
  5
E1
100
AcDbEntity
  8
Dimension
370
              -2
390
0
  6
Continuous
 62
               0
 92
        0
100
AcDbWipeout
 90
        0
 10
1.9076105631344262
 20
22.438960497634437
 30
0.0
 11
5.0270675208833486
 21
0.0
 31
0.0
 12
0.0
 22
5.0270675208833486
 32
0.0
 13
1.0
 23
1.0
340
0
 70
               7
280
               1
281
              50
282
              50
283
               0
360
0
 71
               2
 91
        5
 14
-0.5
 24
0.5
 14
0.5
 24
0.5
 14
0.5
 24
0.2578947378478542
 14
-0.5
 24
0.2578947378478542
 14
-0.5
 24
0.5
  0
MTEXT
  5
E2
100
AcDbEntity
  8
Dimension
390
0
 62
               0
100
AcDbMText
 10
1.9076105631344262
 20
23.461461617426103
 30
0.0
 40
0.7579186197916666
 41
0.0
 71
               1
 72
               1
  1
±0.125mm
  7
Helvetica
 73
               1
 44
0.9673603504928806
  0
WIPEOUT
  5
E3
100
AcDbEntity
  8
Dimension
370
              -2
390
0
  6
Continuous
 62
               0
 92
        0
100
AcDbWipeout
 90
        0
 10
6.9346780840177757
 20
22.438958330967768
 30
0.0
 11
2.1060832593176109
 21
0.0
 31
0.0
 12
0.0
 22
2.1060832593176109
 32
0.0
 13
1.0
 23
1.0
340
0
 70
               7
280
               1
281
              50
282
              50
283
               0
360
0
 71
               2
 91
        5
 14
-0.5
 24
0.5
 14
0.5
 24
0.5
 14
0.5
 24
-0.0778894675453984
 14
-0.5
 24
-0.0778894675453984
 14
-0.5
 24
0.5
  0
MTEXT
  5
E4
100
AcDbEntity
  8
Dimension
390
0
 62
               0
100
AcDbMText
 10
6.9346780840177757
 20
23.461462671245545
 30
0.0
 40
0.7579210069444442
 41
0.0
 71
               1
 72
               1
  1
 (x4)
  7
Helvetica
 73
               1
 44
0.9673603504928806
  0
POINT
  5
E5
100
AcDbEntity
  8
Defpoints
370
               0
390
0
 62
               0
100
AcDbPoint
 10
-5.2872090854499021
 20
12.002499997634438
 30
0.0
  0
POINT
  5
E6
100
AcDbEntity
  8
Defpoints
370
               0
390
0
 62
               0
100
AcDbPoint
 10
-4.0372090854499021
 20
10.752499997634438
 30
0.0
  0
POINT
  5
E7
100
AcDbEntity
  8
Defpoints
370
               0
390
0
 62
               0
100
AcDbPoint
 10
-4.0372090854499021
 20
23.047499997634439
 30
0.0
  0
ENDBLK
  5
E8
100
AcDbEntity
  8
Dimension
390
0
100
AcDbBlockEnd
  0
BLOCK
  5
E9
100
AcDbEntity
  8
Dimension
390
0
100
AcDbBlockBegin
  2
*D13
 70
               1
 10
0.0
 20
0.0
 30
0.0
  3
*D13
  1

  0
LINE
  5
EA
100
AcDbEntity
  8
Dimension
370
              -2
390
0
  6
Continuous
 62
               0
100
AcDbLine
 10
-5.7634590866326789
 20
12.002499997634438
 30
0.0
 11
-16.597209087815457
 21
12.002499997634438
 31
0.0
  0
LINE
  5
EB
100
AcDbEntity
  8
Dimension
370
              -2
390
0
  6
Continuous
 62
               0
100
AcDbLine
 10
-4.5134590866326789
 20
10.752499997634438
 30
0.0
 11
-16.597209087815457
 21
10.752499997634438
 31
0.0
  0
LINE
  5
EC
100
AcDbEntity
  8
Dimension
370
              -2
390
0
  6
Continuous
 62
               0
100
AcDbLine
 10
-15.644709085449904
 20
10.752499997634438
 30
0.0
 11
-15.644709085449904
 21
12.002499997634438
 31
0.0
  0
LINE
  5
ED
100
AcDbEntity
  8
Dimension
370
              -2
390
0
  6
Continuous
 62
               0
100
AcDbLine
 10
-15.644709085449904
 20
12.002499997634438
 30
0.0
 11
-15.644709085449904
 21
14.797499997634439
 31
0.0
  0
SOLID
  5
EE
100
AcDbEntity
  8
Dimension
370
              -2
390
0
 62
               0
100
AcDbTrace
 10
-15.644709085449904
 20
12.002499997634438
 30
0.0
 11
-15.857393756942107
 21
12.796249997634437
 31
0.0
 12
-15.4320244139577
 22
12.796249997634437
 32
0.0
 13
-15.4320244139577
 23
12.796249997634437
 33
0.0
  0
LINE
  5
EF
100
AcDbEntity
  8
Dimension
370
              -2
390
0
  6
Continuous
 62
               0
100
AcDbLine
 10
-15.644709085449904
 20
10.752499997634438
 30
0.0
 11
-15.644709085449904
 21
9.0025034992676183
 31
0.0
  0
SOLID
  5
F0
100
AcDbEntity
  8
Dimension
370
              -2
390
0
 62
               0
100
AcDbTrace
 10
-15.644709085449904
 20
10.752499997634438
 30
0.0
 11
-15.4320244139577
 21
9.9587499976344382
 31
0.0
 12
-15.857393756942107
 22
9.9587499976344382
 32
0.0
 13
-15.857393756942107
 23
9.9587499976344382
 33
0.0
  0
WIPEOUT
  5
F1
100
AcDbEntity
  8
Dimension
370
              -2
390
0
  6
Continuous
 62
               0
 92
        0
100
AcDbWipeout
 90
        0
 10
-20.841112721984913
 20
14.188962164301106
 30
0.0
 11
3.8523212485843246
 21
0.0
 31
0.0
 12
0.0
 22
3.8523212485843246
 32
0.0
 13
1.0
 23
1.0
340
0
 70
               7
280
               1
281
              50
282
              50
283
               0
360
0
 71
               2
 91
        5
 14
-0.5
 24
0.5
 14
0.5
 24
0.5
 14
0.5
 24
0.1840659380504
 14
-0.5
 24
0.1840659380504
 14
-0.5
 24
0.5
  0
MTEXT
  5
F2
100
AcDbEntity
  8
Dimension
390
0
 62
               0
100
AcDbMText
 10
-20.841112721984913
 20
15.211463284092773
 30
0.0
 40
0.7579186197916666
 41
0.0
 71
               1
 72
               1
  1
1.25mm
  7
Helvetica
 73
               1
 44
0.9673603504928806
  0
WIPEOUT
  5
F3
100
AcDbEntity
  8
Dimension
370
              -2
390
0
  6
Continuous
 62
               0
 92
        0
100
AcDbWipeout
 90
        0
 10
-16.988791473400596
 20
14.18896049763444
 30
0.0
 11
4.434402765168084
 21
0.0
 31
0.0
 12
0.0
 22
4.434402765168084
 32
0.0
 13
1.0
 23
1.0
340
0
 70
               7
280
               1
281
              50
282
              50
283
               0
360
0
 71
               2
 91
        5
 14
-0.5
 24
0.5
 14
0.5
 24
0.5
 14
0.5
 24
0.22553699687361
 14
-0.5
 24
0.22553699687361
 14
-0.5
 24
0.5
  0
MTEXT
  5
F4
100
AcDbEntity
  8
Dimension
390
0
 62
               0
100
AcDbMText
 10
-16.988791473400596
 20
15.211461617426107
 30
0.0
 40
0.7579186197916666
 41
0.0
 71
               1
 72
               1
  1
±0.13mm
  7
Helvetica
 73
               1
 44
0.9673603504928806
  0
WIPEOUT
  5
F5
100
AcDbEntity
  8
Dimension
370
              -2
390
0
  6
Continuous
 62
               0
 92
        0
100
AcDbWipeout
 90
        0
 10
-12.554388708232509
 20
14.188958330967774
 30
0.0
 11
2.1060832593176109
 21
0.0
 31
0.0
 12
0.0
 22
2.1060832593176109
 32
0.0
 13
1.0
 23
1.0
340
0
 70
               7
280
               1
281
              50
282
              50
283
               0
360
0
 71
               2
 91
        5
 14
-0.5
 24
0.5
 14
0.5
 24
0.5
 14
0.5
 24
-0.0778894675453992
 14
-0.5
 24
-0.0778894675453992
 14
-0.5
 24
0.5
  0
MTEXT
  5
F6
100
AcDbEntity
  8
Dimension
390
0
 62
               0
100
AcDbMText
 10
-12.554388708232509
 20
15.211462671245551
 30
0.0
 40
0.7579210069444442
 41
0.0
 71
               1
 72
               1
  1
 (x4)
  7
Helvetica
 73
               1
 44
0.9673603504928806
  0
POINT
  5
F7
100
AcDbEntity
  8
Defpoints
370
               0
390
0
 62
               0
100
AcDbPoint
 10
-4.0372090854499021
 20
10.752499997634438
 30
0.0
  0
POINT
  5
F8
100
AcDbEntity
  8
Defpoints
370
               0
390
0
 62
               0
100
AcDbPoint
 10
-5.2872090854499021
 20
12.002499997634438
 30
0.0
  0
POINT
  5
F9
100
AcDbEntity
  8
Defpoints
370
               0
390
0
 62
               0
100
AcDbPoint
 10
-15.644709085449902
 20
12.002499997634438
 30
0.0
  0
ENDBLK
  5
FA
100
AcDbEntity
  8
Dimension
390
0
100
AcDbBlockEnd
  0
BLOCK
  5
FB
100
AcDbEntity
  8
Dimension
390
0
100
AcDbBlockBegin
  2
*D14
 70
               1
 10
0.0
 20
0.0
 30
0.0
  3
*D14
  1

  0
LINE
  5
FC
100
AcDbEntity
  8
Dimension
370
              -2
390
0
  6
Continuous
 62
               0
100
AcDbLine
 10
9.4464509145500983
 20
-2.2416900023655604
 30
0.0
 11
15.221874127884945
 21
-4.2909766957570437
 31
0.0
  0
SOLID
  5
FD
100
AcDbEntity
  8
Dimension
370
              -2
390
0
 62
               0
100
AcDbTrace
 10
9.4464509145500983
 20
-2.2416900023655604
 30
0.0
 11
9.9920666481052258
 21
-2.289425193693015
 31
0.0
 12
9.8951004048495932
 22
-2.5558377574872106
 32
0.0
 13
9.8951004048495932
 23
-2.5558377574872106
 33
0.0
  0
LINE
  5
FE
100
AcDbEntity
  8
Dimension
370
              -2
390
0
  6
Continuous
 62
               0
100
AcDbLine
 10
15.221874127884945
 20
-4.2909766957570437
 30
0.0
 11
16.721871129864446
 21
-4.2909766957570437
 31
0.0
  0
WIPEOUT
  5
FF
100
AcDbEntity
  8
Dimension
370
              -2
390
0
  6
Continuous
 62
               0
 92
        0
100
AcDbWipeout
 90
        0
 10
15.510083268278827
 20
-4.899514779090377
 30
0.0
 11
4.9741509887907256
 21
0.0
 31
0.0
 12
0.0
 22
4.9741509887907256
 32
0.0
 13
1.0
 23
1.0
340
0
 70
               7
280
               1
281
              50
282
              50
283
               0
360
0
 71
               2
 91
        5
 14
-0.5
 24
0.5
 14
0.5
 24
0.5
 14
0.5
 24
0.2553191483847808
 14
-0.5
 24
0.2553191483847808
 14
-0.5
 24
0.5
  0
MTEXT
  5
100
100
AcDbEntity
  8
Dimension
390
0
 62
               0
100
AcDbMText
 10
15.510083268278827
 20
-3.8770136592987106
 30
0.0
 40
0.7579186197916666
 41
0.0
 71
               1
 72
               1
  1
Ø 1.61mm
  7
Helvetica
 73
               1
 44
0.9673603504928806
  0
WIPEOUT
  5
101
100
AcDbEntity
  8
Dimension
370
              -2
390
0
  6
Continuous
 62
               0
 92
        0
100
AcDbWipeout
 90
        0
 10
20.484234257069549
 20
-5.4617543624237106
 30
0.0
 11
1.2170794999999996
 21
0.0
 31
0.0
 12
0.0
 22
1.2170794999999996
 32
0.0
 13
1.0
 23
1.0
340
0
 70
               7
280
               1
281
              50
282
              50
283
               0
360
0
 71
               2
 91
        5
 14
-0.5
 24
0.5
 14
-0.2130434700853519
 24
0.5
 14
-0.2130434700853519
 24
-0.5
 14
-0.5
 24
-0.5
 14
-0.5
 24
0.5
  0
MTEXT
  5
102
100
AcDbEntity
  8
Dimension
390
0
 62
               0
100
AcDbMText
 10
20.658858712044676
 20
-4.4392532426320441
 30
0.0
 40
0.7579186197916666
 41
0.0
 71
               2
 72
               1
  1
-
  7
Helvetica
 73
               1
 44
0.9673603504928806
  0
WIPEOUT
  5
103
100
AcDbEntity
  8
Dimension
370
              -2
390
0
  6
Continuous
 62
               0
 92
        0
100
AcDbWipeout
 90
        0
 10
20.833483167019807
 20
-4.3372785290903773
 30
0.0
 11
2.3706591910786088
 21
0.0
 31
0.0
 12
0.0
 22
2.3706591910786088
 32
0.0
 13
1.0
 23
1.0
340
0
 70
               7
280
               1
281
              50
282
              50
283
               0
360
0
 71
               2
 91
        5
 14
-0.5
 24
0.5
 14
0.5
 24
0.5
 14
0.5
 24
-0.0133928590748844
 14
-0.5
 24
-0.0133928590748844
 14
-0.5
 24
0.5
  0
MTEXT
  5
104
100
AcDbEntity
  8
Dimension
390
0
 62
               0
100
AcDbMText
 10
20.833483167019807
 20
-3.3147774092987108
 30
0.0
 40
0.7579186197916666
 41
0.0
 71
               1
 72
               1
  1
0mm
  7
Helvetica
 73
               1
 44
0.9673603504928806
  0
WIPEOUT
  5
105
100
AcDbEntity
  8
Dimension
370
              -2
390
0
  6
Continuous
 62
               0
 92
        0
100
AcDbWipeout
 90
        0
 10
20.833483167019807
 20
-5.4617543624237106
 30
0.0
 11
4.4449860042995866
 21
0.0
 31
0.0
 12
0.0
 22
4.4449860042995866
 32
0.0
 13
1.0
 23
1.0
340
0
 70
               7
280
               1
281
              50
282
              50
283
               0
360
0
 71
               2
 91
        5
 14
-0.5
 24
0.5
 14
0.5
 24
0.5
 14
0.5
 24
0.2261904764553293
 14
-0.5
 24
0.2261904764553293
 14
-0.5
 24
0.5
  0
MTEXT
  5
106
100
AcDbEntity
  8
Dimension
390
0
 62
               0
100
AcDbMText
 10
20.833483167019807
 20
-4.4392532426320441
 30
0.0
 40
0.7579186197916666
 41
0.0
 71
               1
 72
               1
  1
0.025mm
  7
Helvetica
 73
               1
 44
0.9673603504928806
  0
WIPEOUT
  5
107
100
AcDbEntity
  8
Dimension
370
              -2
390
0
  6
Continuous
 62
               0
 92
        0
100
AcDbWipeout
 90
        0
 10
25.278469171319394
 20
-4.8995186124237105
 30
0.0
 11
2.1060832593176109
 21
0.0
 31
0.0
 12
0.0
 22
2.1060832593176109
 32
0.0
 13
1.0
 23
1.0
340
0
 70
               7
280
               1
281
              50
282
              50
283
               0
360
0
 71
               2
 91
        5
 14
-0.5
 24
0.5
 14
0.5
 24
0.5
 14
0.5
 24
-0.0778894675453992
 14
-0.5
 24
-0.0778894675453992
 14
-0.5
 24
0.5
  0
MTEXT
  5
108
100
AcDbEntity
  8
Dimension
390
0
 62
               0
100
AcDbMText
 10
25.278469171319394
 20
-3.8770142721459329
 30
0.0
 40
0.7579210069444442
 41
0.0
 71
               1
 72
               1
  1
 (x4)
  7
Helvetica
 73
               1
 44
0.9673603504928806
  0
POINT
  5
109
100
AcDbEntity
  8
Defpoints
370
               0
390
0
 62
               0
100
AcDbPoint
 10
7.9291309145501003
 20
-1.7033100023655603
 30
0.0
  0
POINT
  5
10A
100
AcDbEntity
  8
Defpoints
370
               0
390
0
 62
               0
100
AcDbPoint
 10
9.4464509145500983
 20
-2.2416900023655604
 30
0.0
  0
ENDBLK
  5
10B
100
AcDbEntity
  8
Dimension
390
0
100
AcDbBlockEnd
  0
BLOCK
  5
10C
100
AcDbEntity
  8
Dimension
390
0
100
AcDbBlockBegin
  2
*D15
 70
               1
 10
0.0
 20
0.0
 30
0.0
  3
*D15
  1

  0
LINE
  5
10D
100
AcDbEntity
  8
Dimension
370
              -2
390
0
  6
Continuous
 62
               0
100
AcDbLine
 10
9.0241109145500928
 20
7.9526699976344375
 30
0.0
 11
13.755296960251243
 21
4.2974961709450525
 31
0.0
  0
SOLID
  5
10E
100
AcDbEntity
  8
Dimension
370
              -2
390
0
 62
               0
100
AcDbTrace
 10
9.0241109145500928
 20
7.9526699976344375
 30
0.0
 11
9.5282713279909341
 21
7.7386665987989787
 31
0.0
 12
9.3537249407545975
 22
7.5152574110262957
 32
0.0
 13
9.3537249407545975
 23
7.5152574110262957
 33
0.0
  0
LINE
  5
10F
100
AcDbEntity
  8
Dimension
370
              -2
390
0
  6
Continuous
 62
               0
100
AcDbLine
 10
13.755296960251243
 20
4.2974961709450525
 30
0.0
 11
15.255293962230745
 21
4.2974961709450525
 31
0.0
  0
WIPEOUT
  5
110
100
AcDbEntity
  8
Dimension
370
              -2
390
0
  6
Continuous
 62
               0
 92
        0
100
AcDbWipeout
 90
        0
 10
14.043506100645132
 20
3.6889580876117209
 30
0.0
 11
4.9741509887907256
 21
0.0
 31
0.0
 12
0.0
 22
4.9741509887907256
 32
0.0
 13
1.0
 23
1.0
340
0
 70
               7
280
               1
281
              50
282
              50
283
               0
360
0
 71
               2
 91
        5
 14
-0.5
 24
0.5
 14
0.5
 24
0.5
 14
0.5
 24
0.2553191483847808
 14
-0.5
 24
0.2553191483847808
 14
-0.5
 24
0.5
  0
MTEXT
  5
111
100
AcDbEntity
  8
Dimension
390
0
 62
               0
100
AcDbMText
 10
14.043506100645132
 20
4.7114592074033874
 30
0.0
 40
0.7579186197916666
 41
0.0
 71
               1
 72
               1
  1
Ø 0.85mm
  7
Helvetica
 73
               1
 44
0.9673603504928806
  0
WIPEOUT
  5
112
100
AcDbEntity
  8
Dimension
370
              -2
390
0
  6
Continuous
 62
               0
 92
        0
100
AcDbWipeout
 90
        0
 10
19.017657089435854
 20
3.1267185042783874
 30
0.0
 11
1.2170794999999996
 21
0.0
 31
0.0
 12
0.0
 22
1.2170794999999996
 32
0.0
 13
1.0
 23
1.0
340
0
 70
               7
280
               1
281
              50
282
              50
283
               0
360
0
 71
               2
 91
        5
 14
-0.5
 24
0.5
 14
-0.2130434700853519
 24
0.5
 14
-0.2130434700853519
 24
-0.5
 14
-0.5
 24
-0.5
 14
-0.5
 24
0.5
  0
MTEXT
  5
113
100
AcDbEntity
  8
Dimension
390
0
 62
               0
100
AcDbMText
 10
19.192281544410982
 20
4.1492196240700538
 30
0.0
 40
0.7579186197916666
 41
0.0
 71
               2
 72
               1
  1
-
  7
Helvetica
 73
               1
 44
0.9673603504928806
  0
WIPEOUT
  5
114
100
AcDbEntity
  8
Dimension
370
              -2
390
0
  6
Continuous
 62
               0
 92
        0
100
AcDbWipeout
 90
        0
 10
19.366905999386113
 20
4.2511943376117207
 30
0.0
 11
2.3706591910786088
 21
0.0
 31
0.0
 12
0.0
 22
2.3706591910786088
 32
0.0
 13
1.0
 23
1.0
340
0
 70
               7
280
               1
281
              50
282
              50
283
               0
360
0
 71
               2
 91
        5
 14
-0.5
 24
0.5
 14
0.5
 24
0.5
 14
0.5
 24
-0.0133928590748844
 14
-0.5
 24
-0.0133928590748844
 14
-0.5
 24
0.5
  0
MTEXT
  5
115
100
AcDbEntity
  8
Dimension
390
0
 62
               0
100
AcDbMText
 10
19.366905999386113
 20
5.2736954574033872
 30
0.0
 40
0.7579186197916666
 41
0.0
 71
               1
 72
               1
  1
0mm
  7
Helvetica
 73
               1
 44
0.9673603504928806
  0
WIPEOUT
  5
116
100
AcDbEntity
  8
Dimension
370
              -2
390
0
  6
Continuous
 62
               0
 92
        0
100
AcDbWipeout
 90
        0
 10
19.366905999386113
 20
3.1267185042783874
 30
0.0
 11
4.4449860042995866
 21
0.0
 31
0.0
 12
0.0
 22
4.4449860042995866
 32
0.0
 13
1.0
 23
1.0
340
0
 70
               7
280
               1
281
              50
282
              50
283
               0
360
0
 71
               2
 91
        5
 14
-0.5
 24
0.5
 14
0.5
 24
0.5
 14
0.5
 24
0.2261904764553293
 14
-0.5
 24
0.2261904764553293
 14
-0.5
 24
0.5
  0
MTEXT
  5
117
100
AcDbEntity
  8
Dimension
390
0
 62
               0
100
AcDbMText
 10
19.366905999386113
 20
4.1492196240700538
 30
0.0
 40
0.7579186197916666
 41
0.0
 71
               1
 72
               1
  1
0.025mm
  7
Helvetica
 73
               1
 44
0.9673603504928806
  0
WIPEOUT
  5
118
100
AcDbEntity
  8
Dimension
370
              -2
390
0
  6
Continuous
 62
               0
 92
        0
100
AcDbWipeout
 90
        0
 10
23.811892003685699
 20
3.6889542542783875
 30
0.0
 11
2.1060832593176109
 21
0.0
 31
0.0
 12
0.0
 22
2.1060832593176109
 32
0.0
 13
1.0
 23
1.0
340
0
 70
               7
280
               1
281
              50
282
              50
283
               0
360
0
 71
               2
 91
        5
 14
-0.5
 24
0.5
 14
0.5
 24
0.5
 14
0.5
 24
-0.0778894675453992
 14
-0.5
 24
-0.0778894675453992
 14
-0.5
 24
0.5
  0
MTEXT
  5
119
100
AcDbEntity
  8
Dimension
390
0
 62
               0
100
AcDbMText
 10
23.811892003685699
 20
4.7114585945561647
 30
0.0
 40
0.7579210069444442
 41
0.0
 71
               1
 72
               1
  1
 (x2)
  7
Helvetica
 73
               1
 44
0.9673603504928806
  0
POINT
  5
11A
100
AcDbEntity
  8
Defpoints
370
               0
390
0
 62
               0
100
AcDbPoint
 10
8.3514709145500916
 20
8.4723299976344393
 30
0.0
  0
POINT
  5
11B
100
AcDbEntity
  8
Defpoints
370
               0
390
0
 62
               0
100
AcDbPoint
 10
9.0241109145500928
 20
7.9526699976344375
 30
0.0
  0
ENDBLK
  5
11C
100
AcDbEntity
  8
Dimension
390
0
100
AcDbBlockEnd
  0
BLOCK
  5
11D
100
AcDbEntity
  8
Dimension
390
0
100
AcDbBlockBegin
  2
*D16
 70
               1
 10
0.0
 20
0.0
 30
0.0
  3
*D16
  1

  0
LINE
  5
11E
100
AcDbEntity
  8
Dimension
370
              -2
390
0
  6
Continuous
 62
               0
100
AcDbLine
 10
-4.5134590866326789
 20
-1.9725000023655603
 30
0.0
 11
-11.415869087815466
 21
-1.9725000023655603
 31
0.0
  0
LINE
  5
11F
100
AcDbEntity
  8
Dimension
370
              -2
390
0
  6
Continuous
 62
               0
100
AcDbLine
 10
-4.5134590866326789
 20
3.107499997634438
 30
0.0
 11
-11.415869087815452
 21
3.107499997634438
 31
0.0
  0
LINE
  5
120
100
AcDbEntity
  8
Dimension
370
              -2
390
0
  6
Continuous
 62
               0
100
AcDbLine
 10
-10.463369085449898
 20
-1.9725000023655603
 30
0.0
 11
-10.463369085449898
 21
3.107499997634438
 31
0.0
  0
SOLID
  5
121
100
AcDbEntity
  8
Dimension
370
              -2
390
0
 62
               0
100
AcDbTrace
 10
-10.463369085449898
 20
-1.9725000023655603
 30
0.0
 11
-10.676053756942101
 21
-1.1787500023655604
 31
0.0
 12
-10.250684413957694
 22
-1.1787500023655604
 32
0.0
 13
-10.250684413957694
 23
-1.1787500023655604
 33
0.0
  0
SOLID
  5
122
100
AcDbEntity
  8
Dimension
370
              -2
390
0
 62
               0
100
AcDbTrace
 10
-10.463369085449898
 20
3.107499997634438
 30
0.0
 11
-10.250684413957694
 21
2.3137499976344378
 31
0.0
 12
-10.676053756942101
 22
2.3137499976344378
 32
0.0
 13
-10.676053756942101
 23
2.3137499976344378
 33
0.0
  0
WIPEOUT
  5
123
100
AcDbEntity
  8
Dimension
370
              -2
390
0
  6
Continuous
 62
               0
 92
        0
100
AcDbWipeout
 90
        0
 10
-12.389529709742064
 20
0.3889676476344224
 30
0.0
 11
3.8523212485843228
 21
0.0
 31
0.0
 12
0.0
 22
3.8523212485843228
 32
0.0
 13
1.0
 23
1.0
340
0
 70
               7
280
               1
281
              50
282
              50
283
               0
360
0
 71
               2
 91
        5
 14
-0.5
 24
0.5
 14
0.5
 24
0.5
 14
0.5
 24
0.1840659380504
 14
-0.5
 24
0.1840659380504
 14
-0.5
 24
0.5
  0
MTEXT
  5
124
100
AcDbEntity
  8
Dimension
390
0
 62
               0
100
AcDbMText
 10
-12.389529709742064
 20
1.4114687674260888
 30
0.0
 40
0.7579186197916666
 41
0.0
 71
               1
 72
               1
  1
5.08mm
  7
Helvetica
 73
               1
 44
0.9673603504928806
  0
POINT
  5
125
100
AcDbEntity
  8
Defpoints
370
               0
390
0
 62
               0
100
AcDbPoint
 10
-4.0372090854499021
 20
3.107499997634438
 30
0.0
  0
POINT
  5
126
100
AcDbEntity
  8
Defpoints
370
               0
390
0
 62
               0
100
AcDbPoint
 10
-4.0372090854499021
 20
-1.9725000023655603
 30
0.0
  0
POINT
  5
127
100
AcDbEntity
  8
Defpoints
370
               0
390
0
 62
               0
100
AcDbPoint
 10
-10.463369085449902
 20
-1.9725000023655603
 30
0.0
  0
ENDBLK
  5
128
100
AcDbEntity
  8
Dimension
390
0
100
AcDbBlockEnd
  0
BLOCK
  5
129
100
AcDbEntity
  8
None
390
0
100
AcDbBlockBegin
  2
Symbol-1
 70
               0
 10
0.0
 20
0.0
 30
0.0
  3
Symbol-1
  1

  0
SOLID
  5
12A
100
AcDbEntity
  8
None
370
               5
390
0
  6
Continuous
 62
               7
100
AcDbTrace
 10
-0.3999999999999936
 20
-0.125
 30
0.0
 11
-0.3999999999999936
 21
0.125
 31
0.0
 12
0.2000000000000064
 22
-0.125
 32
0.0
 13
0.2000000000000064
 23
0.125
 33
0.0
  0
ENDBLK
  5
12B
100
AcDbEntity
  8
None
390
0
100
AcDbBlockEnd
  0
BLOCK
  5
12C
100
AcDbEntity
  8
None
390
0
100
AcDbBlockBegin
  2
Group
 70
               0
 10
0.0
 20
0.0
 30
0.0
  3
Group
  1

  0
INSERT
  5
12D
100
AcDbEntity
  8
None
390
0
 62
               7
100
AcDbBlockReference
  2
Symbol-1
 10
-1.1247090854499078
 20
1.1899999976344393
 30
0.0
  0
INSERT
  5
12E
100
AcDbEntity
  8
None
390
0
 62
               7
100
AcDbBlockReference
  2
Symbol-1
 10
-1.1247090854499078
 20
1.5899999976344379
 30
0.0
  0
INSERT
  5
12F
100
AcDbEntity
  8
None
390
0
 62
               7
100
AcDbBlockReference
  2
Symbol-1
 10
-1.1247090854499078
 20
1.98999999763444
 30
0.0
  0
INSERT
  5
130
100
AcDbEntity
  8
None
390
0
 62
               7
100
AcDbBlockReference
  2
Symbol-1
 10
-1.1247090854499078
 20
2.3899999976344386
 30
0.0
  0
INSERT
  5
131
100
AcDbEntity
  8
None
390
0
 62
               7
100
AcDbBlockReference
  2
Symbol-1
 10
-1.1247090854499078
 20
2.7899999976344407
 30
0.0
  0
INSERT
  5
132
100
AcDbEntity
  8
None
390
0
 62
               7
100
AcDbBlockReference
  2
Symbol-1
 10
-1.1247090854499078
 20
3.1899999976344393
 30
0.0
  0
INSERT
  5
133
100
AcDbEntity
  8
None
390
0
 62
               7
100
AcDbBlockReference
  2
Symbol-1
 10
-1.1247090854499078
 20
3.5899999976344379
 30
0.0
  0
INSERT
  5
134
100
AcDbEntity
  8
None
390
0
 62
               7
100
AcDbBlockReference
  2
Symbol-1
 10
-1.1247090854499078
 20
3.98999999763444
 30
0.0
  0
INSERT
  5
135
100
AcDbEntity
  8
None
390
0
 62
               7
100
AcDbBlockReference
  2
Symbol-1
 10
-1.1247090854499078
 20
4.3899999976344386
 30
0.0
  0
INSERT
  5
136
100
AcDbEntity
  8
None
390
0
 62
               7
100
AcDbBlockReference
  2
Symbol-1
 10
-1.1247090854499078
 20
4.7899999976344407
 30
0.0
  0
INSERT
  5
137
100
AcDbEntity
  8
None
390
0
 62
               7
100
AcDbBlockReference
  2
Symbol-1
 10
-1.1247090854499078
 20
5.1899999976344393
 30
0.0
  0
INSERT
  5
138
100
AcDbEntity
  8
None
390
0
 62
               7
100
AcDbBlockReference
  2
Symbol-1
 10
-1.1247090854499078
 20
5.5899999976344379
 30
0.0
  0
INSERT
  5
139
100
AcDbEntity
  8
None
390
0
 62
               7
100
AcDbBlockReference
  2
Symbol-1
 10
-1.1247090854499078
 20
5.98999999763444
 30
0.0
  0
INSERT
  5
13A
100
AcDbEntity
  8
None
390
0
 62
               7
100
AcDbBlockReference
  2
Symbol-1
 10
-1.1247090854499078
 20
6.3899999976344404
 30
0.0
  0
INSERT
  5
13B
100
AcDbEntity
  8
None
390
0
 62
               7
100
AcDbBlockReference
  2
Symbol-1
 10
-1.1247090854499078
 20
6.789999997634439
 30
0.0
  0
INSERT
  5
13C
100
AcDbEntity
  8
None
390
0
 62
               7
100
AcDbBlockReference
  2
Symbol-1
 10
-1.1247090854499078
 20
7.1899999976344375
 30
0.0
  0
INSERT
  5
13D
100
AcDbEntity
  8
None
390
0
 62
               7
100
AcDbBlockReference
  2
Symbol-1
 10
-1.1247090854499078
 20
7.5899999976344432
 30
0.0
  0
ENDBLK
  5
13E
100
AcDbEntity
  8
None
390
0
100
AcDbBlockEnd
  0
BLOCK
  5
13F
100
AcDbEntity
  8
None
390
0
100
AcDbBlockBegin
  2
Group-1
 70
               0
 10
0.0
 20
0.0
 30
0.0
  3
Group-1
  1

  0
INSERT
  5
140
100
AcDbEntity
  8
None
390
0
 62
               7
100
AcDbBlockReference
  2
Symbol-1
 10
6.4752909145500865
 20
1.1899999976344393
 30
0.0
  0
INSERT
  5
141
100
AcDbEntity
  8
None
390
0
 62
               7
100
AcDbBlockReference
  2
Symbol-1
 10
6.4752909145500865
 20
1.5899999976344379
 30
0.0
  0
INSERT
  5
142
100
AcDbEntity
  8
None
390
0
 62
               7
100
AcDbBlockReference
  2
Symbol-1
 10
6.4752909145500865
 20
1.98999999763444
 30
0.0
  0
INSERT
  5
143
100
AcDbEntity
  8
None
390
0
 62
               7
100
AcDbBlockReference
  2
Symbol-1
 10
6.4752909145500865
 20
2.3899999976344386
 30
0.0
  0
INSERT
  5
144
100
AcDbEntity
  8
None
390
0
 62
               7
100
AcDbBlockReference
  2
Symbol-1
 10
6.4752909145500865
 20
2.7899999976344407
 30
0.0
  0
INSERT
  5
145
100
AcDbEntity
  8
None
390
0
 62
               7
100
AcDbBlockReference
  2
Symbol-1
 10
6.4752909145500865
 20
3.1899999976344393
 30
0.0
  0
INSERT
  5
146
100
AcDbEntity
  8
None
390
0
 62
               7
100
AcDbBlockReference
  2
Symbol-1
 10
6.4752909145500865
 20
3.5899999976344379
 30
0.0
  0
INSERT
  5
147
100
AcDbEntity
  8
None
390
0
 62
               7
100
AcDbBlockReference
  2
Symbol-1
 10
6.4752909145500865
 20
3.98999999763444
 30
0.0
  0
INSERT
  5
148
100
AcDbEntity
  8
None
390
0
 62
               7
100
AcDbBlockReference
  2
Symbol-1
 10
6.4752909145500865
 20
4.3899999976344386
 30
0.0
  0
INSERT
  5
149
100
AcDbEntity
  8
None
390
0
 62
               7
100
AcDbBlockReference
  2
Symbol-1
 10
6.4752909145500865
 20
4.7899999976344407
 30
0.0
  0
INSERT
  5
14A
100
AcDbEntity
  8
None
390
0
 62
               7
100
AcDbBlockReference
  2
Symbol-1
 10
6.4752909145500865
 20
5.1899999976344393
 30
0.0
  0
INSERT
  5
14B
100
AcDbEntity
  8
None
390
0
 62
               7
100
AcDbBlockReference
  2
Symbol-1
 10
6.4752909145500865
 20
5.5899999976344379
 30
0.0
  0
INSERT
  5
14C
100
AcDbEntity
  8
None
390
0
 62
               7
100
AcDbBlockReference
  2
Symbol-1
 10
6.4752909145500865
 20
5.98999999763444
 30
0.0
  0
INSERT
  5
14D
100
AcDbEntity
  8
None
390
0
 62
               7
100
AcDbBlockReference
  2
Symbol-1
 10
6.4752909145500865
 20
6.3899999976344404
 30
0.0
  0
INSERT
  5
14E
100
AcDbEntity
  8
None
390
0
 62
               7
100
AcDbBlockReference
  2
Symbol-1
 10
6.4752909145500865
 20
6.789999997634439
 30
0.0
  0
INSERT
  5
14F
100
AcDbEntity
  8
None
390
0
 62
               7
100
AcDbBlockReference
  2
Symbol-1
 10
6.4752909145500865
 20
7.1899999976344375
 30
0.0
  0
INSERT
  5
150
100
AcDbEntity
  8
None
390
0
 62
               7
100
AcDbBlockReference
  2
Symbol-1
 10
6.4752909145500865
 20
7.5899999976344432
 30
0.0
  0
ENDBLK
  5
151
100
AcDbEntity
  8
None
390
0
100
AcDbBlockEnd
  0
BLOCK
  5
152
100
AcDbEntity
  8
None
390
0
100
AcDbBlockBegin
  2
Group-2
 70
               0
 10
0.0
 20
0.0
 30
0.0
  3
Group-2
  1

  0
INSERT
  5
153
100
AcDbEntity
  8
None
390
0
 62
               7
100
AcDbBlockReference
  2
Symbol-1
 10
5.7752909145500979
 20
0.6899999976344322
 30
0.0
 50
90.0
  0
INSERT
  5
154
100
AcDbEntity
  8
None
390
0
 62
               7
100
AcDbBlockReference
  2
Symbol-1
 10
5.3752909145500922
 20
0.6899999976344322
 30
0.0
 50
90.0
  0
INSERT
  5
155
100
AcDbEntity
  8
None
390
0
 62
               7
100
AcDbBlockReference
  2
Symbol-1
 10
4.9752909145501008
 20
0.6899999976344322
 30
0.0
 50
90.0
  0
INSERT
  5
156
100
AcDbEntity
  8
None
390
0
 62
               7
100
AcDbBlockReference
  2
Symbol-1
 10
4.5752909145500951
 20
0.6899999976344322
 30
0.0
 50
90.0
  0
INSERT
  5
157
100
AcDbEntity
  8
None
390
0
 62
               7
100
AcDbBlockReference
  2
Symbol-1
 10
4.1752909145501036
 20
0.6899999976344322
 30
0.0
 50
90.0
  0
INSERT
  5
158
100
AcDbEntity
  8
None
390
0
 62
               7
100
AcDbBlockReference
  2
Symbol-1
 10
3.7752909145500979
 20
0.6899999976344322
 30
0.0
 50
90.0
  0
INSERT
  5
159
100
AcDbEntity
  8
None
390
0
 62
               7
100
AcDbBlockReference
  2
Symbol-1
 10
3.3752909145500922
 20
0.6899999976344322
 30
0.0
 50
90.0
  0
INSERT
  5
15A
100
AcDbEntity
  8
None
390
0
 62
               7
100
AcDbBlockReference
  2
Symbol-1
 10
2.9752909145501008
 20
0.6899999976344322
 30
0.0
 50
90.0
  0
INSERT
  5
15B
100
AcDbEntity
  8
None
390
0
 62
               7
100
AcDbBlockReference
  2
Symbol-1
 10
2.5752909145500951
 20
0.6899999976344322
 30
0.0
 50
90.0
  0
INSERT
  5
15C
100
AcDbEntity
  8
None
390
0
 62
               7
100
AcDbBlockReference
  2
Symbol-1
 10
2.1752909145501036
 20
0.6899999976344322
 30
0.0
 50
90.0
  0
INSERT
  5
15D
100
AcDbEntity
  8
None
390
0
 62
               7
100
AcDbBlockReference
  2
Symbol-1
 10
1.7752909145500979
 20
0.6899999976344322
 30
0.0
 50
90.0
  0
INSERT
  5
15E
100
AcDbEntity
  8
None
390
0
 62
               7
100
AcDbBlockReference
  2
Symbol-1
 10
1.3752909145500922
 20
0.6899999976344322
 30
0.0
 50
90.0
  0
INSERT
  5
15F
100
AcDbEntity
  8
None
390
0
 62
               7
100
AcDbBlockReference
  2
Symbol-1
 10
0.9752909145501008
 20
0.6899999976344322
 30
0.0
 50
90.0
  0
INSERT
  5
160
100
AcDbEntity
  8
None
390
0
 62
               7
100
AcDbBlockReference
  2
Symbol-1
 10
0.5752909145500951
 20
0.6899999976344322
 30
0.0
 50
90.0
  0
INSERT
  5
161
100
AcDbEntity
  8
None
390
0
 62
               7
100
AcDbBlockReference
  2
Symbol-1
 10
0.1752909145501036
 20
0.6899999976344322
 30
0.0
 50
90.0
  0
INSERT
  5
162
100
AcDbEntity
  8
None
390
0
 62
               7
100
AcDbBlockReference
  2
Symbol-1
 10
-0.2247090854499021
 20
0.6899999976344322
 30
0.0
 50
90.0
  0
INSERT
  5
163
100
AcDbEntity
  8
None
390
0
 62
               7
100
AcDbBlockReference
  2
Symbol-1
 10
-0.6247090854499078
 20
0.6899999976344322
 30
0.0
 50
90.0
  0
ENDBLK
  5
164
100
AcDbEntity
  8
None
390
0
100
AcDbBlockEnd
  0
BLOCK
  5
165
100
AcDbEntity
  8
None
390
0
100
AcDbBlockBegin
  2
Group-3
 70
               0
 10
0.0
 20
0.0
 30
0.0
  3
Group-3
  1

  0
INSERT
  5
166
100
AcDbEntity
  8
None
390
0
 62
               7
100
AcDbBlockReference
  2
Symbol-1
 10
5.7752909145500979
 20
8.2899999976344318
 30
0.0
 50
90.0
  0
INSERT
  5
167
100
AcDbEntity
  8
None
390
0
 62
               7
100
AcDbBlockReference
  2
Symbol-1
 10
5.3752909145500922
 20
8.2899999976344318
 30
0.0
 50
90.0
  0
INSERT
  5
168
100
AcDbEntity
  8
None
390
0
 62
               7
100
AcDbBlockReference
  2
Symbol-1
 10
4.9752909145500865
 20
8.2899999976344318
 30
0.0
 50
90.0
  0
INSERT
  5
169
100
AcDbEntity
  8
None
390
0
 62
               7
100
AcDbBlockReference
  2
Symbol-1
 10
4.5752909145500951
 20
8.2899999976344318
 30
0.0
 50
90.0
  0
INSERT
  5
16A
100
AcDbEntity
  8
None
390
0
 62
               7
100
AcDbBlockReference
  2
Symbol-1
 10
4.1752909145501036
 20
8.2899999976344318
 30
0.0
 50
90.0
  0
INSERT
  5
16B
100
AcDbEntity
  8
None
390
0
 62
               7
100
AcDbBlockReference
  2
Symbol-1
 10
3.7752909145500979
 20
8.2899999976344318
 30
0.0
 50
90.0
  0
INSERT
  5
16C
100
AcDbEntity
  8
None
390
0
 62
               7
100
AcDbBlockReference
  2
Symbol-1
 10
3.3752909145500922
 20
8.2899999976344318
 30
0.0
 50
90.0
  0
INSERT
  5
16D
100
AcDbEntity
  8
None
390
0
 62
               7
100
AcDbBlockReference
  2
Symbol-1
 10
2.9752909145500865
 20
8.2899999976344318
 30
0.0
 50
90.0
  0
INSERT
  5
16E
100
AcDbEntity
  8
None
390
0
 62
               7
100
AcDbBlockReference
  2
Symbol-1
 10
2.5752909145500951
 20
8.2899999976344318
 30
0.0
 50
90.0
  0
INSERT
  5
16F
100
AcDbEntity
  8
None
390
0
 62
               7
100
AcDbBlockReference
  2
Symbol-1
 10
2.1752909145501036
 20
8.2899999976344318
 30
0.0
 50
90.0
  0
INSERT
  5
170
100
AcDbEntity
  8
None
390
0
 62
               7
100
AcDbBlockReference
  2
Symbol-1
 10
1.7752909145500979
 20
8.2899999976344318
 30
0.0
 50
90.0
  0
INSERT
  5
171
100
AcDbEntity
  8
None
390
0
 62
               7
100
AcDbBlockReference
  2
Symbol-1
 10
1.3752909145500922
 20
8.2899999976344318
 30
0.0
 50
90.0
  0
INSERT
  5
172
100
AcDbEntity
  8
None
390
0
 62
               7
100
AcDbBlockReference
  2
Symbol-1
 10
0.9752909145500865
 20
8.2899999976344318
 30
0.0
 50
90.0
  0
INSERT
  5
173
100
AcDbEntity
  8
None
390
0
 62
               7
100
AcDbBlockReference
  2
Symbol-1
 10
0.5752909145500951
 20
8.2899999976344318
 30
0.0
 50
90.0
  0
INSERT
  5
174
100
AcDbEntity
  8
None
390
0
 62
               7
100
AcDbBlockReference
  2
Symbol-1
 10
0.1752909145501036
 20
8.2899999976344318
 30
0.0
 50
90.0
  0
INSERT
  5
175
100
AcDbEntity
  8
None
390
0
 62
               7
100
AcDbBlockReference
  2
Symbol-1
 10
-0.2247090854499021
 20
8.2899999976344318
 30
0.0
 50
90.0
  0
INSERT
  5
176
100
AcDbEntity
  8
None
390
0
 62
               7
100
AcDbBlockReference
  2
Symbol-1
 10
-0.6247090854499078
 20
8.2899999976344318
 30
0.0
 50
90.0
  0
ENDBLK
  5
177
100
AcDbEntity
  8
None
390
0
100
AcDbBlockEnd
  0
BLOCK
  5
178
100
AcDbEntity
  8
None
390
0
100
AcDbBlockBegin
  2
Group-4
 70
               0
 10
0.0
 20
0.0
 30
0.0
  3
Group-4
  1

  0
INSERT
  5
179
100
AcDbEntity
  8
None
390
0
 62
               7
100
AcDbBlockReference
  2
Group
 10
0.0
 20
0.0
 30
0.0
  0
INSERT
  5
17A
100
AcDbEntity
  8
None
390
0
 62
               7
100
AcDbBlockReference
  2
Group-1
 10
0.0
 20
0.0
 30
0.0
  0
INSERT
  5
17B
100
AcDbEntity
  8
None
390
0
 62
               7
100
AcDbBlockReference
  2
Group-2
 10
0.0
 20
0.0
 30
0.0
  0
INSERT
  5
17C
100
AcDbEntity
  8
None
390
0
 62
               7
100
AcDbBlockReference
  2
Group-3
 10
0.0
 20
0.0
 30
0.0
  0
POLYLINE
  5
17D
102
{ACAD_REACTORS
330
183
102
}
100
AcDbEntity
  8
None
370
               5
390
0
  6
Continuous
 62
               7
100
AcDb2dPolyline
 66
               1
 10
0.0
 20
0.0
 30
0.0
 70
               1
 75
               5
  0
VERTEX
  5
17E
100
AcDbEntity
  8
None
370
               5
390
0
  6
Continuous
 62
               7
100
AcDbVertex
100
AcDb2dVertex
 10
-0.6247090854499078
 20
7.5899999976344361
 30
0.0
  0
VERTEX
  5
17F
100
AcDbEntity
  8
None
370
               5
390
0
  6
Continuous
 62
               7
100
AcDbVertex
100
AcDb2dVertex
 10
5.7752909145500979
 20
7.5899999976344361
 30
0.0
  0
VERTEX
  5
180
100
AcDbEntity
  8
None
370
               5
390
0
  6
Continuous
 62
               7
100
AcDbVertex
100
AcDb2dVertex
 10
5.7752909145500979
 20
1.1899999976344358
 30
0.0
  0
VERTEX
  5
181
100
AcDbEntity
  8
None
370
               5
390
0
  6
Continuous
 62
               7
100
AcDbVertex
100
AcDb2dVertex
 10
-0.6247090854499078
 20
1.1899999976344358
 30
0.0
  0
SEQEND
  5
182
100
AcDbEntity
  8
None
370
               5
390
0
  6
Continuous
 62
               7
  0
HATCH
  5
183
100
AcDbEntity
  8
None
370
               0
390
0
  6
Continuous
 62
             253
100
AcDbHatch
 10
0.0
 20
0.0
 30
0.0
210
0.0
220
0.0
230
1.0
  2
SOLID
 70
               1
 71
               1
 91
        1
 92
        1
 93
        4
 72
               1
 10
-0.6247090854499078
 20
7.5899999976344361
 11
5.7752909145500979
 21
7.5899999976344361
 72
               1
 10
5.7752909145500979
 20
7.5899999976344361
 11
5.7752909145500979
 21
1.1899999976344358
 72
               1
 10
5.7752909145500979
 20
1.1899999976344358
 11
-0.6247090854499078
 21
1.1899999976344358
 72
               1
 10
-0.6247090854499078
 20
1.1899999976344358
 11
-0.6247090854499078
 21
7.5899999976344361
 97
        1
330
17D
 75
               0
 76
               1
 98
        1
 10
0.0
 20
0.0
  0
ENDBLK
  5
184
100
AcDbEntity
  8
None
390
0
100
AcDbBlockEnd
  0
BLOCK
  5
185
100
AcDbEntity
  8
Dimension
390
0
100
AcDbBlockBegin
  2
Group-5
 70
               0
 10
0.0
 20
0.0
 30
0.0
  3
Group-5
  1

  0
LINE
  5
186
100
AcDbEntity
  8
None
370
               5
390
0
  6
Continuous
 62
               1
100
AcDbLine
 10
1.7002909145500951
 20
4.3899999976344386
 30
0.0
 11
2.9502909145500951
 21
4.3899999976344386
 31
0.0
  0
LINE
  5
187
100
AcDbEntity
  8
None
370
               5
390
0
  6
Continuous
 62
               1
100
AcDbLine
 10
2.3252909145500951
 20
3.7649999976344386
 30
0.0
 11
2.3252909145500951
 21
5.0149999976344386
 31
0.0
  0
LINE
  5
188
100
AcDbEntity
  8
None
370
               5
390
0
  6
Continuous
 62
               1
100
AcDbLine
 10
-6.0372090854499021
 20
4.3899999976344386
 30
0.0
 11
1.2002909145500951
 21
4.3899999976344386
 31
0.0
  0
LINE
  5
189
100
AcDbEntity
  8
None
370
               5
390
0
  6
Continuous
 62
               1
100
AcDbLine
 10
3.4502909145500951
 20
4.3899999976344386
 30
0.0
 11
10.687790914550092
 21
4.3899999976344386
 31
0.0
  0
LINE
  5
18A
100
AcDbEntity
  8
None
370
               5
390
0
  6
Continuous
 62
               1
100
AcDbLine
 10
2.3252909145500951
 20
12.752499997634438
 30
0.0
 11
2.3252909145500951
 21
5.5149999976344386
 31
0.0
  0
LINE
  5
18B
100
AcDbEntity
  8
None
370
               5
390
0
  6
Continuous
 62
               1
100
AcDbLine
 10
2.3252909145500951
 20
3.2649999976344386
 30
0.0
 11
2.3252909145500951
 21
-3.9725000023655603
 31
0.0
  0
ENDBLK
  5
18C
100
AcDbEntity
  8
Dimension
390
0
100
AcDbBlockEnd
  0
ENDSEC
  0
SECTION
  2
ENTITIES
  0
WIPEOUT
  5
18D
100
AcDbEntity
  8
None
370
               9
390
0
  6
STYLE_11
 62
               7
 92
        0
100
AcDbWipeout
 90
        0
 10
-5.2872090854499021
 20
-3.2225000023655586
 30
0.0
 11
15.224999999999996
 21
0.0
 31
0.0
 12
0.0
 22
15.224999999999996
 32
0.0
 13
1.0
 23
1.0
340
0
 70
               7
280
               1
281
              50
282
              50
283
               0
360
0
 71
               2
 91
        5
 14
-0.5
 24
-0.5
 14
0.4999999999999999
 24
-0.5
 14
0.4999999999999999
 24
0.5
 14
-0.5
 24
0.5
 14
-0.5
 24
-0.5
  0
POLYLINE
  5
18E
100
AcDbEntity
  8
None
370
               9
390
0
  6
STYLE_11
 62
               7
100
AcDb2dPolyline
 66
               1
 10
0.0
 20
0.0
 30
0.0
 70
               1
 75
               5
  0
VERTEX
  5
18F
100
AcDbEntity
  8
None
370
               9
390
0
  6
STYLE_11
 62
               7
100
AcDbVertex
100
AcDb2dVertex
 10
-5.2872090854499021
 20
12.002499997634438
 30
0.0
  0
VERTEX
  5
190
100
AcDbEntity
  8
None
370
               9
390
0
  6
STYLE_11
 62
               7
100
AcDbVertex
100
AcDb2dVertex
 10
9.9377909145500922
 20
12.002499997634438
 30
0.0
  0
VERTEX
  5
191
100
AcDbEntity
  8
None
370
               9
390
0
  6
STYLE_11
 62
               7
100
AcDbVertex
100
AcDb2dVertex
 10
9.9377909145500922
 20
-3.2225000023655586
 30
0.0
  0
VERTEX
  5
192
100
AcDbEntity
  8
None
370
               9
390
0
  6
STYLE_11
 62
               7
100
AcDbVertex
100
AcDb2dVertex
 10
-5.2872090854499021
 20
-3.2225000023655586
 30
0.0
  0
SEQEND
  5
193
100
AcDbEntity
  8
None
370
               9
390
0
  6
STYLE_11
 62
               7
  0
CIRCLE
  5
194
100
AcDbEntity
  8
None
370
               9
390
0
  6
Continuous
 62
               7
100
AcDbCircle
 10
-4.0372090854499021
 20
10.752499997634438
 30
0.0
 40
0.8049999999999926
  0
CIRCLE
  5
195
100
AcDbEntity
  8
None
370
               9
390
0
  6
Continuous
 62
               7
100
AcDbCircle
 10
8.6877909145500922
 20
8.2124999976344384
 30
0.0
 40
0.4250000000000007
  0
CIRCLE
  5
196
100
AcDbEntity
  8
None
370
               9
390
0
  6
Continuous
 62
               7
100
AcDbCircle
 10
8.6877909145500922
 20
10.752499997634438
 30
0.0
 40
0.8049999999999926
  0
CIRCLE
  5
197
100
AcDbEntity
  8
None
370
               9
390
0
  6
Continuous
 62
               7
100
AcDbCircle
 10
8.6877909145500922
 20
-1.9725000023655603
 30
0.0
 40
0.8049999999999926
  0
CIRCLE
  5
198
100
AcDbEntity
  8
None
370
               9
390
0
  6
Continuous
 62
               7
100
AcDbCircle
 10
-4.0372090854499021
 20
3.107499997634438
 30
0.0
 40
0.4249999999999989
  0
CIRCLE
  5
199
100
AcDbEntity
  8
None
370
               9
390
0
  6
Continuous
 62
               7
100
AcDbCircle
 10
-4.0372090854499021
 20
-1.9725000023655603
 30
0.0
 40
0.8049999999999926
  0
CIRCLE
  5
19A
102
{ACAD_REACTORS
330
19B
102
}
100
AcDbEntity
  8
None
370
               5
390
0
  6
Continuous
 62
               7
100
AcDbCircle
 10
-1.9122090854499021
 20
10.32749999763444
 30
0.0
 40
0.2124399999999973
  0
HATCH
  5
19B
100
AcDbEntity
  8
None
370
               0
390
0
  6
Continuous
 62
               7
100
AcDbHatch
 10
0.0
 20
0.0
 30
0.0
210
0.0
220
0.0
230
1.0
  2
SOLID
 70
               1
 71
               1
 91
        1
 92
        1
 93
        1
 72
               2
 10
-1.9122090854499021
 20
10.32749999763444
 40
0.2124399999999973
 50
0.0
 51
360.0
 73
               0
 97
        1
330
19A
 75
               0
 76
               1
 98
        1
 10
0.0
 20
0.0
  0
DIMENSION
  5
19C
100
AcDbEntity
  8
Dimension
370
               5
390
0
  6
Continuous
 62
               1
100
AcDbDimension
  2
*D3
 10
-19.941057580047168
 20
12.002499997634438
 30
0.0
 11
-19.941057580047168
 21
5.4889663395094237
 31
0.0
 70
             128
 71
               5
 72
               1
 41
1.0
 42
0.0
  3
IE Standard
100
AcDbAlignedDimension
 13
-5.2872090854499021
 23
-3.2225000023655603
 33
0.0
 14
-5.2872090854499021
 24
12.002499997634438
 34
0.0
 50
90.0
100
AcDbRotatedDimension
1001
ACAD
1000
DSTYLE
1002
{
1070
             271
1070
               3
1070
             340
1005
39
1070
              71
1070
               1
1070
              47
1040
0.125
1070
              48
1040
0.125
1070
               3
1000
<>mm sqr.
1070
             147
1040
0.09921875
1002
}
  0
WIPEOUT
  5
19D
100
AcDbEntity
  8
None
370
               5
390
0
  6
Continuous
 62
               1
 92
        0
100
AcDbWipeout
 90
        0
 10
-22.572533735503384
 20
3.753522958560632
 30
0.0
 11
5.4186498002462429
 21
0.0
 31
0.0
 12
0.0
 22
5.4186498002462429
 32
0.0
 13
1.0
 23
1.0
340
0
 70
               7
280
               1
281
              50
282
              50
283
               0
360
0
 71
               2
 91
        5
 14
-0.5
 24
0.4999999999999999
 14
0.4999999999999993
 24
0.4999999999999999
 14
0.4999999999999993
 24
0.275390633300441
 14
-0.5
 24
0.275390633300441
 14
-0.5
 24
0.4999999999999999
  0
MTEXT
  5
19E
100
AcDbEntity
  8
None
390
0
 62
               1
100
AcDbMText
 10
-22.572533735503384
 20
4.7760240783522994
 30
0.0
 40
0.7579186197916666
 41
0.0
 71
               1
 72
               1
  1
{\C192;\lSocket size}
  7
New Century Schlbk
 73
               1
 44
0.9673603504928806
  0
WIPEOUT
  5
19F
100
AcDbEntity
  8
None
370
               5
390
0
  6
Continuous
 62
               1
 92
        0
100
AcDbWipeout
 90
        0
 10
-23.090319085449906
 20
20.464980497634439
 30
0.0
 11
7.8422253988126727
 21
0.0
 31
0.0
 12
0.0
 22
7.8422253988126727
 32
0.0
 13
1.0
 23
1.0
340
0
 70
               7
280
               1
281
              50
282
              50
283
               0
360
0
 71
               2
 91
        5
 14
-0.5
 24
0.5
 14
0.5000000000000004
 24
0.5
 14
0.5000000000000004
 24
0.3448043204440071
 14
-0.5
 24
0.3448043204440071
 14
-0.5
 24
0.5
  0
MTEXT
  5
1A0
100
AcDbEntity
  8
None
390
0
 62
               1
100
AcDbMText
 10
-23.090319085449906
 20
21.487481617426106
 30
0.0
 40
0.7579186197916666
 41
0.0
 71
               1
 72
               1
  1
{\C192;\lOrientation Mark}
  7
New Century Schlbk
 73
               1
 44
0.9673603504928806
  0
WIPEOUT
  5
1A1
100
AcDbEntity
  8
None
370
               5
390
0
  6
Continuous
 62
               1
 92
        0
100
AcDbWipeout
 90
        0
 10
16.138670914550097
 20
-6.5553495023655604
 30
0.0
 11
12.117878889991566
 21
0.0
 31
0.0
 12
0.0
 22
12.117878889991566
 32
0.0
 13
1.0
 23
1.0
340
0
 70
               7
280
               1
281
              50
282
              50
283
               0
360
0
 71
               2
 91
        5
 14
-0.5
 24
0.5
 14
0.5000000000000002
 24
0.5
 14
0.5000000000000002
 24
0.3995633220096618
 14
-0.5
 24
0.3995633220096618
 14
-0.5
 24
0.5
  0
MTEXT
  5
1A2
100
AcDbEntity
  8
None
390
0
 62
               1
100
AcDbMText
 10
16.138670914550097
 20
-5.5328483825738939
 30
0.0
 40
0.7579186197916666
 41
0.0
 71
               1
 72
               1
  1
{\C192;\lNon plated mounting hole}
  7
Arial
 73
               1
 44
0.9673603504928806
  0
WIPEOUT
  5
1A3
100
AcDbEntity
  8
None
370
               5
390
0
  6
Continuous
 62
               1
 92
        0
100
AcDbWipeout
 90
        0
 10
14.574720914550099
 20
1.9928404976344378
 30
0.0
 11
12.350711488082318
 21
0.0
 31
0.0
 12
0.0
 22
12.350711488082318
 32
0.0
 13
1.0
 23
1.0
340
0
 70
               7
280
               1
281
              50
282
              50
283
               0
360
0
 71
               2
 91
        5
 14
-0.5
 24
0.4999999999999999
 14
0.5
 24
0.4999999999999999
 14
0.5
 24
0.4014567297459415
 14
-0.5
 24
0.4014567297459415
 14
-0.5
 24
0.4999999999999999
  0
MTEXT
  5
1A4
100
AcDbEntity
  8
None
390
0
 62
               1
100
AcDbMText
 10
14.574720914550099
 20
3.0153416174261052
 30
0.0
 40
0.7579186197916666
 41
0.0
 71
               1
 72
               1
  1
{\C192;\lNon plated alignment hole}
  7
Arial
 73
               1
 44
0.9673603504928806
  0
DIMENSION
  5
1A5
100
AcDbEntity
  8
Dimension
370
               5
390
0
  6
Continuous
 62
               5
100
AcDbDimension
  2
*D4
 10
-4.0372090854499021
 20
19.197507397634418
 30
0.0
 11
1.8802893145501054
 21
19.197507397634418
 31
0.0
 70
             128
 71
               5
 72
               1
 41
1.0
 42
0.0
  3
IE Standard
100
AcDbAlignedDimension
 13
-0.7497090854499078
 23
8.4899999976344382
 33
0.0
 14
-4.0372090854499021
 24
10.752499997634438
 34
0.0
100
AcDbRotatedDimension
1001
ACAD
1000
DSTYLE
1002
{
1070
             271
1070
               4
1070
             340
1005
39
1070
               3
1000
<>mm*
1070
             174
1070
               0
1070
             147
1040
0.09921875
1002
}
  0
DIMENSION
  5
1A6
100
AcDbEntity
  8
Dimension
370
               5
390
0
  6
Continuous
 62
               1
100
AcDbDimension
  2
*D5
 10
-8.8265090854498993
 20
8.4899999976344382
 30
0.0
 11
-8.8265090854498993
 21
9.6444333605612531
 31
0.0
 70
             128
 71
               5
 72
               1
 41
1.0
 42
0.0
  3
IE Standard
100
AcDbAlignedDimension
 13
-4.0372090854499021
 23
10.752499997634438
 33
0.0
 14
-0.7497090854499078
 24
8.4899999976344382
 34
0.0
 50
90.0
100
AcDbRotatedDimension
1001
ACAD
1000
DSTYLE
1002
{
1070
             271
1070
               4
1070
             340
1005
39
1070
             147
1040
0.09921875
1002
}
  0
DIMENSION
  5
1A7
100
AcDbEntity
  8
Dimension
370
               5
390
0
  6
Continuous
 62
               1
100
AcDbDimension
  2
*D6
 10
4.1752909145501036
 20
15.147499997634441
 30
0.0
 11
6.8852893145501044
 21
15.147499997634441
 31
0.0
 70
             128
 71
               5
 72
               1
 41
1.0
 42
0.0
  3
IE Standard
100
AcDbAlignedDimension
 13
4.5752909145500951
 23
8.4899999976344418
 33
0.0
 14
4.1752909145501036
 24
8.4899999976344418
 34
0.0
100
AcDbRotatedDimension
1001
ACAD
1000
DSTYLE
1002
{
1070
             271
1070
               2
1070
             340
1005
39
1070
             174
1070
               0
1070
             147
1040
0.09921875
1002
}
  0
DIMENSION
  5
1A8
100
AcDbEntity
  8
Dimension
370
               5
390
0
  6
Continuous
 62
               1
100
AcDbDimension
  2
*D7
 10
13.884680914550092
 20
8.2124999976344384
 30
0.0
 11
13.884680914550092
 21
9.482499997634438
 31
0.0
 70
             128
 71
               5
 72
               1
 41
1.0
 42
0.0
  3
IE Standard
100
AcDbAlignedDimension
 13
8.6877909145500922
 23
10.752499997634438
 33
0.0
 14
8.6877909145500922
 24
8.2124999976344384
 34
0.0
 50
90.0
100
AcDbRotatedDimension
1001
ACAD
1000
DSTYLE
1002
{
1070
             271
1070
               2
1070
             340
1005
39
1070
             147
1040
0.09921875
1002
}
  0
DIMENSION
  5
1A9
100
AcDbEntity
  8
Dimension
370
               5
390
0
  6
Continuous
 62
               1
100
AcDbDimension
  2
*D8
 10
-4.0372090854499021
 20
-12.702500002365559
 30
0.0
 11
2.3052916011956031
 21
-12.702500002365559
 31
0.0
 70
             128
 71
               5
 72
               1
 41
1.0
 42
0.0
  3
IE Standard
100
AcDbAlignedDimension
 13
8.6877909145500922
 23
-1.9725000023655603
 33
0.0
 14
-4.0372090854499021
 24
-1.9725000023655603
 34
0.0
100
AcDbRotatedDimension
1001
ACAD
1000
DSTYLE
1002
{
1070
             271
1070
               3
1070
             340
1005
39
1070
              71
1070
               1
1070
              47
1040
0.125
1070
              48
1040
0.125
1070
               3
1000
<>mm (x4)
1070
             147
1040
0.09921875
1002
}
  0
DIMENSION
  5
1AA
100
AcDbEntity
  8
Dimension
370
               5
390
0
  6
Continuous
 62
               1
100
AcDbDimension
  2
*D9
 10
5.5624123650606094
 20
2.5950329149813509
 30
0.0
 11
13.817874527327911
 21
0.5827666970232821
 31
0.0
 70
               3
 71
               5
 72
               1
 41
1.0
 42
0.0
  1
0.6mm x 0.25mm 
  3
IE Standard
100
AcDbDiametricDimension
 15
6.5024123650606072
 25
2.3150329149813516
 35
0.0
 40
6.0679799999999995
1001
ACAD
1000
DSTYLE
1002
{
1070
             271
1070
               4
1070
             172
1070
               0
1070
             289
1070
               0
1070
             342
1005
4F
1070
             340
1005
39
1070
              75
1070
               1
1070
              76
1070
               1
1070
             174
1070
               0
1070
             147
1040
0.09921875
1002
}
  0
DIMENSION
  5
1AB
100
AcDbEntity
  8
Dimension
370
               5
390
0
  6
Continuous
 62
               1
100
AcDbDimension
  2
*D10
 10
-1.5247090854499135
 20
-9.1025000023655593
 30
0.0
 11
2.7373239956047755
 21
-9.1025000023655593
 31
0.0
 70
             128
 71
               5
 72
               1
 41
1.0
 42
0.0
  3
IE Standard
100
AcDbAlignedDimension
 13
6.6752909145500894
 23
1.1899999976344393
 33
0.0
 14
-1.5247090854499135
 24
1.0649999976344393
 34
0.0
100
AcDbRotatedDimension
1001
ACAD
1000
DSTYLE
1002
{
1070
             271
1070
               3
1070
             340
1005
39
1070
             147
1040
0.09921875
1002
}
  0
DIMENSION
  5
1AC
100
AcDbEntity
  8
Dimension
370
               5
390
0
  6
Continuous
 62
               1
100
AcDbDimension
  2
*D11
 10
-0.7497090854499078
 20
-6.3103400023655603
 30
0.0
 11
2.54850258447197
 21
-6.3103400023655603
 31
0.0
 70
             128
 71
               5
 72
               1
 41
1.0
 42
0.0
  3
IE Standard
100
AcDbAlignedDimension
 13
5.9002909145500979
 23
0.3936199976344383
 33
0.0
 14
-0.7497090854499078
 24
0.3936199976344383
 34
0.0
100
AcDbRotatedDimension
1001
ACAD
1000
DSTYLE
1002
{
1070
             271
1070
               4
1070
             340
1005
39
1070
             147
1040
0.09921875
1002
}
  0
DIMENSION
  5
1AD
100
AcDbEntity
  8
Dimension
370
               5
390
0
  6
Continuous
 62
               1
100
AcDbDimension
  2
*D12
 10
-4.0372090854499021
 20
23.047499997634439
 30
0.0
 11
-1.9447106854498939
 21
23.047499997634439
 31
0.0
 70
             128
 71
               5
 72
               1
 41
1.0
 42
0.0
  3
IE Standard
100
AcDbAlignedDimension
 13
-5.2872090854499021
 23
12.002499997634438
 33
0.0
 14
-4.0372090854499021
 24
10.752499997634438
 34
0.0
100
AcDbRotatedDimension
1001
ACAD
1000
DSTYLE
1002
{
1070
             271
1070
               3
1070
             340
1005
39
1070
              71
1070
               1
1070
              47
1040
0.125
1070
              48
1040
0.125
1070
               3
1000
<>mm (x4)
1070
             174
1070
               0
1070
             147
1040
0.09921875
1002
}
  0
DIMENSION
  5
1AE
100
AcDbEntity
  8
Dimension
370
               5
390
0
  6
Continuous
 62
               1
100
AcDbDimension
  2
*D13
 10
-15.644709085449902
 20
12.002499997634438
 30
0.0
 11
-15.644709085449902
 21
14.797499997634437
 31
0.0
 70
             128
 71
               5
 72
               1
 41
1.0
 42
0.0
  3
IE Standard
100
AcDbAlignedDimension
 13
-4.0372090854499021
 23
10.752499997634438
 33
0.0
 14
-5.2872090854499021
 24
12.002499997634438
 34
0.0
 50
90.0
100
AcDbRotatedDimension
1001
ACAD
1000
DSTYLE
1002
{
1070
             271
1070
               2
1070
             340
1005
39
1070
              71
1070
               1
1070
              47
1040
0.125
1070
              48
1040
0.125
1070
               3
1000
<>mm (x4)
1070
             174
1070
               0
1070
             147
1040
0.09921875
1002
}
  0
LINE
  5
1AF
100
AcDbEntity
  8
None
370
               5
390
0
  6
Continuous
 62
               1
100
AcDbLine
 10
-15.248099085449908
 20
21.073519997634435
 30
0.0
 11
-12.744709085449898
 21
21.073519997634435
 31
0.0
  0
LINE
  5
1B0
100
AcDbEntity
  8
None
370
               5
390
0
  6
Continuous
 62
               1
100
AcDbLine
 10
-12.744709085449898
 20
21.073519997634435
 30
0.0
 11
-1.9122090854499021
 21
10.539939997634438
 31
0.0
  0
SOLID
  5
1B1
100
AcDbEntity
  8
None
370
               5
390
0
 62
               1
100
AcDbTrace
 10
-1.9122090854499021
 20
10.539939997634438
 30
0.0
 11
-2.3677667221368051
 21
10.802956321807011
 31
0.0
 12
-2.1752254096224752
 22
10.995497634321341
 32
0.0
 13
-2.1752254096224752
 23
10.995497634321341
 33
0.0
  0
DIMENSION
  5
1B2
100
AcDbEntity
  8
Dimension
370
               5
390
0
  6
Continuous
 62
               1
100
AcDbDimension
  2
*D14
 10
7.9291309145501003
 20
-1.7033100023655603
 30
0.0
 11
16.72188110986276
 21
-4.2909464035378324
 31
0.0
 70
               3
 71
               5
 72
               1
 41
1.0
 42
0.0
  3
IE Standard
100
AcDbDiametricDimension
 15
9.4464509145500983
 25
-2.2416900023655604
 35
0.0
 40
6.1282199999999998
1001
ACAD
1000
DSTYLE
1002
{
1070
             271
1070
               3
1070
             172
1070
               0
1070
             289
1070
               0
1070
             342
1005
4F
1070
             340
1005
39
1070
              75
1070
               1
1070
              76
1070
               1
1070
              71
1070
               1
1070
              48
1040
0.025
1070
               3
1000
mm (x4)
1070
             174
1070
               0
1070
             147
1040
0.09921875
1002
}
  0
DIMENSION
  5
1B3
100
AcDbEntity
  8
Dimension
370
               5
390
0
  6
Continuous
 62
               1
100
AcDbDimension
  2
*D15
 10
8.3514709145500916
 20
8.4723299976344393
 30
0.0
 11
15.255296943390517
 21
4.2975057348808807
 31
0.0
 70
               3
 71
               5
 72
               1
 41
1.0
 42
0.0
  3
IE Standard
100
AcDbDiametricDimension
 15
9.0241109145500928
 25
7.9526699976344375
 35
0.0
 40
5.9786599999999996
1001
ACAD
1000
DSTYLE
1002
{
1070
             271
1070
               3
1070
             172
1070
               0
1070
             289
1070
               0
1070
             342
1005
4F
1070
             340
1005
39
1070
              75
1070
               1
1070
              76
1070
               1
1070
              71
1070
               1
1070
              48
1040
0.025
1070
               3
1000
mm (x2)
1070
             174
1070
               0
1070
             147
1040
0.09921875
1002
}
  0
WIPEOUT
  5
1B4
100
AcDbEntity
  8
None
370
               5
390
0
  6
Continuous
 62
               1
 92
        0
100
AcDbWipeout
 90
        0
 10
22.905290914550093
 20
-0.027926845154667
 30
0.0
 11
4.7730682608602564
 21
0.0
 31
0.0
 12
0.0
 22
4.7730682608602564
 32
0.0
 13
1.0
 23
1.0
340
0
 70
               7
280
               1
281
              50
282
              50
283
               0
360
0
 71
               2
 91
        5
 14
-0.5
 24
0.4999999999999999
 14
0.4999999999999992
 24
0.4999999999999999
 14
0.4999999999999992
 24
0.2450110843835607
 14
-0.5
 24
0.2450110843835607
 14
-0.5
 24
0.4999999999999999
  0
MTEXT
  5
1B5
100
AcDbEntity
  8
None
390
0
 62
               1
100
AcDbMText
 10
22.905290914550093
 20
0.9945742746370001
 30
0.0
 40
0.7579186197916666
 41
0.0
 71
               1
 72
               1
  1
{\C192;\lpad (x 68)}
  7
Arial
 73
               1
 44
0.9673603504928806
  0
WIPEOUT
  5
1B6
100
AcDbEntity
  8
None
370
               5
390
0
  6
Continuous
 62
               1
 92
        0
100
AcDbWipeout
 90
        0
 10
13.955290914550105
 20
-17.028462118615558
 30
0.0
 11
11.874488520250132
 21
0.0
 31
0.0
 12
0.0
 22
11.874488520250132
 32
0.0
 13
1.0
 23
1.0
340
0
 70
               7
280
               1
281
              50
282
              50
283
               0
360
0
 71
               2
 91
        5
 14
-0.5
 24
0.5
 14
0.5
 24
0.5
 14
0.5
 24
0.3975044597353014
 14
-0.5
 24
0.3975044597353014
 14
-0.5
 24
0.5
  0
MTEXT
  5
1B7
100
AcDbEntity
  8
None
390
0
 62
               1
100
AcDbMText
 10
13.955290914550105
 20
-16.005958800842119
 30
0.0
 40
0.7579202490234376
 41
0.0
 71
               1
 72
               1
  1
{\C192;\l6.4mmx6.4mm GND Pad}
  7
Arial
 73
               1
 44
0.9673603504928806
  0
LINE
  5
1B8
100
AcDbEntity
  8
None
370
               5
390
0
  6
Continuous
 62
               7
100
AcDbLine
 10
18.055290914550099
 20
-15.811380002365558
 30
0.0
 11
18.055290914550099
 21
-12.011380002365559
 31
0.0
  0
DIMENSION
  5
1B9
100
AcDbEntity
  8
Dimension
370
               5
390
0
  6
Continuous
 62
               1
100
AcDbDimension
  2
*D16
 10
-10.463369085449902
 20
-1.9725000023655603
 30
0.0
 11
-10.463369085449902
 21
0.9975073976344229
 31
0.0
 70
             128
 71
               5
 72
               1
 41
1.0
 42
0.0
  3
IE Standard
100
AcDbAlignedDimension
 13
-4.0372090854499021
 23
3.107499997634438
 33
0.0
 14
-4.0372090854499021
 24
-1.9725000023655603
 34
0.0
 50
90.0
100
AcDbRotatedDimension
1001
ACAD
1000
DSTYLE
1002
{
1070
             271
1070
               2
1070
             340
1005
39
1070
             147
1040
0.09921875
1002
}
  0
INSERT
  5
1BA
100
AcDbEntity
  8
None
390
0
 62
               7
100
AcDbBlockReference
  2
Group-4
 10
0.0
 20
0.0
 30
0.0
  0
LINE
  5
1BB
100
AcDbEntity
  8
None
370
               5
390
0
  6
Continuous
 62
               7
100
AcDbLine
 10
18.055290914550099
 20
-12.011380002365559
 30
0.0
 11
3.5790409145500917
 21
2.4648699976344393
 31
0.0
  0
SOLID
  5
1BC
100
AcDbEntity
  8
None
370
               5
390
0
 62
               7
100
AcDbTrace
 10
3.5790409145500917
 20
2.4648699976344393
 30
0.0
 11
4.0345985512369946
 21
2.2018536734618657
 31
0.0
 12
3.8420572387226648
 22
2.0093123609475363
 32
0.0
 13
3.8420572387226648
 23
2.0093123609475363
 33
0.0
  0
INSERT
  5
1BD
100
AcDbEntity
  8
Dimension
390
0
 62
               7
100
AcDbBlockReference
  2
Group-5
 10
0.0
 20
0.0
 30
0.0
  0
WIPEOUT
  5
1BE
100
AcDbEntity
  8
None
370
               5
390
0
  6
Continuous
 62
               7
 92
        0
100
AcDbWipeout
 90
        0
 10
0.2716323248314154
 20
-19.158655269211497
 30
0.0
 11
4.4567370387441656
 21
0.0
 31
0.0
 12
0.0
 22
4.4567370387441656
 32
0.0
 13
1.0
 23
1.0
340
0
 70
               7
280
               1
281
              50
282
              50
283
               0
360
0
 71
               2
 91
        5
 14
-0.5
 24
0.5
 14
0.4999999999999996
 24
0.5
 14
0.4999999999999996
 24
0.196569937098856
 14
-0.5
 24
0.196569937098856
 14
-0.5
 24
0.5
  0
MTEXT
  5
1BF
100
AcDbEntity
  8
None
390
0
 62
               7
100
AcDbMText
 10
0.2716323248314154
 20
-18.022545060878162
 30
0.0
 40
0.8421302083333332
 41
0.0
 71
               1
 72
               1
  1
MLF68B
  7
Arial
 73
               1
 44
0.9673603504928806
  0
ENDSEC
  0
SECTION
  2
OBJECTS
  0
DICTIONARY
  5
19
100
AcDbDictionary
280
               0
281
               1
  3
ACAD_GROUP
350
1A
  3
ACAD_MLINESTYLE
350
1B
  3
ACAD_LAYOUT
350
1E
  3
ACAD_PLOTSETTINGS
350
22
  3
ACAD_PLOTSTYLENAME
350
1F
  3
ACAD_WIPEOUT_VARS
350
23
  0
DICTIONARY
  5
1A
102
{ACAD_REACTORS
330
19
102
}
100
AcDbDictionary
280
               0
281
               1
  0
DICTIONARY
  5
1B
102
{ACAD_REACTORS
330
19
102
}
100
AcDbDictionary
280
               0
281
               1
  3
Standard
350
1C
  0
MLINESTYLE
  5
1C
102
{ACAD_REACTORS
330
1B
102
}
100
AcDbMlineStyle
  2
Standard
 70
               0
  3

 62
               0
 51
90.0
 52
90.0
 71
               2
 49
0.5
 62
             256
  6
ByLayer
 49
-0.5
 62
             256
  6
ByLayer
  0
ACDBDICTIONARYWDFLT
  5
1F
102
{ACAD_REACTORS
330
19
102
}
100
AcDbDictionary
281
               1
  3
Normal
350
1D
100
AcDbDictionaryWithDefault
340
1D
  0
ACDBPLACEHOLDER
  5
1D
102
{ACAD_REACTORS
330
1F
102
}
  0
LAYOUT
  5
20
102
{ACAD_REACTORS
330
1E
102
}
100
AcDbPlotSettings
  1

  2

  4

  6

 40
0.0
 41
0.0
 42
0.0
 43
0.0
 44
0.0
 45
0.0
 46
0.0
 47
0.0
 48
0.0
 49
0.0
140
0.0
141
0.0
142
1.0
143
1.0
 70
            1024
 72
               0
 73
               0
 74
               0
  7

 75
               0
147
1.0
148
0.0
149
0.0
100
AcDbLayout
  1
Model
 70
               0
 71
               0
 10
0.0
 20
0.0
 11
0.0
 21
0.0
 12
0.0
 22
0.0
 32
0.0
 14
0.0
 24
0.0
 34
0.0
 15
0.0
 25
0.0
 35
0.0
146
0.0
 13
0.0
 23
0.0
 33
0.0
 16
0.0
 26
0.0
 36
0.0
 17
0.0
 27
0.0
 37
0.0
 76
               0
330
A
331
0
345
0
346
0
  0
LAYOUT
  5
21
102
{ACAD_REACTORS
330
1E
102
}
100
AcDbPlotSettings
  1

  2

  4

  6

 40
0.0
 41
0.0
 42
0.0
 43
0.0
 44
0.0
 45
0.0
 46
0.0
 47
0.0
 48
0.0
 49
0.0
140
0.0
141
0.0
142
1.0
143
1.0
 70
               0
 72
               0
 73
               0
 74
               0
  7

 75
               0
147
1.0
148
0.0
149
0.0
100
AcDbLayout
  1
Layout1
 70
               0
 71
               0
 10
0.0
 20
0.0
 11
0.0
 21
0.0
 12
0.0
 22
0.0
 32
0.0
 14
0.0
 24
0.0
 34
0.0
 15
0.0
 25
0.0
 35
0.0
146
0.0
 13
0.0
 23
0.0
 33
0.0
 16
0.0
 26
0.0
 36
0.0
 17
0.0
 27
0.0
 37
0.0
 76
               0
330
B
331
0
345
0
346
0
  0
DICTIONARY
  5
1E
102
{ACAD_REACTORS
330
19
102
}
100
AcDbDictionary
280
               0
281
               1
  3
Layout1
350
21
  3
Model
350
20
  0
DICTIONARY
  5
22
102
{ACAD_REACTORS
330
19
102
}
100
AcDbDictionary
280
               0
281
               1
  0
WIPEOUTVARIABLES
  5
23
100
AcDbWipeoutVariables
 70
               0
  0
ENDSEC
  0
EOF
