  0
SECTION
  2
HEADER
  9
$ACADVER
  1
AC1015
  9
$ACADMAINTVER
 70
               6
  9
$DWGCODEPAGE
  3
ANSI_1252
  9
$INSBASE
 10
0.0
 20
0.0
 30
0.0
  9
$EXTMIN
 10
-49.021393121284987
 20
23.451286044072017
 30
-1.7991648675000003
  9
$EXTMAX
 10
38.735115903699999
 20
90.259411125934406
 30
1.7991648675000003
  9
$LIMMIN
 10
0.0
 20
0.0
  9
$LIMMAX
 10
0.0
 20
0.0
  9
$ORTHOMODE
 70
               0
  9
$REGENMODE
 70
               1
  9
$FILLMODE
 70
               1
  9
$QTEXTMODE
 70
               0
  9
$MIRRTEXT
 70
               1
  9
$LTSCALE
 40
4.2333291000000006
  9
$ATTMODE
 70
               1
  9
$TEXTSIZE
 40
0.2
  9
$TRACEWID
 40
1.0
  9
$TEXTSTYLE
  7
Standard
  9
$CLAYER
  8
None
  9
$CELTYPE
  6
Continuous
  9
$CECOLOR
 62
             256
  9
$CELTSCALE
 40
1.0
  9
$DISPSILH
 70
               0
  9
$DIMSCALE
 40
1.0
  9
$DIMASZ
 40
1.0583322750000002
  9
$DIMEXO
 40
0.5291661375000001
  9
$DIMDLI
 40
10.16
  9
$DIMRND
 40
0.0
  9
$DIMDLE
 40
0.0
  9
$DIMEXE
 40
1.0583322750000002
  9
$DIMTP
 40
0.0
  9
$DIMTM
 40
0.0
  9
$DIMTXT
 40
0.7579186197916666
  9
$DIMCEN
 40
0.0
  9
$DIMTSZ
 40
0.0
  9
$DIMTOL
 70
               0
  9
$DIMLIM
 70
               0
  9
$DIMTIH
 70
               1
  9
$DIMTOH
 70
               1
  9
$DIMSE1
 70
               0
  9
$DIMSE2
 70
               0
  9
$DIMTAD
 70
               0
  9
$DIMZIN
 70
               3
  9
$DIMBLK
  1
VW_FILLEDARROW
  9
$DIMASO
 70
               1
  9
$DIMSHO
 70
               1
  9
$DIMPOST
  1
<>mm
  9
$DIMAPOST
  1
[]"
  9
$DIMALT
 70
               1
  9
$DIMALTD
 70
               3
  9
$DIMALTF
 40
0.0393700787401575
  9
$DIMLFAC
 40
1.0
  9
$DIMTOFL
 70
               0
  9
$DIMTVP
 40
0.0
  9
$DIMTIX
 70
               1
  9
$DIMSOXD
 70
               0
  9
$DIMSAH
 70
               0
  9
$DIMBLK1
  1

  9
$DIMBLK2
  1

  9
$DIMSTYLE
  2
ASME Dual SideBySide
  9
$DIMCLRD
 70
               0
  9
$DIMCLRE
 70
               0
  9
$DIMCLRT
 70
               0
  9
$DIMTFAC
 40
1.0
  9
$DIMGAP
 40
0.0
  9
$DIMJUST
 70
               0
  9
$DIMSD1
 70
               0
  9
$DIMSD2
 70
               0
  9
$DIMTOLJ
 70
               1
  9
$DIMTZIN
 70
               3
  9
$DIMALTZ
 70
               3
  9
$DIMALTTZ
 70
               3
  9
$DIMUPT
 70
               0
  9
$DIMDEC
 70
               2
  9
$DIMTDEC
 70
               2
  9
$DIMALTU
 70
               2
  9
$DIMALTTD
 70
               2
  9
$DIMTXSTY
  7
Helvetica
  9
$DIMAUNIT
 70
               0
  9
$DIMADEC
 70
               0
  9
$DIMALTRND
 40
0.0
  9
$DIMAZIN
 70
               0
  9
$DIMDSEP
 70
              46
  9
$DIMATFIT
 70
               0
  9
$DIMFRAC
 70
               2
  9
$DIMLDRBLK
  1

  9
$DIMLUNIT
 70
               2
  9
$DIMLWD
 70
              -2
  9
$DIMLWE
 70
              -2
  9
$DIMTMOVE
 70
               0
  9
$LUNITS
 70
               2
  9
$LUPREC
 70
               4
  9
$SKETCHINC
 40
0.1
  9
$FILLETRAD
 40
0.0
  9
$AUNITS
 70
               0
  9
$AUPREC
 70
               0
  9
$MENU
  1
acad
  9
$ELEVATION
 40
0.0
  9
$PELEVATION
 40
0.0
  9
$THICKNESS
 40
0.0
  9
$LIMCHECK
 70
               0
  9
$CHAMFERA
 40
0.0
  9
$CHAMFERB
 40
0.0
  9
$CHAMFERC
 40
0.0
  9
$CHAMFERD
 40
0.0
  9
$SKPOLY
 70
               0
  9
$TDCREATE
 40
2455267.575891204
  9
$TDUCREATE
 40
0.000000000
  9
$TDUPDATE
 40
2455267.575891204
  9
$TDUUPDATE
 40
0.000000000
  9
$TDINDWG
 40
0.0000000000
  9
$TDUSRTIMER
 40
0.0000000000
  9
$USRTIMER
 70
               1
  9
$ANGBASE
 50
0.0
  9
$ANGDIR
 70
               0
  9
$PDMODE
 70
               1
  9
$PDSIZE
 40
-2.0
  9
$PLINEWID
 40
0.0
  9
$SPLFRAME
 70
               0
  9
$SPLINETYPE
 70
               6
  9
$SPLINESEGS
 70
               8
  9
$HANDSEED
  5
420
  9
$SURFTAB1
 70
               6
  9
$SURFTAB2
 70
               6
  9
$SURFTYPE
 70
               6
  9
$SURFU
 70
               6
  9
$SURFV
 70
               6
  9
$UCSBASE
  2

  9
$UCSNAME
  2

  9
$UCSORG
 10
0.0
 20
0.0
 30
0.0
  9
$UCSXDIR
 10
1.0
 20
0.0
 30
0.0
  9
$UCSYDIR
 10
0.0
 20
1.0
 30
0.0
  9
$UCSORTHOREF
  2

  9
$UCSORTHOVIEW
 70
               0
  9
$UCSORGTOP
 10
0.0
 20
0.0
 30
0.0
  9
$UCSORGBOTTOM
 10
0.0
 20
0.0
 30
0.0
  9
$UCSORGLEFT
 10
0.0
 20
0.0
 30
0.0
  9
$UCSORGRIGHT
 10
0.0
 20
0.0
 30
0.0
  9
$UCSORGFRONT
 10
0.0
 20
0.0
 30
0.0
  9
$UCSORGBACK
 10
0.0
 20
0.0
 30
0.0
  9
$PUCSBASE
  2

  9
$PUCSNAME
  2

  9
$PUCSORG
 10
0.0
 20
0.0
 30
0.0
  9
$PUCSXDIR
 10
1.0
 20
0.0
 30
0.0
  9
$PUCSYDIR
 10
0.0
 20
1.0
 30
0.0
  9
$PUCSORTHOREF
  2

  9
$PUCSORTHOVIEW
 70
               0
  9
$PUCSORGTOP
 10
0.0
 20
0.0
 30
0.0
  9
$PUCSORGBOTTOM
 10
0.0
 20
0.0
 30
0.0
  9
$PUCSORGLEFT
 10
0.0
 20
0.0
 30
0.0
  9
$PUCSORGRIGHT
 10
0.0
 20
0.0
 30
0.0
  9
$PUCSORGFRONT
 10
0.0
 20
0.0
 30
0.0
  9
$PUCSORGBACK
 10
0.0
 20
0.0
 30
0.0
  9
$USERI1
 70
               0
  9
$USERI2
 70
               0
  9
$USERI3
 70
               0
  9
$USERI4
 70
               0
  9
$USERI5
 70
               0
  9
$USERR1
 40
0.0
  9
$USERR2
 40
0.0
  9
$USERR3
 40
0.0
  9
$USERR4
 40
0.0
  9
$USERR5
 40
0.0
  9
$WORLDVIEW
 70
               1
  9
$SHADEDGE
 70
               3
  9
$SHADEDIF
 70
              70
  9
$TILEMODE
 70
               1
  9
$MAXACTVP
 70
              64
  9
$PINSBASE
 10
0.0
 20
0.0
 30
0.0
  9
$PLIMCHECK
 70
               0
  9
$PEXTMIN
 10
1.0000000000000000E+20
 20
1.0000000000000000E+20
 30
1.0000000000000000E+20
  9
$PEXTMAX
 10
-1.0000000000000000E+20
 20
-1.0000000000000000E+20
 30
-1.0000000000000000E+20
  9
$PLIMMIN
 10
0.0
 20
0.0
  9
$PLIMMAX
 10
12.0
 20
9.0
  9
$UNITMODE
 70
               0
  9
$VISRETAIN
 70
               0
  9
$PLINEGEN
 70
               1
  9
$PSLTSCALE
 70
               0
  9
$TREEDEPTH
 70
            3020
  9
$CMLSTYLE
  2
Standard
  9
$CMLJUST
 70
               0
  9
$CMLSCALE
 40
1.0
  9
$PROXYGRAPHICS
 70
               0
  9
$MEASUREMENT
 70
               1
  9
$CELWEIGHT
370
               0
  9
$ENDCAPS
280
               0
  9
$JOINSTYLE
280
               0
  9
$LWDISPLAY
290
               1
  9
$INSUNITS
 70
               4
  9
$HYPERLINKBASE
  1

  9
$STYLESHEET
  1

  9
$XEDIT
290
               1
  9
$CEPSNTYPE
380
               0
  9
$PSTYLEMODE
290
               1
  9
$FINGERPRINTGUID
  2

  9
$VERSIONGUID
  2

  9
$EXTNAMES
290
               1
  9
$PSVPSCALE
 40
0.0
  0
ENDSEC
  0
SECTION
  2
CLASSES
  0
CLASS
  1
LWPOLYLINE
  2
AcDbPolyline
  3
AutoCAD 2000
 90
        0
280
               0
281
               1
  0
CLASS
  1
IMAGE
  2
AcDbRasterImage
  3
ISM
 90
      127
280
               0
281
               1
  0
CLASS
  1
OLE2FRAME
  2
AcDbOle2Frame
  3
AutoCAD 2000
 90
        0
280
               0
281
               1
  0
CLASS
  1
HATCH
  2
AcDbHatch
  3
AutoCAD 2000
 90
        0
280
               0
281
               1
  0
CLASS
  1
DICTIONARYVAR
  2
AcDbDictionaryVar
  3
AutoCAD 2000
 90
        0
280
               0
281
               0
  0
CLASS
  1
RASTERVARIABLES
  2
AcDbRasterVariables
  3
ISM
 90
        0
280
               0
281
               0
  0
CLASS
  1
IMAGEDEF
  2
AcDbRasterImageDef
  3
ISM
 90
        0
280
               0
281
               0
  0
CLASS
  1
IMAGEDEF_REACTOR
  2
AcDbRasterImageDefReactor
  3
ISM
 90
        1
280
               0
281
               0
  0
CLASS
  1
IDBUFFER
  2
AcDbIdBuffer
  3
AutoCAD 2000
 90
        0
280
               0
281
               0
  0
CLASS
  1
SPATIAL_FILTER
  2
AcDbSpatialFilter
  3
AutoCAD 2000
 90
        0
280
               0
281
               0
  0
CLASS
  1
XRECORD
  2
AcDbXrecord
  3
AutoCAD 2000
 90
        0
280
               0
281
               0
  0
CLASS
  1
SORTENTSTABLE
  2
AcDbSortentsTable
  3
AutoCAD 2000
 90
        0
280
               0
281
               0
  0
CLASS
  1
LAYER_INDEX
  2
AcDbLayerIndex
  3
AutoCAD 2000
 90
        0
280
               0
281
               0
  0
CLASS
  1
SPATIAL_INDEX
  2
AcDbSpatialIndex
  3
AutoCAD 2000
 90
        0
280
               0
281
               0
  0
CLASS
  1
OBJECT_PTR
  2
CAseDLPNTableRecord
  3
"ASE-LPNTableRecord"
 90
        1
280
               0
281
               0
  0
CLASS
  1
LAYOUT
  2
AcDbLayout
  3
AutoCAD 2000
 90
        0
280
               0
281
               0
  0
CLASS
  1
PLOTSETTINGS
  2
AcDbPlotSettings
  3
AutoCAD 2000
 90
        0
280
               0
281
               0
  0
CLASS
  1
ACDBDICTIONARYWDFLT
  2
AcDbDictionaryWithDefault
  3
AutoCAD 2000
 90
        0
280
               0
281
               0
  0
CLASS
  1
ACDBPLACEHOLDER
  2
AcDbPlaceHolder
  3
AutoCAD 2000
 90
        0
280
               0
281
               0
  0
CLASS
  1
VBA_PROJECT
  2
AcDbVbaProject
  3
acadvba
 90
        0
280
               0
281
               0
  0
CLASS
  1
WIPEOUT
  2
AcDbWipeout
  3
WipeOut|AutoCAD Express Tool|expresstools@autodesk.com
 90
      127
280
               0
281
               1
  0
CLASS
  1
WIPEOUTVARIABLES
  2
AcDbWipeoutVariables
  3
WipeOut|AutoCAD Express Tool|expresstools@autodesk.com
 90
        0
280
               0
281
               0
  0
CLASS
  1
RTEXT
  2
RText
  3
RText|AutoCAD Express Tool|expresstools@autodesk.com
 90
        0
280
               0
281
               1
  0
CLASS
  1
ARCALIGNEDTEXT
  2
AcDbArcAlignedText
  3
ATEXT|AutoCAD Express Tool|expresstools@autodesk.com
 90
        0
280
               0
281
               1
  0
ENDSEC
  0
SECTION
  2
TABLES
  0
TABLE
  2
VPORT
  5
7
100
AcDbSymbolTable
 70
               1
  0
VPORT
  5
15
100
AcDbSymbolTableRecord
100
AcDbViewportTableRecord
  2
*ACTIVE
 70
               0
 10
0.0
 20
0.0
 11
1.0
 21
1.0
 12
-5.1431386087924977
 22
56.855348585003213
 13
0.0
 23
0.0
 14
1.0
 24
1.0
 15
0.0
 25
0.0
 16
0.0
 26
0.0
 36
1.0
 17
0.0
 27
0.0
 37
0.0
 40
66.808125081862386
 41
0.688564
 42
50.0
 43
0.0
 44
0.0
 50
0.0
 51
0.0
 71
               0
 72
            2000
 73
               1
 74
               1
 75
               0
 76
               0
 77
               0
 78
               0
281
               0
 65
               0
110
0.0
120
0.0
130
0.0
111
1.0
121
0.0
131
0.0
112
0.0
122
1.0
132
0.0
345
0
346
0
 79
               0
146
0.0
  0
ENDTAB
  0
TABLE
  2
LTYPE
  5
4
100
AcDbSymbolTable
 70
              32
  0
LTYPE
  5
11
100
AcDbSymbolTableRecord
100
AcDbLinetypeTableRecord
  2
ByBlock
 70
              64
  3

 72
              65
 73
               0
 40
0.0
  0
LTYPE
  5
12
100
AcDbSymbolTableRecord
100
AcDbLinetypeTableRecord
  2
ByLayer
 70
              64
  3

 72
              65
 73
               0
 40
0.0
  0
LTYPE
  5
13
100
AcDbSymbolTableRecord
100
AcDbLinetypeTableRecord
  2
Continuous
 70
              64
  3
Solid line
 72
              65
 73
               0
 40
0.0
  0
LTYPE
  5
43
100
AcDbSymbolTableRecord
100
AcDbLinetypeTableRecord
  2
STYLE_01
 70
               0
  3

 72
              65
 73
               2
 40
3.0
 49
2.0
 74
               0
 49
-1.0
 74
               0
  0
LTYPE
  5
44
100
AcDbSymbolTableRecord
100
AcDbLinetypeTableRecord
  2
STYLE_02
 70
               0
  3

 72
              65
 73
               2
 40
1.5
 49
1.0
 74
               0
 49
-0.5
 74
               0
  0
LTYPE
  5
45
100
AcDbSymbolTableRecord
100
AcDbLinetypeTableRecord
  2
STYLE_03
 70
               0
  3

 72
              65
 73
               4
 40
1.111114501953125
 49
0.5
 74
               0
 49
-0.22222900390625
 74
               0
 49
0.194427490234375
 74
               0
 49
-0.1944580078125
 74
               0
  0
LTYPE
  5
46
100
AcDbSymbolTableRecord
100
AcDbLinetypeTableRecord
  2
STYLE_04
 70
               0
  3

 72
              65
 73
               4
 40
10.0
 49
5.0
 74
               0
 49
-1.0
 74
               0
 49
1.0
 74
               0
 49
-1.0
 74
               0
  0
LTYPE
  5
47
100
AcDbSymbolTableRecord
100
AcDbLinetypeTableRecord
  2
STYLE_05
 70
               0
  3

 72
              65
 73
               2
 40
1.0
 49
0.0002
 74
               0
 49
-0.9998
 74
               0
  0
LTYPE
  5
48
100
AcDbSymbolTableRecord
100
AcDbLinetypeTableRecord
  2
STYLE_06
 70
               0
  3

 72
              65
 73
               4
 40
0.916656494140625
 49
0.52777099609375
 74
               0
 49
-0.16668701171875
 74
               0
 49
0.0555419921875
 74
               0
 49
-0.166656494140625
 74
               0
  0
LTYPE
  5
49
100
AcDbSymbolTableRecord
100
AcDbLinetypeTableRecord
  2
STYLE_07
 70
               0
  3

 72
              65
 73
               6
 40
7.0
 49
2.0
 74
               0
 49
-1.0
 74
               0
 49
2.0
 74
               0
 49
-1.0
 74
               0
 49
0.0002000000000004
 74
               0
 49
-0.9997999999999996
 74
               0
  0
LTYPE
  5
4A
100
AcDbSymbolTableRecord
100
AcDbLinetypeTableRecord
  2
STYLE_08
 70
               0
  3

 72
              65
 73
               6
 40
5.0
 49
2.0
 74
               0
 49
-1.0
 74
               0
 49
0.0002
 74
               0
 49
-0.9998
 74
               0
 49
0.0002000000000004
 74
               0
 49
-0.9997999999999996
 74
               0
  0
LTYPE
  5
4B
100
AcDbSymbolTableRecord
100
AcDbLinetypeTableRecord
  2
STYLE_09
 70
               0
  3

 72
              65
 73
               6
 40
1.138885498046875
 49
0.5
 74
               0
 49
-0.138885498046875
 74
               0
 49
0.111114501953125
 74
               0
 49
-0.138885498046875
 74
               0
 49
0.111114501953125
 74
               0
 49
-0.138885498046875
 74
               0
  0
LTYPE
  5
4C
100
AcDbSymbolTableRecord
100
AcDbLinetypeTableRecord
  2
STYLE_10
 70
               0
  3

 72
              65
 73
               2
 40
0.1944580078125
 49
0.111114501953125
 74
               0
 49
-0.083343505859375
 74
               0
  0
LTYPE
  5
4D
100
AcDbSymbolTableRecord
100
AcDbLinetypeTableRecord
  2
STYLE_11
 70
               0
  3

 72
              65
 73
               6
 40
1.083343505859375
 49
0.5
 74
               0
 49
-0.111114501953125
 74
               0
 49
0.111114501953125
 74
               0
 49
-0.111114501953125
 74
               0
 49
0.111114501953125
 74
               0
 49
-0.138885498046875
 74
               0
  0
LTYPE
  5
4E
100
AcDbSymbolTableRecord
100
AcDbLinetypeTableRecord
  2
STYLE_12
 70
               0
  3

 72
              65
 73
               2
 40
0.166656494140625
 49
0.111114501953125
 74
               0
 49
-0.0555419921875
 74
               0
  0
LTYPE
  5
4F
100
AcDbSymbolTableRecord
100
AcDbLinetypeTableRecord
  2
STYLE_13
 70
               0
  3

 72
              65
 73
               2
 40
0.166656494140625
 49
0.08331298828125
 74
               0
 49
-0.083343505859375
 74
               0
  0
LTYPE
  5
50
100
AcDbSymbolTableRecord
100
AcDbLinetypeTableRecord
  2
STYLE_14
 70
               0
  3

 72
              65
 73
               4
 40
0.861114501953125
 49
0.47222900390625
 74
               0
 49
-0.166656494140625
 74
               0
 49
0.02777099609375
 74
               0
 49
-0.1944580078125
 74
               0
  0
LTYPE
  5
51
100
AcDbSymbolTableRecord
100
AcDbLinetypeTableRecord
  2
STYLE_15
 70
               0
  3

 72
              65
 73
               2
 40
0.75
 49
0.5
 74
               0
 49
-0.25
 74
               0
  0
LTYPE
  5
52
100
AcDbSymbolTableRecord
100
AcDbLinetypeTableRecord
  2
STYLE_16
 70
               0
  3

 72
              65
 73
               4
 40
0.416656494140625
 49
0.25
 74
               0
 49
-0.08331298828125
 74
               0
 49
0.02777099609375
 74
               0
 49
-0.055572509765625
 74
               0
  0
LTYPE
  5
53
100
AcDbSymbolTableRecord
100
AcDbLinetypeTableRecord
  2
STYLE_17
 70
               0
  3

 72
              65
 73
               6
 40
0.75
 49
0.25
 74
               0
 49
-0.08331298828125
 74
               0
 49
0.25
 74
               0
 49
-0.083343505859375
 74
               0
 49
0.02777099609375
 74
               0
 49
-0.055572509765625
 74
               0
  0
LTYPE
  5
54
100
AcDbSymbolTableRecord
100
AcDbLinetypeTableRecord
  2
STYLE_18
 70
               0
  3

 72
              65
 73
               6
 40
0.5
 49
0.25
 74
               0
 49
-0.08331298828125
 74
               0
 49
0.02777099609375
 74
               0
 49
-0.055572509765625
 74
               0
 49
0.02777099609375
 74
               0
 49
-0.055572509765625
 74
               0
  0
LTYPE
  5
55
100
AcDbSymbolTableRecord
100
AcDbLinetypeTableRecord
  2
STYLE_19
 70
               0
  3

 72
              65
 73
               4
 40
0.52777099609375
 49
0.27777099609375
 74
               0
 49
-0.083343505859375
 74
               0
 49
0.0555419921875
 74
               0
 49
-0.111114501953125
 74
               0
  0
LTYPE
  5
56
100
AcDbSymbolTableRecord
100
AcDbLinetypeTableRecord
  2
STYLE_20
 70
               0
  3

 72
              65
 73
               2
 40
0.138885498046875
 49
0.083343505859375
 74
               0
 49
-0.0555419921875
 74
               0
  0
LTYPE
  5
57
100
AcDbSymbolTableRecord
100
AcDbLinetypeTableRecord
  2
STYLE_21
 70
               0
  3

 72
              65
 73
               2
 40
0.27777099609375
 49
0.194427490234375
 74
               0
 49
-0.083343505859375
 74
               0
  0
LTYPE
  5
58
100
AcDbSymbolTableRecord
100
AcDbLinetypeTableRecord
  2
STYLE_22
 70
               0
  3

 72
              65
 73
               2
 40
0.5
 49
0.416656494140625
 74
               0
 49
-0.083343505859375
 74
               0
  0
LTYPE
  5
59
100
AcDbSymbolTableRecord
100
AcDbLinetypeTableRecord
  2
STYLE_23
 70
               0
  3

 72
              65
 73
               2
 40
0.08331298828125
 49
0.02777099609375
 74
               0
 49
-0.0555419921875
 74
               0
  0
LTYPE
  5
5A
100
AcDbSymbolTableRecord
100
AcDbLinetypeTableRecord
  2
STYLE_24
 70
               0
  3

 72
              65
 73
               2
 40
0.611083984375
 49
0.52777099609375
 74
               0
 49
-0.08331298828125
 74
               0
  0
LTYPE
  5
5B
100
AcDbSymbolTableRecord
100
AcDbLinetypeTableRecord
  2
STYLE_25
 70
               0
  3

 72
              65
 73
               4
 40
0.638885498046875
 49
0.22222900390625
 74
               0
 49
-0.166656494140625
 74
               0
 49
0.055572509765625
 74
               0
 49
-0.194427490234375
 74
               0
  0
LTYPE
  5
5C
100
AcDbSymbolTableRecord
100
AcDbLinetypeTableRecord
  2
STYLE_26
 70
               0
  3

 72
              65
 73
               2
 40
0.1944580078125
 49
0.083343505859375
 74
               0
 49
-0.111114501953125
 74
               0
  0
LTYPE
  5
5D
100
AcDbSymbolTableRecord
100
AcDbLinetypeTableRecord
  2
STYLE_27
 70
               0
  3

 72
              65
 73
               2
 40
0.257244094488189
 49
0.1286220472440945
 74
               0
 49
-0.1286220472440945
 74
               0
  0
LTYPE
  5
5E
100
AcDbSymbolTableRecord
100
AcDbLinetypeTableRecord
  2
STYLE_28
 70
               0
  3

 72
              65
 73
               6
 40
0.1712646484375
 49
0.085662841796875
 74
               0
 49
-0.017120361328125
 74
               0
 49
0.017120361328125
 74
               0
 49
-0.017120361328125
 74
               0
 49
0.017120361328125
 74
               0
 49
-0.017120361328125
 74
               0
  0
LTYPE
  5
5F
100
AcDbSymbolTableRecord
100
AcDbLinetypeTableRecord
  2
STYLE_29
 70
               0
  3

 72
              65
 73
               2
 40
0.075
 49
0.05
 74
               0
 49
-0.025
 74
               0
  0
ENDTAB
  0
TABLE
  2
LAYER
  5
2
100
AcDbSymbolTable
 70
               9
  0
LAYER
  5
14
100
AcDbSymbolTableRecord
100
AcDbLayerTableRecord
  2
0
 70
               0
 62
               7
  6
Continuous
290
               1
370
              15
390
1D
  0
LAYER
  5
60
100
AcDbSymbolTableRecord
100
AcDbLayerTableRecord
  2
Defpoints
 70
               0
 62
               7
  6
Continuous
290
               0
370
              -3
390
1D
  0
LAYER
  5
61
100
AcDbSymbolTableRecord
100
AcDbLayerTableRecord
  2
None
 70
               0
 62
               7
  6
Continuous
290
               1
370
               5
390
1D
  0
LAYER
  5
62
100
AcDbSymbolTableRecord
100
AcDbLayerTableRecord
  2
Dimension
 70
               0
 62
               7
  6
Continuous
290
               1
370
               5
390
1D
  0
LAYER
  5
63
100
AcDbSymbolTableRecord
100
AcDbLayerTableRecord
  2
Solid Lines
 70
               0
 62
               7
  6
Continuous
290
               1
370
              25
390
1D
  0
LAYER
  5
64
100
AcDbSymbolTableRecord
100
AcDbLayerTableRecord
  2
AM_VIS
 70
               0
 62
               7
  6
Continuous
290
               1
370
              15
390
1D
  0
LAYER
  5
65
100
AcDbSymbolTableRecord
100
AcDbLayerTableRecord
  2
AM_HID
 70
               0
 62
               7
  6
STYLE_11
290
               1
370
              15
390
1D
  0
LAYER
  5
66
100
AcDbSymbolTableRecord
100
AcDbLayerTableRecord
  2
02___PRT_ALL_AXES
 70
               0
 62
               7
  6
Continuous
290
               1
370
              15
390
1D
  0
LAYER
  5
67
100
AcDbSymbolTableRecord
100
AcDbLayerTableRecord
  2
DEFAULT_2
 70
               0
 62
               8
  6
STYLE_27
290
               1
370
              15
390
1D
  0
ENDTAB
  0
TABLE
  2
STYLE
  5
3
100
AcDbSymbolTable
 70
               6
  0
STYLE
  5
17
100
AcDbSymbolTableRecord
100
AcDbTextStyleTableRecord
  2
Standard
 70
               0
 40
0.0
 41
1.0
 50
0.0
 71
               0
 42
0.0
  3
txt
  4

  0
STYLE
  5
3E
100
AcDbSymbolTableRecord
100
AcDbTextStyleTableRecord
  2
Arial
 70
               0
 40
0.0
 41
1.0
 50
0.0
 71
               0
 42
0.0
  3
Arial
  4

1001
ACAD
1000
Arial
1071
        0
  0
STYLE
  5
3F
100
AcDbSymbolTableRecord
100
AcDbTextStyleTableRecord
  2
Arial (bold)
 70
               0
 40
0.0
 41
1.0
 50
0.0
 71
               0
 42
0.0
  3
Arial
  4

1001
ACAD
1000
Arial
1071
 33554432
  0
STYLE
  5
40
100
AcDbSymbolTableRecord
100
AcDbTextStyleTableRecord
  2
Helvetica
 70
               0
 40
0.0
 41
1.0
 50
0.0
 71
               0
 42
0.0
  3
Helvetica
  4

1001
ACAD
1000
Helvetica
1071
        0
  0
STYLE
  5
41
100
AcDbSymbolTableRecord
100
AcDbTextStyleTableRecord
  2
Helvetica (bold)
 70
               0
 40
0.0
 41
1.0
 50
0.0
 71
               0
 42
0.0
  3
Helvetica
  4

1001
ACAD
1000
Helvetica
1071
 33554432
  0
STYLE
  5
42
100
AcDbSymbolTableRecord
100
AcDbTextStyleTableRecord
  2
New Century Schlbk
 70
               0
 40
0.0
 41
1.0
 50
0.0
 71
               0
 42
0.0
  3
New Century Schlbk
  4

1001
ACAD
1000
New Century Schlbk
1071
        0
  0
ENDTAB
  0
TABLE
  2
VIEW
  5
5
100
AcDbSymbolTable
 70
               0
  0
ENDTAB
  0
TABLE
  2
UCS
  5
6
100
AcDbSymbolTable
 70
               0
  0
ENDTAB
  0
TABLE
  2
APPID
  5
8
100
AcDbSymbolTable
 70
               1
  0
APPID
  5
16
100
AcDbSymbolTableRecord
100
AcDbRegAppTableRecord
  2
ACAD
 70
               0
  0
ENDTAB
  0
TABLE
  2
DIMSTYLE
  5
9
100
AcDbSymbolTable
 70
               4
100
AcDbDimStyleTable
 71
               0
  0
DIMSTYLE
105
18
100
AcDbSymbolTableRecord
100
AcDbDimStyleTableRecord
  2
Standard
 70
               0
  3

  4

 40
1.0
 41
0.18
 42
0.0625
 43
0.38
 44
0.18
 45
0.0
 46
0.0
 47
0.0
 48
0.0
 71
               0
 72
               0
 73
               1
 74
               1
 75
               0
 76
               0
 77
               0
 78
               0
 79
               0
140
0.18
141
0.09
142
0.0
143
25.399999999999999
144
1.0
145
0.0
146
1.0
147
0.09
148
0.0
170
               0
171
               2
172
               0
173
               0
174
               0
175
               0
176
               0
177
               0
178
               0
179
               0
271
               4
272
               4
273
               2
274
               2
275
               0
276
               0
277
               2
278
              46
279
               0
280
               0
281
               0
282
               0
283
               1
284
               0
285
               0
286
               0
288
               0
289
               3
340
17
341
0
342
0
343
0
344
0
371
              -2
372
              -2
  0
DIMSTYLE
105
70
100
AcDbSymbolTableRecord
100
AcDbDimStyleTableRecord
  2
IE Standard
 70
               0
  3
<>mm
  4
[]"
 40
1.0
 41
1.0583322750000002
 42
0.634999366577038
 43
6.9999859934672708
 44
1.2699987331540761
 45
0.0
 46
0.0
 47
0.0
 48
0.0
 71
               0
 72
               0
 73
               1
 74
               1
 75
               0
 76
               0
 77
               0
 78
               3
 79
               0
140
0.7579186197916666
141
0.0
142
0.0
143
0.0393700787401575
144
1.0
145
0.0
146
1.0
147
0.0
148
0.0
170
               0
171
               3
172
               1
173
               0
174
               1
175
               0
176
               0
177
               0
178
               0
179
               0
271
               2
272
               2
273
               2
274
               2
275
               0
276
               2
277
               2
278
              46
279
               0
280
               0
281
               0
282
               0
283
               1
284
               3
285
               3
286
               3
288
               0
289
               0
340
40
341
6C
342
68
343
0
344
0
371
              -2
372
              -2
  0
DIMSTYLE
105
71
100
AcDbSymbolTableRecord
100
AcDbDimStyleTableRecord
  2
ASME
 70
               0
  3
<>mm
  4
[]"
 40
1.0
 41
1.0583322750000002
 42
0.5291661375000001
 43
10.16
 44
1.0583322750000002
 45
0.0
 46
0.0
 47
0.0
 48
0.0
 71
               0
 72
               0
 73
               1
 74
               1
 75
               0
 76
               0
 77
               0
 78
               3
 79
               0
140
0.7579186197916666
141
0.0
142
0.0
143
0.0393700787401575
144
1.0
145
0.0
146
1.0
147
0.0
148
0.0
170
               0
171
               3
172
               0
173
               0
174
               1
175
               0
176
               0
177
               0
178
               0
179
               0
271
               2
272
               2
273
               2
274
               2
275
               0
276
               2
277
               2
278
              46
279
               0
280
               0
281
               0
282
               0
283
               1
284
               3
285
               3
286
               3
288
               0
289
               0
340
40
341
68
342
68
343
0
344
0
371
              -2
372
              -2
  0
DIMSTYLE
105
72
100
AcDbSymbolTableRecord
100
AcDbDimStyleTableRecord
  2
ASME Dual SideBySide
 70
               0
  3
<>mm
  4
[]"
 40
1.0
 41
1.0583322750000002
 42
0.5291661375000001
 43
10.16
 44
1.0583322750000002
 45
0.0
 46
0.0
 47
0.0
 48
0.0
 71
               0
 72
               0
 73
               1
 74
               1
 75
               0
 76
               0
 77
               0
 78
               3
 79
               0
140
0.7579186197916666
141
0.0
142
0.0
143
0.0393700787401575
144
1.0
145
0.0
146
1.0
147
0.0
148
0.0
170
               1
171
               3
172
               0
173
               0
174
               1
175
               0
176
               0
177
               0
178
               0
179
               0
271
               2
272
               2
273
               2
274
               2
275
               0
276
               2
277
               2
278
              46
279
               0
280
               0
281
               0
282
               0
283
               1
284
               3
285
               3
286
               3
288
               0
289
               0
340
40
341
68
342
68
343
0
344
0
371
              -2
372
              -2
  0
ENDTAB
  0
TABLE
  2
BLOCK_RECORD
  5
1
100
AcDbSymbolTable
 70
              28
  0
BLOCK_RECORD
  5
A
100
AcDbSymbolTableRecord
100
AcDbBlockTableRecord
  2
*MODEL_SPACE
340
20
  0
BLOCK_RECORD
  5
B
100
AcDbSymbolTableRecord
100
AcDbBlockTableRecord
  2
*PAPER_SPACE
340
21
  0
BLOCK_RECORD
  5
68
100
AcDbSymbolTableRecord
100
AcDbBlockTableRecord
  2
VW_FILLEDARROW
340
0
  0
BLOCK_RECORD
  5
6C
100
AcDbSymbolTableRecord
100
AcDbBlockTableRecord
  2
VW_FILLEDARROW-1
340
0
  0
BLOCK_RECORD
  5
24
100
AcDbSymbolTableRecord
100
AcDbBlockTableRecord
  2
IE i logo
340
0
102
{BLKREFS
331
EF
102
}
  0
BLOCK_RECORD
  5
25
100
AcDbSymbolTableRecord
100
AcDbBlockTableRecord
  2
©2006_address
340
0
102
{BLKREFS
331
F0
102
}
  0
BLOCK_RECORD
  5
26
100
AcDbSymbolTableRecord
100
AcDbBlockTableRecord
  2
Group
340
0
102
{BLKREFS
331
F3
102
}
  0
BLOCK_RECORD
  5
27
100
AcDbSymbolTableRecord
100
AcDbBlockTableRecord
  2
CG-BGA-4008 title block
340
0
102
{BLKREFS
331
20C
102
}
  0
BLOCK_RECORD
  5
28
100
AcDbSymbolTableRecord
100
AcDbBlockTableRecord
  2
*D6
340
0
  0
BLOCK_RECORD
  5
29
100
AcDbSymbolTableRecord
100
AcDbBlockTableRecord
  2
*D7
340
0
  0
BLOCK_RECORD
  5
2A
100
AcDbSymbolTableRecord
100
AcDbBlockTableRecord
  2
*D8
340
0
  0
BLOCK_RECORD
  5
2B
100
AcDbSymbolTableRecord
100
AcDbBlockTableRecord
  2
*D9
340
0
  0
BLOCK_RECORD
  5
2C
100
AcDbSymbolTableRecord
100
AcDbBlockTableRecord
  2
*D10
340
0
  0
BLOCK_RECORD
  5
2D
100
AcDbSymbolTableRecord
100
AcDbBlockTableRecord
  2
*D11
340
0
  0
BLOCK_RECORD
  5
2E
100
AcDbSymbolTableRecord
100
AcDbBlockTableRecord
  2
*D12
340
0
  0
BLOCK_RECORD
  5
2F
100
AcDbSymbolTableRecord
100
AcDbBlockTableRecord
  2
*D13
340
0
  0
BLOCK_RECORD
  5
30
100
AcDbSymbolTableRecord
100
AcDbBlockTableRecord
  2
*D14
340
0
  0
BLOCK_RECORD
  5
31
100
AcDbSymbolTableRecord
100
AcDbBlockTableRecord
  2
*D15
340
0
  0
BLOCK_RECORD
  5
32
100
AcDbSymbolTableRecord
100
AcDbBlockTableRecord
  2
*D16
340
0
  0
BLOCK_RECORD
  5
33
100
AcDbSymbolTableRecord
100
AcDbBlockTableRecord
  2
Group-1
340
0
102
{BLKREFS
331
229
102
}
  0
BLOCK_RECORD
  5
34
100
AcDbSymbolTableRecord
100
AcDbBlockTableRecord
  2
layout pad
340
0
102
{BLKREFS
331
22A
331
22B
331
22C
331
22D
331
22E
331
22F
331
230
331
231
331
232
331
233
331
234
331
235
331
236
331
237
331
238
331
239
331
23A
331
23B
331
23C
331
23D
331
23E
331
23F
331
240
331
241
331
242
331
243
331
244
331
245
331
246
331
247
331
248
331
249
331
24A
331
24B
331
24C
331
24D
331
24E
331
24F
331
250
331
251
331
252
331
253
331
254
331
255
331
256
331
257
331
258
331
259
331
25A
331
25B
331
25C
331
25D
331
25E
331
25F
331
260
331
261
331
262
331
263
331
264
331
265
331
266
331
267
331
268
331
269
331
26A
331
26B
331
26C
331
26D
331
26E
331
26F
331
270
331
271
331
272
331
273
331
274
331
275
331
276
331
277
331
278
331
279
331
27A
331
27B
331
27C
331
27D
331
27E
331
27F
331
280
331
281
331
282
331
283
331
284
331
285
331
286
331
287
331
288
331
289
331
28A
331
28B
331
28C
331
28D
331
28E
331
28F
331
290
331
291
331
292
331
293
331
294
331
295
331
296
331
297
331
298
331
299
331
29A
331
29B
331
29C
331
29D
331
29E
331
29F
331
2A0
331
2A1
331
2A2
331
2A3
331
2A4
331
2A5
331
2A6
331
2A7
331
2A8
331
2A9
331
2AA
331
2AB
331
2AC
331
2AD
331
2AE
331
2AF
331
2B0
331
2B1
331
2B2
331
2B3
331
2B4
331
2B5
331
2B6
331
2B7
331
2B8
331
2B9
331
2BA
331
2BB
331
2BC
331
2BD
331
2BE
331
2BF
331
2C0
331
2C1
331
2C2
331
2C3
331
2C4
331
2C5
331
2C6
331
2C7
331
2C8
331
2C9
331
2CA
331
2CB
331
2CC
331
2CD
331
2CE
331
2CF
331
2D0
331
2D1
331
2D2
331
2D3
331
2D4
331
2D5
331
2D6
331
2D7
331
2D8
331
2D9
331
2DA
331
2DB
331
2DC
331
2DD
331
2DE
331
2DF
331
2E0
331
2E1
331
2E2
331
2E3
331
2E4
331
2E5
331
2E6
331
2E7
331
2E8
331
2E9
331
2EA
331
2EB
331
2EC
331
2ED
331
2EE
331
2EF
331
2F0
331
2F1
331
2F2
331
2F3
331
2F4
331
2F5
331
2F6
331
2F7
331
2F8
331
2F9
331
2FA
331
2FB
331
2FC
331
2FD
331
2FE
331
2FF
331
300
331
301
331
302
331
303
331
304
331
305
331
306
331
307
331
308
331
309
331
30A
331
30B
331
30C
331
30D
331
30E
331
30F
331
310
331
311
331
312
331
313
331
314
331
315
331
316
331
317
331
318
331
319
331
31A
331
31B
331
31C
331
31D
331
31E
331
31F
331
320
331
321
331
322
331
323
331
324
331
325
331
326
331
327
331
328
331
329
331
32A
331
32B
331
32C
331
32D
331
32E
331
32F
331
330
331
331
331
332
331
333
331
334
331
335
331
336
331
337
331
338
331
339
331
33A
331
33B
331
33C
331
33D
331
33E
331
33F
331
340
331
341
331
342
331
343
331
344
331
345
331
346
331
347
331
348
331
349
331
34A
331
34B
331
34C
331
34D
331
34E
331
34F
331
350
331
351
331
352
331
353
331
354
331
355
331
356
331
357
331
358
331
359
331
35A
331
35B
331
35C
331
35D
331
35E
331
35F
331
360
331
361
331
362
331
363
331
364
331
365
331
366
331
367
331
368
331
369
331
36A
331
36B
331
36C
331
36D
331
36E
331
36F
331
370
331
371
331
372
331
373
331
374
331
375
331
376
331
377
331
378
331
379
331
37A
331
37B
331
37C
331
37D
331
37E
331
37F
331
380
331
381
331
382
331
383
331
384
331
385
331
386
331
387
331
388
331
389
331
38A
331
38B
331
38C
331
38D
331
38E
331
38F
331
390
331
391
331
392
331
393
331
394
331
395
331
396
331
397
331
398
331
399
331
39A
331
39B
331
39C
331
39D
331
39E
331
39F
331
3A0
331
3A1
331
3A2
331
3A3
331
3A4
331
3A5
331
3A6
331
3A7
331
3A8
331
3A9
331
3AA
331
3AB
331
3AC
331
3AD
331
3AE
331
3AF
331
3B0
331
3B1
331
3B2
331
3B3
331
3B4
331
3B5
331
3B6
331
3B7
331
3B8
331
3B9
331
3BA
331
3BB
331
3BC
331
3BD
331
3BE
331
3BF
331
3C0
331
3C1
331
3C2
331
3C3
331
3C4
331
3C5
331
3C6
331
3C7
331
3C8
331
3C9
331
3CA
331
3CB
331
3CC
331
3CD
331
3CE
331
3CF
331
3D0
331
3D1
331
3D2
331
3D3
331
3D4
331
3D5
331
3D6
331
3D7
331
3D8
331
3D9
331
3DA
331
3DB
331
3DC
331
3DD
331
3DE
331
3DF
331
3E0
331
3E1
331
3E2
331
3E3
331
3E4
331
3E5
331
3E6
331
3E7
331
3E8
331
3E9
331
3EA
331
3EB
331
3EC
331
3ED
331
3EE
331
3EF
331
3F0
331
3F1
331
3F2
331
3F3
331
3F4
331
3F5
331
3F6
331
3F7
331
3F8
331
3F9
331
3FA
331
3FB
331
3FC
331
3FD
331
3FE
331
3FF
331
400
331
401
331
402
331
403
331
404
331
405
331
406
331
407
331
408
331
409
331
40A
331
40B
331
40C
331
40D
102
}
  0
BLOCK_RECORD
  5
35
100
AcDbSymbolTableRecord
100
AcDbBlockTableRecord
  2
*D19
340
0
  0
BLOCK_RECORD
  5
36
100
AcDbSymbolTableRecord
100
AcDbBlockTableRecord
  2
Group-2
340
0
102
{BLKREFS
331
1BD
102
}
  0
BLOCK_RECORD
  5
37
100
AcDbSymbolTableRecord
100
AcDbBlockTableRecord
  2
Group-3
340
0
102
{BLKREFS
331
40F
102
}
  0
BLOCK_RECORD
  5
38
100
AcDbSymbolTableRecord
100
AcDbBlockTableRecord
  2
*D22
340
0
  0
BLOCK_RECORD
  5
39
100
AcDbSymbolTableRecord
100
AcDbBlockTableRecord
  2
Group-4
340
0
102
{BLKREFS
331
413
102
}
  0
BLOCK_RECORD
  5
3A
100
AcDbSymbolTableRecord
100
AcDbBlockTableRecord
  2
*D24
340
0
  0
BLOCK_RECORD
  5
3B
100
AcDbSymbolTableRecord
100
AcDbBlockTableRecord
  2
*D25
340
0
  0
BLOCK_RECORD
  5
3C
100
AcDbSymbolTableRecord
100
AcDbBlockTableRecord
  2
*D26
340
0
  0
BLOCK_RECORD
  5
3D
100
AcDbSymbolTableRecord
100
AcDbBlockTableRecord
  2
Group-5
340
0
102
{BLKREFS
331
41B
102
}
  0
ENDTAB
  0
ENDSEC
  0
SECTION
  2
BLOCKS
  0
BLOCK
  5
D
100
AcDbEntity
  8
0
390
0
100
AcDbBlockBegin
  2
*MODEL_SPACE
 70
               0
 10
0.0
 20
0.0
 30
0.0
  3
*MODEL_SPACE
  1

  0
ENDBLK
  5
E
100
AcDbEntity
  8
0
390
0
100
AcDbBlockEnd
  0
BLOCK
  5
F
100
AcDbEntity
 67
               1
  8
0
390
0
100
AcDbBlockBegin
  2
*PAPER_SPACE
 70
               0
 10
0.0
 20
0.0
 30
0.0
  3
*PAPER_SPACE
  1

  0
ENDBLK
  5
10
100
AcDbEntity
 67
               1
  8
0
390
0
100
AcDbBlockEnd
  0
BLOCK
  5
69
100
AcDbEntity
  8
0
370
              -2
390
0
  6
ByBlock
 62
               0
100
AcDbBlockBegin
  2
VW_FILLEDARROW
 70
               0
 10
0.0
 20
0.0
 30
0.0
  3
VW_FILLEDARROW
  1

  0
SOLID
  5
6A
100
AcDbEntity
  8
0
370
              -2
390
0
 62
               0
100
AcDbTrace
 10
0.0
 20
0.0
 30
0.0
 11
0.9999379649047853
 21
0.2679325701774575
 31
0.0
 12
0.9999379649047853
 22
-0.2679325701774575
 32
0.0
 13
0.9999379649047853
 23
-0.2679325701774575
 33
0.0
  0
ENDBLK
  5
6B
100
AcDbEntity
  8
0
390
0
100
AcDbBlockEnd
  0
BLOCK
  5
6D
100
AcDbEntity
  8
0
370
              -2
390
0
  6
ByBlock
 62
               0
100
AcDbBlockBegin
  2
VW_FILLEDARROW-1
 70
               0
 10
0.0
 20
0.0
 30
0.0
  3
VW_FILLEDARROW
  1

  0
SOLID
  5
6E
100
AcDbEntity
  8
0
370
              -2
390
0
 62
               0
100
AcDbTrace
 10
0.0
 20
0.0
 30
0.0
 11
0.6661085461303712
 21
0.1784832470071022
 31
0.0
 12
0.6661085461303712
 22
-0.1784832470071022
 32
0.0
 13
0.6661085461303712
 23
-0.1784832470071022
 33
0.0
  0
ENDBLK
  5
6F
100
AcDbEntity
  8
0
390
0
100
AcDbBlockEnd
  0
BLOCK
  5
73
100
AcDbEntity
  8
None
390
0
100
AcDbBlockBegin
  2
IE i logo
 70
               0
 10
0.0
 20
0.0
 30
0.0
  3
IE i logo
  1

  0
CIRCLE
  5
74
102
{ACAD_REACTORS
330
75
102
}
100
AcDbEntity
  8
None
370
               5
390
0
  6
Continuous
 62
               7
100
AcDbCircle
 10
0.0
 20
0.0
 30
0.0
 40
2.6708000015163993
  0
HATCH
  5
75
100
AcDbEntity
  8
None
370
               0
390
0
  6
Continuous
 62
               7
100
AcDbHatch
 10
0.0
 20
0.0
 30
0.0
210
0.0
220
0.0
230
1.0
  2
SOLID
 70
               1
 71
               1
 91
        1
 92
        1
 93
        1
 72
               2
 10
0.0
 20
0.0
 40
2.6708000015163993
 50
0.0
 51
360.0
 73
               0
 97
        1
330
74
 75
               0
 76
               1
 98
        1
 10
0.0
 20
0.0
  0
WIPEOUT
  5
76
100
AcDbEntity
  8
None
370
               5
390
0
  6
Continuous
 62
               7
 92
        0
100
AcDbWipeout
 90
        0
 10
-1.01559
 20
0.7356799999999999
 30
0.0
 11
0.6889700000000001
 21
0.0
 31
0.0
 12
0.0
 22
0.6889700000000001
 32
0.0
 13
1.0
 23
1.0
340
0
 70
               7
280
               1
281
              50
282
              50
283
               0
360
0
 71
               2
 91
       97
 14
-0.3841458989506075
 24
0.0667590751411526
 14
-0.3634902916672715
 24
0.0345951202519703
 14
-0.3415614975978636
 24
0.0026924249241619
 14
-0.3183595167423836
 24
-0.0289490108422718
 14
-0.2938843491008316
 24
-0.0603291870473315
 14
-0.2681359946732077
 24
-0.0914481036910172
 14
-0.2411144534595119
 24
-0.1223057607733282
 14
-0.2128197254597441
 24
-0.1529021582942652
 14
-0.1832518106739045
 24
-0.1832372962538282
 14
-0.1529166727143417
 24
-0.2128053244335748
 14
-0.1223202751934046
 24
-0.2411003926150633
 14
-0.0914626181110934
 24
-0.2681225007982933
 14
-0.0603437014674079
 24
-0.293871648983265
 14
-0.0289635252623482
 24
-0.3183478371699785
 14
0.0026779105040858
 24
-0.3415510653584339
 14
0.0345806058318939
 24
-0.3634813335486309
 14
0.0667445607210765
 24
-0.3841386417405692
 14
0.0986291130237893
 24
-0.4031876841517047
 14
0.1296936005921883
 24
-0.4202931549994916
 14
0.1599380234262741
 24
-0.4354550542839309
 14
0.1893623815260462
 24
-0.4486733820050221
 14
0.2179666748915049
 24
-0.4599481381627649
 14
0.2457509035226498
 24
-0.4692793227571591
 14
0.2727150674194813
 24
-0.4766669357882054
 14
0.2988591665819992
 24
-0.4821109772559039
 14
0.3237520773763735
 24
-0.4855364937878283
 14
0.3469626761687736
 24
-0.4868685320115535
 14
0.3684909629591999
 24
-0.4861070919270796
 14
0.3883369377476522
 24
-0.4832521735344065
 14
0.4065006005341306
 24
-0.478303776833534
 14
0.4229819513186351
 24
-0.4712619018244624
 14
0.4377809901011655
 24
-0.4621265485071919
 14
0.450897716881722
 24
-0.450897716881722
 14
0.4621265485071919
 24
-0.4377809901011653
 14
0.4712619018244625
 24
-0.4229819513186348
 14
0.478303776833534
 24
-0.4065006005341303
 14
0.4832521735344064
 24
-0.3883369377476522
 14
0.4861070919270795
 24
-0.3684909629591999
 14
0.4868685320115535
 24
-0.346962676168774
 14
0.485536493787828
 24
-0.3237520773763738
 14
0.4821109772559037
 24
-0.2988591665819994
 14
0.4766669357882054
 24
-0.2727150674194814
 14
0.4692793227571591
 24
-0.2457509035226501
 14
0.4599481381627646
 24
-0.2179666748915049
 14
0.4486733820050219
 24
-0.1893623815260463
 14
0.4354550542839309
 24
-0.1599380234262744
 14
0.4202931549994919
 24
-0.1296936005921886
 14
0.4031876841517047
 24
-0.0986291130237894
 14
0.3841386417405692
 24
-0.0667445607210765
 14
0.3634814469425374
 24
-0.0345806058318942
 14
0.341551518934061
 24
-0.0026779105040858
 14
0.3183488577151399
 24
0.0289635252623479
 14
0.2938734632857745
 24
0.0603437014674076
 14
0.2681253356459643
 24
0.0914626181110932
 14
0.2411044747957094
 24
0.1223202751934044
 14
0.2128108807350102
 24
0.1529166727143415
 14
0.1832445534638663
 24
0.1832518106739043
 14
0.1529110030189994
 24
0.212819838853651
 14
0.1223157394371308
 24
0.2411149070351392
 14
0.0914587627182606
 24
0.2681370152183693
 14
0.0603400728623887
 24
0.2938861634033411
 14
0.0289596698695154
 24
0.3183623515900547
 14
-0.0026824462603596
 24
0.3415655797785099
 14
-0.0345862755272363
 24
0.3634958479687069
 14
-0.0667518179311145
 24
0.3841531561606457
 14
-0.098637957748523
 24
0.4032020851778743
 14
-0.1297035792559907
 24
0.420307215843941
 14
-0.1599486824535175
 24
0.4354685481588458
 14
-0.1893732673411033
 24
0.4486860821225887
 14
-0.2179773339187483
 24
0.4599598177351699
 14
-0.2457608821864522
 24
0.4692897549965891
 14
-0.2727239121442152
 24
0.4766758939068465
 14
-0.2988664237920372
 24
0.4821182344659419
 14
-0.3237576336778087
 24
0.4855420500892637
 14
-0.3469667583494201
 24
0.4868726141922
 14
-0.368493797806871
 24
0.4861099267747507
 14
-0.3883387520501617
 24
0.483253987836916
 14
-0.4065016210792922
 24
0.4783047973786958
 14
-0.4229824048942623
 24
0.4712623554000899
 14
-0.4377811034950722
 24
0.4621266619010988
 14
-0.450897716881722
 24
0.450897716881722
 14
-0.4621265485071919
 24
0.4377811034950722
 14
-0.4712619018244625
 24
0.4229824048942623
 14
-0.478303776833534
 24
0.4065016210792922
 14
-0.4832521735344062
 24
0.3883387520501617
 14
-0.4861070919270796
 24
0.368493797806871
 14
-0.4868685320115535
 24
0.3469667583494201
 14
-0.4855364937878283
 24
0.3237576336778087
 14
-0.4821109772559035
 24
0.2988664237920372
 14
-0.4766670491821122
 24
0.272724025538122
 14
-0.4692797763327865
 24
0.2457613357620797
 14
-0.4599491587079262
 24
0.21797835446391
 14
-0.4486751963075315
 24
0.1893750816436128
 14
-0.4354578891316022
 24
0.1599515173011885
 14
-0.4202972371801385
 24
0.1297076614366372
 14
-0.4031932404531402
 24
0.0986435140499583
 14
-0.3841458989506075
 24
0.0667590751411526
  0
SPLINE
  5
77
100
AcDbEntity
  8
None
370
               5
390
0
  6
Continuous
 62
               7
100
AcDbSpline
210
0.0
220
0.0
230
1.0
 70
               9
 71
               2
 72
              17
 73
              14
 74
               0
 42
0.000001
 43
0.000001
 40
0.0
 40
0.0
 40
0.0
 40
1.0
 40
2.0
 40
3.0
 40
4.0
 40
5.0
 40
6.0
 40
7.0
 40
8.0
 40
9.0
 40
10.0
 40
11.0
 40
12.0
 40
12.0
 40
12.0
 10
-0.93577
 20
1.03417
 30
0.0
 10
-0.8805999999999999
 20
1.12317
 30
0.0
 10
-0.71412
 20
1.28965
 30
0.0
 10
-0.5361199999999999
 20
1.3999999999999999
 30
0.0
 10
-0.39428
 20
1.42465
 30
0.0
 10
-0.32662
 20
1.3569899999999999
 30
0.0
 10
-0.35127
 20
1.21515
 30
0.0
 10
-0.46162
 20
1.03715
 30
0.0
 10
-0.6280899999999999
 20
0.8706699999999999
 30
0.0
 10
-0.8060999999999999
 20
0.7603199999999999
 30
0.0
 10
-0.9479299999999999
 20
0.7356799999999999
 30
0.0
 10
-1.01559
 20
0.8033399999999999
 30
0.0
 10
-0.9909399999999999
 20
0.94517
 30
0.0
 10
-0.93577
 20
1.03417
 30
0.0
  0
WIPEOUT
  5
78
100
AcDbEntity
  8
None
370
               5
390
0
  6
Continuous
 62
               7
 92
        0
100
AcDbWipeout
 90
        0
 10
-1.7197899999999999
 20
-1.8961799999999998
 30
0.0
 11
1.8520799999999999
 21
0.0
 31
0.0
 12
0.0
 22
1.8520799999999999
 32
0.0
 13
1.0
 23
1.0
340
0
 70
               7
280
               1
281
              50
282
              50
283
               0
360
0
 71
               2
 91
       36
 14
-0.4523832663815818
 24
0.3095222668567234
 14
-0.25
 24
0.1190499330482485
 14
-0.2142887996198868
 24
0.1190499330482485
 14
-0.0714278000950283
 24
0.3690499330482485
 14
0.0
 24
0.4523832663815818
 14
0.0714278000950284
 24
0.5
 14
0.214283400285085
 24
0.5
 14
0.3690499330482485
 24
0.4047611334283617
 14
0.4761889335233899
 24
0.3095222668567234
 14
0.5
 24
0.238094466761695
 14
0.5
 24
0.1071443998099435
 14
0.4880944667616949
 24
0.0714278000950283
 14
0.4642887996198868
 24
0.0714278000950283
 14
0.4285721999049716
 24
0.0829607792319987
 14
0.3214278000950284
 24
0.1666666666666667
 14
0.2747235540581401
 24
0.1785721999049718
 14
0.214283400285085
 24
0.1666666666666667
 14
0.1904777331432768
 24
0.1070958057967258
 14
0.1428556001900566
 24
0.0238110664766101
 14
0.1190445337134465
 24
-0.0833333333333333
 14
0.1071390004751416
 24
-0.2142834002850848
 14
0.0714278000950284
 24
-0.2857165997149149
 14
0.0238110664766101
 24
-0.3452388665716383
 14
-0.02381106647661
 24
-0.3866193684938015
 14
-0.0714278000950283
 24
-0.3866193684938015
 14
-0.1309554662865535
 24
-0.3571443998099434
 14
-0.1785721999049717
 24
-0.29762213295322
 14
-0.261905533238305
 24
-0.1785721999049716
 14
-0.3424204138050191
 24
-0.1071443998099433
 14
-0.4727063625761306
 24
0.0238110664766101
 14
-0.5
 24
0.0714278000950283
 14
-0.5
 24
0.1547611334283617
 14
-0.5
 24
0.238094466761695
 14
-0.5
 24
0.2857165997149152
 14
-0.4880944667616949
 24
0.3214278000950283
 14
-0.4523832663815818
 24
0.3095222668567234
  0
POLYLINE
  5
79
100
AcDbEntity
  8
None
370
               5
390
0
  6
Continuous
 62
               7
100
AcDb2dPolyline
 66
               1
 10
0.0
 20
0.0
 30
0.0
 70
               1
 75
               5
  0
VERTEX
  5
7A
100
AcDbEntity
  8
None
370
               5
390
0
  6
Continuous
 62
               7
100
AcDbVertex
100
AcDb2dVertex
 10
-1.6315999999999999
 20
-1.5433999999999999
 30
0.0
  0
VERTEX
  5
7B
100
AcDbEntity
  8
None
370
               5
390
0
  6
Continuous
 62
               7
100
AcDbVertex
100
AcDb2dVertex
 10
-1.2567699999999999
 20
-1.1906299999999999
 30
0.0
  0
VERTEX
  5
7C
100
AcDbEntity
  8
None
370
               5
390
0
  6
Continuous
 62
               7
100
AcDbVertex
100
AcDb2dVertex
 10
-1.1906299999999999
 20
-1.1906299999999999
 30
0.0
  0
VERTEX
  5
7D
100
AcDbEntity
  8
None
370
               5
390
0
  6
Continuous
 62
               7
100
AcDbVertex
100
AcDb2dVertex
 10
-0.92604
 20
-1.6536499999999998
 30
0.0
  0
VERTEX
  5
7E
100
AcDbEntity
  8
None
370
               5
390
0
  6
Continuous
 62
               7
100
AcDbVertex
100
AcDb2dVertex
 10
-0.79375
 20
-1.8079899999999998
 30
0.0
  0
VERTEX
  5
7F
100
AcDbEntity
  8
None
370
               5
390
0
  6
Continuous
 62
               7
100
AcDbVertex
100
AcDb2dVertex
 10
-0.6614599999999999
 20
-1.8961799999999998
 30
0.0
  0
VERTEX
  5
80
100
AcDbEntity
  8
None
370
               5
390
0
  6
Continuous
 62
               7
100
AcDbVertex
100
AcDb2dVertex
 10
-0.39688
 20
-1.8961799999999998
 30
0.0
  0
VERTEX
  5
81
100
AcDbEntity
  8
None
370
               5
390
0
  6
Continuous
 62
               7
100
AcDbVertex
100
AcDb2dVertex
 10
-0.11024
 20
-1.7197899999999999
 30
0.0
  0
VERTEX
  5
82
100
AcDbEntity
  8
None
370
               5
390
0
  6
Continuous
 62
               7
100
AcDbVertex
100
AcDb2dVertex
 10
0.08819
 20
-1.5433999999999999
 30
0.0
  0
VERTEX
  5
83
100
AcDbEntity
  8
None
370
               5
390
0
  6
Continuous
 62
               7
100
AcDbVertex
100
AcDb2dVertex
 10
0.13229
 20
-1.4111099999999999
 30
0.0
  0
VERTEX
  5
84
100
AcDbEntity
  8
None
370
               5
390
0
  6
Continuous
 62
               7
100
AcDbVertex
100
AcDb2dVertex
 10
0.13229
 20
-1.16858
 30
0.0
  0
VERTEX
  5
85
100
AcDbEntity
  8
None
370
               5
390
0
  6
Continuous
 62
               7
100
AcDbVertex
100
AcDb2dVertex
 10
0.11024
 20
-1.1024299999999998
 30
0.0
  0
VERTEX
  5
86
100
AcDbEntity
  8
None
370
               5
390
0
  6
Continuous
 62
               7
100
AcDbVertex
100
AcDb2dVertex
 10
0.06615
 20
-1.1024299999999998
 30
0.0
  0
VERTEX
  5
87
100
AcDbEntity
  8
None
370
               5
390
0
  6
Continuous
 62
               7
100
AcDbVertex
100
AcDb2dVertex
 10
0.0
 20
-1.1237899999999998
 30
0.0
  0
VERTEX
  5
88
100
AcDbEntity
  8
None
370
               5
390
0
  6
Continuous
 62
               7
100
AcDbVertex
100
AcDb2dVertex
 10
-0.19844
 20
-1.2788199999999998
 30
0.0
  0
VERTEX
  5
89
100
AcDbEntity
  8
None
370
               5
390
0
  6
Continuous
 62
               7
100
AcDbVertex
100
AcDb2dVertex
 10
-0.28494
 20
-1.30087
 30
0.0
  0
VERTEX
  5
8A
100
AcDbEntity
  8
None
370
               5
390
0
  6
Continuous
 62
               7
100
AcDbVertex
100
AcDb2dVertex
 10
-0.39688
 20
-1.2788199999999998
 30
0.0
  0
VERTEX
  5
8B
100
AcDbEntity
  8
None
370
               5
390
0
  6
Continuous
 62
               7
100
AcDbVertex
100
AcDb2dVertex
 10
-0.44097
 20
-1.1684899999999998
 30
0.0
  0
VERTEX
  5
8C
100
AcDbEntity
  8
None
370
               5
390
0
  6
Continuous
 62
               7
100
AcDbVertex
100
AcDb2dVertex
 10
-0.5291699999999999
 20
-1.0142399999999998
 30
0.0
  0
VERTEX
  5
8D
100
AcDbEntity
  8
None
370
               5
390
0
  6
Continuous
 62
               7
100
AcDbVertex
100
AcDb2dVertex
 10
-0.57327
 20
-0.8158
 30
0.0
  0
VERTEX
  5
8E
100
AcDbEntity
  8
None
370
               5
390
0
  6
Continuous
 62
               7
100
AcDbVertex
100
AcDb2dVertex
 10
-0.59532
 20
-0.57327
 30
0.0
  0
VERTEX
  5
8F
100
AcDbEntity
  8
None
370
               5
390
0
  6
Continuous
 62
               7
100
AcDbVertex
100
AcDb2dVertex
 10
-0.6614599999999999
 20
-0.44097
 30
0.0
  0
VERTEX
  5
90
100
AcDbEntity
  8
None
370
               5
390
0
  6
Continuous
 62
               7
100
AcDbVertex
100
AcDb2dVertex
 10
-0.7496499999999999
 20
-0.33073
 30
0.0
  0
VERTEX
  5
91
100
AcDbEntity
  8
None
370
               5
390
0
  6
Continuous
 62
               7
100
AcDbVertex
100
AcDb2dVertex
 10
-0.8378499999999999
 20
-0.25409
 30
0.0
  0
VERTEX
  5
92
100
AcDbEntity
  8
None
370
               5
390
0
  6
Continuous
 62
               7
100
AcDbVertex
100
AcDb2dVertex
 10
-0.92604
 20
-0.25409
 30
0.0
  0
VERTEX
  5
93
100
AcDbEntity
  8
None
370
               5
390
0
  6
Continuous
 62
               7
100
AcDbVertex
100
AcDb2dVertex
 10
-1.0362899999999999
 20
-0.30868
 30
0.0
  0
VERTEX
  5
94
100
AcDbEntity
  8
None
370
               5
390
0
  6
Continuous
 62
               7
100
AcDbVertex
100
AcDb2dVertex
 10
-1.1244799999999999
 20
-0.41892
 30
0.0
  0
VERTEX
  5
95
100
AcDbEntity
  8
None
370
               5
390
0
  6
Continuous
 62
               7
100
AcDbVertex
100
AcDb2dVertex
 10
-1.2788199999999998
 20
-0.6394099999999999
 30
0.0
  0
VERTEX
  5
96
100
AcDbEntity
  8
None
370
               5
390
0
  6
Continuous
 62
               7
100
AcDbVertex
100
AcDb2dVertex
 10
-1.4279399999999998
 20
-0.7716999999999999
 30
0.0
  0
VERTEX
  5
97
100
AcDbEntity
  8
None
370
               5
390
0
  6
Continuous
 62
               7
100
AcDbVertex
100
AcDb2dVertex
 10
-1.6692399999999998
 20
-1.0142399999999998
 30
0.0
  0
VERTEX
  5
98
100
AcDbEntity
  8
None
370
               5
390
0
  6
Continuous
 62
               7
100
AcDbVertex
100
AcDb2dVertex
 10
-1.7197899999999999
 20
-1.1024299999999998
 30
0.0
  0
VERTEX
  5
99
100
AcDbEntity
  8
None
370
               5
390
0
  6
Continuous
 62
               7
100
AcDbVertex
100
AcDb2dVertex
 10
-1.7197899999999999
 20
-1.2567699999999999
 30
0.0
  0
VERTEX
  5
9A
100
AcDbEntity
  8
None
370
               5
390
0
  6
Continuous
 62
               7
100
AcDbVertex
100
AcDb2dVertex
 10
-1.7197899999999999
 20
-1.4111099999999999
 30
0.0
  0
VERTEX
  5
9B
100
AcDbEntity
  8
None
370
               5
390
0
  6
Continuous
 62
               7
100
AcDbVertex
100
AcDb2dVertex
 10
-1.7197899999999999
 20
-1.4993099999999999
 30
0.0
  0
VERTEX
  5
9C
100
AcDbEntity
  8
None
370
               5
390
0
  6
Continuous
 62
               7
100
AcDbVertex
100
AcDb2dVertex
 10
-1.6977399999999998
 20
-1.5654499999999998
 30
0.0
  0
SEQEND
  5
9D
100
AcDbEntity
  8
None
370
               5
390
0
  6
Continuous
 62
               7
  0
POLYLINE
  5
9E
100
AcDbEntity
  8
None
370
               5
390
0
  6
Continuous
 62
               7
100
AcDb2dPolyline
 66
               1
 10
0.0
 20
0.0
 30
0.0
 75
               5
  0
VERTEX
  5
9F
100
AcDbEntity
  8
None
370
               5
390
0
  6
Continuous
 62
               7
100
AcDbVertex
100
AcDb2dVertex
 10
-1.7197899999999999
 20
-1.1410199999999999
 30
0.0
  0
VERTEX
  5
A0
100
AcDbEntity
  8
None
370
               5
390
0
  6
Continuous
 62
               7
100
AcDbVertex
100
AcDb2dVertex
 10
-1.7197899999999999
 20
-1.4552099999999999
 30
0.0
  0
VERTEX
  5
A1
100
AcDbEntity
  8
None
370
               5
390
0
  6
Continuous
 62
               7
100
AcDbVertex
100
AcDb2dVertex
 10
-1.7197899999999999
 20
-1.4772599999999998
 30
0.0
  0
VERTEX
  5
A2
100
AcDbEntity
  8
None
370
               5
390
0
  6
Continuous
 62
               7
100
AcDbVertex
100
AcDb2dVertex
 10
-1.7142799999999998
 20
-1.5158399999999999
 30
0.0
  0
SEQEND
  5
A3
100
AcDbEntity
  8
None
370
               5
390
0
  6
Continuous
 62
               7
  0
ENDBLK
  5
A4
100
AcDbEntity
  8
None
390
0
100
AcDbBlockEnd
  0
BLOCK
  5
A5
100
AcDbEntity
  8
None
390
0
100
AcDbBlockBegin
  2
©2006_address
 70
               0
 10
0.0
 20
0.0
 30
0.0
  3
©2006_address
  1

  0
MTEXT
  5
A6
100
AcDbEntity
  8
None
390
0
 62
               7
100
AcDbMText
 10
0.0
 20
2.6946263104166697
 30
0.0
 40
1.1368815104166665
 41
36.738279999999996
 71
               2
 72
               1
  1
© 2010 IRONWOOD ELECTRONICS, INC.\PTele: (952) 229-8200\Pwww.ironwoodelectronics.com
  7
Arial
 73
               1
 44
0.9673603504928806
  0
ENDBLK
  5
A7
100
AcDbEntity
  8
None
390
0
100
AcDbBlockEnd
  0
BLOCK
  5
A8
100
AcDbEntity
  8
None
390
0
100
AcDbBlockBegin
  2
Group
 70
               0
 10
0.0
 20
0.0
 30
0.0
  3
Group
  1

  0
WIPEOUT
  5
A9
100
AcDbEntity
  8
Dimension
370
               5
390
0
  6
Continuous
 62
               7
 92
        0
100
AcDbWipeout
 90
        0
 10
-0.2032050000000005
 20
1.6933599999999984
 30
0.0
 11
21.268059999999998
 21
0.0
 31
0.0
 12
0.0
 22
21.268059999999998
 32
0.0
 13
1.0
 23
1.0
340
0
 70
               7
280
               1
281
              50
282
              50
283
               0
360
0
 71
               2
 91
        5
 14
-0.5
 24
0.3407640377166512
 14
0.5
 24
0.3407640377166512
 14
0.5
 24
0.5
 14
-0.5
 24
0.5
 14
-0.5
 24
0.3407640377166512
  0
POLYLINE
  5
AA
100
AcDbEntity
  8
Dimension
370
               5
390
0
  6
Continuous
 62
               7
100
AcDb2dPolyline
 66
               1
 10
0.0
 20
0.0
 30
0.0
 70
               1
 75
               5
  0
VERTEX
  5
AB
100
AcDbEntity
  8
Dimension
370
               5
390
0
  6
Continuous
 62
               7
100
AcDbVertex
100
AcDb2dVertex
 10
-0.2032050000000005
 20
5.0799999999999983
 30
0.0
  0
VERTEX
  5
AC
100
AcDbEntity
  8
Dimension
370
               5
390
0
  6
Continuous
 62
               7
100
AcDbVertex
100
AcDb2dVertex
 10
21.064854999999998
 20
5.0799999999999983
 30
0.0
  0
VERTEX
  5
AD
100
AcDbEntity
  8
Dimension
370
               5
390
0
  6
Continuous
 62
               7
100
AcDbVertex
100
AcDb2dVertex
 10
21.064854999999998
 20
1.6933599999999984
 30
0.0
  0
VERTEX
  5
AE
100
AcDbEntity
  8
Dimension
370
               5
390
0
  6
Continuous
 62
               7
100
AcDbVertex
100
AcDb2dVertex
 10
-0.2032050000000005
 20
1.6933599999999984
 30
0.0
  0
SEQEND
  5
AF
100
AcDbEntity
  8
Dimension
370
               5
390
0
  6
Continuous
 62
               7
  0
WIPEOUT
  5
B0
100
AcDbEntity
  8
Dimension
370
               5
390
0
  6
Continuous
 62
               7
 92
        0
100
AcDbWipeout
 90
        0
 10
21.064854999999998
 20
1.6933599999999984
 30
0.0
 11
14.863449999999997
 21
0.0
 31
0.0
 12
0.0
 22
14.863449999999997
 32
0.0
 13
1.0
 23
1.0
340
0
 70
               7
280
               1
281
              50
282
              50
283
               0
360
0
 71
               2
 91
        5
 14
-0.5
 24
0.2721498037131352
 14
0.5
 24
0.2721498037131352
 14
0.5
 24
0.5
 14
-0.5
 24
0.5
 14
-0.5
 24
0.2721498037131352
  0
POLYLINE
  5
B1
100
AcDbEntity
  8
Dimension
370
               5
390
0
  6
Continuous
 62
               7
100
AcDb2dPolyline
 66
               1
 10
0.0
 20
0.0
 30
0.0
 70
               1
 75
               5
  0
VERTEX
  5
B2
100
AcDbEntity
  8
Dimension
370
               5
390
0
  6
Continuous
 62
               7
100
AcDbVertex
100
AcDb2dVertex
 10
21.064854999999998
 20
5.0799999999999983
 30
0.0
  0
VERTEX
  5
B3
100
AcDbEntity
  8
Dimension
370
               5
390
0
  6
Continuous
 62
               7
100
AcDbVertex
100
AcDb2dVertex
 10
35.928304999999995
 20
5.0799999999999983
 30
0.0
  0
VERTEX
  5
B4
100
AcDbEntity
  8
Dimension
370
               5
390
0
  6
Continuous
 62
               7
100
AcDbVertex
100
AcDb2dVertex
 10
35.928304999999995
 20
1.6933599999999984
 30
0.0
  0
VERTEX
  5
B5
100
AcDbEntity
  8
Dimension
370
               5
390
0
  6
Continuous
 62
               7
100
AcDbVertex
100
AcDb2dVertex
 10
21.064854999999998
 20
1.6933599999999984
 30
0.0
  0
SEQEND
  5
B6
100
AcDbEntity
  8
Dimension
370
               5
390
0
  6
Continuous
 62
               7
  0
WIPEOUT
  5
B7
100
AcDbEntity
  8
Dimension
370
               5
390
0
  6
Continuous
 62
               7
 92
        0
100
AcDbWipeout
 90
        0
 10
35.928304999999995
 20
1.6933599999999984
 30
0.0
 11
14.884399999999999
 21
0.0
 31
0.0
 12
0.0
 22
14.884399999999999
 32
0.0
 13
1.0
 23
1.0
340
0
 70
               7
280
               1
281
              50
282
              50
283
               0
360
0
 71
               2
 91
        5
 14
-0.5
 24
0.2724705060331623
 14
0.5
 24
0.2724705060331623
 14
0.5
 24
0.5
 14
-0.5
 24
0.5
 14
-0.5
 24
0.2724705060331623
  0
POLYLINE
  5
B8
100
AcDbEntity
  8
Dimension
370
               5
390
0
  6
Continuous
 62
               7
100
AcDb2dPolyline
 66
               1
 10
0.0
 20
0.0
 30
0.0
 70
               1
 75
               5
  0
VERTEX
  5
B9
100
AcDbEntity
  8
Dimension
370
               5
390
0
  6
Continuous
 62
               7
100
AcDbVertex
100
AcDb2dVertex
 10
35.928304999999995
 20
5.0799999999999983
 30
0.0
  0
VERTEX
  5
BA
100
AcDbEntity
  8
Dimension
370
               5
390
0
  6
Continuous
 62
               7
100
AcDbVertex
100
AcDb2dVertex
 10
50.812704999999994
 20
5.0799999999999983
 30
0.0
  0
VERTEX
  5
BB
100
AcDbEntity
  8
Dimension
370
               5
390
0
  6
Continuous
 62
               7
100
AcDbVertex
100
AcDb2dVertex
 10
50.812704999999994
 20
1.6933599999999984
 30
0.0
  0
VERTEX
  5
BC
100
AcDbEntity
  8
Dimension
370
               5
390
0
  6
Continuous
 62
               7
100
AcDbVertex
100
AcDb2dVertex
 10
35.928304999999995
 20
1.6933599999999984
 30
0.0
  0
SEQEND
  5
BD
100
AcDbEntity
  8
Dimension
370
               5
390
0
  6
Continuous
 62
               7
  0
WIPEOUT
  5
BE
100
AcDbEntity
  8
Dimension
370
               5
390
0
  6
Continuous
 62
               7
 92
        0
100
AcDbWipeout
 90
        0
 10
-0.2032050000000005
 20
-1.6933499999999952
 30
0.0
 11
27.246199999999998
 21
0.0
 31
0.0
 12
0.0
 22
27.246199999999998
 32
0.0
 13
1.0
 23
1.0
340
0
 70
               7
280
               1
281
              50
282
              50
283
               0
360
0
 71
               2
 91
        5
 14
-0.5
 24
0.375699730604635
 14
0.5
 24
0.375699730604635
 14
0.5
 24
0.5
 14
-0.5
 24
0.5
 14
-0.5
 24
0.375699730604635
  0
POLYLINE
  5
BF
100
AcDbEntity
  8
Dimension
370
               5
390
0
  6
Continuous
 62
               7
100
AcDb2dPolyline
 66
               1
 10
0.0
 20
0.0
 30
0.0
 70
               1
 75
               5
  0
VERTEX
  5
C0
100
AcDbEntity
  8
Dimension
370
               5
390
0
  6
Continuous
 62
               7
100
AcDbVertex
100
AcDb2dVertex
 10
-0.2032050000000005
 20
1.6933599999999984
 30
0.0
  0
VERTEX
  5
C1
100
AcDbEntity
  8
Dimension
370
               5
390
0
  6
Continuous
 62
               7
100
AcDbVertex
100
AcDb2dVertex
 10
27.042994999999998
 20
1.6933599999999984
 30
0.0
  0
VERTEX
  5
C2
100
AcDbEntity
  8
Dimension
370
               5
390
0
  6
Continuous
 62
               7
100
AcDbVertex
100
AcDb2dVertex
 10
27.042994999999998
 20
-1.6933499999999952
 30
0.0
  0
VERTEX
  5
C3
100
AcDbEntity
  8
Dimension
370
               5
390
0
  6
Continuous
 62
               7
100
AcDbVertex
100
AcDb2dVertex
 10
-0.2032050000000005
 20
-1.6933499999999952
 30
0.0
  0
SEQEND
  5
C4
100
AcDbEntity
  8
Dimension
370
               5
390
0
  6
Continuous
 62
               7
  0
WIPEOUT
  5
C5
100
AcDbEntity
  8
Dimension
370
               5
390
0
  6
Continuous
 62
               7
 92
        0
100
AcDbWipeout
 90
        0
 10
27.042994999999998
 20
-1.6933499999999952
 30
0.0
 11
23.769709999999996
 21
0.0
 31
0.0
 12
0.0
 22
23.769709999999996
 32
0.0
 13
1.0
 23
1.0
340
0
 70
               7
280
               1
281
              50
282
              50
283
               0
360
0
 71
               2
 91
        5
 14
-0.5
 24
0.357519927672656
 14
0.5
 24
0.357519927672656
 14
0.5
 24
0.5
 14
-0.5
 24
0.5
 14
-0.5
 24
0.357519927672656
  0
POLYLINE
  5
C6
100
AcDbEntity
  8
Dimension
370
               5
390
0
  6
Continuous
 62
               7
100
AcDb2dPolyline
 66
               1
 10
0.0
 20
0.0
 30
0.0
 70
               1
 75
               5
  0
VERTEX
  5
C7
100
AcDbEntity
  8
Dimension
370
               5
390
0
  6
Continuous
 62
               7
100
AcDbVertex
100
AcDb2dVertex
 10
27.042994999999998
 20
1.6933599999999984
 30
0.0
  0
VERTEX
  5
C8
100
AcDbEntity
  8
Dimension
370
               5
390
0
  6
Continuous
 62
               7
100
AcDbVertex
100
AcDb2dVertex
 10
50.812704999999994
 20
1.6933599999999984
 30
0.0
  0
VERTEX
  5
C9
100
AcDbEntity
  8
Dimension
370
               5
390
0
  6
Continuous
 62
               7
100
AcDbVertex
100
AcDb2dVertex
 10
50.812704999999994
 20
-1.6933499999999952
 30
0.0
  0
VERTEX
  5
CA
100
AcDbEntity
  8
Dimension
370
               5
390
0
  6
Continuous
 62
               7
100
AcDbVertex
100
AcDb2dVertex
 10
27.042994999999998
 20
-1.6933499999999952
 30
0.0
  0
SEQEND
  5
CB
100
AcDbEntity
  8
Dimension
370
               5
390
0
  6
Continuous
 62
               7
  0
WIPEOUT
  5
CC
100
AcDbEntity
  8
Dimension
370
               5
390
0
  6
Continuous
 62
               7
 92
        0
100
AcDbWipeout
 90
        0
 10
27.042994999999998
 20
-5.0799999999999983
 30
0.0
 11
23.769709999999996
 21
0.0
 31
0.0
 12
0.0
 22
23.769709999999996
 32
0.0
 13
1.0
 23
1.0
340
0
 70
               7
280
               1
281
              50
282
              50
283
               0
360
0
 71
               2
 91
        5
 14
-0.5
 24
0.3575224518936073
 14
0.5
 24
0.3575224518936073
 14
0.5
 24
0.5
 14
-0.5
 24
0.5
 14
-0.5
 24
0.3575224518936073
  0
POLYLINE
  5
CD
100
AcDbEntity
  8
Dimension
370
               5
390
0
  6
Continuous
 62
               7
100
AcDb2dPolyline
 66
               1
 10
0.0
 20
0.0
 30
0.0
 70
               1
 75
               5
  0
VERTEX
  5
CE
100
AcDbEntity
  8
Dimension
370
               5
390
0
  6
Continuous
 62
               7
100
AcDbVertex
100
AcDb2dVertex
 10
27.042994999999998
 20
-1.6933499999999952
 30
0.0
  0
VERTEX
  5
CF
100
AcDbEntity
  8
Dimension
370
               5
390
0
  6
Continuous
 62
               7
100
AcDbVertex
100
AcDb2dVertex
 10
50.812704999999994
 20
-1.6933499999999952
 30
0.0
  0
VERTEX
  5
D0
100
AcDbEntity
  8
Dimension
370
               5
390
0
  6
Continuous
 62
               7
100
AcDbVertex
100
AcDb2dVertex
 10
50.812704999999994
 20
-5.0799999999999983
 30
0.0
  0
VERTEX
  5
D1
100
AcDbEntity
  8
Dimension
370
               5
390
0
  6
Continuous
 62
               7
100
AcDbVertex
100
AcDb2dVertex
 10
27.042994999999998
 20
-5.0799999999999983
 30
0.0
  0
SEQEND
  5
D2
100
AcDbEntity
  8
Dimension
370
               5
390
0
  6
Continuous
 62
               7
  0
WIPEOUT
  5
D3
100
AcDbEntity
  8
Dimension
370
               5
390
0
  6
Continuous
 62
               7
 92
        0
100
AcDbWipeout
 90
        0
 10
-0.2032050000000005
 20
-5.0799999999999983
 30
0.0
 11
27.246199999999998
 21
0.0
 31
0.0
 12
0.0
 22
27.246199999999998
 32
0.0
 13
1.0
 23
1.0
340
0
 70
               7
280
               1
281
              50
282
              50
283
               0
360
0
 71
               2
 91
        5
 14
-0.5
 24
0.3757019327465847
 14
0.5
 24
0.3757019327465847
 14
0.5
 24
0.5
 14
-0.5
 24
0.5
 14
-0.5
 24
0.3757019327465847
  0
POLYLINE
  5
D4
100
AcDbEntity
  8
Dimension
370
               5
390
0
  6
Continuous
 62
               7
100
AcDb2dPolyline
 66
               1
 10
0.0
 20
0.0
 30
0.0
 70
               1
 75
               5
  0
VERTEX
  5
D5
100
AcDbEntity
  8
Dimension
370
               5
390
0
  6
Continuous
 62
               7
100
AcDbVertex
100
AcDb2dVertex
 10
-0.2032050000000005
 20
-1.6933499999999952
 30
0.0
  0
VERTEX
  5
D6
100
AcDbEntity
  8
Dimension
370
               5
390
0
  6
Continuous
 62
               7
100
AcDbVertex
100
AcDb2dVertex
 10
27.042994999999998
 20
-1.6933499999999952
 30
0.0
  0
VERTEX
  5
D7
100
AcDbEntity
  8
Dimension
370
               5
390
0
  6
Continuous
 62
               7
100
AcDbVertex
100
AcDb2dVertex
 10
27.042994999999998
 20
-5.0799999999999983
 30
0.0
  0
VERTEX
  5
D8
100
AcDbEntity
  8
Dimension
370
               5
390
0
  6
Continuous
 62
               7
100
AcDbVertex
100
AcDb2dVertex
 10
-0.2032050000000005
 20
-5.0799999999999983
 30
0.0
  0
SEQEND
  5
D9
100
AcDbEntity
  8
Dimension
370
               5
390
0
  6
Continuous
 62
               7
  0
MTEXT
  5
DA
100
AcDbEntity
  8
None
390
0
 62
               7
100
AcDbMText
 10
1.066794999999999
 20
4.1211014739583396
 30
0.0
 40
1.263202473958333
 41
0.0
 71
               1
 72
               1
  1
Status: Released
  7
Arial
 73
               1
 44
0.9673603504928809
  0
MTEXT
  5
DB
100
AcDbEntity
  8
None
390
0
 62
               7
100
AcDbMText
 10
1.066794999999999
 20
0.7316014739583414
 30
0.0
 40
1.263202473958333
 41
0.0
 71
               1
 72
               1
  1
Drawing: Vinayak R
  7
Arial
 73
               1
 44
0.9673603504928809
  0
MTEXT
  5
DC
100
AcDbEntity
  8
None
390
0
 62
               7
100
AcDbMText
 10
37.198304999999998
 20
4.1182714739583366
 30
0.0
 40
1.263202473958333
 41
0.0
 71
               1
 72
               1
  1
Rev: A
  7
Arial
 73
               1
 44
0.9673603504928809
  0
MTEXT
  5
DD
100
AcDbEntity
  8
None
390
0
 62
               7
100
AcDbMText
 10
28.312994999999997
 20
0.4497614739583389
 30
0.0
 40
1.263202473958333
 41
0.0
 71
               1
 72
               1
  1
Date: 2/18/10
  7
Arial
 73
               1
 44
0.9673603504928809
  0
MTEXT
  5
DE
100
AcDbEntity
  8
None
390
0
 62
               7
100
AcDbMText
 10
28.312994999999997
 20
-2.8517709270833289
 30
0.0
 40
1.0082330729166664
 41
0.0
 71
               1
 72
               1
  1
Modified:  
  7
Arial
 73
               1
 44
0.9673603504928806
  0
MTEXT
  5
DF
100
AcDbEntity
  8
None
390
0
 62
               7
100
AcDbMText
 10
1.066794999999999
 20
-2.941590927083332
 30
0.0
 40
1.0082330729166664
 41
27.246189999999999
 71
               1
 72
               1
  1
File: CG-BGA-4008 Dwg
  7
Arial
 73
               1
 44
0.9673603504928806
  0
WIPEOUT
  5
E0
100
AcDbEntity
  8
Dimension
370
               5
390
0
  6
Continuous
 62
               7
 92
        0
100
AcDbWipeout
 90
        0
 10
-50.812704999999994
 20
-5.0799999999999983
 30
0.0
 11
50.609499999999997
 21
0.0
 31
0.0
 12
0.0
 22
50.609499999999997
 32
0.0
 13
1.0
 23
1.0
340
0
 70
               7
280
               1
281
              50
282
              50
283
               0
360
0
 71
               2
 91
        5
 14
-0.5
 24
0.3661642576986535
 14
0.5
 24
0.3661642576986535
 14
0.5
 24
0.5
 14
-0.5
 24
0.5
 14
-0.5
 24
0.3661642576986535
  0
POLYLINE
  5
E1
100
AcDbEntity
  8
Dimension
370
               5
390
0
  6
Continuous
 62
               7
100
AcDb2dPolyline
 66
               1
 10
0.0
 20
0.0
 30
0.0
 70
               1
 75
               5
  0
VERTEX
  5
E2
100
AcDbEntity
  8
Dimension
370
               5
390
0
  6
Continuous
 62
               7
100
AcDbVertex
100
AcDb2dVertex
 10
-50.812704999999994
 20
1.6933599999999984
 30
0.0
  0
VERTEX
  5
E3
100
AcDbEntity
  8
Dimension
370
               5
390
0
  6
Continuous
 62
               7
100
AcDbVertex
100
AcDb2dVertex
 10
-0.2032050000000005
 20
1.6933599999999984
 30
0.0
  0
VERTEX
  5
E4
100
AcDbEntity
  8
Dimension
370
               5
390
0
  6
Continuous
 62
               7
100
AcDbVertex
100
AcDb2dVertex
 10
-0.2032050000000005
 20
-5.0799999999999983
 30
0.0
  0
VERTEX
  5
E5
100
AcDbEntity
  8
Dimension
370
               5
390
0
  6
Continuous
 62
               7
100
AcDbVertex
100
AcDb2dVertex
 10
-50.812704999999994
 20
-5.0799999999999983
 30
0.0
  0
SEQEND
  5
E6
100
AcDbEntity
  8
Dimension
370
               5
390
0
  6
Continuous
 62
               7
  0
WIPEOUT
  5
E7
100
AcDbEntity
  8
Dimension
370
               5
390
0
  6
Continuous
 62
               7
 92
        0
100
AcDbWipeout
 90
        0
 10
-50.812704999999994
 20
1.6933599999999984
 30
0.0
 11
50.609499999999997
 21
0.0
 31
0.0
 12
0.0
 22
50.609499999999997
 32
0.0
 13
1.0
 23
1.0
340
0
 70
               7
280
               1
281
              50
282
              50
283
               0
360
0
 71
               2
 91
        5
 14
-0.5
 24
0.4330829192147719
 14
0.5
 24
0.4330829192147719
 14
0.5
 24
0.5
 14
-0.5
 24
0.5
 14
-0.5
 24
0.4330829192147719
  0
POLYLINE
  5
E8
100
AcDbEntity
  8
Dimension
370
               5
390
0
  6
Continuous
 62
               7
100
AcDb2dPolyline
 66
               1
 10
0.0
 20
0.0
 30
0.0
 70
               1
 75
               5
  0
VERTEX
  5
E9
100
AcDbEntity
  8
Dimension
370
               5
390
0
  6
Continuous
 62
               7
100
AcDbVertex
100
AcDb2dVertex
 10
-50.812704999999994
 20
5.0799999999999983
 30
0.0
  0
VERTEX
  5
EA
100
AcDbEntity
  8
Dimension
370
               5
390
0
  6
Continuous
 62
               7
100
AcDbVertex
100
AcDb2dVertex
 10
-0.2032050000000005
 20
5.0799999999999983
 30
0.0
  0
VERTEX
  5
EB
100
AcDbEntity
  8
Dimension
370
               5
390
0
  6
Continuous
 62
               7
100
AcDbVertex
100
AcDb2dVertex
 10
-0.2032050000000005
 20
1.6933599999999984
 30
0.0
  0
VERTEX
  5
EC
100
AcDbEntity
  8
Dimension
370
               5
390
0
  6
Continuous
 62
               7
100
AcDbVertex
100
AcDb2dVertex
 10
-50.812704999999994
 20
1.6933599999999984
 30
0.0
  0
SEQEND
  5
ED
100
AcDbEntity
  8
Dimension
370
               5
390
0
  6
Continuous
 62
               7
  0
MTEXT
  5
EE
100
AcDbEntity
  8
None
390
0
 62
               7
100
AcDbMText
 10
-24.311630635491586
 20
4.185412220833328
 30
0.0
 40
1.4735130208333329
 41
0.0
 71
               2
 72
               1
  1
CG-BGA-4008 Drawing
  7
Arial (bold)
 73
               1
 44
0.9925958378970426
  0
INSERT
  5
EF
100
AcDbEntity
  8
None
390
0
 62
               7
100
AcDbBlockReference
  2
IE i logo
 10
-45.398084999999995
 20
-1.6403999999999996
 30
0.0
  0
INSERT
  5
F0
100
AcDbEntity
  8
None
390
0
 62
               7
100
AcDbBlockReference
  2
©2006_address
 10
-20.44320500000001
 20
-1.5352499999999623
 30
0.0
  0
ENDBLK
  5
F1
100
AcDbEntity
  8
None
390
0
100
AcDbBlockEnd
  0
BLOCK
  5
F2
100
AcDbEntity
  8
None
390
0
100
AcDbBlockBegin
  2
CG-BGA-4008 title block
 70
               0
 10
0.0
 20
0.0
 30
0.0
  3
CG-BGA-4008 title block
  1

  0
INSERT
  5
F3
100
AcDbEntity
  8
None
390
0
 62
               7
100
AcDbBlockReference
  2
Group
 10
0.0
 20
0.0
 30
0.0
  0
ENDBLK
  5
F4
100
AcDbEntity
  8
None
390
0
100
AcDbBlockEnd
  0
BLOCK
  5
F5
100
AcDbEntity
  8
Dimension
390
0
100
AcDbBlockBegin
  2
*D6
 70
               1
 10
0.0
 20
0.0
 30
0.0
  3
*D6
  1

  0
LINE
  5
F6
100
AcDbEntity
  8
Dimension
370
              -2
390
0
  6
Continuous
 62
               0
100
AcDbLine
 10
-22.462499999999999
 20
76.604053824563238
 30
0.0
 11
-22.462499999999999
 21
82.836553191140268
 31
0.0
  0
LINE
  5
F7
100
AcDbEntity
  8
Dimension
370
              -2
390
0
  6
Continuous
 62
               0
100
AcDbLine
 10
-23.712499999999999
 20
77.854053824563238
 30
0.0
 11
-23.712499999999999
 21
82.836553191140268
 31
0.0
  0
LINE
  5
F8
100
AcDbEntity
  8
Dimension
370
              -2
390
0
  6
Continuous
 62
               0
100
AcDbLine
 10
-23.712499999999999
 20
81.5665544579862
 30
0.0
 11
-22.462499999999999
 21
81.5665544579862
 31
0.0
  0
LINE
  5
F9
100
AcDbEntity
  8
Dimension
370
              -2
390
0
  6
Continuous
 62
               0
100
AcDbLine
 10
-22.462499999999999
 20
81.5665544579862
 30
0.0
 11
-20.129173668839574
 21
81.5665544579862
 31
0.0
  0
SOLID
  5
FA
100
AcDbEntity
  8
Dimension
370
              -2
390
0
 62
               0
100
AcDbTrace
 10
-22.462499999999999
 20
81.5665544579862
 30
0.0
 11
-21.404167724999997
 21
81.850133736396245
 31
0.0
 12
-21.404167724999997
 22
81.282975179576155
 32
0.0
 13
-21.404167724999997
 23
81.282975179576155
 33
0.0
  0
LINE
  5
FB
100
AcDbEntity
  8
Dimension
370
              -2
390
0
  6
Continuous
 62
               0
100
AcDbLine
 10
-23.712499999999999
 20
81.5665544579862
 30
0.0
 11
-29.100000000000001
 21
81.5665544579862
 31
0.0
  0
SOLID
  5
FC
100
AcDbEntity
  8
Dimension
370
              -2
390
0
 62
               0
100
AcDbTrace
 10
-23.712499999999999
 20
81.5665544579862
 30
0.0
 11
-24.770832275
 21
81.282975179576155
 31
0.0
 12
-24.770832275
 22
81.850133736396245
 32
0.0
 13
-24.770832275
 23
81.850133736396245
 33
0.0
  0
WIPEOUT
  5
FD
100
AcDbEntity
  8
Dimension
370
              -2
390
0
  6
Continuous
 62
               0
 92
        0
100
AcDbWipeout
 90
        0
 10
-39.196472144229965
 20
50.892286016111214
 30
0.0
 11
3.8523212091904639
 21
0.0
 31
0.0
 12
0.0
 22
3.8523212091904639
 32
0.0
 13
1.0
 23
1.0
340
0
 70
               7
280
               1
281
              50
282
              50
283
               0
360
0
 71
               2
 91
        5
 14
-0.5
 24
-7.3045750516006613
 14
0.5
 24
-7.3045750516006613
 14
0.5
 24
-7.6205091167810046
 14
-0.5
 24
-7.6205091167810046
 14
-0.5
 24
-7.3045750516006613
  0
MTEXT
  5
FE
100
AcDbEntity
  8
Dimension
390
0
 62
               0
100
AcDbMText
 10
-39.196472144229965
 20
81.980517135902858
 30
0.0
 40
0.7579186197916666
 41
0.0
 71
               1
 72
               1
  1
1.25mm
  7
Helvetica
 73
               1
 44
0.9673603504928808
  0
WIPEOUT
  5
FF
100
AcDbEntity
  8
Dimension
370
              -2
390
0
  6
Continuous
 62
               0
 92
        0
100
AcDbWipeout
 90
        0
 10
-35.344150935039501
 20
50.892284878611214
 30
0.0
 11
4.4344027044173231
 21
0.0
 31
0.0
 12
0.0
 22
4.4344027044173231
 32
0.0
 13
1.0
 23
1.0
340
0
 70
               7
280
               1
281
              50
282
              50
283
               0
360
0
 71
               2
 91
        5
 14
-0.5
 24
-6.2801081688070566
 14
0.5
 24
-6.2801081688070566
 14
0.5
 24
-6.5545711756935514
 14
-0.5
 24
-6.5545711756935514
 14
-0.5
 24
-6.2801081688070566
  0
MTEXT
  5
100
100
AcDbEntity
  8
Dimension
390
0
 62
               0
100
AcDbMText
 10
-35.344150935039501
 20
81.980515998402865
 30
0.0
 40
0.7579186197916666
 41
0.0
 71
               1
 72
               1
  1
±0.13mm
  7
Helvetica
 73
               1
 44
0.9673603504928808
  0
WIPEOUT
  5
101
100
AcDbEntity
  8
Dimension
370
              -2
390
0
  6
Continuous
 62
               0
 92
        0
100
AcDbWipeout
 90
        0
 10
-30.909748230622174
 20
50.892283399861213
 30
0.0
 11
1.8097482306221728
 21
0.0
 31
0.0
 12
0.0
 22
1.8097482306221728
 32
0.0
 13
1.0
 23
1.0
340
0
 70
               7
280
               1
281
              50
282
              50
283
               0
360
0
 71
               2
 91
        5
 14
-0.5
 24
-16.113211435307605
 14
0.5
 24
-16.113211435307605
 14
0.5
 24
-16.785726040188074
 14
-0.5
 24
-16.785726040188074
 14
-0.5
 24
-16.113211435307605
  0
MTEXT
  5
102
100
AcDbEntity
  8
Dimension
390
0
 62
               0
100
AcDbMText
 10
-30.909748230622174
 20
81.980516717634629
 30
0.0
 40
0.7579202490234376
 41
0.0
 71
               1
 72
               1
  1
(x4)
  7
Helvetica
 73
               1
 44
0.9673603504928806
  0
POINT
  5
103
100
AcDbEntity
  8
Defpoints
370
               0
390
0
 62
               0
100
AcDbPoint
 10
-23.712499999999999
 20
77.219054457986203
 30
0.0
  0
POINT
  5
104
100
AcDbEntity
  8
Defpoints
370
               0
390
0
 62
               0
100
AcDbPoint
 10
-22.462499999999999
 20
75.969054457986203
 30
0.0
  0
POINT
  5
105
100
AcDbEntity
  8
Defpoints
370
               0
390
0
 62
               0
100
AcDbPoint
 10
-22.462499999999999
 20
81.5665544579862
 30
0.0
  0
ENDBLK
  5
106
100
AcDbEntity
  8
Dimension
390
0
100
AcDbBlockEnd
  0
BLOCK
  5
107
100
AcDbEntity
  8
Dimension
390
0
100
AcDbBlockBegin
  2
*D7
 70
               1
 10
0.0
 20
0.0
 30
0.0
  3
*D7
  1

  0
LINE
  5
108
100
AcDbEntity
  8
Dimension
370
              -2
390
0
  6
Continuous
 62
               0
100
AcDbLine
 10
-24.347499366577036
 20
77.219054457986203
 30
0.0
 11
-35.457498733154075
 21
77.219054457986203
 31
0.0
  0
LINE
  5
109
100
AcDbEntity
  8
Dimension
370
              -2
390
0
  6
Continuous
 62
               0
100
AcDbLine
 10
-23.097499366577036
 20
75.969054457986203
 30
0.0
 11
-35.457498733154075
 21
75.969054457986203
 31
0.0
  0
LINE
  5
10A
100
AcDbEntity
  8
Dimension
370
              -2
390
0
  6
Continuous
 62
               0
100
AcDbLine
 10
-34.1875
 20
75.969054457986203
 30
0.0
 11
-34.1875
 21
77.219054457986203
 31
0.0
  0
LINE
  5
10B
100
AcDbEntity
  8
Dimension
370
              -2
390
0
  6
Continuous
 62
               0
100
AcDbLine
 10
-34.1875
 20
77.219054457986203
 30
0.0
 11
-34.1875
 21
79.966554457986206
 31
0.0
  0
SOLID
  5
10C
100
AcDbEntity
  8
Dimension
370
              -2
390
0
 62
               0
100
AcDbTrace
 10
-34.1875
 20
77.219054457986203
 30
0.0
 11
-34.471079278410045
 21
78.277386732986201
 31
0.0
 12
-33.903920721589962
 22
78.277386732986201
 32
0.0
 13
-33.903920721589962
 23
78.277386732986201
 33
0.0
  0
LINE
  5
10D
100
AcDbEntity
  8
Dimension
370
              -2
390
0
  6
Continuous
 62
               0
100
AcDbLine
 10
-34.1875
 20
75.969054457986203
 30
0.0
 11
-34.1875
 21
73.635728126825768
 31
0.0
  0
SOLID
  5
10E
100
AcDbEntity
  8
Dimension
370
              -2
390
0
 62
               0
100
AcDbTrace
 10
-34.1875
 20
75.969054457986203
 30
0.0
 11
-33.903920721589962
 21
74.910722182986206
 31
0.0
 12
-34.471079278410045
 22
74.910722182986206
 32
0.0
 13
-34.471079278410045
 23
74.910722182986206
 33
0.0
  0
WIPEOUT
  5
10F
100
AcDbEntity
  8
Dimension
370
              -2
390
0
  6
Continuous
 62
               0
 92
        0
100
AcDbWipeout
 90
        0
 10
-39.235736072114982
 20
49.29228601611122
 30
0.0
 11
3.8523212091904639
 21
0.0
 31
0.0
 12
0.0
 22
3.8523212091904639
 32
0.0
 13
1.0
 23
1.0
340
0
 70
               7
280
               1
281
              50
282
              50
283
               0
360
0
 71
               2
 91
        5
 14
-0.5
 24
-7.3045750516006613
 14
0.5
 24
-7.3045750516006613
 14
0.5
 24
-7.6205091167810046
 14
-0.5
 24
-7.6205091167810046
 14
-0.5
 24
-7.3045750516006613
  0
MTEXT
  5
110
100
AcDbEntity
  8
Dimension
390
0
 62
               0
100
AcDbMText
 10
-39.235736072114982
 20
80.380517135902863
 30
0.0
 40
0.7579186197916666
 41
0.0
 71
               1
 72
               1
  1
1.25mm
  7
Helvetica
 73
               1
 44
0.9673603504928808
  0
WIPEOUT
  5
111
100
AcDbEntity
  8
Dimension
370
              -2
390
0
  6
Continuous
 62
               0
 92
        0
100
AcDbWipeout
 90
        0
 10
-35.383414862924518
 20
49.29228487861122
 30
0.0
 11
4.4344027044173231
 21
0.0
 31
0.0
 12
0.0
 22
4.4344027044173231
 32
0.0
 13
1.0
 23
1.0
340
0
 70
               7
280
               1
281
              50
282
              50
283
               0
360
0
 71
               2
 91
        5
 14
-0.5
 24
-6.2801081688070566
 14
0.5
 24
-6.2801081688070566
 14
0.5
 24
-6.5545711756935514
 14
-0.5
 24
-6.5545711756935514
 14
-0.5
 24
-6.2801081688070566
  0
MTEXT
  5
112
100
AcDbEntity
  8
Dimension
390
0
 62
               0
100
AcDbMText
 10
-35.383414862924518
 20
80.380515998402871
 30
0.0
 40
0.7579186197916666
 41
0.0
 71
               1
 72
               1
  1
±0.13mm
  7
Helvetica
 73
               1
 44
0.9673603504928808
  0
WIPEOUT
  5
113
100
AcDbEntity
  8
Dimension
370
              -2
390
0
  6
Continuous
 62
               0
 92
        0
100
AcDbWipeout
 90
        0
 10
-30.949012158507191
 20
49.292283399861219
 30
0.0
 11
1.8097482306221728
 21
0.0
 31
0.0
 12
0.0
 22
1.8097482306221728
 32
0.0
 13
1.0
 23
1.0
340
0
 70
               7
280
               1
281
              50
282
              50
283
               0
360
0
 71
               2
 91
        5
 14
-0.5
 24
-16.113211435307605
 14
0.5
 24
-16.113211435307605
 14
0.5
 24
-16.785726040188074
 14
-0.5
 24
-16.785726040188074
 14
-0.5
 24
-16.113211435307605
  0
MTEXT
  5
114
100
AcDbEntity
  8
Dimension
390
0
 62
               0
100
AcDbMText
 10
-30.949012158507191
 20
80.380516717634634
 30
0.0
 40
0.7579202490234376
 41
0.0
 71
               1
 72
               1
  1
(x4)
  7
Helvetica
 73
               1
 44
0.9673603504928806
  0
POINT
  5
115
100
AcDbEntity
  8
Defpoints
370
               0
390
0
 62
               0
100
AcDbPoint
 10
-22.462499999999999
 20
75.969054457986203
 30
0.0
  0
POINT
  5
116
100
AcDbEntity
  8
Defpoints
370
               0
390
0
 62
               0
100
AcDbPoint
 10
-23.712499999999999
 20
77.219054457986203
 30
0.0
  0
POINT
  5
117
100
AcDbEntity
  8
Defpoints
370
               0
390
0
 62
               0
100
AcDbPoint
 10
-34.1875
 20
77.219054457986203
 30
0.0
  0
ENDBLK
  5
118
100
AcDbEntity
  8
Dimension
390
0
100
AcDbBlockEnd
  0
BLOCK
  5
119
100
AcDbEntity
  8
Dimension
390
0
100
AcDbBlockBegin
  2
*D8
 70
               1
 10
0.0
 20
0.0
 30
0.0
  3
*D8
  1

  0
LINE
  5
11A
100
AcDbEntity
  8
Dimension
370
              -2
390
0
  6
Continuous
 62
               0
100
AcDbLine
 10
-23.097499366577036
 20
54.24405445798601
 30
0.0
 11
-34.065338733154071
 21
54.24405445798601
 31
0.0
  0
LINE
  5
11B
100
AcDbEntity
  8
Dimension
370
              -2
390
0
  6
Continuous
 62
               0
100
AcDbLine
 10
-23.097499366577036
 20
59.324054457986037
 30
0.0
 11
-34.065338733154071
 21
59.324054457986037
 31
0.0
  0
LINE
  5
11C
100
AcDbEntity
  8
Dimension
370
              -2
390
0
  6
Continuous
 62
               0
100
AcDbLine
 10
-32.795339999999996
 20
59.324054457986037
 30
0.0
 11
-32.795339999999996
 21
54.24405445798601
 31
0.0
  0
LINE
  5
11D
100
AcDbEntity
  8
Dimension
370
              -2
390
0
  6
Continuous
 62
               0
100
AcDbLine
 10
-32.795339999999996
 20
54.24405445798601
 30
0.0
 11
-32.795339999999996
 21
51.910728126825582
 31
0.0
  0
SOLID
  5
11E
100
AcDbEntity
  8
Dimension
370
              -2
390
0
 62
               0
100
AcDbTrace
 10
-32.795339999999996
 20
54.24405445798601
 30
0.0
 11
-32.511760721589958
 21
53.185722182986005
 31
0.0
 12
-33.078919278410041
 22
53.185722182986005
 32
0.0
 13
-33.078919278410041
 23
53.185722182986005
 33
0.0
  0
LINE
  5
11F
100
AcDbEntity
  8
Dimension
370
              -2
390
0
  6
Continuous
 62
               0
100
AcDbLine
 10
-32.795339999999996
 20
59.324054457986037
 30
0.0
 11
-32.795339999999996
 21
61.657380789146465
 31
0.0
  0
SOLID
  5
120
100
AcDbEntity
  8
Dimension
370
              -2
390
0
 62
               0
100
AcDbTrace
 10
-32.795339999999996
 20
59.324054457986037
 30
0.0
 11
-33.078919278410041
 21
60.382386732986035
 31
0.0
 12
-32.511760721589958
 22
60.382386732986035
 32
0.0
 13
-32.511760721589958
 23
60.382386732986035
 33
0.0
  0
WIPEOUT
  5
121
100
AcDbEntity
  8
Dimension
370
              -2
390
0
  6
Continuous
 62
               0
 92
        0
100
AcDbWipeout
 90
        0
 10
-35.017833022555251
 20
26.109784707986034
 30
0.0
 11
4.444986045110511
 21
0.0
 31
0.0
 12
0.0
 22
4.444986045110511
 32
0.0
 13
1.0
 23
1.0
340
0
 70
               7
280
               1
281
              50
282
              50
283
               0
360
0
 71
               2
 91
        5
 14
-0.5
 24
-6.2639649922123652
 14
0.5
 24
-6.2639649922123652
 14
0.5
 24
-6.5377745132430976
 14
-0.5
 24
-6.5377745132430976
 14
-0.5
 24
-6.2639649922123652
  0
MTEXT
  5
122
100
AcDbEntity
  8
Dimension
390
0
 62
               0
100
AcDbMText
 10
-35.017833022555251
 20
57.198015827777688
 30
0.0
 40
0.7579186197916666
 41
0.0
 71
               1
 72
               1
  1
5.080mm
  7
Helvetica
 73
               1
 44
0.9673603504928808
  0
POINT
  5
123
100
AcDbEntity
  8
Defpoints
370
               0
390
0
 62
               0
100
AcDbPoint
 10
-22.462499999999999
 20
59.324054457986037
 30
0.0
  0
POINT
  5
124
100
AcDbEntity
  8
Defpoints
370
               0
390
0
 62
               0
100
AcDbPoint
 10
-22.462499999999999
 20
54.24405445798601
 30
0.0
  0
POINT
  5
125
100
AcDbEntity
  8
Defpoints
370
               0
390
0
 62
               0
100
AcDbPoint
 10
-32.795339999999996
 20
54.24405445798601
 30
0.0
  0
ENDBLK
  5
126
100
AcDbEntity
  8
Dimension
390
0
100
AcDbBlockEnd
  0
BLOCK
  5
127
100
AcDbEntity
  8
Dimension
390
0
100
AcDbBlockBegin
  2
*D9
 70
               1
 10
0.0
 20
0.0
 30
0.0
  3
*D9
  1

  0
LINE
  5
128
100
AcDbEntity
  8
Dimension
370
              -2
390
0
  6
Continuous
 62
               0
100
AcDbLine
 10
-23.712499999999999
 20
52.35905509140899
 30
0.0
 11
-23.712499999999999
 21
46.389265724831951
 31
0.0
  0
LINE
  5
129
100
AcDbEntity
  8
Dimension
370
              -2
390
0
  6
Continuous
 62
               0
100
AcDbLine
 10
0.5124999999999949
 20
52.35905509140899
 30
0.0
 11
0.5124999999999949
 21
46.389265724831951
 31
0.0
  0
LINE
  5
12A
100
AcDbEntity
  8
Dimension
370
              -2
390
0
  6
Continuous
 62
               0
100
AcDbLine
 10
-23.712499999999999
 20
47.659264457986026
 30
0.0
 11
0.5124999999999949
 21
47.659264457986026
 31
0.0
  0
SOLID
  5
12B
100
AcDbEntity
  8
Dimension
370
              -2
390
0
 62
               0
100
AcDbTrace
 10
-23.712499999999999
 20
47.659264457986026
 30
0.0
 11
-22.654167724999997
 21
47.942843736396071
 31
0.0
 12
-22.654167724999997
 22
47.375685179575981
 32
0.0
 13
-22.654167724999997
 23
47.375685179575981
 33
0.0
  0
SOLID
  5
12C
100
AcDbEntity
  8
Dimension
370
              -2
390
0
 62
               0
100
AcDbTrace
 10
0.5124999999999949
 20
47.659264457986026
 30
0.0
 11
-0.5458322750000049
 21
47.375685179575981
 31
0.0
 12
-0.5458322750000049
 22
47.942843736396071
 32
0.0
 13
-0.5458322750000049
 23
47.942843736396071
 33
0.0
  0
WIPEOUT
  5
12D
100
AcDbEntity
  8
Dimension
370
              -2
390
0
  6
Continuous
 62
               0
 92
        0
100
AcDbWipeout
 90
        0
 10
-14.297293557932427
 20
16.98499339986104
 30
0.0
 11
7.1437433048296937
 21
0.0
 31
0.0
 12
0.0
 22
7.1437433048296937
 32
0.0
 13
1.0
 23
1.0
340
0
 70
               7
280
               1
281
              50
282
              50
283
               0
360
0
 71
               2
 91
        5
 14
-0.5
 24
-3.7086800598886791
 14
0.4999999999999999
 24
-3.7086800598886791
 14
0.4999999999999999
 24
-3.8790504195609206
 14
-0.5
 24
-3.8790504195609206
 14
-0.5
 24
-3.7086800598886791
  0
MTEXT
  5
12E
100
AcDbEntity
  8
Dimension
390
0
 62
               0
100
AcDbMText
 10
-14.297293557932427
 20
48.073226717634469
 30
0.0
 40
0.7579202490234376
 41
0.0
 71
               1
 72
               1
  1
24.225mm (x4)
  7
Helvetica
 73
               1
 44
0.9673603504928806
  0
POINT
  5
12F
100
AcDbEntity
  8
Defpoints
370
               0
390
0
 62
               0
100
AcDbPoint
 10
0.5124999999999949
 20
52.994054457986024
 30
0.0
  0
POINT
  5
130
100
AcDbEntity
  8
Defpoints
370
               0
390
0
 62
               0
100
AcDbPoint
 10
-23.712499999999999
 20
52.994054457986024
 30
0.0
  0
POINT
  5
131
100
AcDbEntity
  8
Defpoints
370
               0
390
0
 62
               0
100
AcDbPoint
 10
-23.712499999999999
 20
47.659264457986026
 30
0.0
  0
ENDBLK
  5
132
100
AcDbEntity
  8
Dimension
390
0
100
AcDbBlockEnd
  0
BLOCK
  5
133
100
AcDbEntity
  8
Dimension
390
0
100
AcDbBlockBegin
  2
*D10
 70
               1
 10
0.0
 20
0.0
 30
0.0
  3
*D10
  1

  0
LINE
  5
134
100
AcDbEntity
  8
Dimension
370
              -2
390
0
  6
Continuous
 62
               0
100
AcDbLine
 10
-22.462499999999999
 20
53.609055091408969
 30
0.0
 11
-22.462499999999999
 21
49.289265724831935
 31
0.0
  0
LINE
  5
135
100
AcDbEntity
  8
Dimension
370
              -2
390
0
  6
Continuous
 62
               0
100
AcDbLine
 10
-0.7375000000000052
 20
53.609055091408969
 30
0.0
 11
-0.7375000000000052
 21
49.289265724831935
 31
0.0
  0
LINE
  5
136
100
AcDbEntity
  8
Dimension
370
              -2
390
0
  6
Continuous
 62
               0
100
AcDbLine
 10
-22.462499999999999
 20
50.559264457986004
 30
0.0
 11
-0.7375000000000052
 21
50.559264457986004
 31
0.0
  0
SOLID
  5
137
100
AcDbEntity
  8
Dimension
370
              -2
390
0
 62
               0
100
AcDbTrace
 10
-22.462499999999999
 20
50.559264457986004
 30
0.0
 11
-21.404167724999997
 21
50.842843736396048
 31
0.0
 12
-21.404167724999997
 22
50.275685179575966
 32
0.0
 13
-21.404167724999997
 23
50.275685179575966
 33
0.0
  0
SOLID
  5
138
100
AcDbEntity
  8
Dimension
370
              -2
390
0
 62
               0
100
AcDbTrace
 10
-0.7375000000000052
 20
50.559264457986004
 30
0.0
 11
-1.7958322750000053
 21
50.275685179575966
 31
0.0
 12
-1.7958322750000049
 22
50.842843736396048
 32
0.0
 13
-1.7958322750000049
 23
50.842843736396048
 33
0.0
  0
WIPEOUT
  5
139
100
AcDbEntity
  8
Dimension
370
              -2
390
0
  6
Continuous
 62
               0
 92
        0
100
AcDbWipeout
 90
        0
 10
-14.930215497183184
 20
19.884994707986021
 30
0.0
 11
6.8473954108702673
 21
0.0
 31
0.0
 12
0.0
 22
6.8473954108702673
 32
0.0
 13
1.0
 23
1.0
340
0
 70
               7
280
               1
281
              50
282
              50
283
               0
360
0
 71
               2
 91
        5
 14
-0.5
 24
-3.8908271971953781
 14
0.5000000000000002
 24
-3.8908271971953781
 14
0.5000000000000002
 24
-4.0685706203468843
 14
-0.5
 24
-4.0685706203468843
 14
-0.5
 24
-3.8908271971953781
  0
MTEXT
  5
13A
100
AcDbEntity
  8
Dimension
390
0
 62
               0
100
AcDbMText
 10
-14.930215497183184
 20
50.973225827777675
 30
0.0
 40
0.7579186197916666
 41
0.0
 71
               1
 72
               1
  1
21.725mm(x4)
  7
Helvetica
 73
               1
 44
0.9673603504928808
  0
POINT
  5
13B
100
AcDbEntity
  8
Defpoints
370
               0
390
0
 62
               0
100
AcDbPoint
 10
-0.7375000000000052
 20
54.24405445798601
 30
0.0
  0
POINT
  5
13C
100
AcDbEntity
  8
Defpoints
370
               0
390
0
 62
               0
100
AcDbPoint
 10
-22.462499999999999
 20
54.24405445798601
 30
0.0
  0
POINT
  5
13D
100
AcDbEntity
  8
Defpoints
370
               0
390
0
 62
               0
100
AcDbPoint
 10
-22.462499999999999
 20
50.559264457986004
 30
0.0
  0
ENDBLK
  5
13E
100
AcDbEntity
  8
Dimension
390
0
100
AcDbBlockEnd
  0
BLOCK
  5
13F
100
AcDbEntity
  8
Dimension
390
0
100
AcDbBlockBegin
  2
*D11
 70
               1
 10
0.0
 20
0.0
 30
0.0
  3
*D11
  1

  0
LINE
  5
140
100
AcDbEntity
  8
Dimension
370
              -2
390
0
  6
Continuous
 62
               0
100
AcDbLine
 10
-8.4249999999999901
 20
74.141553824563232
 30
0.0
 11
-8.4249999999999901
 21
81.637803191140279
 31
0.0
  0
LINE
  5
141
100
AcDbEntity
  8
Dimension
370
              -2
390
0
  6
Continuous
 62
               0
100
AcDbLine
 10
-7.6249999999999938
 20
74.141553824563232
 30
0.0
 11
-7.6249999999999938
 21
81.637803191140279
 31
0.0
  0
LINE
  5
142
100
AcDbEntity
  8
Dimension
370
              -2
390
0
  6
Continuous
 62
               0
100
AcDbLine
 10
-7.6249999999999938
 20
80.367804457986196
 30
0.0
 11
-8.4249999999999901
 21
80.367804457986196
 31
0.0
  0
LINE
  5
143
100
AcDbEntity
  8
Dimension
370
              -2
390
0
  6
Continuous
 62
               0
100
AcDbLine
 10
-8.4249999999999901
 20
80.367804457986196
 30
0.0
 11
-10.758326331160418
 21
80.367804457986196
 31
0.0
  0
SOLID
  5
144
100
AcDbEntity
  8
Dimension
370
              -2
390
0
 62
               0
100
AcDbTrace
 10
-8.4249999999999901
 20
80.367804457986196
 30
0.0
 11
-9.4833322749999915
 21
80.084225179576151
 31
0.0
 12
-9.4833322749999915
 22
80.651383736396241
 32
0.0
 13
-9.4833322749999915
 23
80.651383736396241
 33
0.0
  0
LINE
  5
145
100
AcDbEntity
  8
Dimension
370
              -2
390
0
  6
Continuous
 62
               0
100
AcDbLine
 10
-7.6249999999999938
 20
80.367804457986196
 30
0.0
 11
-5.1951599999999942
 21
80.367804457986196
 31
0.0
  0
SOLID
  5
146
100
AcDbEntity
  8
Dimension
370
              -2
390
0
 62
               0
100
AcDbTrace
 10
-7.6249999999999938
 20
80.367804457986196
 30
0.0
 11
-6.5666677249999932
 21
80.651383736396241
 31
0.0
 12
-6.5666677249999932
 22
80.084225179576151
 32
0.0
 13
-6.5666677249999932
 23
80.084225179576151
 33
0.0
  0
WIPEOUT
  5
147
100
AcDbEntity
  8
Dimension
370
              -2
390
0
  6
Continuous
 62
               0
 92
        0
100
AcDbWipeout
 90
        0
 10
-5.1951599999999942
 20
49.69353470798621
 30
0.0
 11
5.852564974348164
 21
0.0
 31
0.0
 12
0.0
 22
5.852564974348164
 32
0.0
 13
1.0
 23
1.0
340
0
 70
               7
280
               1
281
              50
282
              50
283
               0
360
0
 71
               2
 91
        5
 14
-0.5
 24
-4.6371885885553281
 14
0.5000000000000002
 24
-4.6371885885553281
 14
0.5000000000000002
 24
-4.8451451862752082
 14
-0.5
 24
-4.8451451862752082
 14
-0.5
 24
-4.6371885885553281
  0
MTEXT
  5
148
100
AcDbEntity
  8
Dimension
390
0
 62
               0
100
AcDbMText
 10
-5.1951599999999942
 20
80.781765827777861
 30
0.0
 40
0.7579186197916666
 41
0.0
 71
               1
 72
               1
  1
0.80mm typ.
  7
Helvetica
 73
               1
 44
0.9673603504928808
  0
POINT
  5
149
100
AcDbEntity
  8
Defpoints
370
               0
390
0
 62
               0
100
AcDbPoint
 10
-7.6249999999999938
 20
73.506554457986198
 30
0.0
  0
POINT
  5
14A
100
AcDbEntity
  8
Defpoints
370
               0
390
0
 62
               0
100
AcDbPoint
 10
-8.4249999999999901
 20
73.506554457986198
 30
0.0
  0
POINT
  5
14B
100
AcDbEntity
  8
Defpoints
370
               0
390
0
 62
               0
100
AcDbPoint
 10
-8.4249999999999901
 20
80.367804457986196
 30
0.0
  0
ENDBLK
  5
14C
100
AcDbEntity
  8
Dimension
390
0
100
AcDbBlockEnd
  0
BLOCK
  5
14D
100
AcDbEntity
  8
Dimension
390
0
100
AcDbBlockBegin
  2
*D12
 70
               1
 10
0.0
 20
0.0
 30
0.0
  3
*D12
  1

  0
LINE
  5
14E
100
AcDbEntity
  8
Dimension
370
              -2
390
0
  6
Continuous
 62
               0
100
AcDbLine
 10
-22.462499999999999
 20
76.563843824563236
 30
0.0
 11
-22.462499999999999
 21
81.637803191140279
 31
0.0
  0
LINE
  5
14F
100
AcDbEntity
  8
Dimension
370
              -2
390
0
  6
Continuous
 62
               0
100
AcDbLine
 10
-19.624999999999993
 20
74.141553824563232
 30
0.0
 11
-19.624999999999993
 21
81.637803191140279
 31
0.0
  0
LINE
  5
150
100
AcDbEntity
  8
Dimension
370
              -2
390
0
  6
Continuous
 62
               0
100
AcDbLine
 10
-19.624999999999993
 20
80.36780445798621
 30
0.0
 11
-22.462499999999999
 21
80.36780445798621
 31
0.0
  0
LINE
  5
151
100
AcDbEntity
  8
Dimension
370
              -2
390
0
  6
Continuous
 62
               0
100
AcDbLine
 10
-22.462499999999999
 20
80.36780445798621
 30
0.0
 11
-24.795826331160423
 21
80.36780445798621
 31
0.0
  0
SOLID
  5
152
100
AcDbEntity
  8
Dimension
370
              -2
390
0
 62
               0
100
AcDbTrace
 10
-22.462499999999999
 20
80.36780445798621
 30
0.0
 11
-23.520832275
 21
80.084225179576151
 31
0.0
 12
-23.520832275
 22
80.651383736396241
 32
0.0
 13
-23.520832275
 23
80.651383736396241
 33
0.0
  0
LINE
  5
153
100
AcDbEntity
  8
Dimension
370
              -2
390
0
  6
Continuous
 62
               0
100
AcDbLine
 10
-19.624999999999993
 20
80.36780445798621
 30
0.0
 11
-17.645339999999994
 21
80.36780445798621
 31
0.0
  0
SOLID
  5
154
100
AcDbEntity
  8
Dimension
370
              -2
390
0
 62
               0
100
AcDbTrace
 10
-19.624999999999993
 20
80.36780445798621
 30
0.0
 11
-18.566667724999995
 21
80.651383736396241
 31
0.0
 12
-18.566667724999995
 22
80.084225179576151
 32
0.0
 13
-18.566667724999995
 23
80.084225179576151
 33
0.0
  0
WIPEOUT
  5
155
100
AcDbEntity
  8
Dimension
370
              -2
390
0
  6
Continuous
 62
               0
 92
        0
100
AcDbWipeout
 90
        0
 10
-17.645339999999994
 20
49.677659757986213
 30
0.0
 11
5.5562327806779876
 21
0.0
 31
0.0
 12
0.0
 22
5.5562327806779876
 32
0.0
 13
1.0
 23
1.0
340
0
 70
               7
280
               1
281
              50
282
              50
283
               0
360
0
 71
               2
 91
        5
 14
-0.5
 24
-4.9111717753357471
 14
0.5
 24
-4.9111717753357471
 14
0.5
 24
-5.1359336687436077
 14
-0.5
 24
-5.1359336687436077
 14
-0.5
 24
-4.9111717753357471
  0
MTEXT
  5
156
100
AcDbEntity
  8
Dimension
390
0
 62
               0
100
AcDbMText
 10
-17.645339999999994
 20
80.765890877777863
 30
0.0
 40
0.7579186197916666
 41
0.0
 71
               1
 72
               1
  1
2.8375mm*
  7
Helvetica (bold)
 73
               1
 44
0.9925958378970429
  0
POINT
  5
157
100
AcDbEntity
  8
Defpoints
370
               0
390
0
 62
               0
100
AcDbPoint
 10
-19.624999999999993
 20
73.506554457986198
 30
0.0
  0
POINT
  5
158
100
AcDbEntity
  8
Defpoints
370
               0
390
0
 62
               0
100
AcDbPoint
 10
-22.462499999999999
 20
75.928844457986202
 30
0.0
  0
POINT
  5
159
100
AcDbEntity
  8
Defpoints
370
               0
390
0
 62
               0
100
AcDbPoint
 10
-22.462499999999999
 20
80.36780445798621
 30
0.0
  0
ENDBLK
  5
15A
100
AcDbEntity
  8
Dimension
390
0
100
AcDbBlockEnd
  0
BLOCK
  5
15B
100
AcDbEntity
  8
Dimension
390
0
100
AcDbBlockBegin
  2
*D13
 70
               1
 10
0.0
 20
0.0
 30
0.0
  3
*D13
  1

  0
LINE
  5
15C
100
AcDbEntity
  8
Dimension
370
              -2
390
0
  6
Continuous
 62
               0
100
AcDbLine
 10
-0.1025006334229675
 20
75.969054457986203
 30
0.0
 11
9.2018117557093184
 21
75.969054457986203
 31
0.0
  0
LINE
  5
15D
100
AcDbEntity
  8
Dimension
370
              -2
390
0
  6
Continuous
 62
               0
100
AcDbLine
 10
-0.1025006334229675
 20
73.429054457986197
 30
0.0
 11
9.2018117557093184
 21
73.429054457986197
 31
0.0
  0
LINE
  5
15E
100
AcDbEntity
  8
Dimension
370
              -2
390
0
  6
Continuous
 62
               0
100
AcDbLine
 10
7.9318130225552439
 20
73.429054457986197
 30
0.0
 11
7.9318130225552439
 21
75.969054457986203
 31
0.0
  0
LINE
  5
15F
100
AcDbEntity
  8
Dimension
370
              -2
390
0
  6
Continuous
 62
               0
100
AcDbLine
 10
7.9318130225552439
 20
75.969054457986203
 30
0.0
 11
7.9318130225552439
 21
78.302380789146639
 31
0.0
  0
SOLID
  5
160
100
AcDbEntity
  8
Dimension
370
              -2
390
0
 62
               0
100
AcDbTrace
 10
7.9318130225552439
 20
75.969054457986203
 30
0.0
 11
7.6482337441452009
 21
77.027386732986201
 31
0.0
 12
8.2153923009652878
 22
77.027386732986201
 32
0.0
 13
8.2153923009652878
 23
77.027386732986201
 33
0.0
  0
LINE
  5
161
100
AcDbEntity
  8
Dimension
370
              -2
390
0
  6
Continuous
 62
               0
100
AcDbLine
 10
7.9318130225552439
 20
73.429054457986197
 30
0.0
 11
7.9318130225552439
 21
71.095728126825776
 31
0.0
  0
SOLID
  5
162
100
AcDbEntity
  8
Dimension
370
              -2
390
0
 62
               0
100
AcDbTrace
 10
7.9318130225552439
 20
73.429054457986197
 30
0.0
 11
8.2153923009652878
 21
72.370722182986199
 31
0.0
 12
7.6482337441452009
 22
72.370722182986199
 32
0.0
 13
7.6482337441452009
 23
72.370722182986199
 33
0.0
  0
WIPEOUT
  5
163
100
AcDbEntity
  8
Dimension
370
              -2
390
0
  6
Continuous
 62
               0
 92
        0
100
AcDbWipeout
 90
        0
 10
5.7093199999999866
 20
43.938489184745976
 30
0.0
 11
4.4449860451105128
 21
0.0
 31
0.0
 12
0.0
 22
4.4449860451105128
 32
0.0
 13
1.0
 23
1.0
340
0
 70
               7
280
               1
281
              50
282
              50
283
               0
360
0
 71
               2
 91
        5
 14
-0.5
 24
-6.2639649922123626
 14
0.4999999999999998
 24
-6.2639649922123626
 14
0.4999999999999998
 24
-6.537774513243094
 14
-0.5
 24
-6.537774513243094
 14
-0.5
 24
-6.2639649922123626
  0
MTEXT
  5
164
100
AcDbEntity
  8
Dimension
390
0
 62
               0
100
AcDbMText
 10
5.7093199999999866
 20
75.026720304537633
 30
0.0
 40
0.7579186197916666
 41
0.0
 71
               1
 72
               1
  1
2.540mm
  7
Helvetica
 73
               1
 44
0.9673603504928808
  0
POINT
  5
165
100
AcDbEntity
  8
Defpoints
370
               0
390
0
 62
               0
100
AcDbPoint
 10
-0.7375000000000052
 20
73.429054457986197
 30
0.0
  0
POINT
  5
166
100
AcDbEntity
  8
Defpoints
370
               0
390
0
 62
               0
100
AcDbPoint
 10
-0.7375000000000052
 20
75.969054457986203
 30
0.0
  0
POINT
  5
167
100
AcDbEntity
  8
Defpoints
370
               0
390
0
 62
               0
100
AcDbPoint
 10
7.9318130225552439
 20
75.969054457986203
 30
0.0
  0
ENDBLK
  5
168
100
AcDbEntity
  8
Dimension
390
0
100
AcDbBlockEnd
  0
BLOCK
  5
169
100
AcDbEntity
  8
Dimension
390
0
100
AcDbBlockBegin
  2
*D14
 70
               1
 10
0.0
 20
0.0
 30
0.0
  3
*D14
  1

  0
LINE
  5
16A
100
AcDbEntity
  8
Dimension
370
              -2
390
0
  6
Continuous
 62
               0
100
AcDbLine
 10
-0.0157199999999955
 20
53.887594457986012
 30
0.0
 11
2.7346648232591191
 21
52.529266389839904
 31
0.0
  0
SOLID
  5
16B
100
AcDbEntity
  8
Dimension
370
              -2
390
0
 62
               0
100
AcDbTrace
 10
-0.0157199999999955
 20
53.887594457986012
 30
0.0
 11
0.6985877392791542
 21
53.735763660950553
 31
0.0
 12
0.5269732498178481
 22
53.398951261036892
 32
0.0
 13
0.5269732498178481
 23
53.398951261036892
 33
0.0
  0
LINE
  5
16C
100
AcDbEntity
  8
Dimension
370
              -2
390
0
  6
Continuous
 62
               0
100
AcDbLine
 10
2.7346648232591191
 20
52.529266389839904
 30
0.0
 11
4.7346588259024509
 21
52.529266389839904
 31
0.0
  0
WIPEOUT
  5
16D
100
AcDbEntity
  8
Dimension
370
              -2
390
0
  6
Continuous
 62
               0
 92
        0
100
AcDbWipeout
 90
        0
 10
4.7346588259024491
 20
21.854997947964915
 30
0.0
 11
4.9741512854511285
 21
0.0
 31
0.0
 12
0.0
 22
4.9741512854511285
 32
0.0
 13
1.0
 23
1.0
340
0
 70
               7
280
               1
281
              50
282
              50
283
               0
360
0
 71
               2
 91
        5
 14
-0.5
 24
-5.5443939628332384
 14
0.5000000000000002
 24
-5.5443939628332384
 14
0.5000000000000002
 24
-5.7890747998555909
 14
-0.5
 24
-5.7890747998555909
 14
-0.5
 24
-5.5443939628332384
  0
MTEXT
  5
16E
100
AcDbEntity
  8
Dimension
390
0
 62
               0
100
AcDbMText
 10
4.7346588259024491
 20
52.943229067756569
 30
0.0
 40
0.7579186197916666
 41
0.0
 71
               1
 72
               1
  1
Ø 1.61mm
  7
Helvetica
 73
               1
 44
0.9673603504928808
  0
WIPEOUT
  5
16F
100
AcDbEntity
  8
Dimension
370
              -2
390
0
  6
Continuous
 62
               0
 92
        0
100
AcDbWipeout
 90
        0
 10
9.7088101113535785
 20
21.854996810464915
 30
0.0
 11
4.4344027044173231
 21
0.0
 31
0.0
 12
0.0
 22
4.4344027044173231
 32
0.0
 13
1.0
 23
1.0
340
0
 70
               7
280
               1
281
              50
282
              50
283
               0
360
0
 71
               2
 91
        5
 14
-0.5
 24
-6.2801081688070539
 14
0.5
 24
-6.2801081688070539
 14
0.5
 24
-6.5545711756935532
 14
-0.5
 24
-6.5545711756935532
 14
-0.5
 24
-6.2801081688070539
  0
MTEXT
  5
170
100
AcDbEntity
  8
Dimension
390
0
 62
               0
100
AcDbMText
 10
9.7088101113535785
 20
52.943227930256569
 30
0.0
 40
0.7579186197916666
 41
0.0
 71
               1
 72
               1
  1
±0.05mm
  7
Helvetica
 73
               1
 44
0.9673603504928808
  0
WIPEOUT
  5
171
100
AcDbEntity
  8
Dimension
370
              -2
390
0
  6
Continuous
 62
               0
 92
        0
100
AcDbWipeout
 90
        0
 10
14.143212815770902
 20
21.854995331714914
 30
0.0
 11
2.1060812093068151
 21
0.0
 31
0.0
 12
0.0
 22
2.1060812093068151
 32
0.0
 13
1.0
 23
1.0
340
0
 70
               7
280
               1
281
              50
282
              50
283
               0
360
0
 71
               2
 91
        5
 14
-0.5
 24
-13.775674588016326
 14
0.5
 24
-13.775674588016326
 14
0.5
 24
-14.353564040175952
 14
-0.5
 24
-14.353564040175952
 14
-0.5
 24
-13.775674588016326
  0
MTEXT
  5
172
100
AcDbEntity
  8
Dimension
390
0
 62
               0
100
AcDbMText
 10
14.143212815770902
 20
52.94322864948834
 30
0.0
 40
0.7579202490234376
 41
0.0
 71
               1
 72
               1
  1
 (x4)
  7
Helvetica
 73
               1
 44
0.9673603504928806
  0
POINT
  5
173
100
AcDbEntity
  8
Defpoints
370
               0
390
0
 62
               0
100
AcDbPoint
 10
-1.4592800000000006
 20
54.600514457986009
 30
0.0
  0
POINT
  5
174
100
AcDbEntity
  8
Defpoints
370
               0
390
0
 62
               0
100
AcDbPoint
 10
-0.0157199999999955
 20
53.887594457986012
 30
0.0
  0
ENDBLK
  5
175
100
AcDbEntity
  8
Dimension
390
0
100
AcDbBlockEnd
  0
BLOCK
  5
176
100
AcDbEntity
  8
Dimension
390
0
100
AcDbBlockBegin
  2
*D15
 70
               1
 10
0.0
 20
0.0
 30
0.0
  3
*D15
  1

  0
LINE
  5
177
100
AcDbEntity
  8
Dimension
370
              -2
390
0
  6
Continuous
 62
               0
100
AcDbLine
 10
-0.3930099999999976
 20
73.180154457986205
 30
0.0
 11
5.9346626822303241
 21
68.60817916843385
 31
0.0
  0
SOLID
  5
178
100
AcDbEntity
  8
Dimension
370
              -2
390
0
 62
               0
100
AcDbTrace
 10
-0.3930099999999976
 20
73.180154457986205
 30
0.0
 11
0.2887518561720155
 21
72.918450600942776
 31
0.0
 12
0.0665611582544869
 22
72.61263134143222
 32
0.0
 13
0.0665611582544869
 23
72.61263134143222
 33
0.0
  0
LINE
  5
179
100
AcDbEntity
  8
Dimension
370
              -2
390
0
  6
Continuous
 62
               0
100
AcDbLine
 10
5.9346626822303241
 20
68.60817916843385
 30
0.0
 11
7.9346566848736559
 21
68.60817916843385
 31
0.0
  0
WIPEOUT
  5
17A
100
AcDbEntity
  8
Dimension
370
              -2
390
0
  6
Continuous
 62
               0
 92
        0
100
AcDbWipeout
 90
        0
 10
7.9346566848736577
 20
37.933910726558857
 30
0.0
 11
5.5668161213711755
 21
0.0
 31
0.0
 12
0.0
 22
5.5668161213711755
 32
0.0
 13
1.0
 23
1.0
340
0
 70
               7
280
               1
281
              50
282
              50
283
               0
360
0
 71
               2
 91
        5
 14
-0.5
 24
-4.900884337561779
 14
0.5000000000000002
 24
-4.900884337561779
 14
0.5000000000000002
 24
-5.1195155036474667
 14
-0.5
 24
-5.1195155036474667
 14
-0.5
 24
-4.900884337561779
  0
MTEXT
  5
17B
100
AcDbEntity
  8
Dimension
390
0
 62
               0
100
AcDbMText
 10
7.9346566848736577
 20
69.022141846350507
 30
0.0
 40
0.7579186197916666
 41
0.0
 71
               1
 72
               1
  1
Ø 0.850mm
  7
Helvetica
 73
               1
 44
0.9673603504928808
  0
WIPEOUT
  5
17C
100
AcDbEntity
  8
Dimension
370
              -2
390
0
  6
Continuous
 62
               0
 92
        0
100
AcDbWipeout
 90
        0
 10
13.501472806244834
 20
37.933909589058857
 30
0.0
 11
5.0270675403373737
 21
0.0
 31
0.0
 12
0.0
 22
5.0270675403373737
 32
0.0
 13
1.0
 23
1.0
340
0
 70
               7
280
               1
281
              50
282
              50
283
               0
360
0
 71
               2
 91
        5
 14
-0.5
 24
-5.4807690584523625
 14
0.5
 24
-5.4807690584523625
 14
0.5
 24
-5.7228743196675946
 14
-0.5
 24
-5.7228743196675946
 14
-0.5
 24
-5.4807690584523625
  0
MTEXT
  5
17D
100
AcDbEntity
  8
Dimension
390
0
 62
               0
100
AcDbMText
 10
13.501472806244834
 20
69.022140708850515
 30
0.0
 40
0.7579186197916666
 41
0.0
 71
               1
 72
               1
  1
±0.025mm
  7
Helvetica
 73
               1
 44
0.9673603504928808
  0
WIPEOUT
  5
17E
100
AcDbEntity
  8
Dimension
370
              -2
390
0
  6
Continuous
 62
               0
 92
        0
100
AcDbWipeout
 90
        0
 10
18.528540346582208
 20
37.933908110308856
 30
0.0
 11
2.1060812093068115
 21
0.0
 31
0.0
 12
0.0
 22
2.1060812093068115
 32
0.0
 13
1.0
 23
1.0
340
0
 70
               7
280
               1
281
              50
282
              50
283
               0
360
0
 71
               2
 91
        5
 14
-0.5
 24
-13.775674588016344
 14
0.5
 24
-13.775674588016344
 14
0.5
 24
-14.353564040175971
 14
-0.5
 24
-14.353564040175971
 14
-0.5
 24
-13.775674588016344
  0
MTEXT
  5
17F
100
AcDbEntity
  8
Dimension
390
0
 62
               0
100
AcDbMText
 10
18.528540346582208
 20
69.022141428082278
 30
0.0
 40
0.7579202490234376
 41
0.0
 71
               1
 72
               1
  1
 (x2)
  7
Helvetica
 73
               1
 44
0.9673603504928806
  0
POINT
  5
180
100
AcDbEntity
  8
Defpoints
370
               0
390
0
 62
               0
100
AcDbPoint
 10
-1.0819899999999985
 20
73.677954457986203
 30
0.0
  0
POINT
  5
181
100
AcDbEntity
  8
Defpoints
370
               0
390
0
 62
               0
100
AcDbPoint
 10
-0.3930099999999976
 20
73.180154457986205
 30
0.0
  0
ENDBLK
  5
182
100
AcDbEntity
  8
Dimension
390
0
100
AcDbBlockEnd
  0
BLOCK
  5
183
100
AcDbEntity
  8
Dimension
390
0
100
AcDbBlockBegin
  2
*D16
 70
               1
 10
0.0
 20
0.0
 30
0.0
  3
*D16
  1

  0
LINE
  5
184
100
AcDbEntity
  8
Dimension
370
              -2
390
0
  6
Continuous
 62
               0
100
AcDbLine
 10
-23.097499366577036
 20
75.969054457986203
 30
0.0
 11
-32.486839337749295
 21
75.969054457986203
 31
0.0
  0
LINE
  5
185
100
AcDbEntity
  8
Dimension
370
              -2
390
0
  6
Continuous
 62
               0
100
AcDbLine
 10
-20.259999366577031
 20
73.506554457986198
 30
0.0
 11
-32.486839337749295
 21
73.506554457986198
 31
0.0
  0
LINE
  5
186
100
AcDbEntity
  8
Dimension
370
              -2
390
0
  6
Continuous
 62
               0
100
AcDbLine
 10
-31.21684060459522
 20
73.506554457986198
 30
0.0
 11
-31.21684060459522
 21
75.969054457986203
 31
0.0
  0
LINE
  5
187
100
AcDbEntity
  8
Dimension
370
              -2
390
0
  6
Continuous
 62
               0
100
AcDbLine
 10
-31.21684060459522
 20
75.969054457986203
 30
0.0
 11
-31.21684060459522
 21
78.302380789146639
 31
0.0
  0
SOLID
  5
188
100
AcDbEntity
  8
Dimension
370
              -2
390
0
 62
               0
100
AcDbTrace
 10
-31.21684060459522
 20
75.969054457986203
 30
0.0
 11
-31.500419883005261
 21
77.027386732986201
 31
0.0
 12
-30.933261326185178
 22
77.027386732986201
 32
0.0
 13
-30.933261326185178
 23
77.027386732986201
 33
0.0
  0
LINE
  5
189
100
AcDbEntity
  8
Dimension
370
              -2
390
0
  6
Continuous
 62
               0
100
AcDbLine
 10
-31.21684060459522
 20
73.506554457986198
 30
0.0
 11
-31.21684060459522
 21
71.173228126825762
 31
0.0
  0
SOLID
  5
18A
100
AcDbEntity
  8
Dimension
370
              -2
390
0
 62
               0
100
AcDbTrace
 10
-31.21684060459522
 20
73.506554457986198
 30
0.0
 11
-30.933261326185178
 21
72.4482221829862
 31
0.0
 12
-31.500419883005261
 22
72.4482221829862
 32
0.0
 13
-31.500419883005261
 23
72.4482221829862
 33
0.0
  0
WIPEOUT
  5
18B
100
AcDbEntity
  8
Dimension
370
              -2
390
0
  6
Continuous
 62
               0
 92
        0
100
AcDbWipeout
 90
        0
 10
-33.735671428066816
 20
43.947027626620972
 30
0.0
 11
5.0376616469431887
 21
0.0
 31
0.0
 12
0.0
 22
5.0376616469431887
 32
0.0
 13
1.0
 23
1.0
340
0
 70
               7
280
               1
281
              50
282
              50
283
               0
360
0
 71
               2
 91
        5
 14
-0.5
 24
-5.4681916149020484
 14
0.5
 24
-5.4681916149020484
 14
0.5
 24
-5.7097882526969883
 14
-0.5
 24
-5.7097882526969883
 14
-0.5
 24
-5.4681916149020484
  0
MTEXT
  5
18C
100
AcDbEntity
  8
Dimension
390
0
 62
               0
100
AcDbMText
 10
-33.735671428066816
 20
75.035260944394395
 30
0.0
 40
0.7579202490234376
 41
0.0
 71
               1
 72
               1
  1
2.4625mm
  7
Helvetica
 73
               1
 44
0.9673603504928806
  0
POINT
  5
18D
100
AcDbEntity
  8
Defpoints
370
               0
390
0
 62
               0
100
AcDbPoint
 10
-19.624999999999993
 20
73.506554457986198
 30
0.0
  0
POINT
  5
18E
100
AcDbEntity
  8
Defpoints
370
               0
390
0
 62
               0
100
AcDbPoint
 10
-22.462499999999999
 20
75.969054457986203
 30
0.0
  0
POINT
  5
18F
100
AcDbEntity
  8
Defpoints
370
               0
390
0
 62
               0
100
AcDbPoint
 10
-31.21684060459522
 20
75.969054457986203
 30
0.0
  0
ENDBLK
  5
190
100
AcDbEntity
  8
Dimension
390
0
100
AcDbBlockEnd
  0
BLOCK
  5
191
100
AcDbEntity
  8
None
390
0
100
AcDbBlockBegin
  2
Group-1
 70
               0
 10
0.0
 20
0.0
 30
0.0
  3
Group-1
  1

  0
CIRCLE
  5
192
102
{ACAD_REACTORS
330
193
102
}
100
AcDbEntity
  8
None
370
              15
390
0
  6
Continuous
 62
             180
100
AcDbCircle
 10
-15.399439999999998
 20
51.561964457986214
 30
0.0
 40
0.2500014851955865
  0
HATCH
  5
193
100
AcDbEntity
  8
None
370
               0
390
0
  6
Continuous
 62
             180
100
AcDbHatch
 10
0.0
 20
0.0
 30
0.0
210
0.0
220
0.0
230
1.0
  2
SOLID
 70
               1
 71
               1
 91
        1
 92
        1
 93
        1
 72
               2
 10
-15.399439999999998
 20
51.561964457986214
 40
0.2500014851955865
 50
0.0
 51
360.0
 73
               0
 97
        1
330
192
 75
               0
 76
               1
 98
        1
 10
0.0
 20
0.0
  0
POLYLINE
  5
194
100
AcDbEntity
  8
None
370
               9
390
0
  6
STYLE_12
 62
               7
100
AcDb2dPolyline
 66
               1
 10
0.0
 20
0.0
 30
0.0
 70
               1
 75
               5
  0
VERTEX
  5
195
100
AcDbEntity
  8
None
370
               9
390
0
  6
STYLE_12
 62
               7
100
AcDbVertex
100
AcDb2dVertex
 10
-18.35136
 20
52.514464457986215
 30
0.0
  0
VERTEX
  5
196
100
AcDbEntity
  8
None
370
               9
390
0
  6
STYLE_12
 62
               7
100
AcDbVertex
100
AcDb2dVertex
 10
5.8736399999999946
 20
52.514464457986215
 30
0.0
  0
VERTEX
  5
197
100
AcDbEntity
  8
None
370
               9
390
0
  6
STYLE_12
 62
               7
100
AcDbVertex
100
AcDb2dVertex
 10
5.8736399999999946
 20
28.289464457986039
 30
0.0
  0
VERTEX
  5
198
100
AcDbEntity
  8
None
370
               9
390
0
  6
STYLE_12
 62
               7
100
AcDbVertex
100
AcDb2dVertex
 10
-18.35136
 20
28.289464457986039
 30
0.0
  0
SEQEND
  5
199
100
AcDbEntity
  8
None
370
               9
390
0
  6
STYLE_12
 62
               7
  0
CIRCLE
  5
19A
100
AcDbEntity
  8
None
370
               9
390
0
  6
Continuous
 62
               7
100
AcDbCircle
 10
-17.10136
 20
51.264464457986215
 30
0.0
 40
0.8050000000000068
  0
CIRCLE
  5
19B
100
AcDbEntity
  8
None
370
               9
390
0
  6
Continuous
 62
               7
100
AcDbCircle
 10
4.6236399999999946
 20
29.539464457986018
 30
0.0
 40
0.8049999999999926
  0
CIRCLE
  5
19C
100
AcDbEntity
  8
None
370
               9
390
0
  6
Continuous
 62
               7
100
AcDbCircle
 10
-17.10136
 20
29.539464457986018
 30
0.0
 40
0.8050000000000068
  0
CIRCLE
  5
19D
100
AcDbEntity
  8
None
370
               9
390
0
  6
Continuous
 62
               7
100
AcDbCircle
 10
4.6236399999999946
 20
51.264464457986215
 30
0.0
 40
0.8049999999999926
  0
CIRCLE
  5
19E
100
AcDbEntity
  8
None
370
               9
390
0
  6
Continuous
 62
               7
100
AcDbCircle
 10
4.6236399999999946
 20
48.724464457986208
 30
0.0
 40
0.4250000000000114
  0
CIRCLE
  5
19F
100
AcDbEntity
  8
None
370
               9
390
0
  6
Continuous
 62
               7
100
AcDbCircle
 10
-17.10136
 20
34.619464457986048
 30
0.0
 40
0.4250000000000114
  0
ENDBLK
  5
1A0
100
AcDbEntity
  8
None
390
0
100
AcDbBlockEnd
  0
BLOCK
  5
1A1
100
AcDbEntity
  8
None
390
0
100
AcDbBlockBegin
  2
layout pad
 70
               0
 10
0.0
 20
0.0
 30
0.0
  3
layout pad
  1

  0
CIRCLE
  5
1A2
102
{ACAD_REACTORS
330
1A3
102
}
100
AcDbEntity
  8
None
370
               9
390
0
  6
Continuous
 62
               7
100
AcDbCircle
 10
0.0
 20
0.0
 30
0.0
 40
0.215
  0
HATCH
  5
1A3
100
AcDbEntity
  8
None
370
               0
390
0
  6
Continuous
 62
               7
100
AcDbHatch
 10
0.0
 20
0.0
 30
0.0
210
0.0
220
0.0
230
1.0
  2
SOLID
 70
               1
 71
               1
 91
        1
 92
        1
 93
        1
 72
               2
 10
0.0
 20
0.0
 40
0.215
 50
0.0
 51
360.0
 73
               0
 97
        1
330
1A2
 75
               0
 76
               1
 98
        1
 10
0.0
 20
0.0
  0
ENDBLK
  5
1A4
100
AcDbEntity
  8
None
390
0
100
AcDbBlockEnd
  0
BLOCK
  5
1A5
100
AcDbEntity
  8
Dimension
390
0
100
AcDbBlockBegin
  2
*D19
 70
               1
 10
0.0
 20
0.0
 30
0.0
  3
*D19
  1

  0
LINE
  5
1A6
100
AcDbEntity
  8
Dimension
370
              -2
390
0
  6
Continuous
 62
               0
100
AcDbLine
 10
-2.6058539717877887
 20
67.856383557715972
 30
0.0
 11
2.7548432776374971
 21
64.761383557716186
 31
0.0
  0
SOLID
  5
1A7
100
AcDbEntity
  8
Dimension
370
              -2
390
0
 62
               0
100
AcDbTrace
 10
-2.6058539717877887
 20
67.856383557715972
 30
0.0
 11
-1.9004713763898393
 21
67.667376860924122
 31
0.0
 12
-2.0894780731816893
 22
67.340007659109872
 32
0.0
 13
-2.0894780731816893
 23
67.340007659109872
 33
0.0
  0
LINE
  5
1A8
100
AcDbEntity
  8
Dimension
370
              -2
390
0
  6
Continuous
 62
               0
100
AcDbLine
 10
2.7548432776374971
 20
64.761383557716186
 30
0.0
 11
4.754837280280829
 21
64.761383557716186
 31
0.0
  0
WIPEOUT
  5
1A9
100
AcDbEntity
  8
Dimension
370
              -2
390
0
  6
Continuous
 62
               0
 92
        0
100
AcDbWipeout
 90
        0
 10
4.754837280280829
 20
34.087112499591207
 30
0.0
 11
7.0484932385910053
 21
0.0
 31
0.0
 12
0.0
 22
7.0484932385910053
 32
0.0
 13
1.0
 23
1.0
340
0
 70
               7
280
               1
281
              50
282
              50
283
               0
360
0
 71
               2
 91
        5
 14
-0.5
 24
-3.7655542088609764
 14
0.5000000000000002
 24
-3.7655542088609764
 14
0.5000000000000002
 24
-3.9382268745005469
 14
-0.5
 24
-3.9382268745005469
 14
-0.5
 24
-3.7655542088609764
  0
MTEXT
  5
1AA
100
AcDbEntity
  8
Dimension
390
0
 62
               0
100
AcDbMText
 10
4.754837280280829
 20
65.175345817364629
 30
0.0
 40
0.7579202490234376
 41
0.0
 71
               1
 72
               1
  1
Ø 0.42mm pad
  7
Helvetica
 73
               1
 44
0.9673603504928806
  0
POINT
  5
1AB
100
AcDbEntity
  8
Defpoints
370
               0
390
0
 62
               0
100
AcDbPoint
 10
-2.969584641378014
 20
68.066383557716406
 30
0.0
  0
POINT
  5
1AC
100
AcDbEntity
  8
Defpoints
370
               0
390
0
 62
               0
100
AcDbPoint
 10
-2.6058539717877887
 20
67.856383557715972
 30
0.0
  0
ENDBLK
  5
1AD
100
AcDbEntity
  8
Dimension
390
0
100
AcDbBlockEnd
  0
BLOCK
  5
1AE
100
AcDbEntity
  8
Dimension
390
0
100
AcDbBlockBegin
  2
Group-2
 70
               0
 10
0.0
 20
0.0
 30
0.0
  3
Group-2
  1

  0
LINE
  5
1AF
100
AcDbEntity
  8
None
370
               9
390
0
  6
STYLE_04
 62
             180
100
AcDbLine
 10
-7.2971922750000022
 20
40.401964457986203
 30
0.0
 11
-5.1805277250000028
 21
40.401964457986203
 31
0.0
  0
LINE
  5
1B0
100
AcDbEntity
  8
None
370
               9
390
0
  6
STYLE_04
 62
             180
100
AcDbLine
 10
-6.2388600000000025
 20
39.34363218298617
 30
0.0
 11
-6.2388600000000025
 21
41.460296732986215
 31
0.0
  0
LINE
  5
1B1
100
AcDbEntity
  8
None
370
               9
390
0
  6
STYLE_04
 62
             180
100
AcDbLine
 10
-20.659692275000001
 20
40.401964457986203
 30
0.0
 11
-7.8263584125000021
 21
40.401964457986203
 31
0.0
  0
LINE
  5
1B2
100
AcDbEntity
  8
None
370
               9
390
0
  6
STYLE_04
 62
             180
100
AcDbLine
 10
-4.6513615875000029
 20
40.401964457986203
 30
0.0
 11
8.1819722749999944
 21
40.401964457986203
 31
0.0
  0
LINE
  5
1B3
100
AcDbEntity
  8
None
370
               9
390
0
  6
STYLE_04
 62
             180
100
AcDbLine
 10
-6.2388600000000025
 20
54.822796732986212
 30
0.0
 11
-6.2388600000000025
 21
41.989462870486214
 31
0.0
  0
LINE
  5
1B4
100
AcDbEntity
  8
None
370
               9
390
0
  6
STYLE_04
 62
             180
100
AcDbLine
 10
-6.2388600000000025
 20
38.814466045486149
 30
0.0
 11
-6.2388600000000025
 21
25.981132182985927
 31
0.0
  0
ENDBLK
  5
1B5
100
AcDbEntity
  8
Dimension
390
0
100
AcDbBlockEnd
  0
BLOCK
  5
1B6
100
AcDbEntity
  8
None
390
0
100
AcDbBlockBegin
  2
Group-3
 70
               0
 10
0.0
 20
0.0
 30
0.0
  3
Group-3
  1

  0
POLYLINE
  5
1B7
100
AcDbEntity
  8
None
370
               9
390
0
  6
STYLE_12
 62
               7
100
AcDb2dPolyline
 66
               1
 10
0.0
 20
0.0
 30
0.0
 70
               1
 75
               5
  0
VERTEX
  5
1B8
100
AcDbEntity
  8
None
370
               9
390
0
  6
STYLE_12
 62
               7
100
AcDbVertex
100
AcDb2dVertex
 10
-19.60136
 20
53.764464457986215
 30
0.0
  0
VERTEX
  5
1B9
100
AcDbEntity
  8
None
370
               9
390
0
  6
STYLE_12
 62
               7
100
AcDbVertex
100
AcDb2dVertex
 10
7.1236399999999946
 20
53.764464457986215
 30
0.0
  0
VERTEX
  5
1BA
100
AcDbEntity
  8
None
370
               9
390
0
  6
STYLE_12
 62
               7
100
AcDbVertex
100
AcDb2dVertex
 10
7.1236399999999946
 20
27.039464457985929
 30
0.0
  0
VERTEX
  5
1BB
100
AcDbEntity
  8
None
370
               9
390
0
  6
STYLE_12
 62
               7
100
AcDbVertex
100
AcDb2dVertex
 10
-19.60136
 20
27.039464457985929
 30
0.0
  0
SEQEND
  5
1BC
100
AcDbEntity
  8
None
370
               9
390
0
  6
STYLE_12
 62
               7
  0
INSERT
  5
1BD
100
AcDbEntity
  8
Dimension
390
0
 62
               7
100
AcDbBlockReference
  2
Group-2
 10
0.0
 20
0.0
 30
0.0
  0
ENDBLK
  5
1BE
100
AcDbEntity
  8
None
390
0
100
AcDbBlockEnd
  0
BLOCK
  5
1BF
100
AcDbEntity
  8
Dimension
390
0
100
AcDbBlockBegin
  2
*D22
 70
               1
 10
0.0
 20
0.0
 30
0.0
  3
*D22
  1

  0
LINE
  5
1C0
100
AcDbEntity
  8
Dimension
370
              -2
390
0
  6
Continuous
 62
               0
100
AcDbLine
 10
-24.962499999999999
 20
51.109055091408877
 30
0.0
 11
-24.962499999999999
 21
42.837660855626936
 31
0.0
  0
LINE
  5
1C1
100
AcDbEntity
  8
Dimension
370
              -2
390
0
  6
Continuous
 62
               0
100
AcDbLine
 10
1.7624999999999948
 20
51.109055091408877
 30
0.0
 11
1.7624999999999948
 21
42.837660855626936
 31
0.0
  0
LINE
  5
1C2
100
AcDbEntity
  8
Dimension
370
              -2
390
0
  6
Continuous
 62
               0
100
AcDbLine
 10
-24.962499999999999
 20
44.107659588781019
 30
0.0
 11
1.7624999999999948
 21
44.107659588781019
 31
0.0
  0
SOLID
  5
1C3
100
AcDbEntity
  8
Dimension
370
              -2
390
0
 62
               0
100
AcDbTrace
 10
-24.962499999999999
 20
44.107659588781019
 30
0.0
 11
-23.904167724999997
 21
44.391238867191056
 31
0.0
 12
-23.904167724999997
 22
43.824080310370974
 32
0.0
 13
-23.904167724999997
 23
43.824080310370974
 33
0.0
  0
SOLID
  5
1C4
100
AcDbEntity
  8
Dimension
370
              -2
390
0
 62
               0
100
AcDbTrace
 10
1.7624999999999948
 20
44.107659588781019
 30
0.0
 11
0.7041677249999951
 21
43.824080310370974
 31
0.0
 12
0.7041677249999951
 22
44.391238867191063
 32
0.0
 13
0.7041677249999951
 23
44.391238867191063
 33
0.0
  0
WIPEOUT
  5
1C5
100
AcDbEntity
  8
Dimension
370
              -2
390
0
  6
Continuous
 62
               0
 92
        0
100
AcDbWipeout
 90
        0
 10
-18.382202840708377
 20
13.433388530656028
 30
0.0
 11
13.29265348165913
 21
0.0
 31
0.0
 12
0.0
 22
13.29265348165913
 32
0.0
 13
1.0
 23
1.0
340
0
 70
               7
280
               1
281
              50
282
              50
283
               0
360
0
 71
               2
 91
        5
 14
-0.5
 24
-1.7618305699071994
 14
0.5
 24
-1.7618305699071994
 14
0.5
 24
-1.8533910787197776
 14
-0.5
 24
-1.8533910787197776
 14
-0.5
 24
-1.7618305699071994
  0
MTEXT
  5
1C6
100
AcDbEntity
  8
Dimension
390
0
 62
               0
100
AcDbMText
 10
-18.382202840708377
 20
44.521621848429454
 30
0.0
 40
0.7579202490234376
 41
0.0
 71
               1
 72
               1
  1
26.725mm sq. backing plate
  7
Helvetica
 73
               1
 44
0.9673603504928806
  0
POINT
  5
1C7
100
AcDbEntity
  8
Defpoints
370
               0
390
0
 62
               0
100
AcDbPoint
 10
1.7624999999999948
 20
51.744054457985918
 30
0.0
  0
POINT
  5
1C8
100
AcDbEntity
  8
Defpoints
370
               0
390
0
 62
               0
100
AcDbPoint
 10
-24.962499999999999
 20
51.744054457985918
 30
0.0
  0
POINT
  5
1C9
100
AcDbEntity
  8
Defpoints
370
               0
390
0
 62
               0
100
AcDbPoint
 10
-24.962499999999999
 20
44.107659588781019
 30
0.0
  0
ENDBLK
  5
1CA
100
AcDbEntity
  8
Dimension
390
0
100
AcDbBlockEnd
  0
BLOCK
  5
1CB
100
AcDbEntity
  8
None
390
0
100
AcDbBlockBegin
  2
Group-4
 70
               0
 10
0.0
 20
0.0
 30
0.0
  3
Group-4
  1

  0
LINE
  5
1CC
100
AcDbEntity
  8
None
370
               9
390
0
  6
STYLE_18
 62
               5
100
AcDbLine
 10
-15.798420424746979
 20
13.8167086847458
 30
0.0
 11
3.2015795752530209
 21
13.8167086847458
 31
0.0
  0
LINE
  5
1CD
100
AcDbEntity
  8
None
370
              13
390
0
  6
STYLE_18
 62
               5
100
AcDbLine
 10
7.7015795752530209
 20
63.014464457986264
 30
0.0
 11
7.7015795752530209
 21
53.13812854702654
 31
0.0
  0
LINE
  5
1CE
100
AcDbEntity
  8
None
370
              13
390
0
  6
STYLE_18
 62
               5
100
AcDbLine
 10
-20.298420424746979
 20
63.014464457986264
 30
0.0
 11
-20.298420424746979
 21
53.15449445678253
 31
0.0
  0
LINE
  5
1CF
100
AcDbEntity
  8
None
370
               9
390
0
  6
STYLE_18
 62
               5
100
AcDbLine
 10
7.7015795752530209
 20
63.014464457986264
 30
0.0
 11
-20.298420424746979
 21
63.014464457986264
 31
0.0
  0
LINE
  5
1D0
100
AcDbEntity
  8
None
370
              13
390
0
  6
STYLE_18
 62
               5
100
AcDbLine
 10
7.7015795752530209
 20
13.789464457986108
 30
0.0
 11
7.7015795752530209
 21
23.665800368945732
 31
0.0
  0
LINE
  5
1D1
100
AcDbEntity
  8
None
370
              13
390
0
  6
STYLE_18
 62
               5
100
AcDbLine
 10
-20.298420424746979
 20
13.789464457986108
 30
0.0
 11
-20.298420424746979
 21
23.689464457985999
 31
0.0
  0
LINE
  5
1D2
100
AcDbEntity
  8
None
370
               9
390
0
  6
STYLE_18
 62
               5
100
AcDbLine
 10
-15.798420424746979
 20
13.789464457986108
 30
0.0
 11
-20.298420424746979
 21
13.789464457986108
 31
0.0
  0
LINE
  5
1D3
100
AcDbEntity
  8
None
370
              13
390
0
  6
STYLE_18
 62
               5
100
AcDbLine
 10
3.2015795752530209
 20
13.789464457986108
 30
0.0
 11
7.7015795752530209
 21
13.789464457986108
 31
0.0
  0
LINE
  5
1D4
100
AcDbEntity
  8
None
370
              13
390
0
  6
STYLE_18
 62
               5
100
AcDbLine
 10
-23.039900423791153
 20
49.989413784079005
 30
0.0
 11
-23.039900423791153
 21
26.856410014644851
 31
0.0
  0
LINE
  5
1D5
100
AcDbEntity
  8
None
370
              13
390
0
  6
STYLE_18
 62
               5
100
AcDbLine
 10
10.560233038436024
 20
26.8494017382274
 30
0.0
 11
10.562180423791148
 21
49.956180182879208
 31
0.0
  0
ARC
  5
1D6
100
AcDbEntity
  8
None
370
              13
390
0
  6
STYLE_18
 62
               5
100
AcDbCircle
 10
-21.898420424746945
 20
53.154494456782515
 30
0.0
 40
1.5999999999999801
100
AcDbArc
 50
280.20671004527929
 51
0.0000000000005116
  0
ARC
  5
1D7
100
AcDbEntity
  8
None
370
              13
390
0
  6
STYLE_18
 62
               5
100
AcDbCircle
 10
-21.439900423791187
 20
49.989413784079019
 30
0.0
 40
1.5999999999999983
100
AcDbArc
 50
96.279288322512798
 51
180.0
  0
ARC
  5
1D8
100
AcDbEntity
  8
None
370
              13
390
0
  6
STYLE_18
 62
               5
100
AcDbCircle
 10
9.3015795752530153
 20
53.13812854702654
 30
0.0
 40
1.5999999999999943
100
AcDbArc
 50
180.0
 51
263.97574466490391
  0
ARC
  5
1D9
100
AcDbEntity
  8
None
370
              13
390
0
  6
STYLE_18
 62
               5
100
AcDbCircle
 10
8.9621804237911533
 20
49.956180182879208
 30
0.0
 40
1.5999999999999943
100
AcDbArc
 50
0.0
 51
83.975744664903914
  0
ARC
  5
1DA
100
AcDbEntity
  8
None
370
              13
390
0
  6
STYLE_18
 62
               5
100
AcDbCircle
 10
9.3015795752530153
 20
23.665800368945717
 30
0.0
 40
1.5999999999999934
100
AcDbArc
 50
95.643630058469114
 51
179.99999999999949
  0
ARC
  5
1DB
100
AcDbEntity
  8
None
370
              13
390
0
  6
STYLE_18
 62
               5
100
AcDbCircle
 10
8.9602344147921542
 20
26.847429640731399
 30
0.0
 40
1.6000000000000076
100
AcDbArc
 50
275.64363005846911
 51
359.99517124544451
  0
ARC
  5
1DC
100
AcDbEntity
  8
None
370
              13
390
0
  6
STYLE_18
 62
               5
100
AcDbCircle
 10
-21.439900423791187
 20
26.856410014644858
 30
0.0
 40
1.5999999999999659
100
AcDbArc
 50
180.0
 51
262.02447940414817
  0
ARC
  5
1DD
100
AcDbEntity
  8
None
370
              13
390
0
  6
STYLE_18
 62
               5
100
AcDbCircle
 10
-21.898420424746973
 20
23.689464457986013
 30
0.0
 40
1.5999999999999943
100
AcDbArc
 50
359.99999999999949
 51
82.024479404147101
  0
ENDBLK
  5
1DE
100
AcDbEntity
  8
None
390
0
100
AcDbBlockEnd
  0
BLOCK
  5
1DF
100
AcDbEntity
  8
Dimension
390
0
100
AcDbBlockBegin
  2
*D24
 70
               1
 10
0.0
 20
0.0
 30
0.0
  3
*D24
  1

  0
LINE
  5
1E0
100
AcDbEntity
  8
Dimension
370
              -2
390
0
  6
Continuous
 62
               0
100
AcDbLine
 10
1.0372997863391307
 20
52.646951492485471
 30
0.0
 11
7.4000000000000012
 21
46.921298684745665
 31
0.0
  0
SOLID
  5
1E1
100
AcDbEntity
  8
Dimension
370
              -2
390
0
 62
               0
100
AcDbTrace
 10
1.0372997863391307
 20
52.646951492485471
 30
0.0
 11
2.0135455146544183
 21
52.149529448948606
 31
0.0
 12
1.6340423656277796
 22
51.728048502222535
 32
0.0
 13
1.6340423656277796
 23
51.728048502222535
 33
0.0
  0
LINE
  5
1E2
100
AcDbEntity
  8
Dimension
370
              -2
390
0
  6
Continuous
 62
               0
100
AcDbLine
 10
7.4000000000000012
 20
46.921298684745665
 30
0.0
 11
9.5166645500000016
 21
46.921298684745665
 31
0.0
  0
WIPEOUT
  5
1E3
100
AcDbEntity
  8
Dimension
370
              -2
390
0
  6
Continuous
 62
               0
 92
        0
100
AcDbWipeout
 90
        0
 10
9.5166645500000016
 20
16.247027626620682
 30
0.0
 11
7.080243260670569
 21
0.0
 31
0.0
 12
0.0
 22
7.080243260670569
 32
0.0
 13
1.0
 23
1.0
340
0
 70
               7
280
               1
281
              50
282
              50
283
               0
360
0
 71
               2
 91
        5
 14
-0.5
 24
-3.7464261315722736
 14
0.5000000000000002
 24
-3.7464261315722736
 14
0.5000000000000002
 24
-3.9183244790500602
 14
-0.5
 24
-3.9183244790500602
 14
-0.5
 24
-3.7464261315722736
  0
MTEXT
  5
1E4
100
AcDbEntity
  8
Dimension
390
0
 62
               0
100
AcDbMText
 10
9.5166645500000016
 20
47.335260944394108
 30
0.0
 40
0.7579202490234376
 41
0.0
 71
               1
 72
               1
  1
Ø 4.78mm (x4)
  7
Helvetica
 73
               1
 44
0.9673603504928806
  0
POINT
  5
1E5
100
AcDbEntity
  8
Defpoints
370
               0
390
0
 62
               0
100
AcDbPoint
 10
-2.5122997863391401
 20
55.841157423486543
 30
0.0
  0
POINT
  5
1E6
100
AcDbEntity
  8
Defpoints
370
               0
390
0
 62
               0
100
AcDbPoint
 10
1.0372997863391307
 20
52.646951492485471
 30
0.0
  0
ENDBLK
  5
1E7
100
AcDbEntity
  8
Dimension
390
0
100
AcDbBlockEnd
  0
BLOCK
  5
1E8
100
AcDbEntity
  8
Dimension
390
0
100
AcDbBlockBegin
  2
*D25
 70
               1
 10
0.0
 20
0.0
 30
0.0
  3
*D25
  1

  0
LINE
  5
1E9
100
AcDbEntity
  8
Dimension
370
              -2
390
0
  6
Continuous
 62
               0
100
AcDbLine
 10
-26.188726562246977
 20
38.494054457986095
 30
0.0
 11
-42.145154667584258
 21
38.494054457986095
 31
0.0
  0
LINE
  5
1EA
100
AcDbEntity
  8
Dimension
370
              -2
390
0
  6
Continuous
 62
               0
100
AcDbLine
 10
-26.188726562246977
 20
87.71905445798626
 30
0.0
 11
-42.145154667584258
 21
87.71905445798626
 31
0.0
  0
LINE
  5
1EB
100
AcDbEntity
  8
Dimension
370
              -2
390
0
  6
Continuous
 62
               0
100
AcDbLine
 10
-41.08682239258426
 20
38.494054457986095
 30
0.0
 11
-41.08682239258426
 21
87.71905445798626
 31
0.0
  0
SOLID
  5
1EC
100
AcDbEntity
  8
Dimension
370
              -2
390
0
 62
               0
100
AcDbTrace
 10
-41.08682239258426
 20
38.494054457986095
 30
0.0
 11
-41.370401670994305
 21
39.552386732986093
 31
0.0
 12
-40.803243114174215
 22
39.552386732986093
 32
0.0
 13
-40.803243114174215
 23
39.552386732986093
 33
0.0
  0
SOLID
  5
1ED
100
AcDbEntity
  8
Dimension
370
              -2
390
0
 62
               0
100
AcDbTrace
 10
-41.08682239258426
 20
87.71905445798626
 30
0.0
 11
-40.803243114174215
 21
86.660722182986262
 31
0.0
 12
-41.370401670994305
 22
86.660722182986262
 32
0.0
 13
-41.370401670994305
 23
86.660722182986262
 33
0.0
  0
WIPEOUT
  5
1EE
100
AcDbEntity
  8
Dimension
370
              -2
390
0
  6
Continuous
 62
               0
 92
        0
100
AcDbWipeout
 90
        0
 10
-43.309320349516135
 20
30.347027626620878
 30
0.0
 11
4.4449959138637567
 21
0.0
 31
0.0
 12
0.0
 22
4.4449959138637567
 32
0.0
 13
1.0
 23
1.0
340
0
 70
               7
280
               1
281
              50
282
              50
283
               0
360
0
 71
               2
 91
        5
 14
-0.5
 24
-6.2639499748978915
 14
0.5
 24
-6.2639499748978915
 14
0.5
 24
-6.537759476601587
 14
-0.5
 24
-6.537759476601587
 14
-0.5
 24
-6.2639499748978915
  0
MTEXT
  5
1EF
100
AcDbEntity
  8
Dimension
390
0
 62
               0
100
AcDbMText
 10
-43.309320349516135
 20
61.435260944394301
 30
0.0
 40
0.7579202490234376
 41
0.0
 71
               1
 72
               1
  1
49.23mm
  7
Helvetica
 73
               1
 44
0.9673603504928806
  0
POINT
  5
1F0
100
AcDbEntity
  8
Defpoints
370
               0
390
0
 62
               0
100
AcDbPoint
 10
-25.659560424746978
 20
87.71905445798626
 30
0.0
  0
POINT
  5
1F1
100
AcDbEntity
  8
Defpoints
370
               0
390
0
 62
               0
100
AcDbPoint
 10
-25.659560424746978
 20
38.494054457986095
 30
0.0
  0
POINT
  5
1F2
100
AcDbEntity
  8
Defpoints
370
               0
390
0
 62
               0
100
AcDbPoint
 10
-41.08682239258426
 20
38.494054457986095
 30
0.0
  0
ENDBLK
  5
1F3
100
AcDbEntity
  8
Dimension
390
0
100
AcDbBlockEnd
  0
BLOCK
  5
1F4
100
AcDbEntity
  8
Dimension
390
0
100
AcDbBlockBegin
  2
*D26
 70
               1
 10
0.0
 20
0.0
 30
0.0
  3
*D26
  1

  0
LINE
  5
1F5
100
AcDbEntity
  8
Dimension
370
              -2
390
0
  6
Continuous
 62
               0
100
AcDbLine
 10
-28.401040423791152
 20
51.892132547245666
 30
0.0
 11
-28.401040423791152
 21
35.662966409745664
 31
0.0
  0
LINE
  5
1F6
100
AcDbEntity
  8
Dimension
370
              -2
390
0
  6
Continuous
 62
               0
100
AcDbLine
 10
5.1985043978087822
 20
50.979405761900416
 30
0.0
 11
5.1985043978087822
 21
35.662966409745671
 31
0.0
  0
LINE
  5
1F7
100
AcDbEntity
  8
Dimension
370
              -2
390
0
  6
Continuous
 62
               0
100
AcDbLine
 10
-28.401040423791152
 20
36.721298684745669
 30
0.0
 11
5.1985043978087822
 21
36.721298684745669
 31
0.0
  0
SOLID
  5
1F8
100
AcDbEntity
  8
Dimension
370
              -2
390
0
 62
               0
100
AcDbTrace
 10
-28.401040423791152
 20
36.721298684745669
 30
0.0
 11
-27.34270814879115
 21
37.004877963155714
 31
0.0
 12
-27.34270814879115
 22
36.437719406335624
 32
0.0
 13
-27.34270814879115
 23
36.437719406335624
 33
0.0
  0
SOLID
  5
1F9
100
AcDbEntity
  8
Dimension
370
              -2
390
0
 62
               0
100
AcDbTrace
 10
5.1985043978087822
 20
36.721298684745669
 30
0.0
 11
4.1401721228087824
 21
36.437719406335624
 31
0.0
 12
4.1401721228087824
 22
37.004877963155714
 32
0.0
 13
4.1401721228087824
 23
37.004877963155714
 33
0.0
  0
WIPEOUT
  5
1FA
100
AcDbEntity
  8
Dimension
370
              -2
390
0
  6
Continuous
 62
               0
 92
        0
100
AcDbWipeout
 90
        0
 10
-13.823765969923063
 20
6.0470276266206797
 30
0.0
 11
4.4449959138637549
 21
0.0
 31
0.0
 12
0.0
 22
4.4449959138637549
 32
0.0
 13
1.0
 23
1.0
340
0
 70
               7
280
               1
281
              50
282
              50
283
               0
360
0
 71
               2
 91
        5
 14
-0.5
 24
-6.2639499748978951
 14
0.4999999999999996
 24
-6.2639499748978951
 14
0.4999999999999996
 24
-6.5377594766015905
 14
-0.5
 24
-6.5377594766015905
 14
-0.5
 24
-6.2639499748978951
  0
MTEXT
  5
1FB
100
AcDbEntity
  8
Dimension
390
0
 62
               0
100
AcDbMText
 10
-13.823765969923063
 20
37.135260944394105
 30
0.0
 40
0.7579202490234376
 41
0.0
 71
               1
 72
               1
  1
33.60mm
  7
Helvetica
 73
               1
 44
0.9673603504928806
  0
POINT
  5
1FC
100
AcDbEntity
  8
Defpoints
370
               0
390
0
 62
               0
100
AcDbPoint
 10
5.1985043978087822
 20
51.508571899400415
 30
0.0
  0
POINT
  5
1FD
100
AcDbEntity
  8
Defpoints
370
               0
390
0
 62
               0
100
AcDbPoint
 10
-28.401040423791152
 20
52.421298684745665
 30
0.0
  0
POINT
  5
1FE
100
AcDbEntity
  8
Defpoints
370
               0
390
0
 62
               0
100
AcDbPoint
 10
-28.401040423791152
 20
36.721298684745669
 30
0.0
  0
ENDBLK
  5
1FF
100
AcDbEntity
  8
Dimension
390
0
100
AcDbBlockEnd
  0
BLOCK
  5
200
100
AcDbEntity
  8
None
390
0
100
AcDbBlockBegin
  2
Group-5
 70
               0
 10
0.0
 20
0.0
 30
0.0
  3
Group-5
  1

  0
LWPOLYLINE
  5
201
100
AcDbEntity
  8
None
370
              13
390
0
  6
STYLE_17
 62
               5
100
AcDbPolyline
 90
       12
 70
             129
 10
3.3774977062059146
 20
63.014464457986264
 10
-15.769285510577291
 20
63.014464457986264
 42
0.414213562373095
 10
-18.310893902185697
 20
60.472856066377858
 10
-18.310893902185697
 20
60.014464457986264
 10
-18.310893902185697
 20
18.78946445798621
 10
-18.310893902185697
 20
18.331072849594666
 42
0.4142135623730947
 10
-15.769285510577291
 20
15.789464457986259
 10
3.3774977062059146
 20
15.789464457986259
 42
0.414213562373095
 10
5.9191060978143248
 20
18.331072849594669
 10
5.9191060978143248
 20
18.78946445798621
 10
5.9191060978143248
 20
60.014464457986264
 10
5.9191060978143248
 20
60.472856066377851
 42
0.4142135623730943
  0
ENDBLK
  5
202
100
AcDbEntity
  8
None
390
0
100
AcDbBlockEnd
  0
ENDSEC
  0
SECTION
  2
ENTITIES
  0
WIPEOUT
  5
203
100
AcDbEntity
  8
None
370
               9
390
0
  6
Continuous
 62
               7
 92
        0
100
AcDbWipeout
 90
        0
 10
23.373231265600005
 20
-5.3792072532235897
 30
0.0
 11
11.853321838863753
 21
0.0
 31
0.0
 12
0.0
 22
11.853321838863753
 32
0.0
 13
1.0
 23
1.0
340
0
 70
               7
280
               1
281
              50
282
              50
283
               0
360
0
 71
               2
 91
        5
 14
-0.5
 24
-2.036481368574909
 14
0.4999999999999997
 24
-2.036481368574909
 14
0.4999999999999997
 24
-2.2418385052147878
 14
-0.5
 24
-2.2418385052147878
 14
-0.5
 24
-2.036481368574909
  0
MTEXT
  5
204
100
AcDbEntity
  8
None
390
0
 62
               7
100
AcDbMText
 10
23.373231265600005
 20
26.731529382323274
 30
0.0
 40
1.5158404980468749
 41
0.0
 71
               1
 72
               1
  1
PAGE 2 of 5
  7
Arial
 73
               1
 44
0.9673603504928808
  0
MTEXT
  5
205
100
AcDbEntity
  8
None
390
0
 62
               7
100
AcDbMText
 10
18.999508972660003
 20
30.973173192758548
 30
0.0
 40
0.6939780386601563
 41
19.640067026579999
 71
               1
 72
               1
  1
Recommended PCB Layout Tolerances:  ±0.025mm [±0.001"] unless stated otherwise.\P
  7
Helvetica
 73
               1
 44
0.9673603504928806
  0
MTEXT
  5
206
100
AcDbEntity
  8
None
390
0
 62
               7
100
AcDbMText
 10
-47.745890948540001
 20
90.049769783492621
 30
0.0
 40
0.8165916313242188
 41
15.76917089748
 71
               1
 72
               1
  1
{\LRecommended PCB Layout Top View}\P
  7
Helvetica
 73
               1
 44
0.9673603504928809
  0
WIPEOUT
  5
207
100
AcDbEntity
  8
None
370
              15
390
0
  6
Continuous
 62
               7
 92
        0
100
AcDbWipeout
 90
        0
 10
-48.29625039818
 20
1.3218685127372876
 30
0.0
 11
14.710819340227514
 21
0.0
 31
0.0
 12
0.0
 22
14.710819340227514
 32
0.0
 13
1.0
 23
1.0
340
0
 70
               7
280
               1
281
              50
282
              50
283
               0
360
0
 71
               2
 91
        5
 14
-0.5
 24
-1.5437835109417501
 14
0.5000000000000002
 24
-1.5437835109417501
 14
0.5000000000000002
 24
-1.7919849376811481
 14
-0.5
 24
-1.7919849376811481
 14
-0.5
 24
-1.5437835109417501
  0
MTEXT
  5
208
100
AcDbEntity
  8
None
390
0
 62
               7
100
AcDbMText
 10
-48.29625039818
 20
34.844266063010714
 30
0.0
 40
0.7579202490234375
 41
0.0
 71
               1
 72
               1
  1
{\LTarget PCB Recommendations}\PTotal thickness: 1.5mm min.\PPlating: Gold or Solder finish\P
  7
Arial
 73
               1
 44
0.9673603504928808
  0
WIPEOUT
  5
209
100
AcDbEntity
  8
None
370
               9
390
0
  6
Continuous
 62
               7
 92
        0
100
AcDbWipeout
 90
        0
 10
9.8540447847999992
 20
56.260347459272019
 30
0.0
 11
28.8810711189
 21
0.0
 31
0.0
 12
0.0
 22
28.8810711189
 32
0.0
 13
1.0
 23
1.0
340
0
 70
               7
280
               1
281
              50
282
              50
283
               0
360
0
 71
               2
 91
        5
 14
-0.5
 24
-0.5410185230396365
 14
0.5
 24
-0.5410185230396365
 14
0.5
 24
-0.656521196645097
 14
-0.5
 24
-0.656521196645097
 14
-0.5
 24
-0.5410185230396365
  0
MTEXT
  5
20A
100
AcDbEntity
  8
None
390
0
 62
               7
100
AcDbMText
 10
9.8540447847999992
 20
89.359637253486966
 30
0.0
 40
1.01226634884375
 41
28.881071118900003
 71
               1
 72
               1
  1
{\L*Note: BGA pattern is not symmetrical with respect to the mounting holes.}
  7
Arial (bold)
 73
               1
 44
0.992595837897043
  0
MTEXT
  5
20B
100
AcDbEntity
  8
None
390
0
 62
               7
100
AcDbMText
 10
17.073004232500004
 20
32.743428163850702
 30
0.0
 40
0.7579202490234375
 41
19.133167533480002
 71
               1
 72
               1
  1
{\LDXF DATA WILL BE PROVIDED}
  7
Helvetica
 73
               1
 44
0.9673603504928808
  0
INSERT
  5
20C
100
AcDbEntity
  8
None
390
0
 62
               7
100
AcDbBlockReference
  2
CG-BGA-4008 title block
 10
-15.146290329754986
 20
26.837949324072017
 30
0.0
 41
0.6666660000000001
 42
0.6666660000000001
 43
0.6666660000000001
  0
WIPEOUT
  5
20D
100
AcDbEntity
  8
None
370
               5
390
0
  6
Continuous
 62
               7
 92
        0
100
AcDbWipeout
 90
        0
 10
0.0939589768142115
 20
-1.646153424223479
 30
0.0
 11
5.9149049914216061
 21
0.0
 31
0.0
 12
0.0
 22
5.9149049914216061
 32
0.0
 13
1.0
 23
1.0
340
0
 70
               7
280
               1
281
              50
282
              50
283
               0
360
0
 71
               2
 91
        5
 14
-0.5
 24
-4.5830452971948583
 14
0.5
 24
-4.5830452971948583
 14
0.5
 24
-4.8116735365853911
 14
-0.5
 24
-4.8116735365853911
 14
-0.5
 24
-4.5830452971948583
  0
MTEXT
  5
20E
100
AcDbEntity
  8
None
390
0
 62
               7
100
AcDbMText
 10
0.0939589768142115
 20
29.555692088965415
 30
0.0
 40
0.8421341405039061
 41
0.0
 71
               1
 72
               1
  1
Scale: 3:1  
  7
Arial
 73
               1
 44
0.9673603504928809
  0
CIRCLE
  5
20F
100
AcDbEntity
  8
None
370
               9
390
0
  6
STYLE_12
 62
               7
100
AcDbCircle
 10
-0.7375000000000052
 20
54.24405445798601
 30
0.0
 40
2.3876038540763078
  0
CIRCLE
  5
210
100
AcDbEntity
  8
None
370
               9
390
0
  6
STYLE_12
 62
               7
100
AcDbCircle
 10
-0.7375000000000052
 20
75.969054457986203
 30
0.0
 40
2.3876038540763078
  0
WIPEOUT
  5
211
100
AcDbEntity
  8
None
370
              15
390
0
  6
Continuous
 62
               1
 92
        0
100
AcDbWipeout
 90
        0
 10
6.8839517103548173
 20
53.138489184745985
 30
0.0
 11
7.5160482896451839
 21
0.0
 31
0.0
 12
0.0
 22
7.5160482896451839
 32
0.0
 13
1.0
 23
1.0
340
0
 70
               7
280
               1
281
              50
282
              50
283
               0
360
0
 71
               2
 91
        5
 14
-0.5
 24
-3.50020447466009
 14
0.5000000000000002
 24
-3.50020447466009
 14
0.5000000000000002
 24
-3.8240660181461177
 14
-0.5
 24
-3.8240660181461177
 14
-0.5
 24
-3.50020447466009
  0
MTEXT
  5
212
100
AcDbEntity
  8
None
390
0
 62
               1
100
AcDbMText
 10
6.8839517103548173
 20
85.443799804537633
 30
0.0
 40
0.7579186197916666
 41
7.5160482896451839
 71
               1
 72
               1
  1
Socket Body Size (item 2)
  7
Arial
 73
               1
 44
0.9673603504928808
  0
LINE
  5
213
100
AcDbEntity
  8
None
370
               5
390
0
  6
Continuous
 62
               1
100
AcDbLine
 10
6.8839517103548102
 20
84.421299184745948
 30
0.0
 11
0.7164817103548158
 21
84.421299184745948
 31
0.0
  0
SOLID
  5
214
100
AcDbEntity
  8
None
370
               5
390
0
 62
               1
100
AcDbTrace
 10
0.7164817103548158
 20
84.421299184745948
 30
0.0
 11
1.3939590602205385
 21
84.602828693532842
 31
0.0
 12
1.3939590602205385
 22
84.239769675959053
 32
0.0
 13
1.3939590602205385
 23
84.239769675959053
 33
0.0
  0
WIPEOUT
  5
215
100
AcDbEntity
  8
None
370
              15
390
0
  6
Continuous
 62
               1
 92
        0
100
AcDbWipeout
 90
        0
 10
-12.410579999999989
 20
57.733744957986396
 30
0.0
 11
7.8422253988126771
 21
0.0
 31
0.0
 12
0.0
 22
7.8422253988126771
 32
0.0
 13
1.0
 23
1.0
340
0
 70
               7
280
               1
281
              50
282
              50
283
               0
360
0
 71
               2
 91
        5
 14
-0.5
 24
-3.3338263019769836
 14
0.4999999999999999
 24
-3.3338263019769836
 14
0.4999999999999999
 24
-3.4890219815329777
 14
-0.5
 24
-3.4890219815329777
 14
-0.5
 24
-3.3338263019769836
  0
MTEXT
  5
216
100
AcDbEntity
  8
None
390
0
 62
               1
100
AcDbMText
 10
-12.410579999999989
 20
88.821976077778061
 30
0.0
 40
0.7579186197916666
 41
0.0
 71
               1
 72
               1
  1
Orientation Mark
  7
New Century Schlbk
 73
               1
 44
0.9673603504928808
  0
LINE
  5
217
100
AcDbEntity
  8
None
370
               5
390
0
  6
Continuous
 62
               1
100
AcDbLine
 10
-20.760579999999997
 20
76.516554457986203
 30
0.0
 11
-18.195339999999995
 21
88.466554457986376
 31
0.0
  0
SOLID
  5
218
100
AcDbEntity
  8
None
370
               5
390
0
 62
               1
100
AcDbTrace
 10
-20.760579999999997
 20
76.516554457986203
 30
0.0
 11
-20.785057675090737
 21
77.217503361661528
 31
0.0
 12
-20.431303836616497
 22
77.135832852869257
 32
0.0
 13
-20.431303836616497
 23
77.135832852869257
 33
0.0
  0
LINE
  5
219
100
AcDbEntity
  8
None
370
               5
390
0
  6
Continuous
 62
               1
100
AcDbLine
 10
-12.644680000000001
 20
88.466554457986376
 30
0.0
 11
-18.195339999999995
 21
88.466554457986376
 31
0.0
  0
DIMENSION
  5
21A
100
AcDbEntity
  8
Dimension
370
               5
390
0
  6
Continuous
 62
               1
100
AcDbDimension
  2
*D6
 10
-22.462499999999999
 20
81.5665544579862
 30
0.0
 11
-29.100000000000001
 21
81.5665544579862
 31
0.0
 70
             128
 71
               5
 72
               1
 41
1.0
 42
0.0
  3
IE Standard
100
AcDbAlignedDimension
 13
-23.712499999999999
 23
77.219054457986203
 33
0.0
 14
-22.462499999999999
 24
75.969054457986203
 34
0.0
100
AcDbRotatedDimension
1001
ACAD
1000
DSTYLE
1002
{
1070
             340
1005
3E
1070
              71
1070
               1
1070
              47
1040
0.125
1070
              48
1040
0.125
1070
               3
1000
<>mm(x4)
1070
             174
1070
               0
1070
             147
1040
0.132291534375
1002
}
  0
DIMENSION
  5
21B
100
AcDbEntity
  8
Dimension
370
               5
390
0
  6
Continuous
 62
               1
100
AcDbDimension
  2
*D7
 10
-34.1875
 20
77.219054457986203
 30
0.0
 11
-34.1875
 21
79.966554457986206
 31
0.0
 70
             128
 71
               5
 72
               1
 41
1.0
 42
0.0
  3
IE Standard
100
AcDbAlignedDimension
 13
-22.462499999999999
 23
75.969054457986203
 33
0.0
 14
-23.712499999999999
 24
77.219054457986203
 34
0.0
 50
90.0
100
AcDbRotatedDimension
1001
ACAD
1000
DSTYLE
1002
{
1070
             340
1005
3E
1070
              71
1070
               1
1070
              47
1040
0.125
1070
              48
1040
0.125
1070
               3
1000
<>mm(x4)
1070
             174
1070
               0
1070
             147
1040
0.132291534375
1002
}
  0
DIMENSION
  5
21C
100
AcDbEntity
  8
Dimension
370
               5
390
0
  6
Continuous
 62
               1
100
AcDbDimension
  2
*D8
 10
-32.795339999999996
 20
54.24405445798601
 30
0.0
 11
-32.795339999999996
 21
56.784054457986024
 31
0.0
 70
             128
 71
               5
 72
               1
 41
1.0
 42
0.0
  3
IE Standard
100
AcDbAlignedDimension
 13
-22.462499999999999
 23
59.324054457986037
 33
0.0
 14
-22.462499999999999
 24
54.24405445798601
 34
0.0
 50
90.0
100
AcDbRotatedDimension
1001
ACAD
1000
DSTYLE
1002
{
1070
             271
1070
               3
1070
             340
1005
3E
1070
             147
1040
0.132291534375
1002
}
  0
DIMENSION
  5
21D
100
AcDbEntity
  8
Dimension
370
               5
390
0
  6
Continuous
 62
               1
100
AcDbDimension
  2
*D9
 10
-23.712499999999999
 20
47.659264457986026
 30
0.0
 11
-10.725421905517582
 21
47.659264457986026
 31
0.0
 70
             128
 71
               5
 72
               1
 41
1.0
 42
0.0
  3
IE Standard
100
AcDbAlignedDimension
 13
0.5124999999999949
 23
52.994054457986024
 33
0.0
 14
-23.712499999999999
 24
52.994054457986024
 34
0.0
100
AcDbRotatedDimension
1001
ACAD
1000
DSTYLE
1002
{
1070
             271
1070
               3
1070
             340
1005
3E
1070
             140
1040
0.7579202490234376
1070
               3
1000
<>mm (x4)
1070
             147
1040
0.132291534375
1002
}
  0
DIMENSION
  5
21E
100
AcDbEntity
  8
Dimension
370
               5
390
0
  6
Continuous
 62
               1
100
AcDbDimension
  2
*D10
 10
-22.462499999999999
 20
50.559264457986004
 30
0.0
 11
-11.506517791748049
 21
50.559264457986004
 31
0.0
 70
             128
 71
               5
 72
               1
 41
1.0
 42
0.0
  3
IE Standard
100
AcDbAlignedDimension
 13
-0.7375000000000052
 23
54.24405445798601
 33
0.0
 14
-22.462499999999999
 24
54.24405445798601
 34
0.0
100
AcDbRotatedDimension
1001
ACAD
1000
DSTYLE
1002
{
1070
             271
1070
               3
1070
             340
1005
3E
1070
               3
1000
<>mm(x4)
1070
             147
1040
0.132291534375
1002
}
  0
DIMENSION
  5
21F
100
AcDbEntity
  8
Dimension
370
               5
390
0
  6
Continuous
 62
               1
100
AcDbDimension
  2
*D11
 10
-8.4249999999999901
 20
80.367804457986196
 30
0.0
 11
-5.1951599999999942
 21
80.367804457986196
 31
0.0
 70
             128
 71
               5
 72
               1
 41
1.0
 42
0.0
  3
IE Standard
100
AcDbAlignedDimension
 13
-7.6249999999999938
 23
73.506554457986198
 33
0.0
 14
-8.4249999999999901
 24
73.506554457986198
 34
0.0
100
AcDbRotatedDimension
1001
ACAD
1000
DSTYLE
1002
{
1070
             340
1005
3E
1070
               3
1000
<>mm typ.
1070
             174
1070
               0
1070
             147
1040
0.132291534375
1002
}
  0
DIMENSION
  5
220
100
AcDbEntity
  8
Dimension
370
               5
390
0
  6
Continuous
 62
               1
100
AcDbDimension
  2
*D12
 10
-22.462499999999999
 20
80.36780445798621
 30
0.0
 11
-17.645339999999994
 21
80.36780445798621
 31
0.0
 70
             128
 71
               5
 72
               1
 41
1.0
 42
0.0
  3
IE Standard
100
AcDbAlignedDimension
 13
-19.624999999999993
 23
73.506554457986198
 33
0.0
 14
-22.462499999999999
 24
75.928844457986202
 34
0.0
100
AcDbRotatedDimension
1001
ACAD
1000
DSTYLE
1002
{
1070
             271
1070
               4
1070
             340
1005
3F
1070
               3
1000
<>mm*
1070
             174
1070
               0
1070
             147
1040
0.132291534375
1002
}
  0
DIMENSION
  5
221
100
AcDbEntity
  8
Dimension
370
               5
390
0
  6
Continuous
 62
               1
100
AcDbDimension
  2
*D13
 10
7.9318130225552439
 20
75.969054457986203
 30
0.0
 11
7.9318130225552439
 21
74.612758934745955
 31
0.0
 70
             128
 71
               5
 72
               1
 41
1.0
 42
0.0
  3
IE Standard
100
AcDbAlignedDimension
 13
-0.7375000000000052
 23
73.429054457986197
 33
0.0
 14
-0.7375000000000052
 24
75.969054457986203
 34
0.0
 50
90.0
100
AcDbRotatedDimension
1001
ACAD
1000
DSTYLE
1002
{
1070
             271
1070
               3
1070
             340
1005
3E
1070
             147
1040
0.132291534375
1002
}
  0
WIPEOUT
  5
222
100
AcDbEntity
  8
None
370
              15
390
0
  6
Continuous
 62
               1
 92
        0
100
AcDbWipeout
 90
        0
 10
8.4379500000000078
 20
20.642414957986034
 30
0.0
 11
6.8368120701770785
 21
0.0
 31
0.0
 12
0.0
 22
6.8368120701770785
 32
0.0
 13
1.0
 23
1.0
340
0
 70
               7
280
               1
281
              50
282
              50
283
               0
360
0
 71
               2
 91
        5
 14
-0.5
 24
-3.8976241691869795
 14
0.5
 24
-3.8976241691869795
 14
0.5
 24
-4.0756427380034355
 14
-0.5
 24
-4.0756427380034355
 14
-0.5
 24
-3.8976241691869795
  0
MTEXT
  5
223
100
AcDbEntity
  8
None
390
0
 62
               1
100
AcDbMText
 10
8.4379500000000078
 20
51.730646077777692
 30
0.0
 40
0.7579186197916666
 41
0.0
 71
               1
 72
               1
  1
Mounting Hole
  7
New Century Schlbk
 73
               1
 44
0.9673603504928808
  0
DIMENSION
  5
224
100
AcDbEntity
  8
Dimension
370
               5
390
0
  6
Continuous
 62
               1
100
AcDbDimension
  2
*D14
 10
-1.4592800000000006
 20
54.600514457986009
 30
0.0
 11
4.7346663917042724
 21
52.529279083488738
 31
0.0
 70
               3
 71
               5
 72
               1
 41
1.0
 42
0.0
  3
IE Standard
100
AcDbDiametricDimension
 15
-0.0157199999999955
 25
53.887594457986012
 35
0.0
 40
3.0675199999999996
1001
ACAD
1000
DSTYLE
1002
{
1070
             172
1070
               0
1070
             289
1070
               0
1070
             342
1005
6C
1070
             340
1005
3E
1070
              75
1070
               1
1070
              76
1070
               1
1070
              71
1070
               1
1070
              47
1040
0.05
1070
              48
1040
0.05
1070
               3
1000
mm (x4)
1070
             174
1070
               0
1070
             147
1040
0.132291534375
1002
}
  0
WIPEOUT
  5
225
100
AcDbEntity
  8
None
370
              15
390
0
  6
Continuous
 62
               1
 92
        0
100
AcDbWipeout
 90
        0
 10
9.4405099999999962
 20
36.553554957986222
 30
0.0
 11
7.196644308006384
 21
0.0
 31
0.0
 12
0.0
 22
7.196644308006384
 32
0.0
 13
1.0
 23
1.0
340
0
 70
               7
280
               1
281
              50
282
              50
283
               0
360
0
 71
               2
 91
        5
 14
-0.5
 24
-3.6777429470220406
 14
0.5
 24
-3.6777429470220406
 14
0.5
 24
-3.8468605868428636
 14
-0.5
 24
-3.8468605868428636
 14
-0.5
 24
-3.6777429470220406
  0
MTEXT
  5
226
100
AcDbEntity
  8
None
390
0
 62
               1
100
AcDbMText
 10
9.4405099999999962
 20
67.64178607777788
 30
0.0
 40
0.7579186197916666
 41
0.0
 71
               1
 72
               1
  1
Alignment Hole
  7
New Century Schlbk
 73
               1
 44
0.9673603504928808
  0
DIMENSION
  5
227
100
AcDbEntity
  8
Dimension
370
               5
390
0
  6
Continuous
 62
               1
100
AcDbDimension
  2
*D15
 10
-1.0819899999999985
 20
73.677954457986203
 30
0.0
 11
7.9347135432178719
 21
68.608260113741096
 31
0.0
 70
               3
 71
               5
 72
               1
 41
1.0
 42
0.0
  3
IE Standard
100
AcDbDiametricDimension
 15
-0.3930099999999976
 25
73.180154457986205
 35
0.0
 40
7.8065599999999993
1001
ACAD
1000
DSTYLE
1002
{
1070
             271
1070
               3
1070
             172
1070
               0
1070
             289
1070
               0
1070
             342
1005
6C
1070
             340
1005
3E
1070
              75
1070
               1
1070
              76
1070
               1
1070
              71
1070
               1
1070
              47
1040
0.025
1070
              48
1040
0.025
1070
               3
1000
mm (x2)
1070
             174
1070
               0
1070
             147
1040
0.132291534375
1002
}
  0
DIMENSION
  5
228
100
AcDbEntity
  8
Dimension
370
               5
390
0
  6
Continuous
 62
               1
100
AcDbDimension
  2
*D16
 10
-31.21684060459522
 20
75.969054457986203
 30
0.0
 11
-31.21684060459522
 21
74.621298684745966
 31
0.0
 70
             128
 71
               5
 72
               1
 41
1.0
 42
0.0
  3
IE Standard
100
AcDbAlignedDimension
 13
-19.624999999999993
 23
73.506554457986198
 33
0.0
 14
-22.462499999999999
 24
75.969054457986203
 34
0.0
 50
90.0
100
AcDbRotatedDimension
1001
ACAD
1000
DSTYLE
1002
{
1070
             271
1070
               4
1070
             340
1005
3E
1070
             140
1040
0.7579202490234376
1070
             147
1040
0.132291534375
1002
}
  0
INSERT
  5
229
100
AcDbEntity
  8
None
390
0
 62
               7
100
AcDbBlockReference
  2
Group-1
 10
-5.3611399999999998
 20
24.704589999999989
 30
0.0
  0
INSERT
  5
22A
100
AcDbEntity
  8
None
390
0
 62
               7
100
AcDbBlockReference
  2
layout pad
 10
-19.624999999999993
 20
56.706554457985959
 30
0.0
  0
INSERT
  5
22B
100
AcDbEntity
  8
None
390
0
 62
               7
100
AcDbBlockReference
  2
layout pad
 10
-18.824999999999996
 20
56.706554457985959
 30
0.0
  0
INSERT
  5
22C
100
AcDbEntity
  8
None
390
0
 62
               7
100
AcDbBlockReference
  2
layout pad
 10
-18.024999999999999
 20
56.706554457985959
 30
0.0
  0
INSERT
  5
22D
100
AcDbEntity
  8
None
390
0
 62
               7
100
AcDbBlockReference
  2
layout pad
 10
-17.225000000000001
 20
56.706554457985959
 30
0.0
  0
INSERT
  5
22E
100
AcDbEntity
  8
None
390
0
 62
               7
100
AcDbBlockReference
  2
layout pad
 10
-16.42499999999999
 20
56.706554457985959
 30
0.0
  0
INSERT
  5
22F
100
AcDbEntity
  8
None
390
0
 62
               7
100
AcDbBlockReference
  2
layout pad
 10
-15.624999999999993
 20
56.706554457985959
 30
0.0
  0
INSERT
  5
230
100
AcDbEntity
  8
None
390
0
 62
               7
100
AcDbBlockReference
  2
layout pad
 10
-14.824999999999996
 20
56.706554457985959
 30
0.0
  0
INSERT
  5
231
100
AcDbEntity
  8
None
390
0
 62
               7
100
AcDbBlockReference
  2
layout pad
 10
-14.024999999999999
 20
56.706554457985959
 30
0.0
  0
INSERT
  5
232
100
AcDbEntity
  8
None
390
0
 62
               7
100
AcDbBlockReference
  2
layout pad
 10
-13.225000000000001
 20
56.706554457985959
 30
0.0
  0
INSERT
  5
233
100
AcDbEntity
  8
None
390
0
 62
               7
100
AcDbBlockReference
  2
layout pad
 10
-12.42499999999999
 20
56.706554457985959
 30
0.0
  0
INSERT
  5
234
100
AcDbEntity
  8
None
390
0
 62
               7
100
AcDbBlockReference
  2
layout pad
 10
-11.624999999999993
 20
56.706554457985959
 30
0.0
  0
INSERT
  5
235
100
AcDbEntity
  8
None
390
0
 62
               7
100
AcDbBlockReference
  2
layout pad
 10
-10.824999999999996
 20
56.706554457985959
 30
0.0
  0
INSERT
  5
236
100
AcDbEntity
  8
None
390
0
 62
               7
100
AcDbBlockReference
  2
layout pad
 10
-10.024999999999999
 20
56.706554457985959
 30
0.0
  0
INSERT
  5
237
100
AcDbEntity
  8
None
390
0
 62
               7
100
AcDbBlockReference
  2
layout pad
 10
-9.2250000000000014
 20
56.706554457985959
 30
0.0
  0
INSERT
  5
238
100
AcDbEntity
  8
None
390
0
 62
               7
100
AcDbBlockReference
  2
layout pad
 10
-8.4249999999999901
 20
56.706554457985959
 30
0.0
  0
INSERT
  5
239
100
AcDbEntity
  8
None
390
0
 62
               7
100
AcDbBlockReference
  2
layout pad
 10
-7.6249999999999938
 20
56.706554457985959
 30
0.0
  0
INSERT
  5
23A
100
AcDbEntity
  8
None
390
0
 62
               7
100
AcDbBlockReference
  2
layout pad
 10
-6.8249999999999966
 20
56.706554457985959
 30
0.0
  0
INSERT
  5
23B
100
AcDbEntity
  8
None
390
0
 62
               7
100
AcDbBlockReference
  2
layout pad
 10
-6.0249999999999995
 20
56.706554457985959
 30
0.0
  0
INSERT
  5
23C
100
AcDbEntity
  8
None
390
0
 62
               7
100
AcDbBlockReference
  2
layout pad
 10
-5.2250000000000023
 20
56.706554457985959
 30
0.0
  0
INSERT
  5
23D
100
AcDbEntity
  8
None
390
0
 62
               7
100
AcDbBlockReference
  2
layout pad
 10
-4.4249999999999909
 20
56.706554457985959
 30
0.0
  0
INSERT
  5
23E
100
AcDbEntity
  8
None
390
0
 62
               7
100
AcDbBlockReference
  2
layout pad
 10
-3.6249999999999938
 20
56.706554457985959
 30
0.0
  0
INSERT
  5
23F
100
AcDbEntity
  8
None
390
0
 62
               7
100
AcDbBlockReference
  2
layout pad
 10
-2.8249999999999966
 20
56.706554457985959
 30
0.0
  0
INSERT
  5
240
100
AcDbEntity
  8
None
390
0
 62
               7
100
AcDbBlockReference
  2
layout pad
 10
-19.624999999999993
 20
57.506554457985985
 30
0.0
  0
INSERT
  5
241
100
AcDbEntity
  8
None
390
0
 62
               7
100
AcDbBlockReference
  2
layout pad
 10
-18.824999999999996
 20
57.506554457985985
 30
0.0
  0
INSERT
  5
242
100
AcDbEntity
  8
None
390
0
 62
               7
100
AcDbBlockReference
  2
layout pad
 10
-18.024999999999999
 20
57.506554457985985
 30
0.0
  0
INSERT
  5
243
100
AcDbEntity
  8
None
390
0
 62
               7
100
AcDbBlockReference
  2
layout pad
 10
-17.225000000000001
 20
57.506554457985985
 30
0.0
  0
INSERT
  5
244
100
AcDbEntity
  8
None
390
0
 62
               7
100
AcDbBlockReference
  2
layout pad
 10
-16.42499999999999
 20
57.506554457985985
 30
0.0
  0
INSERT
  5
245
100
AcDbEntity
  8
None
390
0
 62
               7
100
AcDbBlockReference
  2
layout pad
 10
-15.624999999999993
 20
57.506554457985985
 30
0.0
  0
INSERT
  5
246
100
AcDbEntity
  8
None
390
0
 62
               7
100
AcDbBlockReference
  2
layout pad
 10
-14.824999999999996
 20
57.506554457985985
 30
0.0
  0
INSERT
  5
247
100
AcDbEntity
  8
None
390
0
 62
               7
100
AcDbBlockReference
  2
layout pad
 10
-14.024999999999999
 20
57.506554457985985
 30
0.0
  0
INSERT
  5
248
100
AcDbEntity
  8
None
390
0
 62
               7
100
AcDbBlockReference
  2
layout pad
 10
-13.225000000000001
 20
57.506554457985985
 30
0.0
  0
INSERT
  5
249
100
AcDbEntity
  8
None
390
0
 62
               7
100
AcDbBlockReference
  2
layout pad
 10
-12.42499999999999
 20
57.506554457985985
 30
0.0
  0
INSERT
  5
24A
100
AcDbEntity
  8
None
390
0
 62
               7
100
AcDbBlockReference
  2
layout pad
 10
-11.624999999999993
 20
57.506554457985985
 30
0.0
  0
INSERT
  5
24B
100
AcDbEntity
  8
None
390
0
 62
               7
100
AcDbBlockReference
  2
layout pad
 10
-10.824999999999996
 20
57.506554457985985
 30
0.0
  0
INSERT
  5
24C
100
AcDbEntity
  8
None
390
0
 62
               7
100
AcDbBlockReference
  2
layout pad
 10
-10.024999999999999
 20
57.506554457985985
 30
0.0
  0
INSERT
  5
24D
100
AcDbEntity
  8
None
390
0
 62
               7
100
AcDbBlockReference
  2
layout pad
 10
-9.2250000000000014
 20
57.506554457985985
 30
0.0
  0
INSERT
  5
24E
100
AcDbEntity
  8
None
390
0
 62
               7
100
AcDbBlockReference
  2
layout pad
 10
-8.4249999999999901
 20
57.506554457985985
 30
0.0
  0
INSERT
  5
24F
100
AcDbEntity
  8
None
390
0
 62
               7
100
AcDbBlockReference
  2
layout pad
 10
-7.6249999999999938
 20
57.506554457985985
 30
0.0
  0
INSERT
  5
250
100
AcDbEntity
  8
None
390
0
 62
               7
100
AcDbBlockReference
  2
layout pad
 10
-6.8249999999999966
 20
57.506554457985985
 30
0.0
  0
INSERT
  5
251
100
AcDbEntity
  8
None
390
0
 62
               7
100
AcDbBlockReference
  2
layout pad
 10
-6.0249999999999995
 20
57.506554457985985
 30
0.0
  0
INSERT
  5
252
100
AcDbEntity
  8
None
390
0
 62
               7
100
AcDbBlockReference
  2
layout pad
 10
-5.2250000000000023
 20
57.506554457985985
 30
0.0
  0
INSERT
  5
253
100
AcDbEntity
  8
None
390
0
 62
               7
100
AcDbBlockReference
  2
layout pad
 10
-4.4249999999999909
 20
57.506554457985985
 30
0.0
  0
INSERT
  5
254
100
AcDbEntity
  8
None
390
0
 62
               7
100
AcDbBlockReference
  2
layout pad
 10
-3.6249999999999938
 20
57.506554457985985
 30
0.0
  0
INSERT
  5
255
100
AcDbEntity
  8
None
390
0
 62
               7
100
AcDbBlockReference
  2
layout pad
 10
-2.8249999999999966
 20
57.506554457985985
 30
0.0
  0
INSERT
  5
256
100
AcDbEntity
  8
None
390
0
 62
               7
100
AcDbBlockReference
  2
layout pad
 10
-19.624999999999993
 20
58.306554457986003
 30
0.0
  0
INSERT
  5
257
100
AcDbEntity
  8
None
390
0
 62
               7
100
AcDbBlockReference
  2
layout pad
 10
-18.824999999999996
 20
58.306554457986003
 30
0.0
  0
INSERT
  5
258
100
AcDbEntity
  8
None
390
0
 62
               7
100
AcDbBlockReference
  2
layout pad
 10
-18.024999999999999
 20
58.306554457986003
 30
0.0
  0
INSERT
  5
259
100
AcDbEntity
  8
None
390
0
 62
               7
100
AcDbBlockReference
  2
layout pad
 10
-17.225000000000001
 20
58.306554457986003
 30
0.0
  0
INSERT
  5
25A
100
AcDbEntity
  8
None
390
0
 62
               7
100
AcDbBlockReference
  2
layout pad
 10
-16.42499999999999
 20
58.306554457986003
 30
0.0
  0
INSERT
  5
25B
100
AcDbEntity
  8
None
390
0
 62
               7
100
AcDbBlockReference
  2
layout pad
 10
-15.624999999999993
 20
58.306554457986003
 30
0.0
  0
INSERT
  5
25C
100
AcDbEntity
  8
None
390
0
 62
               7
100
AcDbBlockReference
  2
layout pad
 10
-14.824999999999996
 20
58.306554457986003
 30
0.0
  0
INSERT
  5
25D
100
AcDbEntity
  8
None
390
0
 62
               7
100
AcDbBlockReference
  2
layout pad
 10
-14.024999999999999
 20
58.306554457986003
 30
0.0
  0
INSERT
  5
25E
100
AcDbEntity
  8
None
390
0
 62
               7
100
AcDbBlockReference
  2
layout pad
 10
-13.225000000000001
 20
58.306554457986003
 30
0.0
  0
INSERT
  5
25F
100
AcDbEntity
  8
None
390
0
 62
               7
100
AcDbBlockReference
  2
layout pad
 10
-12.42499999999999
 20
58.306554457986003
 30
0.0
  0
INSERT
  5
260
100
AcDbEntity
  8
None
390
0
 62
               7
100
AcDbBlockReference
  2
layout pad
 10
-11.624999999999993
 20
58.306554457986003
 30
0.0
  0
INSERT
  5
261
100
AcDbEntity
  8
None
390
0
 62
               7
100
AcDbBlockReference
  2
layout pad
 10
-10.824999999999996
 20
58.306554457986003
 30
0.0
  0
INSERT
  5
262
100
AcDbEntity
  8
None
390
0
 62
               7
100
AcDbBlockReference
  2
layout pad
 10
-10.024999999999999
 20
58.306554457986003
 30
0.0
  0
INSERT
  5
263
100
AcDbEntity
  8
None
390
0
 62
               7
100
AcDbBlockReference
  2
layout pad
 10
-9.2250000000000014
 20
58.306554457986003
 30
0.0
  0
INSERT
  5
264
100
AcDbEntity
  8
None
390
0
 62
               7
100
AcDbBlockReference
  2
layout pad
 10
-8.4249999999999901
 20
58.306554457986003
 30
0.0
  0
INSERT
  5
265
100
AcDbEntity
  8
None
390
0
 62
               7
100
AcDbBlockReference
  2
layout pad
 10
-7.6249999999999938
 20
58.306554457986003
 30
0.0
  0
INSERT
  5
266
100
AcDbEntity
  8
None
390
0
 62
               7
100
AcDbBlockReference
  2
layout pad
 10
-6.8249999999999966
 20
58.306554457986003
 30
0.0
  0
INSERT
  5
267
100
AcDbEntity
  8
None
390
0
 62
               7
100
AcDbBlockReference
  2
layout pad
 10
-6.0249999999999995
 20
58.306554457986003
 30
0.0
  0
INSERT
  5
268
100
AcDbEntity
  8
None
390
0
 62
               7
100
AcDbBlockReference
  2
layout pad
 10
-5.2250000000000023
 20
58.306554457986003
 30
0.0
  0
INSERT
  5
269
100
AcDbEntity
  8
None
390
0
 62
               7
100
AcDbBlockReference
  2
layout pad
 10
-4.4249999999999909
 20
58.306554457986003
 30
0.0
  0
INSERT
  5
26A
100
AcDbEntity
  8
None
390
0
 62
               7
100
AcDbBlockReference
  2
layout pad
 10
-3.6249999999999938
 20
58.306554457986003
 30
0.0
  0
INSERT
  5
26B
100
AcDbEntity
  8
None
390
0
 62
               7
100
AcDbBlockReference
  2
layout pad
 10
-2.8249999999999966
 20
58.306554457986003
 30
0.0
  0
INSERT
  5
26C
100
AcDbEntity
  8
None
390
0
 62
               7
100
AcDbBlockReference
  2
layout pad
 10
-19.624999999999993
 20
59.106554457986029
 30
0.0
  0
INSERT
  5
26D
100
AcDbEntity
  8
None
390
0
 62
               7
100
AcDbBlockReference
  2
layout pad
 10
-18.824999999999996
 20
59.106554457986029
 30
0.0
  0
INSERT
  5
26E
100
AcDbEntity
  8
None
390
0
 62
               7
100
AcDbBlockReference
  2
layout pad
 10
-18.024999999999999
 20
59.106554457986029
 30
0.0
  0
INSERT
  5
26F
100
AcDbEntity
  8
None
390
0
 62
               7
100
AcDbBlockReference
  2
layout pad
 10
-17.225000000000001
 20
59.106554457986029
 30
0.0
  0
INSERT
  5
270
100
AcDbEntity
  8
None
390
0
 62
               7
100
AcDbBlockReference
  2
layout pad
 10
-16.42499999999999
 20
59.106554457986029
 30
0.0
  0
INSERT
  5
271
100
AcDbEntity
  8
None
390
0
 62
               7
100
AcDbBlockReference
  2
layout pad
 10
-15.624999999999993
 20
59.106554457986029
 30
0.0
  0
INSERT
  5
272
100
AcDbEntity
  8
None
390
0
 62
               7
100
AcDbBlockReference
  2
layout pad
 10
-14.824999999999996
 20
59.106554457986029
 30
0.0
  0
INSERT
  5
273
100
AcDbEntity
  8
None
390
0
 62
               7
100
AcDbBlockReference
  2
layout pad
 10
-14.024999999999999
 20
59.106554457986029
 30
0.0
  0
INSERT
  5
274
100
AcDbEntity
  8
None
390
0
 62
               7
100
AcDbBlockReference
  2
layout pad
 10
-13.225000000000001
 20
59.106554457986029
 30
0.0
  0
INSERT
  5
275
100
AcDbEntity
  8
None
390
0
 62
               7
100
AcDbBlockReference
  2
layout pad
 10
-12.42499999999999
 20
59.106554457986029
 30
0.0
  0
INSERT
  5
276
100
AcDbEntity
  8
None
390
0
 62
               7
100
AcDbBlockReference
  2
layout pad
 10
-11.624999999999993
 20
59.106554457986029
 30
0.0
  0
INSERT
  5
277
100
AcDbEntity
  8
None
390
0
 62
               7
100
AcDbBlockReference
  2
layout pad
 10
-10.824999999999996
 20
59.106554457986029
 30
0.0
  0
INSERT
  5
278
100
AcDbEntity
  8
None
390
0
 62
               7
100
AcDbBlockReference
  2
layout pad
 10
-10.024999999999999
 20
59.106554457986029
 30
0.0
  0
INSERT
  5
279
100
AcDbEntity
  8
None
390
0
 62
               7
100
AcDbBlockReference
  2
layout pad
 10
-9.2250000000000014
 20
59.106554457986029
 30
0.0
  0
INSERT
  5
27A
100
AcDbEntity
  8
None
390
0
 62
               7
100
AcDbBlockReference
  2
layout pad
 10
-8.4249999999999901
 20
59.106554457986029
 30
0.0
  0
INSERT
  5
27B
100
AcDbEntity
  8
None
390
0
 62
               7
100
AcDbBlockReference
  2
layout pad
 10
-7.6249999999999938
 20
59.106554457986029
 30
0.0
  0
INSERT
  5
27C
100
AcDbEntity
  8
None
390
0
 62
               7
100
AcDbBlockReference
  2
layout pad
 10
-6.8249999999999966
 20
59.106554457986029
 30
0.0
  0
INSERT
  5
27D
100
AcDbEntity
  8
None
390
0
 62
               7
100
AcDbBlockReference
  2
layout pad
 10
-6.0249999999999995
 20
59.106554457986029
 30
0.0
  0
INSERT
  5
27E
100
AcDbEntity
  8
None
390
0
 62
               7
100
AcDbBlockReference
  2
layout pad
 10
-5.2250000000000023
 20
59.106554457986029
 30
0.0
  0
INSERT
  5
27F
100
AcDbEntity
  8
None
390
0
 62
               7
100
AcDbBlockReference
  2
layout pad
 10
-4.4249999999999909
 20
59.106554457986029
 30
0.0
  0
INSERT
  5
280
100
AcDbEntity
  8
None
390
0
 62
               7
100
AcDbBlockReference
  2
layout pad
 10
-3.6249999999999938
 20
59.106554457986029
 30
0.0
  0
INSERT
  5
281
100
AcDbEntity
  8
None
390
0
 62
               7
100
AcDbBlockReference
  2
layout pad
 10
-2.8249999999999966
 20
59.106554457986029
 30
0.0
  0
INSERT
  5
282
100
AcDbEntity
  8
None
390
0
 62
               7
100
AcDbBlockReference
  2
layout pad
 10
-19.624999999999993
 20
59.906554457986054
 30
0.0
  0
INSERT
  5
283
100
AcDbEntity
  8
None
390
0
 62
               7
100
AcDbBlockReference
  2
layout pad
 10
-18.824999999999996
 20
59.906554457986054
 30
0.0
  0
INSERT
  5
284
100
AcDbEntity
  8
None
390
0
 62
               7
100
AcDbBlockReference
  2
layout pad
 10
-18.024999999999999
 20
59.906554457986054
 30
0.0
  0
INSERT
  5
285
100
AcDbEntity
  8
None
390
0
 62
               7
100
AcDbBlockReference
  2
layout pad
 10
-17.225000000000001
 20
59.906554457986054
 30
0.0
  0
INSERT
  5
286
100
AcDbEntity
  8
None
390
0
 62
               7
100
AcDbBlockReference
  2
layout pad
 10
-16.42499999999999
 20
59.906554457986054
 30
0.0
  0
INSERT
  5
287
100
AcDbEntity
  8
None
390
0
 62
               7
100
AcDbBlockReference
  2
layout pad
 10
-15.624999999999993
 20
59.906554457986054
 30
0.0
  0
INSERT
  5
288
100
AcDbEntity
  8
None
390
0
 62
               7
100
AcDbBlockReference
  2
layout pad
 10
-14.824999999999996
 20
59.906554457986054
 30
0.0
  0
INSERT
  5
289
100
AcDbEntity
  8
None
390
0
 62
               7
100
AcDbBlockReference
  2
layout pad
 10
-14.024999999999999
 20
59.906554457986054
 30
0.0
  0
INSERT
  5
28A
100
AcDbEntity
  8
None
390
0
 62
               7
100
AcDbBlockReference
  2
layout pad
 10
-13.225000000000001
 20
59.906554457986054
 30
0.0
  0
INSERT
  5
28B
100
AcDbEntity
  8
None
390
0
 62
               7
100
AcDbBlockReference
  2
layout pad
 10
-12.42499999999999
 20
59.906554457986054
 30
0.0
  0
INSERT
  5
28C
100
AcDbEntity
  8
None
390
0
 62
               7
100
AcDbBlockReference
  2
layout pad
 10
-11.624999999999993
 20
59.906554457986054
 30
0.0
  0
INSERT
  5
28D
100
AcDbEntity
  8
None
390
0
 62
               7
100
AcDbBlockReference
  2
layout pad
 10
-10.824999999999996
 20
59.906554457986054
 30
0.0
  0
INSERT
  5
28E
100
AcDbEntity
  8
None
390
0
 62
               7
100
AcDbBlockReference
  2
layout pad
 10
-10.024999999999999
 20
59.906554457986054
 30
0.0
  0
INSERT
  5
28F
100
AcDbEntity
  8
None
390
0
 62
               7
100
AcDbBlockReference
  2
layout pad
 10
-9.2250000000000014
 20
59.906554457986054
 30
0.0
  0
INSERT
  5
290
100
AcDbEntity
  8
None
390
0
 62
               7
100
AcDbBlockReference
  2
layout pad
 10
-8.4249999999999901
 20
59.906554457986054
 30
0.0
  0
INSERT
  5
291
100
AcDbEntity
  8
None
390
0
 62
               7
100
AcDbBlockReference
  2
layout pad
 10
-7.6249999999999938
 20
59.906554457986054
 30
0.0
  0
INSERT
  5
292
100
AcDbEntity
  8
None
390
0
 62
               7
100
AcDbBlockReference
  2
layout pad
 10
-6.8249999999999966
 20
59.906554457986054
 30
0.0
  0
INSERT
  5
293
100
AcDbEntity
  8
None
390
0
 62
               7
100
AcDbBlockReference
  2
layout pad
 10
-6.0249999999999995
 20
59.906554457986054
 30
0.0
  0
INSERT
  5
294
100
AcDbEntity
  8
None
390
0
 62
               7
100
AcDbBlockReference
  2
layout pad
 10
-5.2250000000000023
 20
59.906554457986054
 30
0.0
  0
INSERT
  5
295
100
AcDbEntity
  8
None
390
0
 62
               7
100
AcDbBlockReference
  2
layout pad
 10
-4.4249999999999909
 20
59.906554457986054
 30
0.0
  0
INSERT
  5
296
100
AcDbEntity
  8
None
390
0
 62
               7
100
AcDbBlockReference
  2
layout pad
 10
-3.6249999999999938
 20
59.906554457986054
 30
0.0
  0
INSERT
  5
297
100
AcDbEntity
  8
None
390
0
 62
               7
100
AcDbBlockReference
  2
layout pad
 10
-2.8249999999999966
 20
59.906554457986054
 30
0.0
  0
INSERT
  5
298
100
AcDbEntity
  8
None
390
0
 62
               7
100
AcDbBlockReference
  2
layout pad
 10
-19.624999999999993
 20
60.70655445798608
 30
0.0
  0
INSERT
  5
299
100
AcDbEntity
  8
None
390
0
 62
               7
100
AcDbBlockReference
  2
layout pad
 10
-18.824999999999996
 20
60.70655445798608
 30
0.0
  0
INSERT
  5
29A
100
AcDbEntity
  8
None
390
0
 62
               7
100
AcDbBlockReference
  2
layout pad
 10
-18.024999999999999
 20
60.70655445798608
 30
0.0
  0
INSERT
  5
29B
100
AcDbEntity
  8
None
390
0
 62
               7
100
AcDbBlockReference
  2
layout pad
 10
-17.225000000000001
 20
60.70655445798608
 30
0.0
  0
INSERT
  5
29C
100
AcDbEntity
  8
None
390
0
 62
               7
100
AcDbBlockReference
  2
layout pad
 10
-16.42499999999999
 20
60.70655445798608
 30
0.0
  0
INSERT
  5
29D
100
AcDbEntity
  8
None
390
0
 62
               7
100
AcDbBlockReference
  2
layout pad
 10
-15.624999999999993
 20
60.70655445798608
 30
0.0
  0
INSERT
  5
29E
100
AcDbEntity
  8
None
390
0
 62
               7
100
AcDbBlockReference
  2
layout pad
 10
-14.824999999999996
 20
60.70655445798608
 30
0.0
  0
INSERT
  5
29F
100
AcDbEntity
  8
None
390
0
 62
               7
100
AcDbBlockReference
  2
layout pad
 10
-14.024999999999999
 20
60.70655445798608
 30
0.0
  0
INSERT
  5
2A0
100
AcDbEntity
  8
None
390
0
 62
               7
100
AcDbBlockReference
  2
layout pad
 10
-13.225000000000001
 20
60.70655445798608
 30
0.0
  0
INSERT
  5
2A1
100
AcDbEntity
  8
None
390
0
 62
               7
100
AcDbBlockReference
  2
layout pad
 10
-12.42499999999999
 20
60.70655445798608
 30
0.0
  0
INSERT
  5
2A2
100
AcDbEntity
  8
None
390
0
 62
               7
100
AcDbBlockReference
  2
layout pad
 10
-11.624999999999993
 20
60.70655445798608
 30
0.0
  0
INSERT
  5
2A3
100
AcDbEntity
  8
None
390
0
 62
               7
100
AcDbBlockReference
  2
layout pad
 10
-10.824999999999996
 20
60.70655445798608
 30
0.0
  0
INSERT
  5
2A4
100
AcDbEntity
  8
None
390
0
 62
               7
100
AcDbBlockReference
  2
layout pad
 10
-10.024999999999999
 20
60.70655445798608
 30
0.0
  0
INSERT
  5
2A5
100
AcDbEntity
  8
None
390
0
 62
               7
100
AcDbBlockReference
  2
layout pad
 10
-9.2250000000000014
 20
60.70655445798608
 30
0.0
  0
INSERT
  5
2A6
100
AcDbEntity
  8
None
390
0
 62
               7
100
AcDbBlockReference
  2
layout pad
 10
-8.4249999999999901
 20
60.70655445798608
 30
0.0
  0
INSERT
  5
2A7
100
AcDbEntity
  8
None
390
0
 62
               7
100
AcDbBlockReference
  2
layout pad
 10
-7.6249999999999938
 20
60.70655445798608
 30
0.0
  0
INSERT
  5
2A8
100
AcDbEntity
  8
None
390
0
 62
               7
100
AcDbBlockReference
  2
layout pad
 10
-6.8249999999999966
 20
60.70655445798608
 30
0.0
  0
INSERT
  5
2A9
100
AcDbEntity
  8
None
390
0
 62
               7
100
AcDbBlockReference
  2
layout pad
 10
-6.0249999999999995
 20
60.70655445798608
 30
0.0
  0
INSERT
  5
2AA
100
AcDbEntity
  8
None
390
0
 62
               7
100
AcDbBlockReference
  2
layout pad
 10
-5.2250000000000023
 20
60.70655445798608
 30
0.0
  0
INSERT
  5
2AB
100
AcDbEntity
  8
None
390
0
 62
               7
100
AcDbBlockReference
  2
layout pad
 10
-4.4249999999999909
 20
60.70655445798608
 30
0.0
  0
INSERT
  5
2AC
100
AcDbEntity
  8
None
390
0
 62
               7
100
AcDbBlockReference
  2
layout pad
 10
-3.6249999999999938
 20
60.70655445798608
 30
0.0
  0
INSERT
  5
2AD
100
AcDbEntity
  8
None
390
0
 62
               7
100
AcDbBlockReference
  2
layout pad
 10
-2.8249999999999966
 20
60.70655445798608
 30
0.0
  0
INSERT
  5
2AE
100
AcDbEntity
  8
None
390
0
 62
               7
100
AcDbBlockReference
  2
layout pad
 10
-19.624999999999993
 20
61.506554457986105
 30
0.0
  0
INSERT
  5
2AF
100
AcDbEntity
  8
None
390
0
 62
               7
100
AcDbBlockReference
  2
layout pad
 10
-18.824999999999996
 20
61.506554457986105
 30
0.0
  0
INSERT
  5
2B0
100
AcDbEntity
  8
None
390
0
 62
               7
100
AcDbBlockReference
  2
layout pad
 10
-18.024999999999999
 20
61.506554457986105
 30
0.0
  0
INSERT
  5
2B1
100
AcDbEntity
  8
None
390
0
 62
               7
100
AcDbBlockReference
  2
layout pad
 10
-17.225000000000001
 20
61.506554457986105
 30
0.0
  0
INSERT
  5
2B2
100
AcDbEntity
  8
None
390
0
 62
               7
100
AcDbBlockReference
  2
layout pad
 10
-16.42499999999999
 20
61.506554457986105
 30
0.0
  0
INSERT
  5
2B3
100
AcDbEntity
  8
None
390
0
 62
               7
100
AcDbBlockReference
  2
layout pad
 10
-15.624999999999993
 20
61.506554457986105
 30
0.0
  0
INSERT
  5
2B4
100
AcDbEntity
  8
None
390
0
 62
               7
100
AcDbBlockReference
  2
layout pad
 10
-14.824999999999996
 20
61.506554457986105
 30
0.0
  0
INSERT
  5
2B5
100
AcDbEntity
  8
None
390
0
 62
               7
100
AcDbBlockReference
  2
layout pad
 10
-14.024999999999999
 20
61.506554457986105
 30
0.0
  0
INSERT
  5
2B6
100
AcDbEntity
  8
None
390
0
 62
               7
100
AcDbBlockReference
  2
layout pad
 10
-13.225000000000001
 20
61.506554457986105
 30
0.0
  0
INSERT
  5
2B7
100
AcDbEntity
  8
None
390
0
 62
               7
100
AcDbBlockReference
  2
layout pad
 10
-12.42499999999999
 20
61.506554457986105
 30
0.0
  0
INSERT
  5
2B8
100
AcDbEntity
  8
None
390
0
 62
               7
100
AcDbBlockReference
  2
layout pad
 10
-11.624999999999993
 20
61.506554457986105
 30
0.0
  0
INSERT
  5
2B9
100
AcDbEntity
  8
None
390
0
 62
               7
100
AcDbBlockReference
  2
layout pad
 10
-10.824999999999996
 20
61.506554457986105
 30
0.0
  0
INSERT
  5
2BA
100
AcDbEntity
  8
None
390
0
 62
               7
100
AcDbBlockReference
  2
layout pad
 10
-10.024999999999999
 20
61.506554457986105
 30
0.0
  0
INSERT
  5
2BB
100
AcDbEntity
  8
None
390
0
 62
               7
100
AcDbBlockReference
  2
layout pad
 10
-9.2250000000000014
 20
61.506554457986105
 30
0.0
  0
INSERT
  5
2BC
100
AcDbEntity
  8
None
390
0
 62
               7
100
AcDbBlockReference
  2
layout pad
 10
-8.4249999999999901
 20
61.506554457986105
 30
0.0
  0
INSERT
  5
2BD
100
AcDbEntity
  8
None
390
0
 62
               7
100
AcDbBlockReference
  2
layout pad
 10
-7.6249999999999938
 20
61.506554457986105
 30
0.0
  0
INSERT
  5
2BE
100
AcDbEntity
  8
None
390
0
 62
               7
100
AcDbBlockReference
  2
layout pad
 10
-6.8249999999999966
 20
61.506554457986105
 30
0.0
  0
INSERT
  5
2BF
100
AcDbEntity
  8
None
390
0
 62
               7
100
AcDbBlockReference
  2
layout pad
 10
-6.0249999999999995
 20
61.506554457986105
 30
0.0
  0
INSERT
  5
2C0
100
AcDbEntity
  8
None
390
0
 62
               7
100
AcDbBlockReference
  2
layout pad
 10
-5.2250000000000023
 20
61.506554457986105
 30
0.0
  0
INSERT
  5
2C1
100
AcDbEntity
  8
None
390
0
 62
               7
100
AcDbBlockReference
  2
layout pad
 10
-4.4249999999999909
 20
61.506554457986105
 30
0.0
  0
INSERT
  5
2C2
100
AcDbEntity
  8
None
390
0
 62
               7
100
AcDbBlockReference
  2
layout pad
 10
-3.6249999999999938
 20
61.506554457986105
 30
0.0
  0
INSERT
  5
2C3
100
AcDbEntity
  8
None
390
0
 62
               7
100
AcDbBlockReference
  2
layout pad
 10
-2.8249999999999966
 20
61.506554457986105
 30
0.0
  0
INSERT
  5
2C4
100
AcDbEntity
  8
None
390
0
 62
               7
100
AcDbBlockReference
  2
layout pad
 10
-19.624999999999993
 20
62.306554457986131
 30
0.0
  0
INSERT
  5
2C5
100
AcDbEntity
  8
None
390
0
 62
               7
100
AcDbBlockReference
  2
layout pad
 10
-18.824999999999996
 20
62.306554457986131
 30
0.0
  0
INSERT
  5
2C6
100
AcDbEntity
  8
None
390
0
 62
               7
100
AcDbBlockReference
  2
layout pad
 10
-18.024999999999999
 20
62.306554457986131
 30
0.0
  0
INSERT
  5
2C7
100
AcDbEntity
  8
None
390
0
 62
               7
100
AcDbBlockReference
  2
layout pad
 10
-17.225000000000001
 20
62.306554457986131
 30
0.0
  0
INSERT
  5
2C8
100
AcDbEntity
  8
None
390
0
 62
               7
100
AcDbBlockReference
  2
layout pad
 10
-16.42499999999999
 20
62.306554457986131
 30
0.0
  0
INSERT
  5
2C9
100
AcDbEntity
  8
None
390
0
 62
               7
100
AcDbBlockReference
  2
layout pad
 10
-15.624999999999993
 20
62.306554457986131
 30
0.0
  0
INSERT
  5
2CA
100
AcDbEntity
  8
None
390
0
 62
               7
100
AcDbBlockReference
  2
layout pad
 10
-14.824999999999996
 20
62.306554457986131
 30
0.0
  0
INSERT
  5
2CB
100
AcDbEntity
  8
None
390
0
 62
               7
100
AcDbBlockReference
  2
layout pad
 10
-14.024999999999999
 20
62.306554457986131
 30
0.0
  0
INSERT
  5
2CC
100
AcDbEntity
  8
None
390
0
 62
               7
100
AcDbBlockReference
  2
layout pad
 10
-13.225000000000001
 20
62.306554457986131
 30
0.0
  0
INSERT
  5
2CD
100
AcDbEntity
  8
None
390
0
 62
               7
100
AcDbBlockReference
  2
layout pad
 10
-12.42499999999999
 20
62.306554457986131
 30
0.0
  0
INSERT
  5
2CE
100
AcDbEntity
  8
None
390
0
 62
               7
100
AcDbBlockReference
  2
layout pad
 10
-11.624999999999993
 20
62.306554457986131
 30
0.0
  0
INSERT
  5
2CF
100
AcDbEntity
  8
None
390
0
 62
               7
100
AcDbBlockReference
  2
layout pad
 10
-10.824999999999996
 20
62.306554457986131
 30
0.0
  0
INSERT
  5
2D0
100
AcDbEntity
  8
None
390
0
 62
               7
100
AcDbBlockReference
  2
layout pad
 10
-10.024999999999999
 20
62.306554457986131
 30
0.0
  0
INSERT
  5
2D1
100
AcDbEntity
  8
None
390
0
 62
               7
100
AcDbBlockReference
  2
layout pad
 10
-9.2250000000000014
 20
62.306554457986131
 30
0.0
  0
INSERT
  5
2D2
100
AcDbEntity
  8
None
390
0
 62
               7
100
AcDbBlockReference
  2
layout pad
 10
-8.4249999999999901
 20
62.306554457986131
 30
0.0
  0
INSERT
  5
2D3
100
AcDbEntity
  8
None
390
0
 62
               7
100
AcDbBlockReference
  2
layout pad
 10
-7.6249999999999938
 20
62.306554457986131
 30
0.0
  0
INSERT
  5
2D4
100
AcDbEntity
  8
None
390
0
 62
               7
100
AcDbBlockReference
  2
layout pad
 10
-6.8249999999999966
 20
62.306554457986131
 30
0.0
  0
INSERT
  5
2D5
100
AcDbEntity
  8
None
390
0
 62
               7
100
AcDbBlockReference
  2
layout pad
 10
-6.0249999999999995
 20
62.306554457986131
 30
0.0
  0
INSERT
  5
2D6
100
AcDbEntity
  8
None
390
0
 62
               7
100
AcDbBlockReference
  2
layout pad
 10
-5.2250000000000023
 20
62.306554457986131
 30
0.0
  0
INSERT
  5
2D7
100
AcDbEntity
  8
None
390
0
 62
               7
100
AcDbBlockReference
  2
layout pad
 10
-4.4249999999999909
 20
62.306554457986131
 30
0.0
  0
INSERT
  5
2D8
100
AcDbEntity
  8
None
390
0
 62
               7
100
AcDbBlockReference
  2
layout pad
 10
-3.6249999999999938
 20
62.306554457986131
 30
0.0
  0
INSERT
  5
2D9
100
AcDbEntity
  8
None
390
0
 62
               7
100
AcDbBlockReference
  2
layout pad
 10
-2.8249999999999966
 20
62.306554457986131
 30
0.0
  0
INSERT
  5
2DA
100
AcDbEntity
  8
None
390
0
 62
               7
100
AcDbBlockReference
  2
layout pad
 10
-19.624999999999993
 20
63.106554457986157
 30
0.0
  0
INSERT
  5
2DB
100
AcDbEntity
  8
None
390
0
 62
               7
100
AcDbBlockReference
  2
layout pad
 10
-18.824999999999996
 20
63.106554457986157
 30
0.0
  0
INSERT
  5
2DC
100
AcDbEntity
  8
None
390
0
 62
               7
100
AcDbBlockReference
  2
layout pad
 10
-18.024999999999999
 20
63.106554457986157
 30
0.0
  0
INSERT
  5
2DD
100
AcDbEntity
  8
None
390
0
 62
               7
100
AcDbBlockReference
  2
layout pad
 10
-17.225000000000001
 20
63.106554457986157
 30
0.0
  0
INSERT
  5
2DE
100
AcDbEntity
  8
None
390
0
 62
               7
100
AcDbBlockReference
  2
layout pad
 10
-16.42499999999999
 20
63.106554457986157
 30
0.0
  0
INSERT
  5
2DF
100
AcDbEntity
  8
None
390
0
 62
               7
100
AcDbBlockReference
  2
layout pad
 10
-15.624999999999993
 20
63.106554457986157
 30
0.0
  0
INSERT
  5
2E0
100
AcDbEntity
  8
None
390
0
 62
               7
100
AcDbBlockReference
  2
layout pad
 10
-14.824999999999996
 20
63.106554457986157
 30
0.0
  0
INSERT
  5
2E1
100
AcDbEntity
  8
None
390
0
 62
               7
100
AcDbBlockReference
  2
layout pad
 10
-14.024999999999999
 20
63.106554457986157
 30
0.0
  0
INSERT
  5
2E2
100
AcDbEntity
  8
None
390
0
 62
               7
100
AcDbBlockReference
  2
layout pad
 10
-13.225000000000001
 20
63.106554457986157
 30
0.0
  0
INSERT
  5
2E3
100
AcDbEntity
  8
None
390
0
 62
               7
100
AcDbBlockReference
  2
layout pad
 10
-12.42499999999999
 20
63.106554457986157
 30
0.0
  0
INSERT
  5
2E4
100
AcDbEntity
  8
None
390
0
 62
               7
100
AcDbBlockReference
  2
layout pad
 10
-11.624999999999993
 20
63.106554457986157
 30
0.0
  0
INSERT
  5
2E5
100
AcDbEntity
  8
None
390
0
 62
               7
100
AcDbBlockReference
  2
layout pad
 10
-10.824999999999996
 20
63.106554457986157
 30
0.0
  0
INSERT
  5
2E6
100
AcDbEntity
  8
None
390
0
 62
               7
100
AcDbBlockReference
  2
layout pad
 10
-10.024999999999999
 20
63.106554457986157
 30
0.0
  0
INSERT
  5
2E7
100
AcDbEntity
  8
None
390
0
 62
               7
100
AcDbBlockReference
  2
layout pad
 10
-9.2250000000000014
 20
63.106554457986157
 30
0.0
  0
INSERT
  5
2E8
100
AcDbEntity
  8
None
390
0
 62
               7
100
AcDbBlockReference
  2
layout pad
 10
-8.4249999999999901
 20
63.106554457986157
 30
0.0
  0
INSERT
  5
2E9
100
AcDbEntity
  8
None
390
0
 62
               7
100
AcDbBlockReference
  2
layout pad
 10
-7.6249999999999938
 20
63.106554457986157
 30
0.0
  0
INSERT
  5
2EA
100
AcDbEntity
  8
None
390
0
 62
               7
100
AcDbBlockReference
  2
layout pad
 10
-6.8249999999999966
 20
63.106554457986157
 30
0.0
  0
INSERT
  5
2EB
100
AcDbEntity
  8
None
390
0
 62
               7
100
AcDbBlockReference
  2
layout pad
 10
-6.0249999999999995
 20
63.106554457986157
 30
0.0
  0
INSERT
  5
2EC
100
AcDbEntity
  8
None
390
0
 62
               7
100
AcDbBlockReference
  2
layout pad
 10
-5.2250000000000023
 20
63.106554457986157
 30
0.0
  0
INSERT
  5
2ED
100
AcDbEntity
  8
None
390
0
 62
               7
100
AcDbBlockReference
  2
layout pad
 10
-4.4249999999999909
 20
63.106554457986157
 30
0.0
  0
INSERT
  5
2EE
100
AcDbEntity
  8
None
390
0
 62
               7
100
AcDbBlockReference
  2
layout pad
 10
-3.6249999999999938
 20
63.106554457986157
 30
0.0
  0
INSERT
  5
2EF
100
AcDbEntity
  8
None
390
0
 62
               7
100
AcDbBlockReference
  2
layout pad
 10
-2.8249999999999966
 20
63.106554457986157
 30
0.0
  0
INSERT
  5
2F0
100
AcDbEntity
  8
None
390
0
 62
               7
100
AcDbBlockReference
  2
layout pad
 10
-19.624999999999993
 20
63.906554457986182
 30
0.0
  0
INSERT
  5
2F1
100
AcDbEntity
  8
None
390
0
 62
               7
100
AcDbBlockReference
  2
layout pad
 10
-18.824999999999996
 20
63.906554457986182
 30
0.0
  0
INSERT
  5
2F2
100
AcDbEntity
  8
None
390
0
 62
               7
100
AcDbBlockReference
  2
layout pad
 10
-18.024999999999999
 20
63.906554457986182
 30
0.0
  0
INSERT
  5
2F3
100
AcDbEntity
  8
None
390
0
 62
               7
100
AcDbBlockReference
  2
layout pad
 10
-17.225000000000001
 20
63.906554457986182
 30
0.0
  0
INSERT
  5
2F4
100
AcDbEntity
  8
None
390
0
 62
               7
100
AcDbBlockReference
  2
layout pad
 10
-16.42499999999999
 20
63.906554457986182
 30
0.0
  0
INSERT
  5
2F5
100
AcDbEntity
  8
None
390
0
 62
               7
100
AcDbBlockReference
  2
layout pad
 10
-15.624999999999993
 20
63.906554457986182
 30
0.0
  0
INSERT
  5
2F6
100
AcDbEntity
  8
None
390
0
 62
               7
100
AcDbBlockReference
  2
layout pad
 10
-14.824999999999996
 20
63.906554457986182
 30
0.0
  0
INSERT
  5
2F7
100
AcDbEntity
  8
None
390
0
 62
               7
100
AcDbBlockReference
  2
layout pad
 10
-14.024999999999999
 20
63.906554457986182
 30
0.0
  0
INSERT
  5
2F8
100
AcDbEntity
  8
None
390
0
 62
               7
100
AcDbBlockReference
  2
layout pad
 10
-13.225000000000001
 20
63.906554457986182
 30
0.0
  0
INSERT
  5
2F9
100
AcDbEntity
  8
None
390
0
 62
               7
100
AcDbBlockReference
  2
layout pad
 10
-12.42499999999999
 20
63.906554457986182
 30
0.0
  0
INSERT
  5
2FA
100
AcDbEntity
  8
None
390
0
 62
               7
100
AcDbBlockReference
  2
layout pad
 10
-11.624999999999993
 20
63.906554457986182
 30
0.0
  0
INSERT
  5
2FB
100
AcDbEntity
  8
None
390
0
 62
               7
100
AcDbBlockReference
  2
layout pad
 10
-10.824999999999996
 20
63.906554457986182
 30
0.0
  0
INSERT
  5
2FC
100
AcDbEntity
  8
None
390
0
 62
               7
100
AcDbBlockReference
  2
layout pad
 10
-10.024999999999999
 20
63.906554457986182
 30
0.0
  0
INSERT
  5
2FD
100
AcDbEntity
  8
None
390
0
 62
               7
100
AcDbBlockReference
  2
layout pad
 10
-9.2250000000000014
 20
63.906554457986182
 30
0.0
  0
INSERT
  5
2FE
100
AcDbEntity
  8
None
390
0
 62
               7
100
AcDbBlockReference
  2
layout pad
 10
-8.4249999999999901
 20
63.906554457986182
 30
0.0
  0
INSERT
  5
2FF
100
AcDbEntity
  8
None
390
0
 62
               7
100
AcDbBlockReference
  2
layout pad
 10
-7.6249999999999938
 20
63.906554457986182
 30
0.0
  0
INSERT
  5
300
100
AcDbEntity
  8
None
390
0
 62
               7
100
AcDbBlockReference
  2
layout pad
 10
-6.8249999999999966
 20
63.906554457986182
 30
0.0
  0
INSERT
  5
301
100
AcDbEntity
  8
None
390
0
 62
               7
100
AcDbBlockReference
  2
layout pad
 10
-6.0249999999999995
 20
63.906554457986182
 30
0.0
  0
INSERT
  5
302
100
AcDbEntity
  8
None
390
0
 62
               7
100
AcDbBlockReference
  2
layout pad
 10
-5.2250000000000023
 20
63.906554457986182
 30
0.0
  0
INSERT
  5
303
100
AcDbEntity
  8
None
390
0
 62
               7
100
AcDbBlockReference
  2
layout pad
 10
-4.4249999999999909
 20
63.906554457986182
 30
0.0
  0
INSERT
  5
304
100
AcDbEntity
  8
None
390
0
 62
               7
100
AcDbBlockReference
  2
layout pad
 10
-3.6249999999999938
 20
63.906554457986182
 30
0.0
  0
INSERT
  5
305
100
AcDbEntity
  8
None
390
0
 62
               7
100
AcDbBlockReference
  2
layout pad
 10
-2.8249999999999966
 20
63.906554457986182
 30
0.0
  0
INSERT
  5
306
100
AcDbEntity
  8
None
390
0
 62
               7
100
AcDbBlockReference
  2
layout pad
 10
-19.624999999999993
 20
64.706554457986201
 30
0.0
  0
INSERT
  5
307
100
AcDbEntity
  8
None
390
0
 62
               7
100
AcDbBlockReference
  2
layout pad
 10
-18.824999999999996
 20
64.706554457986201
 30
0.0
  0
INSERT
  5
308
100
AcDbEntity
  8
None
390
0
 62
               7
100
AcDbBlockReference
  2
layout pad
 10
-18.024999999999999
 20
64.706554457986201
 30
0.0
  0
INSERT
  5
309
100
AcDbEntity
  8
None
390
0
 62
               7
100
AcDbBlockReference
  2
layout pad
 10
-17.225000000000001
 20
64.706554457986201
 30
0.0
  0
INSERT
  5
30A
100
AcDbEntity
  8
None
390
0
 62
               7
100
AcDbBlockReference
  2
layout pad
 10
-16.42499999999999
 20
64.706554457986201
 30
0.0
  0
INSERT
  5
30B
100
AcDbEntity
  8
None
390
0
 62
               7
100
AcDbBlockReference
  2
layout pad
 10
-15.624999999999993
 20
64.706554457986201
 30
0.0
  0
INSERT
  5
30C
100
AcDbEntity
  8
None
390
0
 62
               7
100
AcDbBlockReference
  2
layout pad
 10
-14.824999999999996
 20
64.706554457986201
 30
0.0
  0
INSERT
  5
30D
100
AcDbEntity
  8
None
390
0
 62
               7
100
AcDbBlockReference
  2
layout pad
 10
-14.024999999999999
 20
64.706554457986201
 30
0.0
  0
INSERT
  5
30E
100
AcDbEntity
  8
None
390
0
 62
               7
100
AcDbBlockReference
  2
layout pad
 10
-13.225000000000001
 20
64.706554457986201
 30
0.0
  0
INSERT
  5
30F
100
AcDbEntity
  8
None
390
0
 62
               7
100
AcDbBlockReference
  2
layout pad
 10
-12.42499999999999
 20
64.706554457986201
 30
0.0
  0
INSERT
  5
310
100
AcDbEntity
  8
None
390
0
 62
               7
100
AcDbBlockReference
  2
layout pad
 10
-11.624999999999993
 20
64.706554457986201
 30
0.0
  0
INSERT
  5
311
100
AcDbEntity
  8
None
390
0
 62
               7
100
AcDbBlockReference
  2
layout pad
 10
-10.824999999999996
 20
64.706554457986201
 30
0.0
  0
INSERT
  5
312
100
AcDbEntity
  8
None
390
0
 62
               7
100
AcDbBlockReference
  2
layout pad
 10
-10.024999999999999
 20
64.706554457986201
 30
0.0
  0
INSERT
  5
313
100
AcDbEntity
  8
None
390
0
 62
               7
100
AcDbBlockReference
  2
layout pad
 10
-9.2250000000000014
 20
64.706554457986201
 30
0.0
  0
INSERT
  5
314
100
AcDbEntity
  8
None
390
0
 62
               7
100
AcDbBlockReference
  2
layout pad
 10
-8.4249999999999901
 20
64.706554457986201
 30
0.0
  0
INSERT
  5
315
100
AcDbEntity
  8
None
390
0
 62
               7
100
AcDbBlockReference
  2
layout pad
 10
-7.6249999999999938
 20
64.706554457986201
 30
0.0
  0
INSERT
  5
316
100
AcDbEntity
  8
None
390
0
 62
               7
100
AcDbBlockReference
  2
layout pad
 10
-6.8249999999999966
 20
64.706554457986201
 30
0.0
  0
INSERT
  5
317
100
AcDbEntity
  8
None
390
0
 62
               7
100
AcDbBlockReference
  2
layout pad
 10
-6.0249999999999995
 20
64.706554457986201
 30
0.0
  0
INSERT
  5
318
100
AcDbEntity
  8
None
390
0
 62
               7
100
AcDbBlockReference
  2
layout pad
 10
-5.2250000000000023
 20
64.706554457986201
 30
0.0
  0
INSERT
  5
319
100
AcDbEntity
  8
None
390
0
 62
               7
100
AcDbBlockReference
  2
layout pad
 10
-4.4249999999999909
 20
64.706554457986201
 30
0.0
  0
INSERT
  5
31A
100
AcDbEntity
  8
None
390
0
 62
               7
100
AcDbBlockReference
  2
layout pad
 10
-3.6249999999999938
 20
64.706554457986201
 30
0.0
  0
INSERT
  5
31B
100
AcDbEntity
  8
None
390
0
 62
               7
100
AcDbBlockReference
  2
layout pad
 10
-2.8249999999999966
 20
64.706554457986201
 30
0.0
  0
INSERT
  5
31C
100
AcDbEntity
  8
None
390
0
 62
               7
100
AcDbBlockReference
  2
layout pad
 10
-19.624999999999993
 20
65.506554457986226
 30
0.0
  0
INSERT
  5
31D
100
AcDbEntity
  8
None
390
0
 62
               7
100
AcDbBlockReference
  2
layout pad
 10
-18.824999999999996
 20
65.506554457986226
 30
0.0
  0
INSERT
  5
31E
100
AcDbEntity
  8
None
390
0
 62
               7
100
AcDbBlockReference
  2
layout pad
 10
-18.024999999999999
 20
65.506554457986226
 30
0.0
  0
INSERT
  5
31F
100
AcDbEntity
  8
None
390
0
 62
               7
100
AcDbBlockReference
  2
layout pad
 10
-17.225000000000001
 20
65.506554457986226
 30
0.0
  0
INSERT
  5
320
100
AcDbEntity
  8
None
390
0
 62
               7
100
AcDbBlockReference
  2
layout pad
 10
-16.42499999999999
 20
65.506554457986226
 30
0.0
  0
INSERT
  5
321
100
AcDbEntity
  8
None
390
0
 62
               7
100
AcDbBlockReference
  2
layout pad
 10
-15.624999999999993
 20
65.506554457986226
 30
0.0
  0
INSERT
  5
322
100
AcDbEntity
  8
None
390
0
 62
               7
100
AcDbBlockReference
  2
layout pad
 10
-14.824999999999996
 20
65.506554457986226
 30
0.0
  0
INSERT
  5
323
100
AcDbEntity
  8
None
390
0
 62
               7
100
AcDbBlockReference
  2
layout pad
 10
-14.024999999999999
 20
65.506554457986226
 30
0.0
  0
INSERT
  5
324
100
AcDbEntity
  8
None
390
0
 62
               7
100
AcDbBlockReference
  2
layout pad
 10
-13.225000000000001
 20
65.506554457986226
 30
0.0
  0
INSERT
  5
325
100
AcDbEntity
  8
None
390
0
 62
               7
100
AcDbBlockReference
  2
layout pad
 10
-12.42499999999999
 20
65.506554457986226
 30
0.0
  0
INSERT
  5
326
100
AcDbEntity
  8
None
390
0
 62
               7
100
AcDbBlockReference
  2
layout pad
 10
-11.624999999999993
 20
65.506554457986226
 30
0.0
  0
INSERT
  5
327
100
AcDbEntity
  8
None
390
0
 62
               7
100
AcDbBlockReference
  2
layout pad
 10
-10.824999999999996
 20
65.506554457986226
 30
0.0
  0
INSERT
  5
328
100
AcDbEntity
  8
None
390
0
 62
               7
100
AcDbBlockReference
  2
layout pad
 10
-10.024999999999999
 20
65.506554457986226
 30
0.0
  0
INSERT
  5
329
100
AcDbEntity
  8
None
390
0
 62
               7
100
AcDbBlockReference
  2
layout pad
 10
-9.2250000000000014
 20
65.506554457986226
 30
0.0
  0
INSERT
  5
32A
100
AcDbEntity
  8
None
390
0
 62
               7
100
AcDbBlockReference
  2
layout pad
 10
-8.4249999999999901
 20
65.506554457986226
 30
0.0
  0
INSERT
  5
32B
100
AcDbEntity
  8
None
390
0
 62
               7
100
AcDbBlockReference
  2
layout pad
 10
-7.6249999999999938
 20
65.506554457986226
 30
0.0
  0
INSERT
  5
32C
100
AcDbEntity
  8
None
390
0
 62
               7
100
AcDbBlockReference
  2
layout pad
 10
-6.8249999999999966
 20
65.506554457986226
 30
0.0
  0
INSERT
  5
32D
100
AcDbEntity
  8
None
390
0
 62
               7
100
AcDbBlockReference
  2
layout pad
 10
-6.0249999999999995
 20
65.506554457986226
 30
0.0
  0
INSERT
  5
32E
100
AcDbEntity
  8
None
390
0
 62
               7
100
AcDbBlockReference
  2
layout pad
 10
-5.2250000000000023
 20
65.506554457986226
 30
0.0
  0
INSERT
  5
32F
100
AcDbEntity
  8
None
390
0
 62
               7
100
AcDbBlockReference
  2
layout pad
 10
-4.4249999999999909
 20
65.506554457986226
 30
0.0
  0
INSERT
  5
330
100
AcDbEntity
  8
None
390
0
 62
               7
100
AcDbBlockReference
  2
layout pad
 10
-3.6249999999999938
 20
65.506554457986226
 30
0.0
  0
INSERT
  5
331
100
AcDbEntity
  8
None
390
0
 62
               7
100
AcDbBlockReference
  2
layout pad
 10
-2.8249999999999966
 20
65.506554457986226
 30
0.0
  0
INSERT
  5
332
100
AcDbEntity
  8
None
390
0
 62
               7
100
AcDbBlockReference
  2
layout pad
 10
-19.624999999999993
 20
66.306554457986223
 30
0.0
  0
INSERT
  5
333
100
AcDbEntity
  8
None
390
0
 62
               7
100
AcDbBlockReference
  2
layout pad
 10
-18.824999999999996
 20
66.306554457986223
 30
0.0
  0
INSERT
  5
334
100
AcDbEntity
  8
None
390
0
 62
               7
100
AcDbBlockReference
  2
layout pad
 10
-18.024999999999999
 20
66.306554457986223
 30
0.0
  0
INSERT
  5
335
100
AcDbEntity
  8
None
390
0
 62
               7
100
AcDbBlockReference
  2
layout pad
 10
-17.225000000000001
 20
66.306554457986223
 30
0.0
  0
INSERT
  5
336
100
AcDbEntity
  8
None
390
0
 62
               7
100
AcDbBlockReference
  2
layout pad
 10
-16.42499999999999
 20
66.306554457986223
 30
0.0
  0
INSERT
  5
337
100
AcDbEntity
  8
None
390
0
 62
               7
100
AcDbBlockReference
  2
layout pad
 10
-15.624999999999993
 20
66.306554457986223
 30
0.0
  0
INSERT
  5
338
100
AcDbEntity
  8
None
390
0
 62
               7
100
AcDbBlockReference
  2
layout pad
 10
-14.824999999999996
 20
66.306554457986223
 30
0.0
  0
INSERT
  5
339
100
AcDbEntity
  8
None
390
0
 62
               7
100
AcDbBlockReference
  2
layout pad
 10
-14.024999999999999
 20
66.306554457986223
 30
0.0
  0
INSERT
  5
33A
100
AcDbEntity
  8
None
390
0
 62
               7
100
AcDbBlockReference
  2
layout pad
 10
-13.225000000000001
 20
66.306554457986223
 30
0.0
  0
INSERT
  5
33B
100
AcDbEntity
  8
None
390
0
 62
               7
100
AcDbBlockReference
  2
layout pad
 10
-12.42499999999999
 20
66.306554457986223
 30
0.0
  0
INSERT
  5
33C
100
AcDbEntity
  8
None
390
0
 62
               7
100
AcDbBlockReference
  2
layout pad
 10
-11.624999999999993
 20
66.306554457986223
 30
0.0
  0
INSERT
  5
33D
100
AcDbEntity
  8
None
390
0
 62
               7
100
AcDbBlockReference
  2
layout pad
 10
-10.824999999999996
 20
66.306554457986223
 30
0.0
  0
INSERT
  5
33E
100
AcDbEntity
  8
None
390
0
 62
               7
100
AcDbBlockReference
  2
layout pad
 10
-10.024999999999999
 20
66.306554457986223
 30
0.0
  0
INSERT
  5
33F
100
AcDbEntity
  8
None
390
0
 62
               7
100
AcDbBlockReference
  2
layout pad
 10
-9.2250000000000014
 20
66.306554457986223
 30
0.0
  0
INSERT
  5
340
100
AcDbEntity
  8
None
390
0
 62
               7
100
AcDbBlockReference
  2
layout pad
 10
-8.4249999999999901
 20
66.306554457986223
 30
0.0
  0
INSERT
  5
341
100
AcDbEntity
  8
None
390
0
 62
               7
100
AcDbBlockReference
  2
layout pad
 10
-7.6249999999999938
 20
66.306554457986223
 30
0.0
  0
INSERT
  5
342
100
AcDbEntity
  8
None
390
0
 62
               7
100
AcDbBlockReference
  2
layout pad
 10
-6.8249999999999966
 20
66.306554457986223
 30
0.0
  0
INSERT
  5
343
100
AcDbEntity
  8
None
390
0
 62
               7
100
AcDbBlockReference
  2
layout pad
 10
-6.0249999999999995
 20
66.306554457986223
 30
0.0
  0
INSERT
  5
344
100
AcDbEntity
  8
None
390
0
 62
               7
100
AcDbBlockReference
  2
layout pad
 10
-5.2250000000000023
 20
66.306554457986223
 30
0.0
  0
INSERT
  5
345
100
AcDbEntity
  8
None
390
0
 62
               7
100
AcDbBlockReference
  2
layout pad
 10
-4.4249999999999909
 20
66.306554457986223
 30
0.0
  0
INSERT
  5
346
100
AcDbEntity
  8
None
390
0
 62
               7
100
AcDbBlockReference
  2
layout pad
 10
-3.6249999999999938
 20
66.306554457986223
 30
0.0
  0
INSERT
  5
347
100
AcDbEntity
  8
None
390
0
 62
               7
100
AcDbBlockReference
  2
layout pad
 10
-2.8249999999999966
 20
66.306554457986223
 30
0.0
  0
INSERT
  5
348
100
AcDbEntity
  8
None
390
0
 62
               7
100
AcDbBlockReference
  2
layout pad
 10
-19.624999999999993
 20
67.106554457986221
 30
0.0
  0
INSERT
  5
349
100
AcDbEntity
  8
None
390
0
 62
               7
100
AcDbBlockReference
  2
layout pad
 10
-18.824999999999996
 20
67.106554457986221
 30
0.0
  0
INSERT
  5
34A
100
AcDbEntity
  8
None
390
0
 62
               7
100
AcDbBlockReference
  2
layout pad
 10
-18.024999999999999
 20
67.106554457986221
 30
0.0
  0
INSERT
  5
34B
100
AcDbEntity
  8
None
390
0
 62
               7
100
AcDbBlockReference
  2
layout pad
 10
-17.225000000000001
 20
67.106554457986221
 30
0.0
  0
INSERT
  5
34C
100
AcDbEntity
  8
None
390
0
 62
               7
100
AcDbBlockReference
  2
layout pad
 10
-16.42499999999999
 20
67.106554457986221
 30
0.0
  0
INSERT
  5
34D
100
AcDbEntity
  8
None
390
0
 62
               7
100
AcDbBlockReference
  2
layout pad
 10
-15.624999999999993
 20
67.106554457986221
 30
0.0
  0
INSERT
  5
34E
100
AcDbEntity
  8
None
390
0
 62
               7
100
AcDbBlockReference
  2
layout pad
 10
-14.824999999999996
 20
67.106554457986221
 30
0.0
  0
INSERT
  5
34F
100
AcDbEntity
  8
None
390
0
 62
               7
100
AcDbBlockReference
  2
layout pad
 10
-14.024999999999999
 20
67.106554457986221
 30
0.0
  0
INSERT
  5
350
100
AcDbEntity
  8
None
390
0
 62
               7
100
AcDbBlockReference
  2
layout pad
 10
-13.225000000000001
 20
67.106554457986221
 30
0.0
  0
INSERT
  5
351
100
AcDbEntity
  8
None
390
0
 62
               7
100
AcDbBlockReference
  2
layout pad
 10
-12.42499999999999
 20
67.106554457986221
 30
0.0
  0
INSERT
  5
352
100
AcDbEntity
  8
None
390
0
 62
               7
100
AcDbBlockReference
  2
layout pad
 10
-11.624999999999993
 20
67.106554457986221
 30
0.0
  0
INSERT
  5
353
100
AcDbEntity
  8
None
390
0
 62
               7
100
AcDbBlockReference
  2
layout pad
 10
-10.824999999999996
 20
67.106554457986221
 30
0.0
  0
INSERT
  5
354
100
AcDbEntity
  8
None
390
0
 62
               7
100
AcDbBlockReference
  2
layout pad
 10
-10.024999999999999
 20
67.106554457986221
 30
0.0
  0
INSERT
  5
355
100
AcDbEntity
  8
None
390
0
 62
               7
100
AcDbBlockReference
  2
layout pad
 10
-9.2250000000000014
 20
67.106554457986221
 30
0.0
  0
INSERT
  5
356
100
AcDbEntity
  8
None
390
0
 62
               7
100
AcDbBlockReference
  2
layout pad
 10
-8.4249999999999901
 20
67.106554457986221
 30
0.0
  0
INSERT
  5
357
100
AcDbEntity
  8
None
390
0
 62
               7
100
AcDbBlockReference
  2
layout pad
 10
-7.6249999999999938
 20
67.106554457986221
 30
0.0
  0
INSERT
  5
358
100
AcDbEntity
  8
None
390
0
 62
               7
100
AcDbBlockReference
  2
layout pad
 10
-6.8249999999999966
 20
67.106554457986221
 30
0.0
  0
INSERT
  5
359
100
AcDbEntity
  8
None
390
0
 62
               7
100
AcDbBlockReference
  2
layout pad
 10
-6.0249999999999995
 20
67.106554457986221
 30
0.0
  0
INSERT
  5
35A
100
AcDbEntity
  8
None
390
0
 62
               7
100
AcDbBlockReference
  2
layout pad
 10
-5.2250000000000023
 20
67.106554457986221
 30
0.0
  0
INSERT
  5
35B
100
AcDbEntity
  8
None
390
0
 62
               7
100
AcDbBlockReference
  2
layout pad
 10
-4.4249999999999909
 20
67.106554457986221
 30
0.0
  0
INSERT
  5
35C
100
AcDbEntity
  8
None
390
0
 62
               7
100
AcDbBlockReference
  2
layout pad
 10
-3.6249999999999938
 20
67.106554457986221
 30
0.0
  0
INSERT
  5
35D
100
AcDbEntity
  8
None
390
0
 62
               7
100
AcDbBlockReference
  2
layout pad
 10
-2.8249999999999966
 20
67.106554457986221
 30
0.0
  0
INSERT
  5
35E
100
AcDbEntity
  8
None
390
0
 62
               7
100
AcDbBlockReference
  2
layout pad
 10
-19.624999999999993
 20
67.906554457986218
 30
0.0
  0
INSERT
  5
35F
100
AcDbEntity
  8
None
390
0
 62
               7
100
AcDbBlockReference
  2
layout pad
 10
-18.824999999999996
 20
67.906554457986218
 30
0.0
  0
INSERT
  5
360
100
AcDbEntity
  8
None
390
0
 62
               7
100
AcDbBlockReference
  2
layout pad
 10
-18.024999999999999
 20
67.906554457986218
 30
0.0
  0
INSERT
  5
361
100
AcDbEntity
  8
None
390
0
 62
               7
100
AcDbBlockReference
  2
layout pad
 10
-17.225000000000001
 20
67.906554457986218
 30
0.0
  0
INSERT
  5
362
100
AcDbEntity
  8
None
390
0
 62
               7
100
AcDbBlockReference
  2
layout pad
 10
-16.42499999999999
 20
67.906554457986218
 30
0.0
  0
INSERT
  5
363
100
AcDbEntity
  8
None
390
0
 62
               7
100
AcDbBlockReference
  2
layout pad
 10
-15.624999999999993
 20
67.906554457986218
 30
0.0
  0
INSERT
  5
364
100
AcDbEntity
  8
None
390
0
 62
               7
100
AcDbBlockReference
  2
layout pad
 10
-14.824999999999996
 20
67.906554457986218
 30
0.0
  0
INSERT
  5
365
100
AcDbEntity
  8
None
390
0
 62
               7
100
AcDbBlockReference
  2
layout pad
 10
-14.024999999999999
 20
67.906554457986218
 30
0.0
  0
INSERT
  5
366
100
AcDbEntity
  8
None
390
0
 62
               7
100
AcDbBlockReference
  2
layout pad
 10
-13.225000000000001
 20
67.906554457986218
 30
0.0
  0
INSERT
  5
367
100
AcDbEntity
  8
None
390
0
 62
               7
100
AcDbBlockReference
  2
layout pad
 10
-12.42499999999999
 20
67.906554457986218
 30
0.0
  0
INSERT
  5
368
100
AcDbEntity
  8
None
390
0
 62
               7
100
AcDbBlockReference
  2
layout pad
 10
-11.624999999999993
 20
67.906554457986218
 30
0.0
  0
INSERT
  5
369
100
AcDbEntity
  8
None
390
0
 62
               7
100
AcDbBlockReference
  2
layout pad
 10
-10.824999999999996
 20
67.906554457986218
 30
0.0
  0
INSERT
  5
36A
100
AcDbEntity
  8
None
390
0
 62
               7
100
AcDbBlockReference
  2
layout pad
 10
-10.024999999999999
 20
67.906554457986218
 30
0.0
  0
INSERT
  5
36B
100
AcDbEntity
  8
None
390
0
 62
               7
100
AcDbBlockReference
  2
layout pad
 10
-9.2250000000000014
 20
67.906554457986218
 30
0.0
  0
INSERT
  5
36C
100
AcDbEntity
  8
None
390
0
 62
               7
100
AcDbBlockReference
  2
layout pad
 10
-8.4249999999999901
 20
67.906554457986218
 30
0.0
  0
INSERT
  5
36D
100
AcDbEntity
  8
None
390
0
 62
               7
100
AcDbBlockReference
  2
layout pad
 10
-7.6249999999999938
 20
67.906554457986218
 30
0.0
  0
INSERT
  5
36E
100
AcDbEntity
  8
None
390
0
 62
               7
100
AcDbBlockReference
  2
layout pad
 10
-6.8249999999999966
 20
67.906554457986218
 30
0.0
  0
INSERT
  5
36F
100
AcDbEntity
  8
None
390
0
 62
               7
100
AcDbBlockReference
  2
layout pad
 10
-6.0249999999999995
 20
67.906554457986218
 30
0.0
  0
INSERT
  5
370
100
AcDbEntity
  8
None
390
0
 62
               7
100
AcDbBlockReference
  2
layout pad
 10
-5.2250000000000023
 20
67.906554457986218
 30
0.0
  0
INSERT
  5
371
100
AcDbEntity
  8
None
390
0
 62
               7
100
AcDbBlockReference
  2
layout pad
 10
-4.4249999999999909
 20
67.906554457986218
 30
0.0
  0
INSERT
  5
372
100
AcDbEntity
  8
None
390
0
 62
               7
100
AcDbBlockReference
  2
layout pad
 10
-3.6249999999999938
 20
67.906554457986218
 30
0.0
  0
INSERT
  5
373
100
AcDbEntity
  8
None
390
0
 62
               7
100
AcDbBlockReference
  2
layout pad
 10
-2.8249999999999966
 20
67.906554457986218
 30
0.0
  0
INSERT
  5
374
100
AcDbEntity
  8
None
390
0
 62
               7
100
AcDbBlockReference
  2
layout pad
 10
-19.624999999999993
 20
68.706554457986215
 30
0.0
  0
INSERT
  5
375
100
AcDbEntity
  8
None
390
0
 62
               7
100
AcDbBlockReference
  2
layout pad
 10
-18.824999999999996
 20
68.706554457986215
 30
0.0
  0
INSERT
  5
376
100
AcDbEntity
  8
None
390
0
 62
               7
100
AcDbBlockReference
  2
layout pad
 10
-18.024999999999999
 20
68.706554457986215
 30
0.0
  0
INSERT
  5
377
100
AcDbEntity
  8
None
390
0
 62
               7
100
AcDbBlockReference
  2
layout pad
 10
-17.225000000000001
 20
68.706554457986215
 30
0.0
  0
INSERT
  5
378
100
AcDbEntity
  8
None
390
0
 62
               7
100
AcDbBlockReference
  2
layout pad
 10
-16.42499999999999
 20
68.706554457986215
 30
0.0
  0
INSERT
  5
379
100
AcDbEntity
  8
None
390
0
 62
               7
100
AcDbBlockReference
  2
layout pad
 10
-15.624999999999993
 20
68.706554457986215
 30
0.0
  0
INSERT
  5
37A
100
AcDbEntity
  8
None
390
0
 62
               7
100
AcDbBlockReference
  2
layout pad
 10
-14.824999999999996
 20
68.706554457986215
 30
0.0
  0
INSERT
  5
37B
100
AcDbEntity
  8
None
390
0
 62
               7
100
AcDbBlockReference
  2
layout pad
 10
-14.024999999999999
 20
68.706554457986215
 30
0.0
  0
INSERT
  5
37C
100
AcDbEntity
  8
None
390
0
 62
               7
100
AcDbBlockReference
  2
layout pad
 10
-13.225000000000001
 20
68.706554457986215
 30
0.0
  0
INSERT
  5
37D
100
AcDbEntity
  8
None
390
0
 62
               7
100
AcDbBlockReference
  2
layout pad
 10
-12.42499999999999
 20
68.706554457986215
 30
0.0
  0
INSERT
  5
37E
100
AcDbEntity
  8
None
390
0
 62
               7
100
AcDbBlockReference
  2
layout pad
 10
-11.624999999999993
 20
68.706554457986215
 30
0.0
  0
INSERT
  5
37F
100
AcDbEntity
  8
None
390
0
 62
               7
100
AcDbBlockReference
  2
layout pad
 10
-10.824999999999996
 20
68.706554457986215
 30
0.0
  0
INSERT
  5
380
100
AcDbEntity
  8
None
390
0
 62
               7
100
AcDbBlockReference
  2
layout pad
 10
-10.024999999999999
 20
68.706554457986215
 30
0.0
  0
INSERT
  5
381
100
AcDbEntity
  8
None
390
0
 62
               7
100
AcDbBlockReference
  2
layout pad
 10
-9.2250000000000014
 20
68.706554457986215
 30
0.0
  0
INSERT
  5
382
100
AcDbEntity
  8
None
390
0
 62
               7
100
AcDbBlockReference
  2
layout pad
 10
-8.4249999999999901
 20
68.706554457986215
 30
0.0
  0
INSERT
  5
383
100
AcDbEntity
  8
None
390
0
 62
               7
100
AcDbBlockReference
  2
layout pad
 10
-7.6249999999999938
 20
68.706554457986215
 30
0.0
  0
INSERT
  5
384
100
AcDbEntity
  8
None
390
0
 62
               7
100
AcDbBlockReference
  2
layout pad
 10
-6.8249999999999966
 20
68.706554457986215
 30
0.0
  0
INSERT
  5
385
100
AcDbEntity
  8
None
390
0
 62
               7
100
AcDbBlockReference
  2
layout pad
 10
-6.0249999999999995
 20
68.706554457986215
 30
0.0
  0
INSERT
  5
386
100
AcDbEntity
  8
None
390
0
 62
               7
100
AcDbBlockReference
  2
layout pad
 10
-5.2250000000000023
 20
68.706554457986215
 30
0.0
  0
INSERT
  5
387
100
AcDbEntity
  8
None
390
0
 62
               7
100
AcDbBlockReference
  2
layout pad
 10
-4.4249999999999909
 20
68.706554457986215
 30
0.0
  0
INSERT
  5
388
100
AcDbEntity
  8
None
390
0
 62
               7
100
AcDbBlockReference
  2
layout pad
 10
-3.6249999999999938
 20
68.706554457986215
 30
0.0
  0
INSERT
  5
389
100
AcDbEntity
  8
None
390
0
 62
               7
100
AcDbBlockReference
  2
layout pad
 10
-2.8249999999999966
 20
68.706554457986215
 30
0.0
  0
INSERT
  5
38A
100
AcDbEntity
  8
None
390
0
 62
               7
100
AcDbBlockReference
  2
layout pad
 10
-19.624999999999993
 20
69.506554457986212
 30
0.0
  0
INSERT
  5
38B
100
AcDbEntity
  8
None
390
0
 62
               7
100
AcDbBlockReference
  2
layout pad
 10
-18.824999999999996
 20
69.506554457986212
 30
0.0
  0
INSERT
  5
38C
100
AcDbEntity
  8
None
390
0
 62
               7
100
AcDbBlockReference
  2
layout pad
 10
-18.024999999999999
 20
69.506554457986212
 30
0.0
  0
INSERT
  5
38D
100
AcDbEntity
  8
None
390
0
 62
               7
100
AcDbBlockReference
  2
layout pad
 10
-17.225000000000001
 20
69.506554457986212
 30
0.0
  0
INSERT
  5
38E
100
AcDbEntity
  8
None
390
0
 62
               7
100
AcDbBlockReference
  2
layout pad
 10
-16.42499999999999
 20
69.506554457986212
 30
0.0
  0
INSERT
  5
38F
100
AcDbEntity
  8
None
390
0
 62
               7
100
AcDbBlockReference
  2
layout pad
 10
-15.624999999999993
 20
69.506554457986212
 30
0.0
  0
INSERT
  5
390
100
AcDbEntity
  8
None
390
0
 62
               7
100
AcDbBlockReference
  2
layout pad
 10
-14.824999999999996
 20
69.506554457986212
 30
0.0
  0
INSERT
  5
391
100
AcDbEntity
  8
None
390
0
 62
               7
100
AcDbBlockReference
  2
layout pad
 10
-14.024999999999999
 20
69.506554457986212
 30
0.0
  0
INSERT
  5
392
100
AcDbEntity
  8
None
390
0
 62
               7
100
AcDbBlockReference
  2
layout pad
 10
-13.225000000000001
 20
69.506554457986212
 30
0.0
  0
INSERT
  5
393
100
AcDbEntity
  8
None
390
0
 62
               7
100
AcDbBlockReference
  2
layout pad
 10
-12.42499999999999
 20
69.506554457986212
 30
0.0
  0
INSERT
  5
394
100
AcDbEntity
  8
None
390
0
 62
               7
100
AcDbBlockReference
  2
layout pad
 10
-11.624999999999993
 20
69.506554457986212
 30
0.0
  0
INSERT
  5
395
100
AcDbEntity
  8
None
390
0
 62
               7
100
AcDbBlockReference
  2
layout pad
 10
-10.824999999999996
 20
69.506554457986212
 30
0.0
  0
INSERT
  5
396
100
AcDbEntity
  8
None
390
0
 62
               7
100
AcDbBlockReference
  2
layout pad
 10
-10.024999999999999
 20
69.506554457986212
 30
0.0
  0
INSERT
  5
397
100
AcDbEntity
  8
None
390
0
 62
               7
100
AcDbBlockReference
  2
layout pad
 10
-9.2250000000000014
 20
69.506554457986212
 30
0.0
  0
INSERT
  5
398
100
AcDbEntity
  8
None
390
0
 62
               7
100
AcDbBlockReference
  2
layout pad
 10
-8.4249999999999901
 20
69.506554457986212
 30
0.0
  0
INSERT
  5
399
100
AcDbEntity
  8
None
390
0
 62
               7
100
AcDbBlockReference
  2
layout pad
 10
-7.6249999999999938
 20
69.506554457986212
 30
0.0
  0
INSERT
  5
39A
100
AcDbEntity
  8
None
390
0
 62
               7
100
AcDbBlockReference
  2
layout pad
 10
-6.8249999999999966
 20
69.506554457986212
 30
0.0
  0
INSERT
  5
39B
100
AcDbEntity
  8
None
390
0
 62
               7
100
AcDbBlockReference
  2
layout pad
 10
-6.0249999999999995
 20
69.506554457986212
 30
0.0
  0
INSERT
  5
39C
100
AcDbEntity
  8
None
390
0
 62
               7
100
AcDbBlockReference
  2
layout pad
 10
-5.2250000000000023
 20
69.506554457986212
 30
0.0
  0
INSERT
  5
39D
100
AcDbEntity
  8
None
390
0
 62
               7
100
AcDbBlockReference
  2
layout pad
 10
-4.4249999999999909
 20
69.506554457986212
 30
0.0
  0
INSERT
  5
39E
100
AcDbEntity
  8
None
390
0
 62
               7
100
AcDbBlockReference
  2
layout pad
 10
-3.6249999999999938
 20
69.506554457986212
 30
0.0
  0
INSERT
  5
39F
100
AcDbEntity
  8
None
390
0
 62
               7
100
AcDbBlockReference
  2
layout pad
 10
-2.8249999999999966
 20
69.506554457986212
 30
0.0
  0
INSERT
  5
3A0
100
AcDbEntity
  8
None
390
0
 62
               7
100
AcDbBlockReference
  2
layout pad
 10
-19.624999999999993
 20
70.306554457986209
 30
0.0
  0
INSERT
  5
3A1
100
AcDbEntity
  8
None
390
0
 62
               7
100
AcDbBlockReference
  2
layout pad
 10
-18.824999999999996
 20
70.306554457986209
 30
0.0
  0
INSERT
  5
3A2
100
AcDbEntity
  8
None
390
0
 62
               7
100
AcDbBlockReference
  2
layout pad
 10
-18.024999999999999
 20
70.306554457986209
 30
0.0
  0
INSERT
  5
3A3
100
AcDbEntity
  8
None
390
0
 62
               7
100
AcDbBlockReference
  2
layout pad
 10
-17.225000000000001
 20
70.306554457986209
 30
0.0
  0
INSERT
  5
3A4
100
AcDbEntity
  8
None
390
0
 62
               7
100
AcDbBlockReference
  2
layout pad
 10
-16.42499999999999
 20
70.306554457986209
 30
0.0
  0
INSERT
  5
3A5
100
AcDbEntity
  8
None
390
0
 62
               7
100
AcDbBlockReference
  2
layout pad
 10
-15.624999999999993
 20
70.306554457986209
 30
0.0
  0
INSERT
  5
3A6
100
AcDbEntity
  8
None
390
0
 62
               7
100
AcDbBlockReference
  2
layout pad
 10
-14.824999999999996
 20
70.306554457986209
 30
0.0
  0
INSERT
  5
3A7
100
AcDbEntity
  8
None
390
0
 62
               7
100
AcDbBlockReference
  2
layout pad
 10
-14.024999999999999
 20
70.306554457986209
 30
0.0
  0
INSERT
  5
3A8
100
AcDbEntity
  8
None
390
0
 62
               7
100
AcDbBlockReference
  2
layout pad
 10
-13.225000000000001
 20
70.306554457986209
 30
0.0
  0
INSERT
  5
3A9
100
AcDbEntity
  8
None
390
0
 62
               7
100
AcDbBlockReference
  2
layout pad
 10
-12.42499999999999
 20
70.306554457986209
 30
0.0
  0
INSERT
  5
3AA
100
AcDbEntity
  8
None
390
0
 62
               7
100
AcDbBlockReference
  2
layout pad
 10
-11.624999999999993
 20
70.306554457986209
 30
0.0
  0
INSERT
  5
3AB
100
AcDbEntity
  8
None
390
0
 62
               7
100
AcDbBlockReference
  2
layout pad
 10
-10.824999999999996
 20
70.306554457986209
 30
0.0
  0
INSERT
  5
3AC
100
AcDbEntity
  8
None
390
0
 62
               7
100
AcDbBlockReference
  2
layout pad
 10
-10.024999999999999
 20
70.306554457986209
 30
0.0
  0
INSERT
  5
3AD
100
AcDbEntity
  8
None
390
0
 62
               7
100
AcDbBlockReference
  2
layout pad
 10
-9.2250000000000014
 20
70.306554457986209
 30
0.0
  0
INSERT
  5
3AE
100
AcDbEntity
  8
None
390
0
 62
               7
100
AcDbBlockReference
  2
layout pad
 10
-8.4249999999999901
 20
70.306554457986209
 30
0.0
  0
INSERT
  5
3AF
100
AcDbEntity
  8
None
390
0
 62
               7
100
AcDbBlockReference
  2
layout pad
 10
-7.6249999999999938
 20
70.306554457986209
 30
0.0
  0
INSERT
  5
3B0
100
AcDbEntity
  8
None
390
0
 62
               7
100
AcDbBlockReference
  2
layout pad
 10
-6.8249999999999966
 20
70.306554457986209
 30
0.0
  0
INSERT
  5
3B1
100
AcDbEntity
  8
None
390
0
 62
               7
100
AcDbBlockReference
  2
layout pad
 10
-6.0249999999999995
 20
70.306554457986209
 30
0.0
  0
INSERT
  5
3B2
100
AcDbEntity
  8
None
390
0
 62
               7
100
AcDbBlockReference
  2
layout pad
 10
-5.2250000000000023
 20
70.306554457986209
 30
0.0
  0
INSERT
  5
3B3
100
AcDbEntity
  8
None
390
0
 62
               7
100
AcDbBlockReference
  2
layout pad
 10
-4.4249999999999909
 20
70.306554457986209
 30
0.0
  0
INSERT
  5
3B4
100
AcDbEntity
  8
None
390
0
 62
               7
100
AcDbBlockReference
  2
layout pad
 10
-3.6249999999999938
 20
70.306554457986209
 30
0.0
  0
INSERT
  5
3B5
100
AcDbEntity
  8
None
390
0
 62
               7
100
AcDbBlockReference
  2
layout pad
 10
-2.8249999999999966
 20
70.306554457986209
 30
0.0
  0
INSERT
  5
3B6
100
AcDbEntity
  8
None
390
0
 62
               7
100
AcDbBlockReference
  2
layout pad
 10
-19.624999999999993
 20
71.106554457986206
 30
0.0
  0
INSERT
  5
3B7
100
AcDbEntity
  8
None
390
0
 62
               7
100
AcDbBlockReference
  2
layout pad
 10
-18.824999999999996
 20
71.106554457986206
 30
0.0
  0
INSERT
  5
3B8
100
AcDbEntity
  8
None
390
0
 62
               7
100
AcDbBlockReference
  2
layout pad
 10
-18.024999999999999
 20
71.106554457986206
 30
0.0
  0
INSERT
  5
3B9
100
AcDbEntity
  8
None
390
0
 62
               7
100
AcDbBlockReference
  2
layout pad
 10
-17.225000000000001
 20
71.106554457986206
 30
0.0
  0
INSERT
  5
3BA
100
AcDbEntity
  8
None
390
0
 62
               7
100
AcDbBlockReference
  2
layout pad
 10
-16.42499999999999
 20
71.106554457986206
 30
0.0
  0
INSERT
  5
3BB
100
AcDbEntity
  8
None
390
0
 62
               7
100
AcDbBlockReference
  2
layout pad
 10
-15.624999999999993
 20
71.106554457986206
 30
0.0
  0
INSERT
  5
3BC
100
AcDbEntity
  8
None
390
0
 62
               7
100
AcDbBlockReference
  2
layout pad
 10
-14.824999999999996
 20
71.106554457986206
 30
0.0
  0
INSERT
  5
3BD
100
AcDbEntity
  8
None
390
0
 62
               7
100
AcDbBlockReference
  2
layout pad
 10
-14.024999999999999
 20
71.106554457986206
 30
0.0
  0
INSERT
  5
3BE
100
AcDbEntity
  8
None
390
0
 62
               7
100
AcDbBlockReference
  2
layout pad
 10
-13.225000000000001
 20
71.106554457986206
 30
0.0
  0
INSERT
  5
3BF
100
AcDbEntity
  8
None
390
0
 62
               7
100
AcDbBlockReference
  2
layout pad
 10
-12.42499999999999
 20
71.106554457986206
 30
0.0
  0
INSERT
  5
3C0
100
AcDbEntity
  8
None
390
0
 62
               7
100
AcDbBlockReference
  2
layout pad
 10
-11.624999999999993
 20
71.106554457986206
 30
0.0
  0
INSERT
  5
3C1
100
AcDbEntity
  8
None
390
0
 62
               7
100
AcDbBlockReference
  2
layout pad
 10
-10.824999999999996
 20
71.106554457986206
 30
0.0
  0
INSERT
  5
3C2
100
AcDbEntity
  8
None
390
0
 62
               7
100
AcDbBlockReference
  2
layout pad
 10
-10.024999999999999
 20
71.106554457986206
 30
0.0
  0
INSERT
  5
3C3
100
AcDbEntity
  8
None
390
0
 62
               7
100
AcDbBlockReference
  2
layout pad
 10
-9.2250000000000014
 20
71.106554457986206
 30
0.0
  0
INSERT
  5
3C4
100
AcDbEntity
  8
None
390
0
 62
               7
100
AcDbBlockReference
  2
layout pad
 10
-8.4249999999999901
 20
71.106554457986206
 30
0.0
  0
INSERT
  5
3C5
100
AcDbEntity
  8
None
390
0
 62
               7
100
AcDbBlockReference
  2
layout pad
 10
-7.6249999999999938
 20
71.106554457986206
 30
0.0
  0
INSERT
  5
3C6
100
AcDbEntity
  8
None
390
0
 62
               7
100
AcDbBlockReference
  2
layout pad
 10
-6.8249999999999966
 20
71.106554457986206
 30
0.0
  0
INSERT
  5
3C7
100
AcDbEntity
  8
None
390
0
 62
               7
100
AcDbBlockReference
  2
layout pad
 10
-6.0249999999999995
 20
71.106554457986206
 30
0.0
  0
INSERT
  5
3C8
100
AcDbEntity
  8
None
390
0
 62
               7
100
AcDbBlockReference
  2
layout pad
 10
-5.2250000000000023
 20
71.106554457986206
 30
0.0
  0
INSERT
  5
3C9
100
AcDbEntity
  8
None
390
0
 62
               7
100
AcDbBlockReference
  2
layout pad
 10
-4.4249999999999909
 20
71.106554457986206
 30
0.0
  0
INSERT
  5
3CA
100
AcDbEntity
  8
None
390
0
 62
               7
100
AcDbBlockReference
  2
layout pad
 10
-3.6249999999999938
 20
71.106554457986206
 30
0.0
  0
INSERT
  5
3CB
100
AcDbEntity
  8
None
390
0
 62
               7
100
AcDbBlockReference
  2
layout pad
 10
-2.8249999999999966
 20
71.106554457986206
 30
0.0
  0
INSERT
  5
3CC
100
AcDbEntity
  8
None
390
0
 62
               7
100
AcDbBlockReference
  2
layout pad
 10
-19.624999999999993
 20
71.906554457986203
 30
0.0
  0
INSERT
  5
3CD
100
AcDbEntity
  8
None
390
0
 62
               7
100
AcDbBlockReference
  2
layout pad
 10
-18.824999999999996
 20
71.906554457986203
 30
0.0
  0
INSERT
  5
3CE
100
AcDbEntity
  8
None
390
0
 62
               7
100
AcDbBlockReference
  2
layout pad
 10
-18.024999999999999
 20
71.906554457986203
 30
0.0
  0
INSERT
  5
3CF
100
AcDbEntity
  8
None
390
0
 62
               7
100
AcDbBlockReference
  2
layout pad
 10
-17.225000000000001
 20
71.906554457986203
 30
0.0
  0
INSERT
  5
3D0
100
AcDbEntity
  8
None
390
0
 62
               7
100
AcDbBlockReference
  2
layout pad
 10
-16.42499999999999
 20
71.906554457986203
 30
0.0
  0
INSERT
  5
3D1
100
AcDbEntity
  8
None
390
0
 62
               7
100
AcDbBlockReference
  2
layout pad
 10
-15.624999999999993
 20
71.906554457986203
 30
0.0
  0
INSERT
  5
3D2
100
AcDbEntity
  8
None
390
0
 62
               7
100
AcDbBlockReference
  2
layout pad
 10
-14.824999999999996
 20
71.906554457986203
 30
0.0
  0
INSERT
  5
3D3
100
AcDbEntity
  8
None
390
0
 62
               7
100
AcDbBlockReference
  2
layout pad
 10
-14.024999999999999
 20
71.906554457986203
 30
0.0
  0
INSERT
  5
3D4
100
AcDbEntity
  8
None
390
0
 62
               7
100
AcDbBlockReference
  2
layout pad
 10
-13.225000000000001
 20
71.906554457986203
 30
0.0
  0
INSERT
  5
3D5
100
AcDbEntity
  8
None
390
0
 62
               7
100
AcDbBlockReference
  2
layout pad
 10
-12.42499999999999
 20
71.906554457986203
 30
0.0
  0
INSERT
  5
3D6
100
AcDbEntity
  8
None
390
0
 62
               7
100
AcDbBlockReference
  2
layout pad
 10
-11.624999999999993
 20
71.906554457986203
 30
0.0
  0
INSERT
  5
3D7
100
AcDbEntity
  8
None
390
0
 62
               7
100
AcDbBlockReference
  2
layout pad
 10
-10.824999999999996
 20
71.906554457986203
 30
0.0
  0
INSERT
  5
3D8
100
AcDbEntity
  8
None
390
0
 62
               7
100
AcDbBlockReference
  2
layout pad
 10
-10.024999999999999
 20
71.906554457986203
 30
0.0
  0
INSERT
  5
3D9
100
AcDbEntity
  8
None
390
0
 62
               7
100
AcDbBlockReference
  2
layout pad
 10
-9.2250000000000014
 20
71.906554457986203
 30
0.0
  0
INSERT
  5
3DA
100
AcDbEntity
  8
None
390
0
 62
               7
100
AcDbBlockReference
  2
layout pad
 10
-8.4249999999999901
 20
71.906554457986203
 30
0.0
  0
INSERT
  5
3DB
100
AcDbEntity
  8
None
390
0
 62
               7
100
AcDbBlockReference
  2
layout pad
 10
-7.6249999999999938
 20
71.906554457986203
 30
0.0
  0
INSERT
  5
3DC
100
AcDbEntity
  8
None
390
0
 62
               7
100
AcDbBlockReference
  2
layout pad
 10
-6.8249999999999966
 20
71.906554457986203
 30
0.0
  0
INSERT
  5
3DD
100
AcDbEntity
  8
None
390
0
 62
               7
100
AcDbBlockReference
  2
layout pad
 10
-6.0249999999999995
 20
71.906554457986203
 30
0.0
  0
INSERT
  5
3DE
100
AcDbEntity
  8
None
390
0
 62
               7
100
AcDbBlockReference
  2
layout pad
 10
-5.2250000000000023
 20
71.906554457986203
 30
0.0
  0
INSERT
  5
3DF
100
AcDbEntity
  8
None
390
0
 62
               7
100
AcDbBlockReference
  2
layout pad
 10
-4.4249999999999909
 20
71.906554457986203
 30
0.0
  0
INSERT
  5
3E0
100
AcDbEntity
  8
None
390
0
 62
               7
100
AcDbBlockReference
  2
layout pad
 10
-3.6249999999999938
 20
71.906554457986203
 30
0.0
  0
INSERT
  5
3E1
100
AcDbEntity
  8
None
390
0
 62
               7
100
AcDbBlockReference
  2
layout pad
 10
-2.8249999999999966
 20
71.906554457986203
 30
0.0
  0
INSERT
  5
3E2
100
AcDbEntity
  8
None
390
0
 62
               7
100
AcDbBlockReference
  2
layout pad
 10
-19.624999999999993
 20
72.706554457986201
 30
0.0
  0
INSERT
  5
3E3
100
AcDbEntity
  8
None
390
0
 62
               7
100
AcDbBlockReference
  2
layout pad
 10
-18.824999999999996
 20
72.706554457986201
 30
0.0
  0
INSERT
  5
3E4
100
AcDbEntity
  8
None
390
0
 62
               7
100
AcDbBlockReference
  2
layout pad
 10
-18.024999999999999
 20
72.706554457986201
 30
0.0
  0
INSERT
  5
3E5
100
AcDbEntity
  8
None
390
0
 62
               7
100
AcDbBlockReference
  2
layout pad
 10
-17.225000000000001
 20
72.706554457986201
 30
0.0
  0
INSERT
  5
3E6
100
AcDbEntity
  8
None
390
0
 62
               7
100
AcDbBlockReference
  2
layout pad
 10
-16.42499999999999
 20
72.706554457986201
 30
0.0
  0
INSERT
  5
3E7
100
AcDbEntity
  8
None
390
0
 62
               7
100
AcDbBlockReference
  2
layout pad
 10
-15.624999999999993
 20
72.706554457986201
 30
0.0
  0
INSERT
  5
3E8
100
AcDbEntity
  8
None
390
0
 62
               7
100
AcDbBlockReference
  2
layout pad
 10
-14.824999999999996
 20
72.706554457986201
 30
0.0
  0
INSERT
  5
3E9
100
AcDbEntity
  8
None
390
0
 62
               7
100
AcDbBlockReference
  2
layout pad
 10
-14.024999999999999
 20
72.706554457986201
 30
0.0
  0
INSERT
  5
3EA
100
AcDbEntity
  8
None
390
0
 62
               7
100
AcDbBlockReference
  2
layout pad
 10
-13.225000000000001
 20
72.706554457986201
 30
0.0
  0
INSERT
  5
3EB
100
AcDbEntity
  8
None
390
0
 62
               7
100
AcDbBlockReference
  2
layout pad
 10
-12.42499999999999
 20
72.706554457986201
 30
0.0
  0
INSERT
  5
3EC
100
AcDbEntity
  8
None
390
0
 62
               7
100
AcDbBlockReference
  2
layout pad
 10
-11.624999999999993
 20
72.706554457986201
 30
0.0
  0
INSERT
  5
3ED
100
AcDbEntity
  8
None
390
0
 62
               7
100
AcDbBlockReference
  2
layout pad
 10
-10.824999999999996
 20
72.706554457986201
 30
0.0
  0
INSERT
  5
3EE
100
AcDbEntity
  8
None
390
0
 62
               7
100
AcDbBlockReference
  2
layout pad
 10
-10.024999999999999
 20
72.706554457986201
 30
0.0
  0
INSERT
  5
3EF
100
AcDbEntity
  8
None
390
0
 62
               7
100
AcDbBlockReference
  2
layout pad
 10
-9.2250000000000014
 20
72.706554457986201
 30
0.0
  0
INSERT
  5
3F0
100
AcDbEntity
  8
None
390
0
 62
               7
100
AcDbBlockReference
  2
layout pad
 10
-8.4249999999999901
 20
72.706554457986201
 30
0.0
  0
INSERT
  5
3F1
100
AcDbEntity
  8
None
390
0
 62
               7
100
AcDbBlockReference
  2
layout pad
 10
-7.6249999999999938
 20
72.706554457986201
 30
0.0
  0
INSERT
  5
3F2
100
AcDbEntity
  8
None
390
0
 62
               7
100
AcDbBlockReference
  2
layout pad
 10
-6.8249999999999966
 20
72.706554457986201
 30
0.0
  0
INSERT
  5
3F3
100
AcDbEntity
  8
None
390
0
 62
               7
100
AcDbBlockReference
  2
layout pad
 10
-6.0249999999999995
 20
72.706554457986201
 30
0.0
  0
INSERT
  5
3F4
100
AcDbEntity
  8
None
390
0
 62
               7
100
AcDbBlockReference
  2
layout pad
 10
-5.2250000000000023
 20
72.706554457986201
 30
0.0
  0
INSERT
  5
3F5
100
AcDbEntity
  8
None
390
0
 62
               7
100
AcDbBlockReference
  2
layout pad
 10
-4.4249999999999909
 20
72.706554457986201
 30
0.0
  0
INSERT
  5
3F6
100
AcDbEntity
  8
None
390
0
 62
               7
100
AcDbBlockReference
  2
layout pad
 10
-3.6249999999999938
 20
72.706554457986201
 30
0.0
  0
INSERT
  5
3F7
100
AcDbEntity
  8
None
390
0
 62
               7
100
AcDbBlockReference
  2
layout pad
 10
-2.8249999999999966
 20
72.706554457986201
 30
0.0
  0
INSERT
  5
3F8
100
AcDbEntity
  8
None
390
0
 62
               7
100
AcDbBlockReference
  2
layout pad
 10
-19.624999999999993
 20
73.506554457986198
 30
0.0
  0
INSERT
  5
3F9
100
AcDbEntity
  8
None
390
0
 62
               7
100
AcDbBlockReference
  2
layout pad
 10
-18.824999999999996
 20
73.506554457986198
 30
0.0
  0
INSERT
  5
3FA
100
AcDbEntity
  8
None
390
0
 62
               7
100
AcDbBlockReference
  2
layout pad
 10
-18.024999999999999
 20
73.506554457986198
 30
0.0
  0
INSERT
  5
3FB
100
AcDbEntity
  8
None
390
0
 62
               7
100
AcDbBlockReference
  2
layout pad
 10
-17.225000000000001
 20
73.506554457986198
 30
0.0
  0
INSERT
  5
3FC
100
AcDbEntity
  8
None
390
0
 62
               7
100
AcDbBlockReference
  2
layout pad
 10
-16.42499999999999
 20
73.506554457986198
 30
0.0
  0
INSERT
  5
3FD
100
AcDbEntity
  8
None
390
0
 62
               7
100
AcDbBlockReference
  2
layout pad
 10
-15.624999999999993
 20
73.506554457986198
 30
0.0
  0
INSERT
  5
3FE
100
AcDbEntity
  8
None
390
0
 62
               7
100
AcDbBlockReference
  2
layout pad
 10
-14.824999999999996
 20
73.506554457986198
 30
0.0
  0
INSERT
  5
3FF
100
AcDbEntity
  8
None
390
0
 62
               7
100
AcDbBlockReference
  2
layout pad
 10
-14.024999999999999
 20
73.506554457986198
 30
0.0
  0
INSERT
  5
400
100
AcDbEntity
  8
None
390
0
 62
               7
100
AcDbBlockReference
  2
layout pad
 10
-13.225000000000001
 20
73.506554457986198
 30
0.0
  0
INSERT
  5
401
100
AcDbEntity
  8
None
390
0
 62
               7
100
AcDbBlockReference
  2
layout pad
 10
-12.42499999999999
 20
73.506554457986198
 30
0.0
  0
INSERT
  5
402
100
AcDbEntity
  8
None
390
0
 62
               7
100
AcDbBlockReference
  2
layout pad
 10
-11.624999999999993
 20
73.506554457986198
 30
0.0
  0
INSERT
  5
403
100
AcDbEntity
  8
None
390
0
 62
               7
100
AcDbBlockReference
  2
layout pad
 10
-10.824999999999996
 20
73.506554457986198
 30
0.0
  0
INSERT
  5
404
100
AcDbEntity
  8
None
390
0
 62
               7
100
AcDbBlockReference
  2
layout pad
 10
-10.024999999999999
 20
73.506554457986198
 30
0.0
  0
INSERT
  5
405
100
AcDbEntity
  8
None
390
0
 62
               7
100
AcDbBlockReference
  2
layout pad
 10
-9.2250000000000014
 20
73.506554457986198
 30
0.0
  0
INSERT
  5
406
100
AcDbEntity
  8
None
390
0
 62
               7
100
AcDbBlockReference
  2
layout pad
 10
-8.4249999999999901
 20
73.506554457986198
 30
0.0
  0
INSERT
  5
407
100
AcDbEntity
  8
None
390
0
 62
               7
100
AcDbBlockReference
  2
layout pad
 10
-7.6249999999999938
 20
73.506554457986198
 30
0.0
  0
INSERT
  5
408
100
AcDbEntity
  8
None
390
0
 62
               7
100
AcDbBlockReference
  2
layout pad
 10
-6.8249999999999966
 20
73.506554457986198
 30
0.0
  0
INSERT
  5
409
100
AcDbEntity
  8
None
390
0
 62
               7
100
AcDbBlockReference
  2
layout pad
 10
-6.0249999999999995
 20
73.506554457986198
 30
0.0
  0
INSERT
  5
40A
100
AcDbEntity
  8
None
390
0
 62
               7
100
AcDbBlockReference
  2
layout pad
 10
-5.2250000000000023
 20
73.506554457986198
 30
0.0
  0
INSERT
  5
40B
100
AcDbEntity
  8
None
390
0
 62
               7
100
AcDbBlockReference
  2
layout pad
 10
-4.4249999999999909
 20
73.506554457986198
 30
0.0
  0
INSERT
  5
40C
100
AcDbEntity
  8
None
390
0
 62
               7
100
AcDbBlockReference
  2
layout pad
 10
-3.6249999999999938
 20
73.506554457986198
 30
0.0
  0
INSERT
  5
40D
100
AcDbEntity
  8
None
390
0
 62
               7
100
AcDbBlockReference
  2
layout pad
 10
-2.8249999999999966
 20
73.506554457986198
 30
0.0
  0
DIMENSION
  5
40E
100
AcDbEntity
  8
Dimension
370
               9
390
0
  6
Continuous
 62
               1
100
AcDbDimension
  2
*D19
 10
-2.969584641378014
 20
68.066383557716406
 30
0.0
 11
4.7548372802808627
 21
64.761383557716243
 31
0.0
 70
               3
 71
               5
 72
               1
 41
1.0
 42
0.0
  3
IE Standard
100
AcDbDiametricDimension
 15
-2.6058539717877887
 25
67.856383557715972
 35
0.0
 40
6.189999999999551
1001
ACAD
1000
DSTYLE
1002
{
1070
             172
1070
               0
1070
             289
1070
               0
1070
             342
1005
6C
1070
             340
1005
3E
1070
             140
1040
0.7579202490234376
1070
              75
1070
               1
1070
              76
1070
               1
1070
               3
1000
mm pad
1070
             174
1070
               0
1070
             147
1040
0.132291534375
1002
}
  0
INSERT
  5
40F
100
AcDbEntity
  8
None
390
0
 62
               7
100
AcDbBlockReference
  2
Group-3
 10
-5.3611399999999998
 20
24.704589999999989
 30
0.0
  0
DIMENSION
  5
410
100
AcDbEntity
  8
Dimension
370
               9
390
0
  6
Continuous
 62
               1
100
AcDbDimension
  2
*D22
 10
-24.962499999999999
 20
44.107659588781019
 30
0.0
 11
-11.735876099878812
 21
44.107659588781019
 31
0.0
 70
             128
 71
               5
 72
               1
 41
1.0
 42
0.0
  3
IE Standard
100
AcDbAlignedDimension
 13
1.7624999999999948
 23
51.744054457985918
 33
0.0
 14
-24.962499999999999
 24
51.744054457985918
 34
0.0
100
AcDbRotatedDimension
1001
ACAD
1000
DSTYLE
1002
{
1070
             271
1070
               3
1070
             340
1005
3E
1070
             140
1040
0.7579202490234376
1070
               3
1000
<>mm sq. backing plate
1070
             147
1040
0.132291534375
1002
}
  0
CIRCLE
  5
411
100
AcDbEntity
  8
None
370
               9
390
0
  6
STYLE_12
 62
               7
100
AcDbCircle
 10
-22.462499999999999
 20
54.24405445798601
 30
0.0
 40
2.3876038540763078
  0
CIRCLE
  5
412
100
AcDbEntity
  8
None
370
               9
390
0
  6
STYLE_12
 62
               7
100
AcDbCircle
 10
-22.462499999999999
 20
75.969054457986203
 30
0.0
 40
2.3876038540763078
  0
INSERT
  5
413
100
AcDbEntity
  8
None
390
0
 62
               5
100
AcDbBlockReference
  2
Group-4
 10
-5.3611399999999998
 20
24.704589999999989
 30
0.0
  0
WIPEOUT
  5
414
100
AcDbEntity
  8
None
370
              15
390
0
  6
Continuous
 62
               1
 92
        0
100
AcDbWipeout
 90
        0
 10
11.322990423791154
 20
25.33848968474571
 30
0.0
 11
6.2970095762088469
 21
0.0
 31
0.0
 12
0.0
 22
6.2970095762088469
 32
0.0
 13
1.0
 23
1.0
340
0
 70
               7
280
               1
281
              50
282
              50
283
               0
360
0
 71
               2
 91
        5
 14
-0.5
 24
-4.2746044588519183
 14
0.5
 24
-4.2746044588519183
 14
0.5
 24
-4.6611623909212385
 14
-0.5
 24
-4.6611623909212385
 14
-0.5
 24
-4.2746044588519183
  0
MTEXT
  5
415
100
AcDbEntity
  8
None
390
0
 62
               1
100
AcDbMText
 10
11.322990423791154
 20
57.643800304537365
 30
0.0
 40
0.7579186197916666
 41
6.2970095762088469
 71
               1
 72
               1
  1
Socket Lid Size (item 1)
  7
Arial
 73
               1
 44
0.9673603504928808
  0
LINE
  5
416
100
AcDbEntity
  8
None
370
               5
390
0
  6
Continuous
 62
               1
100
AcDbLine
 10
11.32299042379114
 20
56.621298684745668
 30
0.0
 11
5.1555204237911463
 21
56.621298684745668
 31
0.0
  0
SOLID
  5
417
100
AcDbEntity
  8
None
370
               5
390
0
 62
               1
100
AcDbTrace
 10
5.1555204237911463
 20
56.621298684745668
 30
0.0
 11
5.8329977736568699
 21
56.802828193532562
 31
0.0
 12
5.8329977736568699
 22
56.439769175958773
 32
0.0
 13
5.8329977736568699
 23
56.439769175958773
 33
0.0
  0
DIMENSION
  5
418
100
AcDbEntity
  8
Dimension
370
               9
390
0
  6
Continuous
 62
              12
100
AcDbDimension
  2
*D24
 10
-2.5122997863391401
 20
55.841157423486543
 30
0.0
 11
9.5166645500000016
 21
46.921298684745672
 31
0.0
 70
               3
 71
               5
 72
               1
 41
1.0
 42
0.0
  3
ASME
100
AcDbDiametricDimension
 15
1.0372997863391307
 25
52.646951492485471
 35
0.0
 40
8.5596176365360375
1001
ACAD
1000
DSTYLE
1002
{
1070
             289
1070
               0
1070
             342
1005
68
1070
             340
1005
3E
1070
             140
1040
0.7579202490234376
1070
              75
1070
               1
1070
              76
1070
               1
1070
               3
1000
mm (x4)
1070
             174
1070
               0
1070
             147
1040
0.132291534375
1002
}
  0
DIMENSION
  5
419
100
AcDbEntity
  8
Dimension
370
               9
390
0
  6
Continuous
 62
               1
100
AcDbDimension
  2
*D25
 10
-41.08682239258426
 20
38.494054457986095
 30
0.0
 11
-41.08682239258426
 21
61.021298684745865
 31
0.0
 70
             128
 71
               5
 72
               1
 41
1.0
 42
0.0
  3
ASME
100
AcDbAlignedDimension
 13
-25.659560424746978
 23
87.71905445798626
 33
0.0
 14
-25.659560424746978
 24
38.494054457986095
 34
0.0
 50
90.0
100
AcDbRotatedDimension
1001
ACAD
1000
DSTYLE
1002
{
1070
             340
1005
3E
1070
             140
1040
0.7579202490234376
1070
             147
1040
0.132291534375
1002
}
  0
DIMENSION
  5
41A
100
AcDbEntity
  8
Dimension
370
               9
390
0
  6
Continuous
 62
               1
100
AcDbDimension
  2
*D26
 10
-28.401040423791152
 20
36.721298684745669
 30
0.0
 11
-11.601268012991184
 21
36.721298684745669
 31
0.0
 71
               5
 72
               1
 41
1.0
 42
0.0
  3
ASME
100
AcDbAlignedDimension
 13
5.1985043978087822
 23
51.508571899400415
 33
0.0
 14
-28.401040423791152
 24
52.421298684745665
 34
0.0
100
AcDbRotatedDimension
1001
ACAD
1000
DSTYLE
1002
{
1070
             340
1005
3E
1070
             140
1040
0.7579202490234376
1070
             147
1040
0.132291534375
1002
}
  0
INSERT
  5
41B
100
AcDbEntity
  8
None
390
0
 62
               5
100
AcDbBlockReference
  2
Group-5
 10
-5.3611399999999998
 20
24.704589999999989
 30
0.0
  0
WIPEOUT
  5
41C
100
AcDbEntity
  8
None
370
              15
390
0
  6
Continuous
 62
               1
 92
        0
100
AcDbWipeout
 90
        0
 10
11.462990423791155
 20
29.264130330800946
 30
0.0
 11
11.817009576208847
 21
0.0
 31
0.0
 12
0.0
 22
11.817009576208847
 32
0.0
 13
1.0
 23
1.0
340
0
 70
               7
280
               1
281
              50
282
              50
283
               0
360
0
 71
               2
 91
        5
 14
-0.5
 24
-2.0442756736468457
 14
0.5
 24
-2.0442756736468457
 14
0.5
 24
-2.2502634055092861
 14
-0.5
 24
-2.2502634055092861
 14
-0.5
 24
-2.0442756736468457
  0
MTEXT
  5
41D
100
AcDbEntity
  8
None
390
0
 62
               1
100
AcDbMText
 10
11.462990423791155
 20
61.5694409505926
 30
0.0
 40
0.7579186197916666
 41
11.817009576208847
 71
               1
 72
               1
  1
backing and insulation plate outline (item 8 & 9)
  7
Arial
 73
               1
 44
0.9673603504928808
  0
LINE
  5
41E
100
AcDbEntity
  8
None
370
               5
390
0
  6
Continuous
 62
               1
100
AcDbLine
 10
11.46299042379114
 20
60.546939330800896
 30
0.0
 11
1.7624999999999948
 21
60.546939330800896
 31
0.0
  0
SOLID
  5
41F
100
AcDbEntity
  8
None
370
               5
390
0
 62
               1
100
AcDbTrace
 10
1.7624999999999948
 20
60.546939330800896
 30
0.0
 11
2.4399773498657176
 21
60.728468839587791
 31
0.0
 12
2.4399773498657176
 22
60.365409822014001
 32
0.0
 13
2.4399773498657176
 23
60.365409822014001
 33
0.0
  0
ENDSEC
  0
SECTION
  2
OBJECTS
  0
DICTIONARY
  5
19
100
AcDbDictionary
280
               0
281
               1
  3
ACAD_GROUP
350
1A
  3
ACAD_MLINESTYLE
350
1B
  3
ACAD_LAYOUT
350
1E
  3
ACAD_PLOTSETTINGS
350
22
  3
ACAD_PLOTSTYLENAME
350
1F
  3
ACAD_WIPEOUT_VARS
350
23
  0
DICTIONARY
  5
1A
102
{ACAD_REACTORS
330
19
102
}
100
AcDbDictionary
280
               0
281
               1
  0
DICTIONARY
  5
1B
102
{ACAD_REACTORS
330
19
102
}
100
AcDbDictionary
280
               0
281
               1
  3
Standard
350
1C
  0
MLINESTYLE
  5
1C
102
{ACAD_REACTORS
330
1B
102
}
100
AcDbMlineStyle
  2
Standard
 70
               0
  3

 62
               0
 51
90.0
 52
90.0
 71
               2
 49
0.5
 62
             256
  6
ByLayer
 49
-0.5
 62
             256
  6
ByLayer
  0
ACDBDICTIONARYWDFLT
  5
1F
102
{ACAD_REACTORS
330
19
102
}
100
AcDbDictionary
281
               1
  3
Normal
350
1D
100
AcDbDictionaryWithDefault
340
1D
  0
ACDBPLACEHOLDER
  5
1D
102
{ACAD_REACTORS
330
1F
102
}
  0
LAYOUT
  5
20
102
{ACAD_REACTORS
330
1E
102
}
100
AcDbPlotSettings
  1

  2

  4

  6

 40
0.0
 41
0.0
 42
0.0
 43
0.0
 44
0.0
 45
0.0
 46
0.0
 47
0.0
 48
0.0
 49
0.0
140
0.0
141
0.0
142
1.0
143
1.0
 70
            1024
 72
               0
 73
               0
 74
               0
  7

 75
               0
147
1.0
148
0.0
149
0.0
100
AcDbLayout
  1
Model
 70
               0
 71
               0
 10
0.0
 20
0.0
 11
0.0
 21
0.0
 12
0.0
 22
0.0
 32
0.0
 14
0.0
 24
0.0
 34
0.0
 15
0.0
 25
0.0
 35
0.0
146
0.0
 13
0.0
 23
0.0
 33
0.0
 16
0.0
 26
0.0
 36
0.0
 17
0.0
 27
0.0
 37
0.0
 76
               0
330
A
331
0
345
0
346
0
  0
LAYOUT
  5
21
102
{ACAD_REACTORS
330
1E
102
}
100
AcDbPlotSettings
  1

  2

  4

  6

 40
0.0
 41
0.0
 42
0.0
 43
0.0
 44
0.0
 45
0.0
 46
0.0
 47
0.0
 48
0.0
 49
0.0
140
0.0
141
0.0
142
1.0
143
1.0
 70
               0
 72
               0
 73
               0
 74
               0
  7

 75
               0
147
1.0
148
0.0
149
0.0
100
AcDbLayout
  1
Layout1
 70
               0
 71
               0
 10
0.0
 20
0.0
 11
0.0
 21
0.0
 12
0.0
 22
0.0
 32
0.0
 14
0.0
 24
0.0
 34
0.0
 15
0.0
 25
0.0
 35
0.0
146
0.0
 13
0.0
 23
0.0
 33
0.0
 16
0.0
 26
0.0
 36
0.0
 17
0.0
 27
0.0
 37
0.0
 76
               0
330
B
331
0
345
0
346
0
  0
DICTIONARY
  5
1E
102
{ACAD_REACTORS
330
19
102
}
100
AcDbDictionary
280
               0
281
               1
  3
Layout1
350
21
  3
Model
350
20
  0
DICTIONARY
  5
22
102
{ACAD_REACTORS
330
19
102
}
100
AcDbDictionary
280
               0
281
               1
  0
WIPEOUTVARIABLES
  5
23
100
AcDbWipeoutVariables
 70
               0
  0
ENDSEC
  0
EOF
