  0
SECTION
  2
HEADER
  9
$ACADVER
  1
AC1015
  9
$ACADMAINTVER
 70
               6
  9
$DWGCODEPAGE
  3
ANSI_1252
  9
$INSBASE
 10
0.0
 20
0.0
 30
0.0
  9
$EXTMIN
 10
-70.0
 20
-51.800000000000026
 30
-1.3969999999999998
  9
$EXTMAX
 10
63.726317456744681
 20
52.0
 30
1.3969999999999998
  9
$LIMMIN
 10
0.0
 20
0.0
  9
$LIMMAX
 10
0.0
 20
0.0
  9
$ORTHOMODE
 70
               0
  9
$REGENMODE
 70
               1
  9
$FILLMODE
 70
               1
  9
$QTEXTMODE
 70
               0
  9
$MIRRTEXT
 70
               1
  9
$LTSCALE
 40
5.0800000000000001
  9
$ATTMODE
 70
               1
  9
$TEXTSIZE
 40
0.2
  9
$TRACEWID
 40
1.0
  9
$TEXTSTYLE
  7
Standard
  9
$CLAYER
  8
None
  9
$CELTYPE
  6
Continuous
  9
$CECOLOR
 62
             256
  9
$CELTSCALE
 40
1.0
  9
$DISPSILH
 70
               0
  9
$DIMSCALE
 40
1.0
  9
$DIMASZ
 40
3.1749999999999998
  9
$DIMEXO
 40
1.5874999999999999
  9
$DIMDLI
 40
10.16
  9
$DIMRND
 40
0.0
  9
$DIMDLE
 40
0.0
  9
$DIMEXE
 40
3.1749999999999998
  9
$DIMTP
 40
0.0
  9
$DIMTM
 40
0.0
  9
$DIMTXT
 40
1.1368815104166665
  9
$DIMCEN
 40
0.0
  9
$DIMTSZ
 40
0.0
  9
$DIMTOL
 70
               0
  9
$DIMLIM
 70
               0
  9
$DIMTIH
 70
               1
  9
$DIMTOH
 70
               1
  9
$DIMSE1
 70
               0
  9
$DIMSE2
 70
               0
  9
$DIMTAD
 70
               0
  9
$DIMZIN
 70
               3
  9
$DIMBLK
  1
VW_FILLEDARROW
  9
$DIMASO
 70
               1
  9
$DIMSHO
 70
               1
  9
$DIMPOST
  1
<>mm
  9
$DIMAPOST
  1
[]
  9
$DIMALT
 70
               0
  9
$DIMALTD
 70
               1
  9
$DIMALTF
 40
1.0
  9
$DIMLFAC
 40
1.0
  9
$DIMTOFL
 70
               0
  9
$DIMTVP
 40
0.0
  9
$DIMTIX
 70
               1
  9
$DIMSOXD
 70
               0
  9
$DIMSAH
 70
               0
  9
$DIMBLK1
  1

  9
$DIMBLK2
  1

  9
$DIMSTYLE
  2
ASME
  9
$DIMCLRD
 70
               0
  9
$DIMCLRE
 70
               0
  9
$DIMCLRT
 70
               0
  9
$DIMTFAC
 40
1.0
  9
$DIMGAP
 40
0.0
  9
$DIMJUST
 70
               0
  9
$DIMSD1
 70
               0
  9
$DIMSD2
 70
               0
  9
$DIMTOLJ
 70
               1
  9
$DIMTZIN
 70
               3
  9
$DIMALTZ
 70
              11
  9
$DIMALTTZ
 70
              11
  9
$DIMUPT
 70
               0
  9
$DIMDEC
 70
               1
  9
$DIMTDEC
 70
               1
  9
$DIMALTU
 70
               2
  9
$DIMALTTD
 70
               2
  9
$DIMTXSTY
  7
Arial
  9
$DIMAUNIT
 70
               0
  9
$DIMADEC
 70
               2
  9
$DIMALTRND
 40
0.0
  9
$DIMAZIN
 70
               0
  9
$DIMDSEP
 70
              46
  9
$DIMATFIT
 70
               0
  9
$DIMFRAC
 70
               2
  9
$DIMLDRBLK
  1

  9
$DIMLUNIT
 70
               2
  9
$DIMLWD
 70
              -2
  9
$DIMLWE
 70
              -2
  9
$DIMTMOVE
 70
               0
  9
$LUNITS
 70
               2
  9
$LUPREC
 70
               4
  9
$SKETCHINC
 40
0.1
  9
$FILLETRAD
 40
0.0
  9
$AUNITS
 70
               0
  9
$AUPREC
 70
               0
  9
$MENU
  1
acad
  9
$ELEVATION
 40
0.0
  9
$PELEVATION
 40
0.0
  9
$THICKNESS
 40
0.0
  9
$LIMCHECK
 70
               0
  9
$CHAMFERA
 40
0.0
  9
$CHAMFERB
 40
0.0
  9
$CHAMFERC
 40
0.0
  9
$CHAMFERD
 40
0.0
  9
$SKPOLY
 70
               0
  9
$TDCREATE
 40
2455405.391701389
  9
$TDUCREATE
 40
0.000000000
  9
$TDUPDATE
 40
2455405.391701389
  9
$TDUUPDATE
 40
0.000000000
  9
$TDINDWG
 40
0.0000000000
  9
$TDUSRTIMER
 40
0.0000000000
  9
$USRTIMER
 70
               1
  9
$ANGBASE
 50
0.0
  9
$ANGDIR
 70
               0
  9
$PDMODE
 70
               1
  9
$PDSIZE
 40
-2.0
  9
$PLINEWID
 40
0.0
  9
$SPLFRAME
 70
               0
  9
$SPLINETYPE
 70
               6
  9
$SPLINESEGS
 70
               8
  9
$HANDSEED
  5
648
  9
$SURFTAB1
 70
               6
  9
$SURFTAB2
 70
               6
  9
$SURFTYPE
 70
               6
  9
$SURFU
 70
               6
  9
$SURFV
 70
               6
  9
$UCSBASE
  2

  9
$UCSNAME
  2

  9
$UCSORG
 10
0.0
 20
0.0
 30
0.0
  9
$UCSXDIR
 10
1.0
 20
0.0
 30
0.0
  9
$UCSYDIR
 10
0.0
 20
1.0
 30
0.0
  9
$UCSORTHOREF
  2

  9
$UCSORTHOVIEW
 70
               0
  9
$UCSORGTOP
 10
0.0
 20
0.0
 30
0.0
  9
$UCSORGBOTTOM
 10
0.0
 20
0.0
 30
0.0
  9
$UCSORGLEFT
 10
0.0
 20
0.0
 30
0.0
  9
$UCSORGRIGHT
 10
0.0
 20
0.0
 30
0.0
  9
$UCSORGFRONT
 10
0.0
 20
0.0
 30
0.0
  9
$UCSORGBACK
 10
0.0
 20
0.0
 30
0.0
  9
$PUCSBASE
  2

  9
$PUCSNAME
  2

  9
$PUCSORG
 10
0.0
 20
0.0
 30
0.0
  9
$PUCSXDIR
 10
1.0
 20
0.0
 30
0.0
  9
$PUCSYDIR
 10
0.0
 20
1.0
 30
0.0
  9
$PUCSORTHOREF
  2

  9
$PUCSORTHOVIEW
 70
               0
  9
$PUCSORGTOP
 10
0.0
 20
0.0
 30
0.0
  9
$PUCSORGBOTTOM
 10
0.0
 20
0.0
 30
0.0
  9
$PUCSORGLEFT
 10
0.0
 20
0.0
 30
0.0
  9
$PUCSORGRIGHT
 10
0.0
 20
0.0
 30
0.0
  9
$PUCSORGFRONT
 10
0.0
 20
0.0
 30
0.0
  9
$PUCSORGBACK
 10
0.0
 20
0.0
 30
0.0
  9
$USERI1
 70
               0
  9
$USERI2
 70
               0
  9
$USERI3
 70
               0
  9
$USERI4
 70
               0
  9
$USERI5
 70
               0
  9
$USERR1
 40
0.0
  9
$USERR2
 40
0.0
  9
$USERR3
 40
0.0
  9
$USERR4
 40
0.0
  9
$USERR5
 40
0.0
  9
$WORLDVIEW
 70
               1
  9
$SHADEDGE
 70
               3
  9
$SHADEDIF
 70
              70
  9
$TILEMODE
 70
               1
  9
$MAXACTVP
 70
              64
  9
$PINSBASE
 10
0.0
 20
0.0
 30
0.0
  9
$PLIMCHECK
 70
               0
  9
$PEXTMIN
 10
1.0000000000000000E+20
 20
1.0000000000000000E+20
 30
1.0000000000000000E+20
  9
$PEXTMAX
 10
-1.0000000000000000E+20
 20
-1.0000000000000000E+20
 30
-1.0000000000000000E+20
  9
$PLIMMIN
 10
0.0
 20
0.0
  9
$PLIMMAX
 10
12.0
 20
9.0
  9
$UNITMODE
 70
               0
  9
$VISRETAIN
 70
               0
  9
$PLINEGEN
 70
               1
  9
$PSLTSCALE
 70
               0
  9
$TREEDEPTH
 70
            3020
  9
$CMLSTYLE
  2
Standard
  9
$CMLJUST
 70
               0
  9
$CMLSCALE
 40
1.0
  9
$PROXYGRAPHICS
 70
               0
  9
$MEASUREMENT
 70
               1
  9
$CELWEIGHT
370
               0
  9
$ENDCAPS
280
               0
  9
$JOINSTYLE
280
               0
  9
$LWDISPLAY
290
               1
  9
$INSUNITS
 70
               4
  9
$HYPERLINKBASE
  1

  9
$STYLESHEET
  1

  9
$XEDIT
290
               1
  9
$CEPSNTYPE
380
               0
  9
$PSTYLEMODE
290
               1
  9
$FINGERPRINTGUID
  2

  9
$VERSIONGUID
  2

  9
$EXTNAMES
290
               1
  9
$PSVPSCALE
 40
0.0
  0
ENDSEC
  0
SECTION
  2
CLASSES
  0
CLASS
  1
LWPOLYLINE
  2
AcDbPolyline
  3
AutoCAD 2000
 90
        0
280
               0
281
               1
  0
CLASS
  1
IMAGE
  2
AcDbRasterImage
  3
ISM
 90
      127
280
               0
281
               1
  0
CLASS
  1
OLE2FRAME
  2
AcDbOle2Frame
  3
AutoCAD 2000
 90
        0
280
               0
281
               1
  0
CLASS
  1
HATCH
  2
AcDbHatch
  3
AutoCAD 2000
 90
        0
280
               0
281
               1
  0
CLASS
  1
DICTIONARYVAR
  2
AcDbDictionaryVar
  3
AutoCAD 2000
 90
        0
280
               0
281
               0
  0
CLASS
  1
RASTERVARIABLES
  2
AcDbRasterVariables
  3
ISM
 90
        0
280
               0
281
               0
  0
CLASS
  1
IMAGEDEF
  2
AcDbRasterImageDef
  3
ISM
 90
        0
280
               0
281
               0
  0
CLASS
  1
IMAGEDEF_REACTOR
  2
AcDbRasterImageDefReactor
  3
ISM
 90
        1
280
               0
281
               0
  0
CLASS
  1
IDBUFFER
  2
AcDbIdBuffer
  3
AutoCAD 2000
 90
        0
280
               0
281
               0
  0
CLASS
  1
SPATIAL_FILTER
  2
AcDbSpatialFilter
  3
AutoCAD 2000
 90
        0
280
               0
281
               0
  0
CLASS
  1
XRECORD
  2
AcDbXrecord
  3
AutoCAD 2000
 90
        0
280
               0
281
               0
  0
CLASS
  1
SORTENTSTABLE
  2
AcDbSortentsTable
  3
AutoCAD 2000
 90
        0
280
               0
281
               0
  0
CLASS
  1
LAYER_INDEX
  2
AcDbLayerIndex
  3
AutoCAD 2000
 90
        0
280
               0
281
               0
  0
CLASS
  1
SPATIAL_INDEX
  2
AcDbSpatialIndex
  3
AutoCAD 2000
 90
        0
280
               0
281
               0
  0
CLASS
  1
OBJECT_PTR
  2
CAseDLPNTableRecord
  3
"ASE-LPNTableRecord"
 90
        1
280
               0
281
               0
  0
CLASS
  1
LAYOUT
  2
AcDbLayout
  3
AutoCAD 2000
 90
        0
280
               0
281
               0
  0
CLASS
  1
PLOTSETTINGS
  2
AcDbPlotSettings
  3
AutoCAD 2000
 90
        0
280
               0
281
               0
  0
CLASS
  1
ACDBDICTIONARYWDFLT
  2
AcDbDictionaryWithDefault
  3
AutoCAD 2000
 90
        0
280
               0
281
               0
  0
CLASS
  1
ACDBPLACEHOLDER
  2
AcDbPlaceHolder
  3
AutoCAD 2000
 90
        0
280
               0
281
               0
  0
ENDSEC
  0
SECTION
  2
TABLES
  0
TABLE
  2
VPORT
  5
7
100
AcDbSymbolTable
 70
               1
  0
VPORT
  5
15
100
AcDbSymbolTableRecord
100
AcDbViewportTableRecord
  2
*ACTIVE
 70
               0
 10
0.0
 20
0.0
 11
1.0
 21
1.0
 12
-3.1368412716276595
 22
0.0999999999999872
 13
0.0
 23
0.0
 14
1.0
 24
1.0
 15
0.0
 25
0.0
 16
0.0
 26
0.0
 36
1.0
 17
0.0
 27
0.0
 37
0.0
 40
103.80000000000003
 41
0.688564
 42
50.0
 43
0.0
 44
0.0
 50
0.0
 51
0.0
 71
               0
 72
            2000
 73
               1
 74
               1
 75
               0
 76
               0
 77
               0
 78
               0
281
               0
 65
               0
110
0.0
120
0.0
130
0.0
111
1.0
121
0.0
131
0.0
112
0.0
122
1.0
132
0.0
345
0
346
0
 79
               0
146
0.0
  0
ENDTAB
  0
TABLE
  2
LTYPE
  5
4
100
AcDbSymbolTable
 70
              14
  0
LTYPE
  5
11
100
AcDbSymbolTableRecord
100
AcDbLinetypeTableRecord
  2
ByBlock
 70
              64
  3

 72
              65
 73
               0
 40
0.0
  0
LTYPE
  5
12
100
AcDbSymbolTableRecord
100
AcDbLinetypeTableRecord
  2
ByLayer
 70
              64
  3

 72
              65
 73
               0
 40
0.0
  0
LTYPE
  5
13
100
AcDbSymbolTableRecord
100
AcDbLinetypeTableRecord
  2
Continuous
 70
              64
  3
Solid line
 72
              65
 73
               0
 40
0.0
  0
LTYPE
  5
3B
100
AcDbSymbolTableRecord
100
AcDbLinetypeTableRecord
  2
STYLE_01
 70
               0
  3

 72
              65
 73
               2
 40
0.41664
 49
0.20828
 74
               0
 49
-0.20836
 74
               0
  0
LTYPE
  5
3C
100
AcDbSymbolTableRecord
100
AcDbLinetypeTableRecord
  2
STYLE_02
 70
               0
  3

 72
              65
 73
               2
 40
0.6944250000000001
 49
0.48607
 74
               0
 49
-0.2083550000000001
 74
               0
  0
LTYPE
  5
3D
100
AcDbSymbolTableRecord
100
AcDbLinetypeTableRecord
  2
STYLE_03
 70
               0
  3

 72
              65
 73
               2
 40
1.25
 49
1.0416400000000001
 74
               0
 49
-0.2083599999999999
 74
               0
  0
LTYPE
  5
3E
100
AcDbSymbolTableRecord
100
AcDbLinetypeTableRecord
  2
STYLE_04
 70
               0
  3

 72
              65
 73
               2
 40
1.5277099999999999
 49
1.3194249999999998
 74
               0
 49
-0.208285
 74
               0
  0
LTYPE
  5
3F
100
AcDbSymbolTableRecord
100
AcDbLinetypeTableRecord
  2
STYLE_05
 70
               0
  3

 72
              65
 73
               2
 40
0.20828
 49
0.069425
 74
               0
 49
-0.138855
 74
               0
  0
LTYPE
  5
40
100
AcDbSymbolTableRecord
100
AcDbLinetypeTableRecord
  2
STYLE_06
 70
               0
  3

 72
              65
 73
               4
 40
1.0416400000000001
 49
0.625
 74
               0
 49
-0.20828
 74
               0
 49
0.06943
 74
               0
 49
-0.13893
 74
               0
  0
LTYPE
  5
41
100
AcDbSymbolTableRecord
100
AcDbLinetypeTableRecord
  2
STYLE_07
 70
               0
  3

 72
              65
 73
               6
 40
1.875
 49
0.625
 74
               0
 49
-0.20828
 74
               0
 49
0.6250000000000001
 74
               0
 49
-0.2083599999999999
 74
               0
 49
0.06943
 74
               0
 49
-0.1389299999999999
 74
               0
  0
LTYPE
  5
42
100
AcDbSymbolTableRecord
100
AcDbLinetypeTableRecord
  2
STYLE_08
 70
               0
  3

 72
              65
 73
               6
 40
1.25
 49
0.625
 74
               0
 49
-0.20828
 74
               0
 49
0.06943
 74
               0
 49
-0.13893
 74
               0
 49
0.0694299999999999
 74
               0
 49
-0.13893
 74
               0
  0
LTYPE
  5
43
100
AcDbSymbolTableRecord
100
AcDbLinetypeTableRecord
  2
STYLE_09
 70
               0
  3

 72
              65
 73
               4
 40
5.0
 49
3.75
 74
               0
 49
-0.2777849999999998
 74
               0
 49
0.6944300000000003
 74
               0
 49
-0.2777849999999998
 74
               0
  0
LTYPE
  5
44
100
AcDbSymbolTableRecord
100
AcDbLinetypeTableRecord
  2
STYLE_10
 70
               0
  3

 72
              65
 73
               6
 40
5.9375
 49
3.75
 74
               0
 49
-0.2777849999999998
 74
               0
 49
0.6944300000000003
 74
               0
 49
-0.2777849999999998
 74
               0
 49
0.625
 74
               0
 49
-0.3125
 74
               0
  0
LTYPE
  5
45
100
AcDbSymbolTableRecord
100
AcDbLinetypeTableRecord
  2
STYLE_11
 70
               0
  3

 72
              65
 73
               2
 40
0.4166412353515625
 49
0.2777862548828125
 74
               0
 49
-0.13885498046875
 74
               0
  0
ENDTAB
  0
TABLE
  2
LAYER
  5
2
100
AcDbSymbolTable
 70
               4
  0
LAYER
  5
14
100
AcDbSymbolTableRecord
100
AcDbLayerTableRecord
  2
0
 70
               0
 62
               7
  6
Continuous
290
               1
370
              -3
390
1D
  0
LAYER
  5
46
100
AcDbSymbolTableRecord
100
AcDbLayerTableRecord
  2
Defpoints
 70
               0
 62
               7
  6
Continuous
290
               0
370
              -3
390
1D
  0
LAYER
  5
47
100
AcDbSymbolTableRecord
100
AcDbLayerTableRecord
  2
None
 70
               0
 62
               7
  6
Continuous
290
               1
370
               5
390
1D
  0
LAYER
  5
48
100
AcDbSymbolTableRecord
100
AcDbLayerTableRecord
  2
Dimension
 70
               0
 62
               7
  6
Continuous
290
               1
370
               5
390
1D
  0
ENDTAB
  0
TABLE
  2
STYLE
  5
3
100
AcDbSymbolTable
 70
               5
  0
STYLE
  5
17
100
AcDbSymbolTableRecord
100
AcDbTextStyleTableRecord
  2
Standard
 70
               0
 40
0.0
 41
1.0
 50
0.0
 71
               0
 42
0.0
  3
txt
  4

  0
STYLE
  5
37
100
AcDbSymbolTableRecord
100
AcDbTextStyleTableRecord
  2
Arial
 70
               0
 40
0.0
 41
1.0
 50
0.0
 71
               0
 42
0.0
  3
Arial
  4

1001
ACAD
1000
Arial
1071
        0
  0
STYLE
  5
38
100
AcDbSymbolTableRecord
100
AcDbTextStyleTableRecord
  2
Arial (bold)
 70
               0
 40
0.0
 41
1.0
 50
0.0
 71
               0
 42
0.0
  3
Arial
  4

1001
ACAD
1000
Arial
1071
 33554432
  0
STYLE
  5
39
100
AcDbSymbolTableRecord
100
AcDbTextStyleTableRecord
  2
Helvetica
 70
               0
 40
0.0
 41
1.0
 50
0.0
 71
               0
 42
0.0
  3
Helvetica
  4

1001
ACAD
1000
Helvetica
1071
        0
  0
STYLE
  5
3A
100
AcDbSymbolTableRecord
100
AcDbTextStyleTableRecord
  2
New Century Schlbk
 70
               0
 40
0.0
 41
1.0
 50
0.0
 71
               0
 42
0.0
  3
New Century Schlbk
  4

1001
ACAD
1000
New Century Schlbk
1071
        0
  0
ENDTAB
  0
TABLE
  2
VIEW
  5
5
100
AcDbSymbolTable
 70
               0
  0
ENDTAB
  0
TABLE
  2
UCS
  5
6
100
AcDbSymbolTable
 70
               0
  0
ENDTAB
  0
TABLE
  2
APPID
  5
8
100
AcDbSymbolTable
 70
               1
  0
APPID
  5
16
100
AcDbSymbolTableRecord
100
AcDbRegAppTableRecord
  2
ACAD
 70
               0
  0
ENDTAB
  0
TABLE
  2
DIMSTYLE
  5
9
100
AcDbSymbolTable
 70
               3
100
AcDbDimStyleTable
 71
               0
  0
DIMSTYLE
105
18
100
AcDbSymbolTableRecord
100
AcDbDimStyleTableRecord
  2
Standard
 70
               0
  3

  4

 40
1.0
 41
0.18
 42
0.0625
 43
0.38
 44
0.18
 45
0.0
 46
0.0
 47
0.0
 48
0.0
 71
               0
 72
               0
 73
               1
 74
               1
 75
               0
 76
               0
 77
               0
 78
               0
 79
               0
140
0.18
141
0.09
142
0.0
143
25.399999999999999
144
1.0
145
0.0
146
1.0
147
0.09
148
0.0
170
               0
171
               2
172
               0
173
               0
174
               0
175
               0
176
               0
177
               0
178
               0
179
               0
271
               4
272
               4
273
               2
274
               2
275
               0
276
               0
277
               2
278
              46
279
               0
280
               0
281
               0
282
               0
283
               1
284
               0
285
               0
286
               0
288
               0
289
               3
340
17
341
0
342
0
343
0
344
0
371
              -2
372
              -2
  0
DIMSTYLE
105
51
100
AcDbSymbolTableRecord
100
AcDbDimStyleTableRecord
  2
IE Standard
 70
               0
  3
<>mm
  4
[]
 40
1.0
 41
3.1749999999999998
 42
1.9050000047311186
 43
6.9999859934672708
 44
3.8100000094622373
 45
0.0
 46
0.0
 47
0.0
 48
0.0
 71
               0
 72
               0
 73
               1
 74
               1
 75
               0
 76
               0
 77
               0
 78
               3
 79
               0
140
1.1368815104166665
141
0.0
142
0.0
143
1.0
144
1.0
145
0.0
146
1.0
147
0.0
148
0.0
170
               0
171
               1
172
               1
173
               0
174
               1
175
               0
176
               0
177
               0
178
               0
179
               2
271
               1
272
               1
273
               2
274
               2
275
               0
276
               2
277
               2
278
              46
279
               0
280
               0
281
               0
282
               0
283
               1
284
               3
285
              11
286
              11
288
               0
289
               0
340
37
341
4D
342
49
343
0
344
0
371
              -2
372
              -2
  0
DIMSTYLE
105
52
100
AcDbSymbolTableRecord
100
AcDbDimStyleTableRecord
  2
ASME
 70
               0
  3
<>mm
  4
[]
 40
1.0
 41
3.1749999999999998
 42
1.5874999999999999
 43
10.16
 44
3.1749999999999998
 45
0.0
 46
0.0
 47
0.0
 48
0.0
 71
               0
 72
               0
 73
               1
 74
               1
 75
               0
 76
               0
 77
               0
 78
               3
 79
               0
140
1.1368815104166665
141
0.0
142
0.0
143
1.0
144
1.0
145
0.0
146
1.0
147
0.0
148
0.0
170
               0
171
               1
172
               0
173
               0
174
               1
175
               0
176
               0
177
               0
178
               0
179
               2
271
               1
272
               1
273
               2
274
               2
275
               0
276
               2
277
               2
278
              46
279
               0
280
               0
281
               0
282
               0
283
               1
284
               3
285
              11
286
              11
288
               0
289
               0
340
37
341
49
342
49
343
0
344
0
371
              -2
372
              -2
  0
ENDTAB
  0
TABLE
  2
BLOCK_RECORD
  5
1
100
AcDbSymbolTable
 70
              22
  0
BLOCK_RECORD
  5
A
100
AcDbSymbolTableRecord
100
AcDbBlockTableRecord
  2
*MODEL_SPACE
340
20
  0
BLOCK_RECORD
  5
B
100
AcDbSymbolTableRecord
100
AcDbBlockTableRecord
  2
*PAPER_SPACE
340
21
  0
BLOCK_RECORD
  5
49
100
AcDbSymbolTableRecord
100
AcDbBlockTableRecord
  2
VW_FILLEDARROW
340
0
  0
BLOCK_RECORD
  5
4D
100
AcDbSymbolTableRecord
100
AcDbBlockTableRecord
  2
VW_FILLEDARROW-1
340
0
  0
BLOCK_RECORD
  5
23
100
AcDbSymbolTableRecord
100
AcDbBlockTableRecord
  2
IE i logo
340
0
102
{BLKREFS
331
643
102
}
  0
BLOCK_RECORD
  5
24
100
AcDbSymbolTableRecord
100
AcDbBlockTableRecord
  2
*D3
340
0
  0
BLOCK_RECORD
  5
25
100
AcDbSymbolTableRecord
100
AcDbBlockTableRecord
  2
*D4
340
0
  0
BLOCK_RECORD
  5
26
100
AcDbSymbolTableRecord
100
AcDbBlockTableRecord
  2
*D5
340
0
  0
BLOCK_RECORD
  5
27
100
AcDbSymbolTableRecord
100
AcDbBlockTableRecord
  2
*D6
340
0
  0
BLOCK_RECORD
  5
28
100
AcDbSymbolTableRecord
100
AcDbBlockTableRecord
  2
*D7
340
0
  0
BLOCK_RECORD
  5
29
100
AcDbSymbolTableRecord
100
AcDbBlockTableRecord
  2
*D8
340
0
  0
BLOCK_RECORD
  5
2A
100
AcDbSymbolTableRecord
100
AcDbBlockTableRecord
  2
*D9
340
0
  0
BLOCK_RECORD
  5
2B
100
AcDbSymbolTableRecord
100
AcDbBlockTableRecord
  2
*D10
340
0
  0
BLOCK_RECORD
  5
2C
100
AcDbSymbolTableRecord
100
AcDbBlockTableRecord
  2
*D11
340
0
  0
BLOCK_RECORD
  5
2D
100
AcDbSymbolTableRecord
100
AcDbBlockTableRecord
  2
*D12
340
0
  0
BLOCK_RECORD
  5
2E
100
AcDbSymbolTableRecord
100
AcDbBlockTableRecord
  2
*D13
340
0
  0
BLOCK_RECORD
  5
2F
100
AcDbSymbolTableRecord
100
AcDbBlockTableRecord
  2
*D14
340
0
  0
BLOCK_RECORD
  5
30
100
AcDbSymbolTableRecord
100
AcDbBlockTableRecord
  2
*D15
340
0
  0
BLOCK_RECORD
  5
31
100
AcDbSymbolTableRecord
100
AcDbBlockTableRecord
  2
*D16
340
0
  0
BLOCK_RECORD
  5
32
100
AcDbSymbolTableRecord
100
AcDbBlockTableRecord
  2
pad
340
0
102
{BLKREFS
331
138
331
139
331
13A
331
13B
331
13C
331
13D
331
13E
331
13F
331
140
331
141
331
142
331
143
331
144
331
145
331
146
331
147
331
148
331
149
331
14A
331
14B
331
14C
331
14D
331
14E
331
14F
331
150
331
151
331
152
331
153
331
154
331
155
331
156
331
157
331
158
331
159
331
15A
331
15B
331
15C
331
15D
331
15E
331
15F
331
160
331
161
331
162
331
163
331
164
331
165
331
166
331
167
331
168
331
169
331
16A
331
16B
331
16C
331
16D
331
16E
331
16F
331
170
331
171
331
172
331
173
331
174
331
175
331
176
331
177
331
178
331
179
331
17A
331
17B
331
17C
331
17D
331
17E
331
17F
331
180
331
181
331
182
331
183
331
184
331
185
331
186
331
187
331
188
331
189
331
18A
331
18B
331
18C
331
18D
331
18E
331
18F
331
190
331
191
331
192
331
193
331
194
331
195
331
196
331
197
331
198
331
199
331
19A
331
19B
331
19C
331
19D
331
19E
331
19F
331
1A0
331
1A1
331
1A2
331
1A3
331
1A4
331
1A5
331
1A6
331
1A7
331
1A8
331
1A9
331
1AA
331
1AB
331
1AC
331
1AD
331
1AE
331
1AF
331
1B0
331
1B1
331
1B2
331
1B3
331
1B4
331
1B5
331
1B6
331
1B7
331
1B8
331
1B9
331
1BA
331
1BB
331
1BC
331
1BD
331
1BE
331
1BF
331
1C0
331
1C1
331
1C2
331
1C3
331
1C4
331
1C5
331
1C6
331
1C7
331
1C8
331
1C9
331
1CA
331
1CB
331
1CC
331
1CD
331
1CE
331
1CF
331
1D0
331
1D1
331
1D2
331
1D3
331
1D4
331
1D5
331
1D6
331
1D7
331
1D8
331
1D9
331
1DA
331
1DB
331
1DC
331
1DD
331
1DE
331
1DF
331
1E0
331
1E1
331
1E2
331
1E3
331
1E4
331
1E5
331
1E6
331
1E7
331
1E8
331
1E9
331
1EA
331
1EB
331
1EC
331
1ED
331
1EE
331
1EF
331
1F0
331
1F1
331
1F2
331
1F3
331
1F4
331
1F5
331
1F6
331
1F7
331
1F8
331
1F9
331
1FA
331
1FB
331
1FC
331
1FD
331
1FE
331
1FF
331
200
331
201
331
202
331
203
331
204
331
205
331
206
331
207
331
208
331
209
331
20A
331
20B
331
20C
331
20D
331
20E
331
20F
331
210
331
211
331
212
331
213
331
214
331
215
331
216
331
217
331
218
331
219
331
21A
331
21B
331
21C
331
21D
331
21E
331
21F
331
220
331
221
331
222
331
223
331
224
331
225
331
226
331
227
331
228
331
229
331
22A
331
22B
331
22C
331
22D
331
22E
331
22F
331
230
331
231
331
232
331
233
331
234
331
235
331
236
331
237
331
238
331
239
331
23A
331
23B
331
23C
331
23D
331
23E
331
23F
331
240
331
241
331
242
331
243
331
244
331
245
331
246
331
247
331
248
331
249
331
24A
331
24B
331
24C
331
24D
331
24E
331
24F
331
250
331
251
331
252
331
253
331
254
331
255
331
256
331
257
331
258
331
259
331
25A
331
25B
331
25C
331
25D
331
25E
331
25F
331
260
331
261
331
262
331
263
331
264
331
265
331
266
331
267
331
268
331
269
331
26A
331
26B
331
26C
331
26D
331
26E
331
26F
331
270
331
271
331
272
331
273
331
274
331
275
331
276
331
277
331
278
331
279
331
27A
331
27B
331
27C
331
27D
331
27E
331
27F
331
280
331
281
331
282
331
283
331
284
331
285
331
286
331
287
331
288
331
289
331
28A
331
28B
331
28C
331
28D
331
28E
331
28F
331
290
331
291
331
292
331
293
331
294
331
295
331
296
331
297
331
298
331
299
331
29A
331
29B
331
29C
331
29D
331
29E
331
29F
331
2A0
331
2A1
331
2A2
331
2A3
331
2A4
331
2A5
331
2A6
331
2A7
331
2A8
331
2A9
331
2AA
331
2AB
331
2AC
331
2AD
331
2AE
331
2AF
331
2B0
331
2B1
331
2B2
331
2B3
331
2B4
331
2B5
331
2B6
331
2B7
331
2B8
331
2B9
331
2BA
331
2BB
331
2BC
331
2BD
331
2BE
331
2BF
331
2C0
331
2C1
331
2C2
331
2C3
331
2C4
331
2C5
331
2C6
331
2C7
331
2C8
331
2C9
331
2CA
331
2CB
331
2CC
331
2CD
331
2CE
331
2CF
331
2D0
331
2D1
331
2D2
331
2D3
331
2D4
331
2D5
331
2D6
331
2D7
331
2D8
331
2D9
331
2DA
331
2DB
331
2DC
331
2DD
331
2DE
331
2DF
331
2E0
331
2E1
331
2E2
331
2E3
331
2E4
331
2E5
331
2E6
331
2E7
331
2E8
331
2E9
331
2EA
331
2EB
331
2EC
331
2ED
331
2EE
331
2EF
331
2F0
331
2F1
331
2F2
331
2F3
331
2F4
331
2F5
331
2F6
331
2F7
331
2F8
331
2F9
331
2FA
331
2FB
331
2FC
331
2FD
331
2FE
331
2FF
331
300
331
301
331
302
331
303
331
304
331
305
331
306
331
307
331
308
331
309
331
30A
331
30B
331
30C
331
30D
331
30E
331
30F
331
310
331
311
331
312
331
313
331
314
331
315
331
316
331
317
331
318
331
319
331
31A
331
31B
331
31C
331
31D
331
31E
331
31F
331
320
331
321
331
322
331
323
331
324
331
325
331
326
331
327
331
328
331
329
331
32A
331
32B
331
32C
331
32D
331
32E
331
32F
331
330
331
331
331
332
331
333
331
334
331
335
331
336
331
337
331
338
331
339
331
33A
331
33B
331
33C
331
33D
331
33E
331
33F
331
340
331
341
331
342
331
343
331
344
331
345
331
346
331
347
331
348
331
349
331
34A
331
34B
331
34C
331
34D
331
34E
331
34F
331
350
331
351
331
352
331
353
331
354
331
355
331
356
331
357
331
358
331
359
331
35A
331
35B
331
35C
331
35D
331
35E
331
35F
331
360
331
361
331
362
331
363
331
364
331
365
331
366
331
367
331
368
331
369
331
36A
331
36B
331
36C
331
36D
331
36E
331
36F
331
370
331
371
331
372
331
373
331
374
331
375
331
376
331
377
331
378
331
379
331
37A
331
37B
331
37C
331
37D
331
37E
331
37F
331
380
331
381
331
382
331
383
331
384
331
385
331
386
331
387
331
388
331
389
331
38A
331
38B
331
38C
331
38D
331
38E
331
38F
331
390
331
391
331
392
331
393
331
394
331
395
331
396
331
397
331
398
331
399
331
39A
331
39B
331
39C
331
39D
331
39E
331
39F
331
3A0
331
3A1
331
3A2
331
3A3
331
3A4
331
3A5
331
3A6
331
3A7
331
3A8
331
3A9
331
3AA
331
3AB
331
3AC
331
3AD
331
3AE
331
3AF
331
3B0
331
3B1
331
3B2
331
3B3
331
3B4
331
3B5
331
3B6
331
3B7
331
3B8
331
3B9
331
3BA
331
3BB
331
3BC
331
3BD
331
3BE
331
3BF
331
3C0
331
3C1
331
3C2
331
3C3
331
3C4
331
3C5
331
3C6
331
3C7
331
3C8
331
3C9
331
3CA
331
3CB
331
3CC
331
3CD
331
3CE
331
3CF
331
3D0
331
3D1
331
3D2
331
3D3
331
3D4
331
3D5
331
3D6
331
3D7
331
3D8
331
3D9
331
3DA
331
3DB
331
3DC
331
3DD
331
3DE
331
3DF
331
3E0
331
3E1
331
3E2
331
3E3
331
3E4
331
3E5
331
3E6
331
3E7
331
3E8
331
3E9
331
3EA
331
3EB
331
3EC
331
3ED
331
3EE
331
3EF
331
3F0
331
3F1
331
3F2
331
3F3
331
3F4
331
3F5
331
3F6
331
3F7
331
3F8
331
3F9
331
3FA
331
3FB
331
3FC
331
3FD
331
3FE
331
3FF
331
400
331
401
331
402
331
403
331
404
331
405
331
406
331
407
331
408
331
409
331
40A
331
40B
331
40C
331
40D
331
40E
331
40F
331
410
331
411
331
412
331
413
331
414
331
415
331
416
331
417
331
418
331
419
331
41A
331
41B
331
41C
331
41D
331
41E
331
41F
331
420
331
421
331
422
331
423
331
424
331
425
331
426
331
427
331
428
331
429
331
42A
331
42B
331
42C
331
42D
331
42E
331
42F
331
430
331
431
331
432
331
433
331
434
331
435
331
436
331
437
331
438
331
439
331
43A
331
43B
331
43C
331
43D
331
43E
331
43F
331
440
331
441
331
442
331
443
331
444
331
445
331
446
331
447
331
448
331
449
331
44A
331
44B
331
44C
331
44D
331
44E
331
44F
331
450
331
451
331
452
331
453
331
454
331
455
331
456
331
457
331
458
331
459
331
45A
331
45B
331
45C
331
45D
331
45E
331
45F
331
460
331
461
331
462
331
463
331
464
331
465
331
466
331
467
331
468
331
469
331
46A
331
46B
331
46C
331
46D
331
46E
331
46F
331
470
331
471
331
472
331
473
331
474
331
475
331
476
331
477
331
478
331
479
331
47A
331
47B
331
47C
331
47D
331
47E
331
47F
331
480
331
481
331
482
331
483
331
484
331
485
331
486
331
487
331
488
331
489
331
48A
331
48B
331
48C
331
48D
331
48E
331
48F
331
490
331
491
331
492
331
493
331
494
331
495
331
496
331
497
331
498
331
499
331
49A
331
49B
331
49C
331
49D
331
49E
331
49F
331
4A0
331
4A1
331
4A2
331
4A3
331
4A4
331
4A5
331
4A6
331
4A7
331
4A8
331
4A9
331
4AA
331
4AB
331
4AC
331
4AD
331
4AE
331
4AF
331
4B0
331
4B1
331
4B2
331
4B3
331
4B4
331
4B5
331
4B6
331
4B7
331
4B8
331
4B9
331
4BA
331
4BB
331
4BC
331
4BD
331
4BE
331
4BF
331
4C0
331
4C1
331
4C2
331
4C3
331
4C4
331
4C5
331
4C6
331
4C7
331
4C8
331
4C9
331
4CA
331
4CB
331
4CC
331
4CD
331
4CE
331
4CF
331
4D0
331
4D1
331
4D2
331
4D3
331
4D4
331
4D5
331
4D6
331
4D7
331
4D8
331
4D9
331
4DA
331
4DB
331
4DC
331
4DD
331
4DE
331
4DF
331
4E0
331
4E1
331
4E2
331
4E3
331
4E4
331
4E5
331
4E6
331
4E7
331
4E8
331
4E9
331
4EA
331
4EB
331
4EC
331
4ED
331
4EE
331
4EF
331
4F0
331
4F1
331
4F2
331
4F3
331
4F4
331
4F5
331
4F6
331
4F7
331
4F8
331
4F9
331
4FA
331
4FB
331
4FC
331
4FD
331
4FE
331
4FF
331
500
331
501
331
502
331
503
331
504
331
505
331
506
331
507
331
508
331
509
331
50A
331
50B
331
50C
331
50D
331
50E
331
50F
331
510
331
511
331
512
331
513
331
514
331
515
331
516
331
517
331
518
331
519
331
51A
331
51B
331
51C
331
51D
331
51E
331
51F
331
520
331
521
331
522
331
523
331
524
331
525
331
526
331
527
331
528
331
529
331
52A
331
52B
331
52C
331
52D
331
52E
331
52F
331
530
331
531
331
532
331
533
331
534
331
535
331
536
331
537
331
538
331
539
331
53A
331
53B
331
53C
331
53D
331
53E
331
53F
331
540
331
541
331
542
331
543
331
544
331
545
331
546
331
547
331
548
331
549
331
54A
331
54B
331
54C
331
54D
331
54E
331
54F
331
550
331
551
331
552
331
553
331
554
331
555
331
556
331
557
331
558
331
559
331
55A
331
55B
331
55C
331
55D
331
55E
331
55F
331
560
331
561
331
562
331
563
331
564
331
565
331
566
331
567
331
568
331
569
331
56A
331
56B
331
56C
331
56D
331
56E
331
56F
331
570
331
571
331
572
331
573
331
574
331
575
331
576
331
577
331
578
331
579
331
57A
331
57B
331
57C
331
57D
331
57E
331
57F
331
580
331
581
331
582
331
583
331
584
331
585
331
586
331
587
331
588
331
589
331
58A
331
58B
331
58C
331
58D
331
58E
331
58F
331
590
331
591
331
592
331
593
331
594
331
595
331
596
331
597
331
598
331
599
331
59A
331
59B
331
59C
331
59D
331
59E
331
59F
331
5A0
331
5A1
331
5A2
331
5A3
331
5A4
331
5A5
331
5A6
331
5A7
331
5A8
331
5A9
331
5AA
331
5AB
331
5AC
331
5AD
331
5AE
331
5AF
331
5B0
331
5B1
331
5B2
331
5B3
331
5B4
331
5B5
331
5B6
331
5B7
331
5B8
331
5B9
331
5BA
331
5BB
102
}
  0
BLOCK_RECORD
  5
33
100
AcDbSymbolTableRecord
100
AcDbBlockTableRecord
  2
Group
340
0
102
{BLKREFS
331
5FD
102
}
  0
BLOCK_RECORD
  5
34
100
AcDbSymbolTableRecord
100
AcDbBlockTableRecord
  2
Group-1
340
0
102
{BLKREFS
331
5FE
102
}
  0
BLOCK_RECORD
  5
35
100
AcDbSymbolTableRecord
100
AcDbBlockTableRecord
  2
*D20
340
0
  0
BLOCK_RECORD
  5
36
100
AcDbSymbolTableRecord
100
AcDbBlockTableRecord
  2
Group-2
340
0
102
{BLKREFS
331
646
102
}
  0
ENDTAB
  0
ENDSEC
  0
SECTION
  2
BLOCKS
  0
BLOCK
  5
D
100
AcDbEntity
  8
0
390
0
100
AcDbBlockBegin
  2
*MODEL_SPACE
 70
               0
 10
0.0
 20
0.0
 30
0.0
  3
*MODEL_SPACE
  1

  0
ENDBLK
  5
E
100
AcDbEntity
  8
0
390
0
100
AcDbBlockEnd
  0
BLOCK
  5
F
100
AcDbEntity
 67
               1
  8
0
390
0
100
AcDbBlockBegin
  2
*PAPER_SPACE
 70
               0
 10
0.0
 20
0.0
 30
0.0
  3
*PAPER_SPACE
  1

  0
ENDBLK
  5
10
100
AcDbEntity
 67
               1
  8
0
390
0
100
AcDbBlockEnd
  0
BLOCK
  5
4A
100
AcDbEntity
  8
0
370
              -2
390
0
  6
ByBlock
 62
               0
100
AcDbBlockBegin
  2
VW_FILLEDARROW
 70
               0
 10
0.0
 20
0.0
 30
0.0
  3
VW_FILLEDARROW
  1

  0
SOLID
  5
4B
100
AcDbEntity
  8
0
370
              -2
390
0
 62
               0
100
AcDbTrace
 10
0.0
 20
0.0
 30
0.0
 11
-0.9999389648437499
 21
-0.2679328381102956
 31
0.0
 12
-0.9999389648437499
 22
0.2679328381102958
 32
0.0
 13
-0.9999389648437499
 23
0.2679328381102958
 33
0.0
  0
ENDBLK
  5
4C
100
AcDbEntity
  8
0
390
0
100
AcDbBlockEnd
  0
BLOCK
  5
4E
100
AcDbEntity
  8
0
370
              -2
390
0
  6
ByBlock
 62
               0
100
AcDbBlockBegin
  2
VW_FILLEDARROW-1
 70
               0
 10
0.0
 20
0.0
 30
0.0
  3
VW_FILLEDARROW
  1

  0
SOLID
  5
4F
100
AcDbEntity
  8
0
370
              -2
390
0
 62
               0
100
AcDbTrace
 10
0.0
 20
0.0
 30
0.0
 11
-0.6650756835937499
 21
-0.1782064923245222
 31
0.0
 12
-0.6650756835937498
 22
0.1782064923245224
 32
0.0
 13
-0.6650756835937498
 23
0.1782064923245224
 33
0.0
  0
ENDBLK
  5
50
100
AcDbEntity
  8
0
390
0
100
AcDbBlockEnd
  0
BLOCK
  5
53
100
AcDbEntity
  8
None
390
0
100
AcDbBlockBegin
  2
IE i logo
 70
               0
 10
0.0
 20
0.0
 30
0.0
  3
IE i logo
  1

  0
CIRCLE
  5
54
100
AcDbEntity
  8
None
370
               5
390
0
  6
Continuous
 62
               7
100
AcDbCircle
 10
0.0
 20
0.0
 30
0.0
 40
2.6707900018721049
  0
SPLINE
  5
55
100
AcDbEntity
  8
None
370
               5
390
0
  6
Continuous
 62
               7
100
AcDbSpline
210
0.0
220
0.0
230
1.0
 70
               9
 71
               2
 72
              17
 73
              14
 74
               0
 42
0.000001
 43
0.000001
 40
0.0
 40
0.0
 40
0.0
 40
1.0
 40
2.0
 40
3.0
 40
4.0
 40
5.0
 40
6.0
 40
7.0
 40
8.0
 40
9.0
 40
10.0
 40
11.0
 40
12.0
 40
12.0
 40
12.0
 10
-0.9357599999999999
 20
1.03416
 30
0.0
 10
-0.8805899999999999
 20
1.1231599999999999
 30
0.0
 10
-0.71412
 20
1.2896599999999998
 30
0.0
 10
-0.5361199999999999
 20
1.3999999999999999
 30
0.0
 10
-0.39428
 20
1.4246599999999998
 30
0.0
 10
-0.32662
 20
1.3569699999999998
 30
0.0
 10
-0.35128
 20
1.2151599999999998
 30
0.0
 10
-0.46162
 20
1.0371599999999999
 30
0.0
 10
-0.6280899999999999
 20
0.8706599999999999
 30
0.0
 10
-0.80609
 20
0.7603199999999999
 30
0.0
 10
-0.9479299999999999
 20
0.73569
 30
0.0
 10
-1.01559
 20
0.8033499999999999
 30
0.0
 10
-0.9909299999999999
 20
0.9451599999999999
 30
0.0
 10
-0.9357599999999999
 20
1.03416
 30
0.0
  0
POLYLINE
  5
56
100
AcDbEntity
  8
None
370
               5
390
0
  6
Continuous
 62
               7
100
AcDb2dPolyline
 66
               1
 10
0.0
 20
0.0
 30
0.0
 70
               1
 75
               5
  0
VERTEX
  5
57
100
AcDbEntity
  8
None
370
               5
390
0
  6
Continuous
 62
               7
100
AcDbVertex
100
AcDb2dVertex
 10
-1.6315899999999999
 20
-1.5434099999999999
 30
0.0
  0
VERTEX
  5
58
100
AcDbEntity
  8
None
370
               5
390
0
  6
Continuous
 62
               7
100
AcDbVertex
100
AcDb2dVertex
 10
-1.2567699999999999
 20
-1.1906299999999999
 30
0.0
  0
VERTEX
  5
59
100
AcDbEntity
  8
None
370
               5
390
0
  6
Continuous
 62
               7
100
AcDbVertex
100
AcDb2dVertex
 10
-1.1906299999999999
 20
-1.1906299999999999
 30
0.0
  0
VERTEX
  5
5A
100
AcDbEntity
  8
None
370
               5
390
0
  6
Continuous
 62
               7
100
AcDbVertex
100
AcDb2dVertex
 10
-0.9260299999999999
 20
-1.6536399999999998
 30
0.0
  0
VERTEX
  5
5B
100
AcDbEntity
  8
None
370
               5
390
0
  6
Continuous
 62
               7
100
AcDbVertex
100
AcDb2dVertex
 10
-0.79375
 20
-1.8079999999999998
 30
0.0
  0
VERTEX
  5
5C
100
AcDbEntity
  8
None
370
               5
390
0
  6
Continuous
 62
               7
100
AcDbVertex
100
AcDb2dVertex
 10
-0.6614699999999999
 20
-1.8961899999999998
 30
0.0
  0
VERTEX
  5
5D
100
AcDbEntity
  8
None
370
               5
390
0
  6
Continuous
 62
               7
100
AcDbVertex
100
AcDb2dVertex
 10
-0.39688
 20
-1.8961899999999998
 30
0.0
  0
VERTEX
  5
5E
100
AcDbEntity
  8
None
370
               5
390
0
  6
Continuous
 62
               7
100
AcDbVertex
100
AcDb2dVertex
 10
-0.11024
 20
-1.7197799999999999
 30
0.0
  0
VERTEX
  5
5F
100
AcDbEntity
  8
None
370
               5
390
0
  6
Continuous
 62
               7
100
AcDbVertex
100
AcDb2dVertex
 10
0.08819
 20
-1.5434099999999999
 30
0.0
  0
VERTEX
  5
60
100
AcDbEntity
  8
None
370
               5
390
0
  6
Continuous
 62
               7
100
AcDbVertex
100
AcDb2dVertex
 10
0.13228
 20
-1.4111199999999999
 30
0.0
  0
VERTEX
  5
61
100
AcDbEntity
  8
None
370
               5
390
0
  6
Continuous
 62
               7
100
AcDbVertex
100
AcDb2dVertex
 10
0.13228
 20
-1.16858
 30
0.0
  0
VERTEX
  5
62
100
AcDbEntity
  8
None
370
               5
390
0
  6
Continuous
 62
               7
100
AcDbVertex
100
AcDb2dVertex
 10
0.11024
 20
-1.1024399999999999
 30
0.0
  0
VERTEX
  5
63
100
AcDbEntity
  8
None
370
               5
390
0
  6
Continuous
 62
               7
100
AcDbVertex
100
AcDb2dVertex
 10
0.06614
 20
-1.1024399999999999
 30
0.0
  0
VERTEX
  5
64
100
AcDbEntity
  8
None
370
               5
390
0
  6
Continuous
 62
               7
100
AcDbVertex
100
AcDb2dVertex
 10
0.0
 20
-1.1237999999999999
 30
0.0
  0
VERTEX
  5
65
100
AcDbEntity
  8
None
370
               5
390
0
  6
Continuous
 62
               7
100
AcDbVertex
100
AcDb2dVertex
 10
-0.19845
 20
-1.2788099999999998
 30
0.0
  0
VERTEX
  5
66
100
AcDbEntity
  8
None
370
               5
390
0
  6
Continuous
 62
               7
100
AcDbVertex
100
AcDb2dVertex
 10
-0.28494
 20
-1.3008599999999999
 30
0.0
  0
VERTEX
  5
67
100
AcDbEntity
  8
None
370
               5
390
0
  6
Continuous
 62
               7
100
AcDbVertex
100
AcDb2dVertex
 10
-0.39688
 20
-1.2788099999999998
 30
0.0
  0
VERTEX
  5
68
100
AcDbEntity
  8
None
370
               5
390
0
  6
Continuous
 62
               7
100
AcDbVertex
100
AcDb2dVertex
 10
-0.44097
 20
-1.1684999999999999
 30
0.0
  0
VERTEX
  5
69
100
AcDbEntity
  8
None
370
               5
390
0
  6
Continuous
 62
               7
100
AcDbVertex
100
AcDb2dVertex
 10
-0.52916
 20
-1.0142499999999999
 30
0.0
  0
VERTEX
  5
6A
100
AcDbEntity
  8
None
370
               5
390
0
  6
Continuous
 62
               7
100
AcDbVertex
100
AcDb2dVertex
 10
-0.5732799999999999
 20
-0.8158
 30
0.0
  0
VERTEX
  5
6B
100
AcDbEntity
  8
None
370
               5
390
0
  6
Continuous
 62
               7
100
AcDbVertex
100
AcDb2dVertex
 10
-0.5953299999999999
 20
-0.5732799999999999
 30
0.0
  0
VERTEX
  5
6C
100
AcDbEntity
  8
None
370
               5
390
0
  6
Continuous
 62
               7
100
AcDbVertex
100
AcDb2dVertex
 10
-0.6614699999999999
 20
-0.44097
 30
0.0
  0
VERTEX
  5
6D
100
AcDbEntity
  8
None
370
               5
390
0
  6
Continuous
 62
               7
100
AcDbVertex
100
AcDb2dVertex
 10
-0.7496599999999999
 20
-0.33073
 30
0.0
  0
VERTEX
  5
6E
100
AcDbEntity
  8
None
370
               5
390
0
  6
Continuous
 62
               7
100
AcDbVertex
100
AcDb2dVertex
 10
-0.8378399999999999
 20
-0.2541
 30
0.0
  0
VERTEX
  5
6F
100
AcDbEntity
  8
None
370
               5
390
0
  6
Continuous
 62
               7
100
AcDbVertex
100
AcDb2dVertex
 10
-0.9260299999999999
 20
-0.2541
 30
0.0
  0
VERTEX
  5
70
100
AcDbEntity
  8
None
370
               5
390
0
  6
Continuous
 62
               7
100
AcDbVertex
100
AcDb2dVertex
 10
-1.0363
 20
-0.30869
 30
0.0
  0
VERTEX
  5
71
100
AcDbEntity
  8
None
370
               5
390
0
  6
Continuous
 62
               7
100
AcDbVertex
100
AcDb2dVertex
 10
-1.1244799999999999
 20
-0.41892
 30
0.0
  0
VERTEX
  5
72
100
AcDbEntity
  8
None
370
               5
390
0
  6
Continuous
 62
               7
100
AcDbVertex
100
AcDb2dVertex
 10
-1.2788099999999998
 20
-0.63942
 30
0.0
  0
VERTEX
  5
73
100
AcDbEntity
  8
None
370
               5
390
0
  6
Continuous
 62
               7
100
AcDbVertex
100
AcDb2dVertex
 10
-1.4279399999999998
 20
-0.7716999999999999
 30
0.0
  0
VERTEX
  5
74
100
AcDbEntity
  8
None
370
               5
390
0
  6
Continuous
 62
               7
100
AcDbVertex
100
AcDb2dVertex
 10
-1.6692399999999998
 20
-1.0142499999999999
 30
0.0
  0
VERTEX
  5
75
100
AcDbEntity
  8
None
370
               5
390
0
  6
Continuous
 62
               7
100
AcDbVertex
100
AcDb2dVertex
 10
-1.7197799999999999
 20
-1.1024399999999999
 30
0.0
  0
VERTEX
  5
76
100
AcDbEntity
  8
None
370
               5
390
0
  6
Continuous
 62
               7
100
AcDbVertex
100
AcDb2dVertex
 10
-1.7197799999999999
 20
-1.2567699999999999
 30
0.0
  0
VERTEX
  5
77
100
AcDbEntity
  8
None
370
               5
390
0
  6
Continuous
 62
               7
100
AcDbVertex
100
AcDb2dVertex
 10
-1.7197799999999999
 20
-1.4111199999999999
 30
0.0
  0
VERTEX
  5
78
100
AcDbEntity
  8
None
370
               5
390
0
  6
Continuous
 62
               7
100
AcDbVertex
100
AcDb2dVertex
 10
-1.7197799999999999
 20
-1.4993099999999999
 30
0.0
  0
VERTEX
  5
79
100
AcDbEntity
  8
None
370
               5
390
0
  6
Continuous
 62
               7
100
AcDbVertex
100
AcDb2dVertex
 10
-1.6977399999999998
 20
-1.5654499999999998
 30
0.0
  0
SEQEND
  5
7A
100
AcDbEntity
  8
None
370
               5
390
0
  6
Continuous
 62
               7
  0
POLYLINE
  5
7B
100
AcDbEntity
  8
None
370
               5
390
0
  6
Continuous
 62
               7
100
AcDb2dPolyline
 66
               1
 10
0.0
 20
0.0
 30
0.0
 75
               5
  0
VERTEX
  5
7C
100
AcDbEntity
  8
None
370
               5
390
0
  6
Continuous
 62
               7
100
AcDbVertex
100
AcDb2dVertex
 10
-1.7197799999999999
 20
-1.1410199999999999
 30
0.0
  0
VERTEX
  5
7D
100
AcDbEntity
  8
None
370
               5
390
0
  6
Continuous
 62
               7
100
AcDbVertex
100
AcDb2dVertex
 10
-1.7197799999999999
 20
-1.45522
 30
0.0
  0
VERTEX
  5
7E
100
AcDbEntity
  8
None
370
               5
390
0
  6
Continuous
 62
               7
100
AcDbVertex
100
AcDb2dVertex
 10
-1.7197799999999999
 20
-1.4772599999999998
 30
0.0
  0
VERTEX
  5
7F
100
AcDbEntity
  8
None
370
               5
390
0
  6
Continuous
 62
               7
100
AcDbVertex
100
AcDb2dVertex
 10
-1.71427
 20
-1.5158499999999999
 30
0.0
  0
SEQEND
  5
80
100
AcDbEntity
  8
None
370
               5
390
0
  6
Continuous
 62
               7
  0
ENDBLK
  5
81
100
AcDbEntity
  8
None
390
0
100
AcDbBlockEnd
  0
BLOCK
  5
82
100
AcDbEntity
  8
Dimension
390
0
100
AcDbBlockBegin
  2
*D3
 70
               1
 10
0.0
 20
0.0
 30
0.0
  3
*D3
  1

  0
LINE
  5
83
100
AcDbEntity
  8
Dimension
370
              -2
390
0
  6
Continuous
 62
               0
100
AcDbLine
 10
-30.483000000000004
 20
36.967492604731106
 30
0.0
 11
-30.483000000000004
 21
49.682132609462229
 31
0.0
  0
LINE
  5
84
100
AcDbEntity
  8
Dimension
370
              -2
390
0
  6
Continuous
 62
               0
100
AcDbLine
 10
-31.733000000000004
 20
38.217492604731106
 30
0.0
 11
-31.733000000000004
 21
49.682132609462229
 31
0.0
  0
LINE
  5
85
100
AcDbEntity
  8
Dimension
370
              -2
390
0
  6
Continuous
 62
               0
100
AcDbLine
 10
-31.733000000000004
 20
45.872132599999986
 30
0.0
 11
-30.483000000000004
 21
45.872132599999986
 31
0.0
  0
LINE
  5
86
100
AcDbEntity
  8
Dimension
370
              -2
390
0
  6
Continuous
 62
               0
100
AcDbLine
 10
-30.483000000000004
 20
45.872132599999986
 30
0.0
 11
-26.084390000000003
 21
45.872132599999986
 31
0.0
  0
SOLID
  5
87
100
AcDbEntity
  8
Dimension
370
              -2
390
0
 62
               0
100
AcDbTrace
 10
-30.483000000000004
 20
45.872132599999986
 30
0.0
 11
-27.308000000000003
 21
46.7228712859688
 31
0.0
 12
-27.308000000000003
 22
45.021393914031172
 32
0.0
 13
-27.308000000000003
 23
45.021393914031172
 33
0.0
  0
LINE
  5
88
100
AcDbEntity
  8
Dimension
370
              -2
390
0
  6
Continuous
 62
               0
100
AcDbLine
 10
-31.733000000000004
 20
45.872132599999986
 30
0.0
 11
-38.732985993467281
 21
45.872132599999986
 31
0.0
  0
SOLID
  5
89
100
AcDbEntity
  8
Dimension
370
              -2
390
0
 62
               0
100
AcDbTrace
 10
-31.733000000000004
 20
45.872132599999986
 30
0.0
 11
-34.908000000000001
 21
45.021393914031172
 31
0.0
 12
-34.908000000000001
 22
46.7228712859688
 32
0.0
 13
-34.908000000000001
 23
46.7228712859688
 33
0.0
  0
MTEXT
  5
8A
100
AcDbEntity
  8
Dimension
390
0
 62
               0
100
AcDbMText
 10
-26.084390000000003
 20
46.594500221527767
 30
0.0
 40
1.1368815104166665
 41
0.0
 71
               1
 72
               1
  1
1.25mm
  7
Arial
 73
               1
 44
0.9673603504928806
  0
MTEXT
  5
8B
100
AcDbEntity
  8
Dimension
390
0
 62
               0
100
AcDbMText
 10
-20.305889623192684
 20
46.506305777083313
 30
0.0
 40
1.1368815104166665
 41
0.0
 71
               1
 72
               1
  1
±0.13mm
  7
Arial
 73
               1
 44
0.9673603504928806
  0
MTEXT
  5
8C
100
AcDbEntity
  8
Dimension
390
0
 62
               0
100
AcDbMText
 10
-13.654264111811322
 20
46.562070389351845
 30
0.0
 40
1.2632016782407407
 41
0.0
 71
               1
 72
               1
  1
(x4)
  7
Arial
 73
               1
 44
0.9673603504928805
  0
POINT
  5
8D
100
AcDbEntity
  8
Defpoints
370
               0
390
0
 62
               0
100
AcDbPoint
 10
-31.733000000000004
 20
36.312492599999985
 30
0.0
  0
POINT
  5
8E
100
AcDbEntity
  8
Defpoints
370
               0
390
0
 62
               0
100
AcDbPoint
 10
-30.483000000000004
 20
35.062492599999985
 30
0.0
  0
POINT
  5
8F
100
AcDbEntity
  8
Defpoints
370
               0
390
0
 62
               0
100
AcDbPoint
 10
-30.483000000000004
 20
45.872132599999986
 30
0.0
  0
ENDBLK
  5
90
100
AcDbEntity
  8
Dimension
390
0
100
AcDbBlockEnd
  0
BLOCK
  5
91
100
AcDbEntity
  8
Dimension
390
0
100
AcDbBlockBegin
  2
*D4
 70
               1
 10
0.0
 20
0.0
 30
0.0
  3
*D4
  1

  0
LINE
  5
92
100
AcDbEntity
  8
Dimension
370
              -2
390
0
  6
Continuous
 62
               0
100
AcDbLine
 10
-33.638000004731126
 20
36.312492599999985
 30
0.0
 11
-48.219540009462236
 21
36.312492599999985
 31
0.0
  0
LINE
  5
93
100
AcDbEntity
  8
Dimension
370
              -2
390
0
  6
Continuous
 62
               0
100
AcDbLine
 10
-32.388000004731126
 20
35.062492599999985
 30
0.0
 11
-48.219540009462236
 21
35.062492599999985
 31
0.0
  0
LINE
  5
94
100
AcDbEntity
  8
Dimension
370
              -2
390
0
  6
Continuous
 62
               0
100
AcDbLine
 10
-44.409540000000007
 20
35.062492599999985
 30
0.0
 11
-44.409540000000007
 21
36.312492599999985
 31
0.0
  0
LINE
  5
95
100
AcDbEntity
  8
Dimension
370
              -2
390
0
  6
Continuous
 62
               0
100
AcDbLine
 10
-44.409540000000007
 20
36.312492599999985
 30
0.0
 11
-44.409540000000007
 21
40.372805099999979
 31
0.0
  0
SOLID
  5
96
100
AcDbEntity
  8
Dimension
370
              -2
390
0
 62
               0
100
AcDbTrace
 10
-44.409540000000007
 20
36.312492599999985
 30
0.0
 11
-45.260278685968821
 21
39.487492599999982
 31
0.0
 12
-43.558801314031193
 22
39.487492599999982
 32
0.0
 13
-43.558801314031193
 23
39.487492599999982
 33
0.0
  0
LINE
  5
97
100
AcDbEntity
  8
Dimension
370
              -2
390
0
  6
Continuous
 62
               0
100
AcDbLine
 10
-44.409540000000007
 20
35.062492599999985
 30
0.0
 11
-44.409540000000007
 21
28.062506606532708
 31
0.0
  0
SOLID
  5
98
100
AcDbEntity
  8
Dimension
370
              -2
390
0
 62
               0
100
AcDbTrace
 10
-44.409540000000007
 20
35.062492599999985
 30
0.0
 11
-43.558801314031193
 21
31.887492599999984
 31
0.0
 12
-45.260278685968821
 22
31.887492599999984
 32
0.0
 13
-45.260278685968821
 23
31.887492599999984
 33
0.0
  0
MTEXT
  5
99
100
AcDbEntity
  8
Dimension
390
0
 62
               0
100
AcDbMText
 10
-52.132727977737858
 20
41.09517272152776
 30
0.0
 40
1.1368815104166665
 41
0.0
 71
               1
 72
               1
  1
1.25mm
  7
Arial
 73
               1
 44
0.9673603504928806
  0
MTEXT
  5
9A
100
AcDbEntity
  8
Dimension
390
0
 62
               0
100
AcDbMText
 10
-46.354227600930543
 20
41.006978277083306
 30
0.0
 40
1.1368815104166665
 41
0.0
 71
               1
 72
               1
  1
±0.13mm
  7
Arial
 73
               1
 44
0.9673603504928806
  0
MTEXT
  5
9B
100
AcDbEntity
  8
Dimension
390
0
 62
               0
100
AcDbMText
 10
-39.702602089549174
 20
41.062742889351838
 30
0.0
 40
1.2632016782407407
 41
0.0
 71
               1
 72
               1
  1
(x4)
  7
Arial
 73
               1
 44
0.9673603504928805
  0
POINT
  5
9C
100
AcDbEntity
  8
Defpoints
370
               0
390
0
 62
               0
100
AcDbPoint
 10
-30.483000000000004
 20
35.062492599999985
 30
0.0
  0
POINT
  5
9D
100
AcDbEntity
  8
Defpoints
370
               0
390
0
 62
               0
100
AcDbPoint
 10
-31.733000000000004
 20
36.312492599999985
 30
0.0
  0
POINT
  5
9E
100
AcDbEntity
  8
Defpoints
370
               0
390
0
 62
               0
100
AcDbPoint
 10
-44.40954
 20
36.312492599999985
 30
0.0
  0
ENDBLK
  5
9F
100
AcDbEntity
  8
Dimension
390
0
100
AcDbBlockEnd
  0
BLOCK
  5
A0
100
AcDbEntity
  8
Dimension
390
0
100
AcDbBlockBegin
  2
*D5
 70
               1
 10
0.0
 20
0.0
 30
0.0
  3
*D5
  1

  0
LINE
  5
A1
100
AcDbEntity
  8
Dimension
370
              -2
390
0
  6
Continuous
 62
               0
100
AcDbLine
 10
-33.640500004731123
 20
36.314992599999982
 30
0.0
 11
-54.800501609462231
 21
36.314992599999982
 31
0.0
  0
LINE
  5
A2
100
AcDbEntity
  8
Dimension
370
              -2
390
0
  6
Continuous
 62
               0
100
AcDbLine
 10
-33.640500004731123
 20
-13.915007400000007
 30
0.0
 11
-54.800501609462231
 21
-13.915007400000007
 31
0.0
  0
LINE
  5
A3
100
AcDbEntity
  8
Dimension
370
              -2
390
0
  6
Continuous
 62
               0
100
AcDbLine
 10
-50.990501600000002
 20
36.314992599999982
 30
0.0
 11
-50.990501600000002
 21
-13.915007400000007
 31
0.0
  0
SOLID
  5
A4
100
AcDbEntity
  8
Dimension
370
              -2
390
0
 62
               0
100
AcDbTrace
 10
-50.990501600000002
 20
36.314992599999982
 30
0.0
 11
-50.139762914031188
 21
33.139992599999985
 31
0.0
 12
-51.841240285968816
 22
33.139992599999985
 32
0.0
 13
-51.841240285968816
 23
33.139992599999985
 33
0.0
  0
SOLID
  5
A5
100
AcDbEntity
  8
Dimension
370
              -2
390
0
 62
               0
100
AcDbTrace
 10
-50.990501600000002
 20
-13.915007400000007
 30
0.0
 11
-51.841240285968816
 21
-10.740007400000007
 31
0.0
 12
-50.139762914031188
 22
-10.740007400000007
 32
0.0
 13
-50.139762914031188
 23
-10.740007400000007
 33
0.0
  0
MTEXT
  5
A6
100
AcDbEntity
  8
Dimension
390
0
 62
               0
100
AcDbMText
 10
-60.047189147100909
 20
14.722367621527763
 30
0.0
 40
1.1368815104166665
 41
0.0
 71
               1
 72
               1
  1
50.230mm
  7
Arial
 73
               1
 44
0.9673603504928806
  0
MTEXT
  5
A7
100
AcDbEntity
  8
Dimension
390
0
 62
               0
100
AcDbMText
 10
-52.490689120186104
 20
14.634173177083316
 30
0.0
 40
1.1368815104166665
 41
0.0
 71
               1
 72
               1
  1
±0.125mm
  7
Arial
 73
               1
 44
0.9673603504928806
  0
MTEXT
  5
A8
100
AcDbEntity
  8
Dimension
390
0
 62
               0
100
AcDbMText
 10
-44.950064120186113
 20
14.689937789351836
 30
0.0
 40
1.2632016782407407
 41
0.0
 71
               1
 72
               1
  1
(x4)
  7
Arial
 73
               1
 44
0.9673603504928805
  0
POINT
  5
A9
100
AcDbEntity
  8
Defpoints
370
               0
390
0
 62
               0
100
AcDbPoint
 10
-31.735500000000005
 20
-13.915007400000007
 30
0.0
  0
POINT
  5
AA
100
AcDbEntity
  8
Defpoints
370
               0
390
0
 62
               0
100
AcDbPoint
 10
-31.735500000000005
 20
36.314992599999982
 30
0.0
  0
POINT
  5
AB
100
AcDbEntity
  8
Defpoints
370
               0
390
0
 62
               0
100
AcDbPoint
 10
-50.990501600000002
 20
36.314992599999982
 30
0.0
  0
ENDBLK
  5
AC
100
AcDbEntity
  8
Dimension
390
0
100
AcDbBlockEnd
  0
BLOCK
  5
AD
100
AcDbEntity
  8
Dimension
390
0
100
AcDbBlockBegin
  2
*D6
 70
               1
 10
0.0
 20
0.0
 30
0.0
  3
*D6
  1

  0
LINE
  5
AE
100
AcDbEntity
  8
Dimension
370
              -2
390
0
  6
Continuous
 62
               0
100
AcDbLine
 10
-32.388000004731126
 20
-12.66250740000001
 30
0.0
 11
-41.741718409462237
 21
-12.66250740000001
 31
0.0
  0
LINE
  5
AF
100
AcDbEntity
  8
Dimension
370
              -2
390
0
  6
Continuous
 62
               0
100
AcDbLine
 10
-32.388000004731126
 20
-7.5825074000000114
 30
0.0
 11
-41.741718409462237
 21
-7.5825074000000114
 31
0.0
  0
LINE
  5
B0
100
AcDbEntity
  8
Dimension
370
              -2
390
0
  6
Continuous
 62
               0
100
AcDbLine
 10
-37.931718399999994
 20
-7.5825074000000114
 30
0.0
 11
-37.931718399999994
 21
-12.66250740000001
 31
0.0
  0
LINE
  5
B1
100
AcDbEntity
  8
Dimension
370
              -2
390
0
  6
Continuous
 62
               0
100
AcDbLine
 10
-37.931718399999994
 20
-12.66250740000001
 30
0.0
 11
-37.931718399999994
 21
-19.66249339346728
 31
0.0
  0
SOLID
  5
B2
100
AcDbEntity
  8
Dimension
370
              -2
390
0
 62
               0
100
AcDbTrace
 10
-37.931718399999994
 20
-12.66250740000001
 30
0.0
 11
-37.08097971403118
 21
-15.83750740000001
 31
0.0
 12
-38.782457085968808
 22
-15.83750740000001
 32
0.0
 13
-38.782457085968808
 23
-15.83750740000001
 33
0.0
  0
LINE
  5
B3
100
AcDbEntity
  8
Dimension
370
              -2
390
0
  6
Continuous
 62
               0
100
AcDbLine
 10
-37.931718399999994
 20
-7.5825074000000114
 30
0.0
 11
-37.931718399999994
 21
-0.5825214065327415
 31
0.0
  0
SOLID
  5
B4
100
AcDbEntity
  8
Dimension
370
              -2
390
0
 62
               0
100
AcDbTrace
 10
-37.931718399999994
 20
-7.5825074000000114
 30
0.0
 11
-38.782457085968808
 21
-4.4075074000000116
 31
0.0
 12
-37.08097971403118
 22
-4.4075074000000116
 32
0.0
 13
-37.08097971403118
 23
-4.4075074000000116
 33
0.0
  0
MTEXT
  5
B5
100
AcDbEntity
  8
Dimension
390
0
 62
               0
100
AcDbMText
 10
-40.820968588403659
 20
-9.0790559895833489
 30
0.0
 40
1.1368815104166665
 41
0.0
 71
               1
 72
               1
  1
5.08mm
  7
Arial
 73
               1
 44
0.9673603504928806
  0
POINT
  5
B6
100
AcDbEntity
  8
Defpoints
370
               0
390
0
 62
               0
100
AcDbPoint
 10
-30.483000000000004
 20
-7.5825074000000114
 30
0.0
  0
POINT
  5
B7
100
AcDbEntity
  8
Defpoints
370
               0
390
0
 62
               0
100
AcDbPoint
 10
-30.483000000000004
 20
-12.66250740000001
 30
0.0
  0
POINT
  5
B8
100
AcDbEntity
  8
Defpoints
370
               0
390
0
 62
               0
100
AcDbPoint
 10
-37.931718399999994
 20
-12.66250740000001
 30
0.0
  0
ENDBLK
  5
B9
100
AcDbEntity
  8
Dimension
390
0
100
AcDbBlockEnd
  0
BLOCK
  5
BA
100
AcDbEntity
  8
Dimension
390
0
100
AcDbBlockBegin
  2
*D7
 70
               1
 10
0.0
 20
0.0
 30
0.0
  3
*D7
  1

  0
LINE
  5
BB
100
AcDbEntity
  8
Dimension
370
              -2
390
0
  6
Continuous
 62
               0
100
AcDbLine
 10
-30.483000000000004
 20
-14.567507404731131
 30
0.0
 11
-30.483000000000004
 21
-22.410000009462259
 31
0.0
  0
LINE
  5
BC
100
AcDbEntity
  8
Dimension
370
              -2
390
0
  6
Continuous
 62
               0
100
AcDbLine
 10
-6.6205000000000069
 20
-13.317507404731131
 30
0.0
 11
-6.6205000000000069
 21
-22.410000009462255
 31
0.0
  0
LINE
  5
BD
100
AcDbEntity
  8
Dimension
370
              -2
390
0
  6
Continuous
 62
               0
100
AcDbLine
 10
-30.483000000000004
 20
-18.600000000000019
 30
0.0
 11
-6.6205000000000069
 21
-18.600000000000019
 31
0.0
  0
SOLID
  5
BE
100
AcDbEntity
  8
Dimension
370
              -2
390
0
 62
               0
100
AcDbTrace
 10
-30.483000000000004
 20
-18.600000000000019
 30
0.0
 11
-27.308000000000003
 21
-17.749261314031205
 31
0.0
 12
-27.308000000000003
 22
-19.450738685968833
 32
0.0
 13
-27.308000000000003
 23
-19.450738685968833
 33
0.0
  0
SOLID
  5
BF
100
AcDbEntity
  8
Dimension
370
              -2
390
0
 62
               0
100
AcDbTrace
 10
-6.6205000000000069
 20
-18.600000000000019
 30
0.0
 11
-9.7955000000000076
 21
-19.450738685968833
 31
0.0
 12
-9.7955000000000059
 22
-17.749261314031205
 32
0.0
 13
-9.7955000000000059
 23
-17.749261314031205
 33
0.0
  0
MTEXT
  5
C0
100
AcDbEntity
  8
Dimension
390
0
 62
               0
100
AcDbMText
 10
-23.970564476807315
 20
-17.979055989583355
 30
0.0
 40
1.1368815104166665
 41
0.0
 71
               1
 72
               1
  1
23.8625mm(x8)
  7
Arial
 73
               1
 44
0.9673603504928806
  0
POINT
  5
C1
100
AcDbEntity
  8
Defpoints
370
               0
390
0
 62
               0
100
AcDbPoint
 10
-6.6205000000000069
 20
-11.41250740000001
 30
0.0
  0
POINT
  5
C2
100
AcDbEntity
  8
Defpoints
370
               0
390
0
 62
               0
100
AcDbPoint
 10
-30.483000000000004
 20
-12.66250740000001
 30
0.0
  0
POINT
  5
C3
100
AcDbEntity
  8
Defpoints
370
               0
390
0
 62
               0
100
AcDbPoint
 10
-30.483000000000004
 20
-18.600000000000019
 30
0.0
  0
ENDBLK
  5
C4
100
AcDbEntity
  8
Dimension
390
0
100
AcDbBlockEnd
  0
BLOCK
  5
C5
100
AcDbEntity
  8
Dimension
390
0
100
AcDbBlockBegin
  2
*D8
 70
               1
 10
0.0
 20
0.0
 30
0.0
  3
*D8
  1

  0
LINE
  5
C6
100
AcDbEntity
  8
Dimension
370
              -2
390
0
  6
Continuous
 62
               0
100
AcDbLine
 10
-0.5305000000000213
 20
34.059992604731121
 30
0.0
 11
-0.5305000000000213
 21
44.40777698436726
 31
0.0
  0
LINE
  5
C7
100
AcDbEntity
  8
Dimension
370
              -2
390
0
  6
Continuous
 62
               0
100
AcDbLine
 10
0.7394999999999783
 20
34.059992604731121
 30
0.0
 11
0.7394999999999783
 21
44.40777698436726
 31
0.0
  0
LINE
  5
C8
100
AcDbEntity
  8
Dimension
370
              -2
390
0
  6
Continuous
 62
               0
100
AcDbLine
 10
0.7394999999999783
 20
40.597776974905017
 30
0.0
 11
-0.5305000000000213
 21
40.597776974905017
 31
0.0
  0
LINE
  5
C9
100
AcDbEntity
  8
Dimension
370
              -2
390
0
  6
Continuous
 62
               0
100
AcDbLine
 10
-0.5305000000000213
 20
40.597776974905017
 30
0.0
 11
-7.5304859934672921
 21
40.597776974905017
 31
0.0
  0
SOLID
  5
CA
100
AcDbEntity
  8
Dimension
370
              -2
390
0
 62
               0
100
AcDbTrace
 10
-0.5305000000000213
 20
40.597776974905017
 30
0.0
 11
-3.7055000000000211
 21
39.747038288936203
 31
0.0
 12
-3.7055000000000207
 22
41.448515660873831
 32
0.0
 13
-3.7055000000000207
 23
41.448515660873831
 33
0.0
  0
LINE
  5
CB
100
AcDbEntity
  8
Dimension
370
              -2
390
0
  6
Continuous
 62
               0
100
AcDbLine
 10
0.7394999999999783
 20
40.597776974905017
 30
0.0
 11
13.209498400000001
 21
40.597776974905017
 31
0.0
  0
SOLID
  5
CC
100
AcDbEntity
  8
Dimension
370
              -2
390
0
 62
               0
100
AcDbTrace
 10
0.7394999999999783
 20
40.597776974905017
 30
0.0
 11
3.9144999999999781
 21
41.448515660873831
 31
0.0
 12
3.9144999999999781
 22
39.747038288936203
 32
0.0
 13
3.9144999999999781
 23
39.747038288936203
 33
0.0
  0
MTEXT
  5
CD
100
AcDbEntity
  8
Dimension
390
0
 62
               0
100
AcDbMText
 10
13.209498400000005
 20
41.218720985321681
 30
0.0
 40
1.1368815104166665
 41
0.0
 71
               1
 72
               1
  1
1.27mm typ.
  7
Arial
 73
               1
 44
0.9673603504928806
  0
POINT
  5
CE
100
AcDbEntity
  8
Defpoints
370
               0
390
0
 62
               0
100
AcDbPoint
 10
0.7394999999999783
 20
32.1549926
 30
0.0
  0
POINT
  5
CF
100
AcDbEntity
  8
Defpoints
370
               0
390
0
 62
               0
100
AcDbPoint
 10
-0.5305000000000213
 20
32.1549926
 30
0.0
  0
POINT
  5
D0
100
AcDbEntity
  8
Defpoints
370
               0
390
0
 62
               0
100
AcDbPoint
 10
-0.5305000000000213
 20
40.597776974905017
 30
0.0
  0
ENDBLK
  5
D1
100
AcDbEntity
  8
Dimension
390
0
100
AcDbBlockEnd
  0
BLOCK
  5
D2
100
AcDbEntity
  8
Dimension
390
0
100
AcDbBlockBegin
  2
*D9
 70
               1
 10
0.0
 20
0.0
 30
0.0
  3
*D9
  1

  0
LINE
  5
D3
100
AcDbEntity
  8
Dimension
370
              -2
390
0
  6
Continuous
 62
               0
100
AcDbLine
 10
19.147000004731108
 20
35.062492599999985
 30
0.0
 11
30.939498409462235
 21
35.062492599999985
 31
0.0
  0
LINE
  5
D4
100
AcDbEntity
  8
Dimension
370
              -2
390
0
  6
Continuous
 62
               0
100
AcDbLine
 10
19.147000004731108
 20
32.522492599999993
 30
0.0
 11
30.939498409462235
 21
32.522492599999993
 31
0.0
  0
LINE
  5
D5
100
AcDbEntity
  8
Dimension
370
              -2
390
0
  6
Continuous
 62
               0
100
AcDbLine
 10
27.129498399999999
 20
32.522492599999993
 30
0.0
 11
27.129498399999999
 21
35.062492599999985
 31
0.0
  0
LINE
  5
D6
100
AcDbEntity
  8
Dimension
370
              -2
390
0
  6
Continuous
 62
               0
100
AcDbLine
 10
27.129498399999999
 20
35.062492599999985
 30
0.0
 11
27.129498399999999
 21
42.062478593467262
 31
0.0
  0
SOLID
  5
D7
100
AcDbEntity
  8
Dimension
370
              -2
390
0
 62
               0
100
AcDbTrace
 10
27.129498399999999
 20
35.062492599999985
 30
0.0
 11
26.278759714031185
 21
38.237492599999982
 31
0.0
 12
27.980237085968813
 22
38.237492599999982
 32
0.0
 13
27.980237085968813
 23
38.237492599999982
 33
0.0
  0
LINE
  5
D8
100
AcDbEntity
  8
Dimension
370
              -2
390
0
  6
Continuous
 62
               0
100
AcDbLine
 10
27.129498399999999
 20
32.522492599999993
 30
0.0
 11
27.129498399999999
 21
25.522506606532716
 31
0.0
  0
SOLID
  5
D9
100
AcDbEntity
  8
Dimension
370
              -2
390
0
 62
               0
100
AcDbTrace
 10
27.129498399999999
 20
32.522492599999993
 30
0.0
 11
27.980237085968813
 21
29.347492599999992
 31
0.0
 12
26.278759714031185
 22
29.347492599999992
 32
0.0
 13
26.278759714031185
 23
29.347492599999992
 33
0.0
  0
MTEXT
  5
DA
100
AcDbEntity
  8
Dimension
390
0
 62
               0
100
AcDbMText
 10
24.240248211596342
 20
34.470944010416659
 30
0.0
 40
1.1368815104166665
 41
0.0
 71
               1
 72
               1
  1
2.54mm
  7
Arial
 73
               1
 44
0.9673603504928806
  0
POINT
  5
DB
100
AcDbEntity
  8
Defpoints
370
               0
390
0
 62
               0
100
AcDbPoint
 10
17.24199999999999
 20
32.522492599999993
 30
0.0
  0
POINT
  5
DC
100
AcDbEntity
  8
Defpoints
370
               0
390
0
 62
               0
100
AcDbPoint
 10
17.24199999999999
 20
35.062492599999985
 30
0.0
  0
POINT
  5
DD
100
AcDbEntity
  8
Defpoints
370
               0
390
0
 62
               0
100
AcDbPoint
 10
27.129498399999999
 20
35.062492599999985
 30
0.0
  0
ENDBLK
  5
DE
100
AcDbEntity
  8
Dimension
390
0
100
AcDbBlockEnd
  0
BLOCK
  5
DF
100
AcDbEntity
  8
Dimension
390
0
100
AcDbBlockBegin
  2
*D10
 70
               1
 10
0.0
 20
0.0
 30
0.0
  3
*D10
  1

  0
LINE
  5
E0
100
AcDbEntity
  8
Dimension
370
              -2
390
0
  6
Continuous
 62
               0
100
AcDbLine
 10
17.586149999999989
 20
32.27311259999999
 30
0.0
 11
26.006393537967231
 21
26.171628314847453
 31
0.0
  0
SOLID
  5
E1
100
AcDbEntity
  8
Dimension
370
              -2
390
0
 62
               0
100
AcDbTrace
 10
17.586149999999989
 20
32.27311259999999
 30
0.0
 11
19.631437613803641
 21
31.488000243757362
 31
0.0
 12
18.964864853478296
 22
30.57054154776699
 32
0.0
 13
18.964864853478296
 23
30.57054154776699
 33
0.0
  0
LINE
  5
E2
100
AcDbEntity
  8
Dimension
370
              -2
390
0
  6
Continuous
 62
               0
100
AcDbLine
 10
26.006393537967231
 20
26.171628314847453
 30
0.0
 11
32.006381545885233
 21
26.171628314847453
 31
0.0
  0
MTEXT
  5
E3
100
AcDbEntity
  8
Dimension
390
0
 62
               0
100
AcDbMText
 10
32.006381545885233
 20
26.893995936375237
 30
0.0
 40
1.1368815104166665
 41
0.0
 71
               1
 72
               1
  1
Ø 0.850mm
  7
Arial
 73
               1
 44
0.9673603504928806
  0
MTEXT
  5
E4
100
AcDbEntity
  8
Dimension
390
0
 62
               0
100
AcDbMText
 10
40.35663157280004
 20
26.805801491930783
 30
0.0
 40
1.1368815104166665
 41
0.0
 71
               1
 72
               1
  1
±0.025mm
  7
Arial
 73
               1
 44
0.9673603504928806
  0
MTEXT
  5
E5
100
AcDbEntity
  8
Dimension
390
0
 62
               0
100
AcDbMText
 10
47.897256572800032
 20
26.861566104199312
 30
0.0
 40
1.2632016782407407
 41
0.0
 71
               1
 72
               1
  1
(x2)
  7
Arial
 73
               1
 44
0.9673603504928805
  0
POINT
  5
E6
100
AcDbEntity
  8
Defpoints
370
               0
390
0
 62
               0
100
AcDbPoint
 10
16.897849999999991
 20
32.771872599999995
 30
0.0
  0
POINT
  5
E7
100
AcDbEntity
  8
Defpoints
370
               0
390
0
 62
               0
100
AcDbPoint
 10
17.586149999999989
 20
32.27311259999999
 30
0.0
  0
ENDBLK
  5
E8
100
AcDbEntity
  8
Dimension
390
0
100
AcDbBlockEnd
  0
BLOCK
  5
E9
100
AcDbEntity
  8
Dimension
390
0
100
AcDbBlockBegin
  2
*D11
 70
               1
 10
0.0
 20
0.0
 30
0.0
  3
*D11
  1

  0
LINE
  5
EA
100
AcDbEntity
  8
Dimension
370
              -2
390
0
  6
Continuous
 62
               0
100
AcDbLine
 10
15.077418386345791
 20
5.4962813090766289
 30
0.0
 11
24.261364302874792
 21
8.1778734114180409
 31
0.0
  0
SOLID
  5
EB
100
AcDbEntity
  8
Dimension
370
              -2
390
0
 62
               0
100
AcDbTrace
 10
15.077418386345791
 20
5.4962813090766289
 30
0.0
 11
16.955300155634145
 21
6.6246265114317993
 31
0.0
 12
17.267884305030758
 22
5.5345160339103225
 32
0.0
 13
17.267884305030758
 23
5.5345160339103225
 33
0.0
  0
LINE
  5
EC
100
AcDbEntity
  8
Dimension
370
              -2
390
0
  6
Continuous
 62
               0
100
AcDbLine
 10
24.261364302874792
 20
8.1778734114180409
 30
0.0
 11
30.261352310792791
 21
8.1778734114180409
 31
0.0
  0
MTEXT
  5
ED
100
AcDbEntity
  8
Dimension
390
0
 62
               0
100
AcDbMText
 10
30.261352310792791
 20
8.7988174218347091
 30
0.0
 40
1.1368815104166665
 41
0.0
 71
               1
 72
               1
  1
Ø 0.640mm pad (x1152)
  7
Arial
 73
               1
 44
0.9673603504928806
  0
POINT
  5
EE
100
AcDbEntity
  8
Defpoints
370
               0
390
0
 62
               0
100
AcDbPoint
 10
14.463078386345789
 20
5.3169013090766271
 30
0.0
  0
POINT
  5
EF
100
AcDbEntity
  8
Defpoints
370
               0
390
0
 62
               0
100
AcDbPoint
 10
15.077418386345791
 20
5.4962813090766289
 30
0.0
  0
ENDBLK
  5
F0
100
AcDbEntity
  8
Dimension
390
0
100
AcDbBlockEnd
  0
BLOCK
  5
F1
100
AcDbEntity
  8
Dimension
390
0
100
AcDbBlockBegin
  2
*D12
 70
               1
 10
0.0
 20
0.0
 30
0.0
  3
*D12
  1

  0
LINE
  5
F2
100
AcDbEntity
  8
Dimension
370
              -2
390
0
  6
Continuous
 62
               0
100
AcDbLine
 10
-30.483000000000004
 20
36.967492604731106
 30
0.0
 11
-30.483000000000004
 21
44.719992609462224
 31
0.0
  0
LINE
  5
F3
100
AcDbEntity
  8
Dimension
370
              -2
390
0
  6
Continuous
 62
               0
100
AcDbLine
 10
-27.200500000000016
 20
34.059992604731121
 30
0.0
 11
-27.200500000000016
 21
44.719992609462224
 31
0.0
  0
LINE
  5
F4
100
AcDbEntity
  8
Dimension
370
              -2
390
0
  6
Continuous
 62
               0
100
AcDbLine
 10
-27.200500000000016
 20
40.909992599999981
 30
0.0
 11
-30.483000000000004
 21
40.909992599999981
 31
0.0
  0
LINE
  5
F5
100
AcDbEntity
  8
Dimension
370
              -2
390
0
  6
Continuous
 62
               0
100
AcDbLine
 10
-30.483000000000004
 20
40.909992599999981
 30
0.0
 11
-37.482985993467281
 21
40.909992599999981
 31
0.0
  0
SOLID
  5
F6
100
AcDbEntity
  8
Dimension
370
              -2
390
0
 62
               0
100
AcDbTrace
 10
-30.483000000000004
 20
40.909992599999981
 30
0.0
 11
-33.658000000000001
 21
40.059253914031167
 31
0.0
 12
-33.658000000000001
 22
41.760731285968795
 32
0.0
 13
-33.658000000000001
 23
41.760731285968795
 33
0.0
  0
LINE
  5
F7
100
AcDbEntity
  8
Dimension
370
              -2
390
0
  6
Continuous
 62
               0
100
AcDbLine
 10
-27.200500000000016
 20
40.909992599999981
 30
0.0
 11
-21.3905016
 21
40.909992599999981
 31
0.0
  0
SOLID
  5
F8
100
AcDbEntity
  8
Dimension
370
              -2
390
0
 62
               0
100
AcDbTrace
 10
-27.200500000000016
 20
40.909992599999981
 30
0.0
 11
-24.025500000000015
 21
41.760731285968795
 31
0.0
 12
-24.025500000000015
 22
40.059253914031167
 32
0.0
 13
-24.025500000000015
 23
40.059253914031167
 33
0.0
  0
MTEXT
  5
F9
100
AcDbEntity
  8
Dimension
390
0
 62
               0
100
AcDbMText
 10
-21.3905016
 20
41.706167947222191
 30
0.0
 40
1.5158420138888884
 41
0.0
 71
               1
 72
               1
  1
3.2825mm*
  7
Arial (bold)
 73
               1
 44
0.9925958378970426
  0
POINT
  5
FA
100
AcDbEntity
  8
Defpoints
370
               0
390
0
 62
               0
100
AcDbPoint
 10
-27.200500000000016
 20
32.1549926
 30
0.0
  0
POINT
  5
FB
100
AcDbEntity
  8
Defpoints
370
               0
390
0
 62
               0
100
AcDbPoint
 10
-30.483000000000004
 20
35.062492599999985
 30
0.0
  0
POINT
  5
FC
100
AcDbEntity
  8
Defpoints
370
               0
390
0
 62
               0
100
AcDbPoint
 10
-30.483000000000004
 20
40.909992599999981
 30
0.0
  0
ENDBLK
  5
FD
100
AcDbEntity
  8
Dimension
390
0
100
AcDbBlockEnd
  0
BLOCK
  5
FE
100
AcDbEntity
  8
Dimension
390
0
100
AcDbBlockBegin
  2
*D13
 70
               1
 10
0.0
 20
0.0
 30
0.0
  3
*D13
  1

  0
LINE
  5
FF
100
AcDbEntity
  8
Dimension
370
              -2
390
0
  6
Continuous
 62
               0
100
AcDbLine
 10
-32.388000004731126
 20
35.062492599999985
 30
0.0
 11
-42.721110009462237
 21
35.062492599999985
 31
0.0
  0
LINE
  5
100
100
AcDbEntity
  8
Dimension
370
              -2
390
0
  6
Continuous
 62
               0
100
AcDbLine
 10
-29.105500004731134
 20
32.1549926
 30
0.0
 11
-42.721110009462237
 21
32.1549926
 31
0.0
  0
LINE
  5
101
100
AcDbEntity
  8
Dimension
370
              -2
390
0
  6
Continuous
 62
               0
100
AcDbLine
 10
-38.911110000000008
 20
32.1549926
 30
0.0
 11
-38.911110000000008
 21
35.062492599999985
 31
0.0
  0
LINE
  5
102
100
AcDbEntity
  8
Dimension
370
              -2
390
0
  6
Continuous
 62
               0
100
AcDbLine
 10
-38.911110000000008
 20
35.062492599999985
 30
0.0
 11
-38.911110000000008
 21
42.062478593467262
 31
0.0
  0
SOLID
  5
103
100
AcDbEntity
  8
Dimension
370
              -2
390
0
 62
               0
100
AcDbTrace
 10
-38.911110000000008
 20
35.062492599999985
 30
0.0
 11
-39.761848685968822
 21
38.237492599999982
 31
0.0
 12
-38.060371314031194
 22
38.237492599999982
 32
0.0
 13
-38.060371314031194
 23
38.237492599999982
 33
0.0
  0
LINE
  5
104
100
AcDbEntity
  8
Dimension
370
              -2
390
0
  6
Continuous
 62
               0
100
AcDbLine
 10
-38.911110000000008
 20
32.1549926
 30
0.0
 11
-38.911110000000008
 21
27.59999999999998
 31
0.0
  0
SOLID
  5
105
100
AcDbEntity
  8
Dimension
370
              -2
390
0
 62
               0
100
AcDbTrace
 10
-38.911110000000008
 20
32.1549926
 30
0.0
 11
-38.060371314031194
 21
28.979992599999999
 31
0.0
 12
-39.761848685968822
 22
28.979992599999999
 32
0.0
 13
-39.761848685968822
 23
28.979992599999999
 33
0.0
  0
MTEXT
  5
106
100
AcDbEntity
  8
Dimension
390
0
 62
               0
100
AcDbMText
 10
-42.689360013457403
 20
28.220944010416648
 30
0.0
 40
1.1368815104166665
 41
0.0
 71
               1
 72
               1
  1
2.9075mm
  7
Arial
 73
               1
 44
0.9673603504928806
  0
POINT
  5
107
100
AcDbEntity
  8
Defpoints
370
               0
390
0
 62
               0
100
AcDbPoint
 10
-27.200500000000016
 20
32.1549926
 30
0.0
  0
POINT
  5
108
100
AcDbEntity
  8
Defpoints
370
               0
390
0
 62
               0
100
AcDbPoint
 10
-30.483000000000004
 20
35.062492599999985
 30
0.0
  0
POINT
  5
109
100
AcDbEntity
  8
Defpoints
370
               0
390
0
 62
               0
100
AcDbPoint
 10
-38.911110000000008
 20
35.062492599999985
 30
0.0
  0
ENDBLK
  5
10A
100
AcDbEntity
  8
Dimension
390
0
100
AcDbBlockEnd
  0
BLOCK
  5
10B
100
AcDbEntity
  8
Dimension
390
0
100
AcDbBlockBegin
  2
*D14
 70
               1
 10
0.0
 20
0.0
 30
0.0
  3
*D14
  1

  0
LINE
  5
10C
100
AcDbEntity
  8
Dimension
370
              -2
390
0
  6
Continuous
 62
               0
100
AcDbLine
 10
-32.985500000000002
 20
-17.070007404731125
 30
0.0
 11
-32.985500000000002
 21
-31.710000009462256
 31
0.0
  0
LINE
  5
10D
100
AcDbEntity
  8
Dimension
370
              -2
390
0
  6
Continuous
 62
               0
100
AcDbLine
 10
19.744499999999992
 20
-17.070007404731125
 30
0.0
 11
19.744499999999992
 21
-31.710000009462256
 31
0.0
  0
LINE
  5
10E
100
AcDbEntity
  8
Dimension
370
              -2
390
0
  6
Continuous
 62
               0
100
AcDbLine
 10
-32.985500000000002
 20
-27.90000000000002
 30
0.0
 11
19.744499999999992
 21
-27.90000000000002
 31
0.0
  0
SOLID
  5
10F
100
AcDbEntity
  8
Dimension
370
              -2
390
0
 62
               0
100
AcDbTrace
 10
-32.985500000000002
 20
-27.90000000000002
 30
0.0
 11
-29.810500000000001
 21
-27.049261314031206
 31
0.0
 12
-29.810500000000001
 22
-28.750738685968834
 32
0.0
 13
-29.810500000000001
 23
-28.750738685968834
 33
0.0
  0
SOLID
  5
110
100
AcDbEntity
  8
Dimension
370
              -2
390
0
 62
               0
100
AcDbTrace
 10
19.744499999999992
 20
-27.90000000000002
 30
0.0
 11
16.569499999999991
 21
-28.750738685968834
 31
0.0
 12
16.569499999999991
 22
-27.049261314031206
 32
0.0
 13
16.569499999999991
 23
-27.049261314031206
 33
0.0
  0
MTEXT
  5
111
100
AcDbEntity
  8
Dimension
390
0
 62
               0
100
AcDbMText
 10
-16.047189147100912
 20
-27.177632378472243
 30
0.0
 40
1.1368815104166665
 41
0.0
 71
               1
 72
               1
  1
52.730mm
  7
Arial
 73
               1
 44
0.9673603504928806
  0
MTEXT
  5
112
100
AcDbEntity
  8
Dimension
390
0
 62
               0
100
AcDbMText
 10
-8.4906891201861043
 20
-27.265826822916686
 30
0.0
 40
1.1368815104166665
 41
0.0
 71
               1
 72
               1
  1
±0.125mm
  7
Arial
 73
               1
 44
0.9673603504928806
  0
MTEXT
  5
113
100
AcDbEntity
  8
Dimension
390
0
 62
               0
100
AcDbMText
 10
-0.9500641201861058
 20
-27.210062210648168
 30
0.0
 40
1.2632016782407407
 41
0.0
 71
               1
 72
               1
  1
(x4)
  7
Arial
 73
               1
 44
0.9673603504928805
  0
POINT
  5
114
100
AcDbEntity
  8
Defpoints
370
               0
390
0
 62
               0
100
AcDbPoint
 10
19.744499999999992
 20
-15.165007400000007
 30
0.0
  0
POINT
  5
115
100
AcDbEntity
  8
Defpoints
370
               0
390
0
 62
               0
100
AcDbPoint
 10
-32.985500000000002
 20
-15.165007400000007
 30
0.0
  0
POINT
  5
116
100
AcDbEntity
  8
Defpoints
370
               0
390
0
 62
               0
100
AcDbPoint
 10
-32.985500000000002
 20
-27.90000000000002
 30
0.0
  0
ENDBLK
  5
117
100
AcDbEntity
  8
Dimension
390
0
100
AcDbBlockEnd
  0
BLOCK
  5
118
100
AcDbEntity
  8
Dimension
390
0
100
AcDbBlockBegin
  2
*D15
 70
               1
 10
0.0
 20
0.0
 30
0.0
  3
*D15
  1

  0
LINE
  5
119
100
AcDbEntity
  8
Dimension
370
              -2
390
0
  6
Continuous
 62
               0
100
AcDbLine
 10
-32.985500000000002
 20
-17.070007404731125
 30
0.0
 11
-32.985500000000002
 21
-27.015175709462241
 31
0.0
  0
LINE
  5
11A
100
AcDbEntity
  8
Dimension
370
              -2
390
0
  6
Continuous
 62
               0
100
AcDbLine
 10
-30.483000000000004
 20
-14.567507404731131
 30
0.0
 11
-30.483000000000004
 21
-27.015175709462241
 31
0.0
  0
LINE
  5
11B
100
AcDbEntity
  8
Dimension
370
              -2
390
0
  6
Continuous
 62
               0
100
AcDbLine
 10
-30.483000000000004
 20
-23.205175700000005
 30
0.0
 11
-32.985500000000002
 21
-23.205175700000005
 31
0.0
  0
LINE
  5
11C
100
AcDbEntity
  8
Dimension
370
              -2
390
0
  6
Continuous
 62
               0
100
AcDbLine
 10
-32.985500000000002
 20
-23.205175700000005
 30
0.0
 11
-39.985485993467279
 21
-23.205175700000005
 31
0.0
  0
SOLID
  5
11D
100
AcDbEntity
  8
Dimension
370
              -2
390
0
 62
               0
100
AcDbTrace
 10
-32.985500000000002
 20
-23.205175700000005
 30
0.0
 11
-36.160499999999999
 21
-24.055914385968819
 31
0.0
 12
-36.160499999999999
 22
-22.354437014031191
 32
0.0
 13
-36.160499999999999
 23
-22.354437014031191
 33
0.0
  0
LINE
  5
11E
100
AcDbEntity
  8
Dimension
370
              -2
390
0
  6
Continuous
 62
               0
100
AcDbLine
 10
-30.483000000000004
 20
-23.205175700000005
 30
0.0
 11
-24.990501599999998
 21
-23.205175700000005
 31
0.0
  0
SOLID
  5
11F
100
AcDbEntity
  8
Dimension
370
              -2
390
0
 62
               0
100
AcDbTrace
 10
-30.483000000000004
 20
-23.205175700000005
 30
0.0
 11
-27.308000000000003
 21
-22.354437014031191
 31
0.0
 12
-27.308000000000003
 22
-24.055914385968819
 32
0.0
 13
-27.308000000000003
 23
-24.055914385968819
 33
0.0
  0
MTEXT
  5
120
100
AcDbEntity
  8
Dimension
390
0
 62
               0
100
AcDbMText
 10
-24.990501599999998
 20
-22.540134467361117
 30
0.0
 40
1.1368815104166665
 41
0.0
 71
               1
 72
               1
  1
2.50mm
  7
Arial
 73
               1
 44
0.9673603504928806
  0
MTEXT
  5
121
100
AcDbEntity
  8
Dimension
390
0
 62
               0
100
AcDbMText
 10
-19.212001223192679
 20
-22.628328911805561
 30
0.0
 40
1.1368815104166665
 41
0.0
 71
               1
 72
               1
  1
±0.13mm
  7
Arial
 73
               1
 44
0.9673603504928806
  0
POINT
  5
122
100
AcDbEntity
  8
Defpoints
370
               0
390
0
 62
               0
100
AcDbPoint
 10
-30.483000000000004
 20
-12.66250740000001
 30
0.0
  0
POINT
  5
123
100
AcDbEntity
  8
Defpoints
370
               0
390
0
 62
               0
100
AcDbPoint
 10
-32.985500000000002
 20
-15.165007400000007
 30
0.0
  0
POINT
  5
124
100
AcDbEntity
  8
Defpoints
370
               0
390
0
 62
               0
100
AcDbPoint
 10
-32.985500000000002
 20
-23.205175700000005
 30
0.0
  0
ENDBLK
  5
125
100
AcDbEntity
  8
Dimension
390
0
100
AcDbBlockEnd
  0
BLOCK
  5
126
100
AcDbEntity
  8
Dimension
390
0
100
AcDbBlockBegin
  2
*D16
 70
               1
 10
0.0
 20
0.0
 30
0.0
  3
*D16
  1

  0
LINE
  5
127
100
AcDbEntity
  8
Dimension
370
              -2
390
0
  6
Continuous
 62
               0
100
AcDbLine
 10
-33.638000004731126
 20
-13.91250740000001
 30
0.0
 11
-46.969540009462236
 21
-13.91250740000001
 31
0.0
  0
LINE
  5
128
100
AcDbEntity
  8
Dimension
370
              -2
390
0
  6
Continuous
 62
               0
100
AcDbLine
 10
-31.138000004731122
 20
-11.41250740000001
 30
0.0
 11
-46.969540009462236
 21
-11.41250740000001
 31
0.0
  0
LINE
  5
129
100
AcDbEntity
  8
Dimension
370
              -2
390
0
  6
Continuous
 62
               0
100
AcDbLine
 10
-43.159540000000007
 20
-11.41250740000001
 30
0.0
 11
-43.159540000000007
 21
-13.91250740000001
 31
0.0
  0
LINE
  5
12A
100
AcDbEntity
  8
Dimension
370
              -2
390
0
  6
Continuous
 62
               0
100
AcDbLine
 10
-43.159540000000007
 20
-13.91250740000001
 30
0.0
 11
-43.159540000000007
 21
-20.200000000000021
 31
0.0
  0
SOLID
  5
12B
100
AcDbEntity
  8
Dimension
370
              -2
390
0
 62
               0
100
AcDbTrace
 10
-43.159540000000007
 20
-13.91250740000001
 30
0.0
 11
-42.308801314031193
 21
-17.08750740000001
 31
0.0
 12
-44.010278685968821
 22
-17.08750740000001
 32
0.0
 13
-44.010278685968821
 23
-17.08750740000001
 33
0.0
  0
LINE
  5
12C
100
AcDbEntity
  8
Dimension
370
              -2
390
0
  6
Continuous
 62
               0
100
AcDbLine
 10
-43.159540000000007
 20
-11.41250740000001
 30
0.0
 11
-43.159540000000007
 21
-4.4125214065327398
 31
0.0
  0
SOLID
  5
12D
100
AcDbEntity
  8
Dimension
370
              -2
390
0
 62
               0
100
AcDbTrace
 10
-43.159540000000007
 20
-11.41250740000001
 30
0.0
 11
-44.010278685968821
 21
-8.237507400000009
 31
0.0
 12
-42.308801314031193
 22
-8.237507400000009
 32
0.0
 13
-42.308801314031193
 23
-8.237507400000009
 33
0.0
  0
MTEXT
  5
12E
100
AcDbEntity
  8
Dimension
390
0
 62
               0
100
AcDbMText
 10
-49.374602944094349
 20
-19.534958767361132
 30
0.0
 40
1.1368815104166665
 41
0.0
 71
               1
 72
               1
  1
2.50mm
  7
Arial
 73
               1
 44
0.9673603504928806
  0
MTEXT
  5
12F
100
AcDbEntity
  8
Dimension
390
0
 62
               0
100
AcDbMText
 10
-43.596102567287033
 20
-19.623153211805576
 30
0.0
 40
1.1368815104166665
 41
0.0
 71
               1
 72
               1
  1
±0.13mm
  7
Arial
 73
               1
 44
0.9673603504928806
  0
POINT
  5
130
100
AcDbEntity
  8
Defpoints
370
               0
390
0
 62
               0
100
AcDbPoint
 10
-29.233000000000004
 20
-11.41250740000001
 30
0.0
  0
POINT
  5
131
100
AcDbEntity
  8
Defpoints
370
               0
390
0
 62
               0
100
AcDbPoint
 10
-31.733000000000004
 20
-13.91250740000001
 30
0.0
  0
POINT
  5
132
100
AcDbEntity
  8
Defpoints
370
               0
390
0
 62
               0
100
AcDbPoint
 10
-43.159540000000007
 20
-13.91250740000001
 30
0.0
  0
ENDBLK
  5
133
100
AcDbEntity
  8
Dimension
390
0
100
AcDbBlockEnd
  0
BLOCK
  5
134
100
AcDbEntity
  8
None
390
0
100
AcDbBlockBegin
  2
pad
 70
               0
 10
0.0
 20
0.0
 30
0.0
  3
pad
  1

  0
CIRCLE
  5
135
100
AcDbEntity
  8
None
370
               9
390
0
  6
Continuous
 62
               7
100
AcDbCircle
 10
0.0
 20
0.0
 30
0.0
 40
0.32
  0
ENDBLK
  5
136
100
AcDbEntity
  8
None
390
0
100
AcDbBlockEnd
  0
BLOCK
  5
137
100
AcDbEntity
  8
None
390
0
100
AcDbBlockBegin
  2
Group
 70
               0
 10
0.0
 20
0.0
 30
0.0
  3
Group
  1

  0
INSERT
  5
138
100
AcDbEntity
  8
None
390
0
 62
               7
100
AcDbBlockReference
  2
pad
 10
-27.200500000000016
 20
32.1549926
 30
0.0
  0
INSERT
  5
139
100
AcDbEntity
  8
None
390
0
 62
               7
100
AcDbBlockReference
  2
pad
 10
-25.930500000000016
 20
32.1549926
 30
0.0
  0
INSERT
  5
13A
100
AcDbEntity
  8
None
390
0
 62
               7
100
AcDbBlockReference
  2
pad
 10
-24.660500000000017
 20
32.1549926
 30
0.0
  0
INSERT
  5
13B
100
AcDbEntity
  8
None
390
0
 62
               7
100
AcDbBlockReference
  2
pad
 10
-23.390500000000017
 20
32.1549926
 30
0.0
  0
INSERT
  5
13C
100
AcDbEntity
  8
None
390
0
 62
               7
100
AcDbBlockReference
  2
pad
 10
-22.120500000000018
 20
32.1549926
 30
0.0
  0
INSERT
  5
13D
100
AcDbEntity
  8
None
390
0
 62
               7
100
AcDbBlockReference
  2
pad
 10
-20.850500000000014
 20
32.1549926
 30
0.0
  0
INSERT
  5
13E
100
AcDbEntity
  8
None
390
0
 62
               7
100
AcDbBlockReference
  2
pad
 10
-19.580500000000015
 20
32.1549926
 30
0.0
  0
INSERT
  5
13F
100
AcDbEntity
  8
None
390
0
 62
               7
100
AcDbBlockReference
  2
pad
 10
-18.310500000000019
 20
32.1549926
 30
0.0
  0
INSERT
  5
140
100
AcDbEntity
  8
None
390
0
 62
               7
100
AcDbBlockReference
  2
pad
 10
-17.040500000000016
 20
32.1549926
 30
0.0
  0
INSERT
  5
141
100
AcDbEntity
  8
None
390
0
 62
               7
100
AcDbBlockReference
  2
pad
 10
-15.770500000000018
 20
32.1549926
 30
0.0
  0
INSERT
  5
142
100
AcDbEntity
  8
None
390
0
 62
               7
100
AcDbBlockReference
  2
pad
 10
-14.500500000000018
 20
32.1549926
 30
0.0
  0
INSERT
  5
143
100
AcDbEntity
  8
None
390
0
 62
               7
100
AcDbBlockReference
  2
pad
 10
-13.230500000000019
 20
32.1549926
 30
0.0
  0
INSERT
  5
144
100
AcDbEntity
  8
None
390
0
 62
               7
100
AcDbBlockReference
  2
pad
 10
-11.960500000000019
 20
32.1549926
 30
0.0
  0
INSERT
  5
145
100
AcDbEntity
  8
None
390
0
 62
               7
100
AcDbBlockReference
  2
pad
 10
-10.690500000000018
 20
32.1549926
 30
0.0
  0
INSERT
  5
146
100
AcDbEntity
  8
None
390
0
 62
               7
100
AcDbBlockReference
  2
pad
 10
-9.4205000000000183
 20
32.1549926
 30
0.0
  0
INSERT
  5
147
100
AcDbEntity
  8
None
390
0
 62
               7
100
AcDbBlockReference
  2
pad
 10
-8.1505000000000187
 20
32.1549926
 30
0.0
  0
INSERT
  5
148
100
AcDbEntity
  8
None
390
0
 62
               7
100
AcDbBlockReference
  2
pad
 10
-6.8805000000000192
 20
32.1549926
 30
0.0
  0
INSERT
  5
149
100
AcDbEntity
  8
None
390
0
 62
               7
100
AcDbBlockReference
  2
pad
 10
-5.6105000000000196
 20
32.1549926
 30
0.0
  0
INSERT
  5
14A
100
AcDbEntity
  8
None
390
0
 62
               7
100
AcDbBlockReference
  2
pad
 10
-4.34050000000002
 20
32.1549926
 30
0.0
  0
INSERT
  5
14B
100
AcDbEntity
  8
None
390
0
 62
               7
100
AcDbBlockReference
  2
pad
 10
-3.0705000000000204
 20
32.1549926
 30
0.0
  0
INSERT
  5
14C
100
AcDbEntity
  8
None
390
0
 62
               7
100
AcDbBlockReference
  2
pad
 10
-1.8005000000000209
 20
32.1549926
 30
0.0
  0
INSERT
  5
14D
100
AcDbEntity
  8
None
390
0
 62
               7
100
AcDbBlockReference
  2
pad
 10
-0.5305000000000213
 20
32.1549926
 30
0.0
  0
INSERT
  5
14E
100
AcDbEntity
  8
None
390
0
 62
               7
100
AcDbBlockReference
  2
pad
 10
0.7394999999999783
 20
32.1549926
 30
0.0
  0
INSERT
  5
14F
100
AcDbEntity
  8
None
390
0
 62
               7
100
AcDbBlockReference
  2
pad
 10
2.0094999999999779
 20
32.1549926
 30
0.0
  0
INSERT
  5
150
100
AcDbEntity
  8
None
390
0
 62
               7
100
AcDbBlockReference
  2
pad
 10
3.2794999999999774
 20
32.1549926
 30
0.0
  0
INSERT
  5
151
100
AcDbEntity
  8
None
390
0
 62
               7
100
AcDbBlockReference
  2
pad
 10
4.549499999999977
 20
32.1549926
 30
0.0
  0
INSERT
  5
152
100
AcDbEntity
  8
None
390
0
 62
               7
100
AcDbBlockReference
  2
pad
 10
5.8194999999999801
 20
32.1549926
 30
0.0
  0
INSERT
  5
153
100
AcDbEntity
  8
None
390
0
 62
               7
100
AcDbBlockReference
  2
pad
 10
7.0894999999999833
 20
32.1549926
 30
0.0
  0
INSERT
  5
154
100
AcDbEntity
  8
None
390
0
 62
               7
100
AcDbBlockReference
  2
pad
 10
8.3594999999999864
 20
32.1549926
 30
0.0
  0
INSERT
  5
155
100
AcDbEntity
  8
None
390
0
 62
               7
100
AcDbBlockReference
  2
pad
 10
9.6294999999999895
 20
32.1549926
 30
0.0
  0
INSERT
  5
156
100
AcDbEntity
  8
None
390
0
 62
               7
100
AcDbBlockReference
  2
pad
 10
10.899499999999993
 20
32.1549926
 30
0.0
  0
INSERT
  5
157
100
AcDbEntity
  8
None
390
0
 62
               7
100
AcDbBlockReference
  2
pad
 10
12.169499999999996
 20
32.1549926
 30
0.0
  0
INSERT
  5
158
100
AcDbEntity
  8
None
390
0
 62
               7
100
AcDbBlockReference
  2
pad
 10
13.439499999999999
 20
32.1549926
 30
0.0
  0
INSERT
  5
159
100
AcDbEntity
  8
None
390
0
 62
               7
100
AcDbBlockReference
  2
pad
 10
14.709500000000002
 20
32.1549926
 30
0.0
  0
INSERT
  5
15A
100
AcDbEntity
  8
None
390
0
 62
               7
100
AcDbBlockReference
  2
pad
 10
-27.200500000000016
 20
30.884992600000004
 30
0.0
  0
INSERT
  5
15B
100
AcDbEntity
  8
None
390
0
 62
               7
100
AcDbBlockReference
  2
pad
 10
-25.930500000000016
 20
30.884992600000004
 30
0.0
  0
INSERT
  5
15C
100
AcDbEntity
  8
None
390
0
 62
               7
100
AcDbBlockReference
  2
pad
 10
-24.660500000000017
 20
30.884992600000004
 30
0.0
  0
INSERT
  5
15D
100
AcDbEntity
  8
None
390
0
 62
               7
100
AcDbBlockReference
  2
pad
 10
-23.390500000000017
 20
30.884992600000004
 30
0.0
  0
INSERT
  5
15E
100
AcDbEntity
  8
None
390
0
 62
               7
100
AcDbBlockReference
  2
pad
 10
-22.120500000000018
 20
30.884992600000004
 30
0.0
  0
INSERT
  5
15F
100
AcDbEntity
  8
None
390
0
 62
               7
100
AcDbBlockReference
  2
pad
 10
-20.850500000000014
 20
30.884992600000004
 30
0.0
  0
INSERT
  5
160
100
AcDbEntity
  8
None
390
0
 62
               7
100
AcDbBlockReference
  2
pad
 10
-19.580500000000015
 20
30.884992600000004
 30
0.0
  0
INSERT
  5
161
100
AcDbEntity
  8
None
390
0
 62
               7
100
AcDbBlockReference
  2
pad
 10
-18.310500000000019
 20
30.884992600000004
 30
0.0
  0
INSERT
  5
162
100
AcDbEntity
  8
None
390
0
 62
               7
100
AcDbBlockReference
  2
pad
 10
-17.040500000000016
 20
30.884992600000004
 30
0.0
  0
INSERT
  5
163
100
AcDbEntity
  8
None
390
0
 62
               7
100
AcDbBlockReference
  2
pad
 10
-15.770500000000018
 20
30.884992600000004
 30
0.0
  0
INSERT
  5
164
100
AcDbEntity
  8
None
390
0
 62
               7
100
AcDbBlockReference
  2
pad
 10
-14.500500000000018
 20
30.884992600000004
 30
0.0
  0
INSERT
  5
165
100
AcDbEntity
  8
None
390
0
 62
               7
100
AcDbBlockReference
  2
pad
 10
-13.230500000000019
 20
30.884992600000004
 30
0.0
  0
INSERT
  5
166
100
AcDbEntity
  8
None
390
0
 62
               7
100
AcDbBlockReference
  2
pad
 10
-11.960500000000019
 20
30.884992600000004
 30
0.0
  0
INSERT
  5
167
100
AcDbEntity
  8
None
390
0
 62
               7
100
AcDbBlockReference
  2
pad
 10
-10.690500000000018
 20
30.884992600000004
 30
0.0
  0
INSERT
  5
168
100
AcDbEntity
  8
None
390
0
 62
               7
100
AcDbBlockReference
  2
pad
 10
-9.4205000000000183
 20
30.884992600000004
 30
0.0
  0
INSERT
  5
169
100
AcDbEntity
  8
None
390
0
 62
               7
100
AcDbBlockReference
  2
pad
 10
-8.1505000000000187
 20
30.884992600000004
 30
0.0
  0
INSERT
  5
16A
100
AcDbEntity
  8
None
390
0
 62
               7
100
AcDbBlockReference
  2
pad
 10
-6.8805000000000192
 20
30.884992600000004
 30
0.0
  0
INSERT
  5
16B
100
AcDbEntity
  8
None
390
0
 62
               7
100
AcDbBlockReference
  2
pad
 10
-5.6105000000000196
 20
30.884992600000004
 30
0.0
  0
INSERT
  5
16C
100
AcDbEntity
  8
None
390
0
 62
               7
100
AcDbBlockReference
  2
pad
 10
-4.34050000000002
 20
30.884992600000004
 30
0.0
  0
INSERT
  5
16D
100
AcDbEntity
  8
None
390
0
 62
               7
100
AcDbBlockReference
  2
pad
 10
-3.0705000000000204
 20
30.884992600000004
 30
0.0
  0
INSERT
  5
16E
100
AcDbEntity
  8
None
390
0
 62
               7
100
AcDbBlockReference
  2
pad
 10
-1.8005000000000209
 20
30.884992600000004
 30
0.0
  0
INSERT
  5
16F
100
AcDbEntity
  8
None
390
0
 62
               7
100
AcDbBlockReference
  2
pad
 10
-0.5305000000000213
 20
30.884992600000004
 30
0.0
  0
INSERT
  5
170
100
AcDbEntity
  8
None
390
0
 62
               7
100
AcDbBlockReference
  2
pad
 10
0.7394999999999783
 20
30.884992600000004
 30
0.0
  0
INSERT
  5
171
100
AcDbEntity
  8
None
390
0
 62
               7
100
AcDbBlockReference
  2
pad
 10
2.0094999999999779
 20
30.884992600000004
 30
0.0
  0
INSERT
  5
172
100
AcDbEntity
  8
None
390
0
 62
               7
100
AcDbBlockReference
  2
pad
 10
3.2794999999999774
 20
30.884992600000004
 30
0.0
  0
INSERT
  5
173
100
AcDbEntity
  8
None
390
0
 62
               7
100
AcDbBlockReference
  2
pad
 10
4.549499999999977
 20
30.884992600000004
 30
0.0
  0
INSERT
  5
174
100
AcDbEntity
  8
None
390
0
 62
               7
100
AcDbBlockReference
  2
pad
 10
5.8194999999999801
 20
30.884992600000004
 30
0.0
  0
INSERT
  5
175
100
AcDbEntity
  8
None
390
0
 62
               7
100
AcDbBlockReference
  2
pad
 10
7.0894999999999833
 20
30.884992600000004
 30
0.0
  0
INSERT
  5
176
100
AcDbEntity
  8
None
390
0
 62
               7
100
AcDbBlockReference
  2
pad
 10
8.3594999999999864
 20
30.884992600000004
 30
0.0
  0
INSERT
  5
177
100
AcDbEntity
  8
None
390
0
 62
               7
100
AcDbBlockReference
  2
pad
 10
9.6294999999999895
 20
30.884992600000004
 30
0.0
  0
INSERT
  5
178
100
AcDbEntity
  8
None
390
0
 62
               7
100
AcDbBlockReference
  2
pad
 10
10.899499999999993
 20
30.884992600000004
 30
0.0
  0
INSERT
  5
179
100
AcDbEntity
  8
None
390
0
 62
               7
100
AcDbBlockReference
  2
pad
 10
12.169499999999996
 20
30.884992600000004
 30
0.0
  0
INSERT
  5
17A
100
AcDbEntity
  8
None
390
0
 62
               7
100
AcDbBlockReference
  2
pad
 10
13.439499999999999
 20
30.884992600000004
 30
0.0
  0
INSERT
  5
17B
100
AcDbEntity
  8
None
390
0
 62
               7
100
AcDbBlockReference
  2
pad
 10
14.709500000000002
 20
30.884992600000004
 30
0.0
  0
INSERT
  5
17C
100
AcDbEntity
  8
None
390
0
 62
               7
100
AcDbBlockReference
  2
pad
 10
-27.200500000000016
 20
29.614992599999994
 30
0.0
  0
INSERT
  5
17D
100
AcDbEntity
  8
None
390
0
 62
               7
100
AcDbBlockReference
  2
pad
 10
-25.930500000000016
 20
29.614992599999994
 30
0.0
  0
INSERT
  5
17E
100
AcDbEntity
  8
None
390
0
 62
               7
100
AcDbBlockReference
  2
pad
 10
-24.660500000000017
 20
29.614992599999994
 30
0.0
  0
INSERT
  5
17F
100
AcDbEntity
  8
None
390
0
 62
               7
100
AcDbBlockReference
  2
pad
 10
-23.390500000000017
 20
29.614992599999994
 30
0.0
  0
INSERT
  5
180
100
AcDbEntity
  8
None
390
0
 62
               7
100
AcDbBlockReference
  2
pad
 10
-22.120500000000018
 20
29.614992599999994
 30
0.0
  0
INSERT
  5
181
100
AcDbEntity
  8
None
390
0
 62
               7
100
AcDbBlockReference
  2
pad
 10
-20.850500000000014
 20
29.614992599999994
 30
0.0
  0
INSERT
  5
182
100
AcDbEntity
  8
None
390
0
 62
               7
100
AcDbBlockReference
  2
pad
 10
-19.580500000000015
 20
29.614992599999994
 30
0.0
  0
INSERT
  5
183
100
AcDbEntity
  8
None
390
0
 62
               7
100
AcDbBlockReference
  2
pad
 10
-18.310500000000019
 20
29.614992599999994
 30
0.0
  0
INSERT
  5
184
100
AcDbEntity
  8
None
390
0
 62
               7
100
AcDbBlockReference
  2
pad
 10
-17.040500000000016
 20
29.614992599999994
 30
0.0
  0
INSERT
  5
185
100
AcDbEntity
  8
None
390
0
 62
               7
100
AcDbBlockReference
  2
pad
 10
-15.770500000000018
 20
29.614992599999994
 30
0.0
  0
INSERT
  5
186
100
AcDbEntity
  8
None
390
0
 62
               7
100
AcDbBlockReference
  2
pad
 10
-14.500500000000018
 20
29.614992599999994
 30
0.0
  0
INSERT
  5
187
100
AcDbEntity
  8
None
390
0
 62
               7
100
AcDbBlockReference
  2
pad
 10
-13.230500000000019
 20
29.614992599999994
 30
0.0
  0
INSERT
  5
188
100
AcDbEntity
  8
None
390
0
 62
               7
100
AcDbBlockReference
  2
pad
 10
-11.960500000000019
 20
29.614992599999994
 30
0.0
  0
INSERT
  5
189
100
AcDbEntity
  8
None
390
0
 62
               7
100
AcDbBlockReference
  2
pad
 10
-10.690500000000018
 20
29.614992599999994
 30
0.0
  0
INSERT
  5
18A
100
AcDbEntity
  8
None
390
0
 62
               7
100
AcDbBlockReference
  2
pad
 10
-9.4205000000000183
 20
29.614992599999994
 30
0.0
  0
INSERT
  5
18B
100
AcDbEntity
  8
None
390
0
 62
               7
100
AcDbBlockReference
  2
pad
 10
-8.1505000000000187
 20
29.614992599999994
 30
0.0
  0
INSERT
  5
18C
100
AcDbEntity
  8
None
390
0
 62
               7
100
AcDbBlockReference
  2
pad
 10
-6.8805000000000192
 20
29.614992599999994
 30
0.0
  0
INSERT
  5
18D
100
AcDbEntity
  8
None
390
0
 62
               7
100
AcDbBlockReference
  2
pad
 10
-5.6105000000000196
 20
29.614992599999994
 30
0.0
  0
INSERT
  5
18E
100
AcDbEntity
  8
None
390
0
 62
               7
100
AcDbBlockReference
  2
pad
 10
-4.34050000000002
 20
29.614992599999994
 30
0.0
  0
INSERT
  5
18F
100
AcDbEntity
  8
None
390
0
 62
               7
100
AcDbBlockReference
  2
pad
 10
-3.0705000000000204
 20
29.614992599999994
 30
0.0
  0
INSERT
  5
190
100
AcDbEntity
  8
None
390
0
 62
               7
100
AcDbBlockReference
  2
pad
 10
-1.8005000000000209
 20
29.614992599999994
 30
0.0
  0
INSERT
  5
191
100
AcDbEntity
  8
None
390
0
 62
               7
100
AcDbBlockReference
  2
pad
 10
-0.5305000000000213
 20
29.614992599999994
 30
0.0
  0
INSERT
  5
192
100
AcDbEntity
  8
None
390
0
 62
               7
100
AcDbBlockReference
  2
pad
 10
0.7394999999999783
 20
29.614992599999994
 30
0.0
  0
INSERT
  5
193
100
AcDbEntity
  8
None
390
0
 62
               7
100
AcDbBlockReference
  2
pad
 10
2.0094999999999779
 20
29.614992599999994
 30
0.0
  0
INSERT
  5
194
100
AcDbEntity
  8
None
390
0
 62
               7
100
AcDbBlockReference
  2
pad
 10
3.2794999999999774
 20
29.614992599999994
 30
0.0
  0
INSERT
  5
195
100
AcDbEntity
  8
None
390
0
 62
               7
100
AcDbBlockReference
  2
pad
 10
4.549499999999977
 20
29.614992599999994
 30
0.0
  0
INSERT
  5
196
100
AcDbEntity
  8
None
390
0
 62
               7
100
AcDbBlockReference
  2
pad
 10
5.8194999999999801
 20
29.614992599999994
 30
0.0
  0
INSERT
  5
197
100
AcDbEntity
  8
None
390
0
 62
               7
100
AcDbBlockReference
  2
pad
 10
7.0894999999999833
 20
29.614992599999994
 30
0.0
  0
INSERT
  5
198
100
AcDbEntity
  8
None
390
0
 62
               7
100
AcDbBlockReference
  2
pad
 10
8.3594999999999864
 20
29.614992599999994
 30
0.0
  0
INSERT
  5
199
100
AcDbEntity
  8
None
390
0
 62
               7
100
AcDbBlockReference
  2
pad
 10
9.6294999999999895
 20
29.614992599999994
 30
0.0
  0
INSERT
  5
19A
100
AcDbEntity
  8
None
390
0
 62
               7
100
AcDbBlockReference
  2
pad
 10
10.899499999999993
 20
29.614992599999994
 30
0.0
  0
INSERT
  5
19B
100
AcDbEntity
  8
None
390
0
 62
               7
100
AcDbBlockReference
  2
pad
 10
12.169499999999996
 20
29.614992599999994
 30
0.0
  0
INSERT
  5
19C
100
AcDbEntity
  8
None
390
0
 62
               7
100
AcDbBlockReference
  2
pad
 10
13.439499999999999
 20
29.614992599999994
 30
0.0
  0
INSERT
  5
19D
100
AcDbEntity
  8
None
390
0
 62
               7
100
AcDbBlockReference
  2
pad
 10
14.709500000000002
 20
29.614992599999994
 30
0.0
  0
INSERT
  5
19E
100
AcDbEntity
  8
None
390
0
 62
               7
100
AcDbBlockReference
  2
pad
 10
-27.200500000000016
 20
28.344992599999998
 30
0.0
  0
INSERT
  5
19F
100
AcDbEntity
  8
None
390
0
 62
               7
100
AcDbBlockReference
  2
pad
 10
-25.930500000000016
 20
28.344992599999998
 30
0.0
  0
INSERT
  5
1A0
100
AcDbEntity
  8
None
390
0
 62
               7
100
AcDbBlockReference
  2
pad
 10
-24.660500000000017
 20
28.344992599999998
 30
0.0
  0
INSERT
  5
1A1
100
AcDbEntity
  8
None
390
0
 62
               7
100
AcDbBlockReference
  2
pad
 10
-23.390500000000017
 20
28.344992599999998
 30
0.0
  0
INSERT
  5
1A2
100
AcDbEntity
  8
None
390
0
 62
               7
100
AcDbBlockReference
  2
pad
 10
-22.120500000000018
 20
28.344992599999998
 30
0.0
  0
INSERT
  5
1A3
100
AcDbEntity
  8
None
390
0
 62
               7
100
AcDbBlockReference
  2
pad
 10
-20.850500000000014
 20
28.344992599999998
 30
0.0
  0
INSERT
  5
1A4
100
AcDbEntity
  8
None
390
0
 62
               7
100
AcDbBlockReference
  2
pad
 10
-19.580500000000015
 20
28.344992599999998
 30
0.0
  0
INSERT
  5
1A5
100
AcDbEntity
  8
None
390
0
 62
               7
100
AcDbBlockReference
  2
pad
 10
-18.310500000000019
 20
28.344992599999998
 30
0.0
  0
INSERT
  5
1A6
100
AcDbEntity
  8
None
390
0
 62
               7
100
AcDbBlockReference
  2
pad
 10
-17.040500000000016
 20
28.344992599999998
 30
0.0
  0
INSERT
  5
1A7
100
AcDbEntity
  8
None
390
0
 62
               7
100
AcDbBlockReference
  2
pad
 10
-15.770500000000018
 20
28.344992599999998
 30
0.0
  0
INSERT
  5
1A8
100
AcDbEntity
  8
None
390
0
 62
               7
100
AcDbBlockReference
  2
pad
 10
-14.500500000000018
 20
28.344992599999998
 30
0.0
  0
INSERT
  5
1A9
100
AcDbEntity
  8
None
390
0
 62
               7
100
AcDbBlockReference
  2
pad
 10
-13.230500000000019
 20
28.344992599999998
 30
0.0
  0
INSERT
  5
1AA
100
AcDbEntity
  8
None
390
0
 62
               7
100
AcDbBlockReference
  2
pad
 10
-11.960500000000019
 20
28.344992599999998
 30
0.0
  0
INSERT
  5
1AB
100
AcDbEntity
  8
None
390
0
 62
               7
100
AcDbBlockReference
  2
pad
 10
-10.690500000000018
 20
28.344992599999998
 30
0.0
  0
INSERT
  5
1AC
100
AcDbEntity
  8
None
390
0
 62
               7
100
AcDbBlockReference
  2
pad
 10
-9.4205000000000183
 20
28.344992599999998
 30
0.0
  0
INSERT
  5
1AD
100
AcDbEntity
  8
None
390
0
 62
               7
100
AcDbBlockReference
  2
pad
 10
-8.1505000000000187
 20
28.344992599999998
 30
0.0
  0
INSERT
  5
1AE
100
AcDbEntity
  8
None
390
0
 62
               7
100
AcDbBlockReference
  2
pad
 10
-6.8805000000000192
 20
28.344992599999998
 30
0.0
  0
INSERT
  5
1AF
100
AcDbEntity
  8
None
390
0
 62
               7
100
AcDbBlockReference
  2
pad
 10
-5.6105000000000196
 20
28.344992599999998
 30
0.0
  0
INSERT
  5
1B0
100
AcDbEntity
  8
None
390
0
 62
               7
100
AcDbBlockReference
  2
pad
 10
-4.34050000000002
 20
28.344992599999998
 30
0.0
  0
INSERT
  5
1B1
100
AcDbEntity
  8
None
390
0
 62
               7
100
AcDbBlockReference
  2
pad
 10
-3.0705000000000204
 20
28.344992599999998
 30
0.0
  0
INSERT
  5
1B2
100
AcDbEntity
  8
None
390
0
 62
               7
100
AcDbBlockReference
  2
pad
 10
-1.8005000000000209
 20
28.344992599999998
 30
0.0
  0
INSERT
  5
1B3
100
AcDbEntity
  8
None
390
0
 62
               7
100
AcDbBlockReference
  2
pad
 10
-0.5305000000000213
 20
28.344992599999998
 30
0.0
  0
INSERT
  5
1B4
100
AcDbEntity
  8
None
390
0
 62
               7
100
AcDbBlockReference
  2
pad
 10
0.7394999999999783
 20
28.344992599999998
 30
0.0
  0
INSERT
  5
1B5
100
AcDbEntity
  8
None
390
0
 62
               7
100
AcDbBlockReference
  2
pad
 10
2.0094999999999779
 20
28.344992599999998
 30
0.0
  0
INSERT
  5
1B6
100
AcDbEntity
  8
None
390
0
 62
               7
100
AcDbBlockReference
  2
pad
 10
3.2794999999999774
 20
28.344992599999998
 30
0.0
  0
INSERT
  5
1B7
100
AcDbEntity
  8
None
390
0
 62
               7
100
AcDbBlockReference
  2
pad
 10
4.549499999999977
 20
28.344992599999998
 30
0.0
  0
INSERT
  5
1B8
100
AcDbEntity
  8
None
390
0
 62
               7
100
AcDbBlockReference
  2
pad
 10
5.8194999999999801
 20
28.344992599999998
 30
0.0
  0
INSERT
  5
1B9
100
AcDbEntity
  8
None
390
0
 62
               7
100
AcDbBlockReference
  2
pad
 10
7.0894999999999833
 20
28.344992599999998
 30
0.0
  0
INSERT
  5
1BA
100
AcDbEntity
  8
None
390
0
 62
               7
100
AcDbBlockReference
  2
pad
 10
8.3594999999999864
 20
28.344992599999998
 30
0.0
  0
INSERT
  5
1BB
100
AcDbEntity
  8
None
390
0
 62
               7
100
AcDbBlockReference
  2
pad
 10
9.6294999999999895
 20
28.344992599999998
 30
0.0
  0
INSERT
  5
1BC
100
AcDbEntity
  8
None
390
0
 62
               7
100
AcDbBlockReference
  2
pad
 10
10.899499999999993
 20
28.344992599999998
 30
0.0
  0
INSERT
  5
1BD
100
AcDbEntity
  8
None
390
0
 62
               7
100
AcDbBlockReference
  2
pad
 10
12.169499999999996
 20
28.344992599999998
 30
0.0
  0
INSERT
  5
1BE
100
AcDbEntity
  8
None
390
0
 62
               7
100
AcDbBlockReference
  2
pad
 10
13.439499999999999
 20
28.344992599999998
 30
0.0
  0
INSERT
  5
1BF
100
AcDbEntity
  8
None
390
0
 62
               7
100
AcDbBlockReference
  2
pad
 10
14.709500000000002
 20
28.344992599999998
 30
0.0
  0
INSERT
  5
1C0
100
AcDbEntity
  8
None
390
0
 62
               7
100
AcDbBlockReference
  2
pad
 10
-27.200500000000016
 20
27.074992600000002
 30
0.0
  0
INSERT
  5
1C1
100
AcDbEntity
  8
None
390
0
 62
               7
100
AcDbBlockReference
  2
pad
 10
-25.930500000000016
 20
27.074992600000002
 30
0.0
  0
INSERT
  5
1C2
100
AcDbEntity
  8
None
390
0
 62
               7
100
AcDbBlockReference
  2
pad
 10
-24.660500000000017
 20
27.074992600000002
 30
0.0
  0
INSERT
  5
1C3
100
AcDbEntity
  8
None
390
0
 62
               7
100
AcDbBlockReference
  2
pad
 10
-23.390500000000017
 20
27.074992600000002
 30
0.0
  0
INSERT
  5
1C4
100
AcDbEntity
  8
None
390
0
 62
               7
100
AcDbBlockReference
  2
pad
 10
-22.120500000000018
 20
27.074992600000002
 30
0.0
  0
INSERT
  5
1C5
100
AcDbEntity
  8
None
390
0
 62
               7
100
AcDbBlockReference
  2
pad
 10
-20.850500000000014
 20
27.074992600000002
 30
0.0
  0
INSERT
  5
1C6
100
AcDbEntity
  8
None
390
0
 62
               7
100
AcDbBlockReference
  2
pad
 10
-19.580500000000015
 20
27.074992600000002
 30
0.0
  0
INSERT
  5
1C7
100
AcDbEntity
  8
None
390
0
 62
               7
100
AcDbBlockReference
  2
pad
 10
-18.310500000000019
 20
27.074992600000002
 30
0.0
  0
INSERT
  5
1C8
100
AcDbEntity
  8
None
390
0
 62
               7
100
AcDbBlockReference
  2
pad
 10
-17.040500000000016
 20
27.074992600000002
 30
0.0
  0
INSERT
  5
1C9
100
AcDbEntity
  8
None
390
0
 62
               7
100
AcDbBlockReference
  2
pad
 10
-15.770500000000018
 20
27.074992600000002
 30
0.0
  0
INSERT
  5
1CA
100
AcDbEntity
  8
None
390
0
 62
               7
100
AcDbBlockReference
  2
pad
 10
-14.500500000000018
 20
27.074992600000002
 30
0.0
  0
INSERT
  5
1CB
100
AcDbEntity
  8
None
390
0
 62
               7
100
AcDbBlockReference
  2
pad
 10
-13.230500000000019
 20
27.074992600000002
 30
0.0
  0
INSERT
  5
1CC
100
AcDbEntity
  8
None
390
0
 62
               7
100
AcDbBlockReference
  2
pad
 10
-11.960500000000019
 20
27.074992600000002
 30
0.0
  0
INSERT
  5
1CD
100
AcDbEntity
  8
None
390
0
 62
               7
100
AcDbBlockReference
  2
pad
 10
-10.690500000000018
 20
27.074992600000002
 30
0.0
  0
INSERT
  5
1CE
100
AcDbEntity
  8
None
390
0
 62
               7
100
AcDbBlockReference
  2
pad
 10
-9.4205000000000183
 20
27.074992600000002
 30
0.0
  0
INSERT
  5
1CF
100
AcDbEntity
  8
None
390
0
 62
               7
100
AcDbBlockReference
  2
pad
 10
-8.1505000000000187
 20
27.074992600000002
 30
0.0
  0
INSERT
  5
1D0
100
AcDbEntity
  8
None
390
0
 62
               7
100
AcDbBlockReference
  2
pad
 10
-6.8805000000000192
 20
27.074992600000002
 30
0.0
  0
INSERT
  5
1D1
100
AcDbEntity
  8
None
390
0
 62
               7
100
AcDbBlockReference
  2
pad
 10
-5.6105000000000196
 20
27.074992600000002
 30
0.0
  0
INSERT
  5
1D2
100
AcDbEntity
  8
None
390
0
 62
               7
100
AcDbBlockReference
  2
pad
 10
-4.34050000000002
 20
27.074992600000002
 30
0.0
  0
INSERT
  5
1D3
100
AcDbEntity
  8
None
390
0
 62
               7
100
AcDbBlockReference
  2
pad
 10
-3.0705000000000204
 20
27.074992600000002
 30
0.0
  0
INSERT
  5
1D4
100
AcDbEntity
  8
None
390
0
 62
               7
100
AcDbBlockReference
  2
pad
 10
-1.8005000000000209
 20
27.074992600000002
 30
0.0
  0
INSERT
  5
1D5
100
AcDbEntity
  8
None
390
0
 62
               7
100
AcDbBlockReference
  2
pad
 10
-0.5305000000000213
 20
27.074992600000002
 30
0.0
  0
INSERT
  5
1D6
100
AcDbEntity
  8
None
390
0
 62
               7
100
AcDbBlockReference
  2
pad
 10
0.7394999999999783
 20
27.074992600000002
 30
0.0
  0
INSERT
  5
1D7
100
AcDbEntity
  8
None
390
0
 62
               7
100
AcDbBlockReference
  2
pad
 10
2.0094999999999779
 20
27.074992600000002
 30
0.0
  0
INSERT
  5
1D8
100
AcDbEntity
  8
None
390
0
 62
               7
100
AcDbBlockReference
  2
pad
 10
3.2794999999999774
 20
27.074992600000002
 30
0.0
  0
INSERT
  5
1D9
100
AcDbEntity
  8
None
390
0
 62
               7
100
AcDbBlockReference
  2
pad
 10
4.549499999999977
 20
27.074992600000002
 30
0.0
  0
INSERT
  5
1DA
100
AcDbEntity
  8
None
390
0
 62
               7
100
AcDbBlockReference
  2
pad
 10
5.8194999999999801
 20
27.074992600000002
 30
0.0
  0
INSERT
  5
1DB
100
AcDbEntity
  8
None
390
0
 62
               7
100
AcDbBlockReference
  2
pad
 10
7.0894999999999833
 20
27.074992600000002
 30
0.0
  0
INSERT
  5
1DC
100
AcDbEntity
  8
None
390
0
 62
               7
100
AcDbBlockReference
  2
pad
 10
8.3594999999999864
 20
27.074992600000002
 30
0.0
  0
INSERT
  5
1DD
100
AcDbEntity
  8
None
390
0
 62
               7
100
AcDbBlockReference
  2
pad
 10
9.6294999999999895
 20
27.074992600000002
 30
0.0
  0
INSERT
  5
1DE
100
AcDbEntity
  8
None
390
0
 62
               7
100
AcDbBlockReference
  2
pad
 10
10.899499999999993
 20
27.074992600000002
 30
0.0
  0
INSERT
  5
1DF
100
AcDbEntity
  8
None
390
0
 62
               7
100
AcDbBlockReference
  2
pad
 10
12.169499999999996
 20
27.074992600000002
 30
0.0
  0
INSERT
  5
1E0
100
AcDbEntity
  8
None
390
0
 62
               7
100
AcDbBlockReference
  2
pad
 10
13.439499999999999
 20
27.074992600000002
 30
0.0
  0
INSERT
  5
1E1
100
AcDbEntity
  8
None
390
0
 62
               7
100
AcDbBlockReference
  2
pad
 10
14.709500000000002
 20
27.074992600000002
 30
0.0
  0
INSERT
  5
1E2
100
AcDbEntity
  8
None
390
0
 62
               7
100
AcDbBlockReference
  2
pad
 10
-27.200500000000016
 20
25.804992600000006
 30
0.0
  0
INSERT
  5
1E3
100
AcDbEntity
  8
None
390
0
 62
               7
100
AcDbBlockReference
  2
pad
 10
-25.930500000000016
 20
25.804992600000006
 30
0.0
  0
INSERT
  5
1E4
100
AcDbEntity
  8
None
390
0
 62
               7
100
AcDbBlockReference
  2
pad
 10
-24.660500000000017
 20
25.804992600000006
 30
0.0
  0
INSERT
  5
1E5
100
AcDbEntity
  8
None
390
0
 62
               7
100
AcDbBlockReference
  2
pad
 10
-23.390500000000017
 20
25.804992600000006
 30
0.0
  0
INSERT
  5
1E6
100
AcDbEntity
  8
None
390
0
 62
               7
100
AcDbBlockReference
  2
pad
 10
-22.120500000000018
 20
25.804992600000006
 30
0.0
  0
INSERT
  5
1E7
100
AcDbEntity
  8
None
390
0
 62
               7
100
AcDbBlockReference
  2
pad
 10
-20.850500000000014
 20
25.804992600000006
 30
0.0
  0
INSERT
  5
1E8
100
AcDbEntity
  8
None
390
0
 62
               7
100
AcDbBlockReference
  2
pad
 10
-19.580500000000015
 20
25.804992600000006
 30
0.0
  0
INSERT
  5
1E9
100
AcDbEntity
  8
None
390
0
 62
               7
100
AcDbBlockReference
  2
pad
 10
-18.310500000000019
 20
25.804992600000006
 30
0.0
  0
INSERT
  5
1EA
100
AcDbEntity
  8
None
390
0
 62
               7
100
AcDbBlockReference
  2
pad
 10
-17.040500000000016
 20
25.804992600000006
 30
0.0
  0
INSERT
  5
1EB
100
AcDbEntity
  8
None
390
0
 62
               7
100
AcDbBlockReference
  2
pad
 10
-15.770500000000018
 20
25.804992600000006
 30
0.0
  0
INSERT
  5
1EC
100
AcDbEntity
  8
None
390
0
 62
               7
100
AcDbBlockReference
  2
pad
 10
-14.500500000000018
 20
25.804992600000006
 30
0.0
  0
INSERT
  5
1ED
100
AcDbEntity
  8
None
390
0
 62
               7
100
AcDbBlockReference
  2
pad
 10
-13.230500000000019
 20
25.804992600000006
 30
0.0
  0
INSERT
  5
1EE
100
AcDbEntity
  8
None
390
0
 62
               7
100
AcDbBlockReference
  2
pad
 10
-11.960500000000019
 20
25.804992600000006
 30
0.0
  0
INSERT
  5
1EF
100
AcDbEntity
  8
None
390
0
 62
               7
100
AcDbBlockReference
  2
pad
 10
-10.690500000000018
 20
25.804992600000006
 30
0.0
  0
INSERT
  5
1F0
100
AcDbEntity
  8
None
390
0
 62
               7
100
AcDbBlockReference
  2
pad
 10
-9.4205000000000183
 20
25.804992600000006
 30
0.0
  0
INSERT
  5
1F1
100
AcDbEntity
  8
None
390
0
 62
               7
100
AcDbBlockReference
  2
pad
 10
-8.1505000000000187
 20
25.804992600000006
 30
0.0
  0
INSERT
  5
1F2
100
AcDbEntity
  8
None
390
0
 62
               7
100
AcDbBlockReference
  2
pad
 10
-6.8805000000000192
 20
25.804992600000006
 30
0.0
  0
INSERT
  5
1F3
100
AcDbEntity
  8
None
390
0
 62
               7
100
AcDbBlockReference
  2
pad
 10
-5.6105000000000196
 20
25.804992600000006
 30
0.0
  0
INSERT
  5
1F4
100
AcDbEntity
  8
None
390
0
 62
               7
100
AcDbBlockReference
  2
pad
 10
-4.34050000000002
 20
25.804992600000006
 30
0.0
  0
INSERT
  5
1F5
100
AcDbEntity
  8
None
390
0
 62
               7
100
AcDbBlockReference
  2
pad
 10
-3.0705000000000204
 20
25.804992600000006
 30
0.0
  0
INSERT
  5
1F6
100
AcDbEntity
  8
None
390
0
 62
               7
100
AcDbBlockReference
  2
pad
 10
-1.8005000000000209
 20
25.804992600000006
 30
0.0
  0
INSERT
  5
1F7
100
AcDbEntity
  8
None
390
0
 62
               7
100
AcDbBlockReference
  2
pad
 10
-0.5305000000000213
 20
25.804992600000006
 30
0.0
  0
INSERT
  5
1F8
100
AcDbEntity
  8
None
390
0
 62
               7
100
AcDbBlockReference
  2
pad
 10
0.7394999999999783
 20
25.804992600000006
 30
0.0
  0
INSERT
  5
1F9
100
AcDbEntity
  8
None
390
0
 62
               7
100
AcDbBlockReference
  2
pad
 10
2.0094999999999779
 20
25.804992600000006
 30
0.0
  0
INSERT
  5
1FA
100
AcDbEntity
  8
None
390
0
 62
               7
100
AcDbBlockReference
  2
pad
 10
3.2794999999999774
 20
25.804992600000006
 30
0.0
  0
INSERT
  5
1FB
100
AcDbEntity
  8
None
390
0
 62
               7
100
AcDbBlockReference
  2
pad
 10
4.549499999999977
 20
25.804992600000006
 30
0.0
  0
INSERT
  5
1FC
100
AcDbEntity
  8
None
390
0
 62
               7
100
AcDbBlockReference
  2
pad
 10
5.8194999999999801
 20
25.804992600000006
 30
0.0
  0
INSERT
  5
1FD
100
AcDbEntity
  8
None
390
0
 62
               7
100
AcDbBlockReference
  2
pad
 10
7.0894999999999833
 20
25.804992600000006
 30
0.0
  0
INSERT
  5
1FE
100
AcDbEntity
  8
None
390
0
 62
               7
100
AcDbBlockReference
  2
pad
 10
8.3594999999999864
 20
25.804992600000006
 30
0.0
  0
INSERT
  5
1FF
100
AcDbEntity
  8
None
390
0
 62
               7
100
AcDbBlockReference
  2
pad
 10
9.6294999999999895
 20
25.804992600000006
 30
0.0
  0
INSERT
  5
200
100
AcDbEntity
  8
None
390
0
 62
               7
100
AcDbBlockReference
  2
pad
 10
10.899499999999993
 20
25.804992600000006
 30
0.0
  0
INSERT
  5
201
100
AcDbEntity
  8
None
390
0
 62
               7
100
AcDbBlockReference
  2
pad
 10
12.169499999999996
 20
25.804992600000006
 30
0.0
  0
INSERT
  5
202
100
AcDbEntity
  8
None
390
0
 62
               7
100
AcDbBlockReference
  2
pad
 10
13.439499999999999
 20
25.804992600000006
 30
0.0
  0
INSERT
  5
203
100
AcDbEntity
  8
None
390
0
 62
               7
100
AcDbBlockReference
  2
pad
 10
14.709500000000002
 20
25.804992600000006
 30
0.0
  0
INSERT
  5
204
100
AcDbEntity
  8
None
390
0
 62
               7
100
AcDbBlockReference
  2
pad
 10
-27.200500000000016
 20
24.534992599999995
 30
0.0
  0
INSERT
  5
205
100
AcDbEntity
  8
None
390
0
 62
               7
100
AcDbBlockReference
  2
pad
 10
-25.930500000000016
 20
24.534992599999995
 30
0.0
  0
INSERT
  5
206
100
AcDbEntity
  8
None
390
0
 62
               7
100
AcDbBlockReference
  2
pad
 10
-24.660500000000017
 20
24.534992599999995
 30
0.0
  0
INSERT
  5
207
100
AcDbEntity
  8
None
390
0
 62
               7
100
AcDbBlockReference
  2
pad
 10
-23.390500000000017
 20
24.534992599999995
 30
0.0
  0
INSERT
  5
208
100
AcDbEntity
  8
None
390
0
 62
               7
100
AcDbBlockReference
  2
pad
 10
-22.120500000000018
 20
24.534992599999995
 30
0.0
  0
INSERT
  5
209
100
AcDbEntity
  8
None
390
0
 62
               7
100
AcDbBlockReference
  2
pad
 10
-20.850500000000014
 20
24.534992599999995
 30
0.0
  0
INSERT
  5
20A
100
AcDbEntity
  8
None
390
0
 62
               7
100
AcDbBlockReference
  2
pad
 10
-19.580500000000015
 20
24.534992599999995
 30
0.0
  0
INSERT
  5
20B
100
AcDbEntity
  8
None
390
0
 62
               7
100
AcDbBlockReference
  2
pad
 10
-18.310500000000019
 20
24.534992599999995
 30
0.0
  0
INSERT
  5
20C
100
AcDbEntity
  8
None
390
0
 62
               7
100
AcDbBlockReference
  2
pad
 10
-17.040500000000016
 20
24.534992599999995
 30
0.0
  0
INSERT
  5
20D
100
AcDbEntity
  8
None
390
0
 62
               7
100
AcDbBlockReference
  2
pad
 10
-15.770500000000018
 20
24.534992599999995
 30
0.0
  0
INSERT
  5
20E
100
AcDbEntity
  8
None
390
0
 62
               7
100
AcDbBlockReference
  2
pad
 10
-14.500500000000018
 20
24.534992599999995
 30
0.0
  0
INSERT
  5
20F
100
AcDbEntity
  8
None
390
0
 62
               7
100
AcDbBlockReference
  2
pad
 10
-13.230500000000019
 20
24.534992599999995
 30
0.0
  0
INSERT
  5
210
100
AcDbEntity
  8
None
390
0
 62
               7
100
AcDbBlockReference
  2
pad
 10
-11.960500000000019
 20
24.534992599999995
 30
0.0
  0
INSERT
  5
211
100
AcDbEntity
  8
None
390
0
 62
               7
100
AcDbBlockReference
  2
pad
 10
-10.690500000000018
 20
24.534992599999995
 30
0.0
  0
INSERT
  5
212
100
AcDbEntity
  8
None
390
0
 62
               7
100
AcDbBlockReference
  2
pad
 10
-9.4205000000000183
 20
24.534992599999995
 30
0.0
  0
INSERT
  5
213
100
AcDbEntity
  8
None
390
0
 62
               7
100
AcDbBlockReference
  2
pad
 10
-8.1505000000000187
 20
24.534992599999995
 30
0.0
  0
INSERT
  5
214
100
AcDbEntity
  8
None
390
0
 62
               7
100
AcDbBlockReference
  2
pad
 10
-6.8805000000000192
 20
24.534992599999995
 30
0.0
  0
INSERT
  5
215
100
AcDbEntity
  8
None
390
0
 62
               7
100
AcDbBlockReference
  2
pad
 10
-5.6105000000000196
 20
24.534992599999995
 30
0.0
  0
INSERT
  5
216
100
AcDbEntity
  8
None
390
0
 62
               7
100
AcDbBlockReference
  2
pad
 10
-4.34050000000002
 20
24.534992599999995
 30
0.0
  0
INSERT
  5
217
100
AcDbEntity
  8
None
390
0
 62
               7
100
AcDbBlockReference
  2
pad
 10
-3.0705000000000204
 20
24.534992599999995
 30
0.0
  0
INSERT
  5
218
100
AcDbEntity
  8
None
390
0
 62
               7
100
AcDbBlockReference
  2
pad
 10
-1.8005000000000209
 20
24.534992599999995
 30
0.0
  0
INSERT
  5
219
100
AcDbEntity
  8
None
390
0
 62
               7
100
AcDbBlockReference
  2
pad
 10
-0.5305000000000213
 20
24.534992599999995
 30
0.0
  0
INSERT
  5
21A
100
AcDbEntity
  8
None
390
0
 62
               7
100
AcDbBlockReference
  2
pad
 10
0.7394999999999783
 20
24.534992599999995
 30
0.0
  0
INSERT
  5
21B
100
AcDbEntity
  8
None
390
0
 62
               7
100
AcDbBlockReference
  2
pad
 10
2.0094999999999779
 20
24.534992599999995
 30
0.0
  0
INSERT
  5
21C
100
AcDbEntity
  8
None
390
0
 62
               7
100
AcDbBlockReference
  2
pad
 10
3.2794999999999774
 20
24.534992599999995
 30
0.0
  0
INSERT
  5
21D
100
AcDbEntity
  8
None
390
0
 62
               7
100
AcDbBlockReference
  2
pad
 10
4.549499999999977
 20
24.534992599999995
 30
0.0
  0
INSERT
  5
21E
100
AcDbEntity
  8
None
390
0
 62
               7
100
AcDbBlockReference
  2
pad
 10
5.8194999999999801
 20
24.534992599999995
 30
0.0
  0
INSERT
  5
21F
100
AcDbEntity
  8
None
390
0
 62
               7
100
AcDbBlockReference
  2
pad
 10
7.0894999999999833
 20
24.534992599999995
 30
0.0
  0
INSERT
  5
220
100
AcDbEntity
  8
None
390
0
 62
               7
100
AcDbBlockReference
  2
pad
 10
8.3594999999999864
 20
24.534992599999995
 30
0.0
  0
INSERT
  5
221
100
AcDbEntity
  8
None
390
0
 62
               7
100
AcDbBlockReference
  2
pad
 10
9.6294999999999895
 20
24.534992599999995
 30
0.0
  0
INSERT
  5
222
100
AcDbEntity
  8
None
390
0
 62
               7
100
AcDbBlockReference
  2
pad
 10
10.899499999999993
 20
24.534992599999995
 30
0.0
  0
INSERT
  5
223
100
AcDbEntity
  8
None
390
0
 62
               7
100
AcDbBlockReference
  2
pad
 10
12.169499999999996
 20
24.534992599999995
 30
0.0
  0
INSERT
  5
224
100
AcDbEntity
  8
None
390
0
 62
               7
100
AcDbBlockReference
  2
pad
 10
13.439499999999999
 20
24.534992599999995
 30
0.0
  0
INSERT
  5
225
100
AcDbEntity
  8
None
390
0
 62
               7
100
AcDbBlockReference
  2
pad
 10
14.709500000000002
 20
24.534992599999995
 30
0.0
  0
INSERT
  5
226
100
AcDbEntity
  8
None
390
0
 62
               7
100
AcDbBlockReference
  2
pad
 10
-27.200500000000016
 20
23.264992599999999
 30
0.0
  0
INSERT
  5
227
100
AcDbEntity
  8
None
390
0
 62
               7
100
AcDbBlockReference
  2
pad
 10
-25.930500000000016
 20
23.264992599999999
 30
0.0
  0
INSERT
  5
228
100
AcDbEntity
  8
None
390
0
 62
               7
100
AcDbBlockReference
  2
pad
 10
-24.660500000000017
 20
23.264992599999999
 30
0.0
  0
INSERT
  5
229
100
AcDbEntity
  8
None
390
0
 62
               7
100
AcDbBlockReference
  2
pad
 10
-23.390500000000017
 20
23.264992599999999
 30
0.0
  0
INSERT
  5
22A
100
AcDbEntity
  8
None
390
0
 62
               7
100
AcDbBlockReference
  2
pad
 10
-22.120500000000018
 20
23.264992599999999
 30
0.0
  0
INSERT
  5
22B
100
AcDbEntity
  8
None
390
0
 62
               7
100
AcDbBlockReference
  2
pad
 10
-20.850500000000014
 20
23.264992599999999
 30
0.0
  0
INSERT
  5
22C
100
AcDbEntity
  8
None
390
0
 62
               7
100
AcDbBlockReference
  2
pad
 10
-19.580500000000015
 20
23.264992599999999
 30
0.0
  0
INSERT
  5
22D
100
AcDbEntity
  8
None
390
0
 62
               7
100
AcDbBlockReference
  2
pad
 10
-18.310500000000019
 20
23.264992599999999
 30
0.0
  0
INSERT
  5
22E
100
AcDbEntity
  8
None
390
0
 62
               7
100
AcDbBlockReference
  2
pad
 10
-17.040500000000016
 20
23.264992599999999
 30
0.0
  0
INSERT
  5
22F
100
AcDbEntity
  8
None
390
0
 62
               7
100
AcDbBlockReference
  2
pad
 10
-15.770500000000018
 20
23.264992599999999
 30
0.0
  0
INSERT
  5
230
100
AcDbEntity
  8
None
390
0
 62
               7
100
AcDbBlockReference
  2
pad
 10
-14.500500000000018
 20
23.264992599999999
 30
0.0
  0
INSERT
  5
231
100
AcDbEntity
  8
None
390
0
 62
               7
100
AcDbBlockReference
  2
pad
 10
-13.230500000000019
 20
23.264992599999999
 30
0.0
  0
INSERT
  5
232
100
AcDbEntity
  8
None
390
0
 62
               7
100
AcDbBlockReference
  2
pad
 10
-11.960500000000019
 20
23.264992599999999
 30
0.0
  0
INSERT
  5
233
100
AcDbEntity
  8
None
390
0
 62
               7
100
AcDbBlockReference
  2
pad
 10
-10.690500000000018
 20
23.264992599999999
 30
0.0
  0
INSERT
  5
234
100
AcDbEntity
  8
None
390
0
 62
               7
100
AcDbBlockReference
  2
pad
 10
-9.4205000000000183
 20
23.264992599999999
 30
0.0
  0
INSERT
  5
235
100
AcDbEntity
  8
None
390
0
 62
               7
100
AcDbBlockReference
  2
pad
 10
-8.1505000000000187
 20
23.264992599999999
 30
0.0
  0
INSERT
  5
236
100
AcDbEntity
  8
None
390
0
 62
               7
100
AcDbBlockReference
  2
pad
 10
-6.8805000000000192
 20
23.264992599999999
 30
0.0
  0
INSERT
  5
237
100
AcDbEntity
  8
None
390
0
 62
               7
100
AcDbBlockReference
  2
pad
 10
-5.6105000000000196
 20
23.264992599999999
 30
0.0
  0
INSERT
  5
238
100
AcDbEntity
  8
None
390
0
 62
               7
100
AcDbBlockReference
  2
pad
 10
-4.34050000000002
 20
23.264992599999999
 30
0.0
  0
INSERT
  5
239
100
AcDbEntity
  8
None
390
0
 62
               7
100
AcDbBlockReference
  2
pad
 10
-3.0705000000000204
 20
23.264992599999999
 30
0.0
  0
INSERT
  5
23A
100
AcDbEntity
  8
None
390
0
 62
               7
100
AcDbBlockReference
  2
pad
 10
-1.8005000000000209
 20
23.264992599999999
 30
0.0
  0
INSERT
  5
23B
100
AcDbEntity
  8
None
390
0
 62
               7
100
AcDbBlockReference
  2
pad
 10
-0.5305000000000213
 20
23.264992599999999
 30
0.0
  0
INSERT
  5
23C
100
AcDbEntity
  8
None
390
0
 62
               7
100
AcDbBlockReference
  2
pad
 10
0.7394999999999783
 20
23.264992599999999
 30
0.0
  0
INSERT
  5
23D
100
AcDbEntity
  8
None
390
0
 62
               7
100
AcDbBlockReference
  2
pad
 10
2.0094999999999779
 20
23.264992599999999
 30
0.0
  0
INSERT
  5
23E
100
AcDbEntity
  8
None
390
0
 62
               7
100
AcDbBlockReference
  2
pad
 10
3.2794999999999774
 20
23.264992599999999
 30
0.0
  0
INSERT
  5
23F
100
AcDbEntity
  8
None
390
0
 62
               7
100
AcDbBlockReference
  2
pad
 10
4.549499999999977
 20
23.264992599999999
 30
0.0
  0
INSERT
  5
240
100
AcDbEntity
  8
None
390
0
 62
               7
100
AcDbBlockReference
  2
pad
 10
5.8194999999999801
 20
23.264992599999999
 30
0.0
  0
INSERT
  5
241
100
AcDbEntity
  8
None
390
0
 62
               7
100
AcDbBlockReference
  2
pad
 10
7.0894999999999833
 20
23.264992599999999
 30
0.0
  0
INSERT
  5
242
100
AcDbEntity
  8
None
390
0
 62
               7
100
AcDbBlockReference
  2
pad
 10
8.3594999999999864
 20
23.264992599999999
 30
0.0
  0
INSERT
  5
243
100
AcDbEntity
  8
None
390
0
 62
               7
100
AcDbBlockReference
  2
pad
 10
9.6294999999999895
 20
23.264992599999999
 30
0.0
  0
INSERT
  5
244
100
AcDbEntity
  8
None
390
0
 62
               7
100
AcDbBlockReference
  2
pad
 10
10.899499999999993
 20
23.264992599999999
 30
0.0
  0
INSERT
  5
245
100
AcDbEntity
  8
None
390
0
 62
               7
100
AcDbBlockReference
  2
pad
 10
12.169499999999996
 20
23.264992599999999
 30
0.0
  0
INSERT
  5
246
100
AcDbEntity
  8
None
390
0
 62
               7
100
AcDbBlockReference
  2
pad
 10
13.439499999999999
 20
23.264992599999999
 30
0.0
  0
INSERT
  5
247
100
AcDbEntity
  8
None
390
0
 62
               7
100
AcDbBlockReference
  2
pad
 10
14.709500000000002
 20
23.264992599999999
 30
0.0
  0
INSERT
  5
248
100
AcDbEntity
  8
None
390
0
 62
               7
100
AcDbBlockReference
  2
pad
 10
-27.200500000000016
 20
21.994992600000003
 30
0.0
  0
INSERT
  5
249
100
AcDbEntity
  8
None
390
0
 62
               7
100
AcDbBlockReference
  2
pad
 10
-25.930500000000016
 20
21.994992600000003
 30
0.0
  0
INSERT
  5
24A
100
AcDbEntity
  8
None
390
0
 62
               7
100
AcDbBlockReference
  2
pad
 10
-24.660500000000017
 20
21.994992600000003
 30
0.0
  0
INSERT
  5
24B
100
AcDbEntity
  8
None
390
0
 62
               7
100
AcDbBlockReference
  2
pad
 10
-23.390500000000017
 20
21.994992600000003
 30
0.0
  0
INSERT
  5
24C
100
AcDbEntity
  8
None
390
0
 62
               7
100
AcDbBlockReference
  2
pad
 10
-22.120500000000018
 20
21.994992600000003
 30
0.0
  0
INSERT
  5
24D
100
AcDbEntity
  8
None
390
0
 62
               7
100
AcDbBlockReference
  2
pad
 10
-20.850500000000014
 20
21.994992600000003
 30
0.0
  0
INSERT
  5
24E
100
AcDbEntity
  8
None
390
0
 62
               7
100
AcDbBlockReference
  2
pad
 10
-19.580500000000015
 20
21.994992600000003
 30
0.0
  0
INSERT
  5
24F
100
AcDbEntity
  8
None
390
0
 62
               7
100
AcDbBlockReference
  2
pad
 10
-18.310500000000019
 20
21.994992600000003
 30
0.0
  0
INSERT
  5
250
100
AcDbEntity
  8
None
390
0
 62
               7
100
AcDbBlockReference
  2
pad
 10
-17.040500000000016
 20
21.994992600000003
 30
0.0
  0
INSERT
  5
251
100
AcDbEntity
  8
None
390
0
 62
               7
100
AcDbBlockReference
  2
pad
 10
-15.770500000000018
 20
21.994992600000003
 30
0.0
  0
INSERT
  5
252
100
AcDbEntity
  8
None
390
0
 62
               7
100
AcDbBlockReference
  2
pad
 10
-14.500500000000018
 20
21.994992600000003
 30
0.0
  0
INSERT
  5
253
100
AcDbEntity
  8
None
390
0
 62
               7
100
AcDbBlockReference
  2
pad
 10
-13.230500000000019
 20
21.994992600000003
 30
0.0
  0
INSERT
  5
254
100
AcDbEntity
  8
None
390
0
 62
               7
100
AcDbBlockReference
  2
pad
 10
-11.960500000000019
 20
21.994992600000003
 30
0.0
  0
INSERT
  5
255
100
AcDbEntity
  8
None
390
0
 62
               7
100
AcDbBlockReference
  2
pad
 10
-10.690500000000018
 20
21.994992600000003
 30
0.0
  0
INSERT
  5
256
100
AcDbEntity
  8
None
390
0
 62
               7
100
AcDbBlockReference
  2
pad
 10
-9.4205000000000183
 20
21.994992600000003
 30
0.0
  0
INSERT
  5
257
100
AcDbEntity
  8
None
390
0
 62
               7
100
AcDbBlockReference
  2
pad
 10
-8.1505000000000187
 20
21.994992600000003
 30
0.0
  0
INSERT
  5
258
100
AcDbEntity
  8
None
390
0
 62
               7
100
AcDbBlockReference
  2
pad
 10
-6.8805000000000192
 20
21.994992600000003
 30
0.0
  0
INSERT
  5
259
100
AcDbEntity
  8
None
390
0
 62
               7
100
AcDbBlockReference
  2
pad
 10
-5.6105000000000196
 20
21.994992600000003
 30
0.0
  0
INSERT
  5
25A
100
AcDbEntity
  8
None
390
0
 62
               7
100
AcDbBlockReference
  2
pad
 10
-4.34050000000002
 20
21.994992600000003
 30
0.0
  0
INSERT
  5
25B
100
AcDbEntity
  8
None
390
0
 62
               7
100
AcDbBlockReference
  2
pad
 10
-3.0705000000000204
 20
21.994992600000003
 30
0.0
  0
INSERT
  5
25C
100
AcDbEntity
  8
None
390
0
 62
               7
100
AcDbBlockReference
  2
pad
 10
-1.8005000000000209
 20
21.994992600000003
 30
0.0
  0
INSERT
  5
25D
100
AcDbEntity
  8
None
390
0
 62
               7
100
AcDbBlockReference
  2
pad
 10
-0.5305000000000213
 20
21.994992600000003
 30
0.0
  0
INSERT
  5
25E
100
AcDbEntity
  8
None
390
0
 62
               7
100
AcDbBlockReference
  2
pad
 10
0.7394999999999783
 20
21.994992600000003
 30
0.0
  0
INSERT
  5
25F
100
AcDbEntity
  8
None
390
0
 62
               7
100
AcDbBlockReference
  2
pad
 10
2.0094999999999779
 20
21.994992600000003
 30
0.0
  0
INSERT
  5
260
100
AcDbEntity
  8
None
390
0
 62
               7
100
AcDbBlockReference
  2
pad
 10
3.2794999999999774
 20
21.994992600000003
 30
0.0
  0
INSERT
  5
261
100
AcDbEntity
  8
None
390
0
 62
               7
100
AcDbBlockReference
  2
pad
 10
4.549499999999977
 20
21.994992600000003
 30
0.0
  0
INSERT
  5
262
100
AcDbEntity
  8
None
390
0
 62
               7
100
AcDbBlockReference
  2
pad
 10
5.8194999999999801
 20
21.994992600000003
 30
0.0
  0
INSERT
  5
263
100
AcDbEntity
  8
None
390
0
 62
               7
100
AcDbBlockReference
  2
pad
 10
7.0894999999999833
 20
21.994992600000003
 30
0.0
  0
INSERT
  5
264
100
AcDbEntity
  8
None
390
0
 62
               7
100
AcDbBlockReference
  2
pad
 10
8.3594999999999864
 20
21.994992600000003
 30
0.0
  0
INSERT
  5
265
100
AcDbEntity
  8
None
390
0
 62
               7
100
AcDbBlockReference
  2
pad
 10
9.6294999999999895
 20
21.994992600000003
 30
0.0
  0
INSERT
  5
266
100
AcDbEntity
  8
None
390
0
 62
               7
100
AcDbBlockReference
  2
pad
 10
10.899499999999993
 20
21.994992600000003
 30
0.0
  0
INSERT
  5
267
100
AcDbEntity
  8
None
390
0
 62
               7
100
AcDbBlockReference
  2
pad
 10
12.169499999999996
 20
21.994992600000003
 30
0.0
  0
INSERT
  5
268
100
AcDbEntity
  8
None
390
0
 62
               7
100
AcDbBlockReference
  2
pad
 10
13.439499999999999
 20
21.994992600000003
 30
0.0
  0
INSERT
  5
269
100
AcDbEntity
  8
None
390
0
 62
               7
100
AcDbBlockReference
  2
pad
 10
14.709500000000002
 20
21.994992600000003
 30
0.0
  0
INSERT
  5
26A
100
AcDbEntity
  8
None
390
0
 62
               7
100
AcDbBlockReference
  2
pad
 10
-27.200500000000016
 20
20.724992600000007
 30
0.0
  0
INSERT
  5
26B
100
AcDbEntity
  8
None
390
0
 62
               7
100
AcDbBlockReference
  2
pad
 10
-25.930500000000016
 20
20.724992600000007
 30
0.0
  0
INSERT
  5
26C
100
AcDbEntity
  8
None
390
0
 62
               7
100
AcDbBlockReference
  2
pad
 10
-24.660500000000017
 20
20.724992600000007
 30
0.0
  0
INSERT
  5
26D
100
AcDbEntity
  8
None
390
0
 62
               7
100
AcDbBlockReference
  2
pad
 10
-23.390500000000017
 20
20.724992600000007
 30
0.0
  0
INSERT
  5
26E
100
AcDbEntity
  8
None
390
0
 62
               7
100
AcDbBlockReference
  2
pad
 10
-22.120500000000018
 20
20.724992600000007
 30
0.0
  0
INSERT
  5
26F
100
AcDbEntity
  8
None
390
0
 62
               7
100
AcDbBlockReference
  2
pad
 10
-20.850500000000014
 20
20.724992600000007
 30
0.0
  0
INSERT
  5
270
100
AcDbEntity
  8
None
390
0
 62
               7
100
AcDbBlockReference
  2
pad
 10
-19.580500000000015
 20
20.724992600000007
 30
0.0
  0
INSERT
  5
271
100
AcDbEntity
  8
None
390
0
 62
               7
100
AcDbBlockReference
  2
pad
 10
-18.310500000000019
 20
20.724992600000007
 30
0.0
  0
INSERT
  5
272
100
AcDbEntity
  8
None
390
0
 62
               7
100
AcDbBlockReference
  2
pad
 10
-17.040500000000016
 20
20.724992600000007
 30
0.0
  0
INSERT
  5
273
100
AcDbEntity
  8
None
390
0
 62
               7
100
AcDbBlockReference
  2
pad
 10
-15.770500000000018
 20
20.724992600000007
 30
0.0
  0
INSERT
  5
274
100
AcDbEntity
  8
None
390
0
 62
               7
100
AcDbBlockReference
  2
pad
 10
-14.500500000000018
 20
20.724992600000007
 30
0.0
  0
INSERT
  5
275
100
AcDbEntity
  8
None
390
0
 62
               7
100
AcDbBlockReference
  2
pad
 10
-13.230500000000019
 20
20.724992600000007
 30
0.0
  0
INSERT
  5
276
100
AcDbEntity
  8
None
390
0
 62
               7
100
AcDbBlockReference
  2
pad
 10
-11.960500000000019
 20
20.724992600000007
 30
0.0
  0
INSERT
  5
277
100
AcDbEntity
  8
None
390
0
 62
               7
100
AcDbBlockReference
  2
pad
 10
-10.690500000000018
 20
20.724992600000007
 30
0.0
  0
INSERT
  5
278
100
AcDbEntity
  8
None
390
0
 62
               7
100
AcDbBlockReference
  2
pad
 10
-9.4205000000000183
 20
20.724992600000007
 30
0.0
  0
INSERT
  5
279
100
AcDbEntity
  8
None
390
0
 62
               7
100
AcDbBlockReference
  2
pad
 10
-8.1505000000000187
 20
20.724992600000007
 30
0.0
  0
INSERT
  5
27A
100
AcDbEntity
  8
None
390
0
 62
               7
100
AcDbBlockReference
  2
pad
 10
-6.8805000000000192
 20
20.724992600000007
 30
0.0
  0
INSERT
  5
27B
100
AcDbEntity
  8
None
390
0
 62
               7
100
AcDbBlockReference
  2
pad
 10
-5.6105000000000196
 20
20.724992600000007
 30
0.0
  0
INSERT
  5
27C
100
AcDbEntity
  8
None
390
0
 62
               7
100
AcDbBlockReference
  2
pad
 10
-4.34050000000002
 20
20.724992600000007
 30
0.0
  0
INSERT
  5
27D
100
AcDbEntity
  8
None
390
0
 62
               7
100
AcDbBlockReference
  2
pad
 10
-3.0705000000000204
 20
20.724992600000007
 30
0.0
  0
INSERT
  5
27E
100
AcDbEntity
  8
None
390
0
 62
               7
100
AcDbBlockReference
  2
pad
 10
-1.8005000000000209
 20
20.724992600000007
 30
0.0
  0
INSERT
  5
27F
100
AcDbEntity
  8
None
390
0
 62
               7
100
AcDbBlockReference
  2
pad
 10
-0.5305000000000213
 20
20.724992600000007
 30
0.0
  0
INSERT
  5
280
100
AcDbEntity
  8
None
390
0
 62
               7
100
AcDbBlockReference
  2
pad
 10
0.7394999999999783
 20
20.724992600000007
 30
0.0
  0
INSERT
  5
281
100
AcDbEntity
  8
None
390
0
 62
               7
100
AcDbBlockReference
  2
pad
 10
2.0094999999999779
 20
20.724992600000007
 30
0.0
  0
INSERT
  5
282
100
AcDbEntity
  8
None
390
0
 62
               7
100
AcDbBlockReference
  2
pad
 10
3.2794999999999774
 20
20.724992600000007
 30
0.0
  0
INSERT
  5
283
100
AcDbEntity
  8
None
390
0
 62
               7
100
AcDbBlockReference
  2
pad
 10
4.549499999999977
 20
20.724992600000007
 30
0.0
  0
INSERT
  5
284
100
AcDbEntity
  8
None
390
0
 62
               7
100
AcDbBlockReference
  2
pad
 10
5.8194999999999801
 20
20.724992600000007
 30
0.0
  0
INSERT
  5
285
100
AcDbEntity
  8
None
390
0
 62
               7
100
AcDbBlockReference
  2
pad
 10
7.0894999999999833
 20
20.724992600000007
 30
0.0
  0
INSERT
  5
286
100
AcDbEntity
  8
None
390
0
 62
               7
100
AcDbBlockReference
  2
pad
 10
8.3594999999999864
 20
20.724992600000007
 30
0.0
  0
INSERT
  5
287
100
AcDbEntity
  8
None
390
0
 62
               7
100
AcDbBlockReference
  2
pad
 10
9.6294999999999895
 20
20.724992600000007
 30
0.0
  0
INSERT
  5
288
100
AcDbEntity
  8
None
390
0
 62
               7
100
AcDbBlockReference
  2
pad
 10
10.899499999999993
 20
20.724992600000007
 30
0.0
  0
INSERT
  5
289
100
AcDbEntity
  8
None
390
0
 62
               7
100
AcDbBlockReference
  2
pad
 10
12.169499999999996
 20
20.724992600000007
 30
0.0
  0
INSERT
  5
28A
100
AcDbEntity
  8
None
390
0
 62
               7
100
AcDbBlockReference
  2
pad
 10
13.439499999999999
 20
20.724992600000007
 30
0.0
  0
INSERT
  5
28B
100
AcDbEntity
  8
None
390
0
 62
               7
100
AcDbBlockReference
  2
pad
 10
14.709500000000002
 20
20.724992600000007
 30
0.0
  0
INSERT
  5
28C
100
AcDbEntity
  8
None
390
0
 62
               7
100
AcDbBlockReference
  2
pad
 10
-27.200500000000016
 20
19.454992599999997
 30
0.0
  0
INSERT
  5
28D
100
AcDbEntity
  8
None
390
0
 62
               7
100
AcDbBlockReference
  2
pad
 10
-25.930500000000016
 20
19.454992599999997
 30
0.0
  0
INSERT
  5
28E
100
AcDbEntity
  8
None
390
0
 62
               7
100
AcDbBlockReference
  2
pad
 10
-24.660500000000017
 20
19.454992599999997
 30
0.0
  0
INSERT
  5
28F
100
AcDbEntity
  8
None
390
0
 62
               7
100
AcDbBlockReference
  2
pad
 10
-23.390500000000017
 20
19.454992599999997
 30
0.0
  0
INSERT
  5
290
100
AcDbEntity
  8
None
390
0
 62
               7
100
AcDbBlockReference
  2
pad
 10
-22.120500000000018
 20
19.454992599999997
 30
0.0
  0
INSERT
  5
291
100
AcDbEntity
  8
None
390
0
 62
               7
100
AcDbBlockReference
  2
pad
 10
-20.850500000000014
 20
19.454992599999997
 30
0.0
  0
INSERT
  5
292
100
AcDbEntity
  8
None
390
0
 62
               7
100
AcDbBlockReference
  2
pad
 10
-19.580500000000015
 20
19.454992599999997
 30
0.0
  0
INSERT
  5
293
100
AcDbEntity
  8
None
390
0
 62
               7
100
AcDbBlockReference
  2
pad
 10
-18.310500000000019
 20
19.454992599999997
 30
0.0
  0
INSERT
  5
294
100
AcDbEntity
  8
None
390
0
 62
               7
100
AcDbBlockReference
  2
pad
 10
-17.040500000000016
 20
19.454992599999997
 30
0.0
  0
INSERT
  5
295
100
AcDbEntity
  8
None
390
0
 62
               7
100
AcDbBlockReference
  2
pad
 10
-15.770500000000018
 20
19.454992599999997
 30
0.0
  0
INSERT
  5
296
100
AcDbEntity
  8
None
390
0
 62
               7
100
AcDbBlockReference
  2
pad
 10
-14.500500000000018
 20
19.454992599999997
 30
0.0
  0
INSERT
  5
297
100
AcDbEntity
  8
None
390
0
 62
               7
100
AcDbBlockReference
  2
pad
 10
-13.230500000000019
 20
19.454992599999997
 30
0.0
  0
INSERT
  5
298
100
AcDbEntity
  8
None
390
0
 62
               7
100
AcDbBlockReference
  2
pad
 10
-11.960500000000019
 20
19.454992599999997
 30
0.0
  0
INSERT
  5
299
100
AcDbEntity
  8
None
390
0
 62
               7
100
AcDbBlockReference
  2
pad
 10
-10.690500000000018
 20
19.454992599999997
 30
0.0
  0
INSERT
  5
29A
100
AcDbEntity
  8
None
390
0
 62
               7
100
AcDbBlockReference
  2
pad
 10
-9.4205000000000183
 20
19.454992599999997
 30
0.0
  0
INSERT
  5
29B
100
AcDbEntity
  8
None
390
0
 62
               7
100
AcDbBlockReference
  2
pad
 10
-8.1505000000000187
 20
19.454992599999997
 30
0.0
  0
INSERT
  5
29C
100
AcDbEntity
  8
None
390
0
 62
               7
100
AcDbBlockReference
  2
pad
 10
-6.8805000000000192
 20
19.454992599999997
 30
0.0
  0
INSERT
  5
29D
100
AcDbEntity
  8
None
390
0
 62
               7
100
AcDbBlockReference
  2
pad
 10
-5.6105000000000196
 20
19.454992599999997
 30
0.0
  0
INSERT
  5
29E
100
AcDbEntity
  8
None
390
0
 62
               7
100
AcDbBlockReference
  2
pad
 10
-4.34050000000002
 20
19.454992599999997
 30
0.0
  0
INSERT
  5
29F
100
AcDbEntity
  8
None
390
0
 62
               7
100
AcDbBlockReference
  2
pad
 10
-3.0705000000000204
 20
19.454992599999997
 30
0.0
  0
INSERT
  5
2A0
100
AcDbEntity
  8
None
390
0
 62
               7
100
AcDbBlockReference
  2
pad
 10
-1.8005000000000209
 20
19.454992599999997
 30
0.0
  0
INSERT
  5
2A1
100
AcDbEntity
  8
None
390
0
 62
               7
100
AcDbBlockReference
  2
pad
 10
-0.5305000000000213
 20
19.454992599999997
 30
0.0
  0
INSERT
  5
2A2
100
AcDbEntity
  8
None
390
0
 62
               7
100
AcDbBlockReference
  2
pad
 10
0.7394999999999783
 20
19.454992599999997
 30
0.0
  0
INSERT
  5
2A3
100
AcDbEntity
  8
None
390
0
 62
               7
100
AcDbBlockReference
  2
pad
 10
2.0094999999999779
 20
19.454992599999997
 30
0.0
  0
INSERT
  5
2A4
100
AcDbEntity
  8
None
390
0
 62
               7
100
AcDbBlockReference
  2
pad
 10
3.2794999999999774
 20
19.454992599999997
 30
0.0
  0
INSERT
  5
2A5
100
AcDbEntity
  8
None
390
0
 62
               7
100
AcDbBlockReference
  2
pad
 10
4.549499999999977
 20
19.454992599999997
 30
0.0
  0
INSERT
  5
2A6
100
AcDbEntity
  8
None
390
0
 62
               7
100
AcDbBlockReference
  2
pad
 10
5.8194999999999801
 20
19.454992599999997
 30
0.0
  0
INSERT
  5
2A7
100
AcDbEntity
  8
None
390
0
 62
               7
100
AcDbBlockReference
  2
pad
 10
7.0894999999999833
 20
19.454992599999997
 30
0.0
  0
INSERT
  5
2A8
100
AcDbEntity
  8
None
390
0
 62
               7
100
AcDbBlockReference
  2
pad
 10
8.3594999999999864
 20
19.454992599999997
 30
0.0
  0
INSERT
  5
2A9
100
AcDbEntity
  8
None
390
0
 62
               7
100
AcDbBlockReference
  2
pad
 10
9.6294999999999895
 20
19.454992599999997
 30
0.0
  0
INSERT
  5
2AA
100
AcDbEntity
  8
None
390
0
 62
               7
100
AcDbBlockReference
  2
pad
 10
10.899499999999993
 20
19.454992599999997
 30
0.0
  0
INSERT
  5
2AB
100
AcDbEntity
  8
None
390
0
 62
               7
100
AcDbBlockReference
  2
pad
 10
12.169499999999996
 20
19.454992599999997
 30
0.0
  0
INSERT
  5
2AC
100
AcDbEntity
  8
None
390
0
 62
               7
100
AcDbBlockReference
  2
pad
 10
13.439499999999999
 20
19.454992599999997
 30
0.0
  0
INSERT
  5
2AD
100
AcDbEntity
  8
None
390
0
 62
               7
100
AcDbBlockReference
  2
pad
 10
14.709500000000002
 20
19.454992599999997
 30
0.0
  0
INSERT
  5
2AE
100
AcDbEntity
  8
None
390
0
 62
               7
100
AcDbBlockReference
  2
pad
 10
-27.200500000000016
 20
18.184992600000001
 30
0.0
  0
INSERT
  5
2AF
100
AcDbEntity
  8
None
390
0
 62
               7
100
AcDbBlockReference
  2
pad
 10
-25.930500000000016
 20
18.184992600000001
 30
0.0
  0
INSERT
  5
2B0
100
AcDbEntity
  8
None
390
0
 62
               7
100
AcDbBlockReference
  2
pad
 10
-24.660500000000017
 20
18.184992600000001
 30
0.0
  0
INSERT
  5
2B1
100
AcDbEntity
  8
None
390
0
 62
               7
100
AcDbBlockReference
  2
pad
 10
-23.390500000000017
 20
18.184992600000001
 30
0.0
  0
INSERT
  5
2B2
100
AcDbEntity
  8
None
390
0
 62
               7
100
AcDbBlockReference
  2
pad
 10
-22.120500000000018
 20
18.184992600000001
 30
0.0
  0
INSERT
  5
2B3
100
AcDbEntity
  8
None
390
0
 62
               7
100
AcDbBlockReference
  2
pad
 10
-20.850500000000014
 20
18.184992600000001
 30
0.0
  0
INSERT
  5
2B4
100
AcDbEntity
  8
None
390
0
 62
               7
100
AcDbBlockReference
  2
pad
 10
-19.580500000000015
 20
18.184992600000001
 30
0.0
  0
INSERT
  5
2B5
100
AcDbEntity
  8
None
390
0
 62
               7
100
AcDbBlockReference
  2
pad
 10
-18.310500000000019
 20
18.184992600000001
 30
0.0
  0
INSERT
  5
2B6
100
AcDbEntity
  8
None
390
0
 62
               7
100
AcDbBlockReference
  2
pad
 10
-17.040500000000016
 20
18.184992600000001
 30
0.0
  0
INSERT
  5
2B7
100
AcDbEntity
  8
None
390
0
 62
               7
100
AcDbBlockReference
  2
pad
 10
-15.770500000000018
 20
18.184992600000001
 30
0.0
  0
INSERT
  5
2B8
100
AcDbEntity
  8
None
390
0
 62
               7
100
AcDbBlockReference
  2
pad
 10
-14.500500000000018
 20
18.184992600000001
 30
0.0
  0
INSERT
  5
2B9
100
AcDbEntity
  8
None
390
0
 62
               7
100
AcDbBlockReference
  2
pad
 10
-13.230500000000019
 20
18.184992600000001
 30
0.0
  0
INSERT
  5
2BA
100
AcDbEntity
  8
None
390
0
 62
               7
100
AcDbBlockReference
  2
pad
 10
-11.960500000000019
 20
18.184992600000001
 30
0.0
  0
INSERT
  5
2BB
100
AcDbEntity
  8
None
390
0
 62
               7
100
AcDbBlockReference
  2
pad
 10
-10.690500000000018
 20
18.184992600000001
 30
0.0
  0
INSERT
  5
2BC
100
AcDbEntity
  8
None
390
0
 62
               7
100
AcDbBlockReference
  2
pad
 10
-9.4205000000000183
 20
18.184992600000001
 30
0.0
  0
INSERT
  5
2BD
100
AcDbEntity
  8
None
390
0
 62
               7
100
AcDbBlockReference
  2
pad
 10
-8.1505000000000187
 20
18.184992600000001
 30
0.0
  0
INSERT
  5
2BE
100
AcDbEntity
  8
None
390
0
 62
               7
100
AcDbBlockReference
  2
pad
 10
-6.8805000000000192
 20
18.184992600000001
 30
0.0
  0
INSERT
  5
2BF
100
AcDbEntity
  8
None
390
0
 62
               7
100
AcDbBlockReference
  2
pad
 10
-5.6105000000000196
 20
18.184992600000001
 30
0.0
  0
INSERT
  5
2C0
100
AcDbEntity
  8
None
390
0
 62
               7
100
AcDbBlockReference
  2
pad
 10
-4.34050000000002
 20
18.184992600000001
 30
0.0
  0
INSERT
  5
2C1
100
AcDbEntity
  8
None
390
0
 62
               7
100
AcDbBlockReference
  2
pad
 10
-3.0705000000000204
 20
18.184992600000001
 30
0.0
  0
INSERT
  5
2C2
100
AcDbEntity
  8
None
390
0
 62
               7
100
AcDbBlockReference
  2
pad
 10
-1.8005000000000209
 20
18.184992600000001
 30
0.0
  0
INSERT
  5
2C3
100
AcDbEntity
  8
None
390
0
 62
               7
100
AcDbBlockReference
  2
pad
 10
-0.5305000000000213
 20
18.184992600000001
 30
0.0
  0
INSERT
  5
2C4
100
AcDbEntity
  8
None
390
0
 62
               7
100
AcDbBlockReference
  2
pad
 10
0.7394999999999783
 20
18.184992600000001
 30
0.0
  0
INSERT
  5
2C5
100
AcDbEntity
  8
None
390
0
 62
               7
100
AcDbBlockReference
  2
pad
 10
2.0094999999999779
 20
18.184992600000001
 30
0.0
  0
INSERT
  5
2C6
100
AcDbEntity
  8
None
390
0
 62
               7
100
AcDbBlockReference
  2
pad
 10
3.2794999999999774
 20
18.184992600000001
 30
0.0
  0
INSERT
  5
2C7
100
AcDbEntity
  8
None
390
0
 62
               7
100
AcDbBlockReference
  2
pad
 10
4.549499999999977
 20
18.184992600000001
 30
0.0
  0
INSERT
  5
2C8
100
AcDbEntity
  8
None
390
0
 62
               7
100
AcDbBlockReference
  2
pad
 10
5.8194999999999801
 20
18.184992600000001
 30
0.0
  0
INSERT
  5
2C9
100
AcDbEntity
  8
None
390
0
 62
               7
100
AcDbBlockReference
  2
pad
 10
7.0894999999999833
 20
18.184992600000001
 30
0.0
  0
INSERT
  5
2CA
100
AcDbEntity
  8
None
390
0
 62
               7
100
AcDbBlockReference
  2
pad
 10
8.3594999999999864
 20
18.184992600000001
 30
0.0
  0
INSERT
  5
2CB
100
AcDbEntity
  8
None
390
0
 62
               7
100
AcDbBlockReference
  2
pad
 10
9.6294999999999895
 20
18.184992600000001
 30
0.0
  0
INSERT
  5
2CC
100
AcDbEntity
  8
None
390
0
 62
               7
100
AcDbBlockReference
  2
pad
 10
10.899499999999993
 20
18.184992600000001
 30
0.0
  0
INSERT
  5
2CD
100
AcDbEntity
  8
None
390
0
 62
               7
100
AcDbBlockReference
  2
pad
 10
12.169499999999996
 20
18.184992600000001
 30
0.0
  0
INSERT
  5
2CE
100
AcDbEntity
  8
None
390
0
 62
               7
100
AcDbBlockReference
  2
pad
 10
13.439499999999999
 20
18.184992600000001
 30
0.0
  0
INSERT
  5
2CF
100
AcDbEntity
  8
None
390
0
 62
               7
100
AcDbBlockReference
  2
pad
 10
14.709500000000002
 20
18.184992600000001
 30
0.0
  0
INSERT
  5
2D0
100
AcDbEntity
  8
None
390
0
 62
               7
100
AcDbBlockReference
  2
pad
 10
-27.200500000000016
 20
16.914992600000005
 30
0.0
  0
INSERT
  5
2D1
100
AcDbEntity
  8
None
390
0
 62
               7
100
AcDbBlockReference
  2
pad
 10
-25.930500000000016
 20
16.914992600000005
 30
0.0
  0
INSERT
  5
2D2
100
AcDbEntity
  8
None
390
0
 62
               7
100
AcDbBlockReference
  2
pad
 10
-24.660500000000017
 20
16.914992600000005
 30
0.0
  0
INSERT
  5
2D3
100
AcDbEntity
  8
None
390
0
 62
               7
100
AcDbBlockReference
  2
pad
 10
-23.390500000000017
 20
16.914992600000005
 30
0.0
  0
INSERT
  5
2D4
100
AcDbEntity
  8
None
390
0
 62
               7
100
AcDbBlockReference
  2
pad
 10
-22.120500000000018
 20
16.914992600000005
 30
0.0
  0
INSERT
  5
2D5
100
AcDbEntity
  8
None
390
0
 62
               7
100
AcDbBlockReference
  2
pad
 10
-20.850500000000014
 20
16.914992600000005
 30
0.0
  0
INSERT
  5
2D6
100
AcDbEntity
  8
None
390
0
 62
               7
100
AcDbBlockReference
  2
pad
 10
-19.580500000000015
 20
16.914992600000005
 30
0.0
  0
INSERT
  5
2D7
100
AcDbEntity
  8
None
390
0
 62
               7
100
AcDbBlockReference
  2
pad
 10
-18.310500000000019
 20
16.914992600000005
 30
0.0
  0
INSERT
  5
2D8
100
AcDbEntity
  8
None
390
0
 62
               7
100
AcDbBlockReference
  2
pad
 10
-17.040500000000016
 20
16.914992600000005
 30
0.0
  0
INSERT
  5
2D9
100
AcDbEntity
  8
None
390
0
 62
               7
100
AcDbBlockReference
  2
pad
 10
-15.770500000000018
 20
16.914992600000005
 30
0.0
  0
INSERT
  5
2DA
100
AcDbEntity
  8
None
390
0
 62
               7
100
AcDbBlockReference
  2
pad
 10
-14.500500000000018
 20
16.914992600000005
 30
0.0
  0
INSERT
  5
2DB
100
AcDbEntity
  8
None
390
0
 62
               7
100
AcDbBlockReference
  2
pad
 10
-13.230500000000019
 20
16.914992600000005
 30
0.0
  0
INSERT
  5
2DC
100
AcDbEntity
  8
None
390
0
 62
               7
100
AcDbBlockReference
  2
pad
 10
-11.960500000000019
 20
16.914992600000005
 30
0.0
  0
INSERT
  5
2DD
100
AcDbEntity
  8
None
390
0
 62
               7
100
AcDbBlockReference
  2
pad
 10
-10.690500000000018
 20
16.914992600000005
 30
0.0
  0
INSERT
  5
2DE
100
AcDbEntity
  8
None
390
0
 62
               7
100
AcDbBlockReference
  2
pad
 10
-9.4205000000000183
 20
16.914992600000005
 30
0.0
  0
INSERT
  5
2DF
100
AcDbEntity
  8
None
390
0
 62
               7
100
AcDbBlockReference
  2
pad
 10
-8.1505000000000187
 20
16.914992600000005
 30
0.0
  0
INSERT
  5
2E0
100
AcDbEntity
  8
None
390
0
 62
               7
100
AcDbBlockReference
  2
pad
 10
-6.8805000000000192
 20
16.914992600000005
 30
0.0
  0
INSERT
  5
2E1
100
AcDbEntity
  8
None
390
0
 62
               7
100
AcDbBlockReference
  2
pad
 10
-5.6105000000000196
 20
16.914992600000005
 30
0.0
  0
INSERT
  5
2E2
100
AcDbEntity
  8
None
390
0
 62
               7
100
AcDbBlockReference
  2
pad
 10
-4.34050000000002
 20
16.914992600000005
 30
0.0
  0
INSERT
  5
2E3
100
AcDbEntity
  8
None
390
0
 62
               7
100
AcDbBlockReference
  2
pad
 10
-3.0705000000000204
 20
16.914992600000005
 30
0.0
  0
INSERT
  5
2E4
100
AcDbEntity
  8
None
390
0
 62
               7
100
AcDbBlockReference
  2
pad
 10
-1.8005000000000209
 20
16.914992600000005
 30
0.0
  0
INSERT
  5
2E5
100
AcDbEntity
  8
None
390
0
 62
               7
100
AcDbBlockReference
  2
pad
 10
-0.5305000000000213
 20
16.914992600000005
 30
0.0
  0
INSERT
  5
2E6
100
AcDbEntity
  8
None
390
0
 62
               7
100
AcDbBlockReference
  2
pad
 10
0.7394999999999783
 20
16.914992600000005
 30
0.0
  0
INSERT
  5
2E7
100
AcDbEntity
  8
None
390
0
 62
               7
100
AcDbBlockReference
  2
pad
 10
2.0094999999999779
 20
16.914992600000005
 30
0.0
  0
INSERT
  5
2E8
100
AcDbEntity
  8
None
390
0
 62
               7
100
AcDbBlockReference
  2
pad
 10
3.2794999999999774
 20
16.914992600000005
 30
0.0
  0
INSERT
  5
2E9
100
AcDbEntity
  8
None
390
0
 62
               7
100
AcDbBlockReference
  2
pad
 10
4.549499999999977
 20
16.914992600000005
 30
0.0
  0
INSERT
  5
2EA
100
AcDbEntity
  8
None
390
0
 62
               7
100
AcDbBlockReference
  2
pad
 10
5.8194999999999801
 20
16.914992600000005
 30
0.0
  0
INSERT
  5
2EB
100
AcDbEntity
  8
None
390
0
 62
               7
100
AcDbBlockReference
  2
pad
 10
7.0894999999999833
 20
16.914992600000005
 30
0.0
  0
INSERT
  5
2EC
100
AcDbEntity
  8
None
390
0
 62
               7
100
AcDbBlockReference
  2
pad
 10
8.3594999999999864
 20
16.914992600000005
 30
0.0
  0
INSERT
  5
2ED
100
AcDbEntity
  8
None
390
0
 62
               7
100
AcDbBlockReference
  2
pad
 10
9.6294999999999895
 20
16.914992600000005
 30
0.0
  0
INSERT
  5
2EE
100
AcDbEntity
  8
None
390
0
 62
               7
100
AcDbBlockReference
  2
pad
 10
10.899499999999993
 20
16.914992600000005
 30
0.0
  0
INSERT
  5
2EF
100
AcDbEntity
  8
None
390
0
 62
               7
100
AcDbBlockReference
  2
pad
 10
12.169499999999996
 20
16.914992600000005
 30
0.0
  0
INSERT
  5
2F0
100
AcDbEntity
  8
None
390
0
 62
               7
100
AcDbBlockReference
  2
pad
 10
13.439499999999999
 20
16.914992600000005
 30
0.0
  0
INSERT
  5
2F1
100
AcDbEntity
  8
None
390
0
 62
               7
100
AcDbBlockReference
  2
pad
 10
14.709500000000002
 20
16.914992600000005
 30
0.0
  0
INSERT
  5
2F2
100
AcDbEntity
  8
None
390
0
 62
               7
100
AcDbBlockReference
  2
pad
 10
-27.200500000000016
 20
15.644992600000002
 30
0.0
  0
INSERT
  5
2F3
100
AcDbEntity
  8
None
390
0
 62
               7
100
AcDbBlockReference
  2
pad
 10
-25.930500000000016
 20
15.644992600000002
 30
0.0
  0
INSERT
  5
2F4
100
AcDbEntity
  8
None
390
0
 62
               7
100
AcDbBlockReference
  2
pad
 10
-24.660500000000017
 20
15.644992600000002
 30
0.0
  0
INSERT
  5
2F5
100
AcDbEntity
  8
None
390
0
 62
               7
100
AcDbBlockReference
  2
pad
 10
-23.390500000000017
 20
15.644992600000002
 30
0.0
  0
INSERT
  5
2F6
100
AcDbEntity
  8
None
390
0
 62
               7
100
AcDbBlockReference
  2
pad
 10
-22.120500000000018
 20
15.644992600000002
 30
0.0
  0
INSERT
  5
2F7
100
AcDbEntity
  8
None
390
0
 62
               7
100
AcDbBlockReference
  2
pad
 10
-20.850500000000014
 20
15.644992600000002
 30
0.0
  0
INSERT
  5
2F8
100
AcDbEntity
  8
None
390
0
 62
               7
100
AcDbBlockReference
  2
pad
 10
-19.580500000000015
 20
15.644992600000002
 30
0.0
  0
INSERT
  5
2F9
100
AcDbEntity
  8
None
390
0
 62
               7
100
AcDbBlockReference
  2
pad
 10
-18.310500000000019
 20
15.644992600000002
 30
0.0
  0
INSERT
  5
2FA
100
AcDbEntity
  8
None
390
0
 62
               7
100
AcDbBlockReference
  2
pad
 10
-17.040500000000016
 20
15.644992600000002
 30
0.0
  0
INSERT
  5
2FB
100
AcDbEntity
  8
None
390
0
 62
               7
100
AcDbBlockReference
  2
pad
 10
-15.770500000000018
 20
15.644992600000002
 30
0.0
  0
INSERT
  5
2FC
100
AcDbEntity
  8
None
390
0
 62
               7
100
AcDbBlockReference
  2
pad
 10
-14.500500000000018
 20
15.644992600000002
 30
0.0
  0
INSERT
  5
2FD
100
AcDbEntity
  8
None
390
0
 62
               7
100
AcDbBlockReference
  2
pad
 10
-13.230500000000019
 20
15.644992600000002
 30
0.0
  0
INSERT
  5
2FE
100
AcDbEntity
  8
None
390
0
 62
               7
100
AcDbBlockReference
  2
pad
 10
-11.960500000000019
 20
15.644992600000002
 30
0.0
  0
INSERT
  5
2FF
100
AcDbEntity
  8
None
390
0
 62
               7
100
AcDbBlockReference
  2
pad
 10
-10.690500000000018
 20
15.644992600000002
 30
0.0
  0
INSERT
  5
300
100
AcDbEntity
  8
None
390
0
 62
               7
100
AcDbBlockReference
  2
pad
 10
-9.4205000000000183
 20
15.644992600000002
 30
0.0
  0
INSERT
  5
301
100
AcDbEntity
  8
None
390
0
 62
               7
100
AcDbBlockReference
  2
pad
 10
-8.1505000000000187
 20
15.644992600000002
 30
0.0
  0
INSERT
  5
302
100
AcDbEntity
  8
None
390
0
 62
               7
100
AcDbBlockReference
  2
pad
 10
-6.8805000000000192
 20
15.644992600000002
 30
0.0
  0
INSERT
  5
303
100
AcDbEntity
  8
None
390
0
 62
               7
100
AcDbBlockReference
  2
pad
 10
-5.6105000000000196
 20
15.644992600000002
 30
0.0
  0
INSERT
  5
304
100
AcDbEntity
  8
None
390
0
 62
               7
100
AcDbBlockReference
  2
pad
 10
-4.34050000000002
 20
15.644992600000002
 30
0.0
  0
INSERT
  5
305
100
AcDbEntity
  8
None
390
0
 62
               7
100
AcDbBlockReference
  2
pad
 10
-3.0705000000000204
 20
15.644992600000002
 30
0.0
  0
INSERT
  5
306
100
AcDbEntity
  8
None
390
0
 62
               7
100
AcDbBlockReference
  2
pad
 10
-1.8005000000000209
 20
15.644992600000002
 30
0.0
  0
INSERT
  5
307
100
AcDbEntity
  8
None
390
0
 62
               7
100
AcDbBlockReference
  2
pad
 10
-0.5305000000000213
 20
15.644992600000002
 30
0.0
  0
INSERT
  5
308
100
AcDbEntity
  8
None
390
0
 62
               7
100
AcDbBlockReference
  2
pad
 10
0.7394999999999783
 20
15.644992600000002
 30
0.0
  0
INSERT
  5
309
100
AcDbEntity
  8
None
390
0
 62
               7
100
AcDbBlockReference
  2
pad
 10
2.0094999999999779
 20
15.644992600000002
 30
0.0
  0
INSERT
  5
30A
100
AcDbEntity
  8
None
390
0
 62
               7
100
AcDbBlockReference
  2
pad
 10
3.2794999999999774
 20
15.644992600000002
 30
0.0
  0
INSERT
  5
30B
100
AcDbEntity
  8
None
390
0
 62
               7
100
AcDbBlockReference
  2
pad
 10
4.549499999999977
 20
15.644992600000002
 30
0.0
  0
INSERT
  5
30C
100
AcDbEntity
  8
None
390
0
 62
               7
100
AcDbBlockReference
  2
pad
 10
5.8194999999999801
 20
15.644992600000002
 30
0.0
  0
INSERT
  5
30D
100
AcDbEntity
  8
None
390
0
 62
               7
100
AcDbBlockReference
  2
pad
 10
7.0894999999999833
 20
15.644992600000002
 30
0.0
  0
INSERT
  5
30E
100
AcDbEntity
  8
None
390
0
 62
               7
100
AcDbBlockReference
  2
pad
 10
8.3594999999999864
 20
15.644992600000002
 30
0.0
  0
INSERT
  5
30F
100
AcDbEntity
  8
None
390
0
 62
               7
100
AcDbBlockReference
  2
pad
 10
9.6294999999999895
 20
15.644992600000002
 30
0.0
  0
INSERT
  5
310
100
AcDbEntity
  8
None
390
0
 62
               7
100
AcDbBlockReference
  2
pad
 10
10.899499999999993
 20
15.644992600000002
 30
0.0
  0
INSERT
  5
311
100
AcDbEntity
  8
None
390
0
 62
               7
100
AcDbBlockReference
  2
pad
 10
12.169499999999996
 20
15.644992600000002
 30
0.0
  0
INSERT
  5
312
100
AcDbEntity
  8
None
390
0
 62
               7
100
AcDbBlockReference
  2
pad
 10
13.439499999999999
 20
15.644992600000002
 30
0.0
  0
INSERT
  5
313
100
AcDbEntity
  8
None
390
0
 62
               7
100
AcDbBlockReference
  2
pad
 10
14.709500000000002
 20
15.644992600000002
 30
0.0
  0
INSERT
  5
314
100
AcDbEntity
  8
None
390
0
 62
               7
100
AcDbBlockReference
  2
pad
 10
-27.200500000000016
 20
14.374992599999999
 30
0.0
  0
INSERT
  5
315
100
AcDbEntity
  8
None
390
0
 62
               7
100
AcDbBlockReference
  2
pad
 10
-25.930500000000016
 20
14.374992599999999
 30
0.0
  0
INSERT
  5
316
100
AcDbEntity
  8
None
390
0
 62
               7
100
AcDbBlockReference
  2
pad
 10
-24.660500000000017
 20
14.374992599999999
 30
0.0
  0
INSERT
  5
317
100
AcDbEntity
  8
None
390
0
 62
               7
100
AcDbBlockReference
  2
pad
 10
-23.390500000000017
 20
14.374992599999999
 30
0.0
  0
INSERT
  5
318
100
AcDbEntity
  8
None
390
0
 62
               7
100
AcDbBlockReference
  2
pad
 10
-22.120500000000018
 20
14.374992599999999
 30
0.0
  0
INSERT
  5
319
100
AcDbEntity
  8
None
390
0
 62
               7
100
AcDbBlockReference
  2
pad
 10
-20.850500000000014
 20
14.374992599999999
 30
0.0
  0
INSERT
  5
31A
100
AcDbEntity
  8
None
390
0
 62
               7
100
AcDbBlockReference
  2
pad
 10
-19.580500000000015
 20
14.374992599999999
 30
0.0
  0
INSERT
  5
31B
100
AcDbEntity
  8
None
390
0
 62
               7
100
AcDbBlockReference
  2
pad
 10
-18.310500000000019
 20
14.374992599999999
 30
0.0
  0
INSERT
  5
31C
100
AcDbEntity
  8
None
390
0
 62
               7
100
AcDbBlockReference
  2
pad
 10
-17.040500000000016
 20
14.374992599999999
 30
0.0
  0
INSERT
  5
31D
100
AcDbEntity
  8
None
390
0
 62
               7
100
AcDbBlockReference
  2
pad
 10
-15.770500000000018
 20
14.374992599999999
 30
0.0
  0
INSERT
  5
31E
100
AcDbEntity
  8
None
390
0
 62
               7
100
AcDbBlockReference
  2
pad
 10
-14.500500000000018
 20
14.374992599999999
 30
0.0
  0
INSERT
  5
31F
100
AcDbEntity
  8
None
390
0
 62
               7
100
AcDbBlockReference
  2
pad
 10
-13.230500000000019
 20
14.374992599999999
 30
0.0
  0
INSERT
  5
320
100
AcDbEntity
  8
None
390
0
 62
               7
100
AcDbBlockReference
  2
pad
 10
-11.960500000000019
 20
14.374992599999999
 30
0.0
  0
INSERT
  5
321
100
AcDbEntity
  8
None
390
0
 62
               7
100
AcDbBlockReference
  2
pad
 10
-10.690500000000018
 20
14.374992599999999
 30
0.0
  0
INSERT
  5
322
100
AcDbEntity
  8
None
390
0
 62
               7
100
AcDbBlockReference
  2
pad
 10
-9.4205000000000183
 20
14.374992599999999
 30
0.0
  0
INSERT
  5
323
100
AcDbEntity
  8
None
390
0
 62
               7
100
AcDbBlockReference
  2
pad
 10
-8.1505000000000187
 20
14.374992599999999
 30
0.0
  0
INSERT
  5
324
100
AcDbEntity
  8
None
390
0
 62
               7
100
AcDbBlockReference
  2
pad
 10
-6.8805000000000192
 20
14.374992599999999
 30
0.0
  0
INSERT
  5
325
100
AcDbEntity
  8
None
390
0
 62
               7
100
AcDbBlockReference
  2
pad
 10
-5.6105000000000196
 20
14.374992599999999
 30
0.0
  0
INSERT
  5
326
100
AcDbEntity
  8
None
390
0
 62
               7
100
AcDbBlockReference
  2
pad
 10
-4.34050000000002
 20
14.374992599999999
 30
0.0
  0
INSERT
  5
327
100
AcDbEntity
  8
None
390
0
 62
               7
100
AcDbBlockReference
  2
pad
 10
-3.0705000000000204
 20
14.374992599999999
 30
0.0
  0
INSERT
  5
328
100
AcDbEntity
  8
None
390
0
 62
               7
100
AcDbBlockReference
  2
pad
 10
-1.8005000000000209
 20
14.374992599999999
 30
0.0
  0
INSERT
  5
329
100
AcDbEntity
  8
None
390
0
 62
               7
100
AcDbBlockReference
  2
pad
 10
-0.5305000000000213
 20
14.374992599999999
 30
0.0
  0
INSERT
  5
32A
100
AcDbEntity
  8
None
390
0
 62
               7
100
AcDbBlockReference
  2
pad
 10
0.7394999999999783
 20
14.374992599999999
 30
0.0
  0
INSERT
  5
32B
100
AcDbEntity
  8
None
390
0
 62
               7
100
AcDbBlockReference
  2
pad
 10
2.0094999999999779
 20
14.374992599999999
 30
0.0
  0
INSERT
  5
32C
100
AcDbEntity
  8
None
390
0
 62
               7
100
AcDbBlockReference
  2
pad
 10
3.2794999999999774
 20
14.374992599999999
 30
0.0
  0
INSERT
  5
32D
100
AcDbEntity
  8
None
390
0
 62
               7
100
AcDbBlockReference
  2
pad
 10
4.549499999999977
 20
14.374992599999999
 30
0.0
  0
INSERT
  5
32E
100
AcDbEntity
  8
None
390
0
 62
               7
100
AcDbBlockReference
  2
pad
 10
5.8194999999999801
 20
14.374992599999999
 30
0.0
  0
INSERT
  5
32F
100
AcDbEntity
  8
None
390
0
 62
               7
100
AcDbBlockReference
  2
pad
 10
7.0894999999999833
 20
14.374992599999999
 30
0.0
  0
INSERT
  5
330
100
AcDbEntity
  8
None
390
0
 62
               7
100
AcDbBlockReference
  2
pad
 10
8.3594999999999864
 20
14.374992599999999
 30
0.0
  0
INSERT
  5
331
100
AcDbEntity
  8
None
390
0
 62
               7
100
AcDbBlockReference
  2
pad
 10
9.6294999999999895
 20
14.374992599999999
 30
0.0
  0
INSERT
  5
332
100
AcDbEntity
  8
None
390
0
 62
               7
100
AcDbBlockReference
  2
pad
 10
10.899499999999993
 20
14.374992599999999
 30
0.0
  0
INSERT
  5
333
100
AcDbEntity
  8
None
390
0
 62
               7
100
AcDbBlockReference
  2
pad
 10
12.169499999999996
 20
14.374992599999999
 30
0.0
  0
INSERT
  5
334
100
AcDbEntity
  8
None
390
0
 62
               7
100
AcDbBlockReference
  2
pad
 10
13.439499999999999
 20
14.374992599999999
 30
0.0
  0
INSERT
  5
335
100
AcDbEntity
  8
None
390
0
 62
               7
100
AcDbBlockReference
  2
pad
 10
14.709500000000002
 20
14.374992599999999
 30
0.0
  0
INSERT
  5
336
100
AcDbEntity
  8
None
390
0
 62
               7
100
AcDbBlockReference
  2
pad
 10
-27.200500000000016
 20
13.104992600000003
 30
0.0
  0
INSERT
  5
337
100
AcDbEntity
  8
None
390
0
 62
               7
100
AcDbBlockReference
  2
pad
 10
-25.930500000000016
 20
13.104992600000003
 30
0.0
  0
INSERT
  5
338
100
AcDbEntity
  8
None
390
0
 62
               7
100
AcDbBlockReference
  2
pad
 10
-24.660500000000017
 20
13.104992600000003
 30
0.0
  0
INSERT
  5
339
100
AcDbEntity
  8
None
390
0
 62
               7
100
AcDbBlockReference
  2
pad
 10
-23.390500000000017
 20
13.104992600000003
 30
0.0
  0
INSERT
  5
33A
100
AcDbEntity
  8
None
390
0
 62
               7
100
AcDbBlockReference
  2
pad
 10
-22.120500000000018
 20
13.104992600000003
 30
0.0
  0
INSERT
  5
33B
100
AcDbEntity
  8
None
390
0
 62
               7
100
AcDbBlockReference
  2
pad
 10
-20.850500000000014
 20
13.104992600000003
 30
0.0
  0
INSERT
  5
33C
100
AcDbEntity
  8
None
390
0
 62
               7
100
AcDbBlockReference
  2
pad
 10
-19.580500000000015
 20
13.104992600000003
 30
0.0
  0
INSERT
  5
33D
100
AcDbEntity
  8
None
390
0
 62
               7
100
AcDbBlockReference
  2
pad
 10
-18.310500000000019
 20
13.104992600000003
 30
0.0
  0
INSERT
  5
33E
100
AcDbEntity
  8
None
390
0
 62
               7
100
AcDbBlockReference
  2
pad
 10
-17.040500000000016
 20
13.104992600000003
 30
0.0
  0
INSERT
  5
33F
100
AcDbEntity
  8
None
390
0
 62
               7
100
AcDbBlockReference
  2
pad
 10
-15.770500000000018
 20
13.104992600000003
 30
0.0
  0
INSERT
  5
340
100
AcDbEntity
  8
None
390
0
 62
               7
100
AcDbBlockReference
  2
pad
 10
-14.500500000000018
 20
13.104992600000003
 30
0.0
  0
INSERT
  5
341
100
AcDbEntity
  8
None
390
0
 62
               7
100
AcDbBlockReference
  2
pad
 10
-13.230500000000019
 20
13.104992600000003
 30
0.0
  0
INSERT
  5
342
100
AcDbEntity
  8
None
390
0
 62
               7
100
AcDbBlockReference
  2
pad
 10
-11.960500000000019
 20
13.104992600000003
 30
0.0
  0
INSERT
  5
343
100
AcDbEntity
  8
None
390
0
 62
               7
100
AcDbBlockReference
  2
pad
 10
-10.690500000000018
 20
13.104992600000003
 30
0.0
  0
INSERT
  5
344
100
AcDbEntity
  8
None
390
0
 62
               7
100
AcDbBlockReference
  2
pad
 10
-9.4205000000000183
 20
13.104992600000003
 30
0.0
  0
INSERT
  5
345
100
AcDbEntity
  8
None
390
0
 62
               7
100
AcDbBlockReference
  2
pad
 10
-8.1505000000000187
 20
13.104992600000003
 30
0.0
  0
INSERT
  5
346
100
AcDbEntity
  8
None
390
0
 62
               7
100
AcDbBlockReference
  2
pad
 10
-6.8805000000000192
 20
13.104992600000003
 30
0.0
  0
INSERT
  5
347
100
AcDbEntity
  8
None
390
0
 62
               7
100
AcDbBlockReference
  2
pad
 10
-5.6105000000000196
 20
13.104992600000003
 30
0.0
  0
INSERT
  5
348
100
AcDbEntity
  8
None
390
0
 62
               7
100
AcDbBlockReference
  2
pad
 10
-4.34050000000002
 20
13.104992600000003
 30
0.0
  0
INSERT
  5
349
100
AcDbEntity
  8
None
390
0
 62
               7
100
AcDbBlockReference
  2
pad
 10
-3.0705000000000204
 20
13.104992600000003
 30
0.0
  0
INSERT
  5
34A
100
AcDbEntity
  8
None
390
0
 62
               7
100
AcDbBlockReference
  2
pad
 10
-1.8005000000000209
 20
13.104992600000003
 30
0.0
  0
INSERT
  5
34B
100
AcDbEntity
  8
None
390
0
 62
               7
100
AcDbBlockReference
  2
pad
 10
-0.5305000000000213
 20
13.104992600000003
 30
0.0
  0
INSERT
  5
34C
100
AcDbEntity
  8
None
390
0
 62
               7
100
AcDbBlockReference
  2
pad
 10
0.7394999999999783
 20
13.104992600000003
 30
0.0
  0
INSERT
  5
34D
100
AcDbEntity
  8
None
390
0
 62
               7
100
AcDbBlockReference
  2
pad
 10
2.0094999999999779
 20
13.104992600000003
 30
0.0
  0
INSERT
  5
34E
100
AcDbEntity
  8
None
390
0
 62
               7
100
AcDbBlockReference
  2
pad
 10
3.2794999999999774
 20
13.104992600000003
 30
0.0
  0
INSERT
  5
34F
100
AcDbEntity
  8
None
390
0
 62
               7
100
AcDbBlockReference
  2
pad
 10
4.549499999999977
 20
13.104992600000003
 30
0.0
  0
INSERT
  5
350
100
AcDbEntity
  8
None
390
0
 62
               7
100
AcDbBlockReference
  2
pad
 10
5.8194999999999801
 20
13.104992600000003
 30
0.0
  0
INSERT
  5
351
100
AcDbEntity
  8
None
390
0
 62
               7
100
AcDbBlockReference
  2
pad
 10
7.0894999999999833
 20
13.104992600000003
 30
0.0
  0
INSERT
  5
352
100
AcDbEntity
  8
None
390
0
 62
               7
100
AcDbBlockReference
  2
pad
 10
8.3594999999999864
 20
13.104992600000003
 30
0.0
  0
INSERT
  5
353
100
AcDbEntity
  8
None
390
0
 62
               7
100
AcDbBlockReference
  2
pad
 10
9.6294999999999895
 20
13.104992600000003
 30
0.0
  0
INSERT
  5
354
100
AcDbEntity
  8
None
390
0
 62
               7
100
AcDbBlockReference
  2
pad
 10
10.899499999999993
 20
13.104992600000003
 30
0.0
  0
INSERT
  5
355
100
AcDbEntity
  8
None
390
0
 62
               7
100
AcDbBlockReference
  2
pad
 10
12.169499999999996
 20
13.104992600000003
 30
0.0
  0
INSERT
  5
356
100
AcDbEntity
  8
None
390
0
 62
               7
100
AcDbBlockReference
  2
pad
 10
13.439499999999999
 20
13.104992600000003
 30
0.0
  0
INSERT
  5
357
100
AcDbEntity
  8
None
390
0
 62
               7
100
AcDbBlockReference
  2
pad
 10
14.709500000000002
 20
13.104992600000003
 30
0.0
  0
INSERT
  5
358
100
AcDbEntity
  8
None
390
0
 62
               7
100
AcDbBlockReference
  2
pad
 10
-27.200500000000016
 20
11.834992600000007
 30
0.0
  0
INSERT
  5
359
100
AcDbEntity
  8
None
390
0
 62
               7
100
AcDbBlockReference
  2
pad
 10
-25.930500000000016
 20
11.834992600000007
 30
0.0
  0
INSERT
  5
35A
100
AcDbEntity
  8
None
390
0
 62
               7
100
AcDbBlockReference
  2
pad
 10
-24.660500000000017
 20
11.834992600000007
 30
0.0
  0
INSERT
  5
35B
100
AcDbEntity
  8
None
390
0
 62
               7
100
AcDbBlockReference
  2
pad
 10
-23.390500000000017
 20
11.834992600000007
 30
0.0
  0
INSERT
  5
35C
100
AcDbEntity
  8
None
390
0
 62
               7
100
AcDbBlockReference
  2
pad
 10
-22.120500000000018
 20
11.834992600000007
 30
0.0
  0
INSERT
  5
35D
100
AcDbEntity
  8
None
390
0
 62
               7
100
AcDbBlockReference
  2
pad
 10
-20.850500000000014
 20
11.834992600000007
 30
0.0
  0
INSERT
  5
35E
100
AcDbEntity
  8
None
390
0
 62
               7
100
AcDbBlockReference
  2
pad
 10
-19.580500000000015
 20
11.834992600000007
 30
0.0
  0
INSERT
  5
35F
100
AcDbEntity
  8
None
390
0
 62
               7
100
AcDbBlockReference
  2
pad
 10
-18.310500000000019
 20
11.834992600000007
 30
0.0
  0
INSERT
  5
360
100
AcDbEntity
  8
None
390
0
 62
               7
100
AcDbBlockReference
  2
pad
 10
-17.040500000000016
 20
11.834992600000007
 30
0.0
  0
INSERT
  5
361
100
AcDbEntity
  8
None
390
0
 62
               7
100
AcDbBlockReference
  2
pad
 10
-15.770500000000018
 20
11.834992600000007
 30
0.0
  0
INSERT
  5
362
100
AcDbEntity
  8
None
390
0
 62
               7
100
AcDbBlockReference
  2
pad
 10
-14.500500000000018
 20
11.834992600000007
 30
0.0
  0
INSERT
  5
363
100
AcDbEntity
  8
None
390
0
 62
               7
100
AcDbBlockReference
  2
pad
 10
-13.230500000000019
 20
11.834992600000007
 30
0.0
  0
INSERT
  5
364
100
AcDbEntity
  8
None
390
0
 62
               7
100
AcDbBlockReference
  2
pad
 10
-11.960500000000019
 20
11.834992600000007
 30
0.0
  0
INSERT
  5
365
100
AcDbEntity
  8
None
390
0
 62
               7
100
AcDbBlockReference
  2
pad
 10
-10.690500000000018
 20
11.834992600000007
 30
0.0
  0
INSERT
  5
366
100
AcDbEntity
  8
None
390
0
 62
               7
100
AcDbBlockReference
  2
pad
 10
-9.4205000000000183
 20
11.834992600000007
 30
0.0
  0
INSERT
  5
367
100
AcDbEntity
  8
None
390
0
 62
               7
100
AcDbBlockReference
  2
pad
 10
-8.1505000000000187
 20
11.834992600000007
 30
0.0
  0
INSERT
  5
368
100
AcDbEntity
  8
None
390
0
 62
               7
100
AcDbBlockReference
  2
pad
 10
-6.8805000000000192
 20
11.834992600000007
 30
0.0
  0
INSERT
  5
369
100
AcDbEntity
  8
None
390
0
 62
               7
100
AcDbBlockReference
  2
pad
 10
-5.6105000000000196
 20
11.834992600000007
 30
0.0
  0
INSERT
  5
36A
100
AcDbEntity
  8
None
390
0
 62
               7
100
AcDbBlockReference
  2
pad
 10
-4.34050000000002
 20
11.834992600000007
 30
0.0
  0
INSERT
  5
36B
100
AcDbEntity
  8
None
390
0
 62
               7
100
AcDbBlockReference
  2
pad
 10
-3.0705000000000204
 20
11.834992600000007
 30
0.0
  0
INSERT
  5
36C
100
AcDbEntity
  8
None
390
0
 62
               7
100
AcDbBlockReference
  2
pad
 10
-1.8005000000000209
 20
11.834992600000007
 30
0.0
  0
INSERT
  5
36D
100
AcDbEntity
  8
None
390
0
 62
               7
100
AcDbBlockReference
  2
pad
 10
-0.5305000000000213
 20
11.834992600000007
 30
0.0
  0
INSERT
  5
36E
100
AcDbEntity
  8
None
390
0
 62
               7
100
AcDbBlockReference
  2
pad
 10
0.7394999999999783
 20
11.834992600000007
 30
0.0
  0
INSERT
  5
36F
100
AcDbEntity
  8
None
390
0
 62
               7
100
AcDbBlockReference
  2
pad
 10
2.0094999999999779
 20
11.834992600000007
 30
0.0
  0
INSERT
  5
370
100
AcDbEntity
  8
None
390
0
 62
               7
100
AcDbBlockReference
  2
pad
 10
3.2794999999999774
 20
11.834992600000007
 30
0.0
  0
INSERT
  5
371
100
AcDbEntity
  8
None
390
0
 62
               7
100
AcDbBlockReference
  2
pad
 10
4.549499999999977
 20
11.834992600000007
 30
0.0
  0
INSERT
  5
372
100
AcDbEntity
  8
None
390
0
 62
               7
100
AcDbBlockReference
  2
pad
 10
5.8194999999999801
 20
11.834992600000007
 30
0.0
  0
INSERT
  5
373
100
AcDbEntity
  8
None
390
0
 62
               7
100
AcDbBlockReference
  2
pad
 10
7.0894999999999833
 20
11.834992600000007
 30
0.0
  0
INSERT
  5
374
100
AcDbEntity
  8
None
390
0
 62
               7
100
AcDbBlockReference
  2
pad
 10
8.3594999999999864
 20
11.834992600000007
 30
0.0
  0
INSERT
  5
375
100
AcDbEntity
  8
None
390
0
 62
               7
100
AcDbBlockReference
  2
pad
 10
9.6294999999999895
 20
11.834992600000007
 30
0.0
  0
INSERT
  5
376
100
AcDbEntity
  8
None
390
0
 62
               7
100
AcDbBlockReference
  2
pad
 10
10.899499999999993
 20
11.834992600000007
 30
0.0
  0
INSERT
  5
377
100
AcDbEntity
  8
None
390
0
 62
               7
100
AcDbBlockReference
  2
pad
 10
12.169499999999996
 20
11.834992600000007
 30
0.0
  0
INSERT
  5
378
100
AcDbEntity
  8
None
390
0
 62
               7
100
AcDbBlockReference
  2
pad
 10
13.439499999999999
 20
11.834992600000007
 30
0.0
  0
INSERT
  5
379
100
AcDbEntity
  8
None
390
0
 62
               7
100
AcDbBlockReference
  2
pad
 10
14.709500000000002
 20
11.834992600000007
 30
0.0
  0
INSERT
  5
37A
100
AcDbEntity
  8
None
390
0
 62
               7
100
AcDbBlockReference
  2
pad
 10
-27.200500000000016
 20
10.564992600000004
 30
0.0
  0
INSERT
  5
37B
100
AcDbEntity
  8
None
390
0
 62
               7
100
AcDbBlockReference
  2
pad
 10
-25.930500000000016
 20
10.564992600000004
 30
0.0
  0
INSERT
  5
37C
100
AcDbEntity
  8
None
390
0
 62
               7
100
AcDbBlockReference
  2
pad
 10
-24.660500000000017
 20
10.564992600000004
 30
0.0
  0
INSERT
  5
37D
100
AcDbEntity
  8
None
390
0
 62
               7
100
AcDbBlockReference
  2
pad
 10
-23.390500000000017
 20
10.564992600000004
 30
0.0
  0
INSERT
  5
37E
100
AcDbEntity
  8
None
390
0
 62
               7
100
AcDbBlockReference
  2
pad
 10
-22.120500000000018
 20
10.564992600000004
 30
0.0
  0
INSERT
  5
37F
100
AcDbEntity
  8
None
390
0
 62
               7
100
AcDbBlockReference
  2
pad
 10
-20.850500000000014
 20
10.564992600000004
 30
0.0
  0
INSERT
  5
380
100
AcDbEntity
  8
None
390
0
 62
               7
100
AcDbBlockReference
  2
pad
 10
-19.580500000000015
 20
10.564992600000004
 30
0.0
  0
INSERT
  5
381
100
AcDbEntity
  8
None
390
0
 62
               7
100
AcDbBlockReference
  2
pad
 10
-18.310500000000019
 20
10.564992600000004
 30
0.0
  0
INSERT
  5
382
100
AcDbEntity
  8
None
390
0
 62
               7
100
AcDbBlockReference
  2
pad
 10
-17.040500000000016
 20
10.564992600000004
 30
0.0
  0
INSERT
  5
383
100
AcDbEntity
  8
None
390
0
 62
               7
100
AcDbBlockReference
  2
pad
 10
-15.770500000000018
 20
10.564992600000004
 30
0.0
  0
INSERT
  5
384
100
AcDbEntity
  8
None
390
0
 62
               7
100
AcDbBlockReference
  2
pad
 10
-14.500500000000018
 20
10.564992600000004
 30
0.0
  0
INSERT
  5
385
100
AcDbEntity
  8
None
390
0
 62
               7
100
AcDbBlockReference
  2
pad
 10
-13.230500000000019
 20
10.564992600000004
 30
0.0
  0
INSERT
  5
386
100
AcDbEntity
  8
None
390
0
 62
               7
100
AcDbBlockReference
  2
pad
 10
-11.960500000000019
 20
10.564992600000004
 30
0.0
  0
INSERT
  5
387
100
AcDbEntity
  8
None
390
0
 62
               7
100
AcDbBlockReference
  2
pad
 10
-10.690500000000018
 20
10.564992600000004
 30
0.0
  0
INSERT
  5
388
100
AcDbEntity
  8
None
390
0
 62
               7
100
AcDbBlockReference
  2
pad
 10
-9.4205000000000183
 20
10.564992600000004
 30
0.0
  0
INSERT
  5
389
100
AcDbEntity
  8
None
390
0
 62
               7
100
AcDbBlockReference
  2
pad
 10
-8.1505000000000187
 20
10.564992600000004
 30
0.0
  0
INSERT
  5
38A
100
AcDbEntity
  8
None
390
0
 62
               7
100
AcDbBlockReference
  2
pad
 10
-6.8805000000000192
 20
10.564992600000004
 30
0.0
  0
INSERT
  5
38B
100
AcDbEntity
  8
None
390
0
 62
               7
100
AcDbBlockReference
  2
pad
 10
-5.6105000000000196
 20
10.564992600000004
 30
0.0
  0
INSERT
  5
38C
100
AcDbEntity
  8
None
390
0
 62
               7
100
AcDbBlockReference
  2
pad
 10
-4.34050000000002
 20
10.564992600000004
 30
0.0
  0
INSERT
  5
38D
100
AcDbEntity
  8
None
390
0
 62
               7
100
AcDbBlockReference
  2
pad
 10
-3.0705000000000204
 20
10.564992600000004
 30
0.0
  0
INSERT
  5
38E
100
AcDbEntity
  8
None
390
0
 62
               7
100
AcDbBlockReference
  2
pad
 10
-1.8005000000000209
 20
10.564992600000004
 30
0.0
  0
INSERT
  5
38F
100
AcDbEntity
  8
None
390
0
 62
               7
100
AcDbBlockReference
  2
pad
 10
-0.5305000000000213
 20
10.564992600000004
 30
0.0
  0
INSERT
  5
390
100
AcDbEntity
  8
None
390
0
 62
               7
100
AcDbBlockReference
  2
pad
 10
0.7394999999999783
 20
10.564992600000004
 30
0.0
  0
INSERT
  5
391
100
AcDbEntity
  8
None
390
0
 62
               7
100
AcDbBlockReference
  2
pad
 10
2.0094999999999779
 20
10.564992600000004
 30
0.0
  0
INSERT
  5
392
100
AcDbEntity
  8
None
390
0
 62
               7
100
AcDbBlockReference
  2
pad
 10
3.2794999999999774
 20
10.564992600000004
 30
0.0
  0
INSERT
  5
393
100
AcDbEntity
  8
None
390
0
 62
               7
100
AcDbBlockReference
  2
pad
 10
4.549499999999977
 20
10.564992600000004
 30
0.0
  0
INSERT
  5
394
100
AcDbEntity
  8
None
390
0
 62
               7
100
AcDbBlockReference
  2
pad
 10
5.8194999999999801
 20
10.564992600000004
 30
0.0
  0
INSERT
  5
395
100
AcDbEntity
  8
None
390
0
 62
               7
100
AcDbBlockReference
  2
pad
 10
7.0894999999999833
 20
10.564992600000004
 30
0.0
  0
INSERT
  5
396
100
AcDbEntity
  8
None
390
0
 62
               7
100
AcDbBlockReference
  2
pad
 10
8.3594999999999864
 20
10.564992600000004
 30
0.0
  0
INSERT
  5
397
100
AcDbEntity
  8
None
390
0
 62
               7
100
AcDbBlockReference
  2
pad
 10
9.6294999999999895
 20
10.564992600000004
 30
0.0
  0
INSERT
  5
398
100
AcDbEntity
  8
None
390
0
 62
               7
100
AcDbBlockReference
  2
pad
 10
10.899499999999993
 20
10.564992600000004
 30
0.0
  0
INSERT
  5
399
100
AcDbEntity
  8
None
390
0
 62
               7
100
AcDbBlockReference
  2
pad
 10
12.169499999999996
 20
10.564992600000004
 30
0.0
  0
INSERT
  5
39A
100
AcDbEntity
  8
None
390
0
 62
               7
100
AcDbBlockReference
  2
pad
 10
13.439499999999999
 20
10.564992600000004
 30
0.0
  0
INSERT
  5
39B
100
AcDbEntity
  8
None
390
0
 62
               7
100
AcDbBlockReference
  2
pad
 10
14.709500000000002
 20
10.564992600000004
 30
0.0
  0
INSERT
  5
39C
100
AcDbEntity
  8
None
390
0
 62
               7
100
AcDbBlockReference
  2
pad
 10
-27.200500000000016
 20
9.2949926000000005
 30
0.0
  0
INSERT
  5
39D
100
AcDbEntity
  8
None
390
0
 62
               7
100
AcDbBlockReference
  2
pad
 10
-25.930500000000016
 20
9.2949926000000005
 30
0.0
  0
INSERT
  5
39E
100
AcDbEntity
  8
None
390
0
 62
               7
100
AcDbBlockReference
  2
pad
 10
-24.660500000000017
 20
9.2949926000000005
 30
0.0
  0
INSERT
  5
39F
100
AcDbEntity
  8
None
390
0
 62
               7
100
AcDbBlockReference
  2
pad
 10
-23.390500000000017
 20
9.2949926000000005
 30
0.0
  0
INSERT
  5
3A0
100
AcDbEntity
  8
None
390
0
 62
               7
100
AcDbBlockReference
  2
pad
 10
-22.120500000000018
 20
9.2949926000000005
 30
0.0
  0
INSERT
  5
3A1
100
AcDbEntity
  8
None
390
0
 62
               7
100
AcDbBlockReference
  2
pad
 10
-20.850500000000014
 20
9.2949926000000005
 30
0.0
  0
INSERT
  5
3A2
100
AcDbEntity
  8
None
390
0
 62
               7
100
AcDbBlockReference
  2
pad
 10
-19.580500000000015
 20
9.2949926000000005
 30
0.0
  0
INSERT
  5
3A3
100
AcDbEntity
  8
None
390
0
 62
               7
100
AcDbBlockReference
  2
pad
 10
-18.310500000000019
 20
9.2949926000000005
 30
0.0
  0
INSERT
  5
3A4
100
AcDbEntity
  8
None
390
0
 62
               7
100
AcDbBlockReference
  2
pad
 10
-17.040500000000016
 20
9.2949926000000005
 30
0.0
  0
INSERT
  5
3A5
100
AcDbEntity
  8
None
390
0
 62
               7
100
AcDbBlockReference
  2
pad
 10
-15.770500000000018
 20
9.2949926000000005
 30
0.0
  0
INSERT
  5
3A6
100
AcDbEntity
  8
None
390
0
 62
               7
100
AcDbBlockReference
  2
pad
 10
-14.500500000000018
 20
9.2949926000000005
 30
0.0
  0
INSERT
  5
3A7
100
AcDbEntity
  8
None
390
0
 62
               7
100
AcDbBlockReference
  2
pad
 10
-13.230500000000019
 20
9.2949926000000005
 30
0.0
  0
INSERT
  5
3A8
100
AcDbEntity
  8
None
390
0
 62
               7
100
AcDbBlockReference
  2
pad
 10
-11.960500000000019
 20
9.2949926000000005
 30
0.0
  0
INSERT
  5
3A9
100
AcDbEntity
  8
None
390
0
 62
               7
100
AcDbBlockReference
  2
pad
 10
-10.690500000000018
 20
9.2949926000000005
 30
0.0
  0
INSERT
  5
3AA
100
AcDbEntity
  8
None
390
0
 62
               7
100
AcDbBlockReference
  2
pad
 10
-9.4205000000000183
 20
9.2949926000000005
 30
0.0
  0
INSERT
  5
3AB
100
AcDbEntity
  8
None
390
0
 62
               7
100
AcDbBlockReference
  2
pad
 10
-8.1505000000000187
 20
9.2949926000000005
 30
0.0
  0
INSERT
  5
3AC
100
AcDbEntity
  8
None
390
0
 62
               7
100
AcDbBlockReference
  2
pad
 10
-6.8805000000000192
 20
9.2949926000000005
 30
0.0
  0
INSERT
  5
3AD
100
AcDbEntity
  8
None
390
0
 62
               7
100
AcDbBlockReference
  2
pad
 10
-5.6105000000000196
 20
9.2949926000000005
 30
0.0
  0
INSERT
  5
3AE
100
AcDbEntity
  8
None
390
0
 62
               7
100
AcDbBlockReference
  2
pad
 10
-4.34050000000002
 20
9.2949926000000005
 30
0.0
  0
INSERT
  5
3AF
100
AcDbEntity
  8
None
390
0
 62
               7
100
AcDbBlockReference
  2
pad
 10
-3.0705000000000204
 20
9.2949926000000005
 30
0.0
  0
INSERT
  5
3B0
100
AcDbEntity
  8
None
390
0
 62
               7
100
AcDbBlockReference
  2
pad
 10
-1.8005000000000209
 20
9.2949926000000005
 30
0.0
  0
INSERT
  5
3B1
100
AcDbEntity
  8
None
390
0
 62
               7
100
AcDbBlockReference
  2
pad
 10
-0.5305000000000213
 20
9.2949926000000005
 30
0.0
  0
INSERT
  5
3B2
100
AcDbEntity
  8
None
390
0
 62
               7
100
AcDbBlockReference
  2
pad
 10
0.7394999999999783
 20
9.2949926000000005
 30
0.0
  0
INSERT
  5
3B3
100
AcDbEntity
  8
None
390
0
 62
               7
100
AcDbBlockReference
  2
pad
 10
2.0094999999999779
 20
9.2949926000000005
 30
0.0
  0
INSERT
  5
3B4
100
AcDbEntity
  8
None
390
0
 62
               7
100
AcDbBlockReference
  2
pad
 10
3.2794999999999774
 20
9.2949926000000005
 30
0.0
  0
INSERT
  5
3B5
100
AcDbEntity
  8
None
390
0
 62
               7
100
AcDbBlockReference
  2
pad
 10
4.549499999999977
 20
9.2949926000000005
 30
0.0
  0
INSERT
  5
3B6
100
AcDbEntity
  8
None
390
0
 62
               7
100
AcDbBlockReference
  2
pad
 10
5.8194999999999801
 20
9.2949926000000005
 30
0.0
  0
INSERT
  5
3B7
100
AcDbEntity
  8
None
390
0
 62
               7
100
AcDbBlockReference
  2
pad
 10
7.0894999999999833
 20
9.2949926000000005
 30
0.0
  0
INSERT
  5
3B8
100
AcDbEntity
  8
None
390
0
 62
               7
100
AcDbBlockReference
  2
pad
 10
8.3594999999999864
 20
9.2949926000000005
 30
0.0
  0
INSERT
  5
3B9
100
AcDbEntity
  8
None
390
0
 62
               7
100
AcDbBlockReference
  2
pad
 10
9.6294999999999895
 20
9.2949926000000005
 30
0.0
  0
INSERT
  5
3BA
100
AcDbEntity
  8
None
390
0
 62
               7
100
AcDbBlockReference
  2
pad
 10
10.899499999999993
 20
9.2949926000000005
 30
0.0
  0
INSERT
  5
3BB
100
AcDbEntity
  8
None
390
0
 62
               7
100
AcDbBlockReference
  2
pad
 10
12.169499999999996
 20
9.2949926000000005
 30
0.0
  0
INSERT
  5
3BC
100
AcDbEntity
  8
None
390
0
 62
               7
100
AcDbBlockReference
  2
pad
 10
13.439499999999999
 20
9.2949926000000005
 30
0.0
  0
INSERT
  5
3BD
100
AcDbEntity
  8
None
390
0
 62
               7
100
AcDbBlockReference
  2
pad
 10
14.709500000000002
 20
9.2949926000000005
 30
0.0
  0
INSERT
  5
3BE
100
AcDbEntity
  8
None
390
0
 62
               7
100
AcDbBlockReference
  2
pad
 10
-27.200500000000016
 20
8.0249926000000045
 30
0.0
  0
INSERT
  5
3BF
100
AcDbEntity
  8
None
390
0
 62
               7
100
AcDbBlockReference
  2
pad
 10
-25.930500000000016
 20
8.0249926000000045
 30
0.0
  0
INSERT
  5
3C0
100
AcDbEntity
  8
None
390
0
 62
               7
100
AcDbBlockReference
  2
pad
 10
-24.660500000000017
 20
8.0249926000000045
 30
0.0
  0
INSERT
  5
3C1
100
AcDbEntity
  8
None
390
0
 62
               7
100
AcDbBlockReference
  2
pad
 10
-23.390500000000017
 20
8.0249926000000045
 30
0.0
  0
INSERT
  5
3C2
100
AcDbEntity
  8
None
390
0
 62
               7
100
AcDbBlockReference
  2
pad
 10
-22.120500000000018
 20
8.0249926000000045
 30
0.0
  0
INSERT
  5
3C3
100
AcDbEntity
  8
None
390
0
 62
               7
100
AcDbBlockReference
  2
pad
 10
-20.850500000000014
 20
8.0249926000000045
 30
0.0
  0
INSERT
  5
3C4
100
AcDbEntity
  8
None
390
0
 62
               7
100
AcDbBlockReference
  2
pad
 10
-19.580500000000015
 20
8.0249926000000045
 30
0.0
  0
INSERT
  5
3C5
100
AcDbEntity
  8
None
390
0
 62
               7
100
AcDbBlockReference
  2
pad
 10
-18.310500000000019
 20
8.0249926000000045
 30
0.0
  0
INSERT
  5
3C6
100
AcDbEntity
  8
None
390
0
 62
               7
100
AcDbBlockReference
  2
pad
 10
-17.040500000000016
 20
8.0249926000000045
 30
0.0
  0
INSERT
  5
3C7
100
AcDbEntity
  8
None
390
0
 62
               7
100
AcDbBlockReference
  2
pad
 10
-15.770500000000018
 20
8.0249926000000045
 30
0.0
  0
INSERT
  5
3C8
100
AcDbEntity
  8
None
390
0
 62
               7
100
AcDbBlockReference
  2
pad
 10
-14.500500000000018
 20
8.0249926000000045
 30
0.0
  0
INSERT
  5
3C9
100
AcDbEntity
  8
None
390
0
 62
               7
100
AcDbBlockReference
  2
pad
 10
-13.230500000000019
 20
8.0249926000000045
 30
0.0
  0
INSERT
  5
3CA
100
AcDbEntity
  8
None
390
0
 62
               7
100
AcDbBlockReference
  2
pad
 10
-11.960500000000019
 20
8.0249926000000045
 30
0.0
  0
INSERT
  5
3CB
100
AcDbEntity
  8
None
390
0
 62
               7
100
AcDbBlockReference
  2
pad
 10
-10.690500000000018
 20
8.0249926000000045
 30
0.0
  0
INSERT
  5
3CC
100
AcDbEntity
  8
None
390
0
 62
               7
100
AcDbBlockReference
  2
pad
 10
-9.4205000000000183
 20
8.0249926000000045
 30
0.0
  0
INSERT
  5
3CD
100
AcDbEntity
  8
None
390
0
 62
               7
100
AcDbBlockReference
  2
pad
 10
-8.1505000000000187
 20
8.0249926000000045
 30
0.0
  0
INSERT
  5
3CE
100
AcDbEntity
  8
None
390
0
 62
               7
100
AcDbBlockReference
  2
pad
 10
-6.8805000000000192
 20
8.0249926000000045
 30
0.0
  0
INSERT
  5
3CF
100
AcDbEntity
  8
None
390
0
 62
               7
100
AcDbBlockReference
  2
pad
 10
-5.6105000000000196
 20
8.0249926000000045
 30
0.0
  0
INSERT
  5
3D0
100
AcDbEntity
  8
None
390
0
 62
               7
100
AcDbBlockReference
  2
pad
 10
-4.34050000000002
 20
8.0249926000000045
 30
0.0
  0
INSERT
  5
3D1
100
AcDbEntity
  8
None
390
0
 62
               7
100
AcDbBlockReference
  2
pad
 10
-3.0705000000000204
 20
8.0249926000000045
 30
0.0
  0
INSERT
  5
3D2
100
AcDbEntity
  8
None
390
0
 62
               7
100
AcDbBlockReference
  2
pad
 10
-1.8005000000000209
 20
8.0249926000000045
 30
0.0
  0
INSERT
  5
3D3
100
AcDbEntity
  8
None
390
0
 62
               7
100
AcDbBlockReference
  2
pad
 10
-0.5305000000000213
 20
8.0249926000000045
 30
0.0
  0
INSERT
  5
3D4
100
AcDbEntity
  8
None
390
0
 62
               7
100
AcDbBlockReference
  2
pad
 10
0.7394999999999783
 20
8.0249926000000045
 30
0.0
  0
INSERT
  5
3D5
100
AcDbEntity
  8
None
390
0
 62
               7
100
AcDbBlockReference
  2
pad
 10
2.0094999999999779
 20
8.0249926000000045
 30
0.0
  0
INSERT
  5
3D6
100
AcDbEntity
  8
None
390
0
 62
               7
100
AcDbBlockReference
  2
pad
 10
3.2794999999999774
 20
8.0249926000000045
 30
0.0
  0
INSERT
  5
3D7
100
AcDbEntity
  8
None
390
0
 62
               7
100
AcDbBlockReference
  2
pad
 10
4.549499999999977
 20
8.0249926000000045
 30
0.0
  0
INSERT
  5
3D8
100
AcDbEntity
  8
None
390
0
 62
               7
100
AcDbBlockReference
  2
pad
 10
5.8194999999999801
 20
8.0249926000000045
 30
0.0
  0
INSERT
  5
3D9
100
AcDbEntity
  8
None
390
0
 62
               7
100
AcDbBlockReference
  2
pad
 10
7.0894999999999833
 20
8.0249926000000045
 30
0.0
  0
INSERT
  5
3DA
100
AcDbEntity
  8
None
390
0
 62
               7
100
AcDbBlockReference
  2
pad
 10
8.3594999999999864
 20
8.0249926000000045
 30
0.0
  0
INSERT
  5
3DB
100
AcDbEntity
  8
None
390
0
 62
               7
100
AcDbBlockReference
  2
pad
 10
9.6294999999999895
 20
8.0249926000000045
 30
0.0
  0
INSERT
  5
3DC
100
AcDbEntity
  8
None
390
0
 62
               7
100
AcDbBlockReference
  2
pad
 10
10.899499999999993
 20
8.0249926000000045
 30
0.0
  0
INSERT
  5
3DD
100
AcDbEntity
  8
None
390
0
 62
               7
100
AcDbBlockReference
  2
pad
 10
12.169499999999996
 20
8.0249926000000045
 30
0.0
  0
INSERT
  5
3DE
100
AcDbEntity
  8
None
390
0
 62
               7
100
AcDbBlockReference
  2
pad
 10
13.439499999999999
 20
8.0249926000000045
 30
0.0
  0
INSERT
  5
3DF
100
AcDbEntity
  8
None
390
0
 62
               7
100
AcDbBlockReference
  2
pad
 10
14.709500000000002
 20
8.0249926000000045
 30
0.0
  0
INSERT
  5
3E0
100
AcDbEntity
  8
None
390
0
 62
               7
100
AcDbBlockReference
  2
pad
 10
-27.200500000000016
 20
6.7549926000000085
 30
0.0
  0
INSERT
  5
3E1
100
AcDbEntity
  8
None
390
0
 62
               7
100
AcDbBlockReference
  2
pad
 10
-25.930500000000016
 20
6.7549926000000085
 30
0.0
  0
INSERT
  5
3E2
100
AcDbEntity
  8
None
390
0
 62
               7
100
AcDbBlockReference
  2
pad
 10
-24.660500000000017
 20
6.7549926000000085
 30
0.0
  0
INSERT
  5
3E3
100
AcDbEntity
  8
None
390
0
 62
               7
100
AcDbBlockReference
  2
pad
 10
-23.390500000000017
 20
6.7549926000000085
 30
0.0
  0
INSERT
  5
3E4
100
AcDbEntity
  8
None
390
0
 62
               7
100
AcDbBlockReference
  2
pad
 10
-22.120500000000018
 20
6.7549926000000085
 30
0.0
  0
INSERT
  5
3E5
100
AcDbEntity
  8
None
390
0
 62
               7
100
AcDbBlockReference
  2
pad
 10
-20.850500000000014
 20
6.7549926000000085
 30
0.0
  0
INSERT
  5
3E6
100
AcDbEntity
  8
None
390
0
 62
               7
100
AcDbBlockReference
  2
pad
 10
-19.580500000000015
 20
6.7549926000000085
 30
0.0
  0
INSERT
  5
3E7
100
AcDbEntity
  8
None
390
0
 62
               7
100
AcDbBlockReference
  2
pad
 10
-18.310500000000019
 20
6.7549926000000085
 30
0.0
  0
INSERT
  5
3E8
100
AcDbEntity
  8
None
390
0
 62
               7
100
AcDbBlockReference
  2
pad
 10
-17.040500000000016
 20
6.7549926000000085
 30
0.0
  0
INSERT
  5
3E9
100
AcDbEntity
  8
None
390
0
 62
               7
100
AcDbBlockReference
  2
pad
 10
-15.770500000000018
 20
6.7549926000000085
 30
0.0
  0
INSERT
  5
3EA
100
AcDbEntity
  8
None
390
0
 62
               7
100
AcDbBlockReference
  2
pad
 10
-14.500500000000018
 20
6.7549926000000085
 30
0.0
  0
INSERT
  5
3EB
100
AcDbEntity
  8
None
390
0
 62
               7
100
AcDbBlockReference
  2
pad
 10
-13.230500000000019
 20
6.7549926000000085
 30
0.0
  0
INSERT
  5
3EC
100
AcDbEntity
  8
None
390
0
 62
               7
100
AcDbBlockReference
  2
pad
 10
-11.960500000000019
 20
6.7549926000000085
 30
0.0
  0
INSERT
  5
3ED
100
AcDbEntity
  8
None
390
0
 62
               7
100
AcDbBlockReference
  2
pad
 10
-10.690500000000018
 20
6.7549926000000085
 30
0.0
  0
INSERT
  5
3EE
100
AcDbEntity
  8
None
390
0
 62
               7
100
AcDbBlockReference
  2
pad
 10
-9.4205000000000183
 20
6.7549926000000085
 30
0.0
  0
INSERT
  5
3EF
100
AcDbEntity
  8
None
390
0
 62
               7
100
AcDbBlockReference
  2
pad
 10
-8.1505000000000187
 20
6.7549926000000085
 30
0.0
  0
INSERT
  5
3F0
100
AcDbEntity
  8
None
390
0
 62
               7
100
AcDbBlockReference
  2
pad
 10
-6.8805000000000192
 20
6.7549926000000085
 30
0.0
  0
INSERT
  5
3F1
100
AcDbEntity
  8
None
390
0
 62
               7
100
AcDbBlockReference
  2
pad
 10
-5.6105000000000196
 20
6.7549926000000085
 30
0.0
  0
INSERT
  5
3F2
100
AcDbEntity
  8
None
390
0
 62
               7
100
AcDbBlockReference
  2
pad
 10
-4.34050000000002
 20
6.7549926000000085
 30
0.0
  0
INSERT
  5
3F3
100
AcDbEntity
  8
None
390
0
 62
               7
100
AcDbBlockReference
  2
pad
 10
-3.0705000000000204
 20
6.7549926000000085
 30
0.0
  0
INSERT
  5
3F4
100
AcDbEntity
  8
None
390
0
 62
               7
100
AcDbBlockReference
  2
pad
 10
-1.8005000000000209
 20
6.7549926000000085
 30
0.0
  0
INSERT
  5
3F5
100
AcDbEntity
  8
None
390
0
 62
               7
100
AcDbBlockReference
  2
pad
 10
-0.5305000000000213
 20
6.7549926000000085
 30
0.0
  0
INSERT
  5
3F6
100
AcDbEntity
  8
None
390
0
 62
               7
100
AcDbBlockReference
  2
pad
 10
0.7394999999999783
 20
6.7549926000000085
 30
0.0
  0
INSERT
  5
3F7
100
AcDbEntity
  8
None
390
0
 62
               7
100
AcDbBlockReference
  2
pad
 10
2.0094999999999779
 20
6.7549926000000085
 30
0.0
  0
INSERT
  5
3F8
100
AcDbEntity
  8
None
390
0
 62
               7
100
AcDbBlockReference
  2
pad
 10
3.2794999999999774
 20
6.7549926000000085
 30
0.0
  0
INSERT
  5
3F9
100
AcDbEntity
  8
None
390
0
 62
               7
100
AcDbBlockReference
  2
pad
 10
4.549499999999977
 20
6.7549926000000085
 30
0.0
  0
INSERT
  5
3FA
100
AcDbEntity
  8
None
390
0
 62
               7
100
AcDbBlockReference
  2
pad
 10
5.8194999999999801
 20
6.7549926000000085
 30
0.0
  0
INSERT
  5
3FB
100
AcDbEntity
  8
None
390
0
 62
               7
100
AcDbBlockReference
  2
pad
 10
7.0894999999999833
 20
6.7549926000000085
 30
0.0
  0
INSERT
  5
3FC
100
AcDbEntity
  8
None
390
0
 62
               7
100
AcDbBlockReference
  2
pad
 10
8.3594999999999864
 20
6.7549926000000085
 30
0.0
  0
INSERT
  5
3FD
100
AcDbEntity
  8
None
390
0
 62
               7
100
AcDbBlockReference
  2
pad
 10
9.6294999999999895
 20
6.7549926000000085
 30
0.0
  0
INSERT
  5
3FE
100
AcDbEntity
  8
None
390
0
 62
               7
100
AcDbBlockReference
  2
pad
 10
10.899499999999993
 20
6.7549926000000085
 30
0.0
  0
INSERT
  5
3FF
100
AcDbEntity
  8
None
390
0
 62
               7
100
AcDbBlockReference
  2
pad
 10
12.169499999999996
 20
6.7549926000000085
 30
0.0
  0
INSERT
  5
400
100
AcDbEntity
  8
None
390
0
 62
               7
100
AcDbBlockReference
  2
pad
 10
13.439499999999999
 20
6.7549926000000085
 30
0.0
  0
INSERT
  5
401
100
AcDbEntity
  8
None
390
0
 62
               7
100
AcDbBlockReference
  2
pad
 10
14.709500000000002
 20
6.7549926000000085
 30
0.0
  0
INSERT
  5
402
100
AcDbEntity
  8
None
390
0
 62
               7
100
AcDbBlockReference
  2
pad
 10
-27.200500000000016
 20
5.4849926000000053
 30
0.0
  0
INSERT
  5
403
100
AcDbEntity
  8
None
390
0
 62
               7
100
AcDbBlockReference
  2
pad
 10
-25.930500000000016
 20
5.4849926000000053
 30
0.0
  0
INSERT
  5
404
100
AcDbEntity
  8
None
390
0
 62
               7
100
AcDbBlockReference
  2
pad
 10
-24.660500000000017
 20
5.4849926000000053
 30
0.0
  0
INSERT
  5
405
100
AcDbEntity
  8
None
390
0
 62
               7
100
AcDbBlockReference
  2
pad
 10
-23.390500000000017
 20
5.4849926000000053
 30
0.0
  0
INSERT
  5
406
100
AcDbEntity
  8
None
390
0
 62
               7
100
AcDbBlockReference
  2
pad
 10
-22.120500000000018
 20
5.4849926000000053
 30
0.0
  0
INSERT
  5
407
100
AcDbEntity
  8
None
390
0
 62
               7
100
AcDbBlockReference
  2
pad
 10
-20.850500000000014
 20
5.4849926000000053
 30
0.0
  0
INSERT
  5
408
100
AcDbEntity
  8
None
390
0
 62
               7
100
AcDbBlockReference
  2
pad
 10
-19.580500000000015
 20
5.4849926000000053
 30
0.0
  0
INSERT
  5
409
100
AcDbEntity
  8
None
390
0
 62
               7
100
AcDbBlockReference
  2
pad
 10
-18.310500000000019
 20
5.4849926000000053
 30
0.0
  0
INSERT
  5
40A
100
AcDbEntity
  8
None
390
0
 62
               7
100
AcDbBlockReference
  2
pad
 10
-17.040500000000016
 20
5.4849926000000053
 30
0.0
  0
INSERT
  5
40B
100
AcDbEntity
  8
None
390
0
 62
               7
100
AcDbBlockReference
  2
pad
 10
-15.770500000000018
 20
5.4849926000000053
 30
0.0
  0
INSERT
  5
40C
100
AcDbEntity
  8
None
390
0
 62
               7
100
AcDbBlockReference
  2
pad
 10
-14.500500000000018
 20
5.4849926000000053
 30
0.0
  0
INSERT
  5
40D
100
AcDbEntity
  8
None
390
0
 62
               7
100
AcDbBlockReference
  2
pad
 10
-13.230500000000019
 20
5.4849926000000053
 30
0.0
  0
INSERT
  5
40E
100
AcDbEntity
  8
None
390
0
 62
               7
100
AcDbBlockReference
  2
pad
 10
-11.960500000000019
 20
5.4849926000000053
 30
0.0
  0
INSERT
  5
40F
100
AcDbEntity
  8
None
390
0
 62
               7
100
AcDbBlockReference
  2
pad
 10
-10.690500000000018
 20
5.4849926000000053
 30
0.0
  0
INSERT
  5
410
100
AcDbEntity
  8
None
390
0
 62
               7
100
AcDbBlockReference
  2
pad
 10
-9.4205000000000183
 20
5.4849926000000053
 30
0.0
  0
INSERT
  5
411
100
AcDbEntity
  8
None
390
0
 62
               7
100
AcDbBlockReference
  2
pad
 10
-8.1505000000000187
 20
5.4849926000000053
 30
0.0
  0
INSERT
  5
412
100
AcDbEntity
  8
None
390
0
 62
               7
100
AcDbBlockReference
  2
pad
 10
-6.8805000000000192
 20
5.4849926000000053
 30
0.0
  0
INSERT
  5
413
100
AcDbEntity
  8
None
390
0
 62
               7
100
AcDbBlockReference
  2
pad
 10
-5.6105000000000196
 20
5.4849926000000053
 30
0.0
  0
INSERT
  5
414
100
AcDbEntity
  8
None
390
0
 62
               7
100
AcDbBlockReference
  2
pad
 10
-4.34050000000002
 20
5.4849926000000053
 30
0.0
  0
INSERT
  5
415
100
AcDbEntity
  8
None
390
0
 62
               7
100
AcDbBlockReference
  2
pad
 10
-3.0705000000000204
 20
5.4849926000000053
 30
0.0
  0
INSERT
  5
416
100
AcDbEntity
  8
None
390
0
 62
               7
100
AcDbBlockReference
  2
pad
 10
-1.8005000000000209
 20
5.4849926000000053
 30
0.0
  0
INSERT
  5
417
100
AcDbEntity
  8
None
390
0
 62
               7
100
AcDbBlockReference
  2
pad
 10
-0.5305000000000213
 20
5.4849926000000053
 30
0.0
  0
INSERT
  5
418
100
AcDbEntity
  8
None
390
0
 62
               7
100
AcDbBlockReference
  2
pad
 10
0.7394999999999783
 20
5.4849926000000053
 30
0.0
  0
INSERT
  5
419
100
AcDbEntity
  8
None
390
0
 62
               7
100
AcDbBlockReference
  2
pad
 10
2.0094999999999779
 20
5.4849926000000053
 30
0.0
  0
INSERT
  5
41A
100
AcDbEntity
  8
None
390
0
 62
               7
100
AcDbBlockReference
  2
pad
 10
3.2794999999999774
 20
5.4849926000000053
 30
0.0
  0
INSERT
  5
41B
100
AcDbEntity
  8
None
390
0
 62
               7
100
AcDbBlockReference
  2
pad
 10
4.549499999999977
 20
5.4849926000000053
 30
0.0
  0
INSERT
  5
41C
100
AcDbEntity
  8
None
390
0
 62
               7
100
AcDbBlockReference
  2
pad
 10
5.8194999999999801
 20
5.4849926000000053
 30
0.0
  0
INSERT
  5
41D
100
AcDbEntity
  8
None
390
0
 62
               7
100
AcDbBlockReference
  2
pad
 10
7.0894999999999833
 20
5.4849926000000053
 30
0.0
  0
INSERT
  5
41E
100
AcDbEntity
  8
None
390
0
 62
               7
100
AcDbBlockReference
  2
pad
 10
8.3594999999999864
 20
5.4849926000000053
 30
0.0
  0
INSERT
  5
41F
100
AcDbEntity
  8
None
390
0
 62
               7
100
AcDbBlockReference
  2
pad
 10
9.6294999999999895
 20
5.4849926000000053
 30
0.0
  0
INSERT
  5
420
100
AcDbEntity
  8
None
390
0
 62
               7
100
AcDbBlockReference
  2
pad
 10
10.899499999999993
 20
5.4849926000000053
 30
0.0
  0
INSERT
  5
421
100
AcDbEntity
  8
None
390
0
 62
               7
100
AcDbBlockReference
  2
pad
 10
12.169499999999996
 20
5.4849926000000053
 30
0.0
  0
INSERT
  5
422
100
AcDbEntity
  8
None
390
0
 62
               7
100
AcDbBlockReference
  2
pad
 10
13.439499999999999
 20
5.4849926000000053
 30
0.0
  0
INSERT
  5
423
100
AcDbEntity
  8
None
390
0
 62
               7
100
AcDbBlockReference
  2
pad
 10
14.709500000000002
 20
5.4849926000000053
 30
0.0
  0
INSERT
  5
424
100
AcDbEntity
  8
None
390
0
 62
               7
100
AcDbBlockReference
  2
pad
 10
-27.200500000000016
 20
4.2149926000000022
 30
0.0
  0
INSERT
  5
425
100
AcDbEntity
  8
None
390
0
 62
               7
100
AcDbBlockReference
  2
pad
 10
-25.930500000000016
 20
4.2149926000000022
 30
0.0
  0
INSERT
  5
426
100
AcDbEntity
  8
None
390
0
 62
               7
100
AcDbBlockReference
  2
pad
 10
-24.660500000000017
 20
4.2149926000000022
 30
0.0
  0
INSERT
  5
427
100
AcDbEntity
  8
None
390
0
 62
               7
100
AcDbBlockReference
  2
pad
 10
-23.390500000000017
 20
4.2149926000000022
 30
0.0
  0
INSERT
  5
428
100
AcDbEntity
  8
None
390
0
 62
               7
100
AcDbBlockReference
  2
pad
 10
-22.120500000000018
 20
4.2149926000000022
 30
0.0
  0
INSERT
  5
429
100
AcDbEntity
  8
None
390
0
 62
               7
100
AcDbBlockReference
  2
pad
 10
-20.850500000000014
 20
4.2149926000000022
 30
0.0
  0
INSERT
  5
42A
100
AcDbEntity
  8
None
390
0
 62
               7
100
AcDbBlockReference
  2
pad
 10
-19.580500000000015
 20
4.2149926000000022
 30
0.0
  0
INSERT
  5
42B
100
AcDbEntity
  8
None
390
0
 62
               7
100
AcDbBlockReference
  2
pad
 10
-18.310500000000019
 20
4.2149926000000022
 30
0.0
  0
INSERT
  5
42C
100
AcDbEntity
  8
None
390
0
 62
               7
100
AcDbBlockReference
  2
pad
 10
-17.040500000000016
 20
4.2149926000000022
 30
0.0
  0
INSERT
  5
42D
100
AcDbEntity
  8
None
390
0
 62
               7
100
AcDbBlockReference
  2
pad
 10
-15.770500000000018
 20
4.2149926000000022
 30
0.0
  0
INSERT
  5
42E
100
AcDbEntity
  8
None
390
0
 62
               7
100
AcDbBlockReference
  2
pad
 10
-14.500500000000018
 20
4.2149926000000022
 30
0.0
  0
INSERT
  5
42F
100
AcDbEntity
  8
None
390
0
 62
               7
100
AcDbBlockReference
  2
pad
 10
-13.230500000000019
 20
4.2149926000000022
 30
0.0
  0
INSERT
  5
430
100
AcDbEntity
  8
None
390
0
 62
               7
100
AcDbBlockReference
  2
pad
 10
-11.960500000000019
 20
4.2149926000000022
 30
0.0
  0
INSERT
  5
431
100
AcDbEntity
  8
None
390
0
 62
               7
100
AcDbBlockReference
  2
pad
 10
-10.690500000000018
 20
4.2149926000000022
 30
0.0
  0
INSERT
  5
432
100
AcDbEntity
  8
None
390
0
 62
               7
100
AcDbBlockReference
  2
pad
 10
-9.4205000000000183
 20
4.2149926000000022
 30
0.0
  0
INSERT
  5
433
100
AcDbEntity
  8
None
390
0
 62
               7
100
AcDbBlockReference
  2
pad
 10
-8.1505000000000187
 20
4.2149926000000022
 30
0.0
  0
INSERT
  5
434
100
AcDbEntity
  8
None
390
0
 62
               7
100
AcDbBlockReference
  2
pad
 10
-6.8805000000000192
 20
4.2149926000000022
 30
0.0
  0
INSERT
  5
435
100
AcDbEntity
  8
None
390
0
 62
               7
100
AcDbBlockReference
  2
pad
 10
-5.6105000000000196
 20
4.2149926000000022
 30
0.0
  0
INSERT
  5
436
100
AcDbEntity
  8
None
390
0
 62
               7
100
AcDbBlockReference
  2
pad
 10
-4.34050000000002
 20
4.2149926000000022
 30
0.0
  0
INSERT
  5
437
100
AcDbEntity
  8
None
390
0
 62
               7
100
AcDbBlockReference
  2
pad
 10
-3.0705000000000204
 20
4.2149926000000022
 30
0.0
  0
INSERT
  5
438
100
AcDbEntity
  8
None
390
0
 62
               7
100
AcDbBlockReference
  2
pad
 10
-1.8005000000000209
 20
4.2149926000000022
 30
0.0
  0
INSERT
  5
439
100
AcDbEntity
  8
None
390
0
 62
               7
100
AcDbBlockReference
  2
pad
 10
-0.5305000000000213
 20
4.2149926000000022
 30
0.0
  0
INSERT
  5
43A
100
AcDbEntity
  8
None
390
0
 62
               7
100
AcDbBlockReference
  2
pad
 10
0.7394999999999783
 20
4.2149926000000022
 30
0.0
  0
INSERT
  5
43B
100
AcDbEntity
  8
None
390
0
 62
               7
100
AcDbBlockReference
  2
pad
 10
2.0094999999999779
 20
4.2149926000000022
 30
0.0
  0
INSERT
  5
43C
100
AcDbEntity
  8
None
390
0
 62
               7
100
AcDbBlockReference
  2
pad
 10
3.2794999999999774
 20
4.2149926000000022
 30
0.0
  0
INSERT
  5
43D
100
AcDbEntity
  8
None
390
0
 62
               7
100
AcDbBlockReference
  2
pad
 10
4.549499999999977
 20
4.2149926000000022
 30
0.0
  0
INSERT
  5
43E
100
AcDbEntity
  8
None
390
0
 62
               7
100
AcDbBlockReference
  2
pad
 10
5.8194999999999801
 20
4.2149926000000022
 30
0.0
  0
INSERT
  5
43F
100
AcDbEntity
  8
None
390
0
 62
               7
100
AcDbBlockReference
  2
pad
 10
7.0894999999999833
 20
4.2149926000000022
 30
0.0
  0
INSERT
  5
440
100
AcDbEntity
  8
None
390
0
 62
               7
100
AcDbBlockReference
  2
pad
 10
8.3594999999999864
 20
4.2149926000000022
 30
0.0
  0
INSERT
  5
441
100
AcDbEntity
  8
None
390
0
 62
               7
100
AcDbBlockReference
  2
pad
 10
9.6294999999999895
 20
4.2149926000000022
 30
0.0
  0
INSERT
  5
442
100
AcDbEntity
  8
None
390
0
 62
               7
100
AcDbBlockReference
  2
pad
 10
10.899499999999993
 20
4.2149926000000022
 30
0.0
  0
INSERT
  5
443
100
AcDbEntity
  8
None
390
0
 62
               7
100
AcDbBlockReference
  2
pad
 10
12.169499999999996
 20
4.2149926000000022
 30
0.0
  0
INSERT
  5
444
100
AcDbEntity
  8
None
390
0
 62
               7
100
AcDbBlockReference
  2
pad
 10
13.439499999999999
 20
4.2149926000000022
 30
0.0
  0
INSERT
  5
445
100
AcDbEntity
  8
None
390
0
 62
               7
100
AcDbBlockReference
  2
pad
 10
14.709500000000002
 20
4.2149926000000022
 30
0.0
  0
INSERT
  5
446
100
AcDbEntity
  8
None
390
0
 62
               7
100
AcDbBlockReference
  2
pad
 10
-27.200500000000016
 20
2.9449926000000062
 30
0.0
  0
INSERT
  5
447
100
AcDbEntity
  8
None
390
0
 62
               7
100
AcDbBlockReference
  2
pad
 10
-25.930500000000016
 20
2.9449926000000062
 30
0.0
  0
INSERT
  5
448
100
AcDbEntity
  8
None
390
0
 62
               7
100
AcDbBlockReference
  2
pad
 10
-24.660500000000017
 20
2.9449926000000062
 30
0.0
  0
INSERT
  5
449
100
AcDbEntity
  8
None
390
0
 62
               7
100
AcDbBlockReference
  2
pad
 10
-23.390500000000017
 20
2.9449926000000062
 30
0.0
  0
INSERT
  5
44A
100
AcDbEntity
  8
None
390
0
 62
               7
100
AcDbBlockReference
  2
pad
 10
-22.120500000000018
 20
2.9449926000000062
 30
0.0
  0
INSERT
  5
44B
100
AcDbEntity
  8
None
390
0
 62
               7
100
AcDbBlockReference
  2
pad
 10
-20.850500000000014
 20
2.9449926000000062
 30
0.0
  0
INSERT
  5
44C
100
AcDbEntity
  8
None
390
0
 62
               7
100
AcDbBlockReference
  2
pad
 10
-19.580500000000015
 20
2.9449926000000062
 30
0.0
  0
INSERT
  5
44D
100
AcDbEntity
  8
None
390
0
 62
               7
100
AcDbBlockReference
  2
pad
 10
-18.310500000000019
 20
2.9449926000000062
 30
0.0
  0
INSERT
  5
44E
100
AcDbEntity
  8
None
390
0
 62
               7
100
AcDbBlockReference
  2
pad
 10
-17.040500000000016
 20
2.9449926000000062
 30
0.0
  0
INSERT
  5
44F
100
AcDbEntity
  8
None
390
0
 62
               7
100
AcDbBlockReference
  2
pad
 10
-15.770500000000018
 20
2.9449926000000062
 30
0.0
  0
INSERT
  5
450
100
AcDbEntity
  8
None
390
0
 62
               7
100
AcDbBlockReference
  2
pad
 10
-14.500500000000018
 20
2.9449926000000062
 30
0.0
  0
INSERT
  5
451
100
AcDbEntity
  8
None
390
0
 62
               7
100
AcDbBlockReference
  2
pad
 10
-13.230500000000019
 20
2.9449926000000062
 30
0.0
  0
INSERT
  5
452
100
AcDbEntity
  8
None
390
0
 62
               7
100
AcDbBlockReference
  2
pad
 10
-11.960500000000019
 20
2.9449926000000062
 30
0.0
  0
INSERT
  5
453
100
AcDbEntity
  8
None
390
0
 62
               7
100
AcDbBlockReference
  2
pad
 10
-10.690500000000018
 20
2.9449926000000062
 30
0.0
  0
INSERT
  5
454
100
AcDbEntity
  8
None
390
0
 62
               7
100
AcDbBlockReference
  2
pad
 10
-9.4205000000000183
 20
2.9449926000000062
 30
0.0
  0
INSERT
  5
455
100
AcDbEntity
  8
None
390
0
 62
               7
100
AcDbBlockReference
  2
pad
 10
-8.1505000000000187
 20
2.9449926000000062
 30
0.0
  0
INSERT
  5
456
100
AcDbEntity
  8
None
390
0
 62
               7
100
AcDbBlockReference
  2
pad
 10
-6.8805000000000192
 20
2.9449926000000062
 30
0.0
  0
INSERT
  5
457
100
AcDbEntity
  8
None
390
0
 62
               7
100
AcDbBlockReference
  2
pad
 10
-5.6105000000000196
 20
2.9449926000000062
 30
0.0
  0
INSERT
  5
458
100
AcDbEntity
  8
None
390
0
 62
               7
100
AcDbBlockReference
  2
pad
 10
-4.34050000000002
 20
2.9449926000000062
 30
0.0
  0
INSERT
  5
459
100
AcDbEntity
  8
None
390
0
 62
               7
100
AcDbBlockReference
  2
pad
 10
-3.0705000000000204
 20
2.9449926000000062
 30
0.0
  0
INSERT
  5
45A
100
AcDbEntity
  8
None
390
0
 62
               7
100
AcDbBlockReference
  2
pad
 10
-1.8005000000000209
 20
2.9449926000000062
 30
0.0
  0
INSERT
  5
45B
100
AcDbEntity
  8
None
390
0
 62
               7
100
AcDbBlockReference
  2
pad
 10
-0.5305000000000213
 20
2.9449926000000062
 30
0.0
  0
INSERT
  5
45C
100
AcDbEntity
  8
None
390
0
 62
               7
100
AcDbBlockReference
  2
pad
 10
0.7394999999999783
 20
2.9449926000000062
 30
0.0
  0
INSERT
  5
45D
100
AcDbEntity
  8
None
390
0
 62
               7
100
AcDbBlockReference
  2
pad
 10
2.0094999999999779
 20
2.9449926000000062
 30
0.0
  0
INSERT
  5
45E
100
AcDbEntity
  8
None
390
0
 62
               7
100
AcDbBlockReference
  2
pad
 10
3.2794999999999774
 20
2.9449926000000062
 30
0.0
  0
INSERT
  5
45F
100
AcDbEntity
  8
None
390
0
 62
               7
100
AcDbBlockReference
  2
pad
 10
4.549499999999977
 20
2.9449926000000062
 30
0.0
  0
INSERT
  5
460
100
AcDbEntity
  8
None
390
0
 62
               7
100
AcDbBlockReference
  2
pad
 10
5.8194999999999801
 20
2.9449926000000062
 30
0.0
  0
INSERT
  5
461
100
AcDbEntity
  8
None
390
0
 62
               7
100
AcDbBlockReference
  2
pad
 10
7.0894999999999833
 20
2.9449926000000062
 30
0.0
  0
INSERT
  5
462
100
AcDbEntity
  8
None
390
0
 62
               7
100
AcDbBlockReference
  2
pad
 10
8.3594999999999864
 20
2.9449926000000062
 30
0.0
  0
INSERT
  5
463
100
AcDbEntity
  8
None
390
0
 62
               7
100
AcDbBlockReference
  2
pad
 10
9.6294999999999895
 20
2.9449926000000062
 30
0.0
  0
INSERT
  5
464
100
AcDbEntity
  8
None
390
0
 62
               7
100
AcDbBlockReference
  2
pad
 10
10.899499999999993
 20
2.9449926000000062
 30
0.0
  0
INSERT
  5
465
100
AcDbEntity
  8
None
390
0
 62
               7
100
AcDbBlockReference
  2
pad
 10
12.169499999999996
 20
2.9449926000000062
 30
0.0
  0
INSERT
  5
466
100
AcDbEntity
  8
None
390
0
 62
               7
100
AcDbBlockReference
  2
pad
 10
13.439499999999999
 20
2.9449926000000062
 30
0.0
  0
INSERT
  5
467
100
AcDbEntity
  8
None
390
0
 62
               7
100
AcDbBlockReference
  2
pad
 10
14.709500000000002
 20
2.9449926000000062
 30
0.0
  0
INSERT
  5
468
100
AcDbEntity
  8
None
390
0
 62
               7
100
AcDbBlockReference
  2
pad
 10
-27.200500000000016
 20
1.6749926000000102
 30
0.0
  0
INSERT
  5
469
100
AcDbEntity
  8
None
390
0
 62
               7
100
AcDbBlockReference
  2
pad
 10
-25.930500000000016
 20
1.6749926000000102
 30
0.0
  0
INSERT
  5
46A
100
AcDbEntity
  8
None
390
0
 62
               7
100
AcDbBlockReference
  2
pad
 10
-24.660500000000017
 20
1.6749926000000102
 30
0.0
  0
INSERT
  5
46B
100
AcDbEntity
  8
None
390
0
 62
               7
100
AcDbBlockReference
  2
pad
 10
-23.390500000000017
 20
1.6749926000000102
 30
0.0
  0
INSERT
  5
46C
100
AcDbEntity
  8
None
390
0
 62
               7
100
AcDbBlockReference
  2
pad
 10
-22.120500000000018
 20
1.6749926000000102
 30
0.0
  0
INSERT
  5
46D
100
AcDbEntity
  8
None
390
0
 62
               7
100
AcDbBlockReference
  2
pad
 10
-20.850500000000014
 20
1.6749926000000102
 30
0.0
  0
INSERT
  5
46E
100
AcDbEntity
  8
None
390
0
 62
               7
100
AcDbBlockReference
  2
pad
 10
-19.580500000000015
 20
1.6749926000000102
 30
0.0
  0
INSERT
  5
46F
100
AcDbEntity
  8
None
390
0
 62
               7
100
AcDbBlockReference
  2
pad
 10
-18.310500000000019
 20
1.6749926000000102
 30
0.0
  0
INSERT
  5
470
100
AcDbEntity
  8
None
390
0
 62
               7
100
AcDbBlockReference
  2
pad
 10
-17.040500000000016
 20
1.6749926000000102
 30
0.0
  0
INSERT
  5
471
100
AcDbEntity
  8
None
390
0
 62
               7
100
AcDbBlockReference
  2
pad
 10
-15.770500000000018
 20
1.6749926000000102
 30
0.0
  0
INSERT
  5
472
100
AcDbEntity
  8
None
390
0
 62
               7
100
AcDbBlockReference
  2
pad
 10
-14.500500000000018
 20
1.6749926000000102
 30
0.0
  0
INSERT
  5
473
100
AcDbEntity
  8
None
390
0
 62
               7
100
AcDbBlockReference
  2
pad
 10
-13.230500000000019
 20
1.6749926000000102
 30
0.0
  0
INSERT
  5
474
100
AcDbEntity
  8
None
390
0
 62
               7
100
AcDbBlockReference
  2
pad
 10
-11.960500000000019
 20
1.6749926000000102
 30
0.0
  0
INSERT
  5
475
100
AcDbEntity
  8
None
390
0
 62
               7
100
AcDbBlockReference
  2
pad
 10
-10.690500000000018
 20
1.6749926000000102
 30
0.0
  0
INSERT
  5
476
100
AcDbEntity
  8
None
390
0
 62
               7
100
AcDbBlockReference
  2
pad
 10
-9.4205000000000183
 20
1.6749926000000102
 30
0.0
  0
INSERT
  5
477
100
AcDbEntity
  8
None
390
0
 62
               7
100
AcDbBlockReference
  2
pad
 10
-8.1505000000000187
 20
1.6749926000000102
 30
0.0
  0
INSERT
  5
478
100
AcDbEntity
  8
None
390
0
 62
               7
100
AcDbBlockReference
  2
pad
 10
-6.8805000000000192
 20
1.6749926000000102
 30
0.0
  0
INSERT
  5
479
100
AcDbEntity
  8
None
390
0
 62
               7
100
AcDbBlockReference
  2
pad
 10
-5.6105000000000196
 20
1.6749926000000102
 30
0.0
  0
INSERT
  5
47A
100
AcDbEntity
  8
None
390
0
 62
               7
100
AcDbBlockReference
  2
pad
 10
-4.34050000000002
 20
1.6749926000000102
 30
0.0
  0
INSERT
  5
47B
100
AcDbEntity
  8
None
390
0
 62
               7
100
AcDbBlockReference
  2
pad
 10
-3.0705000000000204
 20
1.6749926000000102
 30
0.0
  0
INSERT
  5
47C
100
AcDbEntity
  8
None
390
0
 62
               7
100
AcDbBlockReference
  2
pad
 10
-1.8005000000000209
 20
1.6749926000000102
 30
0.0
  0
INSERT
  5
47D
100
AcDbEntity
  8
None
390
0
 62
               7
100
AcDbBlockReference
  2
pad
 10
-0.5305000000000213
 20
1.6749926000000102
 30
0.0
  0
INSERT
  5
47E
100
AcDbEntity
  8
None
390
0
 62
               7
100
AcDbBlockReference
  2
pad
 10
0.7394999999999783
 20
1.6749926000000102
 30
0.0
  0
INSERT
  5
47F
100
AcDbEntity
  8
None
390
0
 62
               7
100
AcDbBlockReference
  2
pad
 10
2.0094999999999779
 20
1.6749926000000102
 30
0.0
  0
INSERT
  5
480
100
AcDbEntity
  8
None
390
0
 62
               7
100
AcDbBlockReference
  2
pad
 10
3.2794999999999774
 20
1.6749926000000102
 30
0.0
  0
INSERT
  5
481
100
AcDbEntity
  8
None
390
0
 62
               7
100
AcDbBlockReference
  2
pad
 10
4.549499999999977
 20
1.6749926000000102
 30
0.0
  0
INSERT
  5
482
100
AcDbEntity
  8
None
390
0
 62
               7
100
AcDbBlockReference
  2
pad
 10
5.8194999999999801
 20
1.6749926000000102
 30
0.0
  0
INSERT
  5
483
100
AcDbEntity
  8
None
390
0
 62
               7
100
AcDbBlockReference
  2
pad
 10
7.0894999999999833
 20
1.6749926000000102
 30
0.0
  0
INSERT
  5
484
100
AcDbEntity
  8
None
390
0
 62
               7
100
AcDbBlockReference
  2
pad
 10
8.3594999999999864
 20
1.6749926000000102
 30
0.0
  0
INSERT
  5
485
100
AcDbEntity
  8
None
390
0
 62
               7
100
AcDbBlockReference
  2
pad
 10
9.6294999999999895
 20
1.6749926000000102
 30
0.0
  0
INSERT
  5
486
100
AcDbEntity
  8
None
390
0
 62
               7
100
AcDbBlockReference
  2
pad
 10
10.899499999999993
 20
1.6749926000000102
 30
0.0
  0
INSERT
  5
487
100
AcDbEntity
  8
None
390
0
 62
               7
100
AcDbBlockReference
  2
pad
 10
12.169499999999996
 20
1.6749926000000102
 30
0.0
  0
INSERT
  5
488
100
AcDbEntity
  8
None
390
0
 62
               7
100
AcDbBlockReference
  2
pad
 10
13.439499999999999
 20
1.6749926000000102
 30
0.0
  0
INSERT
  5
489
100
AcDbEntity
  8
None
390
0
 62
               7
100
AcDbBlockReference
  2
pad
 10
14.709500000000002
 20
1.6749926000000102
 30
0.0
  0
INSERT
  5
48A
100
AcDbEntity
  8
None
390
0
 62
               7
100
AcDbBlockReference
  2
pad
 10
-27.200500000000016
 20
0.404992600000007
 30
0.0
  0
INSERT
  5
48B
100
AcDbEntity
  8
None
390
0
 62
               7
100
AcDbBlockReference
  2
pad
 10
-25.930500000000016
 20
0.404992600000007
 30
0.0
  0
INSERT
  5
48C
100
AcDbEntity
  8
None
390
0
 62
               7
100
AcDbBlockReference
  2
pad
 10
-24.660500000000017
 20
0.404992600000007
 30
0.0
  0
INSERT
  5
48D
100
AcDbEntity
  8
None
390
0
 62
               7
100
AcDbBlockReference
  2
pad
 10
-23.390500000000017
 20
0.404992600000007
 30
0.0
  0
INSERT
  5
48E
100
AcDbEntity
  8
None
390
0
 62
               7
100
AcDbBlockReference
  2
pad
 10
-22.120500000000018
 20
0.404992600000007
 30
0.0
  0
INSERT
  5
48F
100
AcDbEntity
  8
None
390
0
 62
               7
100
AcDbBlockReference
  2
pad
 10
-20.850500000000014
 20
0.404992600000007
 30
0.0
  0
INSERT
  5
490
100
AcDbEntity
  8
None
390
0
 62
               7
100
AcDbBlockReference
  2
pad
 10
-19.580500000000015
 20
0.404992600000007
 30
0.0
  0
INSERT
  5
491
100
AcDbEntity
  8
None
390
0
 62
               7
100
AcDbBlockReference
  2
pad
 10
-18.310500000000019
 20
0.404992600000007
 30
0.0
  0
INSERT
  5
492
100
AcDbEntity
  8
None
390
0
 62
               7
100
AcDbBlockReference
  2
pad
 10
-17.040500000000016
 20
0.404992600000007
 30
0.0
  0
INSERT
  5
493
100
AcDbEntity
  8
None
390
0
 62
               7
100
AcDbBlockReference
  2
pad
 10
-15.770500000000018
 20
0.404992600000007
 30
0.0
  0
INSERT
  5
494
100
AcDbEntity
  8
None
390
0
 62
               7
100
AcDbBlockReference
  2
pad
 10
-14.500500000000018
 20
0.404992600000007
 30
0.0
  0
INSERT
  5
495
100
AcDbEntity
  8
None
390
0
 62
               7
100
AcDbBlockReference
  2
pad
 10
-13.230500000000019
 20
0.404992600000007
 30
0.0
  0
INSERT
  5
496
100
AcDbEntity
  8
None
390
0
 62
               7
100
AcDbBlockReference
  2
pad
 10
-11.960500000000019
 20
0.404992600000007
 30
0.0
  0
INSERT
  5
497
100
AcDbEntity
  8
None
390
0
 62
               7
100
AcDbBlockReference
  2
pad
 10
-10.690500000000018
 20
0.404992600000007
 30
0.0
  0
INSERT
  5
498
100
AcDbEntity
  8
None
390
0
 62
               7
100
AcDbBlockReference
  2
pad
 10
-9.4205000000000183
 20
0.404992600000007
 30
0.0
  0
INSERT
  5
499
100
AcDbEntity
  8
None
390
0
 62
               7
100
AcDbBlockReference
  2
pad
 10
-8.1505000000000187
 20
0.404992600000007
 30
0.0
  0
INSERT
  5
49A
100
AcDbEntity
  8
None
390
0
 62
               7
100
AcDbBlockReference
  2
pad
 10
-6.8805000000000192
 20
0.404992600000007
 30
0.0
  0
INSERT
  5
49B
100
AcDbEntity
  8
None
390
0
 62
               7
100
AcDbBlockReference
  2
pad
 10
-5.6105000000000196
 20
0.404992600000007
 30
0.0
  0
INSERT
  5
49C
100
AcDbEntity
  8
None
390
0
 62
               7
100
AcDbBlockReference
  2
pad
 10
-4.34050000000002
 20
0.404992600000007
 30
0.0
  0
INSERT
  5
49D
100
AcDbEntity
  8
None
390
0
 62
               7
100
AcDbBlockReference
  2
pad
 10
-3.0705000000000204
 20
0.404992600000007
 30
0.0
  0
INSERT
  5
49E
100
AcDbEntity
  8
None
390
0
 62
               7
100
AcDbBlockReference
  2
pad
 10
-1.8005000000000209
 20
0.404992600000007
 30
0.0
  0
INSERT
  5
49F
100
AcDbEntity
  8
None
390
0
 62
               7
100
AcDbBlockReference
  2
pad
 10
-0.5305000000000213
 20
0.404992600000007
 30
0.0
  0
INSERT
  5
4A0
100
AcDbEntity
  8
None
390
0
 62
               7
100
AcDbBlockReference
  2
pad
 10
0.7394999999999783
 20
0.404992600000007
 30
0.0
  0
INSERT
  5
4A1
100
AcDbEntity
  8
None
390
0
 62
               7
100
AcDbBlockReference
  2
pad
 10
2.0094999999999779
 20
0.404992600000007
 30
0.0
  0
INSERT
  5
4A2
100
AcDbEntity
  8
None
390
0
 62
               7
100
AcDbBlockReference
  2
pad
 10
3.2794999999999774
 20
0.404992600000007
 30
0.0
  0
INSERT
  5
4A3
100
AcDbEntity
  8
None
390
0
 62
               7
100
AcDbBlockReference
  2
pad
 10
4.549499999999977
 20
0.404992600000007
 30
0.0
  0
INSERT
  5
4A4
100
AcDbEntity
  8
None
390
0
 62
               7
100
AcDbBlockReference
  2
pad
 10
5.8194999999999801
 20
0.404992600000007
 30
0.0
  0
INSERT
  5
4A5
100
AcDbEntity
  8
None
390
0
 62
               7
100
AcDbBlockReference
  2
pad
 10
7.0894999999999833
 20
0.404992600000007
 30
0.0
  0
INSERT
  5
4A6
100
AcDbEntity
  8
None
390
0
 62
               7
100
AcDbBlockReference
  2
pad
 10
8.3594999999999864
 20
0.404992600000007
 30
0.0
  0
INSERT
  5
4A7
100
AcDbEntity
  8
None
390
0
 62
               7
100
AcDbBlockReference
  2
pad
 10
9.6294999999999895
 20
0.404992600000007
 30
0.0
  0
INSERT
  5
4A8
100
AcDbEntity
  8
None
390
0
 62
               7
100
AcDbBlockReference
  2
pad
 10
10.899499999999993
 20
0.404992600000007
 30
0.0
  0
INSERT
  5
4A9
100
AcDbEntity
  8
None
390
0
 62
               7
100
AcDbBlockReference
  2
pad
 10
12.169499999999996
 20
0.404992600000007
 30
0.0
  0
INSERT
  5
4AA
100
AcDbEntity
  8
None
390
0
 62
               7
100
AcDbBlockReference
  2
pad
 10
13.439499999999999
 20
0.404992600000007
 30
0.0
  0
INSERT
  5
4AB
100
AcDbEntity
  8
None
390
0
 62
               7
100
AcDbBlockReference
  2
pad
 10
14.709500000000002
 20
0.404992600000007
 30
0.0
  0
INSERT
  5
4AC
100
AcDbEntity
  8
None
390
0
 62
               7
100
AcDbBlockReference
  2
pad
 10
-27.200500000000016
 20
-0.8650073999999961
 30
0.0
  0
INSERT
  5
4AD
100
AcDbEntity
  8
None
390
0
 62
               7
100
AcDbBlockReference
  2
pad
 10
-25.930500000000016
 20
-0.8650073999999961
 30
0.0
  0
INSERT
  5
4AE
100
AcDbEntity
  8
None
390
0
 62
               7
100
AcDbBlockReference
  2
pad
 10
-24.660500000000017
 20
-0.8650073999999961
 30
0.0
  0
INSERT
  5
4AF
100
AcDbEntity
  8
None
390
0
 62
               7
100
AcDbBlockReference
  2
pad
 10
-23.390500000000017
 20
-0.8650073999999961
 30
0.0
  0
INSERT
  5
4B0
100
AcDbEntity
  8
None
390
0
 62
               7
100
AcDbBlockReference
  2
pad
 10
-22.120500000000018
 20
-0.8650073999999961
 30
0.0
  0
INSERT
  5
4B1
100
AcDbEntity
  8
None
390
0
 62
               7
100
AcDbBlockReference
  2
pad
 10
-20.850500000000014
 20
-0.8650073999999961
 30
0.0
  0
INSERT
  5
4B2
100
AcDbEntity
  8
None
390
0
 62
               7
100
AcDbBlockReference
  2
pad
 10
-19.580500000000015
 20
-0.8650073999999961
 30
0.0
  0
INSERT
  5
4B3
100
AcDbEntity
  8
None
390
0
 62
               7
100
AcDbBlockReference
  2
pad
 10
-18.310500000000019
 20
-0.8650073999999961
 30
0.0
  0
INSERT
  5
4B4
100
AcDbEntity
  8
None
390
0
 62
               7
100
AcDbBlockReference
  2
pad
 10
-17.040500000000016
 20
-0.8650073999999961
 30
0.0
  0
INSERT
  5
4B5
100
AcDbEntity
  8
None
390
0
 62
               7
100
AcDbBlockReference
  2
pad
 10
-15.770500000000018
 20
-0.8650073999999961
 30
0.0
  0
INSERT
  5
4B6
100
AcDbEntity
  8
None
390
0
 62
               7
100
AcDbBlockReference
  2
pad
 10
-14.500500000000018
 20
-0.8650073999999961
 30
0.0
  0
INSERT
  5
4B7
100
AcDbEntity
  8
None
390
0
 62
               7
100
AcDbBlockReference
  2
pad
 10
-13.230500000000019
 20
-0.8650073999999961
 30
0.0
  0
INSERT
  5
4B8
100
AcDbEntity
  8
None
390
0
 62
               7
100
AcDbBlockReference
  2
pad
 10
-11.960500000000019
 20
-0.8650073999999961
 30
0.0
  0
INSERT
  5
4B9
100
AcDbEntity
  8
None
390
0
 62
               7
100
AcDbBlockReference
  2
pad
 10
-10.690500000000018
 20
-0.8650073999999961
 30
0.0
  0
INSERT
  5
4BA
100
AcDbEntity
  8
None
390
0
 62
               7
100
AcDbBlockReference
  2
pad
 10
-9.4205000000000183
 20
-0.8650073999999961
 30
0.0
  0
INSERT
  5
4BB
100
AcDbEntity
  8
None
390
0
 62
               7
100
AcDbBlockReference
  2
pad
 10
-8.1505000000000187
 20
-0.8650073999999961
 30
0.0
  0
INSERT
  5
4BC
100
AcDbEntity
  8
None
390
0
 62
               7
100
AcDbBlockReference
  2
pad
 10
-6.8805000000000192
 20
-0.8650073999999961
 30
0.0
  0
INSERT
  5
4BD
100
AcDbEntity
  8
None
390
0
 62
               7
100
AcDbBlockReference
  2
pad
 10
-5.6105000000000196
 20
-0.8650073999999961
 30
0.0
  0
INSERT
  5
4BE
100
AcDbEntity
  8
None
390
0
 62
               7
100
AcDbBlockReference
  2
pad
 10
-4.34050000000002
 20
-0.8650073999999961
 30
0.0
  0
INSERT
  5
4BF
100
AcDbEntity
  8
None
390
0
 62
               7
100
AcDbBlockReference
  2
pad
 10
-3.0705000000000204
 20
-0.8650073999999961
 30
0.0
  0
INSERT
  5
4C0
100
AcDbEntity
  8
None
390
0
 62
               7
100
AcDbBlockReference
  2
pad
 10
-1.8005000000000209
 20
-0.8650073999999961
 30
0.0
  0
INSERT
  5
4C1
100
AcDbEntity
  8
None
390
0
 62
               7
100
AcDbBlockReference
  2
pad
 10
-0.5305000000000213
 20
-0.8650073999999961
 30
0.0
  0
INSERT
  5
4C2
100
AcDbEntity
  8
None
390
0
 62
               7
100
AcDbBlockReference
  2
pad
 10
0.7394999999999783
 20
-0.8650073999999961
 30
0.0
  0
INSERT
  5
4C3
100
AcDbEntity
  8
None
390
0
 62
               7
100
AcDbBlockReference
  2
pad
 10
2.0094999999999779
 20
-0.8650073999999961
 30
0.0
  0
INSERT
  5
4C4
100
AcDbEntity
  8
None
390
0
 62
               7
100
AcDbBlockReference
  2
pad
 10
3.2794999999999774
 20
-0.8650073999999961
 30
0.0
  0
INSERT
  5
4C5
100
AcDbEntity
  8
None
390
0
 62
               7
100
AcDbBlockReference
  2
pad
 10
4.549499999999977
 20
-0.8650073999999961
 30
0.0
  0
INSERT
  5
4C6
100
AcDbEntity
  8
None
390
0
 62
               7
100
AcDbBlockReference
  2
pad
 10
5.8194999999999801
 20
-0.8650073999999961
 30
0.0
  0
INSERT
  5
4C7
100
AcDbEntity
  8
None
390
0
 62
               7
100
AcDbBlockReference
  2
pad
 10
7.0894999999999833
 20
-0.8650073999999961
 30
0.0
  0
INSERT
  5
4C8
100
AcDbEntity
  8
None
390
0
 62
               7
100
AcDbBlockReference
  2
pad
 10
8.3594999999999864
 20
-0.8650073999999961
 30
0.0
  0
INSERT
  5
4C9
100
AcDbEntity
  8
None
390
0
 62
               7
100
AcDbBlockReference
  2
pad
 10
9.6294999999999895
 20
-0.8650073999999961
 30
0.0
  0
INSERT
  5
4CA
100
AcDbEntity
  8
None
390
0
 62
               7
100
AcDbBlockReference
  2
pad
 10
10.899499999999993
 20
-0.8650073999999961
 30
0.0
  0
INSERT
  5
4CB
100
AcDbEntity
  8
None
390
0
 62
               7
100
AcDbBlockReference
  2
pad
 10
12.169499999999996
 20
-0.8650073999999961
 30
0.0
  0
INSERT
  5
4CC
100
AcDbEntity
  8
None
390
0
 62
               7
100
AcDbBlockReference
  2
pad
 10
13.439499999999999
 20
-0.8650073999999961
 30
0.0
  0
INSERT
  5
4CD
100
AcDbEntity
  8
None
390
0
 62
               7
100
AcDbBlockReference
  2
pad
 10
14.709500000000002
 20
-0.8650073999999961
 30
0.0
  0
INSERT
  5
4CE
100
AcDbEntity
  8
None
390
0
 62
               7
100
AcDbBlockReference
  2
pad
 10
-27.200500000000016
 20
-2.1350073999999992
 30
0.0
  0
INSERT
  5
4CF
100
AcDbEntity
  8
None
390
0
 62
               7
100
AcDbBlockReference
  2
pad
 10
-25.930500000000016
 20
-2.1350073999999992
 30
0.0
  0
INSERT
  5
4D0
100
AcDbEntity
  8
None
390
0
 62
               7
100
AcDbBlockReference
  2
pad
 10
-24.660500000000017
 20
-2.1350073999999992
 30
0.0
  0
INSERT
  5
4D1
100
AcDbEntity
  8
None
390
0
 62
               7
100
AcDbBlockReference
  2
pad
 10
-23.390500000000017
 20
-2.1350073999999992
 30
0.0
  0
INSERT
  5
4D2
100
AcDbEntity
  8
None
390
0
 62
               7
100
AcDbBlockReference
  2
pad
 10
-22.120500000000018
 20
-2.1350073999999992
 30
0.0
  0
INSERT
  5
4D3
100
AcDbEntity
  8
None
390
0
 62
               7
100
AcDbBlockReference
  2
pad
 10
-20.850500000000014
 20
-2.1350073999999992
 30
0.0
  0
INSERT
  5
4D4
100
AcDbEntity
  8
None
390
0
 62
               7
100
AcDbBlockReference
  2
pad
 10
-19.580500000000015
 20
-2.1350073999999992
 30
0.0
  0
INSERT
  5
4D5
100
AcDbEntity
  8
None
390
0
 62
               7
100
AcDbBlockReference
  2
pad
 10
-18.310500000000019
 20
-2.1350073999999992
 30
0.0
  0
INSERT
  5
4D6
100
AcDbEntity
  8
None
390
0
 62
               7
100
AcDbBlockReference
  2
pad
 10
-17.040500000000016
 20
-2.1350073999999992
 30
0.0
  0
INSERT
  5
4D7
100
AcDbEntity
  8
None
390
0
 62
               7
100
AcDbBlockReference
  2
pad
 10
-15.770500000000018
 20
-2.1350073999999992
 30
0.0
  0
INSERT
  5
4D8
100
AcDbEntity
  8
None
390
0
 62
               7
100
AcDbBlockReference
  2
pad
 10
-14.500500000000018
 20
-2.1350073999999992
 30
0.0
  0
INSERT
  5
4D9
100
AcDbEntity
  8
None
390
0
 62
               7
100
AcDbBlockReference
  2
pad
 10
-13.230500000000019
 20
-2.1350073999999992
 30
0.0
  0
INSERT
  5
4DA
100
AcDbEntity
  8
None
390
0
 62
               7
100
AcDbBlockReference
  2
pad
 10
-11.960500000000019
 20
-2.1350073999999992
 30
0.0
  0
INSERT
  5
4DB
100
AcDbEntity
  8
None
390
0
 62
               7
100
AcDbBlockReference
  2
pad
 10
-10.690500000000018
 20
-2.1350073999999992
 30
0.0
  0
INSERT
  5
4DC
100
AcDbEntity
  8
None
390
0
 62
               7
100
AcDbBlockReference
  2
pad
 10
-9.4205000000000183
 20
-2.1350073999999992
 30
0.0
  0
INSERT
  5
4DD
100
AcDbEntity
  8
None
390
0
 62
               7
100
AcDbBlockReference
  2
pad
 10
-8.1505000000000187
 20
-2.1350073999999992
 30
0.0
  0
INSERT
  5
4DE
100
AcDbEntity
  8
None
390
0
 62
               7
100
AcDbBlockReference
  2
pad
 10
-6.8805000000000192
 20
-2.1350073999999992
 30
0.0
  0
INSERT
  5
4DF
100
AcDbEntity
  8
None
390
0
 62
               7
100
AcDbBlockReference
  2
pad
 10
-5.6105000000000196
 20
-2.1350073999999992
 30
0.0
  0
INSERT
  5
4E0
100
AcDbEntity
  8
None
390
0
 62
               7
100
AcDbBlockReference
  2
pad
 10
-4.34050000000002
 20
-2.1350073999999992
 30
0.0
  0
INSERT
  5
4E1
100
AcDbEntity
  8
None
390
0
 62
               7
100
AcDbBlockReference
  2
pad
 10
-3.0705000000000204
 20
-2.1350073999999992
 30
0.0
  0
INSERT
  5
4E2
100
AcDbEntity
  8
None
390
0
 62
               7
100
AcDbBlockReference
  2
pad
 10
-1.8005000000000209
 20
-2.1350073999999992
 30
0.0
  0
INSERT
  5
4E3
100
AcDbEntity
  8
None
390
0
 62
               7
100
AcDbBlockReference
  2
pad
 10
-0.5305000000000213
 20
-2.1350073999999992
 30
0.0
  0
INSERT
  5
4E4
100
AcDbEntity
  8
None
390
0
 62
               7
100
AcDbBlockReference
  2
pad
 10
0.7394999999999783
 20
-2.1350073999999992
 30
0.0
  0
INSERT
  5
4E5
100
AcDbEntity
  8
None
390
0
 62
               7
100
AcDbBlockReference
  2
pad
 10
2.0094999999999779
 20
-2.1350073999999992
 30
0.0
  0
INSERT
  5
4E6
100
AcDbEntity
  8
None
390
0
 62
               7
100
AcDbBlockReference
  2
pad
 10
3.2794999999999774
 20
-2.1350073999999992
 30
0.0
  0
INSERT
  5
4E7
100
AcDbEntity
  8
None
390
0
 62
               7
100
AcDbBlockReference
  2
pad
 10
4.549499999999977
 20
-2.1350073999999992
 30
0.0
  0
INSERT
  5
4E8
100
AcDbEntity
  8
None
390
0
 62
               7
100
AcDbBlockReference
  2
pad
 10
5.8194999999999801
 20
-2.1350073999999992
 30
0.0
  0
INSERT
  5
4E9
100
AcDbEntity
  8
None
390
0
 62
               7
100
AcDbBlockReference
  2
pad
 10
7.0894999999999833
 20
-2.1350073999999992
 30
0.0
  0
INSERT
  5
4EA
100
AcDbEntity
  8
None
390
0
 62
               7
100
AcDbBlockReference
  2
pad
 10
8.3594999999999864
 20
-2.1350073999999992
 30
0.0
  0
INSERT
  5
4EB
100
AcDbEntity
  8
None
390
0
 62
               7
100
AcDbBlockReference
  2
pad
 10
9.6294999999999895
 20
-2.1350073999999992
 30
0.0
  0
INSERT
  5
4EC
100
AcDbEntity
  8
None
390
0
 62
               7
100
AcDbBlockReference
  2
pad
 10
10.899499999999993
 20
-2.1350073999999992
 30
0.0
  0
INSERT
  5
4ED
100
AcDbEntity
  8
None
390
0
 62
               7
100
AcDbBlockReference
  2
pad
 10
12.169499999999996
 20
-2.1350073999999992
 30
0.0
  0
INSERT
  5
4EE
100
AcDbEntity
  8
None
390
0
 62
               7
100
AcDbBlockReference
  2
pad
 10
13.439499999999999
 20
-2.1350073999999992
 30
0.0
  0
INSERT
  5
4EF
100
AcDbEntity
  8
None
390
0
 62
               7
100
AcDbBlockReference
  2
pad
 10
14.709500000000002
 20
-2.1350073999999992
 30
0.0
  0
INSERT
  5
4F0
100
AcDbEntity
  8
None
390
0
 62
               7
100
AcDbBlockReference
  2
pad
 10
-27.200500000000016
 20
-3.4050074000000023
 30
0.0
  0
INSERT
  5
4F1
100
AcDbEntity
  8
None
390
0
 62
               7
100
AcDbBlockReference
  2
pad
 10
-25.930500000000016
 20
-3.4050074000000023
 30
0.0
  0
INSERT
  5
4F2
100
AcDbEntity
  8
None
390
0
 62
               7
100
AcDbBlockReference
  2
pad
 10
-24.660500000000017
 20
-3.4050074000000023
 30
0.0
  0
INSERT
  5
4F3
100
AcDbEntity
  8
None
390
0
 62
               7
100
AcDbBlockReference
  2
pad
 10
-23.390500000000017
 20
-3.4050074000000023
 30
0.0
  0
INSERT
  5
4F4
100
AcDbEntity
  8
None
390
0
 62
               7
100
AcDbBlockReference
  2
pad
 10
-22.120500000000018
 20
-3.4050074000000023
 30
0.0
  0
INSERT
  5
4F5
100
AcDbEntity
  8
None
390
0
 62
               7
100
AcDbBlockReference
  2
pad
 10
-20.850500000000014
 20
-3.4050074000000023
 30
0.0
  0
INSERT
  5
4F6
100
AcDbEntity
  8
None
390
0
 62
               7
100
AcDbBlockReference
  2
pad
 10
-19.580500000000015
 20
-3.4050074000000023
 30
0.0
  0
INSERT
  5
4F7
100
AcDbEntity
  8
None
390
0
 62
               7
100
AcDbBlockReference
  2
pad
 10
-18.310500000000019
 20
-3.4050074000000023
 30
0.0
  0
INSERT
  5
4F8
100
AcDbEntity
  8
None
390
0
 62
               7
100
AcDbBlockReference
  2
pad
 10
-17.040500000000016
 20
-3.4050074000000023
 30
0.0
  0
INSERT
  5
4F9
100
AcDbEntity
  8
None
390
0
 62
               7
100
AcDbBlockReference
  2
pad
 10
-15.770500000000018
 20
-3.4050074000000023
 30
0.0
  0
INSERT
  5
4FA
100
AcDbEntity
  8
None
390
0
 62
               7
100
AcDbBlockReference
  2
pad
 10
-14.500500000000018
 20
-3.4050074000000023
 30
0.0
  0
INSERT
  5
4FB
100
AcDbEntity
  8
None
390
0
 62
               7
100
AcDbBlockReference
  2
pad
 10
-13.230500000000019
 20
-3.4050074000000023
 30
0.0
  0
INSERT
  5
4FC
100
AcDbEntity
  8
None
390
0
 62
               7
100
AcDbBlockReference
  2
pad
 10
-11.960500000000019
 20
-3.4050074000000023
 30
0.0
  0
INSERT
  5
4FD
100
AcDbEntity
  8
None
390
0
 62
               7
100
AcDbBlockReference
  2
pad
 10
-10.690500000000018
 20
-3.4050074000000023
 30
0.0
  0
INSERT
  5
4FE
100
AcDbEntity
  8
None
390
0
 62
               7
100
AcDbBlockReference
  2
pad
 10
-9.4205000000000183
 20
-3.4050074000000023
 30
0.0
  0
INSERT
  5
4FF
100
AcDbEntity
  8
None
390
0
 62
               7
100
AcDbBlockReference
  2
pad
 10
-8.1505000000000187
 20
-3.4050074000000023
 30
0.0
  0
INSERT
  5
500
100
AcDbEntity
  8
None
390
0
 62
               7
100
AcDbBlockReference
  2
pad
 10
-6.8805000000000192
 20
-3.4050074000000023
 30
0.0
  0
INSERT
  5
501
100
AcDbEntity
  8
None
390
0
 62
               7
100
AcDbBlockReference
  2
pad
 10
-5.6105000000000196
 20
-3.4050074000000023
 30
0.0
  0
INSERT
  5
502
100
AcDbEntity
  8
None
390
0
 62
               7
100
AcDbBlockReference
  2
pad
 10
-4.34050000000002
 20
-3.4050074000000023
 30
0.0
  0
INSERT
  5
503
100
AcDbEntity
  8
None
390
0
 62
               7
100
AcDbBlockReference
  2
pad
 10
-3.0705000000000204
 20
-3.4050074000000023
 30
0.0
  0
INSERT
  5
504
100
AcDbEntity
  8
None
390
0
 62
               7
100
AcDbBlockReference
  2
pad
 10
-1.8005000000000209
 20
-3.4050074000000023
 30
0.0
  0
INSERT
  5
505
100
AcDbEntity
  8
None
390
0
 62
               7
100
AcDbBlockReference
  2
pad
 10
-0.5305000000000213
 20
-3.4050074000000023
 30
0.0
  0
INSERT
  5
506
100
AcDbEntity
  8
None
390
0
 62
               7
100
AcDbBlockReference
  2
pad
 10
0.7394999999999783
 20
-3.4050074000000023
 30
0.0
  0
INSERT
  5
507
100
AcDbEntity
  8
None
390
0
 62
               7
100
AcDbBlockReference
  2
pad
 10
2.0094999999999779
 20
-3.4050074000000023
 30
0.0
  0
INSERT
  5
508
100
AcDbEntity
  8
None
390
0
 62
               7
100
AcDbBlockReference
  2
pad
 10
3.2794999999999774
 20
-3.4050074000000023
 30
0.0
  0
INSERT
  5
509
100
AcDbEntity
  8
None
390
0
 62
               7
100
AcDbBlockReference
  2
pad
 10
4.549499999999977
 20
-3.4050074000000023
 30
0.0
  0
INSERT
  5
50A
100
AcDbEntity
  8
None
390
0
 62
               7
100
AcDbBlockReference
  2
pad
 10
5.8194999999999801
 20
-3.4050074000000023
 30
0.0
  0
INSERT
  5
50B
100
AcDbEntity
  8
None
390
0
 62
               7
100
AcDbBlockReference
  2
pad
 10
7.0894999999999833
 20
-3.4050074000000023
 30
0.0
  0
INSERT
  5
50C
100
AcDbEntity
  8
None
390
0
 62
               7
100
AcDbBlockReference
  2
pad
 10
8.3594999999999864
 20
-3.4050074000000023
 30
0.0
  0
INSERT
  5
50D
100
AcDbEntity
  8
None
390
0
 62
               7
100
AcDbBlockReference
  2
pad
 10
9.6294999999999895
 20
-3.4050074000000023
 30
0.0
  0
INSERT
  5
50E
100
AcDbEntity
  8
None
390
0
 62
               7
100
AcDbBlockReference
  2
pad
 10
10.899499999999993
 20
-3.4050074000000023
 30
0.0
  0
INSERT
  5
50F
100
AcDbEntity
  8
None
390
0
 62
               7
100
AcDbBlockReference
  2
pad
 10
12.169499999999996
 20
-3.4050074000000023
 30
0.0
  0
INSERT
  5
510
100
AcDbEntity
  8
None
390
0
 62
               7
100
AcDbBlockReference
  2
pad
 10
13.439499999999999
 20
-3.4050074000000023
 30
0.0
  0
INSERT
  5
511
100
AcDbEntity
  8
None
390
0
 62
               7
100
AcDbBlockReference
  2
pad
 10
14.709500000000002
 20
-3.4050074000000023
 30
0.0
  0
INSERT
  5
512
100
AcDbEntity
  8
None
390
0
 62
               7
100
AcDbBlockReference
  2
pad
 10
-27.200500000000016
 20
-4.6750074000000055
 30
0.0
  0
INSERT
  5
513
100
AcDbEntity
  8
None
390
0
 62
               7
100
AcDbBlockReference
  2
pad
 10
-25.930500000000016
 20
-4.6750074000000055
 30
0.0
  0
INSERT
  5
514
100
AcDbEntity
  8
None
390
0
 62
               7
100
AcDbBlockReference
  2
pad
 10
-24.660500000000017
 20
-4.6750074000000055
 30
0.0
  0
INSERT
  5
515
100
AcDbEntity
  8
None
390
0
 62
               7
100
AcDbBlockReference
  2
pad
 10
-23.390500000000017
 20
-4.6750074000000055
 30
0.0
  0
INSERT
  5
516
100
AcDbEntity
  8
None
390
0
 62
               7
100
AcDbBlockReference
  2
pad
 10
-22.120500000000018
 20
-4.6750074000000055
 30
0.0
  0
INSERT
  5
517
100
AcDbEntity
  8
None
390
0
 62
               7
100
AcDbBlockReference
  2
pad
 10
-20.850500000000014
 20
-4.6750074000000055
 30
0.0
  0
INSERT
  5
518
100
AcDbEntity
  8
None
390
0
 62
               7
100
AcDbBlockReference
  2
pad
 10
-19.580500000000015
 20
-4.6750074000000055
 30
0.0
  0
INSERT
  5
519
100
AcDbEntity
  8
None
390
0
 62
               7
100
AcDbBlockReference
  2
pad
 10
-18.310500000000019
 20
-4.6750074000000055
 30
0.0
  0
INSERT
  5
51A
100
AcDbEntity
  8
None
390
0
 62
               7
100
AcDbBlockReference
  2
pad
 10
-17.040500000000016
 20
-4.6750074000000055
 30
0.0
  0
INSERT
  5
51B
100
AcDbEntity
  8
None
390
0
 62
               7
100
AcDbBlockReference
  2
pad
 10
-15.770500000000018
 20
-4.6750074000000055
 30
0.0
  0
INSERT
  5
51C
100
AcDbEntity
  8
None
390
0
 62
               7
100
AcDbBlockReference
  2
pad
 10
-14.500500000000018
 20
-4.6750074000000055
 30
0.0
  0
INSERT
  5
51D
100
AcDbEntity
  8
None
390
0
 62
               7
100
AcDbBlockReference
  2
pad
 10
-13.230500000000019
 20
-4.6750074000000055
 30
0.0
  0
INSERT
  5
51E
100
AcDbEntity
  8
None
390
0
 62
               7
100
AcDbBlockReference
  2
pad
 10
-11.960500000000019
 20
-4.6750074000000055
 30
0.0
  0
INSERT
  5
51F
100
AcDbEntity
  8
None
390
0
 62
               7
100
AcDbBlockReference
  2
pad
 10
-10.690500000000018
 20
-4.6750074000000055
 30
0.0
  0
INSERT
  5
520
100
AcDbEntity
  8
None
390
0
 62
               7
100
AcDbBlockReference
  2
pad
 10
-9.4205000000000183
 20
-4.6750074000000055
 30
0.0
  0
INSERT
  5
521
100
AcDbEntity
  8
None
390
0
 62
               7
100
AcDbBlockReference
  2
pad
 10
-8.1505000000000187
 20
-4.6750074000000055
 30
0.0
  0
INSERT
  5
522
100
AcDbEntity
  8
None
390
0
 62
               7
100
AcDbBlockReference
  2
pad
 10
-6.8805000000000192
 20
-4.6750074000000055
 30
0.0
  0
INSERT
  5
523
100
AcDbEntity
  8
None
390
0
 62
               7
100
AcDbBlockReference
  2
pad
 10
-5.6105000000000196
 20
-4.6750074000000055
 30
0.0
  0
INSERT
  5
524
100
AcDbEntity
  8
None
390
0
 62
               7
100
AcDbBlockReference
  2
pad
 10
-4.34050000000002
 20
-4.6750074000000055
 30
0.0
  0
INSERT
  5
525
100
AcDbEntity
  8
None
390
0
 62
               7
100
AcDbBlockReference
  2
pad
 10
-3.0705000000000204
 20
-4.6750074000000055
 30
0.0
  0
INSERT
  5
526
100
AcDbEntity
  8
None
390
0
 62
               7
100
AcDbBlockReference
  2
pad
 10
-1.8005000000000209
 20
-4.6750074000000055
 30
0.0
  0
INSERT
  5
527
100
AcDbEntity
  8
None
390
0
 62
               7
100
AcDbBlockReference
  2
pad
 10
-0.5305000000000213
 20
-4.6750074000000055
 30
0.0
  0
INSERT
  5
528
100
AcDbEntity
  8
None
390
0
 62
               7
100
AcDbBlockReference
  2
pad
 10
0.7394999999999783
 20
-4.6750074000000055
 30
0.0
  0
INSERT
  5
529
100
AcDbEntity
  8
None
390
0
 62
               7
100
AcDbBlockReference
  2
pad
 10
2.0094999999999779
 20
-4.6750074000000055
 30
0.0
  0
INSERT
  5
52A
100
AcDbEntity
  8
None
390
0
 62
               7
100
AcDbBlockReference
  2
pad
 10
3.2794999999999774
 20
-4.6750074000000055
 30
0.0
  0
INSERT
  5
52B
100
AcDbEntity
  8
None
390
0
 62
               7
100
AcDbBlockReference
  2
pad
 10
4.549499999999977
 20
-4.6750074000000055
 30
0.0
  0
INSERT
  5
52C
100
AcDbEntity
  8
None
390
0
 62
               7
100
AcDbBlockReference
  2
pad
 10
5.8194999999999801
 20
-4.6750074000000055
 30
0.0
  0
INSERT
  5
52D
100
AcDbEntity
  8
None
390
0
 62
               7
100
AcDbBlockReference
  2
pad
 10
7.0894999999999833
 20
-4.6750074000000055
 30
0.0
  0
INSERT
  5
52E
100
AcDbEntity
  8
None
390
0
 62
               7
100
AcDbBlockReference
  2
pad
 10
8.3594999999999864
 20
-4.6750074000000055
 30
0.0
  0
INSERT
  5
52F
100
AcDbEntity
  8
None
390
0
 62
               7
100
AcDbBlockReference
  2
pad
 10
9.6294999999999895
 20
-4.6750074000000055
 30
0.0
  0
INSERT
  5
530
100
AcDbEntity
  8
None
390
0
 62
               7
100
AcDbBlockReference
  2
pad
 10
10.899499999999993
 20
-4.6750074000000055
 30
0.0
  0
INSERT
  5
531
100
AcDbEntity
  8
None
390
0
 62
               7
100
AcDbBlockReference
  2
pad
 10
12.169499999999996
 20
-4.6750074000000055
 30
0.0
  0
INSERT
  5
532
100
AcDbEntity
  8
None
390
0
 62
               7
100
AcDbBlockReference
  2
pad
 10
13.439499999999999
 20
-4.6750074000000055
 30
0.0
  0
INSERT
  5
533
100
AcDbEntity
  8
None
390
0
 62
               7
100
AcDbBlockReference
  2
pad
 10
14.709500000000002
 20
-4.6750074000000055
 30
0.0
  0
INSERT
  5
534
100
AcDbEntity
  8
None
390
0
 62
               7
100
AcDbBlockReference
  2
pad
 10
-27.200500000000016
 20
-5.9450074000000086
 30
0.0
  0
INSERT
  5
535
100
AcDbEntity
  8
None
390
0
 62
               7
100
AcDbBlockReference
  2
pad
 10
-25.930500000000016
 20
-5.9450074000000086
 30
0.0
  0
INSERT
  5
536
100
AcDbEntity
  8
None
390
0
 62
               7
100
AcDbBlockReference
  2
pad
 10
-24.660500000000017
 20
-5.9450074000000086
 30
0.0
  0
INSERT
  5
537
100
AcDbEntity
  8
None
390
0
 62
               7
100
AcDbBlockReference
  2
pad
 10
-23.390500000000017
 20
-5.9450074000000086
 30
0.0
  0
INSERT
  5
538
100
AcDbEntity
  8
None
390
0
 62
               7
100
AcDbBlockReference
  2
pad
 10
-22.120500000000018
 20
-5.9450074000000086
 30
0.0
  0
INSERT
  5
539
100
AcDbEntity
  8
None
390
0
 62
               7
100
AcDbBlockReference
  2
pad
 10
-20.850500000000014
 20
-5.9450074000000086
 30
0.0
  0
INSERT
  5
53A
100
AcDbEntity
  8
None
390
0
 62
               7
100
AcDbBlockReference
  2
pad
 10
-19.580500000000015
 20
-5.9450074000000086
 30
0.0
  0
INSERT
  5
53B
100
AcDbEntity
  8
None
390
0
 62
               7
100
AcDbBlockReference
  2
pad
 10
-18.310500000000019
 20
-5.9450074000000086
 30
0.0
  0
INSERT
  5
53C
100
AcDbEntity
  8
None
390
0
 62
               7
100
AcDbBlockReference
  2
pad
 10
-17.040500000000016
 20
-5.9450074000000086
 30
0.0
  0
INSERT
  5
53D
100
AcDbEntity
  8
None
390
0
 62
               7
100
AcDbBlockReference
  2
pad
 10
-15.770500000000018
 20
-5.9450074000000086
 30
0.0
  0
INSERT
  5
53E
100
AcDbEntity
  8
None
390
0
 62
               7
100
AcDbBlockReference
  2
pad
 10
-14.500500000000018
 20
-5.9450074000000086
 30
0.0
  0
INSERT
  5
53F
100
AcDbEntity
  8
None
390
0
 62
               7
100
AcDbBlockReference
  2
pad
 10
-13.230500000000019
 20
-5.9450074000000086
 30
0.0
  0
INSERT
  5
540
100
AcDbEntity
  8
None
390
0
 62
               7
100
AcDbBlockReference
  2
pad
 10
-11.960500000000019
 20
-5.9450074000000086
 30
0.0
  0
INSERT
  5
541
100
AcDbEntity
  8
None
390
0
 62
               7
100
AcDbBlockReference
  2
pad
 10
-10.690500000000018
 20
-5.9450074000000086
 30
0.0
  0
INSERT
  5
542
100
AcDbEntity
  8
None
390
0
 62
               7
100
AcDbBlockReference
  2
pad
 10
-9.4205000000000183
 20
-5.9450074000000086
 30
0.0
  0
INSERT
  5
543
100
AcDbEntity
  8
None
390
0
 62
               7
100
AcDbBlockReference
  2
pad
 10
-8.1505000000000187
 20
-5.9450074000000086
 30
0.0
  0
INSERT
  5
544
100
AcDbEntity
  8
None
390
0
 62
               7
100
AcDbBlockReference
  2
pad
 10
-6.8805000000000192
 20
-5.9450074000000086
 30
0.0
  0
INSERT
  5
545
100
AcDbEntity
  8
None
390
0
 62
               7
100
AcDbBlockReference
  2
pad
 10
-5.6105000000000196
 20
-5.9450074000000086
 30
0.0
  0
INSERT
  5
546
100
AcDbEntity
  8
None
390
0
 62
               7
100
AcDbBlockReference
  2
pad
 10
-4.34050000000002
 20
-5.9450074000000086
 30
0.0
  0
INSERT
  5
547
100
AcDbEntity
  8
None
390
0
 62
               7
100
AcDbBlockReference
  2
pad
 10
-3.0705000000000204
 20
-5.9450074000000086
 30
0.0
  0
INSERT
  5
548
100
AcDbEntity
  8
None
390
0
 62
               7
100
AcDbBlockReference
  2
pad
 10
-1.8005000000000209
 20
-5.9450074000000086
 30
0.0
  0
INSERT
  5
549
100
AcDbEntity
  8
None
390
0
 62
               7
100
AcDbBlockReference
  2
pad
 10
-0.5305000000000213
 20
-5.9450074000000086
 30
0.0
  0
INSERT
  5
54A
100
AcDbEntity
  8
None
390
0
 62
               7
100
AcDbBlockReference
  2
pad
 10
0.7394999999999783
 20
-5.9450074000000086
 30
0.0
  0
INSERT
  5
54B
100
AcDbEntity
  8
None
390
0
 62
               7
100
AcDbBlockReference
  2
pad
 10
2.0094999999999779
 20
-5.9450074000000086
 30
0.0
  0
INSERT
  5
54C
100
AcDbEntity
  8
None
390
0
 62
               7
100
AcDbBlockReference
  2
pad
 10
3.2794999999999774
 20
-5.9450074000000086
 30
0.0
  0
INSERT
  5
54D
100
AcDbEntity
  8
None
390
0
 62
               7
100
AcDbBlockReference
  2
pad
 10
4.549499999999977
 20
-5.9450074000000086
 30
0.0
  0
INSERT
  5
54E
100
AcDbEntity
  8
None
390
0
 62
               7
100
AcDbBlockReference
  2
pad
 10
5.8194999999999801
 20
-5.9450074000000086
 30
0.0
  0
INSERT
  5
54F
100
AcDbEntity
  8
None
390
0
 62
               7
100
AcDbBlockReference
  2
pad
 10
7.0894999999999833
 20
-5.9450074000000086
 30
0.0
  0
INSERT
  5
550
100
AcDbEntity
  8
None
390
0
 62
               7
100
AcDbBlockReference
  2
pad
 10
8.3594999999999864
 20
-5.9450074000000086
 30
0.0
  0
INSERT
  5
551
100
AcDbEntity
  8
None
390
0
 62
               7
100
AcDbBlockReference
  2
pad
 10
9.6294999999999895
 20
-5.9450074000000086
 30
0.0
  0
INSERT
  5
552
100
AcDbEntity
  8
None
390
0
 62
               7
100
AcDbBlockReference
  2
pad
 10
10.899499999999993
 20
-5.9450074000000086
 30
0.0
  0
INSERT
  5
553
100
AcDbEntity
  8
None
390
0
 62
               7
100
AcDbBlockReference
  2
pad
 10
12.169499999999996
 20
-5.9450074000000086
 30
0.0
  0
INSERT
  5
554
100
AcDbEntity
  8
None
390
0
 62
               7
100
AcDbBlockReference
  2
pad
 10
13.439499999999999
 20
-5.9450074000000086
 30
0.0
  0
INSERT
  5
555
100
AcDbEntity
  8
None
390
0
 62
               7
100
AcDbBlockReference
  2
pad
 10
14.709500000000002
 20
-5.9450074000000086
 30
0.0
  0
INSERT
  5
556
100
AcDbEntity
  8
None
390
0
 62
               7
100
AcDbBlockReference
  2
pad
 10
-27.200500000000016
 20
-7.2150074000000117
 30
0.0
  0
INSERT
  5
557
100
AcDbEntity
  8
None
390
0
 62
               7
100
AcDbBlockReference
  2
pad
 10
-25.930500000000016
 20
-7.2150074000000117
 30
0.0
  0
INSERT
  5
558
100
AcDbEntity
  8
None
390
0
 62
               7
100
AcDbBlockReference
  2
pad
 10
-24.660500000000017
 20
-7.2150074000000117
 30
0.0
  0
INSERT
  5
559
100
AcDbEntity
  8
None
390
0
 62
               7
100
AcDbBlockReference
  2
pad
 10
-23.390500000000017
 20
-7.2150074000000117
 30
0.0
  0
INSERT
  5
55A
100
AcDbEntity
  8
None
390
0
 62
               7
100
AcDbBlockReference
  2
pad
 10
-22.120500000000018
 20
-7.2150074000000117
 30
0.0
  0
INSERT
  5
55B
100
AcDbEntity
  8
None
390
0
 62
               7
100
AcDbBlockReference
  2
pad
 10
-20.850500000000014
 20
-7.2150074000000117
 30
0.0
  0
INSERT
  5
55C
100
AcDbEntity
  8
None
390
0
 62
               7
100
AcDbBlockReference
  2
pad
 10
-19.580500000000015
 20
-7.2150074000000117
 30
0.0
  0
INSERT
  5
55D
100
AcDbEntity
  8
None
390
0
 62
               7
100
AcDbBlockReference
  2
pad
 10
-18.310500000000019
 20
-7.2150074000000117
 30
0.0
  0
INSERT
  5
55E
100
AcDbEntity
  8
None
390
0
 62
               7
100
AcDbBlockReference
  2
pad
 10
-17.040500000000016
 20
-7.2150074000000117
 30
0.0
  0
INSERT
  5
55F
100
AcDbEntity
  8
None
390
0
 62
               7
100
AcDbBlockReference
  2
pad
 10
-15.770500000000018
 20
-7.2150074000000117
 30
0.0
  0
INSERT
  5
560
100
AcDbEntity
  8
None
390
0
 62
               7
100
AcDbBlockReference
  2
pad
 10
-14.500500000000018
 20
-7.2150074000000117
 30
0.0
  0
INSERT
  5
561
100
AcDbEntity
  8
None
390
0
 62
               7
100
AcDbBlockReference
  2
pad
 10
-13.230500000000019
 20
-7.2150074000000117
 30
0.0
  0
INSERT
  5
562
100
AcDbEntity
  8
None
390
0
 62
               7
100
AcDbBlockReference
  2
pad
 10
-11.960500000000019
 20
-7.2150074000000117
 30
0.0
  0
INSERT
  5
563
100
AcDbEntity
  8
None
390
0
 62
               7
100
AcDbBlockReference
  2
pad
 10
-10.690500000000018
 20
-7.2150074000000117
 30
0.0
  0
INSERT
  5
564
100
AcDbEntity
  8
None
390
0
 62
               7
100
AcDbBlockReference
  2
pad
 10
-9.4205000000000183
 20
-7.2150074000000117
 30
0.0
  0
INSERT
  5
565
100
AcDbEntity
  8
None
390
0
 62
               7
100
AcDbBlockReference
  2
pad
 10
-8.1505000000000187
 20
-7.2150074000000117
 30
0.0
  0
INSERT
  5
566
100
AcDbEntity
  8
None
390
0
 62
               7
100
AcDbBlockReference
  2
pad
 10
-6.8805000000000192
 20
-7.2150074000000117
 30
0.0
  0
INSERT
  5
567
100
AcDbEntity
  8
None
390
0
 62
               7
100
AcDbBlockReference
  2
pad
 10
-5.6105000000000196
 20
-7.2150074000000117
 30
0.0
  0
INSERT
  5
568
100
AcDbEntity
  8
None
390
0
 62
               7
100
AcDbBlockReference
  2
pad
 10
-4.34050000000002
 20
-7.2150074000000117
 30
0.0
  0
INSERT
  5
569
100
AcDbEntity
  8
None
390
0
 62
               7
100
AcDbBlockReference
  2
pad
 10
-3.0705000000000204
 20
-7.2150074000000117
 30
0.0
  0
INSERT
  5
56A
100
AcDbEntity
  8
None
390
0
 62
               7
100
AcDbBlockReference
  2
pad
 10
-1.8005000000000209
 20
-7.2150074000000117
 30
0.0
  0
INSERT
  5
56B
100
AcDbEntity
  8
None
390
0
 62
               7
100
AcDbBlockReference
  2
pad
 10
-0.5305000000000213
 20
-7.2150074000000117
 30
0.0
  0
INSERT
  5
56C
100
AcDbEntity
  8
None
390
0
 62
               7
100
AcDbBlockReference
  2
pad
 10
0.7394999999999783
 20
-7.2150074000000117
 30
0.0
  0
INSERT
  5
56D
100
AcDbEntity
  8
None
390
0
 62
               7
100
AcDbBlockReference
  2
pad
 10
2.0094999999999779
 20
-7.2150074000000117
 30
0.0
  0
INSERT
  5
56E
100
AcDbEntity
  8
None
390
0
 62
               7
100
AcDbBlockReference
  2
pad
 10
3.2794999999999774
 20
-7.2150074000000117
 30
0.0
  0
INSERT
  5
56F
100
AcDbEntity
  8
None
390
0
 62
               7
100
AcDbBlockReference
  2
pad
 10
4.549499999999977
 20
-7.2150074000000117
 30
0.0
  0
INSERT
  5
570
100
AcDbEntity
  8
None
390
0
 62
               7
100
AcDbBlockReference
  2
pad
 10
5.8194999999999801
 20
-7.2150074000000117
 30
0.0
  0
INSERT
  5
571
100
AcDbEntity
  8
None
390
0
 62
               7
100
AcDbBlockReference
  2
pad
 10
7.0894999999999833
 20
-7.2150074000000117
 30
0.0
  0
INSERT
  5
572
100
AcDbEntity
  8
None
390
0
 62
               7
100
AcDbBlockReference
  2
pad
 10
8.3594999999999864
 20
-7.2150074000000117
 30
0.0
  0
INSERT
  5
573
100
AcDbEntity
  8
None
390
0
 62
               7
100
AcDbBlockReference
  2
pad
 10
9.6294999999999895
 20
-7.2150074000000117
 30
0.0
  0
INSERT
  5
574
100
AcDbEntity
  8
None
390
0
 62
               7
100
AcDbBlockReference
  2
pad
 10
10.899499999999993
 20
-7.2150074000000117
 30
0.0
  0
INSERT
  5
575
100
AcDbEntity
  8
None
390
0
 62
               7
100
AcDbBlockReference
  2
pad
 10
12.169499999999996
 20
-7.2150074000000117
 30
0.0
  0
INSERT
  5
576
100
AcDbEntity
  8
None
390
0
 62
               7
100
AcDbBlockReference
  2
pad
 10
13.439499999999999
 20
-7.2150074000000117
 30
0.0
  0
INSERT
  5
577
100
AcDbEntity
  8
None
390
0
 62
               7
100
AcDbBlockReference
  2
pad
 10
14.709500000000002
 20
-7.2150074000000117
 30
0.0
  0
INSERT
  5
578
100
AcDbEntity
  8
None
390
0
 62
               7
100
AcDbBlockReference
  2
pad
 10
-27.200500000000016
 20
-8.4850074000000149
 30
0.0
  0
INSERT
  5
579
100
AcDbEntity
  8
None
390
0
 62
               7
100
AcDbBlockReference
  2
pad
 10
-25.930500000000016
 20
-8.4850074000000149
 30
0.0
  0
INSERT
  5
57A
100
AcDbEntity
  8
None
390
0
 62
               7
100
AcDbBlockReference
  2
pad
 10
-24.660500000000017
 20
-8.4850074000000149
 30
0.0
  0
INSERT
  5
57B
100
AcDbEntity
  8
None
390
0
 62
               7
100
AcDbBlockReference
  2
pad
 10
-23.390500000000017
 20
-8.4850074000000149
 30
0.0
  0
INSERT
  5
57C
100
AcDbEntity
  8
None
390
0
 62
               7
100
AcDbBlockReference
  2
pad
 10
-22.120500000000018
 20
-8.4850074000000149
 30
0.0
  0
INSERT
  5
57D
100
AcDbEntity
  8
None
390
0
 62
               7
100
AcDbBlockReference
  2
pad
 10
-20.850500000000014
 20
-8.4850074000000149
 30
0.0
  0
INSERT
  5
57E
100
AcDbEntity
  8
None
390
0
 62
               7
100
AcDbBlockReference
  2
pad
 10
-19.580500000000015
 20
-8.4850074000000149
 30
0.0
  0
INSERT
  5
57F
100
AcDbEntity
  8
None
390
0
 62
               7
100
AcDbBlockReference
  2
pad
 10
-18.310500000000019
 20
-8.4850074000000149
 30
0.0
  0
INSERT
  5
580
100
AcDbEntity
  8
None
390
0
 62
               7
100
AcDbBlockReference
  2
pad
 10
-17.040500000000016
 20
-8.4850074000000149
 30
0.0
  0
INSERT
  5
581
100
AcDbEntity
  8
None
390
0
 62
               7
100
AcDbBlockReference
  2
pad
 10
-15.770500000000018
 20
-8.4850074000000149
 30
0.0
  0
INSERT
  5
582
100
AcDbEntity
  8
None
390
0
 62
               7
100
AcDbBlockReference
  2
pad
 10
-14.500500000000018
 20
-8.4850074000000149
 30
0.0
  0
INSERT
  5
583
100
AcDbEntity
  8
None
390
0
 62
               7
100
AcDbBlockReference
  2
pad
 10
-13.230500000000019
 20
-8.4850074000000149
 30
0.0
  0
INSERT
  5
584
100
AcDbEntity
  8
None
390
0
 62
               7
100
AcDbBlockReference
  2
pad
 10
-11.960500000000019
 20
-8.4850074000000149
 30
0.0
  0
INSERT
  5
585
100
AcDbEntity
  8
None
390
0
 62
               7
100
AcDbBlockReference
  2
pad
 10
-10.690500000000018
 20
-8.4850074000000149
 30
0.0
  0
INSERT
  5
586
100
AcDbEntity
  8
None
390
0
 62
               7
100
AcDbBlockReference
  2
pad
 10
-9.4205000000000183
 20
-8.4850074000000149
 30
0.0
  0
INSERT
  5
587
100
AcDbEntity
  8
None
390
0
 62
               7
100
AcDbBlockReference
  2
pad
 10
-8.1505000000000187
 20
-8.4850074000000149
 30
0.0
  0
INSERT
  5
588
100
AcDbEntity
  8
None
390
0
 62
               7
100
AcDbBlockReference
  2
pad
 10
-6.8805000000000192
 20
-8.4850074000000149
 30
0.0
  0
INSERT
  5
589
100
AcDbEntity
  8
None
390
0
 62
               7
100
AcDbBlockReference
  2
pad
 10
-5.6105000000000196
 20
-8.4850074000000149
 30
0.0
  0
INSERT
  5
58A
100
AcDbEntity
  8
None
390
0
 62
               7
100
AcDbBlockReference
  2
pad
 10
-4.34050000000002
 20
-8.4850074000000149
 30
0.0
  0
INSERT
  5
58B
100
AcDbEntity
  8
None
390
0
 62
               7
100
AcDbBlockReference
  2
pad
 10
-3.0705000000000204
 20
-8.4850074000000149
 30
0.0
  0
INSERT
  5
58C
100
AcDbEntity
  8
None
390
0
 62
               7
100
AcDbBlockReference
  2
pad
 10
-1.8005000000000209
 20
-8.4850074000000149
 30
0.0
  0
INSERT
  5
58D
100
AcDbEntity
  8
None
390
0
 62
               7
100
AcDbBlockReference
  2
pad
 10
-0.5305000000000213
 20
-8.4850074000000149
 30
0.0
  0
INSERT
  5
58E
100
AcDbEntity
  8
None
390
0
 62
               7
100
AcDbBlockReference
  2
pad
 10
0.7394999999999783
 20
-8.4850074000000149
 30
0.0
  0
INSERT
  5
58F
100
AcDbEntity
  8
None
390
0
 62
               7
100
AcDbBlockReference
  2
pad
 10
2.0094999999999779
 20
-8.4850074000000149
 30
0.0
  0
INSERT
  5
590
100
AcDbEntity
  8
None
390
0
 62
               7
100
AcDbBlockReference
  2
pad
 10
3.2794999999999774
 20
-8.4850074000000149
 30
0.0
  0
INSERT
  5
591
100
AcDbEntity
  8
None
390
0
 62
               7
100
AcDbBlockReference
  2
pad
 10
4.549499999999977
 20
-8.4850074000000149
 30
0.0
  0
INSERT
  5
592
100
AcDbEntity
  8
None
390
0
 62
               7
100
AcDbBlockReference
  2
pad
 10
5.8194999999999801
 20
-8.4850074000000149
 30
0.0
  0
INSERT
  5
593
100
AcDbEntity
  8
None
390
0
 62
               7
100
AcDbBlockReference
  2
pad
 10
7.0894999999999833
 20
-8.4850074000000149
 30
0.0
  0
INSERT
  5
594
100
AcDbEntity
  8
None
390
0
 62
               7
100
AcDbBlockReference
  2
pad
 10
8.3594999999999864
 20
-8.4850074000000149
 30
0.0
  0
INSERT
  5
595
100
AcDbEntity
  8
None
390
0
 62
               7
100
AcDbBlockReference
  2
pad
 10
9.6294999999999895
 20
-8.4850074000000149
 30
0.0
  0
INSERT
  5
596
100
AcDbEntity
  8
None
390
0
 62
               7
100
AcDbBlockReference
  2
pad
 10
10.899499999999993
 20
-8.4850074000000149
 30
0.0
  0
INSERT
  5
597
100
AcDbEntity
  8
None
390
0
 62
               7
100
AcDbBlockReference
  2
pad
 10
12.169499999999996
 20
-8.4850074000000149
 30
0.0
  0
INSERT
  5
598
100
AcDbEntity
  8
None
390
0
 62
               7
100
AcDbBlockReference
  2
pad
 10
13.439499999999999
 20
-8.4850074000000149
 30
0.0
  0
INSERT
  5
599
100
AcDbEntity
  8
None
390
0
 62
               7
100
AcDbBlockReference
  2
pad
 10
14.709500000000002
 20
-8.4850074000000149
 30
0.0
  0
INSERT
  5
59A
100
AcDbEntity
  8
None
390
0
 62
               7
100
AcDbBlockReference
  2
pad
 10
-27.200500000000016
 20
-9.755007400000018
 30
0.0
  0
INSERT
  5
59B
100
AcDbEntity
  8
None
390
0
 62
               7
100
AcDbBlockReference
  2
pad
 10
-25.930500000000016
 20
-9.755007400000018
 30
0.0
  0
INSERT
  5
59C
100
AcDbEntity
  8
None
390
0
 62
               7
100
AcDbBlockReference
  2
pad
 10
-24.660500000000017
 20
-9.755007400000018
 30
0.0
  0
INSERT
  5
59D
100
AcDbEntity
  8
None
390
0
 62
               7
100
AcDbBlockReference
  2
pad
 10
-23.390500000000017
 20
-9.755007400000018
 30
0.0
  0
INSERT
  5
59E
100
AcDbEntity
  8
None
390
0
 62
               7
100
AcDbBlockReference
  2
pad
 10
-22.120500000000018
 20
-9.755007400000018
 30
0.0
  0
INSERT
  5
59F
100
AcDbEntity
  8
None
390
0
 62
               7
100
AcDbBlockReference
  2
pad
 10
-20.850500000000014
 20
-9.755007400000018
 30
0.0
  0
INSERT
  5
5A0
100
AcDbEntity
  8
None
390
0
 62
               7
100
AcDbBlockReference
  2
pad
 10
-19.580500000000015
 20
-9.755007400000018
 30
0.0
  0
INSERT
  5
5A1
100
AcDbEntity
  8
None
390
0
 62
               7
100
AcDbBlockReference
  2
pad
 10
-18.310500000000019
 20
-9.755007400000018
 30
0.0
  0
INSERT
  5
5A2
100
AcDbEntity
  8
None
390
0
 62
               7
100
AcDbBlockReference
  2
pad
 10
-17.040500000000016
 20
-9.755007400000018
 30
0.0
  0
INSERT
  5
5A3
100
AcDbEntity
  8
None
390
0
 62
               7
100
AcDbBlockReference
  2
pad
 10
-15.770500000000018
 20
-9.755007400000018
 30
0.0
  0
INSERT
  5
5A4
100
AcDbEntity
  8
None
390
0
 62
               7
100
AcDbBlockReference
  2
pad
 10
-14.500500000000018
 20
-9.755007400000018
 30
0.0
  0
INSERT
  5
5A5
100
AcDbEntity
  8
None
390
0
 62
               7
100
AcDbBlockReference
  2
pad
 10
-13.230500000000019
 20
-9.755007400000018
 30
0.0
  0
INSERT
  5
5A6
100
AcDbEntity
  8
None
390
0
 62
               7
100
AcDbBlockReference
  2
pad
 10
-11.960500000000019
 20
-9.755007400000018
 30
0.0
  0
INSERT
  5
5A7
100
AcDbEntity
  8
None
390
0
 62
               7
100
AcDbBlockReference
  2
pad
 10
-10.690500000000018
 20
-9.755007400000018
 30
0.0
  0
INSERT
  5
5A8
100
AcDbEntity
  8
None
390
0
 62
               7
100
AcDbBlockReference
  2
pad
 10
-9.4205000000000183
 20
-9.755007400000018
 30
0.0
  0
INSERT
  5
5A9
100
AcDbEntity
  8
None
390
0
 62
               7
100
AcDbBlockReference
  2
pad
 10
-8.1505000000000187
 20
-9.755007400000018
 30
0.0
  0
INSERT
  5
5AA
100
AcDbEntity
  8
None
390
0
 62
               7
100
AcDbBlockReference
  2
pad
 10
-6.8805000000000192
 20
-9.755007400000018
 30
0.0
  0
INSERT
  5
5AB
100
AcDbEntity
  8
None
390
0
 62
               7
100
AcDbBlockReference
  2
pad
 10
-5.6105000000000196
 20
-9.755007400000018
 30
0.0
  0
INSERT
  5
5AC
100
AcDbEntity
  8
None
390
0
 62
               7
100
AcDbBlockReference
  2
pad
 10
-4.34050000000002
 20
-9.755007400000018
 30
0.0
  0
INSERT
  5
5AD
100
AcDbEntity
  8
None
390
0
 62
               7
100
AcDbBlockReference
  2
pad
 10
-3.0705000000000204
 20
-9.755007400000018
 30
0.0
  0
INSERT
  5
5AE
100
AcDbEntity
  8
None
390
0
 62
               7
100
AcDbBlockReference
  2
pad
 10
-1.8005000000000209
 20
-9.755007400000018
 30
0.0
  0
INSERT
  5
5AF
100
AcDbEntity
  8
None
390
0
 62
               7
100
AcDbBlockReference
  2
pad
 10
-0.5305000000000213
 20
-9.755007400000018
 30
0.0
  0
INSERT
  5
5B0
100
AcDbEntity
  8
None
390
0
 62
               7
100
AcDbBlockReference
  2
pad
 10
0.7394999999999783
 20
-9.755007400000018
 30
0.0
  0
INSERT
  5
5B1
100
AcDbEntity
  8
None
390
0
 62
               7
100
AcDbBlockReference
  2
pad
 10
2.0094999999999779
 20
-9.755007400000018
 30
0.0
  0
INSERT
  5
5B2
100
AcDbEntity
  8
None
390
0
 62
               7
100
AcDbBlockReference
  2
pad
 10
3.2794999999999774
 20
-9.755007400000018
 30
0.0
  0
INSERT
  5
5B3
100
AcDbEntity
  8
None
390
0
 62
               7
100
AcDbBlockReference
  2
pad
 10
4.549499999999977
 20
-9.755007400000018
 30
0.0
  0
INSERT
  5
5B4
100
AcDbEntity
  8
None
390
0
 62
               7
100
AcDbBlockReference
  2
pad
 10
5.8194999999999801
 20
-9.755007400000018
 30
0.0
  0
INSERT
  5
5B5
100
AcDbEntity
  8
None
390
0
 62
               7
100
AcDbBlockReference
  2
pad
 10
7.0894999999999833
 20
-9.755007400000018
 30
0.0
  0
INSERT
  5
5B6
100
AcDbEntity
  8
None
390
0
 62
               7
100
AcDbBlockReference
  2
pad
 10
8.3594999999999864
 20
-9.755007400000018
 30
0.0
  0
INSERT
  5
5B7
100
AcDbEntity
  8
None
390
0
 62
               7
100
AcDbBlockReference
  2
pad
 10
9.6294999999999895
 20
-9.755007400000018
 30
0.0
  0
INSERT
  5
5B8
100
AcDbEntity
  8
None
390
0
 62
               7
100
AcDbBlockReference
  2
pad
 10
10.899499999999993
 20
-9.755007400000018
 30
0.0
  0
INSERT
  5
5B9
100
AcDbEntity
  8
None
390
0
 62
               7
100
AcDbBlockReference
  2
pad
 10
12.169499999999996
 20
-9.755007400000018
 30
0.0
  0
INSERT
  5
5BA
100
AcDbEntity
  8
None
390
0
 62
               7
100
AcDbBlockReference
  2
pad
 10
13.439499999999999
 20
-9.755007400000018
 30
0.0
  0
INSERT
  5
5BB
100
AcDbEntity
  8
None
390
0
 62
               7
100
AcDbBlockReference
  2
pad
 10
14.709500000000002
 20
-9.755007400000018
 30
0.0
  0
ENDBLK
  5
5BC
100
AcDbEntity
  8
None
390
0
100
AcDbBlockEnd
  0
BLOCK
  5
5BD
100
AcDbEntity
  8
Dimension
390
0
100
AcDbBlockBegin
  2
Group-1
 70
               0
 10
0.0
 20
0.0
 30
0.0
  3
Group-1
  1

  0
LINE
  5
5BE
100
AcDbEntity
  8
None
370
               9
390
0
  6
Continuous
 62
              12
100
AcDbLine
 10
-7.870497499678291
 20
11.199992599999987
 30
0.0
 11
-5.3705025003217228
 21
11.199992599999987
 31
0.0
  0
LINE
  5
5BF
100
AcDbEntity
  8
None
370
               9
390
0
  6
Continuous
 62
              12
100
AcDbLine
 10
-6.6205000000000069
 20
9.9499951003217006
 30
0.0
 11
-6.6205000000000069
 21
12.449990099678274
 31
0.0
  0
LINE
  5
5C0
100
AcDbEntity
  8
None
370
               9
390
0
  6
Continuous
 62
              12
100
AcDbLine
 10
-33.23549700197951
 20
11.199992599999987
 30
0.0
 11
-8.8704954970553587
 21
11.199992599999987
 31
0.0
  0
LINE
  5
5C1
100
AcDbEntity
  8
None
370
               9
390
0
  6
Continuous
 62
              12
100
AcDbLine
 10
-4.3705045029446552
 20
11.199992599999987
 30
0.0
 11
19.994497001979493
 21
11.199992599999987
 31
0.0
  0
LINE
  5
5C2
100
AcDbEntity
  8
None
370
               9
390
0
  6
Continuous
 62
              12
100
AcDbLine
 10
-6.6205000000000069
 20
37.814989601979477
 30
0.0
 11
-6.6205000000000069
 21
13.449988097055339
 31
0.0
  0
LINE
  5
5C3
100
AcDbEntity
  8
None
370
               9
390
0
  6
Continuous
 62
              12
100
AcDbLine
 10
-6.6205000000000069
 20
8.9499971029446357
 30
0.0
 11
-6.6205000000000069
 21
-15.415004401979509
 31
0.0
  0
ENDBLK
  5
5C4
100
AcDbEntity
  8
Dimension
390
0
100
AcDbBlockEnd
  0
BLOCK
  5
5C5
100
AcDbEntity
  8
Dimension
390
0
100
AcDbBlockBegin
  2
*D20
 70
               1
 10
0.0
 20
0.0
 30
0.0
  3
*D20
  1

  0
LINE
  5
5C6
100
AcDbEntity
  8
Dimension
370
              -2
390
0
  6
Continuous
 62
               0
100
AcDbLine
 10
17.914363712913072
 20
-13.190666502504001
 30
0.0
 11
23.909498400000004
 21
-17.90000000000002
 31
0.0
  0
SOLID
  5
5C7
100
AcDbEntity
  8
Dimension
370
              -2
390
0
 62
               0
100
AcDbTrace
 10
17.914363712913072
 20
-13.190666502504001
 30
0.0
 11
19.915758725202998
 21
-14.081744972608906
 31
0.0
 12
19.202083401511164
 22
-14.963060600525186
 32
0.0
 13
19.202083401511164
 23
-14.963060600525186
 33
0.0
  0
LINE
  5
5C8
100
AcDbEntity
  8
Dimension
370
              -2
390
0
  6
Continuous
 62
               0
100
AcDbLine
 10
23.909498400000004
 20
-17.90000000000002
 30
0.0
 11
29.909486407918006
 21
-17.90000000000002
 31
0.0
  0
MTEXT
  5
5C9
100
AcDbEntity
  8
Dimension
390
0
 62
               0
100
AcDbMText
 10
29.909486407918013
 20
-17.210062210648168
 30
0.0
 40
1.2632016782407407
 41
0.0
 71
               1
 72
               1
  1
Ø 1.71mm
  7
Arial
 73
               1
 44
0.9673603504928805
  0
MTEXT
  5
5CA
100
AcDbEntity
  8
Dimension
390
0
 62
               0
100
AcDbMText
 10
38.199764185695784
 20
-17.210062210648168
 30
0.0
 40
1.2632016782407407
 41
0.0
 71
               1
 72
               1
  1
±0.10mm
  7
Arial
 73
               1
 44
0.9673603504928805
  0
MTEXT
  5
5CB
100
AcDbEntity
  8
Dimension
390
0
 62
               0
100
AcDbMText
 10
45.590458899288322
 20
-17.210062210648168
 30
0.0
 40
1.2632016782407407
 41
0.0
 71
               1
 72
               1
  1
 (x8)
  7
Arial
 73
               1
 44
0.9673603504928805
  0
POINT
  5
5CC
100
AcDbEntity
  8
Defpoints
370
               0
390
0
 62
               0
100
AcDbPoint
 10
16.569636287086905
 20
-12.134348297496018
 30
0.0
  0
POINT
  5
5CD
100
AcDbEntity
  8
Defpoints
370
               0
390
0
 62
               0
100
AcDbPoint
 10
17.914363712913072
 20
-13.190666502504001
 30
0.0
  0
ENDBLK
  5
5CE
100
AcDbEntity
  8
Dimension
390
0
100
AcDbBlockEnd
  0
BLOCK
  5
5CF
100
AcDbEntity
  8
None
390
0
100
AcDbBlockBegin
  2
Group-2
 70
               0
 10
0.0
 20
0.0
 30
0.0
  3
Group-2
  1

  0
MTEXT
  5
5D0
100
AcDbEntity
  8
None
390
0
 62
              12
100
AcDbMText
 10
26.744228842944409
 20
-19.564135889583344
 30
0.0
 40
1.1368815104166665
 41
0.0
 71
               1
 72
               1
  1
{\C226;\lNon plated Mounting Hole}
  7
Arial
 73
               1
 44
0.9673603504928806
  0
MTEXT
  5
5D1
100
AcDbEntity
  8
None
390
0
 62
              12
100
AcDbMText
 10
28.608889999999992
 20
24.731524110416661
 30
0.0
 40
1.1368815104166665
 41
0.0
 71
               1
 72
               1
  1
{\C226;\lNon plated alignment hole}
  7
Arial
 73
               1
 44
0.9673603504928806
  0
CIRCLE
  5
5D2
100
AcDbEntity
  8
None
370
               9
390
0
  6
Continuous
 62
             180
100
AcDbCircle
 10
-28.708620000000007
 20
34.997172599999985
 30
0.0
 40
0.2500014851955972
  0
MTEXT
  5
5D3
100
AcDbEntity
  8
None
390
0
 62
              12
100
AcDbMText
 10
-53.158620000000013
 20
47.705304110416648
 30
0.0
 40
1.1368815104166665
 41
0.0
 71
               1
 72
               1
  1
{\C226;\lOrientation Mark}
  7
New Century Schlbk
 73
               1
 44
0.9673603504928806
  0
LINE
  5
5D4
100
AcDbEntity
  8
None
370
               9
390
0
  6
Continuous
 62
              12
100
AcDbLine
 10
-28.708620000000007
 20
35.247172599999985
 30
0.0
 11
-35.607960000000006
 21
47.197172599999988
 31
0.0
  0
SOLID
  5
5D5
100
AcDbEntity
  8
None
370
               9
390
0
 62
              12
100
AcDbTrace
 10
-28.708620000000007
 20
35.247172599999985
 30
0.0
 11
-30.196465011081493
 21
36.735017611081474
 31
0.0
 12
-29.253209070949772
 22
37.279606682031236
 32
0.0
 13
-29.253209070949772
 23
37.279606682031236
 33
0.0
  0
LINE
  5
5D6
100
AcDbEntity
  8
None
370
               9
390
0
  6
Continuous
 62
              12
100
AcDbLine
 10
-35.607960000000006
 20
47.197172599999988
 30
0.0
 11
-41.158620000000013
 21
47.197172599999988
 31
0.0
  0
DIMENSION
  5
5D7
100
AcDbEntity
  8
Dimension
370
               9
390
0
  6
Continuous
 62
              12
100
AcDbDimension
  2
*D3
 10
-30.483000000000004
 20
45.872132599999986
 30
0.0
 11
-26.084390000000006
 21
45.872132599999986
 31
0.0
 70
             128
 71
               5
 72
               1
 41
1.0
 42
0.0
  3
IE Standard
100
AcDbAlignedDimension
 13
-31.733000000000004
 23
36.312492599999985
 33
0.0
 14
-30.483000000000004
 24
35.062492599999985
 34
0.0
100
AcDbRotatedDimension
1001
ACAD
1000
DSTYLE
1002
{
1070
             271
1070
               2
1070
             340
1005
37
1070
              71
1070
               1
1070
              47
1040
0.13
1070
              48
1040
0.13
1070
               3
1000
<>mm(x4)
1070
             174
1070
               0
1070
             147
1040
0.396875
1002
}
  0
DIMENSION
  5
5D8
100
AcDbEntity
  8
Dimension
370
               9
390
0
  6
Continuous
 62
              12
100
AcDbDimension
  2
*D4
 10
-44.40954
 20
36.312492599999985
 30
0.0
 11
-44.40954
 21
40.372805099999979
 31
0.0
 70
             128
 71
               5
 72
               1
 41
1.0
 42
0.0
  3
IE Standard
100
AcDbAlignedDimension
 13
-30.483000000000004
 23
35.062492599999985
 33
0.0
 14
-31.733000000000004
 24
36.312492599999985
 34
0.0
 50
90.0
100
AcDbRotatedDimension
1001
ACAD
1000
DSTYLE
1002
{
1070
             271
1070
               2
1070
             340
1005
37
1070
              71
1070
               1
1070
              47
1040
0.13
1070
              48
1040
0.13
1070
               3
1000
<>mm(x4)
1070
             174
1070
               0
1070
             147
1040
0.396875
1002
}
  0
DIMENSION
  5
5D9
100
AcDbEntity
  8
Dimension
370
               9
390
0
  6
Continuous
 62
              12
100
AcDbDimension
  2
*D5
 10
-50.990501600000002
 20
36.314992599999982
 30
0.0
 11
-50.990501600000002
 21
13.999999999999986
 31
0.0
 70
             128
 71
               5
 72
               1
 41
1.0
 42
0.0
  3
IE Standard
100
AcDbAlignedDimension
 13
-31.735500000000005
 23
-13.915007400000007
 33
0.0
 14
-31.735500000000005
 24
36.314992599999982
 34
0.0
 50
90.0
100
AcDbRotatedDimension
1001
ACAD
1000
DSTYLE
1002
{
1070
             271
1070
               3
1070
             340
1005
37
1070
              71
1070
               1
1070
              47
1040
0.125
1070
              48
1040
0.125
1070
               3
1000
<>mm(x4)
1070
             147
1040
0.396875
1002
}
  0
DIMENSION
  5
5DA
100
AcDbEntity
  8
Dimension
370
               9
390
0
  6
Continuous
 62
              12
100
AcDbDimension
  2
*D6
 10
-37.931718399999994
 20
-12.66250740000001
 30
0.0
 11
-37.931718399999994
 21
-9.7000000000000171
 31
0.0
 70
             128
 71
               5
 72
               1
 41
1.0
 42
0.0
  3
IE Standard
100
AcDbAlignedDimension
 13
-30.483000000000004
 23
-7.5825074000000114
 33
0.0
 14
-30.483000000000004
 24
-12.66250740000001
 34
0.0
 50
90.0
100
AcDbRotatedDimension
1001
ACAD
1000
DSTYLE
1002
{
1070
             271
1070
               2
1070
             340
1005
37
1070
             147
1040
0.396875
1002
}
  0
DIMENSION
  5
5DB
100
AcDbEntity
  8
Dimension
370
               9
390
0
  6
Continuous
 62
              12
100
AcDbDimension
  2
*D7
 10
-30.483000000000004
 20
-18.600000000000019
 30
0.0
 11
-18.3905016
 21
-18.600000000000019
 31
0.0
 70
             128
 71
               5
 72
               1
 41
1.0
 42
0.0
  3
IE Standard
100
AcDbAlignedDimension
 13
-6.6205000000000069
 23
-11.41250740000001
 33
0.0
 14
-30.483000000000004
 24
-12.66250740000001
 34
0.0
100
AcDbRotatedDimension
1001
ACAD
1000
DSTYLE
1002
{
1070
             271
1070
               4
1070
             340
1005
37
1070
               3
1000
<>mm(x8)
1070
             147
1040
0.396875
1002
}
  0
DIMENSION
  5
5DC
100
AcDbEntity
  8
Dimension
370
               9
390
0
  6
Continuous
 62
              12
100
AcDbDimension
  2
*D8
 10
-0.5305000000000213
 20
40.597776974905017
 30
0.0
 11
13.209498400000001
 21
40.597776974905017
 31
0.0
 70
             128
 71
               5
 72
               1
 41
1.0
 42
0.0
  3
IE Standard
100
AcDbAlignedDimension
 13
0.7394999999999783
 23
32.1549926
 33
0.0
 14
-0.5305000000000213
 24
32.1549926
 34
0.0
100
AcDbRotatedDimension
1001
ACAD
1000
DSTYLE
1002
{
1070
             271
1070
               2
1070
             340
1005
37
1070
               3
1000
<>mm typ.
1070
             174
1070
               0
1070
             147
1040
0.396875
1002
}
  0
DIMENSION
  5
5DD
100
AcDbEntity
  8
Dimension
370
               9
390
0
  6
Continuous
 62
              12
100
AcDbDimension
  2
*D9
 10
27.129498399999999
 20
35.062492599999985
 30
0.0
 11
27.129498399999999
 21
33.849999999999994
 31
0.0
 70
             128
 71
               5
 72
               1
 41
1.0
 42
0.0
  3
IE Standard
100
AcDbAlignedDimension
 13
17.24199999999999
 23
32.522492599999993
 33
0.0
 14
17.24199999999999
 24
35.062492599999985
 34
0.0
 50
90.0
100
AcDbRotatedDimension
1001
ACAD
1000
DSTYLE
1002
{
1070
             271
1070
               2
1070
             340
1005
37
1070
             147
1040
0.396875
1002
}
  0
CIRCLE
  5
5DE
100
AcDbEntity
  8
None
370
               9
390
0
  6
Continuous
 62
               7
100
AcDbCircle
 10
-30.483000000000004
 20
-7.5825074000000114
 30
0.0
 40
0.4249999999999972
  0
POLYLINE
  5
5DF
100
AcDbEntity
  8
None
370
               9
390
0
  6
STYLE_11
 62
               7
100
AcDb2dPolyline
 66
               1
 10
0.0
 20
0.0
 30
0.0
 70
               1
 75
               5
  0
VERTEX
  5
5E0
100
AcDbEntity
  8
None
370
               9
390
0
  6
STYLE_11
 62
               7
100
AcDbVertex
100
AcDb2dVertex
 10
-31.735500000000005
 20
36.314992599999982
 30
0.0
  0
VERTEX
  5
5E1
100
AcDbEntity
  8
None
370
               9
390
0
  6
STYLE_11
 62
               7
100
AcDbVertex
100
AcDb2dVertex
 10
18.494499999999992
 20
36.314992599999982
 30
0.0
  0
VERTEX
  5
5E2
100
AcDbEntity
  8
None
370
               9
390
0
  6
STYLE_11
 62
               7
100
AcDbVertex
100
AcDb2dVertex
 10
18.494499999999992
 20
-13.915007400000007
 30
0.0
  0
VERTEX
  5
5E3
100
AcDbEntity
  8
None
370
               9
390
0
  6
STYLE_11
 62
               7
100
AcDbVertex
100
AcDb2dVertex
 10
-31.735500000000005
 20
-13.915007400000007
 30
0.0
  0
SEQEND
  5
5E4
100
AcDbEntity
  8
None
370
               9
390
0
  6
STYLE_11
 62
               7
  0
CIRCLE
  5
5E5
100
AcDbEntity
  8
None
370
               9
390
0
  6
Continuous
 62
               7
100
AcDbCircle
 10
-30.483000000000004
 20
-12.66250740000001
 30
0.0
 40
0.8550000000000004
  0
CIRCLE
  5
5E6
100
AcDbEntity
  8
None
370
               9
390
0
  6
Continuous
 62
               7
100
AcDbCircle
 10
17.24199999999999
 20
32.522492599999993
 30
0.0
 40
0.4249999999999972
  0
DIMENSION
  5
5E7
100
AcDbEntity
  8
Dimension
370
               9
390
0
  6
Continuous
 62
              12
100
AcDbDimension
  2
*D10
 10
16.897849999999991
 20
32.771872599999995
 30
0.0
 11
32.00636082479781
 21
26.171601148384379
 31
0.0
 70
               3
 71
               5
 72
               1
 41
1.0
 42
0.0
  3
IE Standard
100
AcDbDiametricDimension
 15
17.586149999999989
 25
32.27311259999999
 35
0.0
 40
10.398489999999999
1001
ACAD
1000
DSTYLE
1002
{
1070
             271
1070
               3
1070
             172
1070
               0
1070
             289
1070
               0
1070
             342
1005
4D
1070
             340
1005
37
1070
              75
1070
               1
1070
              76
1070
               1
1070
              71
1070
               1
1070
              47
1040
0.025
1070
              48
1040
0.025
1070
               3
1000
mm(x2)
1070
             174
1070
               0
1070
             147
1040
0.396875
1002
}
  0
DIMENSION
  5
5E8
100
AcDbEntity
  8
Dimension
370
               9
390
0
  6
Continuous
 62
              12
100
AcDbDimension
  2
*D11
 10
14.463078386345789
 20
5.3169013090766271
 30
0.0
 11
30.26134516399803
 21
8.177882599103226
 31
0.0
 70
               3
 71
               5
 72
               1
 41
1.0
 42
0.0
  3
IE Standard
100
AcDbDiametricDimension
 15
15.077418386345791
 25
5.4962813090766289
 35
0.0
 40
9.5674299999999999
1001
ACAD
1000
DSTYLE
1002
{
1070
             271
1070
               3
1070
             172
1070
               0
1070
             289
1070
               0
1070
             342
1005
4D
1070
             340
1005
37
1070
              75
1070
               1
1070
              76
1070
               1
1070
               3
1000
mm pad (x1152)
1070
             174
1070
               0
1070
             147
1040
0.396875
1002
}
  0
DIMENSION
  5
5E9
100
AcDbEntity
  8
Dimension
370
               9
390
0
  6
Continuous
 62
             204
100
AcDbDimension
  2
*D12
 10
-30.483000000000004
 20
40.909992599999981
 30
0.0
 11
-21.3905016
 21
40.909992599999981
 31
0.0
 70
             128
 71
               5
 72
               1
 41
1.0
 42
0.0
  3
IE Standard
100
AcDbAlignedDimension
 13
-27.200500000000016
 23
32.1549926
 33
0.0
 14
-30.483000000000004
 24
35.062492599999985
 34
0.0
100
AcDbRotatedDimension
1001
ACAD
1000
DSTYLE
1002
{
1070
             271
1070
               4
1070
             340
1005
38
1070
             140
1040
1.5158420138888884
1070
               3
1000
<>mm*
1070
             174
1070
               0
1070
             147
1040
0.396875
1002
}
  0
MTEXT
  5
5EA
100
AcDbEntity
  8
None
390
0
 62
              12
100
AcDbMText
 10
-55.484501761488843
 20
12.72339411041666
 30
0.0
 40
1.1368815104166665
 41
0.0
 71
               1
 72
               1
  1
{\C226;\lSocket size}
  7
New Century Schlbk
 73
               1
 44
0.9673603504928806
  0
CIRCLE
  5
5EB
100
AcDbEntity
  8
None
370
               9
390
0
  6
Continuous
 62
               7
100
AcDbCircle
 10
-30.483000000000004
 20
35.062492599999985
 30
0.0
 40
0.8550000000000004
  0
CIRCLE
  5
5EC
100
AcDbEntity
  8
None
370
               9
390
0
  6
Continuous
 62
               7
100
AcDbCircle
 10
17.24199999999999
 20
35.062492599999985
 30
0.0
 40
0.8550000000000004
  0
CIRCLE
  5
5ED
100
AcDbEntity
  8
None
370
               9
390
0
  6
Continuous
 62
               7
100
AcDbCircle
 10
17.24199999999999
 20
-12.66250740000001
 30
0.0
 40
0.8550000000000004
  0
CIRCLE
  5
5EE
100
AcDbEntity
  8
None
370
               9
390
0
  6
Continuous
 62
               7
100
AcDbCircle
 10
-30.483000000000004
 20
11.199992599999987
 30
0.0
 40
0.8550000000000004
  0
CIRCLE
  5
5EF
100
AcDbEntity
  8
None
370
               9
390
0
  6
Continuous
 62
               7
100
AcDbCircle
 10
17.24199999999999
 20
11.199992599999987
 30
0.0
 40
0.8550000000000004
  0
CIRCLE
  5
5F0
100
AcDbEntity
  8
None
370
               9
390
0
  6
Continuous
 62
               7
100
AcDbCircle
 10
-6.6205000000000069
 20
35.062492599999985
 30
0.0
 40
0.8049999999999926
  0
CIRCLE
  5
5F1
100
AcDbEntity
  8
None
370
               9
390
0
  6
Continuous
 62
               7
100
AcDbCircle
 10
-6.6205000000000069
 20
-12.66250740000001
 30
0.0
 40
0.8549999999999969
  0
DIMENSION
  5
5F2
100
AcDbEntity
  8
Dimension
370
               9
390
0
  6
Continuous
 62
              12
100
AcDbDimension
  2
*D13
 10
-38.911110000000008
 20
35.062492599999985
 30
0.0
 11
-38.911110000000008
 21
27.59999999999998
 31
0.0
 70
             128
 71
               5
 72
               1
 41
1.0
 42
0.0
  3
IE Standard
100
AcDbAlignedDimension
 13
-27.200500000000016
 23
32.1549926
 33
0.0
 14
-30.483000000000004
 24
35.062492599999985
 34
0.0
 50
90.0
100
AcDbRotatedDimension
1001
ACAD
1000
DSTYLE
1002
{
1070
             271
1070
               4
1070
             340
1005
37
1070
             174
1070
               0
1070
             147
1040
0.396875
1002
}
  0
POLYLINE
  5
5F3
100
AcDbEntity
  8
None
370
               9
390
0
  6
STYLE_11
 62
               7
100
AcDb2dPolyline
 66
               1
 10
0.0
 20
0.0
 30
0.0
 70
               1
 75
               5
  0
VERTEX
  5
5F4
100
AcDbEntity
  8
None
370
               9
390
0
  6
STYLE_11
 62
               7
100
AcDbVertex
100
AcDb2dVertex
 10
-32.985500000000002
 20
37.564992599999982
 30
0.0
  0
VERTEX
  5
5F5
100
AcDbEntity
  8
None
370
               9
390
0
  6
STYLE_11
 62
               7
100
AcDbVertex
100
AcDb2dVertex
 10
19.744499999999992
 20
37.564992599999982
 30
0.0
  0
VERTEX
  5
5F6
100
AcDbEntity
  8
None
370
               9
390
0
  6
STYLE_11
 62
               7
100
AcDbVertex
100
AcDb2dVertex
 10
19.744499999999992
 20
-15.165007400000007
 30
0.0
  0
VERTEX
  5
5F7
100
AcDbEntity
  8
None
370
               9
390
0
  6
STYLE_11
 62
               7
100
AcDbVertex
100
AcDb2dVertex
 10
-32.985500000000002
 20
-15.165007400000007
 30
0.0
  0
SEQEND
  5
5F8
100
AcDbEntity
  8
None
370
               9
390
0
  6
STYLE_11
 62
               7
  0
DIMENSION
  5
5F9
100
AcDbEntity
  8
Dimension
370
               9
390
0
  6
Continuous
 62
              12
100
AcDbDimension
  2
*D14
 10
-32.985500000000002
 20
-27.90000000000002
 30
0.0
 11
-6.9905015999999982
 21
-27.90000000000002
 31
0.0
 70
             128
 71
               5
 72
               1
 41
1.0
 42
0.0
  3
IE Standard
100
AcDbAlignedDimension
 13
19.744499999999992
 23
-15.165007400000007
 33
0.0
 14
-32.985500000000002
 24
-15.165007400000007
 34
0.0
100
AcDbRotatedDimension
1001
ACAD
1000
DSTYLE
1002
{
1070
             271
1070
               3
1070
             340
1005
37
1070
              71
1070
               1
1070
              47
1040
0.125
1070
              48
1040
0.125
1070
               3
1000
<>mm(x4)
1070
             147
1040
0.396875
1002
}
  0
DIMENSION
  5
5FA
100
AcDbEntity
  8
Dimension
370
               9
390
0
  6
Continuous
 62
              12
100
AcDbDimension
  2
*D15
 10
-32.985500000000002
 20
-23.205175700000005
 30
0.0
 11
-24.990501599999998
 21
-23.205175700000005
 31
0.0
 70
             128
 71
               5
 72
               1
 41
1.0
 42
0.0
  3
IE Standard
100
AcDbAlignedDimension
 13
-30.483000000000004
 23
-12.66250740000001
 33
0.0
 14
-32.985500000000002
 24
-15.165007400000007
 34
0.0
100
AcDbRotatedDimension
1001
ACAD
1000
DSTYLE
1002
{
1070
             271
1070
               2
1070
             340
1005
37
1070
              71
1070
               1
1070
              47
1040
0.13
1070
              48
1040
0.13
1070
             174
1070
               0
1070
             147
1040
0.396875
1002
}
  0
DIMENSION
  5
5FB
100
AcDbEntity
  8
Dimension
370
               9
390
0
  6
Continuous
 62
              12
100
AcDbDimension
  2
*D16
 10
-43.159540000000007
 20
-13.91250740000001
 30
0.0
 11
-43.159540000000007
 21
-20.200000000000021
 31
0.0
 70
             128
 71
               5
 72
               1
 41
1.0
 42
0.0
  3
IE Standard
100
AcDbAlignedDimension
 13
-29.233000000000004
 23
-11.41250740000001
 33
0.0
 14
-31.733000000000004
 24
-13.91250740000001
 34
0.0
 50
90.0
100
AcDbRotatedDimension
1001
ACAD
1000
DSTYLE
1002
{
1070
             271
1070
               2
1070
             340
1005
37
1070
              71
1070
               1
1070
              47
1040
0.13
1070
              48
1040
0.13
1070
             174
1070
               0
1070
             147
1040
0.396875
1002
}
  0
MTEXT
  5
5FC
100
AcDbEntity
  8
None
390
0
 62
              12
100
AcDbMText
 10
-12.981527600000019
 20
-29.779055989583352
 30
0.0
 40
1.1368815104166665
 41
0.0
 71
               1
 72
               1
  1
{\C226;\lBacking plate size}
  7
Arial
 73
               1
 44
0.9673603504928806
  0
INSERT
  5
5FD
100
AcDbEntity
  8
None
390
0
 62
               7
100
AcDbBlockReference
  2
Group
 10
0.0
 20
0.0
 30
0.0
  0
INSERT
  5
5FE
100
AcDbEntity
  8
Dimension
390
0
 62
               7
100
AcDbBlockReference
  2
Group-1
 10
0.0
 20
0.0
 30
0.0
  0
DIMENSION
  5
5FF
100
AcDbEntity
  8
Dimension
370
               9
390
0
  6
Continuous
 62
              12
100
AcDbDimension
  2
*D20
 10
16.569636287086905
 20
-12.134348297496018
 30
0.0
 11
29.909486407917996
 21
-17.900000000000027
 31
0.0
 70
               3
 71
               5
 72
               1
 41
1.0
 42
0.0
  3
IE Standard
100
AcDbDiametricDimension
 15
17.914363712913072
 25
-13.190666502504001
 35
0.0
 40
7.6236121298863964
1001
ACAD
1000
DSTYLE
1002
{
1070
             271
1070
               2
1070
             172
1070
               0
1070
             289
1070
               0
1070
             342
1005
4D
1070
             340
1005
37
1070
             140
1040
1.2632016782407407
1070
              75
1070
               1
1070
              76
1070
               1
1070
              71
1070
               1
1070
              47
1040
0.1
1070
              48
1040
0.1
1070
               3
1000
mm (x8)
1070
             174
1070
               0
1070
             147
1040
0.396875
1002
}
  0
ENDBLK
  5
600
100
AcDbEntity
  8
None
390
0
100
AcDbBlockEnd
  0
ENDSEC
  0
SECTION
  2
ENTITIES
  0
MTEXT
  5
601
100
AcDbEntity
  8
None
390
0
 62
               7
100
AcDbMText
 10
37.619499999999988
 20
-47.583152883471186
 30
0.0
 40
2.273763020833333
 41
0.0
 71
               1
 72
               1
  1
PAGE 2 of 4
  7
Arial
 73
               1
 44
0.9673603504928806
  0
MTEXT
  5
602
100
AcDbEntity
  8
None
390
0
 62
               7
100
AcDbMText
 10
-1.2258900000000073
 20
-36.130680805346202
 30
0.0
 40
1.0409680989583332
 41
57.105389999999993
 71
               1
 72
               1
  1
Recommended PCB Layout Tolerances:  ±0.025mm [±0.001"] unless stated otherwise.\P
  7
Helvetica
 73
               1
 44
0.9673603504928806
  0
MTEXT
  5
603
100
AcDbEntity
  8
None
390
0
 62
               7
100
AcDbMText
 10
-69.109490000000008
 20
50.874610271874985
 30
0.0
 40
1.2248886718749998
 41
23.653779999999998
 71
               1
 72
               1
  1
{\LRecommended PCB Layout Top View}\P
  7
Helvetica
 73
               1
 44
0.9673603504928809
  0
MTEXT
  5
604
100
AcDbEntity
  8
None
390
0
 62
              12
100
AcDbMText
 10
-69.632640000000009
 20
-28.526914393887836
 30
0.0
 40
1.1368815104166665
 41
0.0
 71
               1
 72
               1
  1
{\C226;\LTarget PCB Recommendations}{\C226;\l\PTotal thickness: 2.4mm min.\PPlating: Gold or Solder finish\PPCB Pad height: Same or higher than solder mask}
  7
Arial
 73
               1
 44
0.9673603504928806
  0
MTEXT
  5
605
100
AcDbEntity
  8
None
390
0
 62
              12
100
AcDbMText
 10
-69.720500000000001
 20
-37.414094393887879
 30
0.0
 40
1.1368815104166665
 41
0.0
 71
               1
 72
               1
  1
{\C226;\lNOTE: Steel backing plate may be required based on end user's application}
  7
Arial
 73
               1
 44
0.9673603504928806
  0
POLYLINE
  5
606
100
AcDbEntity
  8
Dimension
370
               5
390
0
  6
Continuous
 62
               7
100
AcDb2dPolyline
 66
               1
 10
0.0
 20
0.0
 30
0.0
 70
               1
 75
               5
  0
VERTEX
  5
607
100
AcDbEntity
  8
Dimension
370
               5
390
0
  6
Continuous
 62
               7
100
AcDbVertex
100
AcDb2dVertex
 10
-19.390500000000007
 20
-41.640000000000029
 30
0.0
  0
VERTEX
  5
608
100
AcDbEntity
  8
Dimension
370
               5
390
0
  6
Continuous
 62
               7
100
AcDbVertex
100
AcDb2dVertex
 10
1.8775499999999923
 20
-41.640000000000029
 30
0.0
  0
VERTEX
  5
609
100
AcDbEntity
  8
Dimension
370
               5
390
0
  6
Continuous
 62
               7
100
AcDbVertex
100
AcDb2dVertex
 10
1.8775499999999923
 20
-45.026650000000032
 30
0.0
  0
VERTEX
  5
60A
100
AcDbEntity
  8
Dimension
370
               5
390
0
  6
Continuous
 62
               7
100
AcDbVertex
100
AcDb2dVertex
 10
-19.390500000000007
 20
-45.026650000000032
 30
0.0
  0
SEQEND
  5
60B
100
AcDbEntity
  8
Dimension
370
               5
390
0
  6
Continuous
 62
               7
  0
POLYLINE
  5
60C
100
AcDbEntity
  8
Dimension
370
               5
390
0
  6
Continuous
 62
               7
100
AcDb2dPolyline
 66
               1
 10
0.0
 20
0.0
 30
0.0
 70
               1
 75
               5
  0
VERTEX
  5
60D
100
AcDbEntity
  8
Dimension
370
               5
390
0
  6
Continuous
 62
               7
100
AcDbVertex
100
AcDb2dVertex
 10
1.8775499999999923
 20
-41.640000000000029
 30
0.0
  0
VERTEX
  5
60E
100
AcDbEntity
  8
Dimension
370
               5
390
0
  6
Continuous
 62
               7
100
AcDbVertex
100
AcDb2dVertex
 10
16.740999999999993
 20
-41.640000000000029
 30
0.0
  0
VERTEX
  5
60F
100
AcDbEntity
  8
Dimension
370
               5
390
0
  6
Continuous
 62
               7
100
AcDbVertex
100
AcDb2dVertex
 10
16.740999999999993
 20
-45.026650000000032
 30
0.0
  0
VERTEX
  5
610
100
AcDbEntity
  8
Dimension
370
               5
390
0
  6
Continuous
 62
               7
100
AcDbVertex
100
AcDb2dVertex
 10
1.8775499999999923
 20
-45.026650000000032
 30
0.0
  0
SEQEND
  5
611
100
AcDbEntity
  8
Dimension
370
               5
390
0
  6
Continuous
 62
               7
  0
POLYLINE
  5
612
100
AcDbEntity
  8
Dimension
370
               5
390
0
  6
Continuous
 62
               7
100
AcDb2dPolyline
 66
               1
 10
0.0
 20
0.0
 30
0.0
 70
               1
 75
               5
  0
VERTEX
  5
613
100
AcDbEntity
  8
Dimension
370
               5
390
0
  6
Continuous
 62
               7
100
AcDbVertex
100
AcDb2dVertex
 10
16.740999999999993
 20
-41.640000000000029
 30
0.0
  0
VERTEX
  5
614
100
AcDbEntity
  8
Dimension
370
               5
390
0
  6
Continuous
 62
               7
100
AcDbVertex
100
AcDb2dVertex
 10
31.625399999999988
 20
-41.640000000000029
 30
0.0
  0
VERTEX
  5
615
100
AcDbEntity
  8
Dimension
370
               5
390
0
  6
Continuous
 62
               7
100
AcDbVertex
100
AcDb2dVertex
 10
31.625399999999988
 20
-45.026650000000032
 30
0.0
  0
VERTEX
  5
616
100
AcDbEntity
  8
Dimension
370
               5
390
0
  6
Continuous
 62
               7
100
AcDbVertex
100
AcDb2dVertex
 10
16.740999999999993
 20
-45.026650000000032
 30
0.0
  0
SEQEND
  5
617
100
AcDbEntity
  8
Dimension
370
               5
390
0
  6
Continuous
 62
               7
  0
POLYLINE
  5
618
100
AcDbEntity
  8
Dimension
370
               5
390
0
  6
Continuous
 62
               7
100
AcDb2dPolyline
 66
               1
 10
0.0
 20
0.0
 30
0.0
 70
               1
 75
               5
  0
VERTEX
  5
619
100
AcDbEntity
  8
Dimension
370
               5
390
0
  6
Continuous
 62
               7
100
AcDbVertex
100
AcDb2dVertex
 10
-19.390500000000007
 20
-45.026650000000032
 30
0.0
  0
VERTEX
  5
61A
100
AcDbEntity
  8
Dimension
370
               5
390
0
  6
Continuous
 62
               7
100
AcDbVertex
100
AcDb2dVertex
 10
7.8556899999999921
 20
-45.026650000000032
 30
0.0
  0
VERTEX
  5
61B
100
AcDbEntity
  8
Dimension
370
               5
390
0
  6
Continuous
 62
               7
100
AcDbVertex
100
AcDb2dVertex
 10
7.8556899999999921
 20
-48.413360000000026
 30
0.0
  0
VERTEX
  5
61C
100
AcDbEntity
  8
Dimension
370
               5
390
0
  6
Continuous
 62
               7
100
AcDbVertex
100
AcDb2dVertex
 10
-19.390500000000007
 20
-48.413360000000026
 30
0.0
  0
SEQEND
  5
61D
100
AcDbEntity
  8
Dimension
370
               5
390
0
  6
Continuous
 62
               7
  0
POLYLINE
  5
61E
100
AcDbEntity
  8
Dimension
370
               5
390
0
  6
Continuous
 62
               7
100
AcDb2dPolyline
 66
               1
 10
0.0
 20
0.0
 30
0.0
 70
               1
 75
               5
  0
VERTEX
  5
61F
100
AcDbEntity
  8
Dimension
370
               5
390
0
  6
Continuous
 62
               7
100
AcDbVertex
100
AcDb2dVertex
 10
7.8556899999999921
 20
-45.026650000000032
 30
0.0
  0
VERTEX
  5
620
100
AcDbEntity
  8
Dimension
370
               5
390
0
  6
Continuous
 62
               7
100
AcDbVertex
100
AcDb2dVertex
 10
31.625399999999988
 20
-45.026650000000032
 30
0.0
  0
VERTEX
  5
621
100
AcDbEntity
  8
Dimension
370
               5
390
0
  6
Continuous
 62
               7
100
AcDbVertex
100
AcDb2dVertex
 10
31.625399999999988
 20
-48.413360000000026
 30
0.0
  0
VERTEX
  5
622
100
AcDbEntity
  8
Dimension
370
               5
390
0
  6
Continuous
 62
               7
100
AcDbVertex
100
AcDb2dVertex
 10
7.8556899999999921
 20
-48.413360000000026
 30
0.0
  0
SEQEND
  5
623
100
AcDbEntity
  8
Dimension
370
               5
390
0
  6
Continuous
 62
               7
  0
POLYLINE
  5
624
100
AcDbEntity
  8
Dimension
370
               5
390
0
  6
Continuous
 62
               7
100
AcDb2dPolyline
 66
               1
 10
0.0
 20
0.0
 30
0.0
 70
               1
 75
               5
  0
VERTEX
  5
625
100
AcDbEntity
  8
Dimension
370
               5
390
0
  6
Continuous
 62
               7
100
AcDbVertex
100
AcDb2dVertex
 10
7.8556899999999921
 20
-48.413360000000026
 30
0.0
  0
VERTEX
  5
626
100
AcDbEntity
  8
Dimension
370
               5
390
0
  6
Continuous
 62
               7
100
AcDbVertex
100
AcDb2dVertex
 10
31.625399999999988
 20
-48.413360000000026
 30
0.0
  0
VERTEX
  5
627
100
AcDbEntity
  8
Dimension
370
               5
390
0
  6
Continuous
 62
               7
100
AcDbVertex
100
AcDb2dVertex
 10
31.625399999999988
 20
-51.800000000000026
 30
0.0
  0
VERTEX
  5
628
100
AcDbEntity
  8
Dimension
370
               5
390
0
  6
Continuous
 62
               7
100
AcDbVertex
100
AcDb2dVertex
 10
7.8556899999999921
 20
-51.800000000000026
 30
0.0
  0
SEQEND
  5
629
100
AcDbEntity
  8
Dimension
370
               5
390
0
  6
Continuous
 62
               7
  0
POLYLINE
  5
62A
100
AcDbEntity
  8
Dimension
370
               5
390
0
  6
Continuous
 62
               7
100
AcDb2dPolyline
 66
               1
 10
0.0
 20
0.0
 30
0.0
 70
               1
 75
               5
  0
VERTEX
  5
62B
100
AcDbEntity
  8
Dimension
370
               5
390
0
  6
Continuous
 62
               7
100
AcDbVertex
100
AcDb2dVertex
 10
-19.390500000000007
 20
-48.413360000000026
 30
0.0
  0
VERTEX
  5
62C
100
AcDbEntity
  8
Dimension
370
               5
390
0
  6
Continuous
 62
               7
100
AcDbVertex
100
AcDb2dVertex
 10
7.8556899999999921
 20
-48.413360000000026
 30
0.0
  0
VERTEX
  5
62D
100
AcDbEntity
  8
Dimension
370
               5
390
0
  6
Continuous
 62
               7
100
AcDbVertex
100
AcDb2dVertex
 10
7.8556899999999921
 20
-51.800000000000026
 30
0.0
  0
VERTEX
  5
62E
100
AcDbEntity
  8
Dimension
370
               5
390
0
  6
Continuous
 62
               7
100
AcDbVertex
100
AcDb2dVertex
 10
-19.390500000000007
 20
-51.800000000000026
 30
0.0
  0
SEQEND
  5
62F
100
AcDbEntity
  8
Dimension
370
               5
390
0
  6
Continuous
 62
               7
  0
MTEXT
  5
630
100
AcDbEntity
  8
None
390
0
 62
               7
100
AcDbMText
 10
-18.120500000000007
 20
-42.598898526041701
 30
0.0
 40
1.263202473958333
 41
0.0
 71
               1
 72
               1
  1
Status: Released
  7
Arial
 73
               1
 44
0.9673603504928809
  0
MTEXT
  5
631
100
AcDbEntity
  8
None
390
0
 62
               7
100
AcDbMText
 10
-18.120500000000007
 20
-45.988408526041702
 30
0.0
 40
1.263202473958333
 41
0.0
 71
               1
 72
               1
  1
Drawing: E Smolentseva
  7
Arial
 73
               1
 44
0.9673603504928809
  0
MTEXT
  5
632
100
AcDbEntity
  8
None
390
0
 62
               7
100
AcDbMText
 10
3.1475499999999919
 20
-42.510908526041696
 30
0.0
 40
1.263202473958333
 41
0.0
 71
               1
 72
               1
  1
Scale: -
  7
Arial
 73
               1
 44
0.9673603504928809
  0
MTEXT
  5
633
100
AcDbEntity
  8
None
390
0
 62
               7
100
AcDbMText
 10
18.010999999999992
 20
-42.60172852604169
 30
0.0
 40
1.263202473958333
 41
0.0
 71
               1
 72
               1
  1
Rev: A
  7
Arial
 73
               1
 44
0.9673603504928809
  0
MTEXT
  5
634
100
AcDbEntity
  8
None
390
0
 62
               7
100
AcDbMText
 10
9.1256899999999916
 20
-46.270238526041702
 30
0.0
 40
1.263202473958333
 41
0.0
 71
               1
 72
               1
  1
Date: 7/14/10
  7
Arial
 73
               1
 44
0.9673603504928809
  0
MTEXT
  5
635
100
AcDbEntity
  8
None
390
0
 62
               7
100
AcDbMText
 10
-18.252980000000008
 20
-49.629758416666689
 30
0.0
 40
0.8842395833333331
 41
27.246189999999999
 71
               1
 72
               1
  1
File: CG-BGA-4013 Dwg
  7
Arial
 73
               1
 44
0.9673603504928806
  0
POLYLINE
  5
636
100
AcDbEntity
  8
Dimension
370
               5
390
0
  6
Continuous
 62
               7
100
AcDb2dPolyline
 66
               1
 10
0.0
 20
0.0
 30
0.0
 70
               1
 75
               5
  0
VERTEX
  5
637
100
AcDbEntity
  8
Dimension
370
               5
390
0
  6
Continuous
 62
               7
100
AcDbVertex
100
AcDb2dVertex
 10
-70.0
 20
-45.026650000000032
 30
0.0
  0
VERTEX
  5
638
100
AcDbEntity
  8
Dimension
370
               5
390
0
  6
Continuous
 62
               7
100
AcDbVertex
100
AcDb2dVertex
 10
-19.390500000000007
 20
-45.026650000000032
 30
0.0
  0
VERTEX
  5
639
100
AcDbEntity
  8
Dimension
370
               5
390
0
  6
Continuous
 62
               7
100
AcDbVertex
100
AcDb2dVertex
 10
-19.390500000000007
 20
-51.800000000000026
 30
0.0
  0
VERTEX
  5
63A
100
AcDbEntity
  8
Dimension
370
               5
390
0
  6
Continuous
 62
               7
100
AcDbVertex
100
AcDb2dVertex
 10
-70.0
 20
-51.800000000000026
 30
0.0
  0
SEQEND
  5
63B
100
AcDbEntity
  8
Dimension
370
               5
390
0
  6
Continuous
 62
               7
  0
POLYLINE
  5
63C
100
AcDbEntity
  8
Dimension
370
               5
390
0
  6
Continuous
 62
               7
100
AcDb2dPolyline
 66
               1
 10
0.0
 20
0.0
 30
0.0
 70
               1
 75
               5
  0
VERTEX
  5
63D
100
AcDbEntity
  8
Dimension
370
               5
390
0
  6
Continuous
 62
               7
100
AcDbVertex
100
AcDb2dVertex
 10
-70.0
 20
-41.640000000000029
 30
0.0
  0
VERTEX
  5
63E
100
AcDbEntity
  8
Dimension
370
               5
390
0
  6
Continuous
 62
               7
100
AcDbVertex
100
AcDb2dVertex
 10
-19.390500000000007
 20
-41.640000000000029
 30
0.0
  0
VERTEX
  5
63F
100
AcDbEntity
  8
Dimension
370
               5
390
0
  6
Continuous
 62
               7
100
AcDbVertex
100
AcDb2dVertex
 10
-19.390500000000007
 20
-45.026650000000032
 30
0.0
  0
VERTEX
  5
640
100
AcDbEntity
  8
Dimension
370
               5
390
0
  6
Continuous
 62
               7
100
AcDbVertex
100
AcDb2dVertex
 10
-70.0
 20
-45.026650000000032
 30
0.0
  0
SEQEND
  5
641
100
AcDbEntity
  8
Dimension
370
               5
390
0
  6
Continuous
 62
               7
  0
MTEXT
  5
642
100
AcDbEntity
  8
None
390
0
 62
               7
100
AcDbMText
 10
-40.326653289848508
 20
-42.534587779166699
 30
0.0
 40
1.4735130208333329
 41
0.0
 71
               2
 72
               1
  1
CG-BGA-4013 Drawing
  7
Arial (bold)
 73
               1
 44
0.9925958378970426
  0
INSERT
  5
643
100
AcDbEntity
  8
None
390
0
 62
               7
100
AcDbBlockReference
  2
IE i logo
 10
-64.585390000000004
 20
-48.360400000000027
 30
0.0
  0
MTEXT
  5
644
100
AcDbEntity
  8
None
390
0
 62
               7
100
AcDbMText
 10
9.1256899999999916
 20
-49.350068526041689
 30
0.0
 40
1.263202473958333
 41
0.0
 71
               1
 72
               1
  1
Modified:  
  7
Arial
 73
               1
 44
0.9673603504928809
  0
MTEXT
  5
645
100
AcDbEntity
  8
None
390
0
 62
               7
100
AcDbMText
 10
-40.590501599999996
 20
-45.681318022916692
 30
0.0
 40
0.9298981770833332
 41
36.738279999999996
 71
               2
 72
               1
  1
© 2010 IRONWOOD ELECTRONICS, INC.\P11351 Rupp Drive, Suite 400, Burnsville, MN 55337\PTele: (952) 229-8200\Pwww.ironwoodelectronics.com
  7
Arial
 73
               1
 44
0.9673603504928809
  0
INSERT
  5
646
100
AcDbEntity
  8
None
390
0
 62
               7
100
AcDbBlockReference
  2
Group-2
 10
0.0
 20
0.0
 30
0.0
  0
MTEXT
  5
647
100
AcDbEntity
  8
None
390
0
 62
             204
100
AcDbMText
 10
9.2050556004278938
 20
51.546577841666668
 30
0.0
 40
1.5184010416666665
 41
54.521261856316784
 71
               1
 72
               1
  1
{\C12;\L*Note: BGA pattern is shifted to the right by 0.375mm with respect to the mounting holes.}
  7
Arial (bold)
 73
               1
 44
0.992595837897043
  0
ENDSEC
  0
SECTION
  2
OBJECTS
  0
DICTIONARY
  5
19
100
AcDbDictionary
280
               0
281
               1
  3
ACAD_GROUP
350
1A
  3
ACAD_MLINESTYLE
350
1B
  3
ACAD_LAYOUT
350
1E
  3
ACAD_PLOTSETTINGS
350
22
  3
ACAD_PLOTSTYLENAME
350
1F
  0
DICTIONARY
  5
1A
102
{ACAD_REACTORS
330
19
102
}
100
AcDbDictionary
280
               0
281
               1
  0
DICTIONARY
  5
1B
102
{ACAD_REACTORS
330
19
102
}
100
AcDbDictionary
280
               0
281
               1
  3
Standard
350
1C
  0
MLINESTYLE
  5
1C
102
{ACAD_REACTORS
330
1B
102
}
100
AcDbMlineStyle
  2
Standard
 70
               0
  3

 62
               0
 51
90.0
 52
90.0
 71
               2
 49
0.5
 62
             256
  6
ByLayer
 49
-0.5
 62
             256
  6
ByLayer
  0
ACDBDICTIONARYWDFLT
  5
1F
102
{ACAD_REACTORS
330
19
102
}
100
AcDbDictionary
281
               1
  3
Normal
350
1D
100
AcDbDictionaryWithDefault
340
1D
  0
ACDBPLACEHOLDER
  5
1D
102
{ACAD_REACTORS
330
1F
102
}
  0
LAYOUT
  5
20
102
{ACAD_REACTORS
330
1E
102
}
100
AcDbPlotSettings
  1

  2

  4

  6

 40
0.0
 41
0.0
 42
0.0
 43
0.0
 44
0.0
 45
0.0
 46
0.0
 47
0.0
 48
0.0
 49
0.0
140
0.0
141
0.0
142
1.0
143
1.0
 70
            1024
 72
               0
 73
               0
 74
               0
  7

 75
               0
147
1.0
148
0.0
149
0.0
100
AcDbLayout
  1
Model
 70
               0
 71
               0
 10
0.0
 20
0.0
 11
0.0
 21
0.0
 12
0.0
 22
0.0
 32
0.0
 14
0.0
 24
0.0
 34
0.0
 15
0.0
 25
0.0
 35
0.0
146
0.0
 13
0.0
 23
0.0
 33
0.0
 16
0.0
 26
0.0
 36
0.0
 17
0.0
 27
0.0
 37
0.0
 76
               0
330
A
331
0
345
0
346
0
  0
LAYOUT
  5
21
102
{ACAD_REACTORS
330
1E
102
}
100
AcDbPlotSettings
  1

  2

  4

  6

 40
0.0
 41
0.0
 42
0.0
 43
0.0
 44
0.0
 45
0.0
 46
0.0
 47
0.0
 48
0.0
 49
0.0
140
0.0
141
0.0
142
1.0
143
1.0
 70
               0
 72
               0
 73
               0
 74
               0
  7

 75
               0
147
1.0
148
0.0
149
0.0
100
AcDbLayout
  1
Layout1
 70
               0
 71
               0
 10
0.0
 20
0.0
 11
0.0
 21
0.0
 12
0.0
 22
0.0
 32
0.0
 14
0.0
 24
0.0
 34
0.0
 15
0.0
 25
0.0
 35
0.0
146
0.0
 13
0.0
 23
0.0
 33
0.0
 16
0.0
 26
0.0
 36
0.0
 17
0.0
 27
0.0
 37
0.0
 76
               0
330
B
331
0
345
0
346
0
  0
DICTIONARY
  5
1E
102
{ACAD_REACTORS
330
19
102
}
100
AcDbDictionary
280
               0
281
               1
  3
Layout1
350
21
  3
Model
350
20
  0
DICTIONARY
  5
22
102
{ACAD_REACTORS
330
19
102
}
100
AcDbDictionary
280
               0
281
               1
  0
ENDSEC
  0
EOF
