  0
SECTION
  2
HEADER
  9
$ACADVER
  1
AC1015
  9
$ACADMAINTVER
 70
               6
  9
$DWGCODEPAGE
  3
ANSI_1252
  9
$INSBASE
 10
0.0
 20
0.0
 30
0.0
  9
$EXTMIN
 10
-38.457069999999995
 20
25.338902144070786
 30
-1.0331979166666665
  9
$EXTMAX
 10
27.639429999999997
 20
74.152295000000009
 30
1.0331979166666665
  9
$LIMMIN
 10
0.0
 20
0.0
  9
$LIMMAX
 10
0.0
 20
0.0
  9
$ORTHOMODE
 70
               0
  9
$REGENMODE
 70
               1
  9
$FILLMODE
 70
               1
  9
$QTEXTMODE
 70
               0
  9
$MIRRTEXT
 70
               1
  9
$LTSCALE
 40
6.3499999999999996
  9
$ATTMODE
 70
               1
  9
$TEXTSIZE
 40
0.2
  9
$TRACEWID
 40
1.0
  9
$TEXTSTYLE
  7
Standard
  9
$CLAYER
  8
AM_VIS
  9
$CELTYPE
  6
Continuous
  9
$CECOLOR
 62
             256
  9
$CELTSCALE
 40
1.0
  9
$DISPSILH
 70
               0
  9
$DIMSCALE
 40
1.0
  9
$DIMASZ
 40
0.79375
  9
$DIMEXO
 40
0.396875
  9
$DIMDLI
 40
10.16
  9
$DIMRND
 40
0.0
  9
$DIMDLE
 40
0.0
  9
$DIMEXE
 40
0.79375
  9
$DIMTP
 40
0.0
  9
$DIMTM
 40
0.0
  9
$DIMTXT
 40
0.6737068880208333
  9
$DIMCEN
 40
0.0
  9
$DIMTSZ
 40
0.0
  9
$DIMTOL
 70
               0
  9
$DIMLIM
 70
               0
  9
$DIMTIH
 70
               1
  9
$DIMTOH
 70
               1
  9
$DIMSE1
 70
               0
  9
$DIMSE2
 70
               0
  9
$DIMTAD
 70
               0
  9
$DIMZIN
 70
               3
  9
$DIMBLK
  1
VW_FILLEDARROW
  9
$DIMASO
 70
               1
  9
$DIMSHO
 70
               1
  9
$DIMPOST
  1
<>mm
  9
$DIMAPOST
  1
[]"
  9
$DIMALT
 70
               1
  9
$DIMALTD
 70
               3
  9
$DIMALTF
 40
0.0393700787401575
  9
$DIMLFAC
 40
1.0
  9
$DIMTOFL
 70
               0
  9
$DIMTVP
 40
0.0
  9
$DIMTIX
 70
               1
  9
$DIMSOXD
 70
               0
  9
$DIMSAH
 70
               0
  9
$DIMBLK1
  1

  9
$DIMBLK2
  1

  9
$DIMSTYLE
  2
ASME Dual SideBySide
  9
$DIMCLRD
 70
               0
  9
$DIMCLRE
 70
               0
  9
$DIMCLRT
 70
               0
  9
$DIMTFAC
 40
1.0
  9
$DIMGAP
 40
0.0
  9
$DIMJUST
 70
               0
  9
$DIMSD1
 70
               0
  9
$DIMSD2
 70
               0
  9
$DIMTOLJ
 70
               1
  9
$DIMTZIN
 70
               3
  9
$DIMALTZ
 70
               3
  9
$DIMALTTZ
 70
               3
  9
$DIMUPT
 70
               0
  9
$DIMDEC
 70
               2
  9
$DIMTDEC
 70
               2
  9
$DIMALTU
 70
               2
  9
$DIMALTTD
 70
               2
  9
$DIMTXSTY
  7
Helvetica
  9
$DIMAUNIT
 70
               0
  9
$DIMADEC
 70
               0
  9
$DIMALTRND
 40
0.0
  9
$DIMAZIN
 70
               0
  9
$DIMDSEP
 70
              46
  9
$DIMATFIT
 70
               0
  9
$DIMFRAC
 70
               2
  9
$DIMLDRBLK
  1

  9
$DIMLUNIT
 70
               2
  9
$DIMLWD
 70
              -2
  9
$DIMLWE
 70
              -2
  9
$DIMTMOVE
 70
               0
  9
$LUNITS
 70
               2
  9
$LUPREC
 70
               4
  9
$SKETCHINC
 40
0.1
  9
$FILLETRAD
 40
0.0
  9
$AUNITS
 70
               0
  9
$AUPREC
 70
               0
  9
$MENU
  1
acad
  9
$ELEVATION
 40
0.0
  9
$PELEVATION
 40
0.0
  9
$THICKNESS
 40
0.0
  9
$LIMCHECK
 70
               0
  9
$CHAMFERA
 40
0.0
  9
$CHAMFERB
 40
0.0
  9
$CHAMFERC
 40
0.0
  9
$CHAMFERD
 40
0.0
  9
$SKPOLY
 70
               0
  9
$TDCREATE
 40
2454683.555046296
  9
$TDUCREATE
 40
0.000000000
  9
$TDUPDATE
 40
2454683.555046296
  9
$TDUUPDATE
 40
0.000000000
  9
$TDINDWG
 40
0.0000000000
  9
$TDUSRTIMER
 40
0.0000000000
  9
$USRTIMER
 70
               1
  9
$ANGBASE
 50
0.0
  9
$ANGDIR
 70
               0
  9
$PDMODE
 70
               1
  9
$PDSIZE
 40
-2.0
  9
$PLINEWID
 40
0.0
  9
$SPLFRAME
 70
               0
  9
$SPLINETYPE
 70
               6
  9
$SPLINESEGS
 70
               8
  9
$HANDSEED
  5
275
  9
$SURFTAB1
 70
               6
  9
$SURFTAB2
 70
               6
  9
$SURFTYPE
 70
               6
  9
$SURFU
 70
               6
  9
$SURFV
 70
               6
  9
$UCSBASE
  2

  9
$UCSNAME
  2

  9
$UCSORG
 10
0.0
 20
0.0
 30
0.0
  9
$UCSXDIR
 10
1.0
 20
0.0
 30
0.0
  9
$UCSYDIR
 10
0.0
 20
1.0
 30
0.0
  9
$UCSORTHOREF
  2

  9
$UCSORTHOVIEW
 70
               0
  9
$UCSORGTOP
 10
0.0
 20
0.0
 30
0.0
  9
$UCSORGBOTTOM
 10
0.0
 20
0.0
 30
0.0
  9
$UCSORGLEFT
 10
0.0
 20
0.0
 30
0.0
  9
$UCSORGRIGHT
 10
0.0
 20
0.0
 30
0.0
  9
$UCSORGFRONT
 10
0.0
 20
0.0
 30
0.0
  9
$UCSORGBACK
 10
0.0
 20
0.0
 30
0.0
  9
$PUCSBASE
  2

  9
$PUCSNAME
  2

  9
$PUCSORG
 10
0.0
 20
0.0
 30
0.0
  9
$PUCSXDIR
 10
1.0
 20
0.0
 30
0.0
  9
$PUCSYDIR
 10
0.0
 20
1.0
 30
0.0
  9
$PUCSORTHOREF
  2

  9
$PUCSORTHOVIEW
 70
               0
  9
$PUCSORGTOP
 10
0.0
 20
0.0
 30
0.0
  9
$PUCSORGBOTTOM
 10
0.0
 20
0.0
 30
0.0
  9
$PUCSORGLEFT
 10
0.0
 20
0.0
 30
0.0
  9
$PUCSORGRIGHT
 10
0.0
 20
0.0
 30
0.0
  9
$PUCSORGFRONT
 10
0.0
 20
0.0
 30
0.0
  9
$PUCSORGBACK
 10
0.0
 20
0.0
 30
0.0
  9
$USERI1
 70
               0
  9
$USERI2
 70
               0
  9
$USERI3
 70
               0
  9
$USERI4
 70
               0
  9
$USERI5
 70
               0
  9
$USERR1
 40
0.0
  9
$USERR2
 40
0.0
  9
$USERR3
 40
0.0
  9
$USERR4
 40
0.0
  9
$USERR5
 40
0.0
  9
$WORLDVIEW
 70
               1
  9
$SHADEDGE
 70
               3
  9
$SHADEDIF
 70
              70
  9
$TILEMODE
 70
               1
  9
$MAXACTVP
 70
              64
  9
$PINSBASE
 10
0.0
 20
0.0
 30
0.0
  9
$PLIMCHECK
 70
               0
  9
$PEXTMIN
 10
1.0000000000000000E+20
 20
1.0000000000000000E+20
 30
1.0000000000000000E+20
  9
$PEXTMAX
 10
-1.0000000000000000E+20
 20
-1.0000000000000000E+20
 30
-1.0000000000000000E+20
  9
$PLIMMIN
 10
0.0
 20
0.0
  9
$PLIMMAX
 10
12.0
 20
9.0
  9
$UNITMODE
 70
               0
  9
$VISRETAIN
 70
               0
  9
$PLINEGEN
 70
               1
  9
$PSLTSCALE
 70
               0
  9
$TREEDEPTH
 70
            3020
  9
$CMLSTYLE
  2
Standard
  9
$CMLJUST
 70
               0
  9
$CMLSCALE
 40
1.0
  9
$PROXYGRAPHICS
 70
               0
  9
$MEASUREMENT
 70
               1
  9
$CELWEIGHT
370
               0
  9
$ENDCAPS
280
               0
  9
$JOINSTYLE
280
               0
  9
$LWDISPLAY
290
               1
  9
$INSUNITS
 70
               4
  9
$HYPERLINKBASE
  1

  9
$STYLESHEET
  1

  9
$XEDIT
290
               1
  9
$CEPSNTYPE
380
               0
  9
$PSTYLEMODE
290
               1
  9
$FINGERPRINTGUID
  2

  9
$VERSIONGUID
  2

  9
$EXTNAMES
290
               1
  9
$PSVPSCALE
 40
0.0
  0
ENDSEC
  0
SECTION
  2
CLASSES
  0
CLASS
  1
LWPOLYLINE
  2
AcDbPolyline
  3
AutoCAD 2000
 90
        0
280
               0
281
               1
  0
CLASS
  1
IMAGE
  2
AcDbRasterImage
  3
ISM
 90
      127
280
               0
281
               1
  0
CLASS
  1
OLE2FRAME
  2
AcDbOle2Frame
  3
AutoCAD 2000
 90
        0
280
               0
281
               1
  0
CLASS
  1
HATCH
  2
AcDbHatch
  3
AutoCAD 2000
 90
        0
280
               0
281
               1
  0
CLASS
  1
DICTIONARYVAR
  2
AcDbDictionaryVar
  3
AutoCAD 2000
 90
        0
280
               0
281
               0
  0
CLASS
  1
RASTERVARIABLES
  2
AcDbRasterVariables
  3
ISM
 90
        0
280
               0
281
               0
  0
CLASS
  1
IMAGEDEF
  2
AcDbRasterImageDef
  3
ISM
 90
        0
280
               0
281
               0
  0
CLASS
  1
IMAGEDEF_REACTOR
  2
AcDbRasterImageDefReactor
  3
ISM
 90
        1
280
               0
281
               0
  0
CLASS
  1
IDBUFFER
  2
AcDbIdBuffer
  3
AutoCAD 2000
 90
        0
280
               0
281
               0
  0
CLASS
  1
SPATIAL_FILTER
  2
AcDbSpatialFilter
  3
AutoCAD 2000
 90
        0
280
               0
281
               0
  0
CLASS
  1
XRECORD
  2
AcDbXrecord
  3
AutoCAD 2000
 90
        0
280
               0
281
               0
  0
CLASS
  1
SORTENTSTABLE
  2
AcDbSortentsTable
  3
AutoCAD 2000
 90
        0
280
               0
281
               0
  0
CLASS
  1
LAYER_INDEX
  2
AcDbLayerIndex
  3
AutoCAD 2000
 90
        0
280
               0
281
               0
  0
CLASS
  1
SPATIAL_INDEX
  2
AcDbSpatialIndex
  3
AutoCAD 2000
 90
        0
280
               0
281
               0
  0
CLASS
  1
OBJECT_PTR
  2
CAseDLPNTableRecord
  3
"ASE-LPNTableRecord"
 90
        1
280
               0
281
               0
  0
CLASS
  1
LAYOUT
  2
AcDbLayout
  3
AutoCAD 2000
 90
        0
280
               0
281
               0
  0
CLASS
  1
PLOTSETTINGS
  2
AcDbPlotSettings
  3
AutoCAD 2000
 90
        0
280
               0
281
               0
  0
CLASS
  1
ACDBDICTIONARYWDFLT
  2
AcDbDictionaryWithDefault
  3
AutoCAD 2000
 90
        0
280
               0
281
               0
  0
CLASS
  1
ACDBPLACEHOLDER
  2
AcDbPlaceHolder
  3
AutoCAD 2000
 90
        0
280
               0
281
               0
  0
CLASS
  1
VBA_PROJECT
  2
AcDbVbaProject
  3
acadvba
 90
        0
280
               0
281
               0
  0
CLASS
  1
WIPEOUT
  2
AcDbWipeout
  3
WipeOut|AutoCAD Express Tool|expresstools@autodesk.com
 90
      127
280
               0
281
               1
  0
CLASS
  1
WIPEOUTVARIABLES
  2
AcDbWipeoutVariables
  3
WipeOut|AutoCAD Express Tool|expresstools@autodesk.com
 90
        0
280
               0
281
               0
  0
CLASS
  1
RTEXT
  2
RText
  3
RText|AutoCAD Express Tool|expresstools@autodesk.com
 90
        0
280
               0
281
               1
  0
CLASS
  1
ARCALIGNEDTEXT
  2
AcDbArcAlignedText
  3
ATEXT|AutoCAD Express Tool|expresstools@autodesk.com
 90
        0
280
               0
281
               1
  0
ENDSEC
  0
SECTION
  2
TABLES
  0
TABLE
  2
VPORT
  5
7
100
AcDbSymbolTable
 70
               1
  0
VPORT
  5
15
100
AcDbSymbolTableRecord
100
AcDbViewportTableRecord
  2
*ACTIVE
 70
               0
 10
0.0
 20
0.0
 11
1.0
 21
1.0
 12
-5.4088199999999986
 22
49.745598572035398
 13
0.0
 23
0.0
 14
1.0
 24
1.0
 15
0.0
 25
0.0
 16
0.0
 26
0.0
 36
1.0
 17
0.0
 27
0.0
 37
0.0
 40
48.813392855929223
 41
0.688564
 42
50.0
 43
0.0
 44
0.0
 50
0.0
 51
0.0
 71
               0
 72
            2000
 73
               1
 74
               1
 75
               0
 76
               0
 77
               0
 78
               0
281
               0
 65
               0
110
0.0
120
0.0
130
0.0
111
1.0
121
0.0
131
0.0
112
0.0
122
1.0
132
0.0
345
0
346
0
 79
               0
146
0.0
  0
ENDTAB
  0
TABLE
  2
LTYPE
  5
4
100
AcDbSymbolTable
 70
              19
  0
LTYPE
  5
11
100
AcDbSymbolTableRecord
100
AcDbLinetypeTableRecord
  2
ByBlock
 70
              64
  3

 72
              65
 73
               0
 40
0.0
  0
LTYPE
  5
12
100
AcDbSymbolTableRecord
100
AcDbLinetypeTableRecord
  2
ByLayer
 70
              64
  3

 72
              65
 73
               0
 40
0.0
  0
LTYPE
  5
13
100
AcDbSymbolTableRecord
100
AcDbLinetypeTableRecord
  2
Continuous
 70
              64
  3
Solid line
 72
              65
 73
               0
 40
0.0
  0
LTYPE
  5
3E
100
AcDbSymbolTableRecord
100
AcDbLinetypeTableRecord
  2
STYLE_01
 70
               0
  3

 72
              65
 73
               2
 40
1.5
 49
1.0
 74
               0
 49
-0.5
 74
               0
  0
LTYPE
  5
3F
100
AcDbSymbolTableRecord
100
AcDbLinetypeTableRecord
  2
STYLE_02
 70
               0
  3

 72
              65
 73
               2
 40
0.75
 49
0.5
 74
               0
 49
-0.25
 74
               0
  0
LTYPE
  5
40
100
AcDbSymbolTableRecord
100
AcDbLinetypeTableRecord
  2
STYLE_03
 70
               0
  3

 72
              65
 73
               4
 40
0.5555572509765625
 49
0.25
 74
               0
 49
-0.111114501953125
 74
               0
 49
0.0972137451171875
 74
               0
 49
-0.09722900390625
 74
               0
  0
LTYPE
  5
41
100
AcDbSymbolTableRecord
100
AcDbLinetypeTableRecord
  2
STYLE_04
 70
               0
  3

 72
              65
 73
               4
 40
5.0
 49
2.5
 74
               0
 49
-0.5
 74
               0
 49
0.5
 74
               0
 49
-0.5
 74
               0
  0
LTYPE
  5
42
100
AcDbSymbolTableRecord
100
AcDbLinetypeTableRecord
  2
STYLE_05
 70
               0
  3

 72
              65
 73
               2
 40
0.5
 49
0.0001
 74
               0
 49
-0.4999
 74
               0
  0
LTYPE
  5
43
100
AcDbSymbolTableRecord
100
AcDbLinetypeTableRecord
  2
STYLE_06
 70
               0
  3

 72
              65
 73
               4
 40
0.4583282470703125
 49
0.263885498046875
 74
               0
 49
-0.083343505859375
 74
               0
 49
0.02777099609375
 74
               0
 49
-0.0833282470703125
 74
               0
  0
LTYPE
  5
44
100
AcDbSymbolTableRecord
100
AcDbLinetypeTableRecord
  2
STYLE_07
 70
               0
  3

 72
              65
 73
               6
 40
3.5
 49
1.0
 74
               0
 49
-0.5
 74
               0
 49
1.0
 74
               0
 49
-0.5
 74
               0
 49
0.0001000000000002
 74
               0
 49
-0.4998999999999998
 74
               0
  0
LTYPE
  5
45
100
AcDbSymbolTableRecord
100
AcDbLinetypeTableRecord
  2
STYLE_08
 70
               0
  3

 72
              65
 73
               6
 40
2.5
 49
1.0
 74
               0
 49
-0.5
 74
               0
 49
0.0001
 74
               0
 49
-0.4999
 74
               0
 49
0.0001000000000002
 74
               0
 49
-0.4998999999999998
 74
               0
  0
LTYPE
  5
46
100
AcDbSymbolTableRecord
100
AcDbLinetypeTableRecord
  2
STYLE_09
 70
               0
  3

 72
              65
 73
               6
 40
0.5694427490234375
 49
0.25
 74
               0
 49
-0.0694427490234375
 74
               0
 49
0.0555572509765625
 74
               0
 49
-0.0694427490234375
 74
               0
 49
0.0555572509765625
 74
               0
 49
-0.0694427490234375
 74
               0
  0
LTYPE
  5
47
100
AcDbSymbolTableRecord
100
AcDbLinetypeTableRecord
  2
STYLE_10
 70
               0
  3

 72
              65
 73
               2
 40
0.09722900390625
 49
0.0555572509765625
 74
               0
 49
-0.0416717529296875
 74
               0
  0
LTYPE
  5
48
100
AcDbSymbolTableRecord
100
AcDbLinetypeTableRecord
  2
STYLE_11
 70
               0
  3

 72
              65
 73
               6
 40
0.5416717529296875
 49
0.25
 74
               0
 49
-0.0555572509765625
 74
               0
 49
0.0555572509765625
 74
               0
 49
-0.0555572509765625
 74
               0
 49
0.0555572509765625
 74
               0
 49
-0.0694427490234375
 74
               0
  0
LTYPE
  5
49
100
AcDbSymbolTableRecord
100
AcDbLinetypeTableRecord
  2
STYLE_12
 70
               0
  3

 72
              65
 73
               2
 40
0.0833282470703125
 49
0.0555572509765625
 74
               0
 49
-0.02777099609375
 74
               0
  0
LTYPE
  5
4A
100
AcDbSymbolTableRecord
100
AcDbLinetypeTableRecord
  2
STYLE_13
 70
               0
  3

 72
              65
 73
               2
 40
0.0833282470703125
 49
0.041656494140625
 74
               0
 49
-0.0416717529296875
 74
               0
  0
LTYPE
  5
4B
100
AcDbSymbolTableRecord
100
AcDbLinetypeTableRecord
  2
STYLE_14
 70
               0
  3

 72
              65
 73
               4
 40
0.4305572509765625
 49
0.236114501953125
 74
               0
 49
-0.0833282470703125
 74
               0
 49
0.013885498046875
 74
               0
 49
-0.09722900390625
 74
               0
  0
LTYPE
  5
4C
100
AcDbSymbolTableRecord
100
AcDbLinetypeTableRecord
  2
STYLE_15
 70
               0
  3

 72
              65
 73
               2
 40
0.375
 49
0.25
 74
               0
 49
-0.125
 74
               0
  0
LTYPE
  5
4D
100
AcDbSymbolTableRecord
100
AcDbLinetypeTableRecord
  2
STYLE_16
 70
               0
  3

 72
              65
 73
               4
 40
0.2083282470703125
 49
0.125
 74
               0
 49
-0.041656494140625
 74
               0
 49
0.013885498046875
 74
               0
 49
-0.0277862548828125
 74
               0
  0
ENDTAB
  0
TABLE
  2
LAYER
  5
2
100
AcDbSymbolTable
 70
               7
  0
LAYER
  5
14
100
AcDbSymbolTableRecord
100
AcDbLayerTableRecord
  2
0
 70
               0
 62
               7
  6
Continuous
290
               1
370
              -3
390
1D
  0
LAYER
  5
4E
100
AcDbSymbolTableRecord
100
AcDbLayerTableRecord
  2
Defpoints
 70
               0
 62
               7
  6
Continuous
290
               0
370
              -3
390
1D
  0
LAYER
  5
4F
100
AcDbSymbolTableRecord
100
AcDbLayerTableRecord
  2
None
 70
               0
 62
               7
  6
Continuous
290
               1
370
               5
390
1D
  0
LAYER
  5
50
100
AcDbSymbolTableRecord
100
AcDbLayerTableRecord
  2
Dimension
 70
               0
 62
               7
  6
Continuous
290
               1
370
               5
390
1D
  0
LAYER
  5
51
100
AcDbSymbolTableRecord
100
AcDbLayerTableRecord
  2
Solid Lines
 70
               0
 62
               7
  6
Continuous
290
               1
370
              25
390
1D
  0
LAYER
  5
52
100
AcDbSymbolTableRecord
100
AcDbLayerTableRecord
  2
AM_VIS
 70
               0
 62
               7
  6
Continuous
290
               1
370
              15
390
1D
  0
LAYER
  5
53
100
AcDbSymbolTableRecord
100
AcDbLayerTableRecord
  2
AM_HID
 70
               0
 62
               7
  6
STYLE_11
290
               1
370
              15
390
1D
  0
ENDTAB
  0
TABLE
  2
STYLE
  5
3
100
AcDbSymbolTable
 70
               5
  0
STYLE
  5
17
100
AcDbSymbolTableRecord
100
AcDbTextStyleTableRecord
  2
Standard
 70
               0
 40
0.0
 41
1.0
 50
0.0
 71
               0
 42
0.0
  3
txt
  4

  0
STYLE
  5
3A
100
AcDbSymbolTableRecord
100
AcDbTextStyleTableRecord
  2
Arial
 70
               0
 40
0.0
 41
1.0
 50
0.0
 71
               0
 42
0.0
  3
Arial
  4

1001
ACAD
1000
Arial
1071
        0
  0
STYLE
  5
3B
100
AcDbSymbolTableRecord
100
AcDbTextStyleTableRecord
  2
Arial (bold)
 70
               0
 40
0.0
 41
1.0
 50
0.0
 71
               0
 42
0.0
  3
Arial
  4

1001
ACAD
1000
Arial
1071
 33554432
  0
STYLE
  5
3C
100
AcDbSymbolTableRecord
100
AcDbTextStyleTableRecord
  2
Helvetica
 70
               0
 40
0.0
 41
1.0
 50
0.0
 71
               0
 42
0.0
  3
Helvetica
  4

1001
ACAD
1000
Helvetica
1071
        0
  0
STYLE
  5
3D
100
AcDbSymbolTableRecord
100
AcDbTextStyleTableRecord
  2
New Century Schlbk
 70
               0
 40
0.0
 41
1.0
 50
0.0
 71
               0
 42
0.0
  3
New Century Schlbk
  4

1001
ACAD
1000
New Century Schlbk
1071
        0
  0
ENDTAB
  0
TABLE
  2
VIEW
  5
5
100
AcDbSymbolTable
 70
               0
  0
ENDTAB
  0
TABLE
  2
UCS
  5
6
100
AcDbSymbolTable
 70
               0
  0
ENDTAB
  0
TABLE
  2
APPID
  5
8
100
AcDbSymbolTable
 70
               1
  0
APPID
  5
16
100
AcDbSymbolTableRecord
100
AcDbRegAppTableRecord
  2
ACAD
 70
               0
  0
ENDTAB
  0
TABLE
  2
DIMSTYLE
  5
9
100
AcDbSymbolTable
 70
               3
100
AcDbDimStyleTable
 71
               0
  0
DIMSTYLE
105
18
100
AcDbSymbolTableRecord
100
AcDbDimStyleTableRecord
  2
Standard
 70
               0
  3

  4

 40
1.0
 41
0.18
 42
0.0625
 43
0.38
 44
0.18
 45
0.0
 46
0.0
 47
0.0
 48
0.0
 71
               0
 72
               0
 73
               1
 74
               1
 75
               0
 76
               0
 77
               0
 78
               0
 79
               0
140
0.18
141
0.09
142
0.0
143
25.399999999999999
144
1.0
145
0.0
146
1.0
147
0.09
148
0.0
170
               0
171
               2
172
               0
173
               0
174
               0
175
               0
176
               0
177
               0
178
               0
179
               0
271
               4
272
               4
273
               2
274
               2
275
               0
276
               0
277
               2
278
              46
279
               0
280
               0
281
               0
282
               0
283
               1
284
               0
285
               0
286
               0
288
               0
289
               3
340
17
341
0
342
0
343
0
344
0
371
              -2
372
              -2
  0
DIMSTYLE
105
5C
100
AcDbSymbolTableRecord
100
AcDbDimStyleTableRecord
  2
IE Standard
 70
               0
  3
<>mm
  4
[]"
 40
1.0
 41
0.79375
 42
0.4762500011827797
 43
6.9999859934672708
 44
0.9525000023655593
 45
0.0
 46
0.0
 47
0.0
 48
0.0
 71
               0
 72
               0
 73
               1
 74
               1
 75
               0
 76
               0
 77
               0
 78
               3
 79
               0
140
0.6737068880208333
141
0.0
142
0.0
143
0.0393700787401575
144
1.0
145
0.0
146
1.0
147
0.0
148
0.0
170
               0
171
               3
172
               1
173
               0
174
               1
175
               0
176
               0
177
               0
178
               0
179
               0
271
               2
272
               2
273
               2
274
               2
275
               0
276
               2
277
               2
278
              46
279
               0
280
               0
281
               0
282
               0
283
               1
284
               3
285
               3
286
               3
288
               0
289
               0
340
3C
341
58
342
54
343
0
344
0
371
              -2
372
              -2
  0
DIMSTYLE
105
5D
100
AcDbSymbolTableRecord
100
AcDbDimStyleTableRecord
  2
ASME Dual SideBySide
 70
               0
  3
<>mm
  4
[]"
 40
1.0
 41
0.79375
 42
0.396875
 43
10.16
 44
0.79375
 45
0.0
 46
0.0
 47
0.0
 48
0.0
 71
               0
 72
               0
 73
               1
 74
               1
 75
               0
 76
               0
 77
               0
 78
               3
 79
               0
140
0.6737068880208333
141
0.0
142
0.0
143
0.0393700787401575
144
1.0
145
0.0
146
1.0
147
0.0
148
0.0
170
               1
171
               3
172
               0
173
               0
174
               1
175
               0
176
               0
177
               0
178
               0
179
               0
271
               2
272
               2
273
               2
274
               2
275
               0
276
               2
277
               2
278
              46
279
               0
280
               0
281
               0
282
               0
283
               1
284
               3
285
               3
286
               3
288
               0
289
               0
340
3C
341
54
342
54
343
0
344
0
371
              -2
372
              -2
  0
ENDTAB
  0
TABLE
  2
BLOCK_RECORD
  5
1
100
AcDbSymbolTable
 70
              24
  0
BLOCK_RECORD
  5
A
100
AcDbSymbolTableRecord
100
AcDbBlockTableRecord
  2
*MODEL_SPACE
340
20
  0
BLOCK_RECORD
  5
B
100
AcDbSymbolTableRecord
100
AcDbBlockTableRecord
  2
*PAPER_SPACE
340
21
  0
BLOCK_RECORD
  5
54
100
AcDbSymbolTableRecord
100
AcDbBlockTableRecord
  2
VW_FILLEDARROW
340
0
  0
BLOCK_RECORD
  5
58
100
AcDbSymbolTableRecord
100
AcDbBlockTableRecord
  2
VW_FILLEDARROW-1
340
0
  0
BLOCK_RECORD
  5
24
100
AcDbSymbolTableRecord
100
AcDbBlockTableRecord
  2
*D2
340
0
  0
BLOCK_RECORD
  5
25
100
AcDbSymbolTableRecord
100
AcDbBlockTableRecord
  2
*D3
340
0
  0
BLOCK_RECORD
  5
26
100
AcDbSymbolTableRecord
100
AcDbBlockTableRecord
  2
*D4
340
0
  0
BLOCK_RECORD
  5
27
100
AcDbSymbolTableRecord
100
AcDbBlockTableRecord
  2
*D5
340
0
  0
BLOCK_RECORD
  5
28
100
AcDbSymbolTableRecord
100
AcDbBlockTableRecord
  2
*D6
340
0
  0
BLOCK_RECORD
  5
29
100
AcDbSymbolTableRecord
100
AcDbBlockTableRecord
  2
*D7
340
0
  0
BLOCK_RECORD
  5
2A
100
AcDbSymbolTableRecord
100
AcDbBlockTableRecord
  2
*D8
340
0
  0
BLOCK_RECORD
  5
2B
100
AcDbSymbolTableRecord
100
AcDbBlockTableRecord
  2
*D9
340
0
  0
BLOCK_RECORD
  5
2C
100
AcDbSymbolTableRecord
100
AcDbBlockTableRecord
  2
*D10
340
0
  0
BLOCK_RECORD
  5
2D
100
AcDbSymbolTableRecord
100
AcDbBlockTableRecord
  2
*D11
340
0
  0
BLOCK_RECORD
  5
2E
100
AcDbSymbolTableRecord
100
AcDbBlockTableRecord
  2
*D12
340
0
  0
BLOCK_RECORD
  5
2F
100
AcDbSymbolTableRecord
100
AcDbBlockTableRecord
  2
*D13
340
0
  0
BLOCK_RECORD
  5
30
100
AcDbSymbolTableRecord
100
AcDbBlockTableRecord
  2
*D14
340
0
  0
BLOCK_RECORD
  5
31
100
AcDbSymbolTableRecord
100
AcDbBlockTableRecord
  2
*D15
340
0
  0
BLOCK_RECORD
  5
32
100
AcDbSymbolTableRecord
100
AcDbBlockTableRecord
  2
*D16
340
0
  0
BLOCK_RECORD
  5
33
100
AcDbSymbolTableRecord
100
AcDbBlockTableRecord
  2
pad
340
0
102
{BLKREFS
331
130
331
131
331
132
331
133
331
134
331
135
331
136
331
137
331
138
331
139
331
13A
331
13B
331
13C
331
13D
331
13E
331
13F
331
140
331
141
331
142
331
143
331
144
331
145
331
146
331
147
331
148
331
149
331
14A
331
14B
331
14C
331
14D
331
14E
331
14F
331
150
331
151
331
152
331
153
331
154
331
155
331
156
331
157
331
158
331
159
331
15A
331
15B
331
15C
331
15D
331
15E
331
15F
331
160
331
161
331
162
331
163
331
164
331
165
331
166
331
167
331
168
331
169
331
16A
331
16B
331
16C
331
16D
331
16E
331
16F
331
170
331
171
331
172
331
173
331
174
331
175
331
176
331
177
331
178
331
179
331
17A
331
17B
331
17C
331
17D
331
17E
331
17F
331
180
331
181
331
182
331
183
331
184
331
185
331
186
331
187
331
188
331
189
331
18A
331
18B
331
18C
331
18D
331
18E
331
18F
331
190
331
191
331
192
331
193
331
194
331
195
331
196
331
197
331
198
331
199
331
19A
331
19B
331
19C
331
19D
331
19E
331
19F
331
1A0
331
1A1
331
1A2
331
1A3
331
1A4
331
1A5
331
1A6
331
1A7
331
1A8
102
}
  0
BLOCK_RECORD
  5
34
100
AcDbSymbolTableRecord
100
AcDbBlockTableRecord
  2
Group
340
0
102
{BLKREFS
331
20B
102
}
  0
BLOCK_RECORD
  5
35
100
AcDbSymbolTableRecord
100
AcDbBlockTableRecord
  2
Group-1
340
0
102
{BLKREFS
331
20C
102
}
  0
BLOCK_RECORD
  5
36
100
AcDbSymbolTableRecord
100
AcDbBlockTableRecord
  2
Group-2
340
0
102
{BLKREFS
331
1B7
102
}
  0
BLOCK_RECORD
  5
37
100
AcDbSymbolTableRecord
100
AcDbBlockTableRecord
  2
Group-3
340
0
102
{BLKREFS
331
20D
102
}
  0
BLOCK_RECORD
  5
38
100
AcDbSymbolTableRecord
100
AcDbBlockTableRecord
  2
IE i logo
340
0
102
{BLKREFS
331
26C
102
}
  0
BLOCK_RECORD
  5
39
100
AcDbSymbolTableRecord
100
AcDbBlockTableRecord
  2
©2006_address
340
0
102
{BLKREFS
331
274
102
}
  0
ENDTAB
  0
ENDSEC
  0
SECTION
  2
BLOCKS
  0
BLOCK
  5
D
100
AcDbEntity
  8
0
390
0
100
AcDbBlockBegin
  2
*MODEL_SPACE
 70
               0
 10
0.0
 20
0.0
 30
0.0
  3
*MODEL_SPACE
  1

  0
ENDBLK
  5
E
100
AcDbEntity
  8
0
390
0
100
AcDbBlockEnd
  0
BLOCK
  5
F
100
AcDbEntity
 67
               1
  8
0
390
0
100
AcDbBlockBegin
  2
*PAPER_SPACE
 70
               0
 10
0.0
 20
0.0
 30
0.0
  3
*PAPER_SPACE
  1

  0
ENDBLK
  5
10
100
AcDbEntity
 67
               1
  8
0
390
0
100
AcDbBlockEnd
  0
BLOCK
  5
55
100
AcDbEntity
  8
0
370
              -2
390
0
  6
ByBlock
 62
               0
100
AcDbBlockBegin
  2
VW_FILLEDARROW
 70
               0
 10
0.0
 20
0.0
 30
0.0
  3
VW_FILLEDARROW
  1

  0
SOLID
  5
56
100
AcDbEntity
  8
0
370
              -2
390
0
 62
               0
100
AcDbTrace
 10
0.0
 20
0.0
 30
0.0
 11
-0.9999389648437499
 21
-0.2679328381102956
 31
0.0
 12
-0.9999389648437499
 22
0.2679328381102958
 32
0.0
 13
-0.9999389648437499
 23
0.2679328381102958
 33
0.0
  0
ENDBLK
  5
57
100
AcDbEntity
  8
0
390
0
100
AcDbBlockEnd
  0
BLOCK
  5
59
100
AcDbEntity
  8
0
370
              -2
390
0
  6
ByBlock
 62
               0
100
AcDbBlockBegin
  2
VW_FILLEDARROW-1
 70
               0
 10
0.0
 20
0.0
 30
0.0
  3
VW_FILLEDARROW
  1

  0
SOLID
  5
5A
100
AcDbEntity
  8
0
370
              -2
390
0
 62
               0
100
AcDbTrace
 10
0.0
 20
0.0
 30
0.0
 11
-0.6662384033203125
 21
-0.1785180421362784
 31
0.0
 12
-0.6662384033203125
 22
0.1785180421362785
 32
0.0
 13
-0.6662384033203125
 23
0.1785180421362785
 33
0.0
  0
ENDBLK
  5
5B
100
AcDbEntity
  8
0
390
0
100
AcDbBlockEnd
  0
BLOCK
  5
5E
100
AcDbEntity
  8
Dimension
390
0
100
AcDbBlockBegin
  2
*D2
 70
               1
 10
0.0
 20
0.0
 30
0.0
  3
*D2
  1

  0
LINE
  5
5F
100
AcDbEntity
  8
Dimension
370
              -2
390
0
  6
Continuous
 62
               0
100
AcDbLine
 10
-14.494449745190884
 20
62.140849211468975
 30
0.0
 11
-14.494449745190884
 21
69.361029212651758
 31
0.0
  0
LINE
  5
60
100
AcDbEntity
  8
Dimension
370
              -2
390
0
  6
Continuous
 62
               0
100
AcDbLine
 10
-15.744449745190867
 20
63.390849211469032
 30
0.0
 11
-15.744449745190867
 21
69.361029212651758
 31
0.0
  0
LINE
  5
61
100
AcDbEntity
  8
Dimension
370
              -2
390
0
  6
Continuous
 62
               0
100
AcDbLine
 10
-15.744449745190867
 20
68.408529210286204
 30
0.0
 11
-14.494449745190884
 21
68.408529210286204
 31
0.0
  0
LINE
  5
62
100
AcDbEntity
  8
Dimension
370
              -2
390
0
  6
Continuous
 62
               0
100
AcDbLine
 10
-14.494449745190884
 20
68.408529210286204
 30
0.0
 11
-12.744453246824069
 21
68.408529210286204
 31
0.0
  0
SOLID
  5
63
100
AcDbEntity
  8
Dimension
370
              -2
390
0
 62
               0
100
AcDbTrace
 10
-14.494449745190884
 20
68.408529210286204
 30
0.0
 11
-13.700699745190885
 21
68.621213881778402
 31
0.0
 12
-13.700699745190885
 22
68.195844538793992
 32
0.0
 13
-13.700699745190885
 23
68.195844538793992
 33
0.0
  0
LINE
  5
64
100
AcDbEntity
  8
Dimension
370
              -2
390
0
  6
Continuous
 62
               0
100
AcDbLine
 10
-15.744449745190867
 20
68.408529210286204
 30
0.0
 11
-18.725549745190868
 21
68.408529210286204
 31
0.0
  0
SOLID
  5
65
100
AcDbEntity
  8
Dimension
370
              -2
390
0
 62
               0
100
AcDbTrace
 10
-15.744449745190867
 20
68.408529210286204
 30
0.0
 11
-16.538199745190866
 21
68.195844538793992
 31
0.0
 12
-16.538199745190866
 22
68.621213881778402
 32
0.0
 13
-16.538199745190866
 23
68.621213881778402
 33
0.0
  0
WIPEOUT
  5
66
100
AcDbEntity
  8
Dimension
370
              -2
390
0
  6
Continuous
 62
               0
 92
        0
100
AcDbWipeout
 90
        0
 10
-28.022118382614913
 20
36.418778301397332
 30
0.0
 11
3.4242926941977601
 21
0.0
 31
0.0
 12
0.0
 22
3.4242926941977601
 32
0.0
 13
1.0
 23
1.0
340
0
 70
               7
280
               1
281
              50
282
              50
283
               0
360
0
 71
               2
 91
        5
 14
-0.5
 24
-8.6889720914677095
 14
0.5
 24
-8.6889720914677095
 14
0.5
 24
-9.004906173806269
 14
-0.5
 24
-9.004906173806269
 14
-0.5
 24
-8.6889720914677095
  0
MTEXT
  5
67
100
AcDbEntity
  8
Dimension
390
0
 62
               0
100
AcDbMText
 10
-28.022118382614913
 20
68.793400139418154
 30
0.0
 40
0.6737068880208333
 41
0.0
 71
               1
 72
               1
  1
1.25mm
  7
Helvetica
 73
               1
 44
0.9673603504928808
  0
WIPEOUT
  5
68
100
AcDbEntity
  8
Dimension
370
              -2
390
0
  6
Continuous
 62
               0
 92
        0
100
AcDbWipeout
 90
        0
 10
-24.597825688417153
 20
36.404078756952885
 30
0.0
 11
3.9416996081670135
 21
0.0
 31
0.0
 12
0.0
 22
3.9416996081670135
 32
0.0
 13
1.0
 23
1.0
340
0
 70
               7
280
               1
281
              50
282
              50
283
               0
360
0
 71
               2
 91
        5
 14
-0.5
 24
-7.4827823345047628
 14
0.5
 24
-7.4827823345047628
 14
0.5
 24
-7.7572453523761542
 14
-0.5
 24
-7.7572453523761542
 14
-0.5
 24
-7.4827823345047628
  0
MTEXT
  5
69
100
AcDbEntity
  8
Dimension
390
0
 62
               0
100
AcDbMText
 10
-24.597825688417153
 20
68.778700594973699
 30
0.0
 40
0.6737068880208333
 41
0.0
 71
               1
 72
               1
  1
±0.13mm
  7
Helvetica
 73
               1
 44
0.9673603504928808
  0
WIPEOUT
  5
6A
100
AcDbEntity
  8
Dimension
370
              -2
390
0
  6
Continuous
 62
               0
 92
        0
100
AcDbWipeout
 90
        0
 10
-20.656126080250139
 20
36.384969349175115
 30
0.0
 11
1.9305763350592713
 21
0.0
 31
0.0
 12
0.0
 22
1.9305763350592713
 32
0.0
 13
1.0
 23
1.0
340
0
 70
               7
280
               1
281
              50
282
              50
283
               0
360
0
 71
               2
 91
        5
 14
-0.5
 24
-15.798619965749214
 14
0.5
 24
-15.798619965749214
 14
0.5
 24
-16.376509429098494
 14
-0.5
 24
-16.376509429098494
 14
-0.5
 24
-15.798619965749214
  0
MTEXT
  5
6B
100
AcDbEntity
  8
Dimension
390
0
 62
               0
100
AcDbMText
 10
-20.656126080250139
 20
68.787994994429724
 30
0.0
 40
0.6947609230324073
 41
0.0
 71
               1
 72
               1
  1
 (x4)
  7
Helvetica
 73
               1
 44
0.9673603504928808
  0
POINT
  5
6C
100
AcDbEntity
  8
Defpoints
370
               0
390
0
 62
               0
100
AcDbPoint
 10
-15.744449745190867
 20
62.914599210286255
 30
0.0
  0
POINT
  5
6D
100
AcDbEntity
  8
Defpoints
370
               0
390
0
 62
               0
100
AcDbPoint
 10
-14.494449745190884
 20
61.664599210286198
 30
0.0
  0
POINT
  5
6E
100
AcDbEntity
  8
Defpoints
370
               0
390
0
 62
               0
100
AcDbPoint
 10
-14.494449745190884
 20
68.408529210286204
 30
0.0
  0
ENDBLK
  5
6F
100
AcDbEntity
  8
Dimension
390
0
100
AcDbBlockEnd
  0
BLOCK
  5
70
100
AcDbEntity
  8
Dimension
390
0
100
AcDbBlockBegin
  2
*D3
 70
               1
 10
0.0
 20
0.0
 30
0.0
  3
*D3
  1

  0
LINE
  5
71
100
AcDbEntity
  8
Dimension
370
              -2
390
0
  6
Continuous
 62
               0
100
AcDbLine
 10
-14.970699746373665
 20
48.939599210286204
 30
0.0
 11
-19.877139747556445
 21
48.939599210286204
 31
0.0
  0
LINE
  5
72
100
AcDbEntity
  8
Dimension
370
              -2
390
0
  6
Continuous
 62
               0
100
AcDbLine
 10
-14.91049974637367
 20
54.019599210286202
 30
0.0
 11
-19.877139747556445
 21
54.019599210286202
 31
0.0
  0
LINE
  5
73
100
AcDbEntity
  8
Dimension
370
              -2
390
0
  6
Continuous
 62
               0
100
AcDbLine
 10
-18.924639745190884
 20
48.939599210286204
 30
0.0
 11
-18.924639745190884
 21
54.019599210286202
 31
0.0
  0
SOLID
  5
74
100
AcDbEntity
  8
Dimension
370
              -2
390
0
 62
               0
100
AcDbTrace
 10
-18.924639745190884
 20
48.939599210286204
 30
0.0
 11
-19.137324416683089
 21
49.733349210286207
 31
0.0
 12
-18.711955073698682
 22
49.733349210286207
 32
0.0
 13
-18.711955073698682
 23
49.733349210286207
 33
0.0
  0
SOLID
  5
75
100
AcDbEntity
  8
Dimension
370
              -2
390
0
 62
               0
100
AcDbTrace
 10
-18.924639745190884
 20
54.019599210286202
 30
0.0
 11
-18.711955073698682
 21
53.225849210286206
 31
0.0
 12
-19.137324416683089
 22
53.225849210286206
 32
0.0
 13
-19.137324416683089
 23
53.225849210286206
 33
0.0
  0
WIPEOUT
  5
76
100
AcDbEntity
  8
Dimension
370
              -2
390
0
  6
Continuous
 62
               0
 92
        0
100
AcDbWipeout
 90
        0
 10
-20.900193248492293
 20
18.895459694426847
 30
0.0
 11
3.9511070066028164
 21
0.0
 31
0.0
 12
0.0
 22
3.9511070066028164
 32
0.0
 13
1.0
 23
1.0
340
0
 70
               7
280
               1
281
              50
282
              50
283
               0
360
0
 71
               2
 91
        5
 14
-0.5
 24
-7.4637757082803962
 14
0.4999999999999996
 24
-7.4637757082803962
 14
0.4999999999999996
 24
-7.7375852427202609
 14
-0.5
 24
-7.7375852427202609
 14
-0.5
 24
-7.4637757082803962
  0
MTEXT
  5
77
100
AcDbEntity
  8
Dimension
390
0
 62
               0
100
AcDbMText
 10
-20.900193248492293
 20
51.270081532447662
 30
0.0
 40
0.6737068880208333
 41
0.0
 71
               1
 72
               1
  1
5.080mm
  7
Helvetica
 73
               1
 44
0.9673603504928808
  0
POINT
  5
78
100
AcDbEntity
  8
Defpoints
370
               0
390
0
 62
               0
100
AcDbPoint
 10
-14.43424974519089
 20
54.019599210286202
 30
0.0
  0
POINT
  5
79
100
AcDbEntity
  8
Defpoints
370
               0
390
0
 62
               0
100
AcDbPoint
 10
-14.494449745190884
 20
48.939599210286204
 30
0.0
  0
POINT
  5
7A
100
AcDbEntity
  8
Defpoints
370
               0
390
0
 62
               0
100
AcDbPoint
 10
-18.924639745190884
 20
48.939599210286204
 30
0.0
  0
ENDBLK
  5
7B
100
AcDbEntity
  8
Dimension
390
0
100
AcDbBlockEnd
  0
BLOCK
  5
7C
100
AcDbEntity
  8
Dimension
390
0
100
AcDbBlockBegin
  2
*D4
 70
               1
 10
0.0
 20
0.0
 30
0.0
  3
*D4
  1

  0
LINE
  5
7D
100
AcDbEntity
  8
Dimension
370
              -2
390
0
  6
Continuous
 62
               0
100
AcDbLine
 10
-15.744449745190867
 20
47.213349209103427
 30
0.0
 11
-15.744449745190867
 21
38.703489207920647
 31
0.0
  0
LINE
  5
7E
100
AcDbEntity
  8
Dimension
370
              -2
390
0
  6
Continuous
 62
               0
100
AcDbLine
 10
-0.5194497451909745
 20
47.213349209103427
 30
0.0
 11
-0.5194497451909745
 21
38.703489207920647
 31
0.0
  0
LINE
  5
7F
100
AcDbEntity
  8
Dimension
370
              -2
390
0
  6
Continuous
 62
               0
100
AcDbLine
 10
-15.744449745190867
 20
39.655989210286208
 30
0.0
 11
-0.5194497451909745
 21
39.655989210286208
 31
0.0
  0
SOLID
  5
80
100
AcDbEntity
  8
Dimension
370
              -2
390
0
 62
               0
100
AcDbTrace
 10
-15.744449745190867
 20
39.655989210286208
 30
0.0
 11
-14.950699745190867
 21
39.868673881778413
 31
0.0
 12
-14.950699745190867
 22
39.443304538794003
 32
0.0
 13
-14.950699745190867
 23
39.443304538794003
 33
0.0
  0
SOLID
  5
81
100
AcDbEntity
  8
Dimension
370
              -2
390
0
 62
               0
100
AcDbTrace
 10
-0.5194497451909745
 20
39.655989210286208
 30
0.0
 11
-1.3131997451909747
 21
39.443304538794003
 31
0.0
 12
-1.3131997451909747
 22
39.868673881778413
 32
0.0
 13
-1.3131997451909747
 23
39.868673881778413
 33
0.0
  0
WIPEOUT
  5
82
100
AcDbEntity
  8
Dimension
370
              -2
390
0
  6
Continuous
 62
               0
 92
        0
100
AcDbWipeout
 90
        0
 10
-13.200377636392366
 20
7.6662383013973345
 30
0.0
 11
4.4779213190078728
 21
0.0
 31
0.0
 12
0.0
 22
4.4779213190078728
 32
0.0
 13
1.0
 23
1.0
340
0
 70
               7
280
               1
281
              50
282
              50
283
               0
360
0
 71
               2
 91
        5
 14
-0.5
 24
-6.5268608486786732
 14
0.5
 24
-6.5268608486786732
 14
0.5
 24
-6.768457494293628
 14
-0.5
 24
-6.768457494293628
 14
-0.5
 24
-6.5268608486786732
  0
MTEXT
  5
83
100
AcDbEntity
  8
Dimension
390
0
 62
               0
100
AcDbMText
 10
-13.200377636392366
 20
40.04086013941815
 30
0.0
 40
0.6737068880208333
 41
0.0
 71
               1
 72
               1
  1
15.225mm
  7
Helvetica
 73
               1
 44
0.9673603504928808
  0
WIPEOUT
  5
84
100
AcDbEntity
  8
Dimension
370
              -2
390
0
  6
Continuous
 62
               0
 92
        0
100
AcDbWipeout
 90
        0
 10
-8.7224563173844931
 20
7.6515387569528892
 30
0.0
 11
4.468513920572069
 21
0.0
 31
0.0
 12
0.0
 22
4.468513920572069
 32
0.0
 13
1.0
 23
1.0
340
0
 70
               7
280
               1
281
              50
282
              50
283
               0
360
0
 71
               2
 91
        5
 14
-0.5
 24
-6.5416542410528455
 14
0.5
 24
-6.5416542410528455
 14
0.5
 24
-6.7837595112231783
 14
-0.5
 24
-6.7837595112231783
 14
-0.5
 24
-6.5416542410528455
  0
MTEXT
  5
85
100
AcDbEntity
  8
Dimension
390
0
 62
               0
100
AcDbMText
 10
-8.7224563173844931
 20
40.026160594973703
 30
0.0
 40
0.6737068880208333
 41
0.0
 71
               1
 72
               1
  1
±0.125mm
  7
Helvetica
 73
               1
 44
0.9673603504928808
  0
WIPEOUT
  5
86
100
AcDbEntity
  8
Dimension
370
              -2
390
0
  6
Continuous
 62
               0
 92
        0
100
AcDbWipeout
 90
        0
 10
-4.253942396812425
 20
7.632429349175113
 30
0.0
 11
1.9305763350592722
 21
0.0
 31
0.0
 12
0.0
 22
1.9305763350592722
 32
0.0
 13
1.0
 23
1.0
340
0
 70
               7
280
               1
281
              50
282
              50
283
               0
360
0
 71
               2
 91
        5
 14
-0.5
 24
-15.798619965749207
 14
0.5
 24
-15.798619965749207
 14
0.5
 24
-16.376509429098487
 14
-0.5
 24
-16.376509429098487
 14
-0.5
 24
-15.798619965749207
  0
MTEXT
  5
87
100
AcDbEntity
  8
Dimension
390
0
 62
               0
100
AcDbMText
 10
-4.253942396812425
 20
40.035454994429728
 30
0.0
 40
0.6947609230324073
 41
0.0
 71
               1
 72
               1
  1
 (x4)
  7
Helvetica
 73
               1
 44
0.9673603504928808
  0
POINT
  5
88
100
AcDbEntity
  8
Defpoints
370
               0
390
0
 62
               0
100
AcDbPoint
 10
-0.5194497451909745
 20
47.689599210286204
 30
0.0
  0
POINT
  5
89
100
AcDbEntity
  8
Defpoints
370
               0
390
0
 62
               0
100
AcDbPoint
 10
-15.744449745190867
 20
47.689599210286204
 30
0.0
  0
POINT
  5
8A
100
AcDbEntity
  8
Defpoints
370
               0
390
0
 62
               0
100
AcDbPoint
 10
-15.744449745190867
 20
39.655989210286208
 30
0.0
  0
ENDBLK
  5
8B
100
AcDbEntity
  8
Dimension
390
0
100
AcDbBlockEnd
  0
BLOCK
  5
8C
100
AcDbEntity
  8
Dimension
390
0
100
AcDbBlockBegin
  2
*D5
 70
               1
 10
0.0
 20
0.0
 30
0.0
  3
*D5
  1

  0
LINE
  5
8D
100
AcDbEntity
  8
Dimension
370
              -2
390
0
  6
Continuous
 62
               0
100
AcDbLine
 10
-14.494449745190884
 20
48.463349209103427
 30
0.0
 11
-14.494449745190884
 21
40.530229207920648
 31
0.0
  0
LINE
  5
8E
100
AcDbEntity
  8
Dimension
370
              -2
390
0
  6
Continuous
 62
               0
100
AcDbLine
 10
-1.7694497451909745
 20
48.463349209103427
 30
0.0
 11
-1.7694497451909745
 21
40.530229207920648
 31
0.0
  0
LINE
  5
8F
100
AcDbEntity
  8
Dimension
370
              -2
390
0
  6
Continuous
 62
               0
100
AcDbLine
 10
-14.494449745190884
 20
41.482729210286209
 30
0.0
 11
-1.7694497451909745
 21
41.482729210286209
 31
0.0
  0
SOLID
  5
90
100
AcDbEntity
  8
Dimension
370
              -2
390
0
 62
               0
100
AcDbTrace
 10
-14.494449745190884
 20
41.482729210286209
 30
0.0
 11
-13.700699745190885
 21
41.695413881778414
 31
0.0
 12
-13.700699745190885
 22
41.270044538794004
 32
0.0
 13
-13.700699745190885
 23
41.270044538794004
 33
0.0
  0
SOLID
  5
91
100
AcDbEntity
  8
Dimension
370
              -2
390
0
 62
               0
100
AcDbTrace
 10
-1.7694497451909745
 20
41.482729210286209
 30
0.0
 11
-2.5631997451909747
 21
41.270044538794004
 31
0.0
 12
-2.5631997451909743
 22
41.695413881778414
 32
0.0
 13
-2.5631997451909743
 23
41.695413881778414
 33
0.0
  0
WIPEOUT
  5
92
100
AcDbEntity
  8
Dimension
370
              -2
390
0
  6
Continuous
 62
               0
 92
        0
100
AcDbWipeout
 90
        0
 10
-11.07044964622073
 20
9.4760738252862247
 30
0.0
 11
6.3499932712978771
 21
0.0
 31
0.0
 12
0.0
 22
6.3499932712978771
 32
0.0
 13
1.0
 23
1.0
340
0
 70
               7
280
               1
281
              50
282
              50
283
               0
360
0
 71
               2
 91
        5
 14
-0.5
 24
-4.4552383216256057
 14
0.5000000000000002
 24
-4.4552383216256057
 14
0.5000000000000002
 24
-4.6256087021565575
 14
-0.5
 24
-4.6256087021565575
 14
-0.5
 24
-4.4552383216256057
  0
MTEXT
  5
93
100
AcDbEntity
  8
Dimension
390
0
 62
               0
100
AcDbMText
 10
-11.07044964622073
 20
41.850695663307043
 30
0.0
 40
0.6737068880208333
 41
0.0
 71
               1
 72
               1
  1
12.725mm (x4)
  7
Helvetica
 73
               1
 44
0.9673603504928808
  0
POINT
  5
94
100
AcDbEntity
  8
Defpoints
370
               0
390
0
 62
               0
100
AcDbPoint
 10
-1.7694497451909745
 20
48.939599210286204
 30
0.0
  0
POINT
  5
95
100
AcDbEntity
  8
Defpoints
370
               0
390
0
 62
               0
100
AcDbPoint
 10
-14.494449745190884
 20
48.939599210286204
 30
0.0
  0
POINT
  5
96
100
AcDbEntity
  8
Defpoints
370
               0
390
0
 62
               0
100
AcDbPoint
 10
-14.494449745190884
 20
41.482729210286209
 30
0.0
  0
ENDBLK
  5
97
100
AcDbEntity
  8
Dimension
390
0
100
AcDbBlockEnd
  0
BLOCK
  5
98
100
AcDbEntity
  8
Dimension
390
0
100
AcDbBlockBegin
  2
*D6
 70
               1
 10
0.0
 20
0.0
 30
0.0
  3
*D6
  1

  0
LINE
  5
99
100
AcDbEntity
  8
Dimension
370
              -2
390
0
  6
Continuous
 62
               0
100
AcDbLine
 10
-1.293199744008195
 20
61.664599210286198
 30
0.0
 11
6.4877102571745846
 21
61.664599210286198
 31
0.0
  0
LINE
  5
9A
100
AcDbEntity
  8
Dimension
370
              -2
390
0
  6
Continuous
 62
               0
100
AcDbLine
 10
-1.293199744008195
 20
59.124599210286206
 30
0.0
 11
6.4877102571745846
 21
59.124599210286206
 31
0.0
  0
LINE
  5
9B
100
AcDbEntity
  8
Dimension
370
              -2
390
0
  6
Continuous
 62
               0
100
AcDbLine
 10
5.5352102548090256
 20
59.124599210286206
 30
0.0
 11
5.5352102548090256
 21
61.664599210286198
 31
0.0
  0
LINE
  5
9C
100
AcDbEntity
  8
Dimension
370
              -2
390
0
  6
Continuous
 62
               0
100
AcDbLine
 10
5.5352102548090256
 20
61.664599210286198
 30
0.0
 11
5.5352102548090256
 21
63.414595708653025
 31
0.0
  0
SOLID
  5
9D
100
AcDbEntity
  8
Dimension
370
              -2
390
0
 62
               0
100
AcDbTrace
 10
5.5352102548090256
 20
61.664599210286198
 30
0.0
 11
5.3225255833168221
 21
62.458349210286201
 31
0.0
 12
5.7478949263012291
 22
62.458349210286201
 32
0.0
 13
5.7478949263012291
 23
62.458349210286201
 33
0.0
  0
LINE
  5
9E
100
AcDbEntity
  8
Dimension
370
              -2
390
0
  6
Continuous
 62
               0
100
AcDbLine
 10
5.5352102548090256
 20
59.124599210286206
 30
0.0
 11
5.5352102548090256
 21
57.374602711919394
 31
0.0
  0
SOLID
  5
9F
100
AcDbEntity
  8
Dimension
370
              -2
390
0
 62
               0
100
AcDbTrace
 10
5.5352102548090256
 20
59.124599210286206
 30
0.0
 11
5.7478949263012291
 21
58.330849210286203
 31
0.0
 12
5.3225255833168221
 22
58.330849210286203
 32
0.0
 13
5.3225255833168221
 23
58.330849210286203
 33
0.0
  0
WIPEOUT
  5
A0
100
AcDbEntity
  8
Dimension
370
              -2
390
0
  6
Continuous
 62
               0
 92
        0
100
AcDbWipeout
 90
        0
 10
3.5596567515076165
 20
28.387943825286222
 30
0.0
 11
3.9511070066028164
 21
0.0
 31
0.0
 12
0.0
 22
3.9511070066028164
 32
0.0
 13
1.0
 23
1.0
340
0
 70
               7
280
               1
281
              50
282
              50
283
               0
360
0
 71
               2
 91
        5
 14
-0.5
 24
-7.4637757082803979
 14
0.5
 24
-7.4637757082803979
 14
0.5
 24
-7.7375852427202627
 14
-0.5
 24
-7.7375852427202627
 14
-0.5
 24
-7.4637757082803979
  0
MTEXT
  5
A1
100
AcDbEntity
  8
Dimension
390
0
 62
               0
100
AcDbMText
 10
3.5596567515076165
 20
60.762565663307043
 30
0.0
 40
0.6737068880208333
 41
0.0
 71
               1
 72
               1
  1
2.540mm
  7
Helvetica
 73
               1
 44
0.9673603504928808
  0
POINT
  5
A2
100
AcDbEntity
  8
Defpoints
370
               0
390
0
 62
               0
100
AcDbPoint
 10
-1.7694497451909745
 20
59.124599210286206
 30
0.0
  0
POINT
  5
A3
100
AcDbEntity
  8
Defpoints
370
               0
390
0
 62
               0
100
AcDbPoint
 10
-1.7694497451909745
 20
61.664599210286198
 30
0.0
  0
POINT
  5
A4
100
AcDbEntity
  8
Defpoints
370
               0
390
0
 62
               0
100
AcDbPoint
 10
5.5352102548090256
 20
61.664599210286198
 30
0.0
  0
ENDBLK
  5
A5
100
AcDbEntity
  8
Dimension
390
0
100
AcDbBlockEnd
  0
BLOCK
  5
A6
100
AcDbEntity
  8
Dimension
390
0
100
AcDbBlockBegin
  2
*D7
 70
               1
 10
0.0
 20
0.0
 30
0.0
  3
*D7
  1

  0
LINE
  5
A7
100
AcDbEntity
  8
Dimension
370
              -2
390
0
  6
Continuous
 62
               0
100
AcDbLine
 10
-5.2535497451909841
 20
54.74629921028621
 30
0.0
 11
3.478048972519912
 21
50.95209435208298
 31
0.0
  0
SOLID
  5
A8
100
AcDbEntity
  8
Dimension
370
              -2
390
0
 62
               0
100
AcDbTrace
 10
-5.2535497451909841
 20
54.74629921028621
 30
0.0
 11
-4.7125929427607511
 21
54.660620069893554
 31
0.0
 12
-4.8279069821327347
 22
54.401620496916635
 32
0.0
 13
-4.8279069821327347
 23
54.401620496916635
 33
0.0
  0
LINE
  5
A9
100
AcDbEntity
  8
Dimension
370
              -2
390
0
  6
Continuous
 62
               0
100
AcDbLine
 10
3.478048972519912
 20
50.95209435208298
 30
0.0
 11
4.9780459744994117
 21
50.95209435208298
 31
0.0
  0
WIPEOUT
  5
AA
100
AcDbEntity
  8
Dimension
370
              -2
390
0
  6
Continuous
 62
               0
 92
        0
100
AcDbWipeout
 90
        0
 10
4.9780459744994117
 20
18.945438967083
 30
0.0
 11
6.2653266853756371
 21
0.0
 31
0.0
 12
0.0
 22
6.2653266853756371
 32
0.0
 13
1.0
 23
1.0
340
0
 70
               7
280
               1
281
              50
282
              50
283
               0
360
0
 71
               2
 91
        5
 14
-0.5
 24
-4.5222010088390885
 14
0.5000000000000002
 24
-4.5222010088390885
 14
0.5000000000000002
 24
-4.6948736920569045
 14
-0.5
 24
-4.6948736920569045
 14
-0.5
 24
-4.5222010088390885
  0
MTEXT
  5
AB
100
AcDbEntity
  8
Dimension
390
0
 62
               0
100
AcDbMText
 10
4.9780459744994117
 20
51.320060805103815
 30
0.0
 40
0.6737068880208333
 41
0.0
 71
               1
 72
               1
  1
Ø 0.28mm pad
  7
Helvetica
 73
               1
 44
0.9673603504928808
  0
POINT
  5
AC
100
AcDbEntity
  8
Defpoints
370
               0
390
0
 62
               0
100
AcDbPoint
 10
-5.5103497451909851
 20
54.857899210286206
 30
0.0
  0
POINT
  5
AD
100
AcDbEntity
  8
Defpoints
370
               0
390
0
 62
               0
100
AcDbPoint
 10
-5.2535497451909841
 20
54.74629921028621
 30
0.0
  0
ENDBLK
  5
AE
100
AcDbEntity
  8
Dimension
390
0
100
AcDbBlockEnd
  0
BLOCK
  5
AF
100
AcDbEntity
  8
Dimension
390
0
100
AcDbBlockBegin
  2
*D8
 70
               1
 10
0.0
 20
0.0
 30
0.0
  3
*D8
  1

  0
LINE
  5
B0
100
AcDbEntity
  8
Dimension
370
              -2
390
0
  6
Continuous
 62
               0
100
AcDbLine
 10
-14.970699746373665
 20
61.664599210286198
 30
0.0
 11
-19.877139747556445
 21
61.664599210286198
 31
0.0
  0
LINE
  5
B1
100
AcDbEntity
  8
Dimension
370
              -2
390
0
  6
Continuous
 62
               0
100
AcDbLine
 10
-10.718199746373729
 20
57.802099210286201
 30
0.0
 11
-19.877139747556445
 21
57.802099210286201
 31
0.0
  0
LINE
  5
B2
100
AcDbEntity
  8
Dimension
370
              -2
390
0
  6
Continuous
 62
               0
100
AcDbLine
 10
-18.924639745190884
 20
57.802099210286201
 30
0.0
 11
-18.924639745190884
 21
61.664599210286198
 31
0.0
  0
LINE
  5
B3
100
AcDbEntity
  8
Dimension
370
              -2
390
0
  6
Continuous
 62
               0
100
AcDbLine
 10
-18.924639745190884
 20
61.664599210286198
 30
0.0
 11
-18.924639745190884
 21
63.414595708653025
 31
0.0
  0
SOLID
  5
B4
100
AcDbEntity
  8
Dimension
370
              -2
390
0
 62
               0
100
AcDbTrace
 10
-18.924639745190884
 20
61.664599210286198
 30
0.0
 11
-19.137324416683089
 21
62.458349210286201
 31
0.0
 12
-18.711955073698682
 22
62.458349210286201
 32
0.0
 13
-18.711955073698682
 23
62.458349210286201
 33
0.0
  0
LINE
  5
B5
100
AcDbEntity
  8
Dimension
370
              -2
390
0
  6
Continuous
 62
               0
100
AcDbLine
 10
-18.924639745190884
 20
57.802099210286201
 30
0.0
 11
-18.924639745190884
 21
56.052102711919389
 31
0.0
  0
SOLID
  5
B6
100
AcDbEntity
  8
Dimension
370
              -2
390
0
 62
               0
100
AcDbTrace
 10
-18.924639745190884
 20
57.802099210286201
 30
0.0
 11
-18.711955073698682
 21
57.008349210286205
 31
0.0
 12
-19.137324416683089
 22
57.008349210286205
 32
0.0
 13
-19.137324416683089
 23
57.008349210286205
 33
0.0
  0
WIPEOUT
  5
B7
100
AcDbEntity
  8
Dimension
370
              -2
390
0
  6
Continuous
 62
               0
 92
        0
100
AcDbWipeout
 90
        0
 10
-21.163600404694822
 20
27.726693825286219
 30
0.0
 11
4.4779213190078728
 21
0.0
 31
0.0
 12
0.0
 22
4.4779213190078728
 32
0.0
 13
1.0
 23
1.0
340
0
 70
               7
280
               1
281
              50
282
              50
283
               0
360
0
 71
               2
 91
        5
 14
-0.5
 24
-6.5268608486786723
 14
0.5
 24
-6.5268608486786723
 14
0.5
 24
-6.768457494293628
 14
-0.5
 24
-6.768457494293628
 14
-0.5
 24
-6.5268608486786723
  0
MTEXT
  5
B8
100
AcDbEntity
  8
Dimension
390
0
 62
               0
100
AcDbMText
 10
-21.163600404694822
 20
60.101315663307034
 30
0.0
 40
0.6737068880208333
 41
0.0
 71
               1
 72
               1
  1
3.8625mm
  7
Helvetica
 73
               1
 44
0.9673603504928808
  0
POINT
  5
B9
100
AcDbEntity
  8
Defpoints
370
               0
390
0
 62
               0
100
AcDbPoint
 10
-10.241949745190951
 20
57.802099210286201
 30
0.0
  0
POINT
  5
BA
100
AcDbEntity
  8
Defpoints
370
               0
390
0
 62
               0
100
AcDbPoint
 10
-14.494449745190884
 20
61.664599210286198
 30
0.0
  0
POINT
  5
BB
100
AcDbEntity
  8
Defpoints
370
               0
390
0
 62
               0
100
AcDbPoint
 10
-18.924639745190884
 20
61.664599210286198
 30
0.0
  0
ENDBLK
  5
BC
100
AcDbEntity
  8
Dimension
390
0
100
AcDbBlockEnd
  0
BLOCK
  5
BD
100
AcDbEntity
  8
Dimension
390
0
100
AcDbBlockBegin
  2
*D9
 70
               1
 10
0.0
 20
0.0
 30
0.0
  3
*D9
  1

  0
LINE
  5
BE
100
AcDbEntity
  8
Dimension
370
              -2
390
0
  6
Continuous
 62
               0
100
AcDbLine
 10
-10.381949745190948
 20
52.325849209103424
 30
0.0
 11
-10.381949745190948
 21
42.609599207920652
 31
0.0
  0
LINE
  5
BF
100
AcDbEntity
  8
Dimension
370
              -2
390
0
  6
Continuous
 62
               0
100
AcDbLine
 10
-5.3819497451909841
 20
52.325849209103424
 30
0.0
 11
-5.3819497451909841
 21
42.609599207920645
 31
0.0
  0
LINE
  5
C0
100
AcDbEntity
  8
Dimension
370
              -2
390
0
  6
Continuous
 62
               0
100
AcDbLine
 10
-5.3819497451909841
 20
43.562099210286206
 30
0.0
 11
-10.381949745190948
 21
43.562099210286206
 31
0.0
  0
LINE
  5
C1
100
AcDbEntity
  8
Dimension
370
              -2
390
0
  6
Continuous
 62
               0
100
AcDbLine
 10
-10.381949745190948
 20
43.562099210286206
 30
0.0
 11
-12.131946243557767
 21
43.562099210286206
 31
0.0
  0
SOLID
  5
C2
100
AcDbEntity
  8
Dimension
370
              -2
390
0
 62
               0
100
AcDbTrace
 10
-10.381949745190948
 20
43.562099210286206
 30
0.0
 11
-11.175699745190949
 21
43.349414538794001
 31
0.0
 12
-11.175699745190949
 22
43.774783881778411
 32
0.0
 13
-11.175699745190949
 23
43.774783881778411
 33
0.0
  0
LINE
  5
C3
100
AcDbEntity
  8
Dimension
370
              -2
390
0
  6
Continuous
 62
               0
100
AcDbLine
 10
-5.3819497451909841
 20
43.562099210286206
 30
0.0
 11
-3.6319532468241662
 21
43.562099210286206
 31
0.0
  0
SOLID
  5
C4
100
AcDbEntity
  8
Dimension
370
              -2
390
0
 62
               0
100
AcDbTrace
 10
-5.3819497451909841
 20
43.562099210286206
 30
0.0
 11
-4.5881997451909839
 21
43.774783881778411
 31
0.0
 12
-4.5881997451909839
 22
43.349414538794001
 32
0.0
 13
-4.5881997451909839
 23
43.349414538794001
 33
0.0
  0
WIPEOUT
  5
C5
100
AcDbEntity
  8
Dimension
370
              -2
390
0
  6
Continuous
 62
               0
 92
        0
100
AcDbWipeout
 90
        0
 10
-9.5940960922898455
 20
11.555443825286222
 30
0.0
 11
3.4242926941977601
 21
0.0
 31
0.0
 12
0.0
 22
3.4242926941977601
 32
0.0
 13
1.0
 23
1.0
340
0
 70
               7
280
               1
281
              50
282
              50
283
               0
360
0
 71
               2
 91
        5
 14
-0.5
 24
-8.6889720914677078
 14
0.4999999999999998
 24
-8.6889720914677078
 14
0.4999999999999998
 24
-9.0049061738062655
 14
-0.5
 24
-9.0049061738062655
 14
-0.5
 24
-8.6889720914677078
  0
MTEXT
  5
C6
100
AcDbEntity
  8
Dimension
390
0
 62
               0
100
AcDbMText
 10
-9.5940960922898455
 20
43.930065663307033
 30
0.0
 40
0.6737068880208333
 41
0.0
 71
               1
 72
               1
  1
5.00mm
  7
Helvetica
 73
               1
 44
0.9673603504928808
  0
POINT
  5
C7
100
AcDbEntity
  8
Defpoints
370
               0
390
0
 62
               0
100
AcDbPoint
 10
-5.3819497451909841
 20
52.802099210286201
 30
0.0
  0
POINT
  5
C8
100
AcDbEntity
  8
Defpoints
370
               0
390
0
 62
               0
100
AcDbPoint
 10
-10.381949745190948
 20
52.802099210286201
 30
0.0
  0
POINT
  5
C9
100
AcDbEntity
  8
Defpoints
370
               0
390
0
 62
               0
100
AcDbPoint
 10
-10.381949745190948
 20
43.562099210286206
 30
0.0
  0
ENDBLK
  5
CA
100
AcDbEntity
  8
Dimension
390
0
100
AcDbBlockEnd
  0
BLOCK
  5
CB
100
AcDbEntity
  8
Dimension
390
0
100
AcDbBlockBegin
  2
*D10
 70
               1
 10
0.0
 20
0.0
 30
0.0
  3
*D10
  1

  0
LINE
  5
CC
100
AcDbEntity
  8
Dimension
370
              -2
390
0
  6
Continuous
 62
               0
100
AcDbLine
 10
-10.381949745190948
 20
58.278349211468978
 30
0.0
 11
-10.381949745190948
 21
68.071719212651757
 31
0.0
  0
LINE
  5
CD
100
AcDbEntity
  8
Dimension
370
              -2
390
0
  6
Continuous
 62
               0
100
AcDbLine
 10
-14.494449745190884
 20
62.140849211468975
 30
0.0
 11
-14.494449745190884
 21
68.071719212651757
 31
0.0
  0
LINE
  5
CE
100
AcDbEntity
  8
Dimension
370
              -2
390
0
  6
Continuous
 62
               0
100
AcDbLine
 10
-14.494449745190884
 20
67.119219210286204
 30
0.0
 11
-10.381949745190948
 21
67.119219210286204
 31
0.0
  0
LINE
  5
CF
100
AcDbEntity
  8
Dimension
370
              -2
390
0
  6
Continuous
 62
               0
100
AcDbLine
 10
-10.381949745190948
 20
67.119219210286204
 30
0.0
 11
-8.198779745190949
 21
67.119219210286204
 31
0.0
  0
SOLID
  5
D0
100
AcDbEntity
  8
Dimension
370
              -2
390
0
 62
               0
100
AcDbTrace
 10
-10.381949745190948
 20
67.119219210286204
 30
0.0
 11
-9.5881997451909484
 21
67.331903881778402
 31
0.0
 12
-9.5881997451909484
 22
66.906534538793991
 32
0.0
 13
-9.5881997451909484
 23
66.906534538793991
 33
0.0
  0
LINE
  5
D1
100
AcDbEntity
  8
Dimension
370
              -2
390
0
  6
Continuous
 62
               0
100
AcDbLine
 10
-14.494449745190884
 20
67.119219210286204
 30
0.0
 11
-16.244446243557704
 21
67.119219210286204
 31
0.0
  0
SOLID
  5
D2
100
AcDbEntity
  8
Dimension
370
              -2
390
0
 62
               0
100
AcDbTrace
 10
-14.494449745190884
 20
67.119219210286204
 30
0.0
 11
-15.288199745190884
 21
66.906534538793991
 31
0.0
 12
-15.288199745190884
 22
67.331903881778402
 32
0.0
 13
-15.288199745190884
 23
67.331903881778402
 33
0.0
  0
WIPEOUT
  5
D3
100
AcDbEntity
  8
Dimension
370
              -2
390
0
  6
Continuous
 62
               0
 92
        0
100
AcDbWipeout
 90
        0
 10
-8.198779745190949
 20
35.112563825286216
 30
0.0
 11
4.8448098580042522
 21
0.0
 31
0.0
 12
0.0
 22
4.8448098580042522
 32
0.0
 13
1.0
 23
1.0
340
0
 70
               7
280
               1
281
              50
282
              50
283
               0
360
0
 71
               2
 91
        5
 14
-0.5
 24
-5.9947296018262772
 14
0.5
 24
-5.9947296018262772
 14
0.5
 24
-6.2180305778620335
 14
-0.5
 24
-6.2180305778620335
 14
-0.5
 24
-5.9947296018262772
  0
MTEXT
  5
D4
100
AcDbEntity
  8
Dimension
390
0
 62
               0
100
AcDbMText
 10
-8.198779745190949
 20
67.487185663307031
 30
0.0
 40
0.6737068880208333
 41
0.0
 71
               1
 72
               1
  1
*4.1125mm
  7
Helvetica
 73
               1
 44
0.9673603504928808
  0
POINT
  5
D5
100
AcDbEntity
  8
Defpoints
370
               0
390
0
 62
               0
100
AcDbPoint
 10
-14.494449745190884
 20
61.664599210286198
 30
0.0
  0
POINT
  5
D6
100
AcDbEntity
  8
Defpoints
370
               0
390
0
 62
               0
100
AcDbPoint
 10
-10.381949745190948
 20
57.802099210286201
 30
0.0
  0
POINT
  5
D7
100
AcDbEntity
  8
Defpoints
370
               0
390
0
 62
               0
100
AcDbPoint
 10
-10.381949745190948
 20
67.119219210286204
 30
0.0
  0
ENDBLK
  5
D8
100
AcDbEntity
  8
Dimension
390
0
100
AcDbBlockEnd
  0
BLOCK
  5
D9
100
AcDbEntity
  8
Dimension
390
0
100
AcDbBlockBegin
  2
*D11
 70
               1
 10
0.0
 20
0.0
 30
0.0
  3
*D11
  1

  0
LINE
  5
DA
100
AcDbEntity
  8
Dimension
370
              -2
390
0
  6
Continuous
 62
               0
100
AcDbLine
 10
-6.8819497451909823
 20
58.278349211468978
 30
0.0
 11
-6.8819497451909823
 21
66.143139212651761
 31
0.0
  0
LINE
  5
DB
100
AcDbEntity
  8
Dimension
370
              -2
390
0
  6
Continuous
 62
               0
100
AcDbLine
 10
-6.3819497451909841
 20
58.278349211468978
 30
0.0
 11
-6.3819497451909841
 21
66.143139212651761
 31
0.0
  0
LINE
  5
DC
100
AcDbEntity
  8
Dimension
370
              -2
390
0
  6
Continuous
 62
               0
100
AcDbLine
 10
-6.3819497451909841
 20
65.190639210286207
 30
0.0
 11
-6.8819497451909823
 21
65.190639210286207
 31
0.0
  0
LINE
  5
DD
100
AcDbEntity
  8
Dimension
370
              -2
390
0
  6
Continuous
 62
               0
100
AcDbLine
 10
-6.8819497451909823
 20
65.190639210286207
 30
0.0
 11
-8.6319462435577989
 21
65.190639210286207
 31
0.0
  0
SOLID
  5
DE
100
AcDbEntity
  8
Dimension
370
              -2
390
0
 62
               0
100
AcDbTrace
 10
-6.8819497451909823
 20
65.190639210286207
 30
0.0
 11
-7.6756997451909825
 21
64.977954538793995
 31
0.0
 12
-7.6756997451909825
 22
65.403323881778405
 32
0.0
 13
-7.6756997451909825
 23
65.403323881778405
 33
0.0
  0
LINE
  5
DF
100
AcDbEntity
  8
Dimension
370
              -2
390
0
  6
Continuous
 62
               0
100
AcDbLine
 10
-6.3819497451909841
 20
65.190639210286207
 30
0.0
 11
-4.5907897451909845
 21
65.190639210286207
 31
0.0
  0
SOLID
  5
E0
100
AcDbEntity
  8
Dimension
370
              -2
390
0
 62
               0
100
AcDbTrace
 10
-6.3819497451909841
 20
65.190639210286207
 30
0.0
 11
-5.5881997451909839
 21
65.403323881778405
 31
0.0
 12
-5.5881997451909839
 22
64.977954538793995
 32
0.0
 13
-5.5881997451909839
 23
64.977954538793995
 33
0.0
  0
WIPEOUT
  5
E1
100
AcDbEntity
  8
Dimension
370
              -2
390
0
  6
Continuous
 62
               0
 92
        0
100
AcDbWipeout
 90
        0
 10
-4.5907897451909845
 20
33.183983825286219
 30
0.0
 11
5.2022909985648251
 21
0.0
 31
0.0
 12
0.0
 22
5.2022909985648251
 32
0.0
 13
1.0
 23
1.0
340
0
 70
               7
280
               1
281
              50
282
              50
283
               0
360
0
 71
               2
 91
        5
 14
-0.5
 24
-5.5484371229292142
 14
0.5
 24
-5.5484371229292142
 14
0.5
 24
-5.7563937271058077
 14
-0.5
 24
-5.7563937271058077
 14
-0.5
 24
-5.5484371229292142
  0
MTEXT
  5
E2
100
AcDbEntity
  8
Dimension
390
0
 62
               0
100
AcDbMText
 10
-4.5907897451909845
 20
65.558605663307034
 30
0.0
 40
0.6737068880208333
 41
0.0
 71
               1
 72
               1
  1
0.50mm typ.
  7
Helvetica
 73
               1
 44
0.9673603504928808
  0
POINT
  5
E3
100
AcDbEntity
  8
Defpoints
370
               0
390
0
 62
               0
100
AcDbPoint
 10
-6.3819497451909841
 20
57.802099210286201
 30
0.0
  0
POINT
  5
E4
100
AcDbEntity
  8
Defpoints
370
               0
390
0
 62
               0
100
AcDbPoint
 10
-6.8819497451909823
 20
57.802099210286201
 30
0.0
  0
POINT
  5
E5
100
AcDbEntity
  8
Defpoints
370
               0
390
0
 62
               0
100
AcDbPoint
 10
-6.8819497451909823
 20
65.190639210286207
 30
0.0
  0
ENDBLK
  5
E6
100
AcDbEntity
  8
Dimension
390
0
100
AcDbBlockEnd
  0
BLOCK
  5
E7
100
AcDbEntity
  8
Dimension
390
0
100
AcDbBlockBegin
  2
*D12
 70
               1
 10
0.0
 20
0.0
 30
0.0
  3
*D12
  1

  0
LINE
  5
E8
100
AcDbEntity
  8
Dimension
370
              -2
390
0
  6
Continuous
 62
               0
100
AcDbLine
 10
-1.3898997451909745
 20
58.933369210286202
 30
0.0
 11
3.1180527644083904
 21
56.662099023394241
 31
0.0
  0
SOLID
  5
E9
100
AcDbEntity
  8
Dimension
370
              -2
390
0
 62
               0
100
AcDbTrace
 10
-1.3898997451909745
 20
58.933369210286202
 30
0.0
 11
-0.854168405000272
 21
58.819495998636398
 31
0.0
 12
-0.9828794008072475
 22
58.566886446091601
 32
0.0
 13
-0.9828794008072475
 23
58.566886446091601
 33
0.0
  0
LINE
  5
EA
100
AcDbEntity
  8
Dimension
370
              -2
390
0
  6
Continuous
 62
               0
100
AcDbLine
 10
3.1180527644083904
 20
56.662099023394241
 30
0.0
 11
4.6180497663878901
 21
56.662099023394241
 31
0.0
  0
WIPEOUT
  5
EB
100
AcDbEntity
  8
Dimension
370
              -2
390
0
  6
Continuous
 62
               0
 92
        0
100
AcDbWipeout
 90
        0
 10
4.6180497663878901
 20
24.672348114505368
 30
0.0
 11
4.9482912407981026
 21
0.0
 31
0.0
 12
0.0
 22
4.9482912407981026
 32
0.0
 13
1.0
 23
1.0
340
0
 70
               7
280
               1
281
              50
282
              50
283
               0
360
0
 71
               2
 91
        5
 14
-0.5
 24
-5.8589082511087032
 14
0.5000000000000002
 24
-5.8589082511087032
 14
0.5000000000000002
 24
-6.077539434552448
 14
-0.5
 24
-6.077539434552448
 14
-0.5
 24
-5.8589082511087032
  0
MTEXT
  5
EC
100
AcDbEntity
  8
Dimension
390
0
 62
               0
100
AcDbMText
 10
4.6180497663878901
 20
57.046969952526183
 30
0.0
 40
0.6737068880208333
 41
0.0
 71
               1
 72
               1
  1
Ø 0.850mm
  7
Helvetica
 73
               1
 44
0.9673603504928808
  0
WIPEOUT
  5
ED
100
AcDbEntity
  8
Dimension
370
              -2
390
0
  6
Continuous
 62
               0
 92
        0
100
AcDbWipeout
 90
        0
 10
9.5663410071859936
 20
24.657648570060925
 30
0.0
 11
4.4685139205720681
 21
0.0
 31
0.0
 12
0.0
 22
4.4685139205720681
 32
0.0
 13
1.0
 23
1.0
340
0
 70
               7
280
               1
281
              50
282
              50
283
               0
360
0
 71
               2
 91
        5
 14
-0.5
 24
-6.5416542410528455
 14
0.5
 24
-6.5416542410528455
 14
0.5
 24
-6.7837595112231801
 14
-0.5
 24
-6.7837595112231801
 14
-0.5
 24
-6.5416542410528455
  0
MTEXT
  5
EE
100
AcDbEntity
  8
Dimension
390
0
 62
               0
100
AcDbMText
 10
9.5663410071859936
 20
57.032270408081743
 30
0.0
 40
0.6737068880208333
 41
0.0
 71
               1
 72
               1
  1
±0.025mm
  7
Helvetica
 73
               1
 44
0.9673603504928808
  0
WIPEOUT
  5
EF
100
AcDbEntity
  8
Dimension
370
              -2
390
0
  6
Continuous
 62
               0
 92
        0
100
AcDbWipeout
 90
        0
 10
14.034854927758062
 20
24.638539162283145
 30
0.0
 11
1.9305763350592713
 21
0.0
 31
0.0
 12
0.0
 22
1.9305763350592713
 32
0.0
 13
1.0
 23
1.0
340
0
 70
               7
280
               1
281
              50
282
              50
283
               0
360
0
 71
               2
 91
        5
 14
-0.5
 24
-15.798619965749214
 14
0.5
 24
-15.798619965749214
 14
0.5
 24
-16.376509429098494
 14
-0.5
 24
-16.376509429098494
 14
-0.5
 24
-15.798619965749214
  0
MTEXT
  5
F0
100
AcDbEntity
  8
Dimension
390
0
 62
               0
100
AcDbMText
 10
14.034854927758062
 20
57.041564807537753
 30
0.0
 40
0.6947609230324073
 41
0.0
 71
               1
 72
               1
  1
 (x2)
  7
Helvetica
 73
               1
 44
0.9673603504928808
  0
POINT
  5
F1
100
AcDbEntity
  8
Defpoints
370
               0
390
0
 62
               0
100
AcDbPoint
 10
-2.1489997451909755
 20
59.315829210286211
 30
0.0
  0
POINT
  5
F2
100
AcDbEntity
  8
Defpoints
370
               0
390
0
 62
               0
100
AcDbPoint
 10
-1.3898997451909745
 20
58.933369210286202
 30
0.0
  0
ENDBLK
  5
F3
100
AcDbEntity
  8
Dimension
390
0
100
AcDbBlockEnd
  0
BLOCK
  5
F4
100
AcDbEntity
  8
Dimension
390
0
100
AcDbBlockBegin
  2
*D13
 70
               1
 10
0.0
 20
0.0
 30
0.0
  3
*D13
  1

  0
LINE
  5
F5
100
AcDbEntity
  8
Dimension
370
              -2
390
0
  6
Continuous
 62
               0
100
AcDbLine
 10
-1.1625156049867824
 20
48.601409210286207
 30
0.0
 11
2.59447907729525
 21
46.862098583315444
 31
0.0
  0
SOLID
  5
F6
100
AcDbEntity
  8
Dimension
370
              -2
390
0
 62
               0
100
AcDbTrace
 10
-1.1625156049867824
 20
48.601409210286207
 30
0.0
 11
-0.6231365000790721
 21
48.506302121260603
 31
0.0
 12
-0.7429531423789992
 22
48.249354502656189
 32
0.0
 13
-0.7429531423789992
 23
48.249354502656189
 33
0.0
  0
LINE
  5
F7
100
AcDbEntity
  8
Dimension
370
              -2
390
0
  6
Continuous
 62
               0
100
AcDbLine
 10
2.59447907729525
 20
46.862098583315444
 30
0.0
 11
4.0944760792747497
 21
46.862098583315444
 31
0.0
  0
WIPEOUT
  5
F8
100
AcDbEntity
  8
Dimension
370
              -2
390
0
  6
Continuous
 62
               0
 92
        0
100
AcDbWipeout
 90
        0
 10
4.0944760792747497
 20
14.872347674426567
 30
0.0
 11
4.4214769283930462
 21
0.0
 31
0.0
 12
0.0
 22
4.4214769283930462
 32
0.0
 13
1.0
 23
1.0
340
0
 70
               7
280
               1
281
              50
282
              50
283
               0
360
0
 71
               2
 91
        5
 14
-0.5
 24
-6.6165654620832717
 14
0.5000000000000002
 24
-6.6165654620832717
 14
0.5000000000000002
 24
-6.8612463204301202
 14
-0.5
 24
-6.8612463204301202
 14
-0.5
 24
-6.6165654620832717
  0
MTEXT
  5
F9
100
AcDbEntity
  8
Dimension
390
0
 62
               0
100
AcDbMText
 10
4.0944760792747497
 20
47.246969512447379
 30
0.0
 40
0.6737068880208333
 41
0.0
 71
               1
 72
               1
  1
Ø 1.61mm
  7
Helvetica
 73
               1
 44
0.9673603504928808
  0
WIPEOUT
  5
FA
100
AcDbEntity
  8
Dimension
370
              -2
390
0
  6
Continuous
 62
               0
 92
        0
100
AcDbWipeout
 90
        0
 10
8.5159530076677967
 20
14.857648129982124
 30
0.0
 11
3.9416996081670135
 21
0.0
 31
0.0
 12
0.0
 22
3.9416996081670135
 32
0.0
 13
1.0
 23
1.0
340
0
 70
               7
280
               1
281
              50
282
              50
283
               0
360
0
 71
               2
 91
        5
 14
-0.5
 24
-7.4827823345047628
 14
0.5
 24
-7.4827823345047628
 14
0.5
 24
-7.7572453523761542
 14
-0.5
 24
-7.7572453523761542
 14
-0.5
 24
-7.4827823345047628
  0
MTEXT
  5
FB
100
AcDbEntity
  8
Dimension
390
0
 62
               0
100
AcDbMText
 10
8.5159530076677967
 20
47.232269968002939
 30
0.0
 40
0.6737068880208333
 41
0.0
 71
               1
 72
               1
  1
±0.05mm
  7
Helvetica
 73
               1
 44
0.9673603504928808
  0
WIPEOUT
  5
FC
100
AcDbEntity
  8
Dimension
370
              -2
390
0
  6
Continuous
 62
               0
 92
        0
100
AcDbWipeout
 90
        0
 10
12.45765261583481
 20
14.838538722204344
 30
0.0
 11
1.9305763350592713
 21
0.0
 31
0.0
 12
0.0
 22
1.9305763350592713
 32
0.0
 13
1.0
 23
1.0
340
0
 70
               7
280
               1
281
              50
282
              50
283
               0
360
0
 71
               2
 91
        5
 14
-0.5
 24
-15.798619965749214
 14
0.5
 24
-15.798619965749214
 14
0.5
 24
-16.376509429098491
 14
-0.5
 24
-16.376509429098491
 14
-0.5
 24
-15.798619965749214
  0
MTEXT
  5
FD
100
AcDbEntity
  8
Dimension
390
0
 62
               0
100
AcDbMText
 10
12.45765261583481
 20
47.241564367458956
 30
0.0
 40
0.6947609230324073
 41
0.0
 71
               1
 72
               1
  1
 (x4)
  7
Helvetica
 73
               1
 44
0.9673603504928808
  0
POINT
  5
FE
100
AcDbEntity
  8
Defpoints
370
               0
390
0
 62
               0
100
AcDbPoint
 10
-2.623535604986782
 20
49.277789210286201
 30
0.0
  0
POINT
  5
FF
100
AcDbEntity
  8
Defpoints
370
               0
390
0
 62
               0
100
AcDbPoint
 10
-1.1625156049867824
 20
48.601409210286207
 30
0.0
  0
ENDBLK
  5
100
100
AcDbEntity
  8
Dimension
390
0
100
AcDbBlockEnd
  0
BLOCK
  5
101
100
AcDbEntity
  8
Dimension
390
0
100
AcDbBlockBegin
  2
*D14
 70
               1
 10
0.0
 20
0.0
 30
0.0
  3
*D14
  1

  0
LINE
  5
102
100
AcDbEntity
  8
Dimension
370
              -2
390
0
  6
Continuous
 62
               0
100
AcDbLine
 10
-10.858199746373728
 20
57.802099210286201
 30
0.0
 11
-22.809079747556506
 21
57.802099210286201
 31
0.0
  0
LINE
  5
103
100
AcDbEntity
  8
Dimension
370
              -2
390
0
  6
Continuous
 62
               0
100
AcDbLine
 10
-10.858199746373728
 20
52.802099210286201
 30
0.0
 11
-22.80907974755651
 21
52.802099210286201
 31
0.0
  0
LINE
  5
104
100
AcDbEntity
  8
Dimension
370
              -2
390
0
  6
Continuous
 62
               0
100
AcDbLine
 10
-21.856579745190949
 20
57.802099210286201
 30
0.0
 11
-21.856579745190949
 21
52.802099210286201
 31
0.0
  0
SOLID
  5
105
100
AcDbEntity
  8
Dimension
370
              -2
390
0
 62
               0
100
AcDbTrace
 10
-21.856579745190949
 20
57.802099210286201
 30
0.0
 11
-21.643895073698747
 21
57.008349210286205
 31
0.0
 12
-22.069264416683154
 22
57.008349210286205
 32
0.0
 13
-22.069264416683154
 23
57.008349210286205
 33
0.0
  0
SOLID
  5
106
100
AcDbEntity
  8
Dimension
370
              -2
390
0
 62
               0
100
AcDbTrace
 10
-21.856579745190949
 20
52.802099210286201
 30
0.0
 11
-22.069264416683154
 21
53.595849210286204
 31
0.0
 12
-21.643895073698744
 22
53.595849210286204
 32
0.0
 13
-21.643895073698744
 23
53.595849210286204
 33
0.0
  0
WIPEOUT
  5
107
100
AcDbEntity
  8
Dimension
370
              -2
390
0
  6
Continuous
 62
               0
 92
        0
100
AcDbWipeout
 90
        0
 10
-23.568726092289829
 20
23.098986916106533
 30
0.0
 11
3.4242926941977601
 21
0.0
 31
0.0
 12
0.0
 22
3.4242926941977601
 32
0.0
 13
1.0
 23
1.0
340
0
 70
               7
280
               1
281
              50
282
              50
283
               0
360
0
 71
               2
 91
        5
 14
-0.5
 24
-8.6889720914677095
 14
0.5
 24
-8.6889720914677095
 14
0.5
 24
-9.0049061738062655
 14
-0.5
 24
-9.0049061738062655
 14
-0.5
 24
-8.6889720914677095
  0
MTEXT
  5
108
100
AcDbEntity
  8
Dimension
390
0
 62
               0
100
AcDbMText
 10
-23.568726092289829
 20
55.473608754127348
 30
0.0
 40
0.6737068880208333
 41
0.0
 71
               1
 72
               1
  1
5.00mm
  7
Helvetica
 73
               1
 44
0.9673603504928808
  0
POINT
  5
109
100
AcDbEntity
  8
Defpoints
370
               0
390
0
 62
               0
100
AcDbPoint
 10
-10.381949745190948
 20
52.802099210286201
 30
0.0
  0
POINT
  5
10A
100
AcDbEntity
  8
Defpoints
370
               0
390
0
 62
               0
100
AcDbPoint
 10
-10.381949745190948
 20
57.802099210286201
 30
0.0
  0
POINT
  5
10B
100
AcDbEntity
  8
Defpoints
370
               0
390
0
 62
               0
100
AcDbPoint
 10
-21.856579745190949
 20
57.802099210286201
 30
0.0
  0
ENDBLK
  5
10C
100
AcDbEntity
  8
Dimension
390
0
100
AcDbBlockEnd
  0
BLOCK
  5
10D
100
AcDbEntity
  8
Dimension
390
0
100
AcDbBlockBegin
  2
*D15
 70
               1
 10
0.0
 20
0.0
 30
0.0
  3
*D15
  1

  0
LINE
  5
10E
100
AcDbEntity
  8
Dimension
370
              -2
390
0
  6
Continuous
 62
               0
100
AcDbLine
 10
-16.994449745190849
 20
45.963349209103427
 30
0.0
 11
-16.994449745190849
 21
36.787339207920652
 31
0.0
  0
LINE
  5
10F
100
AcDbEntity
  8
Dimension
370
              -2
390
0
  6
Continuous
 62
               0
100
AcDbLine
 10
0.7305502548090255
 20
45.963349209103427
 30
0.0
 11
0.7305502548090255
 21
36.787339207920652
 31
0.0
  0
LINE
  5
110
100
AcDbEntity
  8
Dimension
370
              -2
390
0
  6
Continuous
 62
               0
100
AcDbLine
 10
-16.994449745190849
 20
37.739839210286206
 30
0.0
 11
0.7305502548090255
 21
37.739839210286206
 31
0.0
  0
SOLID
  5
111
100
AcDbEntity
  8
Dimension
370
              -2
390
0
 62
               0
100
AcDbTrace
 10
-16.994449745190849
 20
37.739839210286206
 30
0.0
 11
-16.20069974519085
 21
37.952523881778411
 31
0.0
 12
-16.20069974519085
 22
37.527154538794008
 32
0.0
 13
-16.20069974519085
 23
37.527154538794008
 33
0.0
  0
SOLID
  5
112
100
AcDbEntity
  8
Dimension
370
              -2
390
0
 62
               0
100
AcDbTrace
 10
0.7305502548090255
 20
37.739839210286206
 30
0.0
 11
-0.0631997451909747
 21
37.527154538794008
 31
0.0
 12
-0.0631997451909747
 22
37.952523881778411
 32
0.0
 13
-0.0631997451909747
 23
37.952523881778411
 33
0.0
  0
WIPEOUT
  5
113
100
AcDbEntity
  8
Dimension
370
              -2
390
0
  6
Continuous
 62
               0
 92
        0
100
AcDbWipeout
 90
        0
 10
-11.020020728547811
 20
5.7331838252862246
 30
0.0
 11
5.7761419667137979
 21
0.0
 31
0.0
 12
0.0
 22
5.7761419667137979
 32
0.0
 13
1.0
 23
1.0
340
0
 70
               7
280
               1
281
              50
282
              50
283
               0
360
0
 71
               2
 91
        5
 14
-0.5
 24
-4.947534042848619
 14
0.5
 24
-4.947534042848619
 14
0.5
 24
-5.1348304729284857
 14
-0.5
 24
-5.1348304729284857
 14
-0.5
 24
-4.947534042848619
  0
MTEXT
  5
114
100
AcDbEntity
  8
Dimension
390
0
 62
               0
100
AcDbMText
 10
-11.020020728547811
 20
38.10780566330704
 30
0.0
 40
0.6737068880208333
 41
0.0
 71
               1
 72
               1
  1
17.73mm sqr.
  7
Helvetica
 73
               1
 44
0.9673603504928808
  0
POINT
  5
115
100
AcDbEntity
  8
Defpoints
370
               0
390
0
 62
               0
100
AcDbPoint
 10
0.7305502548090255
 20
46.439599210286204
 30
0.0
  0
POINT
  5
116
100
AcDbEntity
  8
Defpoints
370
               0
390
0
 62
               0
100
AcDbPoint
 10
-16.994449745190849
 20
46.439599210286204
 30
0.0
  0
POINT
  5
117
100
AcDbEntity
  8
Defpoints
370
               0
390
0
 62
               0
100
AcDbPoint
 10
-16.994449745190849
 20
37.739839210286206
 30
0.0
  0
ENDBLK
  5
118
100
AcDbEntity
  8
Dimension
390
0
100
AcDbBlockEnd
  0
BLOCK
  5
119
100
AcDbEntity
  8
Dimension
390
0
100
AcDbBlockBegin
  2
*D16
 70
               1
 10
0.0
 20
0.0
 30
0.0
  3
*D16
  1

  0
LINE
  5
11A
100
AcDbEntity
  8
Dimension
370
              -2
390
0
  6
Continuous
 62
               0
100
AcDbLine
 10
-16.220699746373647
 20
62.914599210286255
 30
0.0
 11
-22.809079747556424
 21
62.914599210286255
 31
0.0
  0
LINE
  5
11B
100
AcDbEntity
  8
Dimension
370
              -2
390
0
  6
Continuous
 62
               0
100
AcDbLine
 10
-14.970699746373665
 20
61.664599210286198
 30
0.0
 11
-22.809079747556428
 21
61.664599210286198
 31
0.0
  0
LINE
  5
11C
100
AcDbEntity
  8
Dimension
370
              -2
390
0
  6
Continuous
 62
               0
100
AcDbLine
 10
-21.856579745190867
 20
61.664599210286198
 30
0.0
 11
-21.856579745190867
 21
62.914599210286255
 31
0.0
  0
LINE
  5
11D
100
AcDbEntity
  8
Dimension
370
              -2
390
0
  6
Continuous
 62
               0
100
AcDbLine
 10
-21.856579745190867
 20
62.914599210286255
 30
0.0
 11
-21.856579745190867
 21
65.352099210286255
 31
0.0
  0
SOLID
  5
11E
100
AcDbEntity
  8
Dimension
370
              -2
390
0
 62
               0
100
AcDbTrace
 10
-21.856579745190867
 20
62.914599210286255
 30
0.0
 11
-22.069264416683072
 21
63.708349210286258
 31
0.0
 12
-21.643895073698662
 22
63.708349210286258
 32
0.0
 13
-21.643895073698662
 23
63.708349210286258
 33
0.0
  0
LINE
  5
11F
100
AcDbEntity
  8
Dimension
370
              -2
390
0
  6
Continuous
 62
               0
100
AcDbLine
 10
-21.856579745190867
 20
61.664599210286198
 30
0.0
 11
-21.856579745190867
 21
59.914602711919386
 31
0.0
  0
SOLID
  5
120
100
AcDbEntity
  8
Dimension
370
              -2
390
0
 62
               0
100
AcDbTrace
 10
-21.856579745190867
 20
61.664599210286198
 30
0.0
 11
-21.643895073698665
 21
60.870849210286195
 31
0.0
 12
-22.069264416683072
 22
60.870849210286195
 32
0.0
 13
-22.069264416683072
 23
60.870849210286195
 33
0.0
  0
WIPEOUT
  5
121
100
AcDbEntity
  8
Dimension
370
              -2
390
0
  6
Continuous
 62
               0
 92
        0
100
AcDbWipeout
 90
        0
 10
-26.50486406390289
 20
33.362348301397382
 30
0.0
 11
3.4242926941977601
 21
0.0
 31
0.0
 12
0.0
 22
3.4242926941977601
 32
0.0
 13
1.0
 23
1.0
340
0
 70
               7
280
               1
281
              50
282
              50
283
               0
360
0
 71
               2
 91
        5
 14
-0.5
 24
-8.6889720914677095
 14
0.5
 24
-8.6889720914677095
 14
0.5
 24
-9.004906173806269
 14
-0.5
 24
-9.004906173806269
 14
-0.5
 24
-8.6889720914677095
  0
MTEXT
  5
122
100
AcDbEntity
  8
Dimension
390
0
 62
               0
100
AcDbMText
 10
-26.50486406390289
 20
65.736970139418204
 30
0.0
 40
0.6737068880208333
 41
0.0
 71
               1
 72
               1
  1
1.25mm
  7
Helvetica
 73
               1
 44
0.9673603504928808
  0
WIPEOUT
  5
123
100
AcDbEntity
  8
Dimension
370
              -2
390
0
  6
Continuous
 62
               0
 92
        0
100
AcDbWipeout
 90
        0
 10
-23.08057136970513
 20
33.347648756952935
 30
0.0
 11
3.9416996081670135
 21
0.0
 31
0.0
 12
0.0
 22
3.9416996081670135
 32
0.0
 13
1.0
 23
1.0
340
0
 70
               7
280
               1
281
              50
282
              50
283
               0
360
0
 71
               2
 91
        5
 14
-0.5
 24
-7.4827823345047628
 14
0.5
 24
-7.4827823345047628
 14
0.5
 24
-7.7572453523761542
 14
-0.5
 24
-7.7572453523761542
 14
-0.5
 24
-7.4827823345047628
  0
MTEXT
  5
124
100
AcDbEntity
  8
Dimension
390
0
 62
               0
100
AcDbMText
 10
-23.08057136970513
 20
65.72227059497375
 30
0.0
 40
0.6737068880208333
 41
0.0
 71
               1
 72
               1
  1
±0.13mm
  7
Helvetica
 73
               1
 44
0.9673603504928808
  0
WIPEOUT
  5
125
100
AcDbEntity
  8
Dimension
370
              -2
390
0
  6
Continuous
 62
               0
 92
        0
100
AcDbWipeout
 90
        0
 10
-19.138871761538116
 20
33.328539349175166
 30
0.0
 11
1.9305763350592713
 21
0.0
 31
0.0
 12
0.0
 22
1.9305763350592713
 32
0.0
 13
1.0
 23
1.0
340
0
 70
               7
280
               1
281
              50
282
              50
283
               0
360
0
 71
               2
 91
        5
 14
-0.5
 24
-15.798619965749214
 14
0.5
 24
-15.798619965749214
 14
0.5
 24
-16.376509429098494
 14
-0.5
 24
-16.376509429098494
 14
-0.5
 24
-15.798619965749214
  0
MTEXT
  5
126
100
AcDbEntity
  8
Dimension
390
0
 62
               0
100
AcDbMText
 10
-19.138871761538116
 20
65.731564994429775
 30
0.0
 40
0.6947609230324073
 41
0.0
 71
               1
 72
               1
  1
 (x4)
  7
Helvetica
 73
               1
 44
0.9673603504928808
  0
POINT
  5
127
100
AcDbEntity
  8
Defpoints
370
               0
390
0
 62
               0
100
AcDbPoint
 10
-14.494449745190884
 20
61.664599210286198
 30
0.0
  0
POINT
  5
128
100
AcDbEntity
  8
Defpoints
370
               0
390
0
 62
               0
100
AcDbPoint
 10
-15.744449745190867
 20
62.914599210286255
 30
0.0
  0
POINT
  5
129
100
AcDbEntity
  8
Defpoints
370
               0
390
0
 62
               0
100
AcDbPoint
 10
-21.856579745190867
 20
62.914599210286255
 30
0.0
  0
ENDBLK
  5
12A
100
AcDbEntity
  8
Dimension
390
0
100
AcDbBlockEnd
  0
BLOCK
  5
12B
100
AcDbEntity
  8
None
390
0
100
AcDbBlockBegin
  2
pad
 70
               0
 10
0.0
 20
0.0
 30
0.0
  3
pad
  1

  0
CIRCLE
  5
12C
102
{ACAD_REACTORS
330
12D
102
}
100
AcDbEntity
  8
None
370
               9
390
0
  6
Continuous
 62
               7
100
AcDbCircle
 10
0.0
 20
0.0
 30
0.0
 40
0.1399986921367482
  0
HATCH
  5
12D
100
AcDbEntity
  8
None
370
               0
390
0
  6
Continuous
 62
               7
100
AcDbHatch
 10
0.0
 20
0.0
 30
0.0
210
0.0
220
0.0
230
1.0
  2
SOLID
 70
               1
 71
               1
 91
        1
 92
        1
 93
        1
 72
               2
 10
0.0
 20
0.0
 40
0.1399986921367482
 50
0.0
 51
360.0
 73
               0
 97
        1
330
12C
 75
               0
 76
               1
 98
        1
 10
0.0
 20
0.0
  0
ENDBLK
  5
12E
100
AcDbEntity
  8
None
390
0
100
AcDbBlockEnd
  0
BLOCK
  5
12F
100
AcDbEntity
  8
None
390
0
100
AcDbBlockBegin
  2
Group
 70
               0
 10
0.0
 20
0.0
 30
0.0
  3
Group
  1

  0
INSERT
  5
130
100
AcDbEntity
  8
None
390
0
 62
               7
100
AcDbBlockReference
  2
pad
 10
-5.0208097451909488
 20
26.697509210286221
 30
0.0
  0
INSERT
  5
131
100
AcDbEntity
  8
None
390
0
 62
               7
100
AcDbBlockReference
  2
pad
 10
-4.5208097451909559
 20
26.697509210286221
 30
0.0
  0
INSERT
  5
132
100
AcDbEntity
  8
None
390
0
 62
               7
100
AcDbBlockReference
  2
pad
 10
-4.020809745190963
 20
26.697509210286221
 30
0.0
  0
INSERT
  5
133
100
AcDbEntity
  8
None
390
0
 62
               7
100
AcDbBlockReference
  2
pad
 10
-3.5208097451909701
 20
26.697509210286221
 30
0.0
  0
INSERT
  5
134
100
AcDbEntity
  8
None
390
0
 62
               7
100
AcDbBlockReference
  2
pad
 10
-3.0208097451909772
 20
26.697509210286221
 30
0.0
  0
INSERT
  5
135
100
AcDbEntity
  8
None
390
0
 62
               7
100
AcDbBlockReference
  2
pad
 10
-2.5208097451909808
 20
26.697509210286221
 30
0.0
  0
INSERT
  5
136
100
AcDbEntity
  8
None
390
0
 62
               7
100
AcDbBlockReference
  2
pad
 10
-2.0208097451909808
 20
26.697509210286221
 30
0.0
  0
INSERT
  5
137
100
AcDbEntity
  8
None
390
0
 62
               7
100
AcDbBlockReference
  2
pad
 10
-1.5208097451909826
 20
26.697509210286221
 30
0.0
  0
INSERT
  5
138
100
AcDbEntity
  8
None
390
0
 62
               7
100
AcDbBlockReference
  2
pad
 10
-1.0208097451909843
 20
26.697509210286221
 30
0.0
  0
INSERT
  5
139
100
AcDbEntity
  8
None
390
0
 62
               7
100
AcDbBlockReference
  2
pad
 10
-0.520809745190985
 20
26.697509210286221
 30
0.0
  0
INSERT
  5
13A
100
AcDbEntity
  8
None
390
0
 62
               7
100
AcDbBlockReference
  2
pad
 10
-0.020809745190984
 20
26.697509210286221
 30
0.0
  0
INSERT
  5
13B
100
AcDbEntity
  8
None
390
0
 62
               7
100
AcDbBlockReference
  2
pad
 10
-5.0208097451909488
 20
27.197509210286221
 30
0.0
  0
INSERT
  5
13C
100
AcDbEntity
  8
None
390
0
 62
               7
100
AcDbBlockReference
  2
pad
 10
-4.5208097451909559
 20
27.197509210286221
 30
0.0
  0
INSERT
  5
13D
100
AcDbEntity
  8
None
390
0
 62
               7
100
AcDbBlockReference
  2
pad
 10
-4.020809745190963
 20
27.197509210286221
 30
0.0
  0
INSERT
  5
13E
100
AcDbEntity
  8
None
390
0
 62
               7
100
AcDbBlockReference
  2
pad
 10
-3.5208097451909701
 20
27.197509210286221
 30
0.0
  0
INSERT
  5
13F
100
AcDbEntity
  8
None
390
0
 62
               7
100
AcDbBlockReference
  2
pad
 10
-3.0208097451909772
 20
27.197509210286221
 30
0.0
  0
INSERT
  5
140
100
AcDbEntity
  8
None
390
0
 62
               7
100
AcDbBlockReference
  2
pad
 10
-2.5208097451909808
 20
27.197509210286221
 30
0.0
  0
INSERT
  5
141
100
AcDbEntity
  8
None
390
0
 62
               7
100
AcDbBlockReference
  2
pad
 10
-2.0208097451909808
 20
27.197509210286221
 30
0.0
  0
INSERT
  5
142
100
AcDbEntity
  8
None
390
0
 62
               7
100
AcDbBlockReference
  2
pad
 10
-1.5208097451909826
 20
27.197509210286221
 30
0.0
  0
INSERT
  5
143
100
AcDbEntity
  8
None
390
0
 62
               7
100
AcDbBlockReference
  2
pad
 10
-1.0208097451909843
 20
27.197509210286221
 30
0.0
  0
INSERT
  5
144
100
AcDbEntity
  8
None
390
0
 62
               7
100
AcDbBlockReference
  2
pad
 10
-0.520809745190985
 20
27.197509210286221
 30
0.0
  0
INSERT
  5
145
100
AcDbEntity
  8
None
390
0
 62
               7
100
AcDbBlockReference
  2
pad
 10
-0.020809745190984
 20
27.197509210286221
 30
0.0
  0
INSERT
  5
146
100
AcDbEntity
  8
None
390
0
 62
               7
100
AcDbBlockReference
  2
pad
 10
-5.0208097451909488
 20
27.697509210286221
 30
0.0
  0
INSERT
  5
147
100
AcDbEntity
  8
None
390
0
 62
               7
100
AcDbBlockReference
  2
pad
 10
-4.5208097451909559
 20
27.697509210286221
 30
0.0
  0
INSERT
  5
148
100
AcDbEntity
  8
None
390
0
 62
               7
100
AcDbBlockReference
  2
pad
 10
-4.020809745190963
 20
27.697509210286221
 30
0.0
  0
INSERT
  5
149
100
AcDbEntity
  8
None
390
0
 62
               7
100
AcDbBlockReference
  2
pad
 10
-3.5208097451909701
 20
27.697509210286221
 30
0.0
  0
INSERT
  5
14A
100
AcDbEntity
  8
None
390
0
 62
               7
100
AcDbBlockReference
  2
pad
 10
-3.0208097451909772
 20
27.697509210286221
 30
0.0
  0
INSERT
  5
14B
100
AcDbEntity
  8
None
390
0
 62
               7
100
AcDbBlockReference
  2
pad
 10
-2.5208097451909808
 20
27.697509210286221
 30
0.0
  0
INSERT
  5
14C
100
AcDbEntity
  8
None
390
0
 62
               7
100
AcDbBlockReference
  2
pad
 10
-2.0208097451909808
 20
27.697509210286221
 30
0.0
  0
INSERT
  5
14D
100
AcDbEntity
  8
None
390
0
 62
               7
100
AcDbBlockReference
  2
pad
 10
-1.5208097451909826
 20
27.697509210286221
 30
0.0
  0
INSERT
  5
14E
100
AcDbEntity
  8
None
390
0
 62
               7
100
AcDbBlockReference
  2
pad
 10
-1.0208097451909843
 20
27.697509210286221
 30
0.0
  0
INSERT
  5
14F
100
AcDbEntity
  8
None
390
0
 62
               7
100
AcDbBlockReference
  2
pad
 10
-0.520809745190985
 20
27.697509210286221
 30
0.0
  0
INSERT
  5
150
100
AcDbEntity
  8
None
390
0
 62
               7
100
AcDbBlockReference
  2
pad
 10
-0.020809745190984
 20
27.697509210286221
 30
0.0
  0
INSERT
  5
151
100
AcDbEntity
  8
None
390
0
 62
               7
100
AcDbBlockReference
  2
pad
 10
-5.0208097451909488
 20
28.197509210286221
 30
0.0
  0
INSERT
  5
152
100
AcDbEntity
  8
None
390
0
 62
               7
100
AcDbBlockReference
  2
pad
 10
-4.5208097451909559
 20
28.197509210286221
 30
0.0
  0
INSERT
  5
153
100
AcDbEntity
  8
None
390
0
 62
               7
100
AcDbBlockReference
  2
pad
 10
-4.020809745190963
 20
28.197509210286221
 30
0.0
  0
INSERT
  5
154
100
AcDbEntity
  8
None
390
0
 62
               7
100
AcDbBlockReference
  2
pad
 10
-3.5208097451909701
 20
28.197509210286221
 30
0.0
  0
INSERT
  5
155
100
AcDbEntity
  8
None
390
0
 62
               7
100
AcDbBlockReference
  2
pad
 10
-3.0208097451909772
 20
28.197509210286221
 30
0.0
  0
INSERT
  5
156
100
AcDbEntity
  8
None
390
0
 62
               7
100
AcDbBlockReference
  2
pad
 10
-2.5208097451909808
 20
28.197509210286221
 30
0.0
  0
INSERT
  5
157
100
AcDbEntity
  8
None
390
0
 62
               7
100
AcDbBlockReference
  2
pad
 10
-2.0208097451909808
 20
28.197509210286221
 30
0.0
  0
INSERT
  5
158
100
AcDbEntity
  8
None
390
0
 62
               7
100
AcDbBlockReference
  2
pad
 10
-1.5208097451909826
 20
28.197509210286221
 30
0.0
  0
INSERT
  5
159
100
AcDbEntity
  8
None
390
0
 62
               7
100
AcDbBlockReference
  2
pad
 10
-1.0208097451909843
 20
28.197509210286221
 30
0.0
  0
INSERT
  5
15A
100
AcDbEntity
  8
None
390
0
 62
               7
100
AcDbBlockReference
  2
pad
 10
-0.520809745190985
 20
28.197509210286221
 30
0.0
  0
INSERT
  5
15B
100
AcDbEntity
  8
None
390
0
 62
               7
100
AcDbBlockReference
  2
pad
 10
-0.020809745190984
 20
28.197509210286221
 30
0.0
  0
INSERT
  5
15C
100
AcDbEntity
  8
None
390
0
 62
               7
100
AcDbBlockReference
  2
pad
 10
-5.0208097451909488
 20
28.697509210286221
 30
0.0
  0
INSERT
  5
15D
100
AcDbEntity
  8
None
390
0
 62
               7
100
AcDbBlockReference
  2
pad
 10
-4.5208097451909559
 20
28.697509210286221
 30
0.0
  0
INSERT
  5
15E
100
AcDbEntity
  8
None
390
0
 62
               7
100
AcDbBlockReference
  2
pad
 10
-4.020809745190963
 20
28.697509210286221
 30
0.0
  0
INSERT
  5
15F
100
AcDbEntity
  8
None
390
0
 62
               7
100
AcDbBlockReference
  2
pad
 10
-3.5208097451909701
 20
28.697509210286221
 30
0.0
  0
INSERT
  5
160
100
AcDbEntity
  8
None
390
0
 62
               7
100
AcDbBlockReference
  2
pad
 10
-3.0208097451909772
 20
28.697509210286221
 30
0.0
  0
INSERT
  5
161
100
AcDbEntity
  8
None
390
0
 62
               7
100
AcDbBlockReference
  2
pad
 10
-2.5208097451909808
 20
28.697509210286221
 30
0.0
  0
INSERT
  5
162
100
AcDbEntity
  8
None
390
0
 62
               7
100
AcDbBlockReference
  2
pad
 10
-2.0208097451909808
 20
28.697509210286221
 30
0.0
  0
INSERT
  5
163
100
AcDbEntity
  8
None
390
0
 62
               7
100
AcDbBlockReference
  2
pad
 10
-1.5208097451909826
 20
28.697509210286221
 30
0.0
  0
INSERT
  5
164
100
AcDbEntity
  8
None
390
0
 62
               7
100
AcDbBlockReference
  2
pad
 10
-1.0208097451909843
 20
28.697509210286221
 30
0.0
  0
INSERT
  5
165
100
AcDbEntity
  8
None
390
0
 62
               7
100
AcDbBlockReference
  2
pad
 10
-0.520809745190985
 20
28.697509210286221
 30
0.0
  0
INSERT
  5
166
100
AcDbEntity
  8
None
390
0
 62
               7
100
AcDbBlockReference
  2
pad
 10
-0.020809745190984
 20
28.697509210286221
 30
0.0
  0
INSERT
  5
167
100
AcDbEntity
  8
None
390
0
 62
               7
100
AcDbBlockReference
  2
pad
 10
-5.0208097451909488
 20
29.197509210286221
 30
0.0
  0
INSERT
  5
168
100
AcDbEntity
  8
None
390
0
 62
               7
100
AcDbBlockReference
  2
pad
 10
-4.5208097451909559
 20
29.197509210286221
 30
0.0
  0
INSERT
  5
169
100
AcDbEntity
  8
None
390
0
 62
               7
100
AcDbBlockReference
  2
pad
 10
-4.020809745190963
 20
29.197509210286221
 30
0.0
  0
INSERT
  5
16A
100
AcDbEntity
  8
None
390
0
 62
               7
100
AcDbBlockReference
  2
pad
 10
-3.5208097451909701
 20
29.197509210286221
 30
0.0
  0
INSERT
  5
16B
100
AcDbEntity
  8
None
390
0
 62
               7
100
AcDbBlockReference
  2
pad
 10
-3.0208097451909772
 20
29.197509210286221
 30
0.0
  0
INSERT
  5
16C
100
AcDbEntity
  8
None
390
0
 62
               7
100
AcDbBlockReference
  2
pad
 10
-2.5208097451909808
 20
29.197509210286221
 30
0.0
  0
INSERT
  5
16D
100
AcDbEntity
  8
None
390
0
 62
               7
100
AcDbBlockReference
  2
pad
 10
-2.0208097451909808
 20
29.197509210286221
 30
0.0
  0
INSERT
  5
16E
100
AcDbEntity
  8
None
390
0
 62
               7
100
AcDbBlockReference
  2
pad
 10
-1.5208097451909826
 20
29.197509210286221
 30
0.0
  0
INSERT
  5
16F
100
AcDbEntity
  8
None
390
0
 62
               7
100
AcDbBlockReference
  2
pad
 10
-1.0208097451909843
 20
29.197509210286221
 30
0.0
  0
INSERT
  5
170
100
AcDbEntity
  8
None
390
0
 62
               7
100
AcDbBlockReference
  2
pad
 10
-0.520809745190985
 20
29.197509210286221
 30
0.0
  0
INSERT
  5
171
100
AcDbEntity
  8
None
390
0
 62
               7
100
AcDbBlockReference
  2
pad
 10
-0.020809745190984
 20
29.197509210286221
 30
0.0
  0
INSERT
  5
172
100
AcDbEntity
  8
None
390
0
 62
               7
100
AcDbBlockReference
  2
pad
 10
-5.0208097451909488
 20
29.697509210286221
 30
0.0
  0
INSERT
  5
173
100
AcDbEntity
  8
None
390
0
 62
               7
100
AcDbBlockReference
  2
pad
 10
-4.5208097451909559
 20
29.697509210286221
 30
0.0
  0
INSERT
  5
174
100
AcDbEntity
  8
None
390
0
 62
               7
100
AcDbBlockReference
  2
pad
 10
-4.020809745190963
 20
29.697509210286221
 30
0.0
  0
INSERT
  5
175
100
AcDbEntity
  8
None
390
0
 62
               7
100
AcDbBlockReference
  2
pad
 10
-3.5208097451909701
 20
29.697509210286221
 30
0.0
  0
INSERT
  5
176
100
AcDbEntity
  8
None
390
0
 62
               7
100
AcDbBlockReference
  2
pad
 10
-3.0208097451909772
 20
29.697509210286221
 30
0.0
  0
INSERT
  5
177
100
AcDbEntity
  8
None
390
0
 62
               7
100
AcDbBlockReference
  2
pad
 10
-2.5208097451909808
 20
29.697509210286221
 30
0.0
  0
INSERT
  5
178
100
AcDbEntity
  8
None
390
0
 62
               7
100
AcDbBlockReference
  2
pad
 10
-2.0208097451909808
 20
29.697509210286221
 30
0.0
  0
INSERT
  5
179
100
AcDbEntity
  8
None
390
0
 62
               7
100
AcDbBlockReference
  2
pad
 10
-1.5208097451909826
 20
29.697509210286221
 30
0.0
  0
INSERT
  5
17A
100
AcDbEntity
  8
None
390
0
 62
               7
100
AcDbBlockReference
  2
pad
 10
-1.0208097451909843
 20
29.697509210286221
 30
0.0
  0
INSERT
  5
17B
100
AcDbEntity
  8
None
390
0
 62
               7
100
AcDbBlockReference
  2
pad
 10
-0.520809745190985
 20
29.697509210286221
 30
0.0
  0
INSERT
  5
17C
100
AcDbEntity
  8
None
390
0
 62
               7
100
AcDbBlockReference
  2
pad
 10
-0.020809745190984
 20
29.697509210286221
 30
0.0
  0
INSERT
  5
17D
100
AcDbEntity
  8
None
390
0
 62
               7
100
AcDbBlockReference
  2
pad
 10
-5.0208097451909488
 20
30.197509210286221
 30
0.0
  0
INSERT
  5
17E
100
AcDbEntity
  8
None
390
0
 62
               7
100
AcDbBlockReference
  2
pad
 10
-4.5208097451909559
 20
30.197509210286221
 30
0.0
  0
INSERT
  5
17F
100
AcDbEntity
  8
None
390
0
 62
               7
100
AcDbBlockReference
  2
pad
 10
-4.020809745190963
 20
30.197509210286221
 30
0.0
  0
INSERT
  5
180
100
AcDbEntity
  8
None
390
0
 62
               7
100
AcDbBlockReference
  2
pad
 10
-3.5208097451909701
 20
30.197509210286221
 30
0.0
  0
INSERT
  5
181
100
AcDbEntity
  8
None
390
0
 62
               7
100
AcDbBlockReference
  2
pad
 10
-3.0208097451909772
 20
30.197509210286221
 30
0.0
  0
INSERT
  5
182
100
AcDbEntity
  8
None
390
0
 62
               7
100
AcDbBlockReference
  2
pad
 10
-2.5208097451909808
 20
30.197509210286221
 30
0.0
  0
INSERT
  5
183
100
AcDbEntity
  8
None
390
0
 62
               7
100
AcDbBlockReference
  2
pad
 10
-2.0208097451909808
 20
30.197509210286221
 30
0.0
  0
INSERT
  5
184
100
AcDbEntity
  8
None
390
0
 62
               7
100
AcDbBlockReference
  2
pad
 10
-1.5208097451909826
 20
30.197509210286221
 30
0.0
  0
INSERT
  5
185
100
AcDbEntity
  8
None
390
0
 62
               7
100
AcDbBlockReference
  2
pad
 10
-1.0208097451909843
 20
30.197509210286221
 30
0.0
  0
INSERT
  5
186
100
AcDbEntity
  8
None
390
0
 62
               7
100
AcDbBlockReference
  2
pad
 10
-0.520809745190985
 20
30.197509210286221
 30
0.0
  0
INSERT
  5
187
100
AcDbEntity
  8
None
390
0
 62
               7
100
AcDbBlockReference
  2
pad
 10
-0.020809745190984
 20
30.197509210286221
 30
0.0
  0
INSERT
  5
188
100
AcDbEntity
  8
None
390
0
 62
               7
100
AcDbBlockReference
  2
pad
 10
-5.0208097451909488
 20
30.697509210286221
 30
0.0
  0
INSERT
  5
189
100
AcDbEntity
  8
None
390
0
 62
               7
100
AcDbBlockReference
  2
pad
 10
-4.5208097451909559
 20
30.697509210286221
 30
0.0
  0
INSERT
  5
18A
100
AcDbEntity
  8
None
390
0
 62
               7
100
AcDbBlockReference
  2
pad
 10
-4.020809745190963
 20
30.697509210286221
 30
0.0
  0
INSERT
  5
18B
100
AcDbEntity
  8
None
390
0
 62
               7
100
AcDbBlockReference
  2
pad
 10
-3.5208097451909701
 20
30.697509210286221
 30
0.0
  0
INSERT
  5
18C
100
AcDbEntity
  8
None
390
0
 62
               7
100
AcDbBlockReference
  2
pad
 10
-3.0208097451909772
 20
30.697509210286221
 30
0.0
  0
INSERT
  5
18D
100
AcDbEntity
  8
None
390
0
 62
               7
100
AcDbBlockReference
  2
pad
 10
-2.5208097451909808
 20
30.697509210286221
 30
0.0
  0
INSERT
  5
18E
100
AcDbEntity
  8
None
390
0
 62
               7
100
AcDbBlockReference
  2
pad
 10
-2.0208097451909808
 20
30.697509210286221
 30
0.0
  0
INSERT
  5
18F
100
AcDbEntity
  8
None
390
0
 62
               7
100
AcDbBlockReference
  2
pad
 10
-1.5208097451909826
 20
30.697509210286221
 30
0.0
  0
INSERT
  5
190
100
AcDbEntity
  8
None
390
0
 62
               7
100
AcDbBlockReference
  2
pad
 10
-1.0208097451909843
 20
30.697509210286221
 30
0.0
  0
INSERT
  5
191
100
AcDbEntity
  8
None
390
0
 62
               7
100
AcDbBlockReference
  2
pad
 10
-0.520809745190985
 20
30.697509210286221
 30
0.0
  0
INSERT
  5
192
100
AcDbEntity
  8
None
390
0
 62
               7
100
AcDbBlockReference
  2
pad
 10
-0.020809745190984
 20
30.697509210286221
 30
0.0
  0
INSERT
  5
193
100
AcDbEntity
  8
None
390
0
 62
               7
100
AcDbBlockReference
  2
pad
 10
-5.0208097451909488
 20
31.197509210286221
 30
0.0
  0
INSERT
  5
194
100
AcDbEntity
  8
None
390
0
 62
               7
100
AcDbBlockReference
  2
pad
 10
-4.5208097451909559
 20
31.197509210286221
 30
0.0
  0
INSERT
  5
195
100
AcDbEntity
  8
None
390
0
 62
               7
100
AcDbBlockReference
  2
pad
 10
-4.020809745190963
 20
31.197509210286221
 30
0.0
  0
INSERT
  5
196
100
AcDbEntity
  8
None
390
0
 62
               7
100
AcDbBlockReference
  2
pad
 10
-3.5208097451909701
 20
31.197509210286221
 30
0.0
  0
INSERT
  5
197
100
AcDbEntity
  8
None
390
0
 62
               7
100
AcDbBlockReference
  2
pad
 10
-3.0208097451909772
 20
31.197509210286221
 30
0.0
  0
INSERT
  5
198
100
AcDbEntity
  8
None
390
0
 62
               7
100
AcDbBlockReference
  2
pad
 10
-2.5208097451909808
 20
31.197509210286221
 30
0.0
  0
INSERT
  5
199
100
AcDbEntity
  8
None
390
0
 62
               7
100
AcDbBlockReference
  2
pad
 10
-2.0208097451909808
 20
31.197509210286221
 30
0.0
  0
INSERT
  5
19A
100
AcDbEntity
  8
None
390
0
 62
               7
100
AcDbBlockReference
  2
pad
 10
-1.5208097451909826
 20
31.197509210286221
 30
0.0
  0
INSERT
  5
19B
100
AcDbEntity
  8
None
390
0
 62
               7
100
AcDbBlockReference
  2
pad
 10
-1.0208097451909843
 20
31.197509210286221
 30
0.0
  0
INSERT
  5
19C
100
AcDbEntity
  8
None
390
0
 62
               7
100
AcDbBlockReference
  2
pad
 10
-0.520809745190985
 20
31.197509210286221
 30
0.0
  0
INSERT
  5
19D
100
AcDbEntity
  8
None
390
0
 62
               7
100
AcDbBlockReference
  2
pad
 10
-0.020809745190984
 20
31.197509210286221
 30
0.0
  0
INSERT
  5
19E
100
AcDbEntity
  8
None
390
0
 62
               7
100
AcDbBlockReference
  2
pad
 10
-5.0208097451909488
 20
31.697509210286221
 30
0.0
  0
INSERT
  5
19F
100
AcDbEntity
  8
None
390
0
 62
               7
100
AcDbBlockReference
  2
pad
 10
-4.5208097451909559
 20
31.697509210286221
 30
0.0
  0
INSERT
  5
1A0
100
AcDbEntity
  8
None
390
0
 62
               7
100
AcDbBlockReference
  2
pad
 10
-4.020809745190963
 20
31.697509210286221
 30
0.0
  0
INSERT
  5
1A1
100
AcDbEntity
  8
None
390
0
 62
               7
100
AcDbBlockReference
  2
pad
 10
-3.5208097451909701
 20
31.697509210286221
 30
0.0
  0
INSERT
  5
1A2
100
AcDbEntity
  8
None
390
0
 62
               7
100
AcDbBlockReference
  2
pad
 10
-3.0208097451909772
 20
31.697509210286221
 30
0.0
  0
INSERT
  5
1A3
100
AcDbEntity
  8
None
390
0
 62
               7
100
AcDbBlockReference
  2
pad
 10
-2.5208097451909808
 20
31.697509210286221
 30
0.0
  0
INSERT
  5
1A4
100
AcDbEntity
  8
None
390
0
 62
               7
100
AcDbBlockReference
  2
pad
 10
-2.0208097451909808
 20
31.697509210286221
 30
0.0
  0
INSERT
  5
1A5
100
AcDbEntity
  8
None
390
0
 62
               7
100
AcDbBlockReference
  2
pad
 10
-1.5208097451909826
 20
31.697509210286221
 30
0.0
  0
INSERT
  5
1A6
100
AcDbEntity
  8
None
390
0
 62
               7
100
AcDbBlockReference
  2
pad
 10
-1.0208097451909843
 20
31.697509210286221
 30
0.0
  0
INSERT
  5
1A7
100
AcDbEntity
  8
None
390
0
 62
               7
100
AcDbBlockReference
  2
pad
 10
-0.520809745190985
 20
31.697509210286221
 30
0.0
  0
INSERT
  5
1A8
100
AcDbEntity
  8
None
390
0
 62
               7
100
AcDbBlockReference
  2
pad
 10
-0.020809745190984
 20
31.697509210286221
 30
0.0
  0
ENDBLK
  5
1A9
100
AcDbEntity
  8
None
390
0
100
AcDbBlockEnd
  0
BLOCK
  5
1AA
100
AcDbEntity
  8
None
390
0
100
AcDbBlockBegin
  2
Group-1
 70
               0
 10
0.0
 20
0.0
 30
0.0
  3
Group-1
  1

  0
POLYLINE
  5
1AB
100
AcDbEntity
  8
None
370
               9
390
0
  6
STYLE_12
 62
               7
100
AcDb2dPolyline
 66
               1
 10
0.0
 20
0.0
 30
0.0
 70
               1
 75
               5
  0
VERTEX
  5
1AC
100
AcDbEntity
  8
None
370
               9
390
0
  6
STYLE_12
 62
               7
100
AcDbVertex
100
AcDb2dVertex
 10
-10.383309745190868
 20
36.810009210286267
 30
0.0
  0
VERTEX
  5
1AD
100
AcDbEntity
  8
None
370
               9
390
0
  6
STYLE_12
 62
               7
100
AcDbVertex
100
AcDb2dVertex
 10
4.8416902548090253
 20
36.810009210286267
 30
0.0
  0
VERTEX
  5
1AE
100
AcDbEntity
  8
None
370
               9
390
0
  6
STYLE_12
 62
               7
100
AcDbVertex
100
AcDb2dVertex
 10
4.8416902548090253
 20
21.585009210286223
 30
0.0
  0
VERTEX
  5
1AF
100
AcDbEntity
  8
None
370
               9
390
0
  6
STYLE_12
 62
               7
100
AcDbVertex
100
AcDb2dVertex
 10
-10.383309745190868
 20
21.585009210286223
 30
0.0
  0
SEQEND
  5
1B0
100
AcDbEntity
  8
None
370
               9
390
0
  6
STYLE_12
 62
               7
  0
ENDBLK
  5
1B1
100
AcDbEntity
  8
None
390
0
100
AcDbBlockEnd
  0
BLOCK
  5
1B2
100
AcDbEntity
  8
None
390
0
100
AcDbBlockBegin
  2
Group-2
 70
               0
 10
0.0
 20
0.0
 30
0.0
  3
Group-2
  1

  0
LINE
  5
1B3
100
AcDbEntity
  8
None
370
               9
390
0
  6
STYLE_16
 62
             132
100
AcDbLine
 10
-2.7708097451909808
 20
39.697509210286434
 30
0.0
 11
-2.7708097451909808
 21
18.697509210286228
 31
0.0
  0
LINE
  5
1B4
100
AcDbEntity
  8
None
370
               9
390
0
  6
STYLE_16
 62
             132
100
AcDbLine
 10
-13.27080974519083
 20
29.197509210286221
 30
0.0
 11
7.7291902548090246
 21
29.197509210286221
 31
0.0
  0
ENDBLK
  5
1B5
100
AcDbEntity
  8
None
390
0
100
AcDbBlockEnd
  0
BLOCK
  5
1B6
100
AcDbEntity
  8
None
390
0
100
AcDbBlockBegin
  2
Group-3
 70
               0
 10
0.0
 20
0.0
 30
0.0
  3
Group-3
  1

  0
INSERT
  5
1B7
100
AcDbEntity
  8
None
390
0
 62
             132
100
AcDbBlockReference
  2
Group-2
 10
0.0
 20
0.0
 30
0.0
  0
ENDBLK
  5
1B8
100
AcDbEntity
  8
None
390
0
100
AcDbBlockEnd
  0
BLOCK
  5
1B9
100
AcDbEntity
  8
None
390
0
100
AcDbBlockBegin
  2
IE i logo
 70
               0
 10
0.0
 20
0.0
 30
0.0
  3
IE i logo
  1

  0
CIRCLE
  5
1BA
102
{ACAD_REACTORS
330
1BB
102
}
100
AcDbEntity
  8
None
370
               5
390
0
  6
Continuous
 62
               7
100
AcDbCircle
 10
0.0
 20
0.0
 30
0.0
 40
2.6708000015163993
  0
HATCH
  5
1BB
100
AcDbEntity
  8
None
370
               0
390
0
  6
Continuous
 62
               7
100
AcDbHatch
 10
0.0
 20
0.0
 30
0.0
210
0.0
220
0.0
230
1.0
  2
SOLID
 70
               1
 71
               1
 91
        1
 92
        1
 93
        1
 72
               2
 10
0.0
 20
0.0
 40
2.6708000015163993
 50
0.0
 51
360.0
 73
               0
 97
        1
330
1BA
 75
               0
 76
               1
 98
        1
 10
0.0
 20
0.0
  0
WIPEOUT
  5
1BC
100
AcDbEntity
  8
None
370
               5
390
0
  6
Continuous
 62
               7
 92
        0
100
AcDbWipeout
 90
        0
 10
-1.01559
 20
0.7356799999999999
 30
0.0
 11
0.6889700000000001
 21
0.0
 31
0.0
 12
0.0
 22
0.6889700000000001
 32
0.0
 13
1.0
 23
1.0
340
0
 70
               7
280
               1
281
              50
282
              50
283
               0
360
0
 71
               2
 91
       97
 14
-0.3841458989506075
 24
0.0667590751411526
 14
-0.3634902916672715
 24
0.0345951202519703
 14
-0.3415614975978636
 24
0.0026924249241619
 14
-0.3183595167423836
 24
-0.0289490108422718
 14
-0.2938843491008316
 24
-0.0603291870473315
 14
-0.2681359946732077
 24
-0.0914481036910172
 14
-0.2411144534595119
 24
-0.1223057607733282
 14
-0.2128197254597441
 24
-0.1529021582942652
 14
-0.1832518106739045
 24
-0.1832372962538282
 14
-0.1529166727143417
 24
-0.2128053244335748
 14
-0.1223202751934046
 24
-0.2411003926150633
 14
-0.0914626181110934
 24
-0.2681225007982933
 14
-0.0603437014674079
 24
-0.293871648983265
 14
-0.0289635252623482
 24
-0.3183478371699785
 14
0.0026779105040858
 24
-0.3415510653584339
 14
0.0345806058318939
 24
-0.3634813335486309
 14
0.0667445607210765
 24
-0.3841386417405692
 14
0.0986291130237893
 24
-0.4031876841517047
 14
0.1296936005921883
 24
-0.4202931549994916
 14
0.1599380234262741
 24
-0.4354550542839309
 14
0.1893623815260462
 24
-0.4486733820050221
 14
0.2179666748915049
 24
-0.4599481381627649
 14
0.2457509035226498
 24
-0.4692793227571591
 14
0.2727150674194813
 24
-0.4766669357882054
 14
0.2988591665819992
 24
-0.4821109772559039
 14
0.3237520773763735
 24
-0.4855364937878283
 14
0.3469626761687736
 24
-0.4868685320115535
 14
0.3684909629591999
 24
-0.4861070919270796
 14
0.3883369377476522
 24
-0.4832521735344065
 14
0.4065006005341306
 24
-0.478303776833534
 14
0.4229819513186351
 24
-0.4712619018244624
 14
0.4377809901011655
 24
-0.4621265485071919
 14
0.450897716881722
 24
-0.450897716881722
 14
0.4621265485071919
 24
-0.4377809901011653
 14
0.4712619018244625
 24
-0.4229819513186348
 14
0.478303776833534
 24
-0.4065006005341303
 14
0.4832521735344064
 24
-0.3883369377476522
 14
0.4861070919270795
 24
-0.3684909629591999
 14
0.4868685320115535
 24
-0.346962676168774
 14
0.485536493787828
 24
-0.3237520773763738
 14
0.4821109772559037
 24
-0.2988591665819994
 14
0.4766669357882054
 24
-0.2727150674194814
 14
0.4692793227571591
 24
-0.2457509035226501
 14
0.4599481381627646
 24
-0.2179666748915049
 14
0.4486733820050219
 24
-0.1893623815260463
 14
0.4354550542839309
 24
-0.1599380234262744
 14
0.4202931549994919
 24
-0.1296936005921886
 14
0.4031876841517047
 24
-0.0986291130237894
 14
0.3841386417405692
 24
-0.0667445607210765
 14
0.3634814469425374
 24
-0.0345806058318942
 14
0.341551518934061
 24
-0.0026779105040858
 14
0.3183488577151399
 24
0.0289635252623479
 14
0.2938734632857745
 24
0.0603437014674076
 14
0.2681253356459643
 24
0.0914626181110932
 14
0.2411044747957094
 24
0.1223202751934044
 14
0.2128108807350102
 24
0.1529166727143415
 14
0.1832445534638663
 24
0.1832518106739043
 14
0.1529110030189994
 24
0.212819838853651
 14
0.1223157394371308
 24
0.2411149070351392
 14
0.0914587627182606
 24
0.2681370152183693
 14
0.0603400728623887
 24
0.2938861634033411
 14
0.0289596698695154
 24
0.3183623515900547
 14
-0.0026824462603596
 24
0.3415655797785099
 14
-0.0345862755272363
 24
0.3634958479687069
 14
-0.0667518179311145
 24
0.3841531561606457
 14
-0.098637957748523
 24
0.4032020851778743
 14
-0.1297035792559907
 24
0.420307215843941
 14
-0.1599486824535175
 24
0.4354685481588458
 14
-0.1893732673411033
 24
0.4486860821225887
 14
-0.2179773339187483
 24
0.4599598177351699
 14
-0.2457608821864522
 24
0.4692897549965891
 14
-0.2727239121442152
 24
0.4766758939068465
 14
-0.2988664237920372
 24
0.4821182344659419
 14
-0.3237576336778087
 24
0.4855420500892637
 14
-0.3469667583494201
 24
0.4868726141922
 14
-0.368493797806871
 24
0.4861099267747507
 14
-0.3883387520501617
 24
0.483253987836916
 14
-0.4065016210792922
 24
0.4783047973786958
 14
-0.4229824048942623
 24
0.4712623554000899
 14
-0.4377811034950722
 24
0.4621266619010988
 14
-0.450897716881722
 24
0.450897716881722
 14
-0.4621265485071919
 24
0.4377811034950722
 14
-0.4712619018244625
 24
0.4229824048942623
 14
-0.478303776833534
 24
0.4065016210792922
 14
-0.4832521735344062
 24
0.3883387520501617
 14
-0.4861070919270796
 24
0.368493797806871
 14
-0.4868685320115535
 24
0.3469667583494201
 14
-0.4855364937878283
 24
0.3237576336778087
 14
-0.4821109772559035
 24
0.2988664237920372
 14
-0.4766670491821122
 24
0.272724025538122
 14
-0.4692797763327865
 24
0.2457613357620797
 14
-0.4599491587079262
 24
0.21797835446391
 14
-0.4486751963075315
 24
0.1893750816436128
 14
-0.4354578891316022
 24
0.1599515173011885
 14
-0.4202972371801385
 24
0.1297076614366372
 14
-0.4031932404531402
 24
0.0986435140499583
 14
-0.3841458989506075
 24
0.0667590751411526
  0
SPLINE
  5
1BD
100
AcDbEntity
  8
None
370
               5
390
0
  6
Continuous
 62
               7
100
AcDbSpline
210
0.0
220
0.0
230
1.0
 70
               9
 71
               2
 72
              17
 73
              14
 74
               0
 42
0.000001
 43
0.000001
 40
0.0
 40
0.0
 40
0.0
 40
1.0
 40
2.0
 40
3.0
 40
4.0
 40
5.0
 40
6.0
 40
7.0
 40
8.0
 40
9.0
 40
10.0
 40
11.0
 40
12.0
 40
12.0
 40
12.0
 10
-0.93577
 20
1.03417
 30
0.0
 10
-0.8805999999999999
 20
1.12317
 30
0.0
 10
-0.71412
 20
1.28965
 30
0.0
 10
-0.5361199999999999
 20
1.3999999999999999
 30
0.0
 10
-0.39428
 20
1.42465
 30
0.0
 10
-0.32662
 20
1.3569899999999999
 30
0.0
 10
-0.35127
 20
1.21515
 30
0.0
 10
-0.46162
 20
1.03715
 30
0.0
 10
-0.6280899999999999
 20
0.8706699999999999
 30
0.0
 10
-0.8060999999999999
 20
0.7603199999999999
 30
0.0
 10
-0.9479299999999999
 20
0.7356799999999999
 30
0.0
 10
-1.01559
 20
0.8033399999999999
 30
0.0
 10
-0.9909399999999999
 20
0.94517
 30
0.0
 10
-0.93577
 20
1.03417
 30
0.0
  0
WIPEOUT
  5
1BE
100
AcDbEntity
  8
None
370
               5
390
0
  6
Continuous
 62
               7
 92
        0
100
AcDbWipeout
 90
        0
 10
-1.7197899999999999
 20
-1.8961799999999998
 30
0.0
 11
1.8520799999999999
 21
0.0
 31
0.0
 12
0.0
 22
1.8520799999999999
 32
0.0
 13
1.0
 23
1.0
340
0
 70
               7
280
               1
281
              50
282
              50
283
               0
360
0
 71
               2
 91
       36
 14
-0.4523832663815818
 24
0.3095222668567234
 14
-0.25
 24
0.1190499330482485
 14
-0.2142887996198868
 24
0.1190499330482485
 14
-0.0714278000950283
 24
0.3690499330482485
 14
0.0
 24
0.4523832663815818
 14
0.0714278000950284
 24
0.5
 14
0.214283400285085
 24
0.5
 14
0.3690499330482485
 24
0.4047611334283617
 14
0.4761889335233899
 24
0.3095222668567234
 14
0.5
 24
0.238094466761695
 14
0.5
 24
0.1071443998099435
 14
0.4880944667616949
 24
0.0714278000950283
 14
0.4642887996198868
 24
0.0714278000950283
 14
0.4285721999049716
 24
0.0829607792319987
 14
0.3214278000950284
 24
0.1666666666666667
 14
0.2747235540581401
 24
0.1785721999049718
 14
0.214283400285085
 24
0.1666666666666667
 14
0.1904777331432768
 24
0.1070958057967258
 14
0.1428556001900566
 24
0.0238110664766101
 14
0.1190445337134465
 24
-0.0833333333333333
 14
0.1071390004751416
 24
-0.2142834002850848
 14
0.0714278000950284
 24
-0.2857165997149149
 14
0.0238110664766101
 24
-0.3452388665716383
 14
-0.02381106647661
 24
-0.3866193684938015
 14
-0.0714278000950283
 24
-0.3866193684938015
 14
-0.1309554662865535
 24
-0.3571443998099434
 14
-0.1785721999049717
 24
-0.29762213295322
 14
-0.261905533238305
 24
-0.1785721999049716
 14
-0.3424204138050191
 24
-0.1071443998099433
 14
-0.4727063625761306
 24
0.0238110664766101
 14
-0.5
 24
0.0714278000950283
 14
-0.5
 24
0.1547611334283617
 14
-0.5
 24
0.238094466761695
 14
-0.5
 24
0.2857165997149152
 14
-0.4880944667616949
 24
0.3214278000950283
 14
-0.4523832663815818
 24
0.3095222668567234
  0
POLYLINE
  5
1BF
100
AcDbEntity
  8
None
370
               5
390
0
  6
Continuous
 62
               7
100
AcDb2dPolyline
 66
               1
 10
0.0
 20
0.0
 30
0.0
 70
               1
 75
               5
  0
VERTEX
  5
1C0
100
AcDbEntity
  8
None
370
               5
390
0
  6
Continuous
 62
               7
100
AcDbVertex
100
AcDb2dVertex
 10
-1.6315999999999999
 20
-1.5433999999999999
 30
0.0
  0
VERTEX
  5
1C1
100
AcDbEntity
  8
None
370
               5
390
0
  6
Continuous
 62
               7
100
AcDbVertex
100
AcDb2dVertex
 10
-1.2567699999999999
 20
-1.1906299999999999
 30
0.0
  0
VERTEX
  5
1C2
100
AcDbEntity
  8
None
370
               5
390
0
  6
Continuous
 62
               7
100
AcDbVertex
100
AcDb2dVertex
 10
-1.1906299999999999
 20
-1.1906299999999999
 30
0.0
  0
VERTEX
  5
1C3
100
AcDbEntity
  8
None
370
               5
390
0
  6
Continuous
 62
               7
100
AcDbVertex
100
AcDb2dVertex
 10
-0.92604
 20
-1.6536499999999998
 30
0.0
  0
VERTEX
  5
1C4
100
AcDbEntity
  8
None
370
               5
390
0
  6
Continuous
 62
               7
100
AcDbVertex
100
AcDb2dVertex
 10
-0.79375
 20
-1.8079899999999998
 30
0.0
  0
VERTEX
  5
1C5
100
AcDbEntity
  8
None
370
               5
390
0
  6
Continuous
 62
               7
100
AcDbVertex
100
AcDb2dVertex
 10
-0.6614599999999999
 20
-1.8961799999999998
 30
0.0
  0
VERTEX
  5
1C6
100
AcDbEntity
  8
None
370
               5
390
0
  6
Continuous
 62
               7
100
AcDbVertex
100
AcDb2dVertex
 10
-0.39688
 20
-1.8961799999999998
 30
0.0
  0
VERTEX
  5
1C7
100
AcDbEntity
  8
None
370
               5
390
0
  6
Continuous
 62
               7
100
AcDbVertex
100
AcDb2dVertex
 10
-0.11024
 20
-1.7197899999999999
 30
0.0
  0
VERTEX
  5
1C8
100
AcDbEntity
  8
None
370
               5
390
0
  6
Continuous
 62
               7
100
AcDbVertex
100
AcDb2dVertex
 10
0.08819
 20
-1.5433999999999999
 30
0.0
  0
VERTEX
  5
1C9
100
AcDbEntity
  8
None
370
               5
390
0
  6
Continuous
 62
               7
100
AcDbVertex
100
AcDb2dVertex
 10
0.13229
 20
-1.4111099999999999
 30
0.0
  0
VERTEX
  5
1CA
100
AcDbEntity
  8
None
370
               5
390
0
  6
Continuous
 62
               7
100
AcDbVertex
100
AcDb2dVertex
 10
0.13229
 20
-1.16858
 30
0.0
  0
VERTEX
  5
1CB
100
AcDbEntity
  8
None
370
               5
390
0
  6
Continuous
 62
               7
100
AcDbVertex
100
AcDb2dVertex
 10
0.11024
 20
-1.1024299999999998
 30
0.0
  0
VERTEX
  5
1CC
100
AcDbEntity
  8
None
370
               5
390
0
  6
Continuous
 62
               7
100
AcDbVertex
100
AcDb2dVertex
 10
0.06615
 20
-1.1024299999999998
 30
0.0
  0
VERTEX
  5
1CD
100
AcDbEntity
  8
None
370
               5
390
0
  6
Continuous
 62
               7
100
AcDbVertex
100
AcDb2dVertex
 10
0.0
 20
-1.1237899999999998
 30
0.0
  0
VERTEX
  5
1CE
100
AcDbEntity
  8
None
370
               5
390
0
  6
Continuous
 62
               7
100
AcDbVertex
100
AcDb2dVertex
 10
-0.19844
 20
-1.2788199999999998
 30
0.0
  0
VERTEX
  5
1CF
100
AcDbEntity
  8
None
370
               5
390
0
  6
Continuous
 62
               7
100
AcDbVertex
100
AcDb2dVertex
 10
-0.28494
 20
-1.30087
 30
0.0
  0
VERTEX
  5
1D0
100
AcDbEntity
  8
None
370
               5
390
0
  6
Continuous
 62
               7
100
AcDbVertex
100
AcDb2dVertex
 10
-0.39688
 20
-1.2788199999999998
 30
0.0
  0
VERTEX
  5
1D1
100
AcDbEntity
  8
None
370
               5
390
0
  6
Continuous
 62
               7
100
AcDbVertex
100
AcDb2dVertex
 10
-0.44097
 20
-1.1684899999999998
 30
0.0
  0
VERTEX
  5
1D2
100
AcDbEntity
  8
None
370
               5
390
0
  6
Continuous
 62
               7
100
AcDbVertex
100
AcDb2dVertex
 10
-0.5291699999999999
 20
-1.0142399999999998
 30
0.0
  0
VERTEX
  5
1D3
100
AcDbEntity
  8
None
370
               5
390
0
  6
Continuous
 62
               7
100
AcDbVertex
100
AcDb2dVertex
 10
-0.57327
 20
-0.8158
 30
0.0
  0
VERTEX
  5
1D4
100
AcDbEntity
  8
None
370
               5
390
0
  6
Continuous
 62
               7
100
AcDbVertex
100
AcDb2dVertex
 10
-0.59532
 20
-0.57327
 30
0.0
  0
VERTEX
  5
1D5
100
AcDbEntity
  8
None
370
               5
390
0
  6
Continuous
 62
               7
100
AcDbVertex
100
AcDb2dVertex
 10
-0.6614599999999999
 20
-0.44097
 30
0.0
  0
VERTEX
  5
1D6
100
AcDbEntity
  8
None
370
               5
390
0
  6
Continuous
 62
               7
100
AcDbVertex
100
AcDb2dVertex
 10
-0.7496499999999999
 20
-0.33073
 30
0.0
  0
VERTEX
  5
1D7
100
AcDbEntity
  8
None
370
               5
390
0
  6
Continuous
 62
               7
100
AcDbVertex
100
AcDb2dVertex
 10
-0.8378499999999999
 20
-0.25409
 30
0.0
  0
VERTEX
  5
1D8
100
AcDbEntity
  8
None
370
               5
390
0
  6
Continuous
 62
               7
100
AcDbVertex
100
AcDb2dVertex
 10
-0.92604
 20
-0.25409
 30
0.0
  0
VERTEX
  5
1D9
100
AcDbEntity
  8
None
370
               5
390
0
  6
Continuous
 62
               7
100
AcDbVertex
100
AcDb2dVertex
 10
-1.0362899999999999
 20
-0.30868
 30
0.0
  0
VERTEX
  5
1DA
100
AcDbEntity
  8
None
370
               5
390
0
  6
Continuous
 62
               7
100
AcDbVertex
100
AcDb2dVertex
 10
-1.1244799999999999
 20
-0.41892
 30
0.0
  0
VERTEX
  5
1DB
100
AcDbEntity
  8
None
370
               5
390
0
  6
Continuous
 62
               7
100
AcDbVertex
100
AcDb2dVertex
 10
-1.2788199999999998
 20
-0.6394099999999999
 30
0.0
  0
VERTEX
  5
1DC
100
AcDbEntity
  8
None
370
               5
390
0
  6
Continuous
 62
               7
100
AcDbVertex
100
AcDb2dVertex
 10
-1.4279399999999998
 20
-0.7716999999999999
 30
0.0
  0
VERTEX
  5
1DD
100
AcDbEntity
  8
None
370
               5
390
0
  6
Continuous
 62
               7
100
AcDbVertex
100
AcDb2dVertex
 10
-1.6692399999999998
 20
-1.0142399999999998
 30
0.0
  0
VERTEX
  5
1DE
100
AcDbEntity
  8
None
370
               5
390
0
  6
Continuous
 62
               7
100
AcDbVertex
100
AcDb2dVertex
 10
-1.7197899999999999
 20
-1.1024299999999998
 30
0.0
  0
VERTEX
  5
1DF
100
AcDbEntity
  8
None
370
               5
390
0
  6
Continuous
 62
               7
100
AcDbVertex
100
AcDb2dVertex
 10
-1.7197899999999999
 20
-1.2567699999999999
 30
0.0
  0
VERTEX
  5
1E0
100
AcDbEntity
  8
None
370
               5
390
0
  6
Continuous
 62
               7
100
AcDbVertex
100
AcDb2dVertex
 10
-1.7197899999999999
 20
-1.4111099999999999
 30
0.0
  0
VERTEX
  5
1E1
100
AcDbEntity
  8
None
370
               5
390
0
  6
Continuous
 62
               7
100
AcDbVertex
100
AcDb2dVertex
 10
-1.7197899999999999
 20
-1.4993099999999999
 30
0.0
  0
VERTEX
  5
1E2
100
AcDbEntity
  8
None
370
               5
390
0
  6
Continuous
 62
               7
100
AcDbVertex
100
AcDb2dVertex
 10
-1.6977399999999998
 20
-1.5654499999999998
 30
0.0
  0
SEQEND
  5
1E3
100
AcDbEntity
  8
None
370
               5
390
0
  6
Continuous
 62
               7
  0
POLYLINE
  5
1E4
100
AcDbEntity
  8
None
370
               5
390
0
  6
Continuous
 62
               7
100
AcDb2dPolyline
 66
               1
 10
0.0
 20
0.0
 30
0.0
 75
               5
  0
VERTEX
  5
1E5
100
AcDbEntity
  8
None
370
               5
390
0
  6
Continuous
 62
               7
100
AcDbVertex
100
AcDb2dVertex
 10
-1.7197899999999999
 20
-1.1410199999999999
 30
0.0
  0
VERTEX
  5
1E6
100
AcDbEntity
  8
None
370
               5
390
0
  6
Continuous
 62
               7
100
AcDbVertex
100
AcDb2dVertex
 10
-1.7197899999999999
 20
-1.4552099999999999
 30
0.0
  0
VERTEX
  5
1E7
100
AcDbEntity
  8
None
370
               5
390
0
  6
Continuous
 62
               7
100
AcDbVertex
100
AcDb2dVertex
 10
-1.7197899999999999
 20
-1.4772599999999998
 30
0.0
  0
VERTEX
  5
1E8
100
AcDbEntity
  8
None
370
               5
390
0
  6
Continuous
 62
               7
100
AcDbVertex
100
AcDb2dVertex
 10
-1.7142799999999998
 20
-1.5158399999999999
 30
0.0
  0
SEQEND
  5
1E9
100
AcDbEntity
  8
None
370
               5
390
0
  6
Continuous
 62
               7
  0
ENDBLK
  5
1EA
100
AcDbEntity
  8
None
390
0
100
AcDbBlockEnd
  0
BLOCK
  5
1EB
100
AcDbEntity
  8
None
390
0
100
AcDbBlockBegin
  2
©2006_address
 70
               0
 10
0.0
 20
0.0
 30
0.0
  3
©2006_address
  1

  0
MTEXT
  5
1EC
100
AcDbEntity
  8
None
390
0
 62
               7
100
AcDbMText
 10
0.0
 20
2.7477645770833359
 30
0.0
 40
0.9298981770833332
 41
36.738279999999996
 71
               2
 72
               1
  1
© 2007 IRONWOOD ELECTRONICS, INC.\P11351 Rupp Drive, Suite 400, Burnsville, MN 55337\PTele: (952) 229-8200\Pwww.ironwoodelectronics.com
  7
Arial
 73
               1
 44
0.9673603504928809
  0
ENDBLK
  5
1ED
100
AcDbEntity
  8
None
390
0
100
AcDbBlockEnd
  0
ENDSEC
  0
SECTION
  2
ENTITIES
  0
DIMENSION
  5
1EE
100
AcDbEntity
  8
Dimension
370
               9
390
0
  6
Continuous
 62
              12
100
AcDbDimension
  2
*D2
 10
-14.494449745190884
 20
68.408529210286204
 30
0.0
 11
-18.725549745190868
 21
68.408529210286204
 31
0.0
 70
             128
 71
               5
 72
               1
 41
1.0
 42
0.0
  3
IE Standard
100
AcDbAlignedDimension
 13
-15.744449745190867
 23
62.914599210286255
 33
0.0
 14
-14.494449745190884
 24
61.664599210286198
 34
0.0
100
AcDbRotatedDimension
1001
ACAD
1000
DSTYLE
1002
{
1070
             340
1005
3A
1070
              71
1070
               1
1070
              47
1040
0.125
1070
              48
1040
0.125
1070
               3
1000
<>mm (x4)
1070
             174
1070
               0
1070
             147
1040
0.09921875
1002
}
  0
DIMENSION
  5
1EF
100
AcDbEntity
  8
Dimension
370
               9
390
0
  6
Continuous
 62
              12
100
AcDbDimension
  2
*D3
 10
-18.924639745190884
 20
48.939599210286204
 30
0.0
 11
-18.924639745190884
 21
50.902115079426835
 31
0.0
 70
             128
 71
               5
 72
               1
 41
1.0
 42
0.0
  3
IE Standard
100
AcDbAlignedDimension
 13
-14.43424974519089
 23
54.019599210286202
 33
0.0
 14
-14.494449745190884
 24
48.939599210286204
 34
0.0
 50
90.0
100
AcDbRotatedDimension
1001
ACAD
1000
DSTYLE
1002
{
1070
             271
1070
               3
1070
             340
1005
3A
1070
             147
1040
0.09921875
1002
}
  0
DIMENSION
  5
1F0
100
AcDbEntity
  8
Dimension
370
               9
390
0
  6
Continuous
 62
              12
100
AcDbDimension
  2
*D4
 10
-15.744449745190867
 20
39.655989210286208
 30
0.0
 11
-7.7618718490727598
 21
39.655989210286208
 31
0.0
 70
             128
 71
               5
 72
               1
 41
1.0
 42
0.0
  3
IE Standard
100
AcDbAlignedDimension
 13
-0.5194497451909745
 23
47.689599210286204
 33
0.0
 14
-15.744449745190867
 24
47.689599210286204
 34
0.0
100
AcDbRotatedDimension
1001
ACAD
1000
DSTYLE
1002
{
1070
             271
1070
               3
1070
             340
1005
3A
1070
              71
1070
               1
1070
              47
1040
0.125
1070
              48
1040
0.125
1070
               3
1000
<>mm (x4)
1070
             147
1040
0.09921875
1002
}
  0
DIMENSION
  5
1F1
100
AcDbEntity
  8
Dimension
370
               9
390
0
  6
Continuous
 62
              12
100
AcDbDimension
  2
*D5
 10
-14.494449745190884
 20
41.482729210286209
 30
0.0
 11
-7.8954530105717913
 21
41.482729210286209
 31
0.0
 70
             128
 71
               5
 72
               1
 41
1.0
 42
0.0
  3
IE Standard
100
AcDbAlignedDimension
 13
-1.7694497451909745
 23
48.939599210286204
 33
0.0
 14
-14.494449745190884
 24
48.939599210286204
 34
0.0
100
AcDbRotatedDimension
1001
ACAD
1000
DSTYLE
1002
{
1070
             271
1070
               3
1070
             340
1005
3A
1070
               3
1000
<>mm (x4)
1070
             147
1040
0.09921875
1002
}
  0
DIMENSION
  5
1F2
100
AcDbEntity
  8
Dimension
370
               9
390
0
  6
Continuous
 62
              12
100
AcDbDimension
  2
*D6
 10
5.5352102548090256
 20
61.664599210286198
 30
0.0
 11
5.5352102548090256
 21
60.394599210286202
 31
0.0
 70
             128
 71
               5
 72
               1
 41
1.0
 42
0.0
  3
IE Standard
100
AcDbAlignedDimension
 13
-1.7694497451909745
 23
59.124599210286206
 33
0.0
 14
-1.7694497451909745
 24
61.664599210286198
 34
0.0
 50
90.0
100
AcDbRotatedDimension
1001
ACAD
1000
DSTYLE
1002
{
1070
             271
1070
               3
1070
             340
1005
3A
1070
             147
1040
0.09921875
1002
}
  0
DIMENSION
  5
1F3
100
AcDbEntity
  8
Dimension
370
               9
390
0
  6
Continuous
 62
              12
100
AcDbDimension
  2
*D7
 10
-5.5103497451909851
 20
54.857899210286206
 30
0.0
 11
4.9779145371711921
 21
50.951783055727546
 31
0.0
 70
               3
 71
               5
 72
               1
 41
1.0
 42
0.0
  3
IE Standard
100
AcDbDiametricDimension
 15
-5.2535497451909841
 25
54.74629921028621
 35
0.0
 40
9.5203399999999991
1001
ACAD
1000
DSTYLE
1002
{
1070
             172
1070
               0
1070
             289
1070
               0
1070
             342
1005
58
1070
             340
1005
3A
1070
              75
1070
               1
1070
              76
1070
               1
1070
               3
1000
mm pad
1070
             174
1070
               0
1070
             147
1040
0.09921875
1002
}
  0
DIMENSION
  5
1F4
100
AcDbEntity
  8
Dimension
370
               9
390
0
  6
Continuous
 62
              12
100
AcDbDimension
  2
*D8
 10
-18.924639745190884
 20
61.664599210286198
 30
0.0
 11
-18.924639745190884
 21
59.733349210286207
 31
0.0
 70
             128
 71
               5
 72
               1
 41
1.0
 42
0.0
  3
IE Standard
100
AcDbAlignedDimension
 13
-10.241949745190951
 23
57.802099210286201
 33
0.0
 14
-14.494449745190884
 24
61.664599210286198
 34
0.0
 50
90.0
100
AcDbRotatedDimension
1001
ACAD
1000
DSTYLE
1002
{
1070
             271
1070
               4
1070
             340
1005
3A
1070
             147
1040
0.09921875
1002
}
  0
DIMENSION
  5
1F5
100
AcDbEntity
  8
Dimension
370
               9
390
0
  6
Continuous
 62
              12
100
AcDbDimension
  2
*D9
 10
-10.381949745190948
 20
43.562099210286206
 30
0.0
 11
-7.8819497451909664
 21
43.562099210286206
 31
0.0
 70
             128
 71
               5
 72
               1
 41
1.0
 42
0.0
  3
IE Standard
100
AcDbAlignedDimension
 13
-5.3819497451909841
 23
52.802099210286201
 33
0.0
 14
-10.381949745190948
 24
52.802099210286201
 34
0.0
100
AcDbRotatedDimension
1001
ACAD
1000
DSTYLE
1002
{
1070
             340
1005
3A
1070
             147
1040
0.09921875
1002
}
  0
DIMENSION
  5
1F6
100
AcDbEntity
  8
Dimension
370
               9
390
0
  6
Continuous
 62
              12
100
AcDbDimension
  2
*D10
 10
-10.381949745190948
 20
67.119219210286204
 30
0.0
 11
-8.198779745190949
 21
67.119219210286204
 31
0.0
 70
             128
 71
               5
 72
               1
 41
1.0
 42
0.0
  3
IE Standard
100
AcDbAlignedDimension
 13
-14.494449745190884
 23
61.664599210286198
 33
0.0
 14
-10.381949745190948
 24
57.802099210286201
 34
0.0
100
AcDbRotatedDimension
1001
ACAD
1000
DSTYLE
1002
{
1070
             271
1070
               4
1070
             340
1005
3A
1070
               3
1000
*<>mm
1070
             174
1070
               0
1070
             147
1040
0.09921875
1002
}
  0
DIMENSION
  5
1F7
100
AcDbEntity
  8
Dimension
370
               9
390
0
  6
Continuous
 62
              12
100
AcDbDimension
  2
*D11
 10
-6.8819497451909823
 20
65.190639210286207
 30
0.0
 11
-4.5907897451909845
 21
65.190639210286207
 31
0.0
 70
             128
 71
               5
 72
               1
 41
1.0
 42
0.0
  3
IE Standard
100
AcDbAlignedDimension
 13
-6.3819497451909841
 23
57.802099210286201
 33
0.0
 14
-6.8819497451909823
 24
57.802099210286201
 34
0.0
100
AcDbRotatedDimension
1001
ACAD
1000
DSTYLE
1002
{
1070
             340
1005
3A
1070
               3
1000
<>mm typ.
1070
             174
1070
               0
1070
             147
1040
0.09921875
1002
}
  0
DIMENSION
  5
1F8
100
AcDbEntity
  8
Dimension
370
               9
390
0
  6
Continuous
 62
              12
100
AcDbDimension
  2
*D12
 10
-2.1489997451909755
 20
59.315829210286211
 30
0.0
 11
4.6180531886859226
 21
56.662110053767279
 31
0.0
 70
               3
 71
               5
 72
               1
 41
1.0
 42
0.0
  3
IE Standard
100
AcDbDiametricDimension
 15
-1.3898997451909745
 25
58.933369210286202
 35
0.0
 40
5.0477999999999996
1001
ACAD
1000
DSTYLE
1002
{
1070
             271
1070
               3
1070
             172
1070
               0
1070
             289
1070
               0
1070
             342
1005
58
1070
             340
1005
3A
1070
              75
1070
               1
1070
              76
1070
               1
1070
              71
1070
               1
1070
              47
1040
0.025
1070
              48
1040
0.025
1070
               3
1000
mm (x2)
1070
             174
1070
               0
1070
             147
1040
0.09921875
1002
}
  0
DIMENSION
  5
1F9
100
AcDbEntity
  8
Dimension
370
               9
390
0
  6
Continuous
 62
              12
100
AcDbDimension
  2
*D13
 10
-2.623535604986782
 20
49.277789210286201
 30
0.0
 11
4.0944757069461355
 21
46.862106660446869
 31
0.0
 70
               3
 71
               5
 72
               1
 41
1.0
 42
0.0
  3
IE Standard
100
AcDbDiametricDimension
 15
-1.1625156049867824
 25
48.601409210286207
 35
0.0
 40
4.1400699999999997
1001
ACAD
1000
DSTYLE
1002
{
1070
             172
1070
               0
1070
             289
1070
               0
1070
             342
1005
58
1070
             340
1005
3A
1070
              75
1070
               1
1070
              76
1070
               1
1070
              71
1070
               1
1070
              47
1040
0.05
1070
              48
1040
0.05
1070
               3
1000
mm (x4)
1070
             174
1070
               0
1070
             147
1040
0.09921875
1002
}
  0
DIMENSION
  5
1FA
100
AcDbEntity
  8
Dimension
370
               9
390
0
  6
Continuous
 62
              12
100
AcDbDimension
  2
*D14
 10
-21.856579745190949
 20
57.802099210286201
 30
0.0
 11
-21.856579745190949
 21
55.105642301106514
 31
0.0
 70
             128
 71
               5
 72
               1
 41
1.0
 42
0.0
  3
IE Standard
100
AcDbAlignedDimension
 13
-10.381949745190948
 23
52.802099210286201
 33
0.0
 14
-10.381949745190948
 24
57.802099210286201
 34
0.0
 50
90.0
100
AcDbRotatedDimension
1001
ACAD
1000
DSTYLE
1002
{
1070
             340
1005
3A
1070
             147
1040
0.09921875
1002
}
  0
DIMENSION
  5
1FB
100
AcDbEntity
  8
Dimension
370
               9
390
0
  6
Continuous
 62
              12
100
AcDbDimension
  2
*D15
 10
-16.994449745190849
 20
37.739839210286206
 30
0.0
 11
-8.1319497451909122
 21
37.739839210286206
 31
0.0
 71
               5
 72
               1
 41
1.0
 42
0.0
  3
IE Standard
100
AcDbAlignedDimension
 13
0.7305502548090255
 23
46.439599210286204
 33
0.0
 14
-16.994449745190849
 24
46.439599210286204
 34
0.0
100
AcDbRotatedDimension
1001
ACAD
1000
DSTYLE
1002
{
1070
             340
1005
3A
1070
               3
1000
<>mm sqr.
1070
             147
1040
0.09921875
1002
}
  0
DIMENSION
  5
1FC
100
AcDbEntity
  8
Dimension
370
               9
390
0
  6
Continuous
 62
              12
100
AcDbDimension
  2
*D16
 10
-21.856579745190867
 20
62.914599210286255
 30
0.0
 11
-21.856579745190867
 21
65.352099210286255
 31
0.0
 70
             128
 71
               5
 72
               1
 41
1.0
 42
0.0
  3
IE Standard
100
AcDbAlignedDimension
 13
-14.494449745190884
 23
61.664599210286198
 33
0.0
 14
-15.744449745190867
 24
62.914599210286255
 34
0.0
 50
90.0
100
AcDbRotatedDimension
1001
ACAD
1000
DSTYLE
1002
{
1070
             340
1005
3A
1070
              71
1070
               1
1070
              47
1040
0.125
1070
              48
1040
0.125
1070
               3
1000
<>mm (x4)
1070
             174
1070
               0
1070
             147
1040
0.09921875
1002
}
  0
CIRCLE
  5
1FD
102
{ACAD_REACTORS
330
1FE
102
}
100
AcDbEntity
  8
None
370
               9
390
0
  6
Continuous
 62
             180
100
AcDbCircle
 10
-12.792529745190912
 20
61.962099210286212
 30
0.0
 40
0.2500014851955901
  0
HATCH
  5
1FE
100
AcDbEntity
  8
None
370
               0
390
0
  6
Continuous
 62
             180
100
AcDbHatch
 10
0.0
 20
0.0
 30
0.0
210
0.0
220
0.0
230
1.0
  2
SOLID
 70
               1
 71
               1
 91
        1
 92
        1
 93
        1
 72
               2
 10
-12.792529745190912
 20
61.962099210286212
 40
0.2500014851955901
 50
0.0
 51
360.0
 73
               0
 97
        1
330
1FD
 75
               0
 76
               1
 98
        1
 10
0.0
 20
0.0
  0
CIRCLE
  5
1FF
100
AcDbEntity
  8
None
370
               9
390
0
  6
Continuous
 62
               7
100
AcDbCircle
 10
-14.494449745190884
 20
61.664599210286198
 30
0.0
 40
0.8049999999999873
  0
CIRCLE
  5
200
100
AcDbEntity
  8
None
370
               9
390
0
  6
Continuous
 62
               7
100
AcDbCircle
 10
-1.7694497451909745
 20
48.939599210286204
 30
0.0
 40
0.8050000000000024
  0
CIRCLE
  5
201
100
AcDbEntity
  8
None
370
               9
390
0
  6
Continuous
 62
               7
100
AcDbCircle
 10
-14.494449745190884
 20
48.939599210286204
 30
0.0
 40
0.8049999999999873
  0
CIRCLE
  5
202
100
AcDbEntity
  8
None
370
               9
390
0
  6
Continuous
 62
               7
100
AcDbCircle
 10
-1.7694497451909745
 20
61.664599210286198
 30
0.0
 40
0.8050000000000024
  0
CIRCLE
  5
203
100
AcDbEntity
  8
None
370
               9
390
0
  6
Continuous
 62
               7
100
AcDbCircle
 10
-1.7694497451909745
 20
59.124599210286206
 30
0.0
 40
0.4250000000000007
  0
CIRCLE
  5
204
100
AcDbEntity
  8
None
370
               9
390
0
  6
Continuous
 62
               7
100
AcDbCircle
 10
-14.494449745190884
 20
54.019599210286202
 30
0.0
 40
0.4249999999999901
  0
POLYLINE
  5
205
100
AcDbEntity
  8
None
370
               9
390
0
  6
STYLE_12
 62
               7
100
AcDb2dPolyline
 66
               1
 10
0.0
 20
0.0
 30
0.0
 70
               1
 75
               5
  0
VERTEX
  5
206
100
AcDbEntity
  8
None
370
               9
390
0
  6
STYLE_12
 62
               7
100
AcDbVertex
100
AcDb2dVertex
 10
-16.994449745190849
 20
64.164599210286326
 30
0.0
  0
VERTEX
  5
207
100
AcDbEntity
  8
None
370
               9
390
0
  6
STYLE_12
 62
               7
100
AcDbVertex
100
AcDb2dVertex
 10
0.7305502548090255
 20
64.164599210286326
 30
0.0
  0
VERTEX
  5
208
100
AcDbEntity
  8
None
370
               9
390
0
  6
STYLE_12
 62
               7
100
AcDbVertex
100
AcDb2dVertex
 10
0.7305502548090255
 20
46.439599210286204
 30
0.0
  0
VERTEX
  5
209
100
AcDbEntity
  8
None
370
               9
390
0
  6
STYLE_12
 62
               7
100
AcDbVertex
100
AcDb2dVertex
 10
-16.994449745190849
 20
46.439599210286204
 30
0.0
  0
SEQEND
  5
20A
100
AcDbEntity
  8
None
370
               9
390
0
  6
STYLE_12
 62
               7
  0
INSERT
  5
20B
100
AcDbEntity
  8
None
390
0
 62
               7
100
AcDbBlockReference
  2
Group
 10
-5.3611399999999998
 20
26.104589999999984
 30
0.0
  0
INSERT
  5
20C
100
AcDbEntity
  8
None
390
0
 62
               7
100
AcDbBlockReference
  2
Group-1
 10
-5.3611399999999998
 20
26.104589999999984
 30
0.0
  0
INSERT
  5
20D
100
AcDbEntity
  8
None
390
0
 62
               7
100
AcDbBlockReference
  2
Group-3
 10
-5.3611399999999998
 20
26.104589999999984
 30
0.0
  0
WIPEOUT
  5
20E
100
AcDbEntity
  8
None
370
               9
390
0
  6
Continuous
 62
              12
 92
        0
100
AcDbWipeout
 90
        0
 10
-33.953919745190845
 20
19.871690847651792
 30
0.0
 11
4.9901799999999987
 21
0.0
 31
0.0
 12
0.0
 22
4.9901799999999987
 32
0.0
 13
1.0
 23
1.0
340
0
 70
               7
280
               1
281
              50
282
              50
283
               0
360
0
 71
               2
 91
        5
 14
-0.5
 24
-5.8055300610398799
 14
0.5
 24
-5.8055300610398799
 14
0.5
 24
-6.2391219434970271
 14
-0.5
 24
-6.2391219434970271
 14
-0.5
 24
-5.8055300610398799
  0
MTEXT
  5
20F
100
AcDbEntity
  8
None
390
0
 62
              12
100
AcDbMText
 10
-33.953919745190845
 20
53.328163455672609
 30
0.0
 40
0.6737068880208333
 41
4.9901799999999996
 71
               1
 72
               1
  1
Socket Body Size
  7
New Century Schlbk
 73
               1
 44
0.9673603504928808
  0
LINE
  5
210
100
AcDbEntity
  8
None
370
               9
390
0
  6
Continuous
 62
              12
100
AcDbLine
 10
-32.013509745190845
 20
51.439411018570652
 30
0.0
 11
-28.639139745190846
 21
48.06503101857065
 31
0.0
  0
LINE
  5
211
100
AcDbEntity
  8
None
370
               9
390
0
  6
Continuous
 62
              12
100
AcDbLine
 10
-28.639139745190846
 20
48.06503101857065
 30
0.0
 11
-15.744449745190867
 21
48.06503101857065
 31
0.0
  0
SOLID
  5
212
100
AcDbEntity
  8
None
370
               9
390
0
 62
              12
100
AcDbTrace
 10
-15.744449745190867
 20
48.06503101857065
 30
0.0
 11
-16.538199745190866
 21
47.852346347078445
 31
0.0
 12
-16.538199745190866
 22
48.277715690062855
 32
0.0
 13
-16.538199745190866
 23
48.277715690062855
 33
0.0
  0
WIPEOUT
  5
213
100
AcDbEntity
  8
None
370
               9
390
0
  6
Continuous
 62
              12
 92
        0
100
AcDbWipeout
 90
        0
 10
3.9474302548090252
 20
13.828748440286223
 30
0.0
 11
10.77147053612603
 21
0.0
 31
0.0
 12
0.0
 22
10.77147053612603
 32
0.0
 13
1.0
 23
1.0
340
0
 70
               7
280
               1
281
              50
282
              50
283
               0
360
0
 71
               2
 91
        5
 14
-0.5
 24
-2.4212102372158246
 14
0.5000000000000002
 24
-2.4212102372158246
 14
0.5000000000000002
 24
-2.5216469200597889
 14
-0.5
 24
-2.5216469200597889
 14
-0.5
 24
-2.4212102372158246
  0
MTEXT
  5
214
100
AcDbEntity
  8
None
390
0
 62
              12
100
AcDbMText
 10
3.9474302548090252
 20
46.203370278307034
 30
0.0
 40
0.6737068880208333
 41
0.0
 71
               1
 72
               1
  1
Non plated mounting hole
  7
Arial
 73
               1
 44
0.9673603504928808
  0
WIPEOUT
  5
215
100
AcDbEntity
  8
None
370
               9
390
0
  6
Continuous
 62
              12
 92
        0
100
AcDbWipeout
 90
        0
 10
4.6659202548090244
 20
23.728748440286228
 30
0.0
 11
10.97843330171373
 21
0.0
 31
0.0
 12
0.0
 22
10.97843330171373
 32
0.0
 13
1.0
 23
1.0
340
0
 70
               7
280
               1
281
              50
282
              50
283
               0
360
0
 71
               2
 91
        5
 14
-0.5
 24
-2.3661402893515042
 14
0.5000000000000002
 24
-2.3661402893515042
 14
0.5000000000000002
 24
-2.4646835641766218
 14
-0.5
 24
-2.4646835641766218
 14
-0.5
 24
-2.3661402893515042
  0
MTEXT
  5
216
100
AcDbEntity
  8
None
390
0
 62
              12
100
AcDbMText
 10
4.6659202548090244
 20
56.10337027830704
 30
0.0
 40
0.6737068880208333
 41
0.0
 71
               1
 72
               1
  1
Non plated alignment hole
  7
Arial
 73
               1
 44
0.9673603504928808
  0
WIPEOUT
  5
217
100
AcDbEntity
  8
None
370
               9
390
0
  6
Continuous
 62
              12
 92
        0
100
AcDbWipeout
 90
        0
 10
-29.024069745190843
 20
38.961638440286762
 30
0.0
 11
6.9708815680609817
 21
0.0
 31
0.0
 12
0.0
 22
6.9708815680609817
 32
0.0
 13
1.0
 23
1.0
340
0
 70
               7
280
               1
281
              50
282
              50
283
               0
360
0
 71
               2
 91
        5
 14
-0.5
 24
-4.0138810196071768
 14
0.5
 24
-4.0138810196071768
 14
0.5
 24
-4.169076708909488
 14
-0.5
 24
-4.169076708909488
 14
-0.5
 24
-4.0138810196071768
  0
MTEXT
  5
218
100
AcDbEntity
  8
None
390
0
 62
              12
100
AcDbMText
 10
-29.024069745190843
 20
71.336260278307577
 30
0.0
 40
0.6737068880208333
 41
0.0
 71
               1
 72
               1
  1
Orientation Mark
  7
New Century Schlbk
 73
               1
 44
0.9673603504928808
  0
LINE
  5
219
100
AcDbEntity
  8
None
370
               9
390
0
  6
Continuous
 62
              12
100
AcDbLine
 10
-12.792529745190912
 20
61.962099210286212
 30
0.0
 11
-19.038899745190822
 21
71.002099210286715
 31
0.0
  0
SOLID
  5
21A
100
AcDbEntity
  8
None
370
               9
390
0
 62
              12
100
AcDbTrace
 10
-12.792529745190912
 20
61.962099210286212
 30
0.0
 11
-13.412712696094381
 21
62.501216024526329
 31
0.0
 12
-13.060065528547256
 22
62.739079542477228
 32
0.0
 13
-13.060065528547256
 23
62.739079542477228
 33
0.0
  0
LINE
  5
21B
100
AcDbEntity
  8
None
370
               9
390
0
  6
Continuous
 62
              12
100
AcDbLine
 10
-19.038899745190822
 20
71.002099210286715
 30
0.0
 11
-22.488899745190842
 21
71.002099210286715
 31
0.0
  0
WIPEOUT
  5
21C
100
AcDbEntity
  8
None
370
               9
390
0
  6
Continuous
 62
              12
 92
        0
100
AcDbWipeout
 90
        0
 10
-12.071889745190923
 20
4.6851484402860892
 30
0.0
 11
8.6077688958909757
 21
0.0
 31
0.0
 12
0.0
 22
8.6077688958909757
 32
0.0
 13
1.0
 23
1.0
340
0
 70
               7
280
               1
281
              50
282
              50
283
               0
360
0
 71
               2
 91
        5
 14
-0.5
 24
-3.1555035782873464
 14
0.4999999999999998
 24
-3.1555035782873464
 14
0.4999999999999998
 24
-3.2811866423989344
 14
-0.5
 24
-3.2811866423989344
 14
-0.5
 24
-3.1555035782873464
  0
MTEXT
  5
21D
100
AcDbEntity
  8
None
390
0
 62
              12
100
AcDbMText
 10
-12.071889745190923
 20
37.059770278306907
 30
0.0
 40
0.6737068880208333
 41
0.0
 71
               1
 72
               1
  1
backing plate outline
  7
Arial
 73
               1
 44
0.9673603504928808
  0
WIPEOUT
  5
21E
100
AcDbEntity
  8
None
370
               9
390
0
  6
Continuous
 62
               7
 92
        0
100
AcDbWipeout
 90
        0
 10
16.18966
 20
-6.0354327127079586
 30
0.0
 11
8.8900002691480822
 21
0.0
 31
0.0
 12
0.0
 22
8.8900002691480822
 32
0.0
 13
1.0
 23
1.0
340
0
 70
               7
280
               1
281
              50
282
              50
283
               0
360
0
 71
               2
 91
        5
 14
-0.5
 24
-3.0394520863175751
 14
0.5
 24
-3.0394520863175751
 14
0.5
 24
-3.2448092229574534
 14
-0.5
 24
-3.2448092229574534
 14
-0.5
 24
-3.0394520863175751
  0
MTEXT
  5
21F
100
AcDbEntity
  8
None
390
0
 62
               7
100
AcDbMText
 10
16.18966
 20
26.964053797708694
 30
0.0
 40
1.1368815104166665
 41
0.0
 71
               1
 72
               1
  1
PAGE 2 of 4
  7
Arial
 73
               1
 44
0.9673603504928806
  0
MTEXT
  5
220
100
AcDbEntity
  8
None
390
0
 62
               7
100
AcDbMText
 10
12.909365000000001
 20
30.323626407957033
 30
0.0
 40
0.5204840494791666
 41
14.730064999999998
 71
               1
 72
               1
  1
Recommended PCB Layout Tolerances:  ±0.025mm [±0.001"] unless stated otherwise.\P
  7
Helvetica
 73
               1
 44
0.9673603504928806
  0
MTEXT
  5
221
100
AcDbEntity
  8
None
390
0
 62
               7
100
AcDbMText
 10
-36.949734999999997
 20
73.428393835937484
 30
0.0
 40
0.6124443359374999
 41
11.826889999999999
 71
               1
 72
               1
  1
{\LRecommended PCB Layout Top View}\P
  7
Helvetica
 73
               1
 44
0.9673603504928809
  0
WIPEOUT
  5
222
100
AcDbEntity
  8
None
370
              15
390
0
  6
Continuous
 62
               1
 92
        0
100
AcDbWipeout
 90
        0
 10
-35.373384999999999
 20
-5.2420878559291992
 30
0.0
 11
17.851437822977701
 21
0.0
 31
0.0
 12
0.0
 22
17.851437822977701
 32
0.0
 13
1.0
 23
1.0
340
0
 70
               7
280
               1
281
              50
282
              50
283
               0
360
0
 71
               2
 91
        5
 14
-0.5
 24
-1.262644012881611
 14
0.5000000000000002
 24
-1.262644012881611
 14
0.5000000000000002
 24
-1.4671793582250683
 14
-0.5
 24
-1.4671793582250683
 14
-0.5
 24
-1.262644012881611
  0
MTEXT
  5
223
100
AcDbEntity
  8
None
390
0
 62
               1
100
AcDbMText
 10
-35.373384999999999
 20
29.728957899279116
 30
0.0
 40
0.5684407552083333
 41
0.0
 71
               1
 72
               1
  1
{\LTarget PCB Recommendations}\PTotal thickness: 1.6mm min.\PPlating: Gold or Solder finish\PPCB Pad height: Same or higher than solder mask
  7
Arial
 73
               1
 44
0.9673603504928806
  0
WIPEOUT
  5
224
100
AcDbEntity
  8
Dimension
370
               5
390
0
  6
Continuous
 62
               7
 92
        0
100
AcDbWipeout
 90
        0
 10
-13.15232
 20
-2.740147855929199
 30
0.0
 11
10.634029999999999
 21
0.0
 31
0.0
 12
0.0
 22
10.634029999999999
 32
0.0
 13
1.0
 23
1.0
340
0
 70
               7
280
               1
281
              50
282
              50
283
               0
360
0
 71
               2
 91
        5
 14
-0.5
 24
-2.6182016601420148
 14
0.5
 24
-2.6182016601420148
 14
0.5
 24
-2.4589656978586656
 14
-0.5
 24
-2.4589656978586656
 14
-0.5
 24
-2.6182016601420148
  0
POLYLINE
  5
225
100
AcDbEntity
  8
Dimension
370
               5
390
0
  6
Continuous
 62
               7
100
AcDb2dPolyline
 66
               1
 10
0.0
 20
0.0
 30
0.0
 70
               1
 75
               5
  0
VERTEX
  5
226
100
AcDbEntity
  8
Dimension
370
               5
390
0
  6
Continuous
 62
               7
100
AcDbVertex
100
AcDb2dVertex
 10
-13.15232
 20
30.418902144070785
 30
0.0
  0
VERTEX
  5
227
100
AcDbEntity
  8
Dimension
370
               5
390
0
  6
Continuous
 62
               7
100
AcDbVertex
100
AcDb2dVertex
 10
-2.5182899999999999
 20
30.418902144070785
 30
0.0
  0
VERTEX
  5
228
100
AcDbEntity
  8
Dimension
370
               5
390
0
  6
Continuous
 62
               7
100
AcDbVertex
100
AcDb2dVertex
 10
-2.5182899999999999
 20
28.725582144070785
 30
0.0
  0
VERTEX
  5
229
100
AcDbEntity
  8
Dimension
370
               5
390
0
  6
Continuous
 62
               7
100
AcDbVertex
100
AcDb2dVertex
 10
-13.15232
 20
28.725582144070785
 30
0.0
  0
SEQEND
  5
22A
100
AcDbEntity
  8
Dimension
370
               5
390
0
  6
Continuous
 62
               7
  0
WIPEOUT
  5
22B
100
AcDbEntity
  8
Dimension
370
               5
390
0
  6
Continuous
 62
               7
 92
        0
100
AcDbWipeout
 90
        0
 10
-2.5182899999999999
 20
-2.740147855929199
 30
0.0
 11
7.4317249999999984
 21
0.0
 31
0.0
 12
0.0
 22
7.4317249999999984
 32
0.0
 13
1.0
 23
1.0
340
0
 70
               7
280
               1
281
              50
282
              50
283
               0
360
0
 71
               2
 91
        5
 14
-0.5
 24
-3.9618241390794191
 14
0.5
 24
-3.9618241390794191
 14
0.5
 24
-3.7339739427925531
 14
-0.5
 24
-3.7339739427925531
 14
-0.5
 24
-3.9618241390794191
  0
POLYLINE
  5
22C
100
AcDbEntity
  8
Dimension
370
               5
390
0
  6
Continuous
 62
               7
100
AcDb2dPolyline
 66
               1
 10
0.0
 20
0.0
 30
0.0
 70
               1
 75
               5
  0
VERTEX
  5
22D
100
AcDbEntity
  8
Dimension
370
               5
390
0
  6
Continuous
 62
               7
100
AcDbVertex
100
AcDb2dVertex
 10
-2.5182899999999999
 20
30.418902144070785
 30
0.0
  0
VERTEX
  5
22E
100
AcDbEntity
  8
Dimension
370
               5
390
0
  6
Continuous
 62
               7
100
AcDbVertex
100
AcDb2dVertex
 10
4.9134349999999989
 20
30.418902144070785
 30
0.0
  0
VERTEX
  5
22F
100
AcDbEntity
  8
Dimension
370
               5
390
0
  6
Continuous
 62
               7
100
AcDbVertex
100
AcDb2dVertex
 10
4.9134349999999989
 20
28.725582144070785
 30
0.0
  0
VERTEX
  5
230
100
AcDbEntity
  8
Dimension
370
               5
390
0
  6
Continuous
 62
               7
100
AcDbVertex
100
AcDb2dVertex
 10
-2.5182899999999999
 20
28.725582144070785
 30
0.0
  0
SEQEND
  5
231
100
AcDbEntity
  8
Dimension
370
               5
390
0
  6
Continuous
 62
               7
  0
WIPEOUT
  5
232
100
AcDbEntity
  8
Dimension
370
               5
390
0
  6
Continuous
 62
               7
 92
        0
100
AcDbWipeout
 90
        0
 10
4.9134349999999989
 20
-2.740147855929199
 30
0.0
 11
7.4421999999999997
 21
0.0
 31
0.0
 12
0.0
 22
7.4421999999999997
 32
0.0
 13
1.0
 23
1.0
340
0
 70
               7
280
               1
281
              50
282
              50
283
               0
360
0
 71
               2
 91
        5
 14
-0.5
 24
-3.9555440595522811
 14
0.5000000000000002
 24
-3.9555440595522811
 14
0.5000000000000002
 24
-3.7280145655854433
 14
-0.5
 24
-3.7280145655854433
 14
-0.5
 24
-3.9555440595522811
  0
POLYLINE
  5
233
100
AcDbEntity
  8
Dimension
370
               5
390
0
  6
Continuous
 62
               7
100
AcDb2dPolyline
 66
               1
 10
0.0
 20
0.0
 30
0.0
 70
               1
 75
               5
  0
VERTEX
  5
234
100
AcDbEntity
  8
Dimension
370
               5
390
0
  6
Continuous
 62
               7
100
AcDbVertex
100
AcDb2dVertex
 10
4.9134349999999989
 20
30.418902144070785
 30
0.0
  0
VERTEX
  5
235
100
AcDbEntity
  8
Dimension
370
               5
390
0
  6
Continuous
 62
               7
100
AcDbVertex
100
AcDb2dVertex
 10
12.355634999999999
 20
30.418902144070785
 30
0.0
  0
VERTEX
  5
236
100
AcDbEntity
  8
Dimension
370
               5
390
0
  6
Continuous
 62
               7
100
AcDbVertex
100
AcDb2dVertex
 10
12.355634999999999
 20
28.725582144070785
 30
0.0
  0
VERTEX
  5
237
100
AcDbEntity
  8
Dimension
370
               5
390
0
  6
Continuous
 62
               7
100
AcDbVertex
100
AcDb2dVertex
 10
4.9134349999999989
 20
28.725582144070785
 30
0.0
  0
SEQEND
  5
238
100
AcDbEntity
  8
Dimension
370
               5
390
0
  6
Continuous
 62
               7
  0
WIPEOUT
  5
239
100
AcDbEntity
  8
Dimension
370
               5
390
0
  6
Continuous
 62
               7
 92
        0
100
AcDbWipeout
 90
        0
 10
-13.15232
 20
-4.4335028559291985
 30
0.0
 11
13.623099999999997
 21
0.0
 31
0.0
 12
0.0
 22
13.623099999999997
 32
0.0
 13
1.0
 23
1.0
340
0
 70
               7
280
               1
281
              50
282
              50
283
               0
360
0
 71
               2
 91
        5
 14
-0.5
 24
-1.9340337368146745
 14
0.5000000000000002
 24
-1.9340337368146745
 14
0.5000000000000002
 24
-1.8097334674193091
 14
-0.5
 24
-1.8097334674193091
 14
-0.5
 24
-1.9340337368146745
  0
POLYLINE
  5
23A
100
AcDbEntity
  8
Dimension
370
               5
390
0
  6
Continuous
 62
               7
100
AcDb2dPolyline
 66
               1
 10
0.0
 20
0.0
 30
0.0
 70
               1
 75
               5
  0
VERTEX
  5
23B
100
AcDbEntity
  8
Dimension
370
               5
390
0
  6
Continuous
 62
               7
100
AcDbVertex
100
AcDb2dVertex
 10
-13.15232
 20
28.725582144070785
 30
0.0
  0
VERTEX
  5
23C
100
AcDbEntity
  8
Dimension
370
               5
390
0
  6
Continuous
 62
               7
100
AcDbVertex
100
AcDb2dVertex
 10
0.4707799999999995
 20
28.725582144070785
 30
0.0
  0
VERTEX
  5
23D
100
AcDbEntity
  8
Dimension
370
               5
390
0
  6
Continuous
 62
               7
100
AcDbVertex
100
AcDb2dVertex
 10
0.4707799999999995
 20
27.032227144070784
 30
0.0
  0
VERTEX
  5
23E
100
AcDbEntity
  8
Dimension
370
               5
390
0
  6
Continuous
 62
               7
100
AcDbVertex
100
AcDb2dVertex
 10
-13.15232
 20
27.032227144070784
 30
0.0
  0
SEQEND
  5
23F
100
AcDbEntity
  8
Dimension
370
               5
390
0
  6
Continuous
 62
               7
  0
WIPEOUT
  5
240
100
AcDbEntity
  8
Dimension
370
               5
390
0
  6
Continuous
 62
               7
 92
        0
100
AcDbWipeout
 90
        0
 10
0.4707799999999995
 20
-4.4335028559291985
 30
0.0
 11
11.884854999999998
 21
0.0
 31
0.0
 12
0.0
 22
11.884854999999998
 32
0.0
 13
1.0
 23
1.0
340
0
 70
               7
280
               1
281
              50
282
              50
283
               0
360
0
 71
               2
 91
        5
 14
-0.5
 24
-2.2900285699741385
 14
0.5000000000000002
 24
-2.2900285699741385
 14
0.5000000000000002
 24
-2.147548497646794
 14
-0.5
 24
-2.147548497646794
 14
-0.5
 24
-2.2900285699741385
  0
POLYLINE
  5
241
100
AcDbEntity
  8
Dimension
370
               5
390
0
  6
Continuous
 62
               7
100
AcDb2dPolyline
 66
               1
 10
0.0
 20
0.0
 30
0.0
 70
               1
 75
               5
  0
VERTEX
  5
242
100
AcDbEntity
  8
Dimension
370
               5
390
0
  6
Continuous
 62
               7
100
AcDbVertex
100
AcDb2dVertex
 10
0.4707799999999995
 20
28.725582144070785
 30
0.0
  0
VERTEX
  5
243
100
AcDbEntity
  8
Dimension
370
               5
390
0
  6
Continuous
 62
               7
100
AcDbVertex
100
AcDb2dVertex
 10
12.355634999999999
 20
28.725582144070785
 30
0.0
  0
VERTEX
  5
244
100
AcDbEntity
  8
Dimension
370
               5
390
0
  6
Continuous
 62
               7
100
AcDbVertex
100
AcDb2dVertex
 10
12.355634999999999
 20
27.032227144070784
 30
0.0
  0
VERTEX
  5
245
100
AcDbEntity
  8
Dimension
370
               5
390
0
  6
Continuous
 62
               7
100
AcDbVertex
100
AcDb2dVertex
 10
0.4707799999999995
 20
27.032227144070784
 30
0.0
  0
SEQEND
  5
246
100
AcDbEntity
  8
Dimension
370
               5
390
0
  6
Continuous
 62
               7
  0
WIPEOUT
  5
247
100
AcDbEntity
  8
Dimension
370
               5
390
0
  6
Continuous
 62
               7
 92
        0
100
AcDbWipeout
 90
        0
 10
0.4707799999999995
 20
-6.1268278559291982
 30
0.0
 11
11.884854999999998
 21
0.0
 31
0.0
 12
0.0
 22
11.884854999999998
 32
0.0
 13
1.0
 23
1.0
340
0
 70
               7
280
               1
281
              50
282
              50
283
               0
360
0
 71
               2
 91
        5
 14
-0.5
 24
-2.2900260457531862
 14
0.5000000000000002
 24
-2.2900260457531862
 14
0.5000000000000002
 24
-2.1475484976467945
 14
-0.5
 24
-2.1475484976467945
 14
-0.5
 24
-2.2900260457531862
  0
POLYLINE
  5
248
100
AcDbEntity
  8
Dimension
370
               5
390
0
  6
Continuous
 62
               7
100
AcDb2dPolyline
 66
               1
 10
0.0
 20
0.0
 30
0.0
 70
               1
 75
               5
  0
VERTEX
  5
249
100
AcDbEntity
  8
Dimension
370
               5
390
0
  6
Continuous
 62
               7
100
AcDbVertex
100
AcDb2dVertex
 10
0.4707799999999995
 20
27.032227144070784
 30
0.0
  0
VERTEX
  5
24A
100
AcDbEntity
  8
Dimension
370
               5
390
0
  6
Continuous
 62
               7
100
AcDbVertex
100
AcDb2dVertex
 10
12.355634999999999
 20
27.032227144070784
 30
0.0
  0
VERTEX
  5
24B
100
AcDbEntity
  8
Dimension
370
               5
390
0
  6
Continuous
 62
               7
100
AcDbVertex
100
AcDb2dVertex
 10
12.355634999999999
 20
25.338902144070786
 30
0.0
  0
VERTEX
  5
24C
100
AcDbEntity
  8
Dimension
370
               5
390
0
  6
Continuous
 62
               7
100
AcDbVertex
100
AcDb2dVertex
 10
0.4707799999999995
 20
25.338902144070786
 30
0.0
  0
SEQEND
  5
24D
100
AcDbEntity
  8
Dimension
370
               5
390
0
  6
Continuous
 62
               7
  0
WIPEOUT
  5
24E
100
AcDbEntity
  8
Dimension
370
               5
390
0
  6
Continuous
 62
               7
 92
        0
100
AcDbWipeout
 90
        0
 10
-13.15232
 20
-6.1268278559291982
 30
0.0
 11
13.623099999999997
 21
0.0
 31
0.0
 12
0.0
 22
13.623099999999997
 32
0.0
 13
1.0
 23
1.0
340
0
 70
               7
280
               1
281
              50
282
              50
283
               0
360
0
 71
               2
 91
        5
 14
-0.5
 24
-1.9340315346727239
 14
0.5000000000000002
 24
-1.9340315346727239
 14
0.5000000000000002
 24
-1.8097334674193095
 14
-0.5
 24
-1.8097334674193095
 14
-0.5
 24
-1.9340315346727239
  0
POLYLINE
  5
24F
100
AcDbEntity
  8
Dimension
370
               5
390
0
  6
Continuous
 62
               7
100
AcDb2dPolyline
 66
               1
 10
0.0
 20
0.0
 30
0.0
 70
               1
 75
               5
  0
VERTEX
  5
250
100
AcDbEntity
  8
Dimension
370
               5
390
0
  6
Continuous
 62
               7
100
AcDbVertex
100
AcDb2dVertex
 10
-13.15232
 20
27.032227144070784
 30
0.0
  0
VERTEX
  5
251
100
AcDbEntity
  8
Dimension
370
               5
390
0
  6
Continuous
 62
               7
100
AcDbVertex
100
AcDb2dVertex
 10
0.4707799999999995
 20
27.032227144070784
 30
0.0
  0
VERTEX
  5
252
100
AcDbEntity
  8
Dimension
370
               5
390
0
  6
Continuous
 62
               7
100
AcDbVertex
100
AcDb2dVertex
 10
0.4707799999999995
 20
25.338902144070786
 30
0.0
  0
VERTEX
  5
253
100
AcDbEntity
  8
Dimension
370
               5
390
0
  6
Continuous
 62
               7
100
AcDbVertex
100
AcDb2dVertex
 10
-13.15232
 20
25.338902144070786
 30
0.0
  0
SEQEND
  5
254
100
AcDbEntity
  8
Dimension
370
               5
390
0
  6
Continuous
 62
               7
  0
MTEXT
  5
255
100
AcDbEntity
  8
None
390
0
 62
               7
100
AcDbMText
 10
-12.517319999999998
 20
29.939452881049952
 30
0.0
 40
0.6316012369791665
 41
0.0
 71
               1
 72
               1
  1
Status: Released
  7
Arial
 73
               1
 44
0.9673603504928809
  0
MTEXT
  5
256
100
AcDbEntity
  8
None
390
0
 62
               7
100
AcDbMText
 10
-12.517319999999998
 20
28.244702881049953
 30
0.0
 40
0.6316012369791665
 41
0.0
 71
               1
 72
               1
  1
Drawing: J. Glab
  7
Arial
 73
               1
 44
0.9673603504928809
  0
WIPEOUT
  5
257
100
AcDbEntity
  8
None
370
               5
390
0
  6
Continuous
 62
               7
 92
        0
100
AcDbWipeout
 90
        0
 10
-1.8832900000000001
 20
-2.3343696059291998
 30
0.0
 11
4.4361831797493831
 21
0.0
 31
0.0
 12
0.0
 22
4.4361831797493831
 32
0.0
 13
1.0
 23
1.0
340
0
 70
               7
280
               1
281
              50
282
              50
283
               0
360
0
 71
               2
 91
        5
 14
-0.5
 24
-6.5929735597116625
 14
0.5
 24
-6.5929735597116625
 14
0.5
 24
-6.8216017991021953
 14
-0.5
 24
-6.8216017991021953
 14
-0.5
 24
-6.5929735597116625
  0
MTEXT
  5
258
100
AcDbEntity
  8
None
390
0
 62
               7
100
AcDbMText
 10
-1.8832900000000001
 20
29.983447881049951
 30
0.0
 40
0.6316012369791665
 41
0.0
 71
               1
 72
               1
  1
Scale: 4:1  
  7
Arial
 73
               1
 44
0.9673603504928809
  0
MTEXT
  5
259
100
AcDbEntity
  8
None
390
0
 62
               7
100
AcDbMText
 10
5.5484349999999987
 20
29.938037881049951
 30
0.0
 40
0.6316012369791665
 41
0.0
 71
               1
 72
               1
  1
Rev: A
  7
Arial
 73
               1
 44
0.9673603504928809
  0
MTEXT
  5
25A
100
AcDbEntity
  8
None
390
0
 62
               7
100
AcDbMText
 10
1.1057799999999993
 20
28.103782881049952
 30
0.0
 40
0.6316012369791665
 41
0.0
 71
               1
 72
               1
  1
Date: 3/14/07
  7
Arial
 73
               1
 44
0.9673603504928809
  0
MTEXT
  5
25B
100
AcDbEntity
  8
None
390
0
 62
               7
100
AcDbMText
 10
1.1057799999999993
 20
26.453016680529117
 30
0.0
 40
0.5041165364583332
 41
0.0
 71
               1
 72
               1
  1
Modified: 
  7
Arial
 73
               1
 44
0.9673603504928806
  0
MTEXT
  5
25C
100
AcDbEntity
  8
None
390
0
 62
               7
100
AcDbMText
 10
-12.517319999999998
 20
26.408106680529119
 30
0.0
 40
0.5041165364583332
 41
13.623094999999999
 71
               1
 72
               1
  1
File: CG-BGA-5000 Dwg. mcd
  7
Arial
 73
               1
 44
0.9673603504928806
  0
WIPEOUT
  5
25D
100
AcDbEntity
  8
Dimension
370
               5
390
0
  6
Continuous
 62
               7
 92
        0
100
AcDbWipeout
 90
        0
 10
-38.457069999999995
 20
-6.1268278559291982
 30
0.0
 11
25.304749999999999
 21
0.0
 31
0.0
 12
0.0
 22
25.304749999999999
 32
0.0
 13
1.0
 23
1.0
340
0
 70
               7
280
               1
281
              50
282
              50
283
               0
360
0
 71
               2
 91
        5
 14
-0.5
 24
-0.8773070273367642
 14
0.4999999999999999
 24
-0.8773070273367642
 14
0.4999999999999999
 24
-0.7434712850354177
 14
-0.5
 24
-0.7434712850354177
 14
-0.5
 24
-0.8773070273367642
  0
POLYLINE
  5
25E
100
AcDbEntity
  8
Dimension
370
               5
390
0
  6
Continuous
 62
               7
100
AcDb2dPolyline
 66
               1
 10
0.0
 20
0.0
 30
0.0
 70
               1
 75
               5
  0
VERTEX
  5
25F
100
AcDbEntity
  8
Dimension
370
               5
390
0
  6
Continuous
 62
               7
100
AcDbVertex
100
AcDb2dVertex
 10
-38.457069999999995
 20
28.725582144070785
 30
0.0
  0
VERTEX
  5
260
100
AcDbEntity
  8
Dimension
370
               5
390
0
  6
Continuous
 62
               7
100
AcDbVertex
100
AcDb2dVertex
 10
-13.15232
 20
28.725582144070785
 30
0.0
  0
VERTEX
  5
261
100
AcDbEntity
  8
Dimension
370
               5
390
0
  6
Continuous
 62
               7
100
AcDbVertex
100
AcDb2dVertex
 10
-13.15232
 20
25.338902144070786
 30
0.0
  0
VERTEX
  5
262
100
AcDbEntity
  8
Dimension
370
               5
390
0
  6
Continuous
 62
               7
100
AcDbVertex
100
AcDb2dVertex
 10
-38.457069999999995
 20
25.338902144070786
 30
0.0
  0
SEQEND
  5
263
100
AcDbEntity
  8
Dimension
370
               5
390
0
  6
Continuous
 62
               7
  0
WIPEOUT
  5
264
100
AcDbEntity
  8
Dimension
370
               5
390
0
  6
Continuous
 62
               7
 92
        0
100
AcDbWipeout
 90
        0
 10
-38.457069999999995
 20
-2.740147855929199
 30
0.0
 11
25.304749999999999
 21
0.0
 31
0.0
 12
0.0
 22
25.304749999999999
 32
0.0
 13
1.0
 23
1.0
340
0
 70
               7
280
               1
281
              50
282
              50
283
               0
360
0
 71
               2
 91
        5
 14
-0.5
 24
-0.8103883658206459
 14
0.4999999999999999
 24
-0.8103883658206459
 14
0.4999999999999999
 24
-0.7434712850354177
 14
-0.5
 24
-0.7434712850354177
 14
-0.5
 24
-0.8103883658206459
  0
POLYLINE
  5
265
100
AcDbEntity
  8
Dimension
370
               5
390
0
  6
Continuous
 62
               7
100
AcDb2dPolyline
 66
               1
 10
0.0
 20
0.0
 30
0.0
 70
               1
 75
               5
  0
VERTEX
  5
266
100
AcDbEntity
  8
Dimension
370
               5
390
0
  6
Continuous
 62
               7
100
AcDbVertex
100
AcDb2dVertex
 10
-38.457069999999995
 20
30.418902144070785
 30
0.0
  0
VERTEX
  5
267
100
AcDbEntity
  8
Dimension
370
               5
390
0
  6
Continuous
 62
               7
100
AcDbVertex
100
AcDb2dVertex
 10
-13.15232
 20
30.418902144070785
 30
0.0
  0
VERTEX
  5
268
100
AcDbEntity
  8
Dimension
370
               5
390
0
  6
Continuous
 62
               7
100
AcDbVertex
100
AcDb2dVertex
 10
-13.15232
 20
28.725582144070785
 30
0.0
  0
VERTEX
  5
269
100
AcDbEntity
  8
Dimension
370
               5
390
0
  6
Continuous
 62
               7
100
AcDbVertex
100
AcDb2dVertex
 10
-38.457069999999995
 20
28.725582144070785
 30
0.0
  0
SEQEND
  5
26A
100
AcDbEntity
  8
Dimension
370
               5
390
0
  6
Continuous
 62
               7
  0
MTEXT
  5
26B
100
AcDbEntity
  8
None
390
0
 62
               7
100
AcDbMText
 10
-24.716304999999998
 20
29.97160825448745
 30
0.0
 40
0.7367565104166665
 41
0.0
 71
               2
 72
               1
  1
CG-BGA-5000 Drawing
  7
Arial (bold)
 73
               1
 44
0.9925958378970426
  0
INSERT
  5
26C
100
AcDbEntity
  8
None
390
0
 62
               7
100
AcDbBlockReference
  2
IE i logo
 10
-35.749759999999995
 20
27.058702144070786
 30
0.0
 41
0.5
 42
0.5
 43
0.5
  0
WIPEOUT
  5
26D
100
AcDbEntity
  8
None
370
               9
390
0
  6
Continuous
 62
              12
 92
        0
100
AcDbWipeout
 90
        0
 10
4.5998425000000021
 20
40.184681800000021
 30
0.0
 11
21.660825000000003
 21
0.0
 31
0.0
 12
0.0
 22
21.660825000000003
 32
0.0
 13
1.0
 23
1.0
340
0
 70
               7
280
               1
281
              50
282
              50
283
               0
360
0
 71
               2
 91
        5
 14
-0.5
 24
-0.9526561199769619
 14
0.5
 24
-0.9526561199769619
 14
0.5
 24
-1.0681587935824228
 14
-0.5
 24
-1.0681587935824228
 14
-0.5
 24
-0.9526561199769619
  0
MTEXT
  5
26E
100
AcDbEntity
  8
None
390
0
 62
              12
100
AcDbMText
 10
4.5998425000000021
 20
73.925583920833333
 30
0.0
 40
0.7592005208333332
 41
21.660824999999999
 71
               1
 72
               1
  1
{\L*Note: BGA pattern is not symmetrical with respect to the mounting holes.}
  7
Arial (bold)
 73
               1
 44
0.992595837897043
  0
WIPEOUT
  5
26F
100
AcDbEntity
  8
None
370
              15
390
0
  6
Continuous
 62
              12
 92
        0
100
AcDbWipeout
 90
        0
 10
-37.48057
 20
1.0853150000000111
 30
0.0
 11
17.851437822977701
 21
0.0
 31
0.0
 12
0.0
 22
17.851437822977701
 32
0.0
 13
1.0
 23
1.0
340
0
 70
               7
280
               1
281
              50
282
              50
283
               0
360
0
 71
               2
 91
        5
 14
-0.5
 24
-1.262644012881611
 14
0.5
 24
-1.262644012881611
 14
0.5
 24
-1.4671793582250683
 14
-0.5
 24
-1.4671793582250683
 14
-0.5
 24
-1.262644012881611
  0
MTEXT
  5
270
100
AcDbEntity
  8
None
390
0
 62
              12
100
AcDbMText
 10
-37.48057
 20
36.056360755208331
 30
0.0
 40
0.5684407552083333
 41
17.851437822977701
 71
               1
 72
               1
  1
{\LTarget PCB Recommendations}\PTotal thickness: 1.6mm min.\PPlating: Gold or Solder finish\PPCB Pad height: Same or higher than solder mask
  7
Arial
 73
               1
 44
0.9673603504928806
  0
MTEXT
  5
271
100
AcDbEntity
  8
None
390
0
 62
               7
100
AcDbMText
 10
-2.6305699999999996
 20
32.799752549479159
 30
0.0
 40
0.5204840494791666
 41
28.552694999999996
 71
               1
 72
               1
  1
Recommended PCB Layout Tolerances:  ±0.025mm [±0.001"] unless stated otherwise.\P
  7
Helvetica
 73
               1
 44
0.9673603504928806
  0
WIPEOUT
  5
272
100
AcDbEntity
  8
None
370
               9
390
0
  6
Continuous
 62
               7
 92
        0
100
AcDbWipeout
 90
        0
 10
2.3025903392241149
 20
2.522328250000009
 30
0.0
 11
19.385151269700792
 21
0.0
 31
0.0
 12
0.0
 22
19.385151269700792
 32
0.0
 13
1.0
 23
1.0
340
0
 70
               7
280
               1
281
              50
282
              50
283
               0
360
0
 71
               2
 91
        5
 14
-0.5
 24
-1.1231872303819095
 14
0.5000000000000002
 24
-1.1231872303819095
 14
0.5000000000000002
 24
-1.1755075210976833
 14
-0.5
 24
-1.1755075210976833
 14
-0.5
 24
-1.1231872303819095
  0
MTEXT
  5
273
100
AcDbEntity
  8
None
390
0
 62
               7
100
AcDbMText
 10
2.3025903392241149
 20
34.84014573697916
 30
0.0
 40
0.6316012369791665
 41
0.0
 71
               1
 72
               1
  1
All dimensions are in mm unless stated otherwise
  7
Arial
 73
               1
 44
0.9673603504928809
  0
INSERT
  5
274
100
AcDbEntity
  8
None
390
0
 62
               7
100
AcDbBlockReference
  2
©2006_address
 10
-25.536736045683764
 20
27.037803261840054
 30
0.0
 41
0.5
 42
0.5
 43
0.5
  0
ENDSEC
  0
SECTION
  2
OBJECTS
  0
DICTIONARY
  5
19
100
AcDbDictionary
280
               0
281
               1
  3
ACAD_GROUP
350
1A
  3
ACAD_MLINESTYLE
350
1B
  3
ACAD_LAYOUT
350
1E
  3
ACAD_PLOTSETTINGS
350
22
  3
ACAD_PLOTSTYLENAME
350
1F
  3
ACAD_WIPEOUT_VARS
350
23
  0
DICTIONARY
  5
1A
102
{ACAD_REACTORS
330
19
102
}
100
AcDbDictionary
280
               0
281
               1
  0
DICTIONARY
  5
1B
102
{ACAD_REACTORS
330
19
102
}
100
AcDbDictionary
280
               0
281
               1
  3
Standard
350
1C
  0
MLINESTYLE
  5
1C
102
{ACAD_REACTORS
330
1B
102
}
100
AcDbMlineStyle
  2
Standard
 70
               0
  3

 62
               0
 51
90.0
 52
90.0
 71
               2
 49
0.5
 62
             256
  6
ByLayer
 49
-0.5
 62
             256
  6
ByLayer
  0
ACDBDICTIONARYWDFLT
  5
1F
102
{ACAD_REACTORS
330
19
102
}
100
AcDbDictionary
281
               1
  3
Normal
350
1D
100
AcDbDictionaryWithDefault
340
1D
  0
ACDBPLACEHOLDER
  5
1D
102
{ACAD_REACTORS
330
1F
102
}
  0
LAYOUT
  5
20
102
{ACAD_REACTORS
330
1E
102
}
100
AcDbPlotSettings
  1

  2

  4

  6

 40
0.0
 41
0.0
 42
0.0
 43
0.0
 44
0.0
 45
0.0
 46
0.0
 47
0.0
 48
0.0
 49
0.0
140
0.0
141
0.0
142
1.0
143
1.0
 70
            1024
 72
               0
 73
               0
 74
               0
  7

 75
               0
147
1.0
148
0.0
149
0.0
100
AcDbLayout
  1
Model
 70
               0
 71
               0
 10
0.0
 20
0.0
 11
0.0
 21
0.0
 12
0.0
 22
0.0
 32
0.0
 14
0.0
 24
0.0
 34
0.0
 15
0.0
 25
0.0
 35
0.0
146
0.0
 13
0.0
 23
0.0
 33
0.0
 16
0.0
 26
0.0
 36
0.0
 17
0.0
 27
0.0
 37
0.0
 76
               0
330
A
331
0
345
0
346
0
  0
LAYOUT
  5
21
102
{ACAD_REACTORS
330
1E
102
}
100
AcDbPlotSettings
  1

  2

  4

  6

 40
0.0
 41
0.0
 42
0.0
 43
0.0
 44
0.0
 45
0.0
 46
0.0
 47
0.0
 48
0.0
 49
0.0
140
0.0
141
0.0
142
1.0
143
1.0
 70
               0
 72
               0
 73
               0
 74
               0
  7

 75
               0
147
1.0
148
0.0
149
0.0
100
AcDbLayout
  1
Layout1
 70
               0
 71
               0
 10
0.0
 20
0.0
 11
0.0
 21
0.0
 12
0.0
 22
0.0
 32
0.0
 14
0.0
 24
0.0
 34
0.0
 15
0.0
 25
0.0
 35
0.0
146
0.0
 13
0.0
 23
0.0
 33
0.0
 16
0.0
 26
0.0
 36
0.0
 17
0.0
 27
0.0
 37
0.0
 76
               0
330
B
331
0
345
0
346
0
  0
DICTIONARY
  5
1E
102
{ACAD_REACTORS
330
19
102
}
100
AcDbDictionary
280
               0
281
               1
  3
Layout1
350
21
  3
Model
350
20
  0
DICTIONARY
  5
22
102
{ACAD_REACTORS
330
19
102
}
100
AcDbDictionary
280
               0
281
               1
  0
WIPEOUTVARIABLES
  5
23
100
AcDbWipeoutVariables
 70
               0
  0
ENDSEC
  0
EOF
