  0
SECTION
  2
HEADER
  9
$ACADVER
  1
AC1015
  9
$ACADMAINTVER
 70
               6
  9
$DWGCODEPAGE
  3
ANSI_1252
  9
$INSBASE
 10
0.0
 20
0.0
 30
0.0
  9
$EXTMIN
 10
-38.532870938909895
 20
25.249050138262263
 30
-1.0331979166666665
  9
$EXTMAX
 10
27.639429999999997
 20
74.152295000000009
 30
1.0331979166666665
  9
$LIMMIN
 10
0.0
 20
0.0
  9
$LIMMAX
 10
0.0
 20
0.0
  9
$ORTHOMODE
 70
               0
  9
$REGENMODE
 70
               1
  9
$FILLMODE
 70
               1
  9
$QTEXTMODE
 70
               0
  9
$MIRRTEXT
 70
               1
  9
$LTSCALE
 40
6.3499999999999996
  9
$ATTMODE
 70
               1
  9
$TEXTSIZE
 40
0.2
  9
$TRACEWID
 40
1.0
  9
$TEXTSTYLE
  7
Standard
  9
$CLAYER
  8
AM_VIS
  9
$CELTYPE
  6
Continuous
  9
$CECOLOR
 62
             256
  9
$CELTSCALE
 40
1.0
  9
$DISPSILH
 70
               0
  9
$DIMSCALE
 40
1.0
  9
$DIMASZ
 40
0.79375
  9
$DIMEXO
 40
0.396875
  9
$DIMDLI
 40
10.16
  9
$DIMRND
 40
0.0
  9
$DIMDLE
 40
0.0
  9
$DIMEXE
 40
0.79375
  9
$DIMTP
 40
0.0
  9
$DIMTM
 40
0.0
  9
$DIMTXT
 40
0.6737068880208333
  9
$DIMCEN
 40
0.0
  9
$DIMTSZ
 40
0.0
  9
$DIMTOL
 70
               0
  9
$DIMLIM
 70
               0
  9
$DIMTIH
 70
               1
  9
$DIMTOH
 70
               1
  9
$DIMSE1
 70
               0
  9
$DIMSE2
 70
               0
  9
$DIMTAD
 70
               0
  9
$DIMZIN
 70
               3
  9
$DIMBLK
  1
VW_FILLEDARROW
  9
$DIMASO
 70
               1
  9
$DIMSHO
 70
               1
  9
$DIMPOST
  1
<>mm
  9
$DIMAPOST
  1
[]"
  9
$DIMALT
 70
               1
  9
$DIMALTD
 70
               3
  9
$DIMALTF
 40
0.0393700787401575
  9
$DIMLFAC
 40
1.0
  9
$DIMTOFL
 70
               0
  9
$DIMTVP
 40
0.0
  9
$DIMTIX
 70
               1
  9
$DIMSOXD
 70
               0
  9
$DIMSAH
 70
               0
  9
$DIMBLK1
  1

  9
$DIMBLK2
  1

  9
$DIMSTYLE
  2
ASME Dual SideBySide
  9
$DIMCLRD
 70
               0
  9
$DIMCLRE
 70
               0
  9
$DIMCLRT
 70
               0
  9
$DIMTFAC
 40
1.0
  9
$DIMGAP
 40
0.0
  9
$DIMJUST
 70
               0
  9
$DIMSD1
 70
               0
  9
$DIMSD2
 70
               0
  9
$DIMTOLJ
 70
               1
  9
$DIMTZIN
 70
               3
  9
$DIMALTZ
 70
               3
  9
$DIMALTTZ
 70
               3
  9
$DIMUPT
 70
               0
  9
$DIMDEC
 70
               2
  9
$DIMTDEC
 70
               2
  9
$DIMALTU
 70
               2
  9
$DIMALTTD
 70
               2
  9
$DIMTXSTY
  7
Helvetica
  9
$DIMAUNIT
 70
               0
  9
$DIMADEC
 70
               0
  9
$DIMALTRND
 40
0.0
  9
$DIMAZIN
 70
               0
  9
$DIMDSEP
 70
              46
  9
$DIMATFIT
 70
               0
  9
$DIMFRAC
 70
               2
  9
$DIMLDRBLK
  1

  9
$DIMLUNIT
 70
               2
  9
$DIMLWD
 70
              -2
  9
$DIMLWE
 70
              -2
  9
$DIMTMOVE
 70
               0
  9
$LUNITS
 70
               2
  9
$LUPREC
 70
               4
  9
$SKETCHINC
 40
0.1
  9
$FILLETRAD
 40
0.0
  9
$AUNITS
 70
               0
  9
$AUPREC
 70
               0
  9
$MENU
  1
acad
  9
$ELEVATION
 40
0.0
  9
$PELEVATION
 40
0.0
  9
$THICKNESS
 40
0.0
  9
$LIMCHECK
 70
               0
  9
$CHAMFERA
 40
0.0
  9
$CHAMFERB
 40
0.0
  9
$CHAMFERC
 40
0.0
  9
$CHAMFERD
 40
0.0
  9
$SKPOLY
 70
               0
  9
$TDCREATE
 40
2454683.556319444
  9
$TDUCREATE
 40
0.000000000
  9
$TDUPDATE
 40
2454683.556319444
  9
$TDUUPDATE
 40
0.000000000
  9
$TDINDWG
 40
0.0000000000
  9
$TDUSRTIMER
 40
0.0000000000
  9
$USRTIMER
 70
               1
  9
$ANGBASE
 50
0.0
  9
$ANGDIR
 70
               0
  9
$PDMODE
 70
               1
  9
$PDSIZE
 40
-2.0
  9
$PLINEWID
 40
0.0
  9
$SPLFRAME
 70
               0
  9
$SPLINETYPE
 70
               6
  9
$SPLINESEGS
 70
               8
  9
$HANDSEED
  5
65F
  9
$SURFTAB1
 70
               6
  9
$SURFTAB2
 70
               6
  9
$SURFTYPE
 70
               6
  9
$SURFU
 70
               6
  9
$SURFV
 70
               6
  9
$UCSBASE
  2

  9
$UCSNAME
  2

  9
$UCSORG
 10
0.0
 20
0.0
 30
0.0
  9
$UCSXDIR
 10
1.0
 20
0.0
 30
0.0
  9
$UCSYDIR
 10
0.0
 20
1.0
 30
0.0
  9
$UCSORTHOREF
  2

  9
$UCSORTHOVIEW
 70
               0
  9
$UCSORGTOP
 10
0.0
 20
0.0
 30
0.0
  9
$UCSORGBOTTOM
 10
0.0
 20
0.0
 30
0.0
  9
$UCSORGLEFT
 10
0.0
 20
0.0
 30
0.0
  9
$UCSORGRIGHT
 10
0.0
 20
0.0
 30
0.0
  9
$UCSORGFRONT
 10
0.0
 20
0.0
 30
0.0
  9
$UCSORGBACK
 10
0.0
 20
0.0
 30
0.0
  9
$PUCSBASE
  2

  9
$PUCSNAME
  2

  9
$PUCSORG
 10
0.0
 20
0.0
 30
0.0
  9
$PUCSXDIR
 10
1.0
 20
0.0
 30
0.0
  9
$PUCSYDIR
 10
0.0
 20
1.0
 30
0.0
  9
$PUCSORTHOREF
  2

  9
$PUCSORTHOVIEW
 70
               0
  9
$PUCSORGTOP
 10
0.0
 20
0.0
 30
0.0
  9
$PUCSORGBOTTOM
 10
0.0
 20
0.0
 30
0.0
  9
$PUCSORGLEFT
 10
0.0
 20
0.0
 30
0.0
  9
$PUCSORGRIGHT
 10
0.0
 20
0.0
 30
0.0
  9
$PUCSORGFRONT
 10
0.0
 20
0.0
 30
0.0
  9
$PUCSORGBACK
 10
0.0
 20
0.0
 30
0.0
  9
$USERI1
 70
               0
  9
$USERI2
 70
               0
  9
$USERI3
 70
               0
  9
$USERI4
 70
               0
  9
$USERI5
 70
               0
  9
$USERR1
 40
0.0
  9
$USERR2
 40
0.0
  9
$USERR3
 40
0.0
  9
$USERR4
 40
0.0
  9
$USERR5
 40
0.0
  9
$WORLDVIEW
 70
               1
  9
$SHADEDGE
 70
               3
  9
$SHADEDIF
 70
              70
  9
$TILEMODE
 70
               1
  9
$MAXACTVP
 70
              64
  9
$PINSBASE
 10
0.0
 20
0.0
 30
0.0
  9
$PLIMCHECK
 70
               0
  9
$PEXTMIN
 10
1.0000000000000000E+20
 20
1.0000000000000000E+20
 30
1.0000000000000000E+20
  9
$PEXTMAX
 10
-1.0000000000000000E+20
 20
-1.0000000000000000E+20
 30
-1.0000000000000000E+20
  9
$PLIMMIN
 10
0.0
 20
0.0
  9
$PLIMMAX
 10
12.0
 20
9.0
  9
$UNITMODE
 70
               0
  9
$VISRETAIN
 70
               0
  9
$PLINEGEN
 70
               1
  9
$PSLTSCALE
 70
               0
  9
$TREEDEPTH
 70
            3020
  9
$CMLSTYLE
  2
Standard
  9
$CMLJUST
 70
               0
  9
$CMLSCALE
 40
1.0
  9
$PROXYGRAPHICS
 70
               0
  9
$MEASUREMENT
 70
               1
  9
$CELWEIGHT
370
               0
  9
$ENDCAPS
280
               0
  9
$JOINSTYLE
280
               0
  9
$LWDISPLAY
290
               1
  9
$INSUNITS
 70
               4
  9
$HYPERLINKBASE
  1

  9
$STYLESHEET
  1

  9
$XEDIT
290
               1
  9
$CEPSNTYPE
380
               0
  9
$PSTYLEMODE
290
               1
  9
$FINGERPRINTGUID
  2

  9
$VERSIONGUID
  2

  9
$EXTNAMES
290
               1
  9
$PSVPSCALE
 40
0.0
  0
ENDSEC
  0
SECTION
  2
CLASSES
  0
CLASS
  1
LWPOLYLINE
  2
AcDbPolyline
  3
AutoCAD 2000
 90
        0
280
               0
281
               1
  0
CLASS
  1
IMAGE
  2
AcDbRasterImage
  3
ISM
 90
      127
280
               0
281
               1
  0
CLASS
  1
OLE2FRAME
  2
AcDbOle2Frame
  3
AutoCAD 2000
 90
        0
280
               0
281
               1
  0
CLASS
  1
HATCH
  2
AcDbHatch
  3
AutoCAD 2000
 90
        0
280
               0
281
               1
  0
CLASS
  1
DICTIONARYVAR
  2
AcDbDictionaryVar
  3
AutoCAD 2000
 90
        0
280
               0
281
               0
  0
CLASS
  1
RASTERVARIABLES
  2
AcDbRasterVariables
  3
ISM
 90
        0
280
               0
281
               0
  0
CLASS
  1
IMAGEDEF
  2
AcDbRasterImageDef
  3
ISM
 90
        0
280
               0
281
               0
  0
CLASS
  1
IMAGEDEF_REACTOR
  2
AcDbRasterImageDefReactor
  3
ISM
 90
        1
280
               0
281
               0
  0
CLASS
  1
IDBUFFER
  2
AcDbIdBuffer
  3
AutoCAD 2000
 90
        0
280
               0
281
               0
  0
CLASS
  1
SPATIAL_FILTER
  2
AcDbSpatialFilter
  3
AutoCAD 2000
 90
        0
280
               0
281
               0
  0
CLASS
  1
XRECORD
  2
AcDbXrecord
  3
AutoCAD 2000
 90
        0
280
               0
281
               0
  0
CLASS
  1
SORTENTSTABLE
  2
AcDbSortentsTable
  3
AutoCAD 2000
 90
        0
280
               0
281
               0
  0
CLASS
  1
LAYER_INDEX
  2
AcDbLayerIndex
  3
AutoCAD 2000
 90
        0
280
               0
281
               0
  0
CLASS
  1
SPATIAL_INDEX
  2
AcDbSpatialIndex
  3
AutoCAD 2000
 90
        0
280
               0
281
               0
  0
CLASS
  1
OBJECT_PTR
  2
CAseDLPNTableRecord
  3
"ASE-LPNTableRecord"
 90
        1
280
               0
281
               0
  0
CLASS
  1
LAYOUT
  2
AcDbLayout
  3
AutoCAD 2000
 90
        0
280
               0
281
               0
  0
CLASS
  1
PLOTSETTINGS
  2
AcDbPlotSettings
  3
AutoCAD 2000
 90
        0
280
               0
281
               0
  0
CLASS
  1
ACDBDICTIONARYWDFLT
  2
AcDbDictionaryWithDefault
  3
AutoCAD 2000
 90
        0
280
               0
281
               0
  0
CLASS
  1
ACDBPLACEHOLDER
  2
AcDbPlaceHolder
  3
AutoCAD 2000
 90
        0
280
               0
281
               0
  0
CLASS
  1
VBA_PROJECT
  2
AcDbVbaProject
  3
acadvba
 90
        0
280
               0
281
               0
  0
CLASS
  1
WIPEOUT
  2
AcDbWipeout
  3
WipeOut|AutoCAD Express Tool|expresstools@autodesk.com
 90
      127
280
               0
281
               1
  0
CLASS
  1
WIPEOUTVARIABLES
  2
AcDbWipeoutVariables
  3
WipeOut|AutoCAD Express Tool|expresstools@autodesk.com
 90
        0
280
               0
281
               0
  0
CLASS
  1
RTEXT
  2
RText
  3
RText|AutoCAD Express Tool|expresstools@autodesk.com
 90
        0
280
               0
281
               1
  0
CLASS
  1
ARCALIGNEDTEXT
  2
AcDbArcAlignedText
  3
ATEXT|AutoCAD Express Tool|expresstools@autodesk.com
 90
        0
280
               0
281
               1
  0
ENDSEC
  0
SECTION
  2
TABLES
  0
TABLE
  2
VPORT
  5
7
100
AcDbSymbolTable
 70
               1
  0
VPORT
  5
15
100
AcDbSymbolTableRecord
100
AcDbViewportTableRecord
  2
*ACTIVE
 70
               0
 10
0.0
 20
0.0
 11
1.0
 21
1.0
 12
-5.4467204694549451
 22
49.700672569131136
 13
0.0
 23
0.0
 14
1.0
 24
1.0
 15
0.0
 25
0.0
 16
0.0
 26
0.0
 36
1.0
 17
0.0
 27
0.0
 37
0.0
 40
48.903244861737747
 41
0.688564
 42
50.0
 43
0.0
 44
0.0
 50
0.0
 51
0.0
 71
               0
 72
            2000
 73
               1
 74
               1
 75
               0
 76
               0
 77
               0
 78
               0
281
               0
 65
               0
110
0.0
120
0.0
130
0.0
111
1.0
121
0.0
131
0.0
112
0.0
122
1.0
132
0.0
345
0
346
0
 79
               0
146
0.0
  0
ENDTAB
  0
TABLE
  2
LTYPE
  5
4
100
AcDbSymbolTable
 70
              19
  0
LTYPE
  5
11
100
AcDbSymbolTableRecord
100
AcDbLinetypeTableRecord
  2
ByBlock
 70
              64
  3

 72
              65
 73
               0
 40
0.0
  0
LTYPE
  5
12
100
AcDbSymbolTableRecord
100
AcDbLinetypeTableRecord
  2
ByLayer
 70
              64
  3

 72
              65
 73
               0
 40
0.0
  0
LTYPE
  5
13
100
AcDbSymbolTableRecord
100
AcDbLinetypeTableRecord
  2
Continuous
 70
              64
  3
Solid line
 72
              65
 73
               0
 40
0.0
  0
LTYPE
  5
120
100
AcDbSymbolTableRecord
100
AcDbLinetypeTableRecord
  2
STYLE_01
 70
               0
  3

 72
              65
 73
               2
 40
1.5
 49
1.0
 74
               0
 49
-0.5
 74
               0
  0
LTYPE
  5
121
100
AcDbSymbolTableRecord
100
AcDbLinetypeTableRecord
  2
STYLE_02
 70
               0
  3

 72
              65
 73
               2
 40
0.75
 49
0.5
 74
               0
 49
-0.25
 74
               0
  0
LTYPE
  5
122
100
AcDbSymbolTableRecord
100
AcDbLinetypeTableRecord
  2
STYLE_03
 70
               0
  3

 72
              65
 73
               4
 40
0.5555572509765625
 49
0.25
 74
               0
 49
-0.111114501953125
 74
               0
 49
0.0972137451171875
 74
               0
 49
-0.09722900390625
 74
               0
  0
LTYPE
  5
123
100
AcDbSymbolTableRecord
100
AcDbLinetypeTableRecord
  2
STYLE_04
 70
               0
  3

 72
              65
 73
               4
 40
5.0
 49
2.5
 74
               0
 49
-0.5
 74
               0
 49
0.5
 74
               0
 49
-0.5
 74
               0
  0
LTYPE
  5
124
100
AcDbSymbolTableRecord
100
AcDbLinetypeTableRecord
  2
STYLE_05
 70
               0
  3

 72
              65
 73
               2
 40
0.5
 49
0.0001
 74
               0
 49
-0.4999
 74
               0
  0
LTYPE
  5
125
100
AcDbSymbolTableRecord
100
AcDbLinetypeTableRecord
  2
STYLE_06
 70
               0
  3

 72
              65
 73
               4
 40
0.4583282470703125
 49
0.263885498046875
 74
               0
 49
-0.083343505859375
 74
               0
 49
0.02777099609375
 74
               0
 49
-0.0833282470703125
 74
               0
  0
LTYPE
  5
126
100
AcDbSymbolTableRecord
100
AcDbLinetypeTableRecord
  2
STYLE_07
 70
               0
  3

 72
              65
 73
               6
 40
3.5
 49
1.0
 74
               0
 49
-0.5
 74
               0
 49
1.0
 74
               0
 49
-0.5
 74
               0
 49
0.0001000000000002
 74
               0
 49
-0.4998999999999998
 74
               0
  0
LTYPE
  5
127
100
AcDbSymbolTableRecord
100
AcDbLinetypeTableRecord
  2
STYLE_08
 70
               0
  3

 72
              65
 73
               6
 40
2.5
 49
1.0
 74
               0
 49
-0.5
 74
               0
 49
0.0001
 74
               0
 49
-0.4999
 74
               0
 49
0.0001000000000002
 74
               0
 49
-0.4998999999999998
 74
               0
  0
LTYPE
  5
128
100
AcDbSymbolTableRecord
100
AcDbLinetypeTableRecord
  2
STYLE_09
 70
               0
  3

 72
              65
 73
               6
 40
0.5694427490234375
 49
0.25
 74
               0
 49
-0.0694427490234375
 74
               0
 49
0.0555572509765625
 74
               0
 49
-0.0694427490234375
 74
               0
 49
0.0555572509765625
 74
               0
 49
-0.0694427490234375
 74
               0
  0
LTYPE
  5
129
100
AcDbSymbolTableRecord
100
AcDbLinetypeTableRecord
  2
STYLE_10
 70
               0
  3

 72
              65
 73
               2
 40
0.09722900390625
 49
0.0555572509765625
 74
               0
 49
-0.0416717529296875
 74
               0
  0
LTYPE
  5
12A
100
AcDbSymbolTableRecord
100
AcDbLinetypeTableRecord
  2
STYLE_11
 70
               0
  3

 72
              65
 73
               6
 40
0.5416717529296875
 49
0.25
 74
               0
 49
-0.0555572509765625
 74
               0
 49
0.0555572509765625
 74
               0
 49
-0.0555572509765625
 74
               0
 49
0.0555572509765625
 74
               0
 49
-0.0694427490234375
 74
               0
  0
LTYPE
  5
12B
100
AcDbSymbolTableRecord
100
AcDbLinetypeTableRecord
  2
STYLE_12
 70
               0
  3

 72
              65
 73
               2
 40
0.0833282470703125
 49
0.0555572509765625
 74
               0
 49
-0.02777099609375
 74
               0
  0
LTYPE
  5
12C
100
AcDbSymbolTableRecord
100
AcDbLinetypeTableRecord
  2
STYLE_13
 70
               0
  3

 72
              65
 73
               2
 40
0.0833282470703125
 49
0.041656494140625
 74
               0
 49
-0.0416717529296875
 74
               0
  0
LTYPE
  5
12D
100
AcDbSymbolTableRecord
100
AcDbLinetypeTableRecord
  2
STYLE_14
 70
               0
  3

 72
              65
 73
               4
 40
0.4305572509765625
 49
0.236114501953125
 74
               0
 49
-0.0833282470703125
 74
               0
 49
0.013885498046875
 74
               0
 49
-0.09722900390625
 74
               0
  0
LTYPE
  5
12E
100
AcDbSymbolTableRecord
100
AcDbLinetypeTableRecord
  2
STYLE_15
 70
               0
  3

 72
              65
 73
               2
 40
0.375
 49
0.25
 74
               0
 49
-0.125
 74
               0
  0
LTYPE
  5
12F
100
AcDbSymbolTableRecord
100
AcDbLinetypeTableRecord
  2
STYLE_16
 70
               0
  3

 72
              65
 73
               4
 40
0.2083282470703125
 49
0.125
 74
               0
 49
-0.041656494140625
 74
               0
 49
0.013885498046875
 74
               0
 49
-0.0277862548828125
 74
               0
  0
ENDTAB
  0
TABLE
  2
LAYER
  5
2
100
AcDbSymbolTable
 70
               7
  0
LAYER
  5
14
100
AcDbSymbolTableRecord
100
AcDbLayerTableRecord
  2
0
 70
               0
 62
               7
  6
Continuous
290
               1
370
              -3
390
1D
  0
LAYER
  5
130
100
AcDbSymbolTableRecord
100
AcDbLayerTableRecord
  2
Defpoints
 70
               0
 62
               7
  6
Continuous
290
               0
370
              -3
390
1D
  0
LAYER
  5
131
100
AcDbSymbolTableRecord
100
AcDbLayerTableRecord
  2
None
 70
               0
 62
               7
  6
Continuous
290
               1
370
               5
390
1D
  0
LAYER
  5
132
100
AcDbSymbolTableRecord
100
AcDbLayerTableRecord
  2
Dimension
 70
               0
 62
               7
  6
Continuous
290
               1
370
               5
390
1D
  0
LAYER
  5
133
100
AcDbSymbolTableRecord
100
AcDbLayerTableRecord
  2
Solid Lines
 70
               0
 62
               7
  6
Continuous
290
               1
370
              25
390
1D
  0
LAYER
  5
134
100
AcDbSymbolTableRecord
100
AcDbLayerTableRecord
  2
AM_VIS
 70
               0
 62
               7
  6
Continuous
290
               1
370
              15
390
1D
  0
LAYER
  5
135
100
AcDbSymbolTableRecord
100
AcDbLayerTableRecord
  2
AM_HID
 70
               0
 62
               7
  6
STYLE_11
290
               1
370
              15
390
1D
  0
ENDTAB
  0
TABLE
  2
STYLE
  5
3
100
AcDbSymbolTable
 70
               6
  0
STYLE
  5
17
100
AcDbSymbolTableRecord
100
AcDbTextStyleTableRecord
  2
Standard
 70
               0
 40
0.0
 41
1.0
 50
0.0
 71
               0
 42
0.0
  3
txt
  4

  0
STYLE
  5
11B
100
AcDbSymbolTableRecord
100
AcDbTextStyleTableRecord
  2
Arial
 70
               0
 40
0.0
 41
1.0
 50
0.0
 71
               0
 42
0.0
  3
Arial
  4

1001
ACAD
1000
Arial
1071
        0
  0
STYLE
  5
11C
100
AcDbSymbolTableRecord
100
AcDbTextStyleTableRecord
  2
Arial (bold)
 70
               0
 40
0.0
 41
1.0
 50
0.0
 71
               0
 42
0.0
  3
Arial
  4

1001
ACAD
1000
Arial
1071
 33554432
  0
STYLE
  5
11D
100
AcDbSymbolTableRecord
100
AcDbTextStyleTableRecord
  2
Helvetica
 70
               0
 40
0.0
 41
1.0
 50
0.0
 71
               0
 42
0.0
  3
Helvetica
  4

1001
ACAD
1000
Helvetica
1071
        0
  0
STYLE
  5
11E
100
AcDbSymbolTableRecord
100
AcDbTextStyleTableRecord
  2
Helvetica (bold)
 70
               0
 40
0.0
 41
1.0
 50
0.0
 71
               0
 42
0.0
  3
Helvetica
  4

1001
ACAD
1000
Helvetica
1071
 33554432
  0
STYLE
  5
11F
100
AcDbSymbolTableRecord
100
AcDbTextStyleTableRecord
  2
New Century Schlbk
 70
               0
 40
0.0
 41
1.0
 50
0.0
 71
               0
 42
0.0
  3
New Century Schlbk
  4

1001
ACAD
1000
New Century Schlbk
1071
        0
  0
ENDTAB
  0
TABLE
  2
VIEW
  5
5
100
AcDbSymbolTable
 70
               0
  0
ENDTAB
  0
TABLE
  2
UCS
  5
6
100
AcDbSymbolTable
 70
               0
  0
ENDTAB
  0
TABLE
  2
APPID
  5
8
100
AcDbSymbolTable
 70
               1
  0
APPID
  5
16
100
AcDbSymbolTableRecord
100
AcDbRegAppTableRecord
  2
ACAD
 70
               0
  0
ENDTAB
  0
TABLE
  2
DIMSTYLE
  5
9
100
AcDbSymbolTable
 70
               3
100
AcDbDimStyleTable
 71
               0
  0
DIMSTYLE
105
18
100
AcDbSymbolTableRecord
100
AcDbDimStyleTableRecord
  2
Standard
 70
               0
  3

  4

 40
1.0
 41
0.18
 42
0.0625
 43
0.38
 44
0.18
 45
0.0
 46
0.0
 47
0.0
 48
0.0
 71
               0
 72
               0
 73
               1
 74
               1
 75
               0
 76
               0
 77
               0
 78
               0
 79
               0
140
0.18
141
0.09
142
0.0
143
25.399999999999999
144
1.0
145
0.0
146
1.0
147
0.09
148
0.0
170
               0
171
               2
172
               0
173
               0
174
               0
175
               0
176
               0
177
               0
178
               0
179
               0
271
               4
272
               4
273
               2
274
               2
275
               0
276
               0
277
               2
278
              46
279
               0
280
               0
281
               0
282
               0
283
               1
284
               0
285
               0
286
               0
288
               0
289
               3
340
17
341
0
342
0
343
0
344
0
371
              -2
372
              -2
  0
DIMSTYLE
105
13E
100
AcDbSymbolTableRecord
100
AcDbDimStyleTableRecord
  2
IE Standard
 70
               0
  3
<>mm
  4
[]"
 40
1.0
 41
0.79375
 42
0.4762500011827797
 43
6.9999859934672708
 44
0.9525000023655593
 45
0.0
 46
0.0
 47
0.0
 48
0.0
 71
               0
 72
               0
 73
               1
 74
               1
 75
               0
 76
               0
 77
               0
 78
               3
 79
               0
140
0.6737068880208333
141
0.0
142
0.0
143
0.0393700787401575
144
1.0
145
0.0
146
1.0
147
0.0
148
0.0
170
               0
171
               3
172
               1
173
               0
174
               1
175
               0
176
               0
177
               0
178
               0
179
               0
271
               2
272
               2
273
               2
274
               2
275
               0
276
               2
277
               2
278
              46
279
               0
280
               0
281
               0
282
               0
283
               1
284
               3
285
               3
286
               3
288
               0
289
               0
340
11D
341
13A
342
136
343
0
344
0
371
              -2
372
              -2
  0
DIMSTYLE
105
13F
100
AcDbSymbolTableRecord
100
AcDbDimStyleTableRecord
  2
ASME Dual SideBySide
 70
               0
  3
<>mm
  4
[]"
 40
1.0
 41
0.79375
 42
0.396875
 43
10.16
 44
0.79375
 45
0.0
 46
0.0
 47
0.0
 48
0.0
 71
               0
 72
               0
 73
               1
 74
               1
 75
               0
 76
               0
 77
               0
 78
               3
 79
               0
140
0.6737068880208333
141
0.0
142
0.0
143
0.0393700787401575
144
1.0
145
0.0
146
1.0
147
0.0
148
0.0
170
               1
171
               3
172
               0
173
               0
174
               1
175
               0
176
               0
177
               0
178
               0
179
               0
271
               2
272
               2
273
               2
274
               2
275
               0
276
               2
277
               2
278
              46
279
               0
280
               0
281
               0
282
               0
283
               1
284
               3
285
               3
286
               3
288
               0
289
               0
340
11D
341
136
342
136
343
0
344
0
371
              -2
372
              -2
  0
ENDTAB
  0
TABLE
  2
BLOCK_RECORD
  5
1
100
AcDbSymbolTable
 70
             249
  0
BLOCK_RECORD
  5
A
100
AcDbSymbolTableRecord
100
AcDbBlockTableRecord
  2
*MODEL_SPACE
340
20
  0
BLOCK_RECORD
  5
B
100
AcDbSymbolTableRecord
100
AcDbBlockTableRecord
  2
*PAPER_SPACE
340
21
  0
BLOCK_RECORD
  5
136
100
AcDbSymbolTableRecord
100
AcDbBlockTableRecord
  2
VW_FILLEDARROW
340
0
  0
BLOCK_RECORD
  5
13A
100
AcDbSymbolTableRecord
100
AcDbBlockTableRecord
  2
VW_FILLEDARROW-1
340
0
  0
BLOCK_RECORD
  5
24
100
AcDbSymbolTableRecord
100
AcDbBlockTableRecord
  2
*D2
340
0
  0
BLOCK_RECORD
  5
25
100
AcDbSymbolTableRecord
100
AcDbBlockTableRecord
  2
*D3
340
0
  0
BLOCK_RECORD
  5
26
100
AcDbSymbolTableRecord
100
AcDbBlockTableRecord
  2
*D4
340
0
  0
BLOCK_RECORD
  5
27
100
AcDbSymbolTableRecord
100
AcDbBlockTableRecord
  2
*D5
340
0
  0
BLOCK_RECORD
  5
28
100
AcDbSymbolTableRecord
100
AcDbBlockTableRecord
  2
*D6
340
0
  0
BLOCK_RECORD
  5
29
100
AcDbSymbolTableRecord
100
AcDbBlockTableRecord
  2
*D7
340
0
  0
BLOCK_RECORD
  5
2A
100
AcDbSymbolTableRecord
100
AcDbBlockTableRecord
  2
*D8
340
0
  0
BLOCK_RECORD
  5
2B
100
AcDbSymbolTableRecord
100
AcDbBlockTableRecord
  2
*D9
340
0
  0
BLOCK_RECORD
  5
2C
100
AcDbSymbolTableRecord
100
AcDbBlockTableRecord
  2
*D10
340
0
  0
BLOCK_RECORD
  5
2D
100
AcDbSymbolTableRecord
100
AcDbBlockTableRecord
  2
*D11
340
0
  0
BLOCK_RECORD
  5
2E
100
AcDbSymbolTableRecord
100
AcDbBlockTableRecord
  2
*D12
340
0
  0
BLOCK_RECORD
  5
2F
100
AcDbSymbolTableRecord
100
AcDbBlockTableRecord
  2
*D13
340
0
  0
BLOCK_RECORD
  5
30
100
AcDbSymbolTableRecord
100
AcDbBlockTableRecord
  2
*D14
340
0
  0
BLOCK_RECORD
  5
31
100
AcDbSymbolTableRecord
100
AcDbBlockTableRecord
  2
*D15
340
0
  0
BLOCK_RECORD
  5
32
100
AcDbSymbolTableRecord
100
AcDbBlockTableRecord
  2
*D16
340
0
  0
BLOCK_RECORD
  5
33
100
AcDbSymbolTableRecord
100
AcDbBlockTableRecord
  2
Group
340
0
102
{BLKREFS
331
5F6
102
}
  0
BLOCK_RECORD
  5
34
100
AcDbSymbolTableRecord
100
AcDbBlockTableRecord
  2
Group-1
340
0
102
{BLKREFS
331
218
102
}
  0
BLOCK_RECORD
  5
35
100
AcDbSymbolTableRecord
100
AcDbBlockTableRecord
  2
Group-2
340
0
102
{BLKREFS
331
5F7
102
}
  0
BLOCK_RECORD
  5
36
100
AcDbSymbolTableRecord
100
AcDbBlockTableRecord
  2
pad
340
0
102
{BLKREFS
331
21F
331
222
331
225
331
228
331
22B
331
22E
331
231
331
234
331
237
331
23A
331
23D
331
240
331
243
331
246
331
249
331
24C
331
24F
331
252
331
255
331
258
331
25B
331
25E
331
261
331
264
331
267
331
26A
331
26D
331
270
331
273
331
276
331
279
331
27C
331
27F
331
282
331
285
331
288
331
28B
331
28E
331
291
331
294
331
297
331
29A
331
29D
331
2A0
331
2A3
331
2A6
331
2A9
331
2AC
331
2AF
331
2B2
331
2B5
331
2B8
331
2BB
331
2BE
331
2C1
331
2C4
331
2C7
331
2CA
331
2CD
331
2D0
331
2D3
331
2D6
331
2D9
331
2DC
331
2DF
331
2E2
331
2E5
331
2E8
331
2EB
331
2EE
331
2F1
331
2F4
331
2F7
331
2FA
331
2FD
331
300
331
303
331
306
331
309
331
30C
331
30F
331
312
331
315
331
318
331
31B
331
31E
331
321
331
324
331
327
331
32A
331
32D
331
330
331
333
331
336
331
339
331
33C
331
33F
331
342
331
345
331
348
331
34B
331
34E
331
351
331
354
331
357
331
35A
331
35D
331
360
331
363
331
366
331
369
331
36C
331
36F
331
372
331
375
331
378
331
37B
331
37E
331
381
331
384
331
387
331
38A
331
38D
331
390
331
393
331
396
331
399
331
39C
331
39F
331
3A2
331
3A5
331
3A8
331
3AB
331
3AE
331
3B1
331
3B4
331
3B7
331
3BA
331
3BD
331
3C0
331
3C3
331
3C6
331
3C9
331
3CC
331
3CF
331
3D2
331
3D5
331
3D8
331
3DB
331
3DE
331
3E1
331
3E4
331
3E7
331
3EA
331
3ED
331
3F0
331
3F3
331
3F6
331
3F9
331
3FC
331
3FF
331
402
331
405
331
408
331
40B
331
40E
331
411
331
414
331
417
331
41A
331
41D
331
420
331
423
331
426
331
429
331
42C
331
42F
331
432
331
435
331
438
331
43B
331
43E
331
441
331
444
331
447
331
44A
331
44D
331
450
331
453
331
456
331
459
331
45C
331
45F
331
462
331
465
331
468
331
46B
331
46E
331
471
331
474
331
477
331
47A
331
47D
331
480
331
483
331
486
331
489
331
48C
331
48F
331
492
331
495
331
498
331
49B
331
49E
331
4A1
331
4A4
331
4A7
331
4AA
331
4AD
331
4B0
331
4B3
331
4B6
331
4B9
331
4BC
331
4BF
102
}
  0
BLOCK_RECORD
  5
37
100
AcDbSymbolTableRecord
100
AcDbBlockTableRecord
  2
Group-3
340
0
102
{BLKREFS
331
4C2
102
}
  0
BLOCK_RECORD
  5
38
100
AcDbSymbolTableRecord
100
AcDbBlockTableRecord
  2
Group-4
340
0
102
{BLKREFS
331
4C3
102
}
  0
BLOCK_RECORD
  5
39
100
AcDbSymbolTableRecord
100
AcDbBlockTableRecord
  2
Group-5
340
0
102
{BLKREFS
331
4C4
102
}
  0
BLOCK_RECORD
  5
3A
100
AcDbSymbolTableRecord
100
AcDbBlockTableRecord
  2
Group-6
340
0
102
{BLKREFS
331
4C5
102
}
  0
BLOCK_RECORD
  5
3B
100
AcDbSymbolTableRecord
100
AcDbBlockTableRecord
  2
Group-7
340
0
102
{BLKREFS
331
4C6
102
}
  0
BLOCK_RECORD
  5
3C
100
AcDbSymbolTableRecord
100
AcDbBlockTableRecord
  2
Group-8
340
0
102
{BLKREFS
331
4C7
102
}
  0
BLOCK_RECORD
  5
3D
100
AcDbSymbolTableRecord
100
AcDbBlockTableRecord
  2
Group-9
340
0
102
{BLKREFS
331
4C8
102
}
  0
BLOCK_RECORD
  5
3E
100
AcDbSymbolTableRecord
100
AcDbBlockTableRecord
  2
Group-10
340
0
102
{BLKREFS
331
4C9
102
}
  0
BLOCK_RECORD
  5
3F
100
AcDbSymbolTableRecord
100
AcDbBlockTableRecord
  2
Group-11
340
0
102
{BLKREFS
331
4CA
102
}
  0
BLOCK_RECORD
  5
40
100
AcDbSymbolTableRecord
100
AcDbBlockTableRecord
  2
Group-12
340
0
102
{BLKREFS
331
4CB
102
}
  0
BLOCK_RECORD
  5
41
100
AcDbSymbolTableRecord
100
AcDbBlockTableRecord
  2
Group-13
340
0
102
{BLKREFS
331
4CC
102
}
  0
BLOCK_RECORD
  5
42
100
AcDbSymbolTableRecord
100
AcDbBlockTableRecord
  2
Group-14
340
0
102
{BLKREFS
331
4CD
102
}
  0
BLOCK_RECORD
  5
43
100
AcDbSymbolTableRecord
100
AcDbBlockTableRecord
  2
Group-15
340
0
102
{BLKREFS
331
4CE
102
}
  0
BLOCK_RECORD
  5
44
100
AcDbSymbolTableRecord
100
AcDbBlockTableRecord
  2
Group-16
340
0
102
{BLKREFS
331
4CF
102
}
  0
BLOCK_RECORD
  5
45
100
AcDbSymbolTableRecord
100
AcDbBlockTableRecord
  2
Group-17
340
0
102
{BLKREFS
331
4D0
102
}
  0
BLOCK_RECORD
  5
46
100
AcDbSymbolTableRecord
100
AcDbBlockTableRecord
  2
Group-18
340
0
102
{BLKREFS
331
4D1
102
}
  0
BLOCK_RECORD
  5
47
100
AcDbSymbolTableRecord
100
AcDbBlockTableRecord
  2
Group-19
340
0
102
{BLKREFS
331
4D2
102
}
  0
BLOCK_RECORD
  5
48
100
AcDbSymbolTableRecord
100
AcDbBlockTableRecord
  2
Group-20
340
0
102
{BLKREFS
331
4D3
102
}
  0
BLOCK_RECORD
  5
49
100
AcDbSymbolTableRecord
100
AcDbBlockTableRecord
  2
Group-21
340
0
102
{BLKREFS
331
4D4
102
}
  0
BLOCK_RECORD
  5
4A
100
AcDbSymbolTableRecord
100
AcDbBlockTableRecord
  2
Group-22
340
0
102
{BLKREFS
331
4D5
102
}
  0
BLOCK_RECORD
  5
4B
100
AcDbSymbolTableRecord
100
AcDbBlockTableRecord
  2
Group-23
340
0
102
{BLKREFS
331
4D6
102
}
  0
BLOCK_RECORD
  5
4C
100
AcDbSymbolTableRecord
100
AcDbBlockTableRecord
  2
Group-24
340
0
102
{BLKREFS
331
4D7
102
}
  0
BLOCK_RECORD
  5
4D
100
AcDbSymbolTableRecord
100
AcDbBlockTableRecord
  2
Group-25
340
0
102
{BLKREFS
331
4D8
102
}
  0
BLOCK_RECORD
  5
4E
100
AcDbSymbolTableRecord
100
AcDbBlockTableRecord
  2
Group-26
340
0
102
{BLKREFS
331
4D9
102
}
  0
BLOCK_RECORD
  5
4F
100
AcDbSymbolTableRecord
100
AcDbBlockTableRecord
  2
Group-27
340
0
102
{BLKREFS
331
4DA
102
}
  0
BLOCK_RECORD
  5
50
100
AcDbSymbolTableRecord
100
AcDbBlockTableRecord
  2
Group-28
340
0
102
{BLKREFS
331
4DB
102
}
  0
BLOCK_RECORD
  5
51
100
AcDbSymbolTableRecord
100
AcDbBlockTableRecord
  2
Group-29
340
0
102
{BLKREFS
331
4DC
102
}
  0
BLOCK_RECORD
  5
52
100
AcDbSymbolTableRecord
100
AcDbBlockTableRecord
  2
Group-30
340
0
102
{BLKREFS
331
4DD
102
}
  0
BLOCK_RECORD
  5
53
100
AcDbSymbolTableRecord
100
AcDbBlockTableRecord
  2
Group-31
340
0
102
{BLKREFS
331
4DE
102
}
  0
BLOCK_RECORD
  5
54
100
AcDbSymbolTableRecord
100
AcDbBlockTableRecord
  2
Group-32
340
0
102
{BLKREFS
331
4DF
102
}
  0
BLOCK_RECORD
  5
55
100
AcDbSymbolTableRecord
100
AcDbBlockTableRecord
  2
Group-33
340
0
102
{BLKREFS
331
4E0
102
}
  0
BLOCK_RECORD
  5
56
100
AcDbSymbolTableRecord
100
AcDbBlockTableRecord
  2
Group-34
340
0
102
{BLKREFS
331
4E1
102
}
  0
BLOCK_RECORD
  5
57
100
AcDbSymbolTableRecord
100
AcDbBlockTableRecord
  2
Group-35
340
0
102
{BLKREFS
331
4E2
102
}
  0
BLOCK_RECORD
  5
58
100
AcDbSymbolTableRecord
100
AcDbBlockTableRecord
  2
Group-36
340
0
102
{BLKREFS
331
4E3
102
}
  0
BLOCK_RECORD
  5
59
100
AcDbSymbolTableRecord
100
AcDbBlockTableRecord
  2
Group-37
340
0
102
{BLKREFS
331
4E4
102
}
  0
BLOCK_RECORD
  5
5A
100
AcDbSymbolTableRecord
100
AcDbBlockTableRecord
  2
Group-38
340
0
102
{BLKREFS
331
4E5
102
}
  0
BLOCK_RECORD
  5
5B
100
AcDbSymbolTableRecord
100
AcDbBlockTableRecord
  2
Group-39
340
0
102
{BLKREFS
331
4E6
102
}
  0
BLOCK_RECORD
  5
5C
100
AcDbSymbolTableRecord
100
AcDbBlockTableRecord
  2
Group-40
340
0
102
{BLKREFS
331
4E7
102
}
  0
BLOCK_RECORD
  5
5D
100
AcDbSymbolTableRecord
100
AcDbBlockTableRecord
  2
Group-41
340
0
102
{BLKREFS
331
4E8
102
}
  0
BLOCK_RECORD
  5
5E
100
AcDbSymbolTableRecord
100
AcDbBlockTableRecord
  2
Group-42
340
0
102
{BLKREFS
331
4E9
102
}
  0
BLOCK_RECORD
  5
5F
100
AcDbSymbolTableRecord
100
AcDbBlockTableRecord
  2
Group-43
340
0
102
{BLKREFS
331
4EA
102
}
  0
BLOCK_RECORD
  5
60
100
AcDbSymbolTableRecord
100
AcDbBlockTableRecord
  2
Group-44
340
0
102
{BLKREFS
331
4EB
102
}
  0
BLOCK_RECORD
  5
61
100
AcDbSymbolTableRecord
100
AcDbBlockTableRecord
  2
Group-45
340
0
102
{BLKREFS
331
4EC
102
}
  0
BLOCK_RECORD
  5
62
100
AcDbSymbolTableRecord
100
AcDbBlockTableRecord
  2
Group-46
340
0
102
{BLKREFS
331
4ED
102
}
  0
BLOCK_RECORD
  5
63
100
AcDbSymbolTableRecord
100
AcDbBlockTableRecord
  2
Group-47
340
0
102
{BLKREFS
331
4EE
102
}
  0
BLOCK_RECORD
  5
64
100
AcDbSymbolTableRecord
100
AcDbBlockTableRecord
  2
Group-48
340
0
102
{BLKREFS
331
4EF
102
}
  0
BLOCK_RECORD
  5
65
100
AcDbSymbolTableRecord
100
AcDbBlockTableRecord
  2
Group-49
340
0
102
{BLKREFS
331
4F0
102
}
  0
BLOCK_RECORD
  5
66
100
AcDbSymbolTableRecord
100
AcDbBlockTableRecord
  2
Group-50
340
0
102
{BLKREFS
331
4F1
102
}
  0
BLOCK_RECORD
  5
67
100
AcDbSymbolTableRecord
100
AcDbBlockTableRecord
  2
Group-51
340
0
102
{BLKREFS
331
4F2
102
}
  0
BLOCK_RECORD
  5
68
100
AcDbSymbolTableRecord
100
AcDbBlockTableRecord
  2
Group-52
340
0
102
{BLKREFS
331
4F3
102
}
  0
BLOCK_RECORD
  5
69
100
AcDbSymbolTableRecord
100
AcDbBlockTableRecord
  2
Group-53
340
0
102
{BLKREFS
331
4F4
102
}
  0
BLOCK_RECORD
  5
6A
100
AcDbSymbolTableRecord
100
AcDbBlockTableRecord
  2
Group-54
340
0
102
{BLKREFS
331
4F5
102
}
  0
BLOCK_RECORD
  5
6B
100
AcDbSymbolTableRecord
100
AcDbBlockTableRecord
  2
Group-55
340
0
102
{BLKREFS
331
4F6
102
}
  0
BLOCK_RECORD
  5
6C
100
AcDbSymbolTableRecord
100
AcDbBlockTableRecord
  2
Group-56
340
0
102
{BLKREFS
331
4F7
102
}
  0
BLOCK_RECORD
  5
6D
100
AcDbSymbolTableRecord
100
AcDbBlockTableRecord
  2
Group-57
340
0
102
{BLKREFS
331
4F8
102
}
  0
BLOCK_RECORD
  5
6E
100
AcDbSymbolTableRecord
100
AcDbBlockTableRecord
  2
Group-58
340
0
102
{BLKREFS
331
4F9
102
}
  0
BLOCK_RECORD
  5
6F
100
AcDbSymbolTableRecord
100
AcDbBlockTableRecord
  2
Group-59
340
0
102
{BLKREFS
331
4FA
102
}
  0
BLOCK_RECORD
  5
70
100
AcDbSymbolTableRecord
100
AcDbBlockTableRecord
  2
Group-60
340
0
102
{BLKREFS
331
4FB
102
}
  0
BLOCK_RECORD
  5
71
100
AcDbSymbolTableRecord
100
AcDbBlockTableRecord
  2
Group-61
340
0
102
{BLKREFS
331
4FC
102
}
  0
BLOCK_RECORD
  5
72
100
AcDbSymbolTableRecord
100
AcDbBlockTableRecord
  2
Group-62
340
0
102
{BLKREFS
331
4FD
102
}
  0
BLOCK_RECORD
  5
73
100
AcDbSymbolTableRecord
100
AcDbBlockTableRecord
  2
Group-63
340
0
102
{BLKREFS
331
4FE
102
}
  0
BLOCK_RECORD
  5
74
100
AcDbSymbolTableRecord
100
AcDbBlockTableRecord
  2
Group-64
340
0
102
{BLKREFS
331
4FF
102
}
  0
BLOCK_RECORD
  5
75
100
AcDbSymbolTableRecord
100
AcDbBlockTableRecord
  2
Group-65
340
0
102
{BLKREFS
331
500
102
}
  0
BLOCK_RECORD
  5
76
100
AcDbSymbolTableRecord
100
AcDbBlockTableRecord
  2
Group-66
340
0
102
{BLKREFS
331
501
102
}
  0
BLOCK_RECORD
  5
77
100
AcDbSymbolTableRecord
100
AcDbBlockTableRecord
  2
Group-67
340
0
102
{BLKREFS
331
502
102
}
  0
BLOCK_RECORD
  5
78
100
AcDbSymbolTableRecord
100
AcDbBlockTableRecord
  2
Group-68
340
0
102
{BLKREFS
331
503
102
}
  0
BLOCK_RECORD
  5
79
100
AcDbSymbolTableRecord
100
AcDbBlockTableRecord
  2
Group-69
340
0
102
{BLKREFS
331
504
102
}
  0
BLOCK_RECORD
  5
7A
100
AcDbSymbolTableRecord
100
AcDbBlockTableRecord
  2
Group-70
340
0
102
{BLKREFS
331
505
102
}
  0
BLOCK_RECORD
  5
7B
100
AcDbSymbolTableRecord
100
AcDbBlockTableRecord
  2
Group-71
340
0
102
{BLKREFS
331
506
102
}
  0
BLOCK_RECORD
  5
7C
100
AcDbSymbolTableRecord
100
AcDbBlockTableRecord
  2
Group-72
340
0
102
{BLKREFS
331
507
102
}
  0
BLOCK_RECORD
  5
7D
100
AcDbSymbolTableRecord
100
AcDbBlockTableRecord
  2
Group-73
340
0
102
{BLKREFS
331
508
102
}
  0
BLOCK_RECORD
  5
7E
100
AcDbSymbolTableRecord
100
AcDbBlockTableRecord
  2
Group-74
340
0
102
{BLKREFS
331
509
102
}
  0
BLOCK_RECORD
  5
7F
100
AcDbSymbolTableRecord
100
AcDbBlockTableRecord
  2
Group-75
340
0
102
{BLKREFS
331
50A
102
}
  0
BLOCK_RECORD
  5
80
100
AcDbSymbolTableRecord
100
AcDbBlockTableRecord
  2
Group-76
340
0
102
{BLKREFS
331
50B
102
}
  0
BLOCK_RECORD
  5
81
100
AcDbSymbolTableRecord
100
AcDbBlockTableRecord
  2
Group-77
340
0
102
{BLKREFS
331
50C
102
}
  0
BLOCK_RECORD
  5
82
100
AcDbSymbolTableRecord
100
AcDbBlockTableRecord
  2
Group-78
340
0
102
{BLKREFS
331
50D
102
}
  0
BLOCK_RECORD
  5
83
100
AcDbSymbolTableRecord
100
AcDbBlockTableRecord
  2
Group-79
340
0
102
{BLKREFS
331
50E
102
}
  0
BLOCK_RECORD
  5
84
100
AcDbSymbolTableRecord
100
AcDbBlockTableRecord
  2
Group-80
340
0
102
{BLKREFS
331
50F
102
}
  0
BLOCK_RECORD
  5
85
100
AcDbSymbolTableRecord
100
AcDbBlockTableRecord
  2
Group-81
340
0
102
{BLKREFS
331
510
102
}
  0
BLOCK_RECORD
  5
86
100
AcDbSymbolTableRecord
100
AcDbBlockTableRecord
  2
Group-82
340
0
102
{BLKREFS
331
511
102
}
  0
BLOCK_RECORD
  5
87
100
AcDbSymbolTableRecord
100
AcDbBlockTableRecord
  2
Group-83
340
0
102
{BLKREFS
331
512
102
}
  0
BLOCK_RECORD
  5
88
100
AcDbSymbolTableRecord
100
AcDbBlockTableRecord
  2
Group-84
340
0
102
{BLKREFS
331
513
102
}
  0
BLOCK_RECORD
  5
89
100
AcDbSymbolTableRecord
100
AcDbBlockTableRecord
  2
Group-85
340
0
102
{BLKREFS
331
514
102
}
  0
BLOCK_RECORD
  5
8A
100
AcDbSymbolTableRecord
100
AcDbBlockTableRecord
  2
Group-86
340
0
102
{BLKREFS
331
515
102
}
  0
BLOCK_RECORD
  5
8B
100
AcDbSymbolTableRecord
100
AcDbBlockTableRecord
  2
Group-87
340
0
102
{BLKREFS
331
516
102
}
  0
BLOCK_RECORD
  5
8C
100
AcDbSymbolTableRecord
100
AcDbBlockTableRecord
  2
Group-88
340
0
102
{BLKREFS
331
517
102
}
  0
BLOCK_RECORD
  5
8D
100
AcDbSymbolTableRecord
100
AcDbBlockTableRecord
  2
Group-89
340
0
102
{BLKREFS
331
518
102
}
  0
BLOCK_RECORD
  5
8E
100
AcDbSymbolTableRecord
100
AcDbBlockTableRecord
  2
Group-90
340
0
102
{BLKREFS
331
519
102
}
  0
BLOCK_RECORD
  5
8F
100
AcDbSymbolTableRecord
100
AcDbBlockTableRecord
  2
Group-91
340
0
102
{BLKREFS
331
51A
102
}
  0
BLOCK_RECORD
  5
90
100
AcDbSymbolTableRecord
100
AcDbBlockTableRecord
  2
Group-92
340
0
102
{BLKREFS
331
51B
102
}
  0
BLOCK_RECORD
  5
91
100
AcDbSymbolTableRecord
100
AcDbBlockTableRecord
  2
Group-93
340
0
102
{BLKREFS
331
51C
102
}
  0
BLOCK_RECORD
  5
92
100
AcDbSymbolTableRecord
100
AcDbBlockTableRecord
  2
Group-94
340
0
102
{BLKREFS
331
51D
102
}
  0
BLOCK_RECORD
  5
93
100
AcDbSymbolTableRecord
100
AcDbBlockTableRecord
  2
Group-95
340
0
102
{BLKREFS
331
51E
102
}
  0
BLOCK_RECORD
  5
94
100
AcDbSymbolTableRecord
100
AcDbBlockTableRecord
  2
Group-96
340
0
102
{BLKREFS
331
51F
102
}
  0
BLOCK_RECORD
  5
95
100
AcDbSymbolTableRecord
100
AcDbBlockTableRecord
  2
Group-97
340
0
102
{BLKREFS
331
520
102
}
  0
BLOCK_RECORD
  5
96
100
AcDbSymbolTableRecord
100
AcDbBlockTableRecord
  2
Group-98
340
0
102
{BLKREFS
331
521
102
}
  0
BLOCK_RECORD
  5
97
100
AcDbSymbolTableRecord
100
AcDbBlockTableRecord
  2
Group-99
340
0
102
{BLKREFS
331
522
102
}
  0
BLOCK_RECORD
  5
98
100
AcDbSymbolTableRecord
100
AcDbBlockTableRecord
  2
Group-100
340
0
102
{BLKREFS
331
523
102
}
  0
BLOCK_RECORD
  5
99
100
AcDbSymbolTableRecord
100
AcDbBlockTableRecord
  2
Group-101
340
0
102
{BLKREFS
331
524
102
}
  0
BLOCK_RECORD
  5
9A
100
AcDbSymbolTableRecord
100
AcDbBlockTableRecord
  2
Group-102
340
0
102
{BLKREFS
331
525
102
}
  0
BLOCK_RECORD
  5
9B
100
AcDbSymbolTableRecord
100
AcDbBlockTableRecord
  2
Group-103
340
0
102
{BLKREFS
331
526
102
}
  0
BLOCK_RECORD
  5
9C
100
AcDbSymbolTableRecord
100
AcDbBlockTableRecord
  2
Group-104
340
0
102
{BLKREFS
331
527
102
}
  0
BLOCK_RECORD
  5
9D
100
AcDbSymbolTableRecord
100
AcDbBlockTableRecord
  2
Group-105
340
0
102
{BLKREFS
331
528
102
}
  0
BLOCK_RECORD
  5
9E
100
AcDbSymbolTableRecord
100
AcDbBlockTableRecord
  2
Group-106
340
0
102
{BLKREFS
331
529
102
}
  0
BLOCK_RECORD
  5
9F
100
AcDbSymbolTableRecord
100
AcDbBlockTableRecord
  2
Group-107
340
0
102
{BLKREFS
331
52A
102
}
  0
BLOCK_RECORD
  5
A0
100
AcDbSymbolTableRecord
100
AcDbBlockTableRecord
  2
Group-108
340
0
102
{BLKREFS
331
52B
102
}
  0
BLOCK_RECORD
  5
A1
100
AcDbSymbolTableRecord
100
AcDbBlockTableRecord
  2
Group-109
340
0
102
{BLKREFS
331
52C
102
}
  0
BLOCK_RECORD
  5
A2
100
AcDbSymbolTableRecord
100
AcDbBlockTableRecord
  2
Group-110
340
0
102
{BLKREFS
331
52D
102
}
  0
BLOCK_RECORD
  5
A3
100
AcDbSymbolTableRecord
100
AcDbBlockTableRecord
  2
Group-111
340
0
102
{BLKREFS
331
52E
102
}
  0
BLOCK_RECORD
  5
A4
100
AcDbSymbolTableRecord
100
AcDbBlockTableRecord
  2
Group-112
340
0
102
{BLKREFS
331
52F
102
}
  0
BLOCK_RECORD
  5
A5
100
AcDbSymbolTableRecord
100
AcDbBlockTableRecord
  2
Group-113
340
0
102
{BLKREFS
331
530
102
}
  0
BLOCK_RECORD
  5
A6
100
AcDbSymbolTableRecord
100
AcDbBlockTableRecord
  2
Group-114
340
0
102
{BLKREFS
331
531
102
}
  0
BLOCK_RECORD
  5
A7
100
AcDbSymbolTableRecord
100
AcDbBlockTableRecord
  2
Group-115
340
0
102
{BLKREFS
331
532
102
}
  0
BLOCK_RECORD
  5
A8
100
AcDbSymbolTableRecord
100
AcDbBlockTableRecord
  2
Group-116
340
0
102
{BLKREFS
331
533
102
}
  0
BLOCK_RECORD
  5
A9
100
AcDbSymbolTableRecord
100
AcDbBlockTableRecord
  2
Group-117
340
0
102
{BLKREFS
331
534
102
}
  0
BLOCK_RECORD
  5
AA
100
AcDbSymbolTableRecord
100
AcDbBlockTableRecord
  2
Group-118
340
0
102
{BLKREFS
331
535
102
}
  0
BLOCK_RECORD
  5
AB
100
AcDbSymbolTableRecord
100
AcDbBlockTableRecord
  2
Group-119
340
0
102
{BLKREFS
331
536
102
}
  0
BLOCK_RECORD
  5
AC
100
AcDbSymbolTableRecord
100
AcDbBlockTableRecord
  2
Group-120
340
0
102
{BLKREFS
331
537
102
}
  0
BLOCK_RECORD
  5
AD
100
AcDbSymbolTableRecord
100
AcDbBlockTableRecord
  2
Group-121
340
0
102
{BLKREFS
331
538
102
}
  0
BLOCK_RECORD
  5
AE
100
AcDbSymbolTableRecord
100
AcDbBlockTableRecord
  2
Group-122
340
0
102
{BLKREFS
331
539
102
}
  0
BLOCK_RECORD
  5
AF
100
AcDbSymbolTableRecord
100
AcDbBlockTableRecord
  2
Group-123
340
0
102
{BLKREFS
331
53A
102
}
  0
BLOCK_RECORD
  5
B0
100
AcDbSymbolTableRecord
100
AcDbBlockTableRecord
  2
Group-124
340
0
102
{BLKREFS
331
53B
102
}
  0
BLOCK_RECORD
  5
B1
100
AcDbSymbolTableRecord
100
AcDbBlockTableRecord
  2
Group-125
340
0
102
{BLKREFS
331
53C
102
}
  0
BLOCK_RECORD
  5
B2
100
AcDbSymbolTableRecord
100
AcDbBlockTableRecord
  2
Group-126
340
0
102
{BLKREFS
331
53D
102
}
  0
BLOCK_RECORD
  5
B3
100
AcDbSymbolTableRecord
100
AcDbBlockTableRecord
  2
Group-127
340
0
102
{BLKREFS
331
53E
102
}
  0
BLOCK_RECORD
  5
B4
100
AcDbSymbolTableRecord
100
AcDbBlockTableRecord
  2
Group-128
340
0
102
{BLKREFS
331
53F
102
}
  0
BLOCK_RECORD
  5
B5
100
AcDbSymbolTableRecord
100
AcDbBlockTableRecord
  2
Group-129
340
0
102
{BLKREFS
331
540
102
}
  0
BLOCK_RECORD
  5
B6
100
AcDbSymbolTableRecord
100
AcDbBlockTableRecord
  2
Group-130
340
0
102
{BLKREFS
331
541
102
}
  0
BLOCK_RECORD
  5
B7
100
AcDbSymbolTableRecord
100
AcDbBlockTableRecord
  2
Group-131
340
0
102
{BLKREFS
331
542
102
}
  0
BLOCK_RECORD
  5
B8
100
AcDbSymbolTableRecord
100
AcDbBlockTableRecord
  2
Group-132
340
0
102
{BLKREFS
331
543
102
}
  0
BLOCK_RECORD
  5
B9
100
AcDbSymbolTableRecord
100
AcDbBlockTableRecord
  2
Group-133
340
0
102
{BLKREFS
331
544
102
}
  0
BLOCK_RECORD
  5
BA
100
AcDbSymbolTableRecord
100
AcDbBlockTableRecord
  2
Group-134
340
0
102
{BLKREFS
331
545
102
}
  0
BLOCK_RECORD
  5
BB
100
AcDbSymbolTableRecord
100
AcDbBlockTableRecord
  2
Group-135
340
0
102
{BLKREFS
331
546
102
}
  0
BLOCK_RECORD
  5
BC
100
AcDbSymbolTableRecord
100
AcDbBlockTableRecord
  2
Group-136
340
0
102
{BLKREFS
331
547
102
}
  0
BLOCK_RECORD
  5
BD
100
AcDbSymbolTableRecord
100
AcDbBlockTableRecord
  2
Group-137
340
0
102
{BLKREFS
331
548
102
}
  0
BLOCK_RECORD
  5
BE
100
AcDbSymbolTableRecord
100
AcDbBlockTableRecord
  2
Group-138
340
0
102
{BLKREFS
331
549
102
}
  0
BLOCK_RECORD
  5
BF
100
AcDbSymbolTableRecord
100
AcDbBlockTableRecord
  2
Group-139
340
0
102
{BLKREFS
331
54A
102
}
  0
BLOCK_RECORD
  5
C0
100
AcDbSymbolTableRecord
100
AcDbBlockTableRecord
  2
Group-140
340
0
102
{BLKREFS
331
54B
102
}
  0
BLOCK_RECORD
  5
C1
100
AcDbSymbolTableRecord
100
AcDbBlockTableRecord
  2
Group-141
340
0
102
{BLKREFS
331
54C
102
}
  0
BLOCK_RECORD
  5
C2
100
AcDbSymbolTableRecord
100
AcDbBlockTableRecord
  2
Group-142
340
0
102
{BLKREFS
331
54D
102
}
  0
BLOCK_RECORD
  5
C3
100
AcDbSymbolTableRecord
100
AcDbBlockTableRecord
  2
Group-143
340
0
102
{BLKREFS
331
54E
102
}
  0
BLOCK_RECORD
  5
C4
100
AcDbSymbolTableRecord
100
AcDbBlockTableRecord
  2
Group-144
340
0
102
{BLKREFS
331
54F
102
}
  0
BLOCK_RECORD
  5
C5
100
AcDbSymbolTableRecord
100
AcDbBlockTableRecord
  2
Group-145
340
0
102
{BLKREFS
331
550
102
}
  0
BLOCK_RECORD
  5
C6
100
AcDbSymbolTableRecord
100
AcDbBlockTableRecord
  2
Group-146
340
0
102
{BLKREFS
331
551
102
}
  0
BLOCK_RECORD
  5
C7
100
AcDbSymbolTableRecord
100
AcDbBlockTableRecord
  2
Group-147
340
0
102
{BLKREFS
331
552
102
}
  0
BLOCK_RECORD
  5
C8
100
AcDbSymbolTableRecord
100
AcDbBlockTableRecord
  2
Group-148
340
0
102
{BLKREFS
331
553
102
}
  0
BLOCK_RECORD
  5
C9
100
AcDbSymbolTableRecord
100
AcDbBlockTableRecord
  2
Group-149
340
0
102
{BLKREFS
331
554
102
}
  0
BLOCK_RECORD
  5
CA
100
AcDbSymbolTableRecord
100
AcDbBlockTableRecord
  2
Group-150
340
0
102
{BLKREFS
331
555
102
}
  0
BLOCK_RECORD
  5
CB
100
AcDbSymbolTableRecord
100
AcDbBlockTableRecord
  2
Group-151
340
0
102
{BLKREFS
331
556
102
}
  0
BLOCK_RECORD
  5
CC
100
AcDbSymbolTableRecord
100
AcDbBlockTableRecord
  2
Group-152
340
0
102
{BLKREFS
331
557
102
}
  0
BLOCK_RECORD
  5
CD
100
AcDbSymbolTableRecord
100
AcDbBlockTableRecord
  2
Group-153
340
0
102
{BLKREFS
331
558
102
}
  0
BLOCK_RECORD
  5
CE
100
AcDbSymbolTableRecord
100
AcDbBlockTableRecord
  2
Group-154
340
0
102
{BLKREFS
331
559
102
}
  0
BLOCK_RECORD
  5
CF
100
AcDbSymbolTableRecord
100
AcDbBlockTableRecord
  2
Group-155
340
0
102
{BLKREFS
331
55A
102
}
  0
BLOCK_RECORD
  5
D0
100
AcDbSymbolTableRecord
100
AcDbBlockTableRecord
  2
Group-156
340
0
102
{BLKREFS
331
55B
102
}
  0
BLOCK_RECORD
  5
D1
100
AcDbSymbolTableRecord
100
AcDbBlockTableRecord
  2
Group-157
340
0
102
{BLKREFS
331
55C
102
}
  0
BLOCK_RECORD
  5
D2
100
AcDbSymbolTableRecord
100
AcDbBlockTableRecord
  2
Group-158
340
0
102
{BLKREFS
331
55D
102
}
  0
BLOCK_RECORD
  5
D3
100
AcDbSymbolTableRecord
100
AcDbBlockTableRecord
  2
Group-159
340
0
102
{BLKREFS
331
55E
102
}
  0
BLOCK_RECORD
  5
D4
100
AcDbSymbolTableRecord
100
AcDbBlockTableRecord
  2
Group-160
340
0
102
{BLKREFS
331
55F
102
}
  0
BLOCK_RECORD
  5
D5
100
AcDbSymbolTableRecord
100
AcDbBlockTableRecord
  2
Group-161
340
0
102
{BLKREFS
331
560
102
}
  0
BLOCK_RECORD
  5
D6
100
AcDbSymbolTableRecord
100
AcDbBlockTableRecord
  2
Group-162
340
0
102
{BLKREFS
331
561
102
}
  0
BLOCK_RECORD
  5
D7
100
AcDbSymbolTableRecord
100
AcDbBlockTableRecord
  2
Group-163
340
0
102
{BLKREFS
331
562
102
}
  0
BLOCK_RECORD
  5
D8
100
AcDbSymbolTableRecord
100
AcDbBlockTableRecord
  2
Group-164
340
0
102
{BLKREFS
331
563
102
}
  0
BLOCK_RECORD
  5
D9
100
AcDbSymbolTableRecord
100
AcDbBlockTableRecord
  2
Group-165
340
0
102
{BLKREFS
331
564
102
}
  0
BLOCK_RECORD
  5
DA
100
AcDbSymbolTableRecord
100
AcDbBlockTableRecord
  2
Group-166
340
0
102
{BLKREFS
331
565
102
}
  0
BLOCK_RECORD
  5
DB
100
AcDbSymbolTableRecord
100
AcDbBlockTableRecord
  2
Group-167
340
0
102
{BLKREFS
331
566
102
}
  0
BLOCK_RECORD
  5
DC
100
AcDbSymbolTableRecord
100
AcDbBlockTableRecord
  2
Group-168
340
0
102
{BLKREFS
331
567
102
}
  0
BLOCK_RECORD
  5
DD
100
AcDbSymbolTableRecord
100
AcDbBlockTableRecord
  2
Group-169
340
0
102
{BLKREFS
331
568
102
}
  0
BLOCK_RECORD
  5
DE
100
AcDbSymbolTableRecord
100
AcDbBlockTableRecord
  2
Group-170
340
0
102
{BLKREFS
331
569
102
}
  0
BLOCK_RECORD
  5
DF
100
AcDbSymbolTableRecord
100
AcDbBlockTableRecord
  2
Group-171
340
0
102
{BLKREFS
331
56A
102
}
  0
BLOCK_RECORD
  5
E0
100
AcDbSymbolTableRecord
100
AcDbBlockTableRecord
  2
Group-172
340
0
102
{BLKREFS
331
56B
102
}
  0
BLOCK_RECORD
  5
E1
100
AcDbSymbolTableRecord
100
AcDbBlockTableRecord
  2
Group-173
340
0
102
{BLKREFS
331
56C
102
}
  0
BLOCK_RECORD
  5
E2
100
AcDbSymbolTableRecord
100
AcDbBlockTableRecord
  2
Group-174
340
0
102
{BLKREFS
331
56D
102
}
  0
BLOCK_RECORD
  5
E3
100
AcDbSymbolTableRecord
100
AcDbBlockTableRecord
  2
Group-175
340
0
102
{BLKREFS
331
56E
102
}
  0
BLOCK_RECORD
  5
E4
100
AcDbSymbolTableRecord
100
AcDbBlockTableRecord
  2
Group-176
340
0
102
{BLKREFS
331
56F
102
}
  0
BLOCK_RECORD
  5
E5
100
AcDbSymbolTableRecord
100
AcDbBlockTableRecord
  2
Group-177
340
0
102
{BLKREFS
331
570
102
}
  0
BLOCK_RECORD
  5
E6
100
AcDbSymbolTableRecord
100
AcDbBlockTableRecord
  2
Group-178
340
0
102
{BLKREFS
331
571
102
}
  0
BLOCK_RECORD
  5
E7
100
AcDbSymbolTableRecord
100
AcDbBlockTableRecord
  2
Group-179
340
0
102
{BLKREFS
331
572
102
}
  0
BLOCK_RECORD
  5
E8
100
AcDbSymbolTableRecord
100
AcDbBlockTableRecord
  2
Group-180
340
0
102
{BLKREFS
331
573
102
}
  0
BLOCK_RECORD
  5
E9
100
AcDbSymbolTableRecord
100
AcDbBlockTableRecord
  2
Group-181
340
0
102
{BLKREFS
331
574
102
}
  0
BLOCK_RECORD
  5
EA
100
AcDbSymbolTableRecord
100
AcDbBlockTableRecord
  2
Group-182
340
0
102
{BLKREFS
331
575
102
}
  0
BLOCK_RECORD
  5
EB
100
AcDbSymbolTableRecord
100
AcDbBlockTableRecord
  2
Group-183
340
0
102
{BLKREFS
331
576
102
}
  0
BLOCK_RECORD
  5
EC
100
AcDbSymbolTableRecord
100
AcDbBlockTableRecord
  2
Group-184
340
0
102
{BLKREFS
331
577
102
}
  0
BLOCK_RECORD
  5
ED
100
AcDbSymbolTableRecord
100
AcDbBlockTableRecord
  2
Group-185
340
0
102
{BLKREFS
331
578
102
}
  0
BLOCK_RECORD
  5
EE
100
AcDbSymbolTableRecord
100
AcDbBlockTableRecord
  2
Group-186
340
0
102
{BLKREFS
331
579
102
}
  0
BLOCK_RECORD
  5
EF
100
AcDbSymbolTableRecord
100
AcDbBlockTableRecord
  2
Group-187
340
0
102
{BLKREFS
331
57A
102
}
  0
BLOCK_RECORD
  5
F0
100
AcDbSymbolTableRecord
100
AcDbBlockTableRecord
  2
Group-188
340
0
102
{BLKREFS
331
57B
102
}
  0
BLOCK_RECORD
  5
F1
100
AcDbSymbolTableRecord
100
AcDbBlockTableRecord
  2
Group-189
340
0
102
{BLKREFS
331
57C
102
}
  0
BLOCK_RECORD
  5
F2
100
AcDbSymbolTableRecord
100
AcDbBlockTableRecord
  2
Group-190
340
0
102
{BLKREFS
331
57D
102
}
  0
BLOCK_RECORD
  5
F3
100
AcDbSymbolTableRecord
100
AcDbBlockTableRecord
  2
Group-191
340
0
102
{BLKREFS
331
57E
102
}
  0
BLOCK_RECORD
  5
F4
100
AcDbSymbolTableRecord
100
AcDbBlockTableRecord
  2
Group-192
340
0
102
{BLKREFS
331
57F
102
}
  0
BLOCK_RECORD
  5
F5
100
AcDbSymbolTableRecord
100
AcDbBlockTableRecord
  2
Group-193
340
0
102
{BLKREFS
331
580
102
}
  0
BLOCK_RECORD
  5
F6
100
AcDbSymbolTableRecord
100
AcDbBlockTableRecord
  2
Group-194
340
0
102
{BLKREFS
331
581
102
}
  0
BLOCK_RECORD
  5
F7
100
AcDbSymbolTableRecord
100
AcDbBlockTableRecord
  2
Group-195
340
0
102
{BLKREFS
331
582
102
}
  0
BLOCK_RECORD
  5
F8
100
AcDbSymbolTableRecord
100
AcDbBlockTableRecord
  2
Group-196
340
0
102
{BLKREFS
331
583
102
}
  0
BLOCK_RECORD
  5
F9
100
AcDbSymbolTableRecord
100
AcDbBlockTableRecord
  2
Group-197
340
0
102
{BLKREFS
331
584
102
}
  0
BLOCK_RECORD
  5
FA
100
AcDbSymbolTableRecord
100
AcDbBlockTableRecord
  2
Group-198
340
0
102
{BLKREFS
331
585
102
}
  0
BLOCK_RECORD
  5
FB
100
AcDbSymbolTableRecord
100
AcDbBlockTableRecord
  2
Group-199
340
0
102
{BLKREFS
331
586
102
}
  0
BLOCK_RECORD
  5
FC
100
AcDbSymbolTableRecord
100
AcDbBlockTableRecord
  2
Group-200
340
0
102
{BLKREFS
331
587
102
}
  0
BLOCK_RECORD
  5
FD
100
AcDbSymbolTableRecord
100
AcDbBlockTableRecord
  2
Group-201
340
0
102
{BLKREFS
331
588
102
}
  0
BLOCK_RECORD
  5
FE
100
AcDbSymbolTableRecord
100
AcDbBlockTableRecord
  2
Group-202
340
0
102
{BLKREFS
331
589
102
}
  0
BLOCK_RECORD
  5
FF
100
AcDbSymbolTableRecord
100
AcDbBlockTableRecord
  2
Group-203
340
0
102
{BLKREFS
331
58A
102
}
  0
BLOCK_RECORD
  5
100
100
AcDbSymbolTableRecord
100
AcDbBlockTableRecord
  2
Group-204
340
0
102
{BLKREFS
331
58B
102
}
  0
BLOCK_RECORD
  5
101
100
AcDbSymbolTableRecord
100
AcDbBlockTableRecord
  2
Group-205
340
0
102
{BLKREFS
331
58C
102
}
  0
BLOCK_RECORD
  5
102
100
AcDbSymbolTableRecord
100
AcDbBlockTableRecord
  2
Group-206
340
0
102
{BLKREFS
331
58D
102
}
  0
BLOCK_RECORD
  5
103
100
AcDbSymbolTableRecord
100
AcDbBlockTableRecord
  2
Group-207
340
0
102
{BLKREFS
331
58E
102
}
  0
BLOCK_RECORD
  5
104
100
AcDbSymbolTableRecord
100
AcDbBlockTableRecord
  2
Group-208
340
0
102
{BLKREFS
331
58F
102
}
  0
BLOCK_RECORD
  5
105
100
AcDbSymbolTableRecord
100
AcDbBlockTableRecord
  2
Group-209
340
0
102
{BLKREFS
331
590
102
}
  0
BLOCK_RECORD
  5
106
100
AcDbSymbolTableRecord
100
AcDbBlockTableRecord
  2
Group-210
340
0
102
{BLKREFS
331
591
102
}
  0
BLOCK_RECORD
  5
107
100
AcDbSymbolTableRecord
100
AcDbBlockTableRecord
  2
Group-211
340
0
102
{BLKREFS
331
592
102
}
  0
BLOCK_RECORD
  5
108
100
AcDbSymbolTableRecord
100
AcDbBlockTableRecord
  2
Group-212
340
0
102
{BLKREFS
331
593
102
}
  0
BLOCK_RECORD
  5
109
100
AcDbSymbolTableRecord
100
AcDbBlockTableRecord
  2
Group-213
340
0
102
{BLKREFS
331
594
102
}
  0
BLOCK_RECORD
  5
10A
100
AcDbSymbolTableRecord
100
AcDbBlockTableRecord
  2
Group-214
340
0
102
{BLKREFS
331
595
102
}
  0
BLOCK_RECORD
  5
10B
100
AcDbSymbolTableRecord
100
AcDbBlockTableRecord
  2
Group-215
340
0
102
{BLKREFS
331
596
102
}
  0
BLOCK_RECORD
  5
10C
100
AcDbSymbolTableRecord
100
AcDbBlockTableRecord
  2
Group-216
340
0
102
{BLKREFS
331
597
102
}
  0
BLOCK_RECORD
  5
10D
100
AcDbSymbolTableRecord
100
AcDbBlockTableRecord
  2
Group-217
340
0
102
{BLKREFS
331
598
102
}
  0
BLOCK_RECORD
  5
10E
100
AcDbSymbolTableRecord
100
AcDbBlockTableRecord
  2
Group-218
340
0
102
{BLKREFS
331
599
102
}
  0
BLOCK_RECORD
  5
10F
100
AcDbSymbolTableRecord
100
AcDbBlockTableRecord
  2
Group-219
340
0
102
{BLKREFS
331
59A
102
}
  0
BLOCK_RECORD
  5
110
100
AcDbSymbolTableRecord
100
AcDbBlockTableRecord
  2
Group-220
340
0
102
{BLKREFS
331
59B
102
}
  0
BLOCK_RECORD
  5
111
100
AcDbSymbolTableRecord
100
AcDbBlockTableRecord
  2
Group-221
340
0
102
{BLKREFS
331
59C
102
}
  0
BLOCK_RECORD
  5
112
100
AcDbSymbolTableRecord
100
AcDbBlockTableRecord
  2
Group-222
340
0
102
{BLKREFS
331
59D
102
}
  0
BLOCK_RECORD
  5
113
100
AcDbSymbolTableRecord
100
AcDbBlockTableRecord
  2
Group-223
340
0
102
{BLKREFS
331
59E
102
}
  0
BLOCK_RECORD
  5
114
100
AcDbSymbolTableRecord
100
AcDbBlockTableRecord
  2
Group-224
340
0
102
{BLKREFS
331
59F
102
}
  0
BLOCK_RECORD
  5
115
100
AcDbSymbolTableRecord
100
AcDbBlockTableRecord
  2
Group-225
340
0
102
{BLKREFS
331
5A0
102
}
  0
BLOCK_RECORD
  5
116
100
AcDbSymbolTableRecord
100
AcDbBlockTableRecord
  2
Group-226
340
0
102
{BLKREFS
331
5A1
102
}
  0
BLOCK_RECORD
  5
117
100
AcDbSymbolTableRecord
100
AcDbBlockTableRecord
  2
Group-227
340
0
102
{BLKREFS
331
5A2
102
}
  0
BLOCK_RECORD
  5
118
100
AcDbSymbolTableRecord
100
AcDbBlockTableRecord
  2
Group-228
340
0
102
{BLKREFS
331
608
102
}
  0
BLOCK_RECORD
  5
119
100
AcDbSymbolTableRecord
100
AcDbBlockTableRecord
  2
IE i logo
340
0
102
{BLKREFS
331
65D
102
}
  0
BLOCK_RECORD
  5
11A
100
AcDbSymbolTableRecord
100
AcDbBlockTableRecord
  2
©2006_address
340
0
102
{BLKREFS
331
65E
102
}
  0
ENDTAB
  0
ENDSEC
  0
SECTION
  2
BLOCKS
  0
BLOCK
  5
D
100
AcDbEntity
  8
0
390
0
100
AcDbBlockBegin
  2
*MODEL_SPACE
 70
               0
 10
0.0
 20
0.0
 30
0.0
  3
*MODEL_SPACE
  1

  0
ENDBLK
  5
E
100
AcDbEntity
  8
0
390
0
100
AcDbBlockEnd
  0
BLOCK
  5
F
100
AcDbEntity
 67
               1
  8
0
390
0
100
AcDbBlockBegin
  2
*PAPER_SPACE
 70
               0
 10
0.0
 20
0.0
 30
0.0
  3
*PAPER_SPACE
  1

  0
ENDBLK
  5
10
100
AcDbEntity
 67
               1
  8
0
390
0
100
AcDbBlockEnd
  0
BLOCK
  5
137
100
AcDbEntity
  8
0
370
              -2
390
0
  6
ByBlock
 62
               0
100
AcDbBlockBegin
  2
VW_FILLEDARROW
 70
               0
 10
0.0
 20
0.0
 30
0.0
  3
VW_FILLEDARROW
  1

  0
SOLID
  5
138
100
AcDbEntity
  8
0
370
              -2
390
0
 62
               0
100
AcDbTrace
 10
0.0
 20
0.0
 30
0.0
 11
0.9999389648437499
 21
0.2679328381102956
 31
0.0
 12
0.9999389648437499
 22
-0.2679328381102956
 32
0.0
 13
0.9999389648437499
 23
-0.2679328381102956
 33
0.0
  0
ENDBLK
  5
139
100
AcDbEntity
  8
0
390
0
100
AcDbBlockEnd
  0
BLOCK
  5
13B
100
AcDbEntity
  8
0
370
              -2
390
0
  6
ByBlock
 62
               0
100
AcDbBlockBegin
  2
VW_FILLEDARROW-1
 70
               0
 10
0.0
 20
0.0
 30
0.0
  3
VW_FILLEDARROW
  1

  0
SOLID
  5
13C
100
AcDbEntity
  8
0
370
              -2
390
0
 62
               0
100
AcDbTrace
 10
0.0
 20
0.0
 30
0.0
 11
0.6662384033203125
 21
0.1785180421362783
 31
0.0
 12
0.6662384033203125
 22
-0.1785180421362783
 32
0.0
 13
0.6662384033203125
 23
-0.1785180421362783
 33
0.0
  0
ENDBLK
  5
13D
100
AcDbEntity
  8
0
390
0
100
AcDbBlockEnd
  0
BLOCK
  5
140
100
AcDbEntity
  8
Dimension
390
0
100
AcDbBlockBegin
  2
*D2
 70
               1
 10
0.0
 20
0.0
 30
0.0
  3
*D2
  1

  0
LINE
  5
141
100
AcDbEntity
  8
Dimension
370
              -2
390
0
  6
Continuous
 62
               0
100
AcDbLine
 10
-14.494449745190884
 20
62.140849211468975
 30
0.0
 11
-14.494449745190884
 21
69.361029212651758
 31
0.0
  0
LINE
  5
142
100
AcDbEntity
  8
Dimension
370
              -2
390
0
  6
Continuous
 62
               0
100
AcDbLine
 10
-15.744449745190867
 20
63.390849211469032
 30
0.0
 11
-15.744449745190867
 21
69.361029212651758
 31
0.0
  0
LINE
  5
143
100
AcDbEntity
  8
Dimension
370
              -2
390
0
  6
Continuous
 62
               0
100
AcDbLine
 10
-15.744449745190867
 20
68.408529210286204
 30
0.0
 11
-14.494449745190884
 21
68.408529210286204
 31
0.0
  0
LINE
  5
144
100
AcDbEntity
  8
Dimension
370
              -2
390
0
  6
Continuous
 62
               0
100
AcDbLine
 10
-14.494449745190884
 20
68.408529210286204
 30
0.0
 11
-12.744453246824069
 21
68.408529210286204
 31
0.0
  0
SOLID
  5
145
100
AcDbEntity
  8
Dimension
370
              -2
390
0
 62
               0
100
AcDbTrace
 10
-14.494449745190884
 20
68.408529210286204
 30
0.0
 11
-13.700699745190885
 21
68.621213881778402
 31
0.0
 12
-13.700699745190885
 22
68.195844538793992
 32
0.0
 13
-13.700699745190885
 23
68.195844538793992
 33
0.0
  0
LINE
  5
146
100
AcDbEntity
  8
Dimension
370
              -2
390
0
  6
Continuous
 62
               0
100
AcDbLine
 10
-15.744449745190867
 20
68.408529210286204
 30
0.0
 11
-18.725549745190868
 21
68.408529210286204
 31
0.0
  0
SOLID
  5
147
100
AcDbEntity
  8
Dimension
370
              -2
390
0
 62
               0
100
AcDbTrace
 10
-15.744449745190867
 20
68.408529210286204
 30
0.0
 11
-16.538199745190866
 21
68.195844538793992
 31
0.0
 12
-16.538199745190866
 22
68.621213881778402
 32
0.0
 13
-16.538199745190866
 23
68.621213881778402
 33
0.0
  0
WIPEOUT
  5
148
100
AcDbEntity
  8
Dimension
370
              -2
390
0
  6
Continuous
 62
               0
 92
        0
100
AcDbWipeout
 90
        0
 10
-28.022118382614913
 20
36.418778301397332
 30
0.0
 11
3.4242926941977601
 21
0.0
 31
0.0
 12
0.0
 22
3.4242926941977601
 32
0.0
 13
1.0
 23
1.0
340
0
 70
               7
280
               1
281
              50
282
              50
283
               0
360
0
 71
               2
 91
        5
 14
-0.5
 24
-8.6889720914677095
 14
0.5
 24
-8.6889720914677095
 14
0.5
 24
-9.004906173806269
 14
-0.5
 24
-9.004906173806269
 14
-0.5
 24
-8.6889720914677095
  0
MTEXT
  5
149
100
AcDbEntity
  8
Dimension
390
0
 62
               0
100
AcDbMText
 10
-28.022118382614913
 20
68.793400139418154
 30
0.0
 40
0.6737068880208333
 41
0.0
 71
               1
 72
               1
  1
1.25mm
  7
Helvetica
 73
               1
 44
0.9673603504928808
  0
WIPEOUT
  5
14A
100
AcDbEntity
  8
Dimension
370
              -2
390
0
  6
Continuous
 62
               0
 92
        0
100
AcDbWipeout
 90
        0
 10
-24.597825688417153
 20
36.404078756952885
 30
0.0
 11
3.9416996081670135
 21
0.0
 31
0.0
 12
0.0
 22
3.9416996081670135
 32
0.0
 13
1.0
 23
1.0
340
0
 70
               7
280
               1
281
              50
282
              50
283
               0
360
0
 71
               2
 91
        5
 14
-0.5
 24
-7.4827823345047628
 14
0.5
 24
-7.4827823345047628
 14
0.5
 24
-7.7572453523761542
 14
-0.5
 24
-7.7572453523761542
 14
-0.5
 24
-7.4827823345047628
  0
MTEXT
  5
14B
100
AcDbEntity
  8
Dimension
390
0
 62
               0
100
AcDbMText
 10
-24.597825688417153
 20
68.778700594973699
 30
0.0
 40
0.6737068880208333
 41
0.0
 71
               1
 72
               1
  1
±0.13mm
  7
Helvetica
 73
               1
 44
0.9673603504928808
  0
WIPEOUT
  5
14C
100
AcDbEntity
  8
Dimension
370
              -2
390
0
  6
Continuous
 62
               0
 92
        0
100
AcDbWipeout
 90
        0
 10
-20.656126080250139
 20
36.384969349175115
 30
0.0
 11
1.9305763350592713
 21
0.0
 31
0.0
 12
0.0
 22
1.9305763350592713
 32
0.0
 13
1.0
 23
1.0
340
0
 70
               7
280
               1
281
              50
282
              50
283
               0
360
0
 71
               2
 91
        5
 14
-0.5
 24
-15.798619965749214
 14
0.5
 24
-15.798619965749214
 14
0.5
 24
-16.376509429098494
 14
-0.5
 24
-16.376509429098494
 14
-0.5
 24
-15.798619965749214
  0
MTEXT
  5
14D
100
AcDbEntity
  8
Dimension
390
0
 62
               0
100
AcDbMText
 10
-20.656126080250139
 20
68.787994994429724
 30
0.0
 40
0.6947609230324073
 41
0.0
 71
               1
 72
               1
  1
 (x4)
  7
Helvetica
 73
               1
 44
0.9673603504928808
  0
POINT
  5
14E
100
AcDbEntity
  8
Defpoints
370
               0
390
0
 62
               0
100
AcDbPoint
 10
-15.744449745190867
 20
62.914599210286255
 30
0.0
  0
POINT
  5
14F
100
AcDbEntity
  8
Defpoints
370
               0
390
0
 62
               0
100
AcDbPoint
 10
-14.494449745190884
 20
61.664599210286198
 30
0.0
  0
POINT
  5
150
100
AcDbEntity
  8
Defpoints
370
               0
390
0
 62
               0
100
AcDbPoint
 10
-14.494449745190884
 20
68.408529210286204
 30
0.0
  0
ENDBLK
  5
151
100
AcDbEntity
  8
Dimension
390
0
100
AcDbBlockEnd
  0
BLOCK
  5
152
100
AcDbEntity
  8
Dimension
390
0
100
AcDbBlockBegin
  2
*D3
 70
               1
 10
0.0
 20
0.0
 30
0.0
  3
*D3
  1

  0
LINE
  5
153
100
AcDbEntity
  8
Dimension
370
              -2
390
0
  6
Continuous
 62
               0
100
AcDbLine
 10
-14.970699746373665
 20
48.939599210286204
 30
0.0
 11
-19.877139747556445
 21
48.939599210286204
 31
0.0
  0
LINE
  5
154
100
AcDbEntity
  8
Dimension
370
              -2
390
0
  6
Continuous
 62
               0
100
AcDbLine
 10
-14.91049974637367
 20
54.019599210286202
 30
0.0
 11
-19.877139747556445
 21
54.019599210286202
 31
0.0
  0
LINE
  5
155
100
AcDbEntity
  8
Dimension
370
              -2
390
0
  6
Continuous
 62
               0
100
AcDbLine
 10
-18.924639745190884
 20
48.939599210286204
 30
0.0
 11
-18.924639745190884
 21
54.019599210286202
 31
0.0
  0
SOLID
  5
156
100
AcDbEntity
  8
Dimension
370
              -2
390
0
 62
               0
100
AcDbTrace
 10
-18.924639745190884
 20
48.939599210286204
 30
0.0
 11
-19.137324416683089
 21
49.733349210286207
 31
0.0
 12
-18.711955073698682
 22
49.733349210286207
 32
0.0
 13
-18.711955073698682
 23
49.733349210286207
 33
0.0
  0
SOLID
  5
157
100
AcDbEntity
  8
Dimension
370
              -2
390
0
 62
               0
100
AcDbTrace
 10
-18.924639745190884
 20
54.019599210286202
 30
0.0
 11
-18.711955073698682
 21
53.225849210286206
 31
0.0
 12
-19.137324416683089
 22
53.225849210286206
 32
0.0
 13
-19.137324416683089
 23
53.225849210286206
 33
0.0
  0
WIPEOUT
  5
158
100
AcDbEntity
  8
Dimension
370
              -2
390
0
  6
Continuous
 62
               0
 92
        0
100
AcDbWipeout
 90
        0
 10
-20.900193248492293
 20
18.895459694426847
 30
0.0
 11
3.9511070066028164
 21
0.0
 31
0.0
 12
0.0
 22
3.9511070066028164
 32
0.0
 13
1.0
 23
1.0
340
0
 70
               7
280
               1
281
              50
282
              50
283
               0
360
0
 71
               2
 91
        5
 14
-0.5
 24
-7.4637757082803962
 14
0.4999999999999996
 24
-7.4637757082803962
 14
0.4999999999999996
 24
-7.7375852427202609
 14
-0.5
 24
-7.7375852427202609
 14
-0.5
 24
-7.4637757082803962
  0
MTEXT
  5
159
100
AcDbEntity
  8
Dimension
390
0
 62
               0
100
AcDbMText
 10
-20.900193248492293
 20
51.270081532447662
 30
0.0
 40
0.6737068880208333
 41
0.0
 71
               1
 72
               1
  1
5.080mm
  7
Helvetica
 73
               1
 44
0.9673603504928808
  0
POINT
  5
15A
100
AcDbEntity
  8
Defpoints
370
               0
390
0
 62
               0
100
AcDbPoint
 10
-14.43424974519089
 20
54.019599210286202
 30
0.0
  0
POINT
  5
15B
100
AcDbEntity
  8
Defpoints
370
               0
390
0
 62
               0
100
AcDbPoint
 10
-14.494449745190884
 20
48.939599210286204
 30
0.0
  0
POINT
  5
15C
100
AcDbEntity
  8
Defpoints
370
               0
390
0
 62
               0
100
AcDbPoint
 10
-18.924639745190884
 20
48.939599210286204
 30
0.0
  0
ENDBLK
  5
15D
100
AcDbEntity
  8
Dimension
390
0
100
AcDbBlockEnd
  0
BLOCK
  5
15E
100
AcDbEntity
  8
Dimension
390
0
100
AcDbBlockBegin
  2
*D4
 70
               1
 10
0.0
 20
0.0
 30
0.0
  3
*D4
  1

  0
LINE
  5
15F
100
AcDbEntity
  8
Dimension
370
              -2
390
0
  6
Continuous
 62
               0
100
AcDbLine
 10
-15.744449745190867
 20
47.213349209103427
 30
0.0
 11
-15.744449745190867
 21
38.703489207920647
 31
0.0
  0
LINE
  5
160
100
AcDbEntity
  8
Dimension
370
              -2
390
0
  6
Continuous
 62
               0
100
AcDbLine
 10
-0.5194497451909745
 20
47.213349209103427
 30
0.0
 11
-0.5194497451909745
 21
38.703489207920647
 31
0.0
  0
LINE
  5
161
100
AcDbEntity
  8
Dimension
370
              -2
390
0
  6
Continuous
 62
               0
100
AcDbLine
 10
-15.744449745190867
 20
39.655989210286208
 30
0.0
 11
-0.5194497451909745
 21
39.655989210286208
 31
0.0
  0
SOLID
  5
162
100
AcDbEntity
  8
Dimension
370
              -2
390
0
 62
               0
100
AcDbTrace
 10
-15.744449745190867
 20
39.655989210286208
 30
0.0
 11
-14.950699745190867
 21
39.868673881778413
 31
0.0
 12
-14.950699745190867
 22
39.443304538794003
 32
0.0
 13
-14.950699745190867
 23
39.443304538794003
 33
0.0
  0
SOLID
  5
163
100
AcDbEntity
  8
Dimension
370
              -2
390
0
 62
               0
100
AcDbTrace
 10
-0.5194497451909745
 20
39.655989210286208
 30
0.0
 11
-1.3131997451909747
 21
39.443304538794003
 31
0.0
 12
-1.3131997451909747
 22
39.868673881778413
 32
0.0
 13
-1.3131997451909747
 23
39.868673881778413
 33
0.0
  0
WIPEOUT
  5
164
100
AcDbEntity
  8
Dimension
370
              -2
390
0
  6
Continuous
 62
               0
 92
        0
100
AcDbWipeout
 90
        0
 10
-13.200377636392366
 20
7.6662383013973345
 30
0.0
 11
4.4779213190078728
 21
0.0
 31
0.0
 12
0.0
 22
4.4779213190078728
 32
0.0
 13
1.0
 23
1.0
340
0
 70
               7
280
               1
281
              50
282
              50
283
               0
360
0
 71
               2
 91
        5
 14
-0.5
 24
-6.5268608486786732
 14
0.5
 24
-6.5268608486786732
 14
0.5
 24
-6.768457494293628
 14
-0.5
 24
-6.768457494293628
 14
-0.5
 24
-6.5268608486786732
  0
MTEXT
  5
165
100
AcDbEntity
  8
Dimension
390
0
 62
               0
100
AcDbMText
 10
-13.200377636392366
 20
40.04086013941815
 30
0.0
 40
0.6737068880208333
 41
0.0
 71
               1
 72
               1
  1
15.225mm
  7
Helvetica
 73
               1
 44
0.9673603504928808
  0
WIPEOUT
  5
166
100
AcDbEntity
  8
Dimension
370
              -2
390
0
  6
Continuous
 62
               0
 92
        0
100
AcDbWipeout
 90
        0
 10
-8.7224563173844931
 20
7.6515387569528892
 30
0.0
 11
4.468513920572069
 21
0.0
 31
0.0
 12
0.0
 22
4.468513920572069
 32
0.0
 13
1.0
 23
1.0
340
0
 70
               7
280
               1
281
              50
282
              50
283
               0
360
0
 71
               2
 91
        5
 14
-0.5
 24
-6.5416542410528455
 14
0.5
 24
-6.5416542410528455
 14
0.5
 24
-6.7837595112231783
 14
-0.5
 24
-6.7837595112231783
 14
-0.5
 24
-6.5416542410528455
  0
MTEXT
  5
167
100
AcDbEntity
  8
Dimension
390
0
 62
               0
100
AcDbMText
 10
-8.7224563173844931
 20
40.026160594973703
 30
0.0
 40
0.6737068880208333
 41
0.0
 71
               1
 72
               1
  1
±0.125mm
  7
Helvetica
 73
               1
 44
0.9673603504928808
  0
WIPEOUT
  5
168
100
AcDbEntity
  8
Dimension
370
              -2
390
0
  6
Continuous
 62
               0
 92
        0
100
AcDbWipeout
 90
        0
 10
-4.253942396812425
 20
7.632429349175113
 30
0.0
 11
1.9305763350592722
 21
0.0
 31
0.0
 12
0.0
 22
1.9305763350592722
 32
0.0
 13
1.0
 23
1.0
340
0
 70
               7
280
               1
281
              50
282
              50
283
               0
360
0
 71
               2
 91
        5
 14
-0.5
 24
-15.798619965749207
 14
0.5
 24
-15.798619965749207
 14
0.5
 24
-16.376509429098487
 14
-0.5
 24
-16.376509429098487
 14
-0.5
 24
-15.798619965749207
  0
MTEXT
  5
169
100
AcDbEntity
  8
Dimension
390
0
 62
               0
100
AcDbMText
 10
-4.253942396812425
 20
40.035454994429728
 30
0.0
 40
0.6947609230324073
 41
0.0
 71
               1
 72
               1
  1
 (x4)
  7
Helvetica
 73
               1
 44
0.9673603504928808
  0
POINT
  5
16A
100
AcDbEntity
  8
Defpoints
370
               0
390
0
 62
               0
100
AcDbPoint
 10
-0.5194497451909745
 20
47.689599210286204
 30
0.0
  0
POINT
  5
16B
100
AcDbEntity
  8
Defpoints
370
               0
390
0
 62
               0
100
AcDbPoint
 10
-15.744449745190867
 20
47.689599210286204
 30
0.0
  0
POINT
  5
16C
100
AcDbEntity
  8
Defpoints
370
               0
390
0
 62
               0
100
AcDbPoint
 10
-15.744449745190867
 20
39.655989210286208
 30
0.0
  0
ENDBLK
  5
16D
100
AcDbEntity
  8
Dimension
390
0
100
AcDbBlockEnd
  0
BLOCK
  5
16E
100
AcDbEntity
  8
Dimension
390
0
100
AcDbBlockBegin
  2
*D5
 70
               1
 10
0.0
 20
0.0
 30
0.0
  3
*D5
  1

  0
LINE
  5
16F
100
AcDbEntity
  8
Dimension
370
              -2
390
0
  6
Continuous
 62
               0
100
AcDbLine
 10
-14.494449745190884
 20
48.463349209103427
 30
0.0
 11
-14.494449745190884
 21
40.530229207920648
 31
0.0
  0
LINE
  5
170
100
AcDbEntity
  8
Dimension
370
              -2
390
0
  6
Continuous
 62
               0
100
AcDbLine
 10
-1.7694497451909745
 20
48.463349209103427
 30
0.0
 11
-1.7694497451909745
 21
40.530229207920648
 31
0.0
  0
LINE
  5
171
100
AcDbEntity
  8
Dimension
370
              -2
390
0
  6
Continuous
 62
               0
100
AcDbLine
 10
-14.494449745190884
 20
41.482729210286209
 30
0.0
 11
-1.7694497451909745
 21
41.482729210286209
 31
0.0
  0
SOLID
  5
172
100
AcDbEntity
  8
Dimension
370
              -2
390
0
 62
               0
100
AcDbTrace
 10
-14.494449745190884
 20
41.482729210286209
 30
0.0
 11
-13.700699745190885
 21
41.695413881778414
 31
0.0
 12
-13.700699745190885
 22
41.270044538794004
 32
0.0
 13
-13.700699745190885
 23
41.270044538794004
 33
0.0
  0
SOLID
  5
173
100
AcDbEntity
  8
Dimension
370
              -2
390
0
 62
               0
100
AcDbTrace
 10
-1.7694497451909745
 20
41.482729210286209
 30
0.0
 11
-2.5631997451909747
 21
41.270044538794004
 31
0.0
 12
-2.5631997451909743
 22
41.695413881778414
 32
0.0
 13
-2.5631997451909743
 23
41.695413881778414
 33
0.0
  0
WIPEOUT
  5
174
100
AcDbEntity
  8
Dimension
370
              -2
390
0
  6
Continuous
 62
               0
 92
        0
100
AcDbWipeout
 90
        0
 10
-11.07044964622073
 20
9.4760738252862247
 30
0.0
 11
6.3499932712978771
 21
0.0
 31
0.0
 12
0.0
 22
6.3499932712978771
 32
0.0
 13
1.0
 23
1.0
340
0
 70
               7
280
               1
281
              50
282
              50
283
               0
360
0
 71
               2
 91
        5
 14
-0.5
 24
-4.4552383216256057
 14
0.5000000000000002
 24
-4.4552383216256057
 14
0.5000000000000002
 24
-4.6256087021565575
 14
-0.5
 24
-4.6256087021565575
 14
-0.5
 24
-4.4552383216256057
  0
MTEXT
  5
175
100
AcDbEntity
  8
Dimension
390
0
 62
               0
100
AcDbMText
 10
-11.07044964622073
 20
41.850695663307043
 30
0.0
 40
0.6737068880208333
 41
0.0
 71
               1
 72
               1
  1
12.725mm (x4)
  7
Helvetica
 73
               1
 44
0.9673603504928808
  0
POINT
  5
176
100
AcDbEntity
  8
Defpoints
370
               0
390
0
 62
               0
100
AcDbPoint
 10
-1.7694497451909745
 20
48.939599210286204
 30
0.0
  0
POINT
  5
177
100
AcDbEntity
  8
Defpoints
370
               0
390
0
 62
               0
100
AcDbPoint
 10
-14.494449745190884
 20
48.939599210286204
 30
0.0
  0
POINT
  5
178
100
AcDbEntity
  8
Defpoints
370
               0
390
0
 62
               0
100
AcDbPoint
 10
-14.494449745190884
 20
41.482729210286209
 30
0.0
  0
ENDBLK
  5
179
100
AcDbEntity
  8
Dimension
390
0
100
AcDbBlockEnd
  0
BLOCK
  5
17A
100
AcDbEntity
  8
Dimension
390
0
100
AcDbBlockBegin
  2
*D6
 70
               1
 10
0.0
 20
0.0
 30
0.0
  3
*D6
  1

  0
LINE
  5
17B
100
AcDbEntity
  8
Dimension
370
              -2
390
0
  6
Continuous
 62
               0
100
AcDbLine
 10
-1.293199744008195
 20
61.664599210286198
 30
0.0
 11
6.4877102571745846
 21
61.664599210286198
 31
0.0
  0
LINE
  5
17C
100
AcDbEntity
  8
Dimension
370
              -2
390
0
  6
Continuous
 62
               0
100
AcDbLine
 10
-1.293199744008195
 20
59.124599210286206
 30
0.0
 11
6.4877102571745846
 21
59.124599210286206
 31
0.0
  0
LINE
  5
17D
100
AcDbEntity
  8
Dimension
370
              -2
390
0
  6
Continuous
 62
               0
100
AcDbLine
 10
5.5352102548090256
 20
59.124599210286206
 30
0.0
 11
5.5352102548090256
 21
61.664599210286198
 31
0.0
  0
LINE
  5
17E
100
AcDbEntity
  8
Dimension
370
              -2
390
0
  6
Continuous
 62
               0
100
AcDbLine
 10
5.5352102548090256
 20
61.664599210286198
 30
0.0
 11
5.5352102548090256
 21
63.414595708653025
 31
0.0
  0
SOLID
  5
17F
100
AcDbEntity
  8
Dimension
370
              -2
390
0
 62
               0
100
AcDbTrace
 10
5.5352102548090256
 20
61.664599210286198
 30
0.0
 11
5.3225255833168221
 21
62.458349210286201
 31
0.0
 12
5.7478949263012291
 22
62.458349210286201
 32
0.0
 13
5.7478949263012291
 23
62.458349210286201
 33
0.0
  0
LINE
  5
180
100
AcDbEntity
  8
Dimension
370
              -2
390
0
  6
Continuous
 62
               0
100
AcDbLine
 10
5.5352102548090256
 20
59.124599210286206
 30
0.0
 11
5.5352102548090256
 21
57.374602711919394
 31
0.0
  0
SOLID
  5
181
100
AcDbEntity
  8
Dimension
370
              -2
390
0
 62
               0
100
AcDbTrace
 10
5.5352102548090256
 20
59.124599210286206
 30
0.0
 11
5.7478949263012291
 21
58.330849210286203
 31
0.0
 12
5.3225255833168221
 22
58.330849210286203
 32
0.0
 13
5.3225255833168221
 23
58.330849210286203
 33
0.0
  0
WIPEOUT
  5
182
100
AcDbEntity
  8
Dimension
370
              -2
390
0
  6
Continuous
 62
               0
 92
        0
100
AcDbWipeout
 90
        0
 10
3.5596567515076165
 20
28.387943825286222
 30
0.0
 11
3.9511070066028164
 21
0.0
 31
0.0
 12
0.0
 22
3.9511070066028164
 32
0.0
 13
1.0
 23
1.0
340
0
 70
               7
280
               1
281
              50
282
              50
283
               0
360
0
 71
               2
 91
        5
 14
-0.5
 24
-7.4637757082803979
 14
0.5
 24
-7.4637757082803979
 14
0.5
 24
-7.7375852427202627
 14
-0.5
 24
-7.7375852427202627
 14
-0.5
 24
-7.4637757082803979
  0
MTEXT
  5
183
100
AcDbEntity
  8
Dimension
390
0
 62
               0
100
AcDbMText
 10
3.5596567515076165
 20
60.762565663307043
 30
0.0
 40
0.6737068880208333
 41
0.0
 71
               1
 72
               1
  1
2.540mm
  7
Helvetica
 73
               1
 44
0.9673603504928808
  0
POINT
  5
184
100
AcDbEntity
  8
Defpoints
370
               0
390
0
 62
               0
100
AcDbPoint
 10
-1.7694497451909745
 20
59.124599210286206
 30
0.0
  0
POINT
  5
185
100
AcDbEntity
  8
Defpoints
370
               0
390
0
 62
               0
100
AcDbPoint
 10
-1.7694497451909745
 20
61.664599210286198
 30
0.0
  0
POINT
  5
186
100
AcDbEntity
  8
Defpoints
370
               0
390
0
 62
               0
100
AcDbPoint
 10
5.5352102548090256
 20
61.664599210286198
 30
0.0
  0
ENDBLK
  5
187
100
AcDbEntity
  8
Dimension
390
0
100
AcDbBlockEnd
  0
BLOCK
  5
188
100
AcDbEntity
  8
Dimension
390
0
100
AcDbBlockBegin
  2
*D7
 70
               1
 10
0.0
 20
0.0
 30
0.0
  3
*D7
  1

  0
LINE
  5
189
100
AcDbEntity
  8
Dimension
370
              -2
390
0
  6
Continuous
 62
               0
100
AcDbLine
 10
-4.2548603422094846
 20
54.721331975211676
 30
0.0
 11
4.4767383755014114
 21
50.927127117008439
 31
0.0
  0
SOLID
  5
18A
100
AcDbEntity
  8
Dimension
370
              -2
390
0
 62
               0
100
AcDbTrace
 10
-4.2548603422094846
 20
54.721331975211676
 30
0.0
 11
-3.7139035397792513
 21
54.635652834819012
 31
0.0
 12
-3.8292175791512348
 22
54.376653261842101
 32
0.0
 13
-3.8292175791512348
 23
54.376653261842101
 33
0.0
  0
LINE
  5
18B
100
AcDbEntity
  8
Dimension
370
              -2
390
0
  6
Continuous
 62
               0
100
AcDbLine
 10
4.4767383755014114
 20
50.927127117008439
 30
0.0
 11
5.9767353774809111
 21
50.927127117008439
 31
0.0
  0
WIPEOUT
  5
18C
100
AcDbEntity
  8
Dimension
370
              -2
390
0
  6
Continuous
 62
               0
 92
        0
100
AcDbWipeout
 90
        0
 10
5.9767353774809111
 20
18.920471732008458
 30
0.0
 11
6.2653266853756353
 21
0.0
 31
0.0
 12
0.0
 22
6.2653266853756353
 32
0.0
 13
1.0
 23
1.0
340
0
 70
               7
280
               1
281
              50
282
              50
283
               0
360
0
 71
               2
 91
        5
 14
-0.5
 24
-4.5222010088390903
 14
0.5000000000000002
 24
-4.5222010088390903
 14
0.5000000000000002
 24
-4.6948736920569054
 14
-0.5
 24
-4.6948736920569054
 14
-0.5
 24
-4.5222010088390903
  0
MTEXT
  5
18D
100
AcDbEntity
  8
Dimension
390
0
 62
               0
100
AcDbMText
 10
5.9767353774809111
 20
51.295093570029273
 30
0.0
 40
0.6737068880208333
 41
0.0
 71
               1
 72
               1
  1
Ø 0.28mm pad
  7
Helvetica
 73
               1
 44
0.9673603504928808
  0
POINT
  5
18E
100
AcDbEntity
  8
Defpoints
370
               0
390
0
 62
               0
100
AcDbPoint
 10
-4.5116603422094856
 20
54.832931975211672
 30
0.0
  0
POINT
  5
18F
100
AcDbEntity
  8
Defpoints
370
               0
390
0
 62
               0
100
AcDbPoint
 10
-4.2548603422094846
 20
54.721331975211676
 30
0.0
  0
ENDBLK
  5
190
100
AcDbEntity
  8
Dimension
390
0
100
AcDbBlockEnd
  0
BLOCK
  5
191
100
AcDbEntity
  8
Dimension
390
0
100
AcDbBlockBegin
  2
*D8
 70
               1
 10
0.0
 20
0.0
 30
0.0
  3
*D8
  1

  0
LINE
  5
192
100
AcDbEntity
  8
Dimension
370
              -2
390
0
  6
Continuous
 62
               0
100
AcDbLine
 10
-14.970699746373665
 20
61.664599210286198
 30
0.0
 11
-20.452500002365561
 21
61.664599210286198
 31
0.0
  0
LINE
  5
193
100
AcDbEntity
  8
Dimension
370
              -2
390
0
  6
Continuous
 62
               0
100
AcDbLine
 10
-11.858199746373682
 20
58.802099210286201
 30
0.0
 11
-20.452500002365561
 21
58.802099210286201
 31
0.0
  0
LINE
  5
194
100
AcDbEntity
  8
Dimension
370
              -2
390
0
  6
Continuous
 62
               0
100
AcDbLine
 10
-19.5
 20
58.802099210286201
 30
0.0
 11
-19.5
 21
61.664599210286198
 31
0.0
  0
LINE
  5
195
100
AcDbEntity
  8
Dimension
370
              -2
390
0
  6
Continuous
 62
               0
100
AcDbLine
 10
-19.5
 20
61.664599210286198
 30
0.0
 11
-19.5
 21
63.414595708653025
 31
0.0
  0
SOLID
  5
196
100
AcDbEntity
  8
Dimension
370
              -2
390
0
 62
               0
100
AcDbTrace
 10
-19.5
 20
61.664599210286198
 30
0.0
 11
-19.712684671492205
 21
62.458349210286201
 31
0.0
 12
-19.287315328507798
 22
62.458349210286201
 32
0.0
 13
-19.287315328507798
 23
62.458349210286201
 33
0.0
  0
LINE
  5
197
100
AcDbEntity
  8
Dimension
370
              -2
390
0
  6
Continuous
 62
               0
100
AcDbLine
 10
-19.5
 20
58.802099210286201
 30
0.0
 11
-19.5
 21
57.052102711919389
 31
0.0
  0
SOLID
  5
198
100
AcDbEntity
  8
Dimension
370
              -2
390
0
 62
               0
100
AcDbTrace
 10
-19.5
 20
58.802099210286201
 30
0.0
 11
-19.287315328507798
 21
58.008349210286205
 31
0.0
 12
-19.712684671492205
 22
58.008349210286205
 32
0.0
 13
-19.712684671492205
 23
58.008349210286205
 33
0.0
  0
WIPEOUT
  5
199
100
AcDbEntity
  8
Dimension
370
              -2
390
0
  6
Continuous
 62
               0
 92
        0
100
AcDbWipeout
 90
        0
 10
-21.738960659503938
 20
28.393344615000018
 30
0.0
 11
4.4779213190078728
 21
0.0
 31
0.0
 12
0.0
 22
4.4779213190078728
 32
0.0
 13
1.0
 23
1.0
340
0
 70
               7
280
               1
281
              50
282
              50
283
               0
360
0
 71
               2
 91
        5
 14
-0.5
 24
-6.5268608486786723
 14
0.5
 24
-6.5268608486786723
 14
0.5
 24
-6.768457494293628
 14
-0.5
 24
-6.768457494293628
 14
-0.5
 24
-6.5268608486786723
  0
MTEXT
  5
19A
100
AcDbEntity
  8
Dimension
390
0
 62
               0
100
AcDbMText
 10
-21.738960659503938
 20
60.767966453020833
 30
0.0
 40
0.6737068880208333
 41
0.0
 71
               1
 72
               1
  1
2.8625mm
  7
Helvetica
 73
               1
 44
0.9673603504928808
  0
POINT
  5
19B
100
AcDbEntity
  8
Defpoints
370
               0
390
0
 62
               0
100
AcDbPoint
 10
-11.381949745190902
 20
58.802099210286201
 30
0.0
  0
POINT
  5
19C
100
AcDbEntity
  8
Defpoints
370
               0
390
0
 62
               0
100
AcDbPoint
 10
-14.494449745190884
 20
61.664599210286198
 30
0.0
  0
POINT
  5
19D
100
AcDbEntity
  8
Defpoints
370
               0
390
0
 62
               0
100
AcDbPoint
 10
-19.5
 20
61.664599210286198
 30
0.0
  0
ENDBLK
  5
19E
100
AcDbEntity
  8
Dimension
390
0
100
AcDbBlockEnd
  0
BLOCK
  5
19F
100
AcDbEntity
  8
Dimension
390
0
100
AcDbBlockBegin
  2
*D9
 70
               1
 10
0.0
 20
0.0
 30
0.0
  3
*D9
  1

  0
LINE
  5
1A0
100
AcDbEntity
  8
Dimension
370
              -2
390
0
  6
Continuous
 62
               0
100
AcDbLine
 10
-11.381949745190902
 20
51.325849209103424
 30
0.0
 11
-11.381949745190902
 21
42.609599207920652
 31
0.0
  0
LINE
  5
1A1
100
AcDbEntity
  8
Dimension
370
              -2
390
0
  6
Continuous
 62
               0
100
AcDbLine
 10
-4.3819497451909024
 20
51.325849209103424
 30
0.0
 11
-4.3819497451909024
 21
42.609599207920645
 31
0.0
  0
LINE
  5
1A2
100
AcDbEntity
  8
Dimension
370
              -2
390
0
  6
Continuous
 62
               0
100
AcDbLine
 10
-11.381949745190902
 20
43.562099210286206
 30
0.0
 11
-4.3819497451909024
 21
43.562099210286206
 31
0.0
  0
SOLID
  5
1A3
100
AcDbEntity
  8
Dimension
370
              -2
390
0
 62
               0
100
AcDbTrace
 10
-11.381949745190902
 20
43.562099210286206
 30
0.0
 11
-10.588199745190902
 21
43.774783881778411
 31
0.0
 12
-10.588199745190902
 22
43.349414538794001
 32
0.0
 13
-10.588199745190902
 23
43.349414538794001
 33
0.0
  0
SOLID
  5
1A4
100
AcDbEntity
  8
Dimension
370
              -2
390
0
 62
               0
100
AcDbTrace
 10
-4.3819497451909024
 20
43.562099210286206
 30
0.0
 11
-5.1756997451909026
 21
43.349414538794001
 31
0.0
 12
-5.1756997451909026
 22
43.774783881778411
 32
0.0
 13
-5.1756997451909026
 23
43.774783881778411
 33
0.0
  0
WIPEOUT
  5
1A5
100
AcDbEntity
  8
Dimension
370
              -2
390
0
  6
Continuous
 62
               0
 92
        0
100
AcDbWipeout
 90
        0
 10
-9.5940960922897816
 20
11.555443825286222
 30
0.0
 11
3.4242926941977601
 21
0.0
 31
0.0
 12
0.0
 22
3.4242926941977601
 32
0.0
 13
1.0
 23
1.0
340
0
 70
               7
280
               1
281
              50
282
              50
283
               0
360
0
 71
               2
 91
        5
 14
-0.5
 24
-8.6889720914677078
 14
0.4999999999999998
 24
-8.6889720914677078
 14
0.4999999999999998
 24
-9.0049061738062655
 14
-0.5
 24
-9.0049061738062655
 14
-0.5
 24
-8.6889720914677078
  0
MTEXT
  5
1A6
100
AcDbEntity
  8
Dimension
390
0
 62
               0
100
AcDbMText
 10
-9.5940960922897816
 20
43.930065663307033
 30
0.0
 40
0.6737068880208333
 41
0.0
 71
               1
 72
               1
  1
7.00mm
  7
Helvetica
 73
               1
 44
0.9673603504928808
  0
POINT
  5
1A7
100
AcDbEntity
  8
Defpoints
370
               0
390
0
 62
               0
100
AcDbPoint
 10
-4.3819497451909024
 20
51.802099210286201
 30
0.0
  0
POINT
  5
1A8
100
AcDbEntity
  8
Defpoints
370
               0
390
0
 62
               0
100
AcDbPoint
 10
-11.381949745190902
 20
51.802099210286201
 30
0.0
  0
POINT
  5
1A9
100
AcDbEntity
  8
Defpoints
370
               0
390
0
 62
               0
100
AcDbPoint
 10
-11.381949745190902
 20
43.562099210286206
 30
0.0
  0
ENDBLK
  5
1AA
100
AcDbEntity
  8
Dimension
390
0
100
AcDbBlockEnd
  0
BLOCK
  5
1AB
100
AcDbEntity
  8
Dimension
390
0
100
AcDbBlockBegin
  2
*D10
 70
               1
 10
0.0
 20
0.0
 30
0.0
  3
*D10
  1

  0
LINE
  5
1AC
100
AcDbEntity
  8
Dimension
370
              -2
390
0
  6
Continuous
 62
               0
100
AcDbLine
 10
-11.381949745190902
 20
59.278349211468978
 30
0.0
 11
-11.381949745190902
 21
68.697463520365559
 31
0.0
  0
LINE
  5
1AD
100
AcDbEntity
  8
Dimension
370
              -2
390
0
  6
Continuous
 62
               0
100
AcDbLine
 10
-14.494449745190884
 20
62.140849211468975
 30
0.0
 11
-14.494449745190884
 21
68.697463520365559
 31
0.0
  0
LINE
  5
1AE
100
AcDbEntity
  8
Dimension
370
              -2
390
0
  6
Continuous
 62
               0
100
AcDbLine
 10
-14.494449745190884
 20
67.744963518000006
 30
0.0
 11
-11.381949745190902
 21
67.744963518000006
 31
0.0
  0
LINE
  5
1AF
100
AcDbEntity
  8
Dimension
370
              -2
390
0
  6
Continuous
 62
               0
100
AcDbLine
 10
-11.381949745190902
 20
67.744963518000006
 30
0.0
 11
-9.9000000000000021
 21
67.744963518000006
 31
0.0
  0
SOLID
  5
1B0
100
AcDbEntity
  8
Dimension
370
              -2
390
0
 62
               0
100
AcDbTrace
 10
-11.381949745190902
 20
67.744963518000006
 30
0.0
 11
-10.588199745190902
 21
67.957648189492204
 31
0.0
 12
-10.588199745190902
 22
67.532278846507793
 32
0.0
 13
-10.588199745190902
 23
67.532278846507793
 33
0.0
  0
LINE
  5
1B1
100
AcDbEntity
  8
Dimension
370
              -2
390
0
  6
Continuous
 62
               0
100
AcDbLine
 10
-14.494449745190884
 20
67.744963518000006
 30
0.0
 11
-16.244446243557704
 21
67.744963518000006
 31
0.0
  0
SOLID
  5
1B2
100
AcDbEntity
  8
Dimension
370
              -2
390
0
 62
               0
100
AcDbTrace
 10
-14.494449745190884
 20
67.744963518000006
 30
0.0
 11
-15.288199745190884
 21
67.532278846507793
 31
0.0
 12
-15.288199745190884
 22
67.957648189492204
 32
0.0
 13
-15.288199745190884
 23
67.957648189492204
 33
0.0
  0
WIPEOUT
  5
1B3
100
AcDbEntity
  8
Dimension
370
              -2
390
0
  6
Continuous
 62
               0
 92
        0
100
AcDbWipeout
 90
        0
 10
-9.9000000000000021
 20
35.724197036000021
 30
0.0
 11
4.9388838423622978
 21
0.0
 31
0.0
 12
0.0
 22
4.9388838423622978
 32
0.0
 13
1.0
 23
1.0
340
0
 70
               7
280
               1
281
              50
282
              50
283
               0
360
0
 71
               2
 91
        5
 14
-0.5
 24
-5.8710204581263712
 14
0.5000000000000002
 24
-5.8710204581263712
 14
0.5000000000000002
 24
-6.0957823677867209
 14
-0.5
 24
-6.0957823677867209
 14
-0.5
 24
-5.8710204581263712
  0
MTEXT
  5
1B4
100
AcDbEntity
  8
Dimension
390
0
 62
               0
100
AcDbMText
 10
-9.9000000000000021
 20
68.098818874020836
 30
0.0
 40
0.6737068880208333
 41
0.0
 71
               1
 72
               1
  1
*3.1125mm
  7
Helvetica (bold)
 73
               1
 44
0.9925958378970426
  0
POINT
  5
1B5
100
AcDbEntity
  8
Defpoints
370
               0
390
0
 62
               0
100
AcDbPoint
 10
-14.494449745190884
 20
61.664599210286198
 30
0.0
  0
POINT
  5
1B6
100
AcDbEntity
  8
Defpoints
370
               0
390
0
 62
               0
100
AcDbPoint
 10
-11.381949745190902
 20
58.802099210286201
 30
0.0
  0
POINT
  5
1B7
100
AcDbEntity
  8
Defpoints
370
               0
390
0
 62
               0
100
AcDbPoint
 10
-11.381949745190902
 20
67.744963518000006
 30
0.0
  0
ENDBLK
  5
1B8
100
AcDbEntity
  8
Dimension
390
0
100
AcDbBlockEnd
  0
BLOCK
  5
1B9
100
AcDbEntity
  8
Dimension
390
0
100
AcDbBlockBegin
  2
*D11
 70
               1
 10
0.0
 20
0.0
 30
0.0
  3
*D11
  1

  0
LINE
  5
1BA
100
AcDbEntity
  8
Dimension
370
              -2
390
0
  6
Continuous
 62
               0
100
AcDbLine
 10
-6.8819497451909024
 20
59.278349211468978
 30
0.0
 11
-6.8819497451909024
 21
66.143139212651761
 31
0.0
  0
LINE
  5
1BB
100
AcDbEntity
  8
Dimension
370
              -2
390
0
  6
Continuous
 62
               0
100
AcDbLine
 10
-6.3819497451909024
 20
59.278349211468978
 30
0.0
 11
-6.3819497451909024
 21
66.143139212651761
 31
0.0
  0
LINE
  5
1BC
100
AcDbEntity
  8
Dimension
370
              -2
390
0
  6
Continuous
 62
               0
100
AcDbLine
 10
-6.3819497451909024
 20
65.190639210286207
 30
0.0
 11
-6.8819497451909024
 21
65.190639210286207
 31
0.0
  0
LINE
  5
1BD
100
AcDbEntity
  8
Dimension
370
              -2
390
0
  6
Continuous
 62
               0
100
AcDbLine
 10
-6.8819497451909024
 20
65.190639210286207
 30
0.0
 11
-8.6319462435577208
 21
65.190639210286207
 31
0.0
  0
SOLID
  5
1BE
100
AcDbEntity
  8
Dimension
370
              -2
390
0
 62
               0
100
AcDbTrace
 10
-6.8819497451909024
 20
65.190639210286207
 30
0.0
 11
-7.6756997451909026
 21
64.977954538793995
 31
0.0
 12
-7.6756997451909026
 22
65.403323881778405
 32
0.0
 13
-7.6756997451909026
 23
65.403323881778405
 33
0.0
  0
LINE
  5
1BF
100
AcDbEntity
  8
Dimension
370
              -2
390
0
  6
Continuous
 62
               0
100
AcDbLine
 10
-6.3819497451909024
 20
65.190639210286207
 30
0.0
 11
-4.5907897451909028
 21
65.190639210286207
 31
0.0
  0
SOLID
  5
1C0
100
AcDbEntity
  8
Dimension
370
              -2
390
0
 62
               0
100
AcDbTrace
 10
-6.3819497451909024
 20
65.190639210286207
 30
0.0
 11
-5.5881997451909022
 21
65.403323881778405
 31
0.0
 12
-5.5881997451909022
 22
64.977954538793995
 32
0.0
 13
-5.5881997451909022
 23
64.977954538793995
 33
0.0
  0
WIPEOUT
  5
1C1
100
AcDbEntity
  8
Dimension
370
              -2
390
0
  6
Continuous
 62
               0
 92
        0
100
AcDbWipeout
 90
        0
 10
-4.5907897451909028
 20
33.183983825286219
 30
0.0
 11
5.2022909985648251
 21
0.0
 31
0.0
 12
0.0
 22
5.2022909985648251
 32
0.0
 13
1.0
 23
1.0
340
0
 70
               7
280
               1
281
              50
282
              50
283
               0
360
0
 71
               2
 91
        5
 14
-0.5
 24
-5.5484371229292142
 14
0.5
 24
-5.5484371229292142
 14
0.5
 24
-5.7563937271058077
 14
-0.5
 24
-5.7563937271058077
 14
-0.5
 24
-5.5484371229292142
  0
MTEXT
  5
1C2
100
AcDbEntity
  8
Dimension
390
0
 62
               0
100
AcDbMText
 10
-4.5907897451909028
 20
65.558605663307034
 30
0.0
 40
0.6737068880208333
 41
0.0
 71
               1
 72
               1
  1
0.50mm typ.
  7
Helvetica
 73
               1
 44
0.9673603504928808
  0
POINT
  5
1C3
100
AcDbEntity
  8
Defpoints
370
               0
390
0
 62
               0
100
AcDbPoint
 10
-6.3819497451909024
 20
58.802099210286201
 30
0.0
  0
POINT
  5
1C4
100
AcDbEntity
  8
Defpoints
370
               0
390
0
 62
               0
100
AcDbPoint
 10
-6.8819497451909024
 20
58.802099210286201
 30
0.0
  0
POINT
  5
1C5
100
AcDbEntity
  8
Defpoints
370
               0
390
0
 62
               0
100
AcDbPoint
 10
-6.8819497451909024
 20
65.190639210286207
 30
0.0
  0
ENDBLK
  5
1C6
100
AcDbEntity
  8
Dimension
390
0
100
AcDbBlockEnd
  0
BLOCK
  5
1C7
100
AcDbEntity
  8
Dimension
390
0
100
AcDbBlockBegin
  2
*D12
 70
               1
 10
0.0
 20
0.0
 30
0.0
  3
*D12
  1

  0
LINE
  5
1C8
100
AcDbEntity
  8
Dimension
370
              -2
390
0
  6
Continuous
 62
               0
100
AcDbLine
 10
-1.3898997451909745
 20
58.933369210286202
 30
0.0
 11
3.1180527644083904
 21
56.662099023394241
 31
0.0
  0
SOLID
  5
1C9
100
AcDbEntity
  8
Dimension
370
              -2
390
0
 62
               0
100
AcDbTrace
 10
-1.3898997451909745
 20
58.933369210286202
 30
0.0
 11
-0.854168405000272
 21
58.819495998636398
 31
0.0
 12
-0.9828794008072475
 22
58.566886446091601
 32
0.0
 13
-0.9828794008072475
 23
58.566886446091601
 33
0.0
  0
LINE
  5
1CA
100
AcDbEntity
  8
Dimension
370
              -2
390
0
  6
Continuous
 62
               0
100
AcDbLine
 10
3.1180527644083904
 20
56.662099023394241
 30
0.0
 11
4.6180497663878901
 21
56.662099023394241
 31
0.0
  0
WIPEOUT
  5
1CB
100
AcDbEntity
  8
Dimension
370
              -2
390
0
  6
Continuous
 62
               0
 92
        0
100
AcDbWipeout
 90
        0
 10
4.6180497663878901
 20
24.672348114505368
 30
0.0
 11
4.9482912407981026
 21
0.0
 31
0.0
 12
0.0
 22
4.9482912407981026
 32
0.0
 13
1.0
 23
1.0
340
0
 70
               7
280
               1
281
              50
282
              50
283
               0
360
0
 71
               2
 91
        5
 14
-0.5
 24
-5.8589082511087032
 14
0.5000000000000002
 24
-5.8589082511087032
 14
0.5000000000000002
 24
-6.077539434552448
 14
-0.5
 24
-6.077539434552448
 14
-0.5
 24
-5.8589082511087032
  0
MTEXT
  5
1CC
100
AcDbEntity
  8
Dimension
390
0
 62
               0
100
AcDbMText
 10
4.6180497663878901
 20
57.046969952526183
 30
0.0
 40
0.6737068880208333
 41
0.0
 71
               1
 72
               1
  1
Ø 0.850mm
  7
Helvetica
 73
               1
 44
0.9673603504928808
  0
WIPEOUT
  5
1CD
100
AcDbEntity
  8
Dimension
370
              -2
390
0
  6
Continuous
 62
               0
 92
        0
100
AcDbWipeout
 90
        0
 10
9.5663410071859936
 20
24.657648570060925
 30
0.0
 11
4.4685139205720681
 21
0.0
 31
0.0
 12
0.0
 22
4.4685139205720681
 32
0.0
 13
1.0
 23
1.0
340
0
 70
               7
280
               1
281
              50
282
              50
283
               0
360
0
 71
               2
 91
        5
 14
-0.5
 24
-6.5416542410528455
 14
0.5
 24
-6.5416542410528455
 14
0.5
 24
-6.7837595112231801
 14
-0.5
 24
-6.7837595112231801
 14
-0.5
 24
-6.5416542410528455
  0
MTEXT
  5
1CE
100
AcDbEntity
  8
Dimension
390
0
 62
               0
100
AcDbMText
 10
9.5663410071859936
 20
57.032270408081743
 30
0.0
 40
0.6737068880208333
 41
0.0
 71
               1
 72
               1
  1
±0.025mm
  7
Helvetica
 73
               1
 44
0.9673603504928808
  0
WIPEOUT
  5
1CF
100
AcDbEntity
  8
Dimension
370
              -2
390
0
  6
Continuous
 62
               0
 92
        0
100
AcDbWipeout
 90
        0
 10
14.034854927758062
 20
24.638539162283145
 30
0.0
 11
1.9305763350592713
 21
0.0
 31
0.0
 12
0.0
 22
1.9305763350592713
 32
0.0
 13
1.0
 23
1.0
340
0
 70
               7
280
               1
281
              50
282
              50
283
               0
360
0
 71
               2
 91
        5
 14
-0.5
 24
-15.798619965749214
 14
0.5
 24
-15.798619965749214
 14
0.5
 24
-16.376509429098494
 14
-0.5
 24
-16.376509429098494
 14
-0.5
 24
-15.798619965749214
  0
MTEXT
  5
1D0
100
AcDbEntity
  8
Dimension
390
0
 62
               0
100
AcDbMText
 10
14.034854927758062
 20
57.041564807537753
 30
0.0
 40
0.6947609230324073
 41
0.0
 71
               1
 72
               1
  1
 (x2)
  7
Helvetica
 73
               1
 44
0.9673603504928808
  0
POINT
  5
1D1
100
AcDbEntity
  8
Defpoints
370
               0
390
0
 62
               0
100
AcDbPoint
 10
-2.1489997451909755
 20
59.315829210286211
 30
0.0
  0
POINT
  5
1D2
100
AcDbEntity
  8
Defpoints
370
               0
390
0
 62
               0
100
AcDbPoint
 10
-1.3898997451909745
 20
58.933369210286202
 30
0.0
  0
ENDBLK
  5
1D3
100
AcDbEntity
  8
Dimension
390
0
100
AcDbBlockEnd
  0
BLOCK
  5
1D4
100
AcDbEntity
  8
Dimension
390
0
100
AcDbBlockBegin
  2
*D13
 70
               1
 10
0.0
 20
0.0
 30
0.0
  3
*D13
  1

  0
LINE
  5
1D5
100
AcDbEntity
  8
Dimension
370
              -2
390
0
  6
Continuous
 62
               0
100
AcDbLine
 10
-1.1625156049867824
 20
48.601409210286207
 30
0.0
 11
2.59447907729525
 21
46.862098583315444
 31
0.0
  0
SOLID
  5
1D6
100
AcDbEntity
  8
Dimension
370
              -2
390
0
 62
               0
100
AcDbTrace
 10
-1.1625156049867824
 20
48.601409210286207
 30
0.0
 11
-0.6231365000790721
 21
48.506302121260603
 31
0.0
 12
-0.7429531423789992
 22
48.249354502656189
 32
0.0
 13
-0.7429531423789992
 23
48.249354502656189
 33
0.0
  0
LINE
  5
1D7
100
AcDbEntity
  8
Dimension
370
              -2
390
0
  6
Continuous
 62
               0
100
AcDbLine
 10
2.59447907729525
 20
46.862098583315444
 30
0.0
 11
4.0944760792747497
 21
46.862098583315444
 31
0.0
  0
WIPEOUT
  5
1D8
100
AcDbEntity
  8
Dimension
370
              -2
390
0
  6
Continuous
 62
               0
 92
        0
100
AcDbWipeout
 90
        0
 10
4.0944760792747497
 20
14.872347674426567
 30
0.0
 11
4.4214769283930462
 21
0.0
 31
0.0
 12
0.0
 22
4.4214769283930462
 32
0.0
 13
1.0
 23
1.0
340
0
 70
               7
280
               1
281
              50
282
              50
283
               0
360
0
 71
               2
 91
        5
 14
-0.5
 24
-6.6165654620832717
 14
0.5000000000000002
 24
-6.6165654620832717
 14
0.5000000000000002
 24
-6.8612463204301202
 14
-0.5
 24
-6.8612463204301202
 14
-0.5
 24
-6.6165654620832717
  0
MTEXT
  5
1D9
100
AcDbEntity
  8
Dimension
390
0
 62
               0
100
AcDbMText
 10
4.0944760792747497
 20
47.246969512447379
 30
0.0
 40
0.6737068880208333
 41
0.0
 71
               1
 72
               1
  1
Ø 1.75mm
  7
Helvetica
 73
               1
 44
0.9673603504928808
  0
WIPEOUT
  5
1DA
100
AcDbEntity
  8
Dimension
370
              -2
390
0
  6
Continuous
 62
               0
 92
        0
100
AcDbWipeout
 90
        0
 10
8.5159530076677967
 20
14.857648129982124
 30
0.0
 11
3.9416996081670135
 21
0.0
 31
0.0
 12
0.0
 22
3.9416996081670135
 32
0.0
 13
1.0
 23
1.0
340
0
 70
               7
280
               1
281
              50
282
              50
283
               0
360
0
 71
               2
 91
        5
 14
-0.5
 24
-7.4827823345047628
 14
0.5
 24
-7.4827823345047628
 14
0.5
 24
-7.7572453523761542
 14
-0.5
 24
-7.7572453523761542
 14
-0.5
 24
-7.4827823345047628
  0
MTEXT
  5
1DB
100
AcDbEntity
  8
Dimension
390
0
 62
               0
100
AcDbMText
 10
8.5159530076677967
 20
47.232269968002939
 30
0.0
 40
0.6737068880208333
 41
0.0
 71
               1
 72
               1
  1
±0.05mm
  7
Helvetica
 73
               1
 44
0.9673603504928808
  0
WIPEOUT
  5
1DC
100
AcDbEntity
  8
Dimension
370
              -2
390
0
  6
Continuous
 62
               0
 92
        0
100
AcDbWipeout
 90
        0
 10
12.45765261583481
 20
14.838538722204344
 30
0.0
 11
1.9305763350592713
 21
0.0
 31
0.0
 12
0.0
 22
1.9305763350592713
 32
0.0
 13
1.0
 23
1.0
340
0
 70
               7
280
               1
281
              50
282
              50
283
               0
360
0
 71
               2
 91
        5
 14
-0.5
 24
-15.798619965749214
 14
0.5
 24
-15.798619965749214
 14
0.5
 24
-16.376509429098491
 14
-0.5
 24
-16.376509429098491
 14
-0.5
 24
-15.798619965749214
  0
MTEXT
  5
1DD
100
AcDbEntity
  8
Dimension
390
0
 62
               0
100
AcDbMText
 10
12.45765261583481
 20
47.241564367458956
 30
0.0
 40
0.6947609230324073
 41
0.0
 71
               1
 72
               1
  1
 (x4)
  7
Helvetica
 73
               1
 44
0.9673603504928808
  0
POINT
  5
1DE
100
AcDbEntity
  8
Defpoints
370
               0
390
0
 62
               0
100
AcDbPoint
 10
-2.623535604986782
 20
49.277789210286201
 30
0.0
  0
POINT
  5
1DF
100
AcDbEntity
  8
Defpoints
370
               0
390
0
 62
               0
100
AcDbPoint
 10
-1.1625156049867824
 20
48.601409210286207
 30
0.0
  0
ENDBLK
  5
1E0
100
AcDbEntity
  8
Dimension
390
0
100
AcDbBlockEnd
  0
BLOCK
  5
1E1
100
AcDbEntity
  8
Dimension
390
0
100
AcDbBlockBegin
  2
*D14
 70
               1
 10
0.0
 20
0.0
 30
0.0
  3
*D14
  1

  0
LINE
  5
1E2
100
AcDbEntity
  8
Dimension
370
              -2
390
0
  6
Continuous
 62
               0
100
AcDbLine
 10
-11.858199746373682
 20
58.802099210286201
 30
0.0
 11
-22.80907974755651
 21
58.802099210286201
 31
0.0
  0
LINE
  5
1E3
100
AcDbEntity
  8
Dimension
370
              -2
390
0
  6
Continuous
 62
               0
100
AcDbLine
 10
-11.858199746373682
 20
51.802099210286201
 30
0.0
 11
-22.80907974755651
 21
51.802099210286201
 31
0.0
  0
LINE
  5
1E4
100
AcDbEntity
  8
Dimension
370
              -2
390
0
  6
Continuous
 62
               0
100
AcDbLine
 10
-21.856579745190949
 20
58.802099210286201
 30
0.0
 11
-21.856579745190949
 21
51.802099210286201
 31
0.0
  0
SOLID
  5
1E5
100
AcDbEntity
  8
Dimension
370
              -2
390
0
 62
               0
100
AcDbTrace
 10
-21.856579745190949
 20
58.802099210286201
 30
0.0
 11
-21.643895073698747
 21
58.008349210286205
 31
0.0
 12
-22.069264416683154
 22
58.008349210286205
 32
0.0
 13
-22.069264416683154
 23
58.008349210286205
 33
0.0
  0
SOLID
  5
1E6
100
AcDbEntity
  8
Dimension
370
              -2
390
0
 62
               0
100
AcDbTrace
 10
-21.856579745190949
 20
51.802099210286201
 30
0.0
 11
-22.069264416683154
 21
52.595849210286204
 31
0.0
 12
-21.643895073698744
 22
52.595849210286204
 32
0.0
 13
-21.643895073698744
 23
52.595849210286204
 33
0.0
  0
WIPEOUT
  5
1E7
100
AcDbEntity
  8
Dimension
370
              -2
390
0
  6
Continuous
 62
               0
 92
        0
100
AcDbWipeout
 90
        0
 10
-23.568726092289829
 20
23.020404152434658
 30
0.0
 11
3.4242926941977601
 21
0.0
 31
0.0
 12
0.0
 22
3.4242926941977601
 32
0.0
 13
1.0
 23
1.0
340
0
 70
               7
280
               1
281
              50
282
              50
283
               0
360
0
 71
               2
 91
        5
 14
-0.5
 24
-8.6889720914677095
 14
0.5
 24
-8.6889720914677095
 14
0.5
 24
-9.0049061738062655
 14
-0.5
 24
-9.0049061738062655
 14
-0.5
 24
-8.6889720914677095
  0
MTEXT
  5
1E8
100
AcDbEntity
  8
Dimension
390
0
 62
               0
100
AcDbMText
 10
-23.568726092289829
 20
55.395025990455473
 30
0.0
 40
0.6737068880208333
 41
0.0
 71
               1
 72
               1
  1
7.00mm
  7
Helvetica
 73
               1
 44
0.9673603504928808
  0
POINT
  5
1E9
100
AcDbEntity
  8
Defpoints
370
               0
390
0
 62
               0
100
AcDbPoint
 10
-11.381949745190902
 20
51.802099210286201
 30
0.0
  0
POINT
  5
1EA
100
AcDbEntity
  8
Defpoints
370
               0
390
0
 62
               0
100
AcDbPoint
 10
-11.381949745190902
 20
58.802099210286201
 30
0.0
  0
POINT
  5
1EB
100
AcDbEntity
  8
Defpoints
370
               0
390
0
 62
               0
100
AcDbPoint
 10
-21.856579745190949
 20
58.802099210286201
 30
0.0
  0
ENDBLK
  5
1EC
100
AcDbEntity
  8
Dimension
390
0
100
AcDbBlockEnd
  0
BLOCK
  5
1ED
100
AcDbEntity
  8
Dimension
390
0
100
AcDbBlockBegin
  2
*D15
 70
               1
 10
0.0
 20
0.0
 30
0.0
  3
*D15
  1

  0
LINE
  5
1EE
100
AcDbEntity
  8
Dimension
370
              -2
390
0
  6
Continuous
 62
               0
100
AcDbLine
 10
-16.994449745190849
 20
45.963349209103427
 30
0.0
 11
-16.994449745190849
 21
36.787339207920652
 31
0.0
  0
LINE
  5
1EF
100
AcDbEntity
  8
Dimension
370
              -2
390
0
  6
Continuous
 62
               0
100
AcDbLine
 10
0.7305502548090255
 20
45.963349209103427
 30
0.0
 11
0.7305502548090255
 21
36.787339207920652
 31
0.0
  0
LINE
  5
1F0
100
AcDbEntity
  8
Dimension
370
              -2
390
0
  6
Continuous
 62
               0
100
AcDbLine
 10
-16.994449745190849
 20
37.739839210286206
 30
0.0
 11
0.7305502548090255
 21
37.739839210286206
 31
0.0
  0
SOLID
  5
1F1
100
AcDbEntity
  8
Dimension
370
              -2
390
0
 62
               0
100
AcDbTrace
 10
-16.994449745190849
 20
37.739839210286206
 30
0.0
 11
-16.20069974519085
 21
37.952523881778411
 31
0.0
 12
-16.20069974519085
 22
37.527154538794008
 32
0.0
 13
-16.20069974519085
 23
37.527154538794008
 33
0.0
  0
SOLID
  5
1F2
100
AcDbEntity
  8
Dimension
370
              -2
390
0
 62
               0
100
AcDbTrace
 10
0.7305502548090255
 20
37.739839210286206
 30
0.0
 11
-0.0631997451909747
 21
37.527154538794008
 31
0.0
 12
-0.0631997451909747
 22
37.952523881778411
 32
0.0
 13
-0.0631997451909747
 23
37.952523881778411
 33
0.0
  0
WIPEOUT
  5
1F3
100
AcDbEntity
  8
Dimension
370
              -2
390
0
  6
Continuous
 62
               0
 92
        0
100
AcDbWipeout
 90
        0
 10
-11.020020728547811
 20
5.7331838252862246
 30
0.0
 11
5.7761419667137979
 21
0.0
 31
0.0
 12
0.0
 22
5.7761419667137979
 32
0.0
 13
1.0
 23
1.0
340
0
 70
               7
280
               1
281
              50
282
              50
283
               0
360
0
 71
               2
 91
        5
 14
-0.5
 24
-4.947534042848619
 14
0.5
 24
-4.947534042848619
 14
0.5
 24
-5.1348304729284857
 14
-0.5
 24
-5.1348304729284857
 14
-0.5
 24
-4.947534042848619
  0
MTEXT
  5
1F4
100
AcDbEntity
  8
Dimension
390
0
 62
               0
100
AcDbMText
 10
-11.020020728547811
 20
38.10780566330704
 30
0.0
 40
0.6737068880208333
 41
0.0
 71
               1
 72
               1
  1
17.73mm sqr.
  7
Helvetica
 73
               1
 44
0.9673603504928808
  0
POINT
  5
1F5
100
AcDbEntity
  8
Defpoints
370
               0
390
0
 62
               0
100
AcDbPoint
 10
0.7305502548090255
 20
46.439599210286204
 30
0.0
  0
POINT
  5
1F6
100
AcDbEntity
  8
Defpoints
370
               0
390
0
 62
               0
100
AcDbPoint
 10
-16.994449745190849
 20
46.439599210286204
 30
0.0
  0
POINT
  5
1F7
100
AcDbEntity
  8
Defpoints
370
               0
390
0
 62
               0
100
AcDbPoint
 10
-16.994449745190849
 20
37.739839210286206
 30
0.0
  0
ENDBLK
  5
1F8
100
AcDbEntity
  8
Dimension
390
0
100
AcDbBlockEnd
  0
BLOCK
  5
1F9
100
AcDbEntity
  8
Dimension
390
0
100
AcDbBlockBegin
  2
*D16
 70
               1
 10
0.0
 20
0.0
 30
0.0
  3
*D16
  1

  0
LINE
  5
1FA
100
AcDbEntity
  8
Dimension
370
              -2
390
0
  6
Continuous
 62
               0
100
AcDbLine
 10
-16.220699746373647
 20
62.914599210286255
 30
0.0
 11
-22.809079747556424
 21
62.914599210286255
 31
0.0
  0
LINE
  5
1FB
100
AcDbEntity
  8
Dimension
370
              -2
390
0
  6
Continuous
 62
               0
100
AcDbLine
 10
-14.970699746373665
 20
61.664599210286198
 30
0.0
 11
-22.809079747556428
 21
61.664599210286198
 31
0.0
  0
LINE
  5
1FC
100
AcDbEntity
  8
Dimension
370
              -2
390
0
  6
Continuous
 62
               0
100
AcDbLine
 10
-21.856579745190867
 20
61.664599210286198
 30
0.0
 11
-21.856579745190867
 21
62.914599210286255
 31
0.0
  0
LINE
  5
1FD
100
AcDbEntity
  8
Dimension
370
              -2
390
0
  6
Continuous
 62
               0
100
AcDbLine
 10
-21.856579745190867
 20
62.914599210286255
 30
0.0
 11
-21.856579745190867
 21
65.352099210286255
 31
0.0
  0
SOLID
  5
1FE
100
AcDbEntity
  8
Dimension
370
              -2
390
0
 62
               0
100
AcDbTrace
 10
-21.856579745190867
 20
62.914599210286255
 30
0.0
 11
-22.069264416683072
 21
63.708349210286258
 31
0.0
 12
-21.643895073698662
 22
63.708349210286258
 32
0.0
 13
-21.643895073698662
 23
63.708349210286258
 33
0.0
  0
LINE
  5
1FF
100
AcDbEntity
  8
Dimension
370
              -2
390
0
  6
Continuous
 62
               0
100
AcDbLine
 10
-21.856579745190867
 20
61.664599210286198
 30
0.0
 11
-21.856579745190867
 21
59.914602711919386
 31
0.0
  0
SOLID
  5
200
100
AcDbEntity
  8
Dimension
370
              -2
390
0
 62
               0
100
AcDbTrace
 10
-21.856579745190867
 20
61.664599210286198
 30
0.0
 11
-21.643895073698665
 21
60.870849210286195
 31
0.0
 12
-22.069264416683072
 22
60.870849210286195
 32
0.0
 13
-22.069264416683072
 23
60.870849210286195
 33
0.0
  0
WIPEOUT
  5
201
100
AcDbEntity
  8
Dimension
370
              -2
390
0
  6
Continuous
 62
               0
 92
        0
100
AcDbWipeout
 90
        0
 10
-26.50486406390289
 20
33.362348301397382
 30
0.0
 11
3.4242926941977601
 21
0.0
 31
0.0
 12
0.0
 22
3.4242926941977601
 32
0.0
 13
1.0
 23
1.0
340
0
 70
               7
280
               1
281
              50
282
              50
283
               0
360
0
 71
               2
 91
        5
 14
-0.5
 24
-8.6889720914677095
 14
0.5
 24
-8.6889720914677095
 14
0.5
 24
-9.004906173806269
 14
-0.5
 24
-9.004906173806269
 14
-0.5
 24
-8.6889720914677095
  0
MTEXT
  5
202
100
AcDbEntity
  8
Dimension
390
0
 62
               0
100
AcDbMText
 10
-26.50486406390289
 20
65.736970139418204
 30
0.0
 40
0.6737068880208333
 41
0.0
 71
               1
 72
               1
  1
1.25mm
  7
Helvetica
 73
               1
 44
0.9673603504928808
  0
WIPEOUT
  5
203
100
AcDbEntity
  8
Dimension
370
              -2
390
0
  6
Continuous
 62
               0
 92
        0
100
AcDbWipeout
 90
        0
 10
-23.08057136970513
 20
33.347648756952935
 30
0.0
 11
3.9416996081670135
 21
0.0
 31
0.0
 12
0.0
 22
3.9416996081670135
 32
0.0
 13
1.0
 23
1.0
340
0
 70
               7
280
               1
281
              50
282
              50
283
               0
360
0
 71
               2
 91
        5
 14
-0.5
 24
-7.4827823345047628
 14
0.5
 24
-7.4827823345047628
 14
0.5
 24
-7.7572453523761542
 14
-0.5
 24
-7.7572453523761542
 14
-0.5
 24
-7.4827823345047628
  0
MTEXT
  5
204
100
AcDbEntity
  8
Dimension
390
0
 62
               0
100
AcDbMText
 10
-23.08057136970513
 20
65.72227059497375
 30
0.0
 40
0.6737068880208333
 41
0.0
 71
               1
 72
               1
  1
±0.13mm
  7
Helvetica
 73
               1
 44
0.9673603504928808
  0
WIPEOUT
  5
205
100
AcDbEntity
  8
Dimension
370
              -2
390
0
  6
Continuous
 62
               0
 92
        0
100
AcDbWipeout
 90
        0
 10
-19.138871761538116
 20
33.328539349175166
 30
0.0
 11
1.9305763350592713
 21
0.0
 31
0.0
 12
0.0
 22
1.9305763350592713
 32
0.0
 13
1.0
 23
1.0
340
0
 70
               7
280
               1
281
              50
282
              50
283
               0
360
0
 71
               2
 91
        5
 14
-0.5
 24
-15.798619965749214
 14
0.5
 24
-15.798619965749214
 14
0.5
 24
-16.376509429098494
 14
-0.5
 24
-16.376509429098494
 14
-0.5
 24
-15.798619965749214
  0
MTEXT
  5
206
100
AcDbEntity
  8
Dimension
390
0
 62
               0
100
AcDbMText
 10
-19.138871761538116
 20
65.731564994429775
 30
0.0
 40
0.6947609230324073
 41
0.0
 71
               1
 72
               1
  1
 (x4)
  7
Helvetica
 73
               1
 44
0.9673603504928808
  0
POINT
  5
207
100
AcDbEntity
  8
Defpoints
370
               0
390
0
 62
               0
100
AcDbPoint
 10
-14.494449745190884
 20
61.664599210286198
 30
0.0
  0
POINT
  5
208
100
AcDbEntity
  8
Defpoints
370
               0
390
0
 62
               0
100
AcDbPoint
 10
-15.744449745190867
 20
62.914599210286255
 30
0.0
  0
POINT
  5
209
100
AcDbEntity
  8
Defpoints
370
               0
390
0
 62
               0
100
AcDbPoint
 10
-21.856579745190867
 20
62.914599210286255
 30
0.0
  0
ENDBLK
  5
20A
100
AcDbEntity
  8
Dimension
390
0
100
AcDbBlockEnd
  0
BLOCK
  5
20B
100
AcDbEntity
  8
None
390
0
100
AcDbBlockBegin
  2
Group
 70
               0
 10
0.0
 20
0.0
 30
0.0
  3
Group
  1

  0
POLYLINE
  5
20C
100
AcDbEntity
  8
None
370
               9
390
0
  6
STYLE_12
 62
               7
100
AcDb2dPolyline
 66
               1
 10
0.0
 20
0.0
 30
0.0
 70
               1
 75
               5
  0
VERTEX
  5
20D
100
AcDbEntity
  8
None
370
               9
390
0
  6
STYLE_12
 62
               7
100
AcDbVertex
100
AcDb2dVertex
 10
-10.383309745190868
 20
36.810009210286267
 30
0.0
  0
VERTEX
  5
20E
100
AcDbEntity
  8
None
370
               9
390
0
  6
STYLE_12
 62
               7
100
AcDbVertex
100
AcDb2dVertex
 10
4.8416902548090253
 20
36.810009210286267
 30
0.0
  0
VERTEX
  5
20F
100
AcDbEntity
  8
None
370
               9
390
0
  6
STYLE_12
 62
               7
100
AcDbVertex
100
AcDb2dVertex
 10
4.8416902548090253
 20
21.585009210286223
 30
0.0
  0
VERTEX
  5
210
100
AcDbEntity
  8
None
370
               9
390
0
  6
STYLE_12
 62
               7
100
AcDbVertex
100
AcDb2dVertex
 10
-10.383309745190868
 20
21.585009210286223
 30
0.0
  0
SEQEND
  5
211
100
AcDbEntity
  8
None
370
               9
390
0
  6
STYLE_12
 62
               7
  0
ENDBLK
  5
212
100
AcDbEntity
  8
None
390
0
100
AcDbBlockEnd
  0
BLOCK
  5
213
100
AcDbEntity
  8
None
390
0
100
AcDbBlockBegin
  2
Group-1
 70
               0
 10
0.0
 20
0.0
 30
0.0
  3
Group-1
  1

  0
LINE
  5
214
100
AcDbEntity
  8
None
370
               9
390
0
  6
STYLE_16
 62
             132
100
AcDbLine
 10
-2.7708097451909808
 20
39.697509210286434
 30
0.0
 11
-2.7708097451909808
 21
18.697509210286228
 31
0.0
  0
LINE
  5
215
100
AcDbEntity
  8
None
370
               9
390
0
  6
STYLE_16
 62
             132
100
AcDbLine
 10
-13.27080974519083
 20
29.197509210286221
 30
0.0
 11
7.7291902548090246
 21
29.197509210286221
 31
0.0
  0
ENDBLK
  5
216
100
AcDbEntity
  8
None
390
0
100
AcDbBlockEnd
  0
BLOCK
  5
217
100
AcDbEntity
  8
None
390
0
100
AcDbBlockBegin
  2
Group-2
 70
               0
 10
0.0
 20
0.0
 30
0.0
  3
Group-2
  1

  0
INSERT
  5
218
100
AcDbEntity
  8
None
390
0
 62
             132
100
AcDbBlockReference
  2
Group-1
 10
0.0
 20
0.0
 30
0.0
  0
ENDBLK
  5
219
100
AcDbEntity
  8
None
390
0
100
AcDbBlockEnd
  0
BLOCK
  5
21A
100
AcDbEntity
  8
None
390
0
100
AcDbBlockBegin
  2
pad
 70
               0
 10
0.0
 20
0.0
 30
0.0
  3
pad
  1

  0
CIRCLE
  5
21B
102
{ACAD_REACTORS
330
21C
102
}
100
AcDbEntity
  8
None
370
               9
390
0
  6
Continuous
 62
               7
100
AcDbCircle
 10
0.0
 20
0.0
 30
0.0
 40
0.1399986921367482
  0
HATCH
  5
21C
100
AcDbEntity
  8
None
370
               0
390
0
  6
Continuous
 62
               7
100
AcDbHatch
 10
0.0
 20
0.0
 30
0.0
210
0.0
220
0.0
230
1.0
  2
SOLID
 70
               1
 71
               1
 91
        1
 92
        1
 93
        1
 72
               2
 10
0.0
 20
0.0
 40
0.1399986921367482
 50
0.0
 51
360.0
 73
               0
 97
        1
330
21B
 75
               0
 76
               1
 98
        1
 10
0.0
 20
0.0
  0
ENDBLK
  5
21D
100
AcDbEntity
  8
None
390
0
100
AcDbBlockEnd
  0
BLOCK
  5
21E
100
AcDbEntity
  8
None
390
0
100
AcDbBlockBegin
  2
Group-3
 70
               0
 10
0.0
 20
0.0
 30
0.0
  3
Group-3
  1

  0
INSERT
  5
21F
100
AcDbEntity
  8
None
390
0
 62
               7
100
AcDbBlockReference
  2
pad
 10
-6.0208097451909026
 20
25.697509210286221
 30
0.0
  0
ENDBLK
  5
220
100
AcDbEntity
  8
None
390
0
100
AcDbBlockEnd
  0
BLOCK
  5
221
100
AcDbEntity
  8
None
390
0
100
AcDbBlockBegin
  2
Group-4
 70
               0
 10
0.0
 20
0.0
 30
0.0
  3
Group-4
  1

  0
INSERT
  5
222
100
AcDbEntity
  8
None
390
0
 62
               7
100
AcDbBlockReference
  2
pad
 10
-5.5208097451909026
 20
25.697509210286221
 30
0.0
  0
ENDBLK
  5
223
100
AcDbEntity
  8
None
390
0
100
AcDbBlockEnd
  0
BLOCK
  5
224
100
AcDbEntity
  8
None
390
0
100
AcDbBlockBegin
  2
Group-5
 70
               0
 10
0.0
 20
0.0
 30
0.0
  3
Group-5
  1

  0
INSERT
  5
225
100
AcDbEntity
  8
None
390
0
 62
               7
100
AcDbBlockReference
  2
pad
 10
-5.0208097451909026
 20
25.697509210286221
 30
0.0
  0
ENDBLK
  5
226
100
AcDbEntity
  8
None
390
0
100
AcDbBlockEnd
  0
BLOCK
  5
227
100
AcDbEntity
  8
None
390
0
100
AcDbBlockBegin
  2
Group-6
 70
               0
 10
0.0
 20
0.0
 30
0.0
  3
Group-6
  1

  0
INSERT
  5
228
100
AcDbEntity
  8
None
390
0
 62
               7
100
AcDbBlockReference
  2
pad
 10
-4.5208097451909026
 20
25.697509210286221
 30
0.0
  0
ENDBLK
  5
229
100
AcDbEntity
  8
None
390
0
100
AcDbBlockEnd
  0
BLOCK
  5
22A
100
AcDbEntity
  8
None
390
0
100
AcDbBlockBegin
  2
Group-7
 70
               0
 10
0.0
 20
0.0
 30
0.0
  3
Group-7
  1

  0
INSERT
  5
22B
100
AcDbEntity
  8
None
390
0
 62
               7
100
AcDbBlockReference
  2
pad
 10
-4.0208097451909026
 20
25.697509210286221
 30
0.0
  0
ENDBLK
  5
22C
100
AcDbEntity
  8
None
390
0
100
AcDbBlockEnd
  0
BLOCK
  5
22D
100
AcDbEntity
  8
None
390
0
100
AcDbBlockBegin
  2
Group-8
 70
               0
 10
0.0
 20
0.0
 30
0.0
  3
Group-8
  1

  0
INSERT
  5
22E
100
AcDbEntity
  8
None
390
0
 62
               7
100
AcDbBlockReference
  2
pad
 10
-3.5208097451909026
 20
25.697509210286221
 30
0.0
  0
ENDBLK
  5
22F
100
AcDbEntity
  8
None
390
0
100
AcDbBlockEnd
  0
BLOCK
  5
230
100
AcDbEntity
  8
None
390
0
100
AcDbBlockBegin
  2
Group-9
 70
               0
 10
0.0
 20
0.0
 30
0.0
  3
Group-9
  1

  0
INSERT
  5
231
100
AcDbEntity
  8
None
390
0
 62
               7
100
AcDbBlockReference
  2
pad
 10
-3.0208097451909026
 20
25.697509210286221
 30
0.0
  0
ENDBLK
  5
232
100
AcDbEntity
  8
None
390
0
100
AcDbBlockEnd
  0
BLOCK
  5
233
100
AcDbEntity
  8
None
390
0
100
AcDbBlockBegin
  2
Group-10
 70
               0
 10
0.0
 20
0.0
 30
0.0
  3
Group-10
  1

  0
INSERT
  5
234
100
AcDbEntity
  8
None
390
0
 62
               7
100
AcDbBlockReference
  2
pad
 10
-2.5208097451909026
 20
25.697509210286221
 30
0.0
  0
ENDBLK
  5
235
100
AcDbEntity
  8
None
390
0
100
AcDbBlockEnd
  0
BLOCK
  5
236
100
AcDbEntity
  8
None
390
0
100
AcDbBlockBegin
  2
Group-11
 70
               0
 10
0.0
 20
0.0
 30
0.0
  3
Group-11
  1

  0
INSERT
  5
237
100
AcDbEntity
  8
None
390
0
 62
               7
100
AcDbBlockReference
  2
pad
 10
-2.0208097451909026
 20
25.697509210286221
 30
0.0
  0
ENDBLK
  5
238
100
AcDbEntity
  8
None
390
0
100
AcDbBlockEnd
  0
BLOCK
  5
239
100
AcDbEntity
  8
None
390
0
100
AcDbBlockBegin
  2
Group-12
 70
               0
 10
0.0
 20
0.0
 30
0.0
  3
Group-12
  1

  0
INSERT
  5
23A
100
AcDbEntity
  8
None
390
0
 62
               7
100
AcDbBlockReference
  2
pad
 10
-1.5208097451909026
 20
25.697509210286221
 30
0.0
  0
ENDBLK
  5
23B
100
AcDbEntity
  8
None
390
0
100
AcDbBlockEnd
  0
BLOCK
  5
23C
100
AcDbEntity
  8
None
390
0
100
AcDbBlockBegin
  2
Group-13
 70
               0
 10
0.0
 20
0.0
 30
0.0
  3
Group-13
  1

  0
INSERT
  5
23D
100
AcDbEntity
  8
None
390
0
 62
               7
100
AcDbBlockReference
  2
pad
 10
-1.0208097451909026
 20
25.697509210286221
 30
0.0
  0
ENDBLK
  5
23E
100
AcDbEntity
  8
None
390
0
100
AcDbBlockEnd
  0
BLOCK
  5
23F
100
AcDbEntity
  8
None
390
0
100
AcDbBlockBegin
  2
Group-14
 70
               0
 10
0.0
 20
0.0
 30
0.0
  3
Group-14
  1

  0
INSERT
  5
240
100
AcDbEntity
  8
None
390
0
 62
               7
100
AcDbBlockReference
  2
pad
 10
-0.5208097451909026
 20
25.697509210286221
 30
0.0
  0
ENDBLK
  5
241
100
AcDbEntity
  8
None
390
0
100
AcDbBlockEnd
  0
BLOCK
  5
242
100
AcDbEntity
  8
None
390
0
100
AcDbBlockBegin
  2
Group-15
 70
               0
 10
0.0
 20
0.0
 30
0.0
  3
Group-15
  1

  0
INSERT
  5
243
100
AcDbEntity
  8
None
390
0
 62
               7
100
AcDbBlockReference
  2
pad
 10
-0.0208097451909026
 20
25.697509210286221
 30
0.0
  0
ENDBLK
  5
244
100
AcDbEntity
  8
None
390
0
100
AcDbBlockEnd
  0
BLOCK
  5
245
100
AcDbEntity
  8
None
390
0
100
AcDbBlockBegin
  2
Group-16
 70
               0
 10
0.0
 20
0.0
 30
0.0
  3
Group-16
  1

  0
INSERT
  5
246
100
AcDbEntity
  8
None
390
0
 62
               7
100
AcDbBlockReference
  2
pad
 10
0.4791902548090974
 20
25.697509210286221
 30
0.0
  0
ENDBLK
  5
247
100
AcDbEntity
  8
None
390
0
100
AcDbBlockEnd
  0
BLOCK
  5
248
100
AcDbEntity
  8
None
390
0
100
AcDbBlockBegin
  2
Group-17
 70
               0
 10
0.0
 20
0.0
 30
0.0
  3
Group-17
  1

  0
INSERT
  5
249
100
AcDbEntity
  8
None
390
0
 62
               7
100
AcDbBlockReference
  2
pad
 10
0.9791902548090974
 20
25.697509210286221
 30
0.0
  0
ENDBLK
  5
24A
100
AcDbEntity
  8
None
390
0
100
AcDbBlockEnd
  0
BLOCK
  5
24B
100
AcDbEntity
  8
None
390
0
100
AcDbBlockBegin
  2
Group-18
 70
               0
 10
0.0
 20
0.0
 30
0.0
  3
Group-18
  1

  0
INSERT
  5
24C
100
AcDbEntity
  8
None
390
0
 62
               7
100
AcDbBlockReference
  2
pad
 10
-6.0208097451909026
 20
26.197509210286221
 30
0.0
  0
ENDBLK
  5
24D
100
AcDbEntity
  8
None
390
0
100
AcDbBlockEnd
  0
BLOCK
  5
24E
100
AcDbEntity
  8
None
390
0
100
AcDbBlockBegin
  2
Group-19
 70
               0
 10
0.0
 20
0.0
 30
0.0
  3
Group-19
  1

  0
INSERT
  5
24F
100
AcDbEntity
  8
None
390
0
 62
               7
100
AcDbBlockReference
  2
pad
 10
-5.5208097451909026
 20
26.197509210286221
 30
0.0
  0
ENDBLK
  5
250
100
AcDbEntity
  8
None
390
0
100
AcDbBlockEnd
  0
BLOCK
  5
251
100
AcDbEntity
  8
None
390
0
100
AcDbBlockBegin
  2
Group-20
 70
               0
 10
0.0
 20
0.0
 30
0.0
  3
Group-20
  1

  0
INSERT
  5
252
100
AcDbEntity
  8
None
390
0
 62
               7
100
AcDbBlockReference
  2
pad
 10
-5.0208097451909026
 20
26.197509210286221
 30
0.0
  0
ENDBLK
  5
253
100
AcDbEntity
  8
None
390
0
100
AcDbBlockEnd
  0
BLOCK
  5
254
100
AcDbEntity
  8
None
390
0
100
AcDbBlockBegin
  2
Group-21
 70
               0
 10
0.0
 20
0.0
 30
0.0
  3
Group-21
  1

  0
INSERT
  5
255
100
AcDbEntity
  8
None
390
0
 62
               7
100
AcDbBlockReference
  2
pad
 10
-4.5208097451909026
 20
26.197509210286221
 30
0.0
  0
ENDBLK
  5
256
100
AcDbEntity
  8
None
390
0
100
AcDbBlockEnd
  0
BLOCK
  5
257
100
AcDbEntity
  8
None
390
0
100
AcDbBlockBegin
  2
Group-22
 70
               0
 10
0.0
 20
0.0
 30
0.0
  3
Group-22
  1

  0
INSERT
  5
258
100
AcDbEntity
  8
None
390
0
 62
               7
100
AcDbBlockReference
  2
pad
 10
-4.0208097451909026
 20
26.197509210286221
 30
0.0
  0
ENDBLK
  5
259
100
AcDbEntity
  8
None
390
0
100
AcDbBlockEnd
  0
BLOCK
  5
25A
100
AcDbEntity
  8
None
390
0
100
AcDbBlockBegin
  2
Group-23
 70
               0
 10
0.0
 20
0.0
 30
0.0
  3
Group-23
  1

  0
INSERT
  5
25B
100
AcDbEntity
  8
None
390
0
 62
               7
100
AcDbBlockReference
  2
pad
 10
-3.5208097451909026
 20
26.197509210286221
 30
0.0
  0
ENDBLK
  5
25C
100
AcDbEntity
  8
None
390
0
100
AcDbBlockEnd
  0
BLOCK
  5
25D
100
AcDbEntity
  8
None
390
0
100
AcDbBlockBegin
  2
Group-24
 70
               0
 10
0.0
 20
0.0
 30
0.0
  3
Group-24
  1

  0
INSERT
  5
25E
100
AcDbEntity
  8
None
390
0
 62
               7
100
AcDbBlockReference
  2
pad
 10
-3.0208097451909026
 20
26.197509210286221
 30
0.0
  0
ENDBLK
  5
25F
100
AcDbEntity
  8
None
390
0
100
AcDbBlockEnd
  0
BLOCK
  5
260
100
AcDbEntity
  8
None
390
0
100
AcDbBlockBegin
  2
Group-25
 70
               0
 10
0.0
 20
0.0
 30
0.0
  3
Group-25
  1

  0
INSERT
  5
261
100
AcDbEntity
  8
None
390
0
 62
               7
100
AcDbBlockReference
  2
pad
 10
-2.5208097451909026
 20
26.197509210286221
 30
0.0
  0
ENDBLK
  5
262
100
AcDbEntity
  8
None
390
0
100
AcDbBlockEnd
  0
BLOCK
  5
263
100
AcDbEntity
  8
None
390
0
100
AcDbBlockBegin
  2
Group-26
 70
               0
 10
0.0
 20
0.0
 30
0.0
  3
Group-26
  1

  0
INSERT
  5
264
100
AcDbEntity
  8
None
390
0
 62
               7
100
AcDbBlockReference
  2
pad
 10
-2.0208097451909026
 20
26.197509210286221
 30
0.0
  0
ENDBLK
  5
265
100
AcDbEntity
  8
None
390
0
100
AcDbBlockEnd
  0
BLOCK
  5
266
100
AcDbEntity
  8
None
390
0
100
AcDbBlockBegin
  2
Group-27
 70
               0
 10
0.0
 20
0.0
 30
0.0
  3
Group-27
  1

  0
INSERT
  5
267
100
AcDbEntity
  8
None
390
0
 62
               7
100
AcDbBlockReference
  2
pad
 10
-1.5208097451909026
 20
26.197509210286221
 30
0.0
  0
ENDBLK
  5
268
100
AcDbEntity
  8
None
390
0
100
AcDbBlockEnd
  0
BLOCK
  5
269
100
AcDbEntity
  8
None
390
0
100
AcDbBlockBegin
  2
Group-28
 70
               0
 10
0.0
 20
0.0
 30
0.0
  3
Group-28
  1

  0
INSERT
  5
26A
100
AcDbEntity
  8
None
390
0
 62
               7
100
AcDbBlockReference
  2
pad
 10
-1.0208097451909026
 20
26.197509210286221
 30
0.0
  0
ENDBLK
  5
26B
100
AcDbEntity
  8
None
390
0
100
AcDbBlockEnd
  0
BLOCK
  5
26C
100
AcDbEntity
  8
None
390
0
100
AcDbBlockBegin
  2
Group-29
 70
               0
 10
0.0
 20
0.0
 30
0.0
  3
Group-29
  1

  0
INSERT
  5
26D
100
AcDbEntity
  8
None
390
0
 62
               7
100
AcDbBlockReference
  2
pad
 10
-0.5208097451909026
 20
26.197509210286221
 30
0.0
  0
ENDBLK
  5
26E
100
AcDbEntity
  8
None
390
0
100
AcDbBlockEnd
  0
BLOCK
  5
26F
100
AcDbEntity
  8
None
390
0
100
AcDbBlockBegin
  2
Group-30
 70
               0
 10
0.0
 20
0.0
 30
0.0
  3
Group-30
  1

  0
INSERT
  5
270
100
AcDbEntity
  8
None
390
0
 62
               7
100
AcDbBlockReference
  2
pad
 10
-0.0208097451909026
 20
26.197509210286221
 30
0.0
  0
ENDBLK
  5
271
100
AcDbEntity
  8
None
390
0
100
AcDbBlockEnd
  0
BLOCK
  5
272
100
AcDbEntity
  8
None
390
0
100
AcDbBlockBegin
  2
Group-31
 70
               0
 10
0.0
 20
0.0
 30
0.0
  3
Group-31
  1

  0
INSERT
  5
273
100
AcDbEntity
  8
None
390
0
 62
               7
100
AcDbBlockReference
  2
pad
 10
0.4791902548090974
 20
26.197509210286221
 30
0.0
  0
ENDBLK
  5
274
100
AcDbEntity
  8
None
390
0
100
AcDbBlockEnd
  0
BLOCK
  5
275
100
AcDbEntity
  8
None
390
0
100
AcDbBlockBegin
  2
Group-32
 70
               0
 10
0.0
 20
0.0
 30
0.0
  3
Group-32
  1

  0
INSERT
  5
276
100
AcDbEntity
  8
None
390
0
 62
               7
100
AcDbBlockReference
  2
pad
 10
0.9791902548090974
 20
26.197509210286221
 30
0.0
  0
ENDBLK
  5
277
100
AcDbEntity
  8
None
390
0
100
AcDbBlockEnd
  0
BLOCK
  5
278
100
AcDbEntity
  8
None
390
0
100
AcDbBlockBegin
  2
Group-33
 70
               0
 10
0.0
 20
0.0
 30
0.0
  3
Group-33
  1

  0
INSERT
  5
279
100
AcDbEntity
  8
None
390
0
 62
               7
100
AcDbBlockReference
  2
pad
 10
-6.0208097451909026
 20
26.697509210286221
 30
0.0
  0
ENDBLK
  5
27A
100
AcDbEntity
  8
None
390
0
100
AcDbBlockEnd
  0
BLOCK
  5
27B
100
AcDbEntity
  8
None
390
0
100
AcDbBlockBegin
  2
Group-34
 70
               0
 10
0.0
 20
0.0
 30
0.0
  3
Group-34
  1

  0
INSERT
  5
27C
100
AcDbEntity
  8
None
390
0
 62
               7
100
AcDbBlockReference
  2
pad
 10
-5.5208097451909026
 20
26.697509210286221
 30
0.0
  0
ENDBLK
  5
27D
100
AcDbEntity
  8
None
390
0
100
AcDbBlockEnd
  0
BLOCK
  5
27E
100
AcDbEntity
  8
None
390
0
100
AcDbBlockBegin
  2
Group-35
 70
               0
 10
0.0
 20
0.0
 30
0.0
  3
Group-35
  1

  0
INSERT
  5
27F
100
AcDbEntity
  8
None
390
0
 62
               7
100
AcDbBlockReference
  2
pad
 10
-5.0208097451909026
 20
26.697509210286221
 30
0.0
  0
ENDBLK
  5
280
100
AcDbEntity
  8
None
390
0
100
AcDbBlockEnd
  0
BLOCK
  5
281
100
AcDbEntity
  8
None
390
0
100
AcDbBlockBegin
  2
Group-36
 70
               0
 10
0.0
 20
0.0
 30
0.0
  3
Group-36
  1

  0
INSERT
  5
282
100
AcDbEntity
  8
None
390
0
 62
               7
100
AcDbBlockReference
  2
pad
 10
-4.5208097451909026
 20
26.697509210286221
 30
0.0
  0
ENDBLK
  5
283
100
AcDbEntity
  8
None
390
0
100
AcDbBlockEnd
  0
BLOCK
  5
284
100
AcDbEntity
  8
None
390
0
100
AcDbBlockBegin
  2
Group-37
 70
               0
 10
0.0
 20
0.0
 30
0.0
  3
Group-37
  1

  0
INSERT
  5
285
100
AcDbEntity
  8
None
390
0
 62
               7
100
AcDbBlockReference
  2
pad
 10
-4.0208097451909026
 20
26.697509210286221
 30
0.0
  0
ENDBLK
  5
286
100
AcDbEntity
  8
None
390
0
100
AcDbBlockEnd
  0
BLOCK
  5
287
100
AcDbEntity
  8
None
390
0
100
AcDbBlockBegin
  2
Group-38
 70
               0
 10
0.0
 20
0.0
 30
0.0
  3
Group-38
  1

  0
INSERT
  5
288
100
AcDbEntity
  8
None
390
0
 62
               7
100
AcDbBlockReference
  2
pad
 10
-3.5208097451909026
 20
26.697509210286221
 30
0.0
  0
ENDBLK
  5
289
100
AcDbEntity
  8
None
390
0
100
AcDbBlockEnd
  0
BLOCK
  5
28A
100
AcDbEntity
  8
None
390
0
100
AcDbBlockBegin
  2
Group-39
 70
               0
 10
0.0
 20
0.0
 30
0.0
  3
Group-39
  1

  0
INSERT
  5
28B
100
AcDbEntity
  8
None
390
0
 62
               7
100
AcDbBlockReference
  2
pad
 10
-3.0208097451909026
 20
26.697509210286221
 30
0.0
  0
ENDBLK
  5
28C
100
AcDbEntity
  8
None
390
0
100
AcDbBlockEnd
  0
BLOCK
  5
28D
100
AcDbEntity
  8
None
390
0
100
AcDbBlockBegin
  2
Group-40
 70
               0
 10
0.0
 20
0.0
 30
0.0
  3
Group-40
  1

  0
INSERT
  5
28E
100
AcDbEntity
  8
None
390
0
 62
               7
100
AcDbBlockReference
  2
pad
 10
-2.5208097451909026
 20
26.697509210286221
 30
0.0
  0
ENDBLK
  5
28F
100
AcDbEntity
  8
None
390
0
100
AcDbBlockEnd
  0
BLOCK
  5
290
100
AcDbEntity
  8
None
390
0
100
AcDbBlockBegin
  2
Group-41
 70
               0
 10
0.0
 20
0.0
 30
0.0
  3
Group-41
  1

  0
INSERT
  5
291
100
AcDbEntity
  8
None
390
0
 62
               7
100
AcDbBlockReference
  2
pad
 10
-2.0208097451909026
 20
26.697509210286221
 30
0.0
  0
ENDBLK
  5
292
100
AcDbEntity
  8
None
390
0
100
AcDbBlockEnd
  0
BLOCK
  5
293
100
AcDbEntity
  8
None
390
0
100
AcDbBlockBegin
  2
Group-42
 70
               0
 10
0.0
 20
0.0
 30
0.0
  3
Group-42
  1

  0
INSERT
  5
294
100
AcDbEntity
  8
None
390
0
 62
               7
100
AcDbBlockReference
  2
pad
 10
-1.5208097451909026
 20
26.697509210286221
 30
0.0
  0
ENDBLK
  5
295
100
AcDbEntity
  8
None
390
0
100
AcDbBlockEnd
  0
BLOCK
  5
296
100
AcDbEntity
  8
None
390
0
100
AcDbBlockBegin
  2
Group-43
 70
               0
 10
0.0
 20
0.0
 30
0.0
  3
Group-43
  1

  0
INSERT
  5
297
100
AcDbEntity
  8
None
390
0
 62
               7
100
AcDbBlockReference
  2
pad
 10
-1.0208097451909026
 20
26.697509210286221
 30
0.0
  0
ENDBLK
  5
298
100
AcDbEntity
  8
None
390
0
100
AcDbBlockEnd
  0
BLOCK
  5
299
100
AcDbEntity
  8
None
390
0
100
AcDbBlockBegin
  2
Group-44
 70
               0
 10
0.0
 20
0.0
 30
0.0
  3
Group-44
  1

  0
INSERT
  5
29A
100
AcDbEntity
  8
None
390
0
 62
               7
100
AcDbBlockReference
  2
pad
 10
-0.5208097451909026
 20
26.697509210286221
 30
0.0
  0
ENDBLK
  5
29B
100
AcDbEntity
  8
None
390
0
100
AcDbBlockEnd
  0
BLOCK
  5
29C
100
AcDbEntity
  8
None
390
0
100
AcDbBlockBegin
  2
Group-45
 70
               0
 10
0.0
 20
0.0
 30
0.0
  3
Group-45
  1

  0
INSERT
  5
29D
100
AcDbEntity
  8
None
390
0
 62
               7
100
AcDbBlockReference
  2
pad
 10
-0.0208097451909026
 20
26.697509210286221
 30
0.0
  0
ENDBLK
  5
29E
100
AcDbEntity
  8
None
390
0
100
AcDbBlockEnd
  0
BLOCK
  5
29F
100
AcDbEntity
  8
None
390
0
100
AcDbBlockBegin
  2
Group-46
 70
               0
 10
0.0
 20
0.0
 30
0.0
  3
Group-46
  1

  0
INSERT
  5
2A0
100
AcDbEntity
  8
None
390
0
 62
               7
100
AcDbBlockReference
  2
pad
 10
0.4791902548090974
 20
26.697509210286221
 30
0.0
  0
ENDBLK
  5
2A1
100
AcDbEntity
  8
None
390
0
100
AcDbBlockEnd
  0
BLOCK
  5
2A2
100
AcDbEntity
  8
None
390
0
100
AcDbBlockBegin
  2
Group-47
 70
               0
 10
0.0
 20
0.0
 30
0.0
  3
Group-47
  1

  0
INSERT
  5
2A3
100
AcDbEntity
  8
None
390
0
 62
               7
100
AcDbBlockReference
  2
pad
 10
0.9791902548090974
 20
26.697509210286221
 30
0.0
  0
ENDBLK
  5
2A4
100
AcDbEntity
  8
None
390
0
100
AcDbBlockEnd
  0
BLOCK
  5
2A5
100
AcDbEntity
  8
None
390
0
100
AcDbBlockBegin
  2
Group-48
 70
               0
 10
0.0
 20
0.0
 30
0.0
  3
Group-48
  1

  0
INSERT
  5
2A6
100
AcDbEntity
  8
None
390
0
 62
               7
100
AcDbBlockReference
  2
pad
 10
-6.0208097451909026
 20
27.197509210286221
 30
0.0
  0
ENDBLK
  5
2A7
100
AcDbEntity
  8
None
390
0
100
AcDbBlockEnd
  0
BLOCK
  5
2A8
100
AcDbEntity
  8
None
390
0
100
AcDbBlockBegin
  2
Group-49
 70
               0
 10
0.0
 20
0.0
 30
0.0
  3
Group-49
  1

  0
INSERT
  5
2A9
100
AcDbEntity
  8
None
390
0
 62
               7
100
AcDbBlockReference
  2
pad
 10
-5.5208097451909026
 20
27.197509210286221
 30
0.0
  0
ENDBLK
  5
2AA
100
AcDbEntity
  8
None
390
0
100
AcDbBlockEnd
  0
BLOCK
  5
2AB
100
AcDbEntity
  8
None
390
0
100
AcDbBlockBegin
  2
Group-50
 70
               0
 10
0.0
 20
0.0
 30
0.0
  3
Group-50
  1

  0
INSERT
  5
2AC
100
AcDbEntity
  8
None
390
0
 62
               7
100
AcDbBlockReference
  2
pad
 10
-5.0208097451909026
 20
27.197509210286221
 30
0.0
  0
ENDBLK
  5
2AD
100
AcDbEntity
  8
None
390
0
100
AcDbBlockEnd
  0
BLOCK
  5
2AE
100
AcDbEntity
  8
None
390
0
100
AcDbBlockBegin
  2
Group-51
 70
               0
 10
0.0
 20
0.0
 30
0.0
  3
Group-51
  1

  0
INSERT
  5
2AF
100
AcDbEntity
  8
None
390
0
 62
               7
100
AcDbBlockReference
  2
pad
 10
-4.5208097451909026
 20
27.197509210286221
 30
0.0
  0
ENDBLK
  5
2B0
100
AcDbEntity
  8
None
390
0
100
AcDbBlockEnd
  0
BLOCK
  5
2B1
100
AcDbEntity
  8
None
390
0
100
AcDbBlockBegin
  2
Group-52
 70
               0
 10
0.0
 20
0.0
 30
0.0
  3
Group-52
  1

  0
INSERT
  5
2B2
100
AcDbEntity
  8
None
390
0
 62
               7
100
AcDbBlockReference
  2
pad
 10
-4.0208097451909026
 20
27.197509210286221
 30
0.0
  0
ENDBLK
  5
2B3
100
AcDbEntity
  8
None
390
0
100
AcDbBlockEnd
  0
BLOCK
  5
2B4
100
AcDbEntity
  8
None
390
0
100
AcDbBlockBegin
  2
Group-53
 70
               0
 10
0.0
 20
0.0
 30
0.0
  3
Group-53
  1

  0
INSERT
  5
2B5
100
AcDbEntity
  8
None
390
0
 62
               7
100
AcDbBlockReference
  2
pad
 10
-3.5208097451909026
 20
27.197509210286221
 30
0.0
  0
ENDBLK
  5
2B6
100
AcDbEntity
  8
None
390
0
100
AcDbBlockEnd
  0
BLOCK
  5
2B7
100
AcDbEntity
  8
None
390
0
100
AcDbBlockBegin
  2
Group-54
 70
               0
 10
0.0
 20
0.0
 30
0.0
  3
Group-54
  1

  0
INSERT
  5
2B8
100
AcDbEntity
  8
None
390
0
 62
               7
100
AcDbBlockReference
  2
pad
 10
-3.0208097451909026
 20
27.197509210286221
 30
0.0
  0
ENDBLK
  5
2B9
100
AcDbEntity
  8
None
390
0
100
AcDbBlockEnd
  0
BLOCK
  5
2BA
100
AcDbEntity
  8
None
390
0
100
AcDbBlockBegin
  2
Group-55
 70
               0
 10
0.0
 20
0.0
 30
0.0
  3
Group-55
  1

  0
INSERT
  5
2BB
100
AcDbEntity
  8
None
390
0
 62
               7
100
AcDbBlockReference
  2
pad
 10
-2.5208097451909026
 20
27.197509210286221
 30
0.0
  0
ENDBLK
  5
2BC
100
AcDbEntity
  8
None
390
0
100
AcDbBlockEnd
  0
BLOCK
  5
2BD
100
AcDbEntity
  8
None
390
0
100
AcDbBlockBegin
  2
Group-56
 70
               0
 10
0.0
 20
0.0
 30
0.0
  3
Group-56
  1

  0
INSERT
  5
2BE
100
AcDbEntity
  8
None
390
0
 62
               7
100
AcDbBlockReference
  2
pad
 10
-2.0208097451909026
 20
27.197509210286221
 30
0.0
  0
ENDBLK
  5
2BF
100
AcDbEntity
  8
None
390
0
100
AcDbBlockEnd
  0
BLOCK
  5
2C0
100
AcDbEntity
  8
None
390
0
100
AcDbBlockBegin
  2
Group-57
 70
               0
 10
0.0
 20
0.0
 30
0.0
  3
Group-57
  1

  0
INSERT
  5
2C1
100
AcDbEntity
  8
None
390
0
 62
               7
100
AcDbBlockReference
  2
pad
 10
-1.5208097451909026
 20
27.197509210286221
 30
0.0
  0
ENDBLK
  5
2C2
100
AcDbEntity
  8
None
390
0
100
AcDbBlockEnd
  0
BLOCK
  5
2C3
100
AcDbEntity
  8
None
390
0
100
AcDbBlockBegin
  2
Group-58
 70
               0
 10
0.0
 20
0.0
 30
0.0
  3
Group-58
  1

  0
INSERT
  5
2C4
100
AcDbEntity
  8
None
390
0
 62
               7
100
AcDbBlockReference
  2
pad
 10
-1.0208097451909026
 20
27.197509210286221
 30
0.0
  0
ENDBLK
  5
2C5
100
AcDbEntity
  8
None
390
0
100
AcDbBlockEnd
  0
BLOCK
  5
2C6
100
AcDbEntity
  8
None
390
0
100
AcDbBlockBegin
  2
Group-59
 70
               0
 10
0.0
 20
0.0
 30
0.0
  3
Group-59
  1

  0
INSERT
  5
2C7
100
AcDbEntity
  8
None
390
0
 62
               7
100
AcDbBlockReference
  2
pad
 10
-0.5208097451909026
 20
27.197509210286221
 30
0.0
  0
ENDBLK
  5
2C8
100
AcDbEntity
  8
None
390
0
100
AcDbBlockEnd
  0
BLOCK
  5
2C9
100
AcDbEntity
  8
None
390
0
100
AcDbBlockBegin
  2
Group-60
 70
               0
 10
0.0
 20
0.0
 30
0.0
  3
Group-60
  1

  0
INSERT
  5
2CA
100
AcDbEntity
  8
None
390
0
 62
               7
100
AcDbBlockReference
  2
pad
 10
-0.0208097451909026
 20
27.197509210286221
 30
0.0
  0
ENDBLK
  5
2CB
100
AcDbEntity
  8
None
390
0
100
AcDbBlockEnd
  0
BLOCK
  5
2CC
100
AcDbEntity
  8
None
390
0
100
AcDbBlockBegin
  2
Group-61
 70
               0
 10
0.0
 20
0.0
 30
0.0
  3
Group-61
  1

  0
INSERT
  5
2CD
100
AcDbEntity
  8
None
390
0
 62
               7
100
AcDbBlockReference
  2
pad
 10
0.4791902548090974
 20
27.197509210286221
 30
0.0
  0
ENDBLK
  5
2CE
100
AcDbEntity
  8
None
390
0
100
AcDbBlockEnd
  0
BLOCK
  5
2CF
100
AcDbEntity
  8
None
390
0
100
AcDbBlockBegin
  2
Group-62
 70
               0
 10
0.0
 20
0.0
 30
0.0
  3
Group-62
  1

  0
INSERT
  5
2D0
100
AcDbEntity
  8
None
390
0
 62
               7
100
AcDbBlockReference
  2
pad
 10
0.9791902548090974
 20
27.197509210286221
 30
0.0
  0
ENDBLK
  5
2D1
100
AcDbEntity
  8
None
390
0
100
AcDbBlockEnd
  0
BLOCK
  5
2D2
100
AcDbEntity
  8
None
390
0
100
AcDbBlockBegin
  2
Group-63
 70
               0
 10
0.0
 20
0.0
 30
0.0
  3
Group-63
  1

  0
INSERT
  5
2D3
100
AcDbEntity
  8
None
390
0
 62
               7
100
AcDbBlockReference
  2
pad
 10
-6.0208097451909026
 20
27.697509210286221
 30
0.0
  0
ENDBLK
  5
2D4
100
AcDbEntity
  8
None
390
0
100
AcDbBlockEnd
  0
BLOCK
  5
2D5
100
AcDbEntity
  8
None
390
0
100
AcDbBlockBegin
  2
Group-64
 70
               0
 10
0.0
 20
0.0
 30
0.0
  3
Group-64
  1

  0
INSERT
  5
2D6
100
AcDbEntity
  8
None
390
0
 62
               7
100
AcDbBlockReference
  2
pad
 10
-5.5208097451909026
 20
27.697509210286221
 30
0.0
  0
ENDBLK
  5
2D7
100
AcDbEntity
  8
None
390
0
100
AcDbBlockEnd
  0
BLOCK
  5
2D8
100
AcDbEntity
  8
None
390
0
100
AcDbBlockBegin
  2
Group-65
 70
               0
 10
0.0
 20
0.0
 30
0.0
  3
Group-65
  1

  0
INSERT
  5
2D9
100
AcDbEntity
  8
None
390
0
 62
               7
100
AcDbBlockReference
  2
pad
 10
-5.0208097451909026
 20
27.697509210286221
 30
0.0
  0
ENDBLK
  5
2DA
100
AcDbEntity
  8
None
390
0
100
AcDbBlockEnd
  0
BLOCK
  5
2DB
100
AcDbEntity
  8
None
390
0
100
AcDbBlockBegin
  2
Group-66
 70
               0
 10
0.0
 20
0.0
 30
0.0
  3
Group-66
  1

  0
INSERT
  5
2DC
100
AcDbEntity
  8
None
390
0
 62
               7
100
AcDbBlockReference
  2
pad
 10
-4.5208097451909026
 20
27.697509210286221
 30
0.0
  0
ENDBLK
  5
2DD
100
AcDbEntity
  8
None
390
0
100
AcDbBlockEnd
  0
BLOCK
  5
2DE
100
AcDbEntity
  8
None
390
0
100
AcDbBlockBegin
  2
Group-67
 70
               0
 10
0.0
 20
0.0
 30
0.0
  3
Group-67
  1

  0
INSERT
  5
2DF
100
AcDbEntity
  8
None
390
0
 62
               7
100
AcDbBlockReference
  2
pad
 10
-4.0208097451909026
 20
27.697509210286221
 30
0.0
  0
ENDBLK
  5
2E0
100
AcDbEntity
  8
None
390
0
100
AcDbBlockEnd
  0
BLOCK
  5
2E1
100
AcDbEntity
  8
None
390
0
100
AcDbBlockBegin
  2
Group-68
 70
               0
 10
0.0
 20
0.0
 30
0.0
  3
Group-68
  1

  0
INSERT
  5
2E2
100
AcDbEntity
  8
None
390
0
 62
               7
100
AcDbBlockReference
  2
pad
 10
-3.5208097451909026
 20
27.697509210286221
 30
0.0
  0
ENDBLK
  5
2E3
100
AcDbEntity
  8
None
390
0
100
AcDbBlockEnd
  0
BLOCK
  5
2E4
100
AcDbEntity
  8
None
390
0
100
AcDbBlockBegin
  2
Group-69
 70
               0
 10
0.0
 20
0.0
 30
0.0
  3
Group-69
  1

  0
INSERT
  5
2E5
100
AcDbEntity
  8
None
390
0
 62
               7
100
AcDbBlockReference
  2
pad
 10
-3.0208097451909026
 20
27.697509210286221
 30
0.0
  0
ENDBLK
  5
2E6
100
AcDbEntity
  8
None
390
0
100
AcDbBlockEnd
  0
BLOCK
  5
2E7
100
AcDbEntity
  8
None
390
0
100
AcDbBlockBegin
  2
Group-70
 70
               0
 10
0.0
 20
0.0
 30
0.0
  3
Group-70
  1

  0
INSERT
  5
2E8
100
AcDbEntity
  8
None
390
0
 62
               7
100
AcDbBlockReference
  2
pad
 10
-2.5208097451909026
 20
27.697509210286221
 30
0.0
  0
ENDBLK
  5
2E9
100
AcDbEntity
  8
None
390
0
100
AcDbBlockEnd
  0
BLOCK
  5
2EA
100
AcDbEntity
  8
None
390
0
100
AcDbBlockBegin
  2
Group-71
 70
               0
 10
0.0
 20
0.0
 30
0.0
  3
Group-71
  1

  0
INSERT
  5
2EB
100
AcDbEntity
  8
None
390
0
 62
               7
100
AcDbBlockReference
  2
pad
 10
-2.0208097451909026
 20
27.697509210286221
 30
0.0
  0
ENDBLK
  5
2EC
100
AcDbEntity
  8
None
390
0
100
AcDbBlockEnd
  0
BLOCK
  5
2ED
100
AcDbEntity
  8
None
390
0
100
AcDbBlockBegin
  2
Group-72
 70
               0
 10
0.0
 20
0.0
 30
0.0
  3
Group-72
  1

  0
INSERT
  5
2EE
100
AcDbEntity
  8
None
390
0
 62
               7
100
AcDbBlockReference
  2
pad
 10
-1.5208097451909026
 20
27.697509210286221
 30
0.0
  0
ENDBLK
  5
2EF
100
AcDbEntity
  8
None
390
0
100
AcDbBlockEnd
  0
BLOCK
  5
2F0
100
AcDbEntity
  8
None
390
0
100
AcDbBlockBegin
  2
Group-73
 70
               0
 10
0.0
 20
0.0
 30
0.0
  3
Group-73
  1

  0
INSERT
  5
2F1
100
AcDbEntity
  8
None
390
0
 62
               7
100
AcDbBlockReference
  2
pad
 10
-1.0208097451909026
 20
27.697509210286221
 30
0.0
  0
ENDBLK
  5
2F2
100
AcDbEntity
  8
None
390
0
100
AcDbBlockEnd
  0
BLOCK
  5
2F3
100
AcDbEntity
  8
None
390
0
100
AcDbBlockBegin
  2
Group-74
 70
               0
 10
0.0
 20
0.0
 30
0.0
  3
Group-74
  1

  0
INSERT
  5
2F4
100
AcDbEntity
  8
None
390
0
 62
               7
100
AcDbBlockReference
  2
pad
 10
-0.5208097451909026
 20
27.697509210286221
 30
0.0
  0
ENDBLK
  5
2F5
100
AcDbEntity
  8
None
390
0
100
AcDbBlockEnd
  0
BLOCK
  5
2F6
100
AcDbEntity
  8
None
390
0
100
AcDbBlockBegin
  2
Group-75
 70
               0
 10
0.0
 20
0.0
 30
0.0
  3
Group-75
  1

  0
INSERT
  5
2F7
100
AcDbEntity
  8
None
390
0
 62
               7
100
AcDbBlockReference
  2
pad
 10
-0.0208097451909026
 20
27.697509210286221
 30
0.0
  0
ENDBLK
  5
2F8
100
AcDbEntity
  8
None
390
0
100
AcDbBlockEnd
  0
BLOCK
  5
2F9
100
AcDbEntity
  8
None
390
0
100
AcDbBlockBegin
  2
Group-76
 70
               0
 10
0.0
 20
0.0
 30
0.0
  3
Group-76
  1

  0
INSERT
  5
2FA
100
AcDbEntity
  8
None
390
0
 62
               7
100
AcDbBlockReference
  2
pad
 10
0.4791902548090974
 20
27.697509210286221
 30
0.0
  0
ENDBLK
  5
2FB
100
AcDbEntity
  8
None
390
0
100
AcDbBlockEnd
  0
BLOCK
  5
2FC
100
AcDbEntity
  8
None
390
0
100
AcDbBlockBegin
  2
Group-77
 70
               0
 10
0.0
 20
0.0
 30
0.0
  3
Group-77
  1

  0
INSERT
  5
2FD
100
AcDbEntity
  8
None
390
0
 62
               7
100
AcDbBlockReference
  2
pad
 10
0.9791902548090974
 20
27.697509210286221
 30
0.0
  0
ENDBLK
  5
2FE
100
AcDbEntity
  8
None
390
0
100
AcDbBlockEnd
  0
BLOCK
  5
2FF
100
AcDbEntity
  8
None
390
0
100
AcDbBlockBegin
  2
Group-78
 70
               0
 10
0.0
 20
0.0
 30
0.0
  3
Group-78
  1

  0
INSERT
  5
300
100
AcDbEntity
  8
None
390
0
 62
               7
100
AcDbBlockReference
  2
pad
 10
-6.0208097451909026
 20
28.197509210286221
 30
0.0
  0
ENDBLK
  5
301
100
AcDbEntity
  8
None
390
0
100
AcDbBlockEnd
  0
BLOCK
  5
302
100
AcDbEntity
  8
None
390
0
100
AcDbBlockBegin
  2
Group-79
 70
               0
 10
0.0
 20
0.0
 30
0.0
  3
Group-79
  1

  0
INSERT
  5
303
100
AcDbEntity
  8
None
390
0
 62
               7
100
AcDbBlockReference
  2
pad
 10
-5.5208097451909026
 20
28.197509210286221
 30
0.0
  0
ENDBLK
  5
304
100
AcDbEntity
  8
None
390
0
100
AcDbBlockEnd
  0
BLOCK
  5
305
100
AcDbEntity
  8
None
390
0
100
AcDbBlockBegin
  2
Group-80
 70
               0
 10
0.0
 20
0.0
 30
0.0
  3
Group-80
  1

  0
INSERT
  5
306
100
AcDbEntity
  8
None
390
0
 62
               7
100
AcDbBlockReference
  2
pad
 10
-5.0208097451909026
 20
28.197509210286221
 30
0.0
  0
ENDBLK
  5
307
100
AcDbEntity
  8
None
390
0
100
AcDbBlockEnd
  0
BLOCK
  5
308
100
AcDbEntity
  8
None
390
0
100
AcDbBlockBegin
  2
Group-81
 70
               0
 10
0.0
 20
0.0
 30
0.0
  3
Group-81
  1

  0
INSERT
  5
309
100
AcDbEntity
  8
None
390
0
 62
               7
100
AcDbBlockReference
  2
pad
 10
-4.5208097451909026
 20
28.197509210286221
 30
0.0
  0
ENDBLK
  5
30A
100
AcDbEntity
  8
None
390
0
100
AcDbBlockEnd
  0
BLOCK
  5
30B
100
AcDbEntity
  8
None
390
0
100
AcDbBlockBegin
  2
Group-82
 70
               0
 10
0.0
 20
0.0
 30
0.0
  3
Group-82
  1

  0
INSERT
  5
30C
100
AcDbEntity
  8
None
390
0
 62
               7
100
AcDbBlockReference
  2
pad
 10
-4.0208097451909026
 20
28.197509210286221
 30
0.0
  0
ENDBLK
  5
30D
100
AcDbEntity
  8
None
390
0
100
AcDbBlockEnd
  0
BLOCK
  5
30E
100
AcDbEntity
  8
None
390
0
100
AcDbBlockBegin
  2
Group-83
 70
               0
 10
0.0
 20
0.0
 30
0.0
  3
Group-83
  1

  0
INSERT
  5
30F
100
AcDbEntity
  8
None
390
0
 62
               7
100
AcDbBlockReference
  2
pad
 10
-3.5208097451909026
 20
28.197509210286221
 30
0.0
  0
ENDBLK
  5
310
100
AcDbEntity
  8
None
390
0
100
AcDbBlockEnd
  0
BLOCK
  5
311
100
AcDbEntity
  8
None
390
0
100
AcDbBlockBegin
  2
Group-84
 70
               0
 10
0.0
 20
0.0
 30
0.0
  3
Group-84
  1

  0
INSERT
  5
312
100
AcDbEntity
  8
None
390
0
 62
               7
100
AcDbBlockReference
  2
pad
 10
-3.0208097451909026
 20
28.197509210286221
 30
0.0
  0
ENDBLK
  5
313
100
AcDbEntity
  8
None
390
0
100
AcDbBlockEnd
  0
BLOCK
  5
314
100
AcDbEntity
  8
None
390
0
100
AcDbBlockBegin
  2
Group-85
 70
               0
 10
0.0
 20
0.0
 30
0.0
  3
Group-85
  1

  0
INSERT
  5
315
100
AcDbEntity
  8
None
390
0
 62
               7
100
AcDbBlockReference
  2
pad
 10
-2.5208097451909026
 20
28.197509210286221
 30
0.0
  0
ENDBLK
  5
316
100
AcDbEntity
  8
None
390
0
100
AcDbBlockEnd
  0
BLOCK
  5
317
100
AcDbEntity
  8
None
390
0
100
AcDbBlockBegin
  2
Group-86
 70
               0
 10
0.0
 20
0.0
 30
0.0
  3
Group-86
  1

  0
INSERT
  5
318
100
AcDbEntity
  8
None
390
0
 62
               7
100
AcDbBlockReference
  2
pad
 10
-2.0208097451909026
 20
28.197509210286221
 30
0.0
  0
ENDBLK
  5
319
100
AcDbEntity
  8
None
390
0
100
AcDbBlockEnd
  0
BLOCK
  5
31A
100
AcDbEntity
  8
None
390
0
100
AcDbBlockBegin
  2
Group-87
 70
               0
 10
0.0
 20
0.0
 30
0.0
  3
Group-87
  1

  0
INSERT
  5
31B
100
AcDbEntity
  8
None
390
0
 62
               7
100
AcDbBlockReference
  2
pad
 10
-1.5208097451909026
 20
28.197509210286221
 30
0.0
  0
ENDBLK
  5
31C
100
AcDbEntity
  8
None
390
0
100
AcDbBlockEnd
  0
BLOCK
  5
31D
100
AcDbEntity
  8
None
390
0
100
AcDbBlockBegin
  2
Group-88
 70
               0
 10
0.0
 20
0.0
 30
0.0
  3
Group-88
  1

  0
INSERT
  5
31E
100
AcDbEntity
  8
None
390
0
 62
               7
100
AcDbBlockReference
  2
pad
 10
-1.0208097451909026
 20
28.197509210286221
 30
0.0
  0
ENDBLK
  5
31F
100
AcDbEntity
  8
None
390
0
100
AcDbBlockEnd
  0
BLOCK
  5
320
100
AcDbEntity
  8
None
390
0
100
AcDbBlockBegin
  2
Group-89
 70
               0
 10
0.0
 20
0.0
 30
0.0
  3
Group-89
  1

  0
INSERT
  5
321
100
AcDbEntity
  8
None
390
0
 62
               7
100
AcDbBlockReference
  2
pad
 10
-0.5208097451909026
 20
28.197509210286221
 30
0.0
  0
ENDBLK
  5
322
100
AcDbEntity
  8
None
390
0
100
AcDbBlockEnd
  0
BLOCK
  5
323
100
AcDbEntity
  8
None
390
0
100
AcDbBlockBegin
  2
Group-90
 70
               0
 10
0.0
 20
0.0
 30
0.0
  3
Group-90
  1

  0
INSERT
  5
324
100
AcDbEntity
  8
None
390
0
 62
               7
100
AcDbBlockReference
  2
pad
 10
-0.0208097451909026
 20
28.197509210286221
 30
0.0
  0
ENDBLK
  5
325
100
AcDbEntity
  8
None
390
0
100
AcDbBlockEnd
  0
BLOCK
  5
326
100
AcDbEntity
  8
None
390
0
100
AcDbBlockBegin
  2
Group-91
 70
               0
 10
0.0
 20
0.0
 30
0.0
  3
Group-91
  1

  0
INSERT
  5
327
100
AcDbEntity
  8
None
390
0
 62
               7
100
AcDbBlockReference
  2
pad
 10
0.4791902548090974
 20
28.197509210286221
 30
0.0
  0
ENDBLK
  5
328
100
AcDbEntity
  8
None
390
0
100
AcDbBlockEnd
  0
BLOCK
  5
329
100
AcDbEntity
  8
None
390
0
100
AcDbBlockBegin
  2
Group-92
 70
               0
 10
0.0
 20
0.0
 30
0.0
  3
Group-92
  1

  0
INSERT
  5
32A
100
AcDbEntity
  8
None
390
0
 62
               7
100
AcDbBlockReference
  2
pad
 10
0.9791902548090974
 20
28.197509210286221
 30
0.0
  0
ENDBLK
  5
32B
100
AcDbEntity
  8
None
390
0
100
AcDbBlockEnd
  0
BLOCK
  5
32C
100
AcDbEntity
  8
None
390
0
100
AcDbBlockBegin
  2
Group-93
 70
               0
 10
0.0
 20
0.0
 30
0.0
  3
Group-93
  1

  0
INSERT
  5
32D
100
AcDbEntity
  8
None
390
0
 62
               7
100
AcDbBlockReference
  2
pad
 10
-6.0208097451909026
 20
28.697509210286221
 30
0.0
  0
ENDBLK
  5
32E
100
AcDbEntity
  8
None
390
0
100
AcDbBlockEnd
  0
BLOCK
  5
32F
100
AcDbEntity
  8
None
390
0
100
AcDbBlockBegin
  2
Group-94
 70
               0
 10
0.0
 20
0.0
 30
0.0
  3
Group-94
  1

  0
INSERT
  5
330
100
AcDbEntity
  8
None
390
0
 62
               7
100
AcDbBlockReference
  2
pad
 10
-5.5208097451909026
 20
28.697509210286221
 30
0.0
  0
ENDBLK
  5
331
100
AcDbEntity
  8
None
390
0
100
AcDbBlockEnd
  0
BLOCK
  5
332
100
AcDbEntity
  8
None
390
0
100
AcDbBlockBegin
  2
Group-95
 70
               0
 10
0.0
 20
0.0
 30
0.0
  3
Group-95
  1

  0
INSERT
  5
333
100
AcDbEntity
  8
None
390
0
 62
               7
100
AcDbBlockReference
  2
pad
 10
-5.0208097451909026
 20
28.697509210286221
 30
0.0
  0
ENDBLK
  5
334
100
AcDbEntity
  8
None
390
0
100
AcDbBlockEnd
  0
BLOCK
  5
335
100
AcDbEntity
  8
None
390
0
100
AcDbBlockBegin
  2
Group-96
 70
               0
 10
0.0
 20
0.0
 30
0.0
  3
Group-96
  1

  0
INSERT
  5
336
100
AcDbEntity
  8
None
390
0
 62
               7
100
AcDbBlockReference
  2
pad
 10
-4.5208097451909026
 20
28.697509210286221
 30
0.0
  0
ENDBLK
  5
337
100
AcDbEntity
  8
None
390
0
100
AcDbBlockEnd
  0
BLOCK
  5
338
100
AcDbEntity
  8
None
390
0
100
AcDbBlockBegin
  2
Group-97
 70
               0
 10
0.0
 20
0.0
 30
0.0
  3
Group-97
  1

  0
INSERT
  5
339
100
AcDbEntity
  8
None
390
0
 62
               7
100
AcDbBlockReference
  2
pad
 10
-4.0208097451909026
 20
28.697509210286221
 30
0.0
  0
ENDBLK
  5
33A
100
AcDbEntity
  8
None
390
0
100
AcDbBlockEnd
  0
BLOCK
  5
33B
100
AcDbEntity
  8
None
390
0
100
AcDbBlockBegin
  2
Group-98
 70
               0
 10
0.0
 20
0.0
 30
0.0
  3
Group-98
  1

  0
INSERT
  5
33C
100
AcDbEntity
  8
None
390
0
 62
               7
100
AcDbBlockReference
  2
pad
 10
-3.5208097451909026
 20
28.697509210286221
 30
0.0
  0
ENDBLK
  5
33D
100
AcDbEntity
  8
None
390
0
100
AcDbBlockEnd
  0
BLOCK
  5
33E
100
AcDbEntity
  8
None
390
0
100
AcDbBlockBegin
  2
Group-99
 70
               0
 10
0.0
 20
0.0
 30
0.0
  3
Group-99
  1

  0
INSERT
  5
33F
100
AcDbEntity
  8
None
390
0
 62
               7
100
AcDbBlockReference
  2
pad
 10
-3.0208097451909026
 20
28.697509210286221
 30
0.0
  0
ENDBLK
  5
340
100
AcDbEntity
  8
None
390
0
100
AcDbBlockEnd
  0
BLOCK
  5
341
100
AcDbEntity
  8
None
390
0
100
AcDbBlockBegin
  2
Group-100
 70
               0
 10
0.0
 20
0.0
 30
0.0
  3
Group-100
  1

  0
INSERT
  5
342
100
AcDbEntity
  8
None
390
0
 62
               7
100
AcDbBlockReference
  2
pad
 10
-2.5208097451909026
 20
28.697509210286221
 30
0.0
  0
ENDBLK
  5
343
100
AcDbEntity
  8
None
390
0
100
AcDbBlockEnd
  0
BLOCK
  5
344
100
AcDbEntity
  8
None
390
0
100
AcDbBlockBegin
  2
Group-101
 70
               0
 10
0.0
 20
0.0
 30
0.0
  3
Group-101
  1

  0
INSERT
  5
345
100
AcDbEntity
  8
None
390
0
 62
               7
100
AcDbBlockReference
  2
pad
 10
-2.0208097451909026
 20
28.697509210286221
 30
0.0
  0
ENDBLK
  5
346
100
AcDbEntity
  8
None
390
0
100
AcDbBlockEnd
  0
BLOCK
  5
347
100
AcDbEntity
  8
None
390
0
100
AcDbBlockBegin
  2
Group-102
 70
               0
 10
0.0
 20
0.0
 30
0.0
  3
Group-102
  1

  0
INSERT
  5
348
100
AcDbEntity
  8
None
390
0
 62
               7
100
AcDbBlockReference
  2
pad
 10
-1.5208097451909026
 20
28.697509210286221
 30
0.0
  0
ENDBLK
  5
349
100
AcDbEntity
  8
None
390
0
100
AcDbBlockEnd
  0
BLOCK
  5
34A
100
AcDbEntity
  8
None
390
0
100
AcDbBlockBegin
  2
Group-103
 70
               0
 10
0.0
 20
0.0
 30
0.0
  3
Group-103
  1

  0
INSERT
  5
34B
100
AcDbEntity
  8
None
390
0
 62
               7
100
AcDbBlockReference
  2
pad
 10
-1.0208097451909026
 20
28.697509210286221
 30
0.0
  0
ENDBLK
  5
34C
100
AcDbEntity
  8
None
390
0
100
AcDbBlockEnd
  0
BLOCK
  5
34D
100
AcDbEntity
  8
None
390
0
100
AcDbBlockBegin
  2
Group-104
 70
               0
 10
0.0
 20
0.0
 30
0.0
  3
Group-104
  1

  0
INSERT
  5
34E
100
AcDbEntity
  8
None
390
0
 62
               7
100
AcDbBlockReference
  2
pad
 10
-0.5208097451909026
 20
28.697509210286221
 30
0.0
  0
ENDBLK
  5
34F
100
AcDbEntity
  8
None
390
0
100
AcDbBlockEnd
  0
BLOCK
  5
350
100
AcDbEntity
  8
None
390
0
100
AcDbBlockBegin
  2
Group-105
 70
               0
 10
0.0
 20
0.0
 30
0.0
  3
Group-105
  1

  0
INSERT
  5
351
100
AcDbEntity
  8
None
390
0
 62
               7
100
AcDbBlockReference
  2
pad
 10
-0.0208097451909026
 20
28.697509210286221
 30
0.0
  0
ENDBLK
  5
352
100
AcDbEntity
  8
None
390
0
100
AcDbBlockEnd
  0
BLOCK
  5
353
100
AcDbEntity
  8
None
390
0
100
AcDbBlockBegin
  2
Group-106
 70
               0
 10
0.0
 20
0.0
 30
0.0
  3
Group-106
  1

  0
INSERT
  5
354
100
AcDbEntity
  8
None
390
0
 62
               7
100
AcDbBlockReference
  2
pad
 10
0.4791902548090974
 20
28.697509210286221
 30
0.0
  0
ENDBLK
  5
355
100
AcDbEntity
  8
None
390
0
100
AcDbBlockEnd
  0
BLOCK
  5
356
100
AcDbEntity
  8
None
390
0
100
AcDbBlockBegin
  2
Group-107
 70
               0
 10
0.0
 20
0.0
 30
0.0
  3
Group-107
  1

  0
INSERT
  5
357
100
AcDbEntity
  8
None
390
0
 62
               7
100
AcDbBlockReference
  2
pad
 10
0.9791902548090974
 20
28.697509210286221
 30
0.0
  0
ENDBLK
  5
358
100
AcDbEntity
  8
None
390
0
100
AcDbBlockEnd
  0
BLOCK
  5
359
100
AcDbEntity
  8
None
390
0
100
AcDbBlockBegin
  2
Group-108
 70
               0
 10
0.0
 20
0.0
 30
0.0
  3
Group-108
  1

  0
INSERT
  5
35A
100
AcDbEntity
  8
None
390
0
 62
               7
100
AcDbBlockReference
  2
pad
 10
-6.0208097451909026
 20
29.197509210286221
 30
0.0
  0
ENDBLK
  5
35B
100
AcDbEntity
  8
None
390
0
100
AcDbBlockEnd
  0
BLOCK
  5
35C
100
AcDbEntity
  8
None
390
0
100
AcDbBlockBegin
  2
Group-109
 70
               0
 10
0.0
 20
0.0
 30
0.0
  3
Group-109
  1

  0
INSERT
  5
35D
100
AcDbEntity
  8
None
390
0
 62
               7
100
AcDbBlockReference
  2
pad
 10
-5.5208097451909026
 20
29.197509210286221
 30
0.0
  0
ENDBLK
  5
35E
100
AcDbEntity
  8
None
390
0
100
AcDbBlockEnd
  0
BLOCK
  5
35F
100
AcDbEntity
  8
None
390
0
100
AcDbBlockBegin
  2
Group-110
 70
               0
 10
0.0
 20
0.0
 30
0.0
  3
Group-110
  1

  0
INSERT
  5
360
100
AcDbEntity
  8
None
390
0
 62
               7
100
AcDbBlockReference
  2
pad
 10
-5.0208097451909026
 20
29.197509210286221
 30
0.0
  0
ENDBLK
  5
361
100
AcDbEntity
  8
None
390
0
100
AcDbBlockEnd
  0
BLOCK
  5
362
100
AcDbEntity
  8
None
390
0
100
AcDbBlockBegin
  2
Group-111
 70
               0
 10
0.0
 20
0.0
 30
0.0
  3
Group-111
  1

  0
INSERT
  5
363
100
AcDbEntity
  8
None
390
0
 62
               7
100
AcDbBlockReference
  2
pad
 10
-4.5208097451909026
 20
29.197509210286221
 30
0.0
  0
ENDBLK
  5
364
100
AcDbEntity
  8
None
390
0
100
AcDbBlockEnd
  0
BLOCK
  5
365
100
AcDbEntity
  8
None
390
0
100
AcDbBlockBegin
  2
Group-112
 70
               0
 10
0.0
 20
0.0
 30
0.0
  3
Group-112
  1

  0
INSERT
  5
366
100
AcDbEntity
  8
None
390
0
 62
               7
100
AcDbBlockReference
  2
pad
 10
-4.0208097451909026
 20
29.197509210286221
 30
0.0
  0
ENDBLK
  5
367
100
AcDbEntity
  8
None
390
0
100
AcDbBlockEnd
  0
BLOCK
  5
368
100
AcDbEntity
  8
None
390
0
100
AcDbBlockBegin
  2
Group-113
 70
               0
 10
0.0
 20
0.0
 30
0.0
  3
Group-113
  1

  0
INSERT
  5
369
100
AcDbEntity
  8
None
390
0
 62
               7
100
AcDbBlockReference
  2
pad
 10
-3.5208097451909026
 20
29.197509210286221
 30
0.0
  0
ENDBLK
  5
36A
100
AcDbEntity
  8
None
390
0
100
AcDbBlockEnd
  0
BLOCK
  5
36B
100
AcDbEntity
  8
None
390
0
100
AcDbBlockBegin
  2
Group-114
 70
               0
 10
0.0
 20
0.0
 30
0.0
  3
Group-114
  1

  0
INSERT
  5
36C
100
AcDbEntity
  8
None
390
0
 62
               7
100
AcDbBlockReference
  2
pad
 10
-3.0208097451909026
 20
29.197509210286221
 30
0.0
  0
ENDBLK
  5
36D
100
AcDbEntity
  8
None
390
0
100
AcDbBlockEnd
  0
BLOCK
  5
36E
100
AcDbEntity
  8
None
390
0
100
AcDbBlockBegin
  2
Group-115
 70
               0
 10
0.0
 20
0.0
 30
0.0
  3
Group-115
  1

  0
INSERT
  5
36F
100
AcDbEntity
  8
None
390
0
 62
               7
100
AcDbBlockReference
  2
pad
 10
-2.5208097451909026
 20
29.197509210286221
 30
0.0
  0
ENDBLK
  5
370
100
AcDbEntity
  8
None
390
0
100
AcDbBlockEnd
  0
BLOCK
  5
371
100
AcDbEntity
  8
None
390
0
100
AcDbBlockBegin
  2
Group-116
 70
               0
 10
0.0
 20
0.0
 30
0.0
  3
Group-116
  1

  0
INSERT
  5
372
100
AcDbEntity
  8
None
390
0
 62
               7
100
AcDbBlockReference
  2
pad
 10
-2.0208097451909026
 20
29.197509210286221
 30
0.0
  0
ENDBLK
  5
373
100
AcDbEntity
  8
None
390
0
100
AcDbBlockEnd
  0
BLOCK
  5
374
100
AcDbEntity
  8
None
390
0
100
AcDbBlockBegin
  2
Group-117
 70
               0
 10
0.0
 20
0.0
 30
0.0
  3
Group-117
  1

  0
INSERT
  5
375
100
AcDbEntity
  8
None
390
0
 62
               7
100
AcDbBlockReference
  2
pad
 10
-1.5208097451909026
 20
29.197509210286221
 30
0.0
  0
ENDBLK
  5
376
100
AcDbEntity
  8
None
390
0
100
AcDbBlockEnd
  0
BLOCK
  5
377
100
AcDbEntity
  8
None
390
0
100
AcDbBlockBegin
  2
Group-118
 70
               0
 10
0.0
 20
0.0
 30
0.0
  3
Group-118
  1

  0
INSERT
  5
378
100
AcDbEntity
  8
None
390
0
 62
               7
100
AcDbBlockReference
  2
pad
 10
-1.0208097451909026
 20
29.197509210286221
 30
0.0
  0
ENDBLK
  5
379
100
AcDbEntity
  8
None
390
0
100
AcDbBlockEnd
  0
BLOCK
  5
37A
100
AcDbEntity
  8
None
390
0
100
AcDbBlockBegin
  2
Group-119
 70
               0
 10
0.0
 20
0.0
 30
0.0
  3
Group-119
  1

  0
INSERT
  5
37B
100
AcDbEntity
  8
None
390
0
 62
               7
100
AcDbBlockReference
  2
pad
 10
-0.5208097451909026
 20
29.197509210286221
 30
0.0
  0
ENDBLK
  5
37C
100
AcDbEntity
  8
None
390
0
100
AcDbBlockEnd
  0
BLOCK
  5
37D
100
AcDbEntity
  8
None
390
0
100
AcDbBlockBegin
  2
Group-120
 70
               0
 10
0.0
 20
0.0
 30
0.0
  3
Group-120
  1

  0
INSERT
  5
37E
100
AcDbEntity
  8
None
390
0
 62
               7
100
AcDbBlockReference
  2
pad
 10
-0.0208097451909026
 20
29.197509210286221
 30
0.0
  0
ENDBLK
  5
37F
100
AcDbEntity
  8
None
390
0
100
AcDbBlockEnd
  0
BLOCK
  5
380
100
AcDbEntity
  8
None
390
0
100
AcDbBlockBegin
  2
Group-121
 70
               0
 10
0.0
 20
0.0
 30
0.0
  3
Group-121
  1

  0
INSERT
  5
381
100
AcDbEntity
  8
None
390
0
 62
               7
100
AcDbBlockReference
  2
pad
 10
0.4791902548090974
 20
29.197509210286221
 30
0.0
  0
ENDBLK
  5
382
100
AcDbEntity
  8
None
390
0
100
AcDbBlockEnd
  0
BLOCK
  5
383
100
AcDbEntity
  8
None
390
0
100
AcDbBlockBegin
  2
Group-122
 70
               0
 10
0.0
 20
0.0
 30
0.0
  3
Group-122
  1

  0
INSERT
  5
384
100
AcDbEntity
  8
None
390
0
 62
               7
100
AcDbBlockReference
  2
pad
 10
0.9791902548090974
 20
29.197509210286221
 30
0.0
  0
ENDBLK
  5
385
100
AcDbEntity
  8
None
390
0
100
AcDbBlockEnd
  0
BLOCK
  5
386
100
AcDbEntity
  8
None
390
0
100
AcDbBlockBegin
  2
Group-123
 70
               0
 10
0.0
 20
0.0
 30
0.0
  3
Group-123
  1

  0
INSERT
  5
387
100
AcDbEntity
  8
None
390
0
 62
               7
100
AcDbBlockReference
  2
pad
 10
-6.0208097451909026
 20
29.697509210286221
 30
0.0
  0
ENDBLK
  5
388
100
AcDbEntity
  8
None
390
0
100
AcDbBlockEnd
  0
BLOCK
  5
389
100
AcDbEntity
  8
None
390
0
100
AcDbBlockBegin
  2
Group-124
 70
               0
 10
0.0
 20
0.0
 30
0.0
  3
Group-124
  1

  0
INSERT
  5
38A
100
AcDbEntity
  8
None
390
0
 62
               7
100
AcDbBlockReference
  2
pad
 10
-5.5208097451909026
 20
29.697509210286221
 30
0.0
  0
ENDBLK
  5
38B
100
AcDbEntity
  8
None
390
0
100
AcDbBlockEnd
  0
BLOCK
  5
38C
100
AcDbEntity
  8
None
390
0
100
AcDbBlockBegin
  2
Group-125
 70
               0
 10
0.0
 20
0.0
 30
0.0
  3
Group-125
  1

  0
INSERT
  5
38D
100
AcDbEntity
  8
None
390
0
 62
               7
100
AcDbBlockReference
  2
pad
 10
-5.0208097451909026
 20
29.697509210286221
 30
0.0
  0
ENDBLK
  5
38E
100
AcDbEntity
  8
None
390
0
100
AcDbBlockEnd
  0
BLOCK
  5
38F
100
AcDbEntity
  8
None
390
0
100
AcDbBlockBegin
  2
Group-126
 70
               0
 10
0.0
 20
0.0
 30
0.0
  3
Group-126
  1

  0
INSERT
  5
390
100
AcDbEntity
  8
None
390
0
 62
               7
100
AcDbBlockReference
  2
pad
 10
-4.5208097451909026
 20
29.697509210286221
 30
0.0
  0
ENDBLK
  5
391
100
AcDbEntity
  8
None
390
0
100
AcDbBlockEnd
  0
BLOCK
  5
392
100
AcDbEntity
  8
None
390
0
100
AcDbBlockBegin
  2
Group-127
 70
               0
 10
0.0
 20
0.0
 30
0.0
  3
Group-127
  1

  0
INSERT
  5
393
100
AcDbEntity
  8
None
390
0
 62
               7
100
AcDbBlockReference
  2
pad
 10
-4.0208097451909026
 20
29.697509210286221
 30
0.0
  0
ENDBLK
  5
394
100
AcDbEntity
  8
None
390
0
100
AcDbBlockEnd
  0
BLOCK
  5
395
100
AcDbEntity
  8
None
390
0
100
AcDbBlockBegin
  2
Group-128
 70
               0
 10
0.0
 20
0.0
 30
0.0
  3
Group-128
  1

  0
INSERT
  5
396
100
AcDbEntity
  8
None
390
0
 62
               7
100
AcDbBlockReference
  2
pad
 10
-3.5208097451909026
 20
29.697509210286221
 30
0.0
  0
ENDBLK
  5
397
100
AcDbEntity
  8
None
390
0
100
AcDbBlockEnd
  0
BLOCK
  5
398
100
AcDbEntity
  8
None
390
0
100
AcDbBlockBegin
  2
Group-129
 70
               0
 10
0.0
 20
0.0
 30
0.0
  3
Group-129
  1

  0
INSERT
  5
399
100
AcDbEntity
  8
None
390
0
 62
               7
100
AcDbBlockReference
  2
pad
 10
-3.0208097451909026
 20
29.697509210286221
 30
0.0
  0
ENDBLK
  5
39A
100
AcDbEntity
  8
None
390
0
100
AcDbBlockEnd
  0
BLOCK
  5
39B
100
AcDbEntity
  8
None
390
0
100
AcDbBlockBegin
  2
Group-130
 70
               0
 10
0.0
 20
0.0
 30
0.0
  3
Group-130
  1

  0
INSERT
  5
39C
100
AcDbEntity
  8
None
390
0
 62
               7
100
AcDbBlockReference
  2
pad
 10
-2.5208097451909026
 20
29.697509210286221
 30
0.0
  0
ENDBLK
  5
39D
100
AcDbEntity
  8
None
390
0
100
AcDbBlockEnd
  0
BLOCK
  5
39E
100
AcDbEntity
  8
None
390
0
100
AcDbBlockBegin
  2
Group-131
 70
               0
 10
0.0
 20
0.0
 30
0.0
  3
Group-131
  1

  0
INSERT
  5
39F
100
AcDbEntity
  8
None
390
0
 62
               7
100
AcDbBlockReference
  2
pad
 10
-2.0208097451909026
 20
29.697509210286221
 30
0.0
  0
ENDBLK
  5
3A0
100
AcDbEntity
  8
None
390
0
100
AcDbBlockEnd
  0
BLOCK
  5
3A1
100
AcDbEntity
  8
None
390
0
100
AcDbBlockBegin
  2
Group-132
 70
               0
 10
0.0
 20
0.0
 30
0.0
  3
Group-132
  1

  0
INSERT
  5
3A2
100
AcDbEntity
  8
None
390
0
 62
               7
100
AcDbBlockReference
  2
pad
 10
-1.5208097451909026
 20
29.697509210286221
 30
0.0
  0
ENDBLK
  5
3A3
100
AcDbEntity
  8
None
390
0
100
AcDbBlockEnd
  0
BLOCK
  5
3A4
100
AcDbEntity
  8
None
390
0
100
AcDbBlockBegin
  2
Group-133
 70
               0
 10
0.0
 20
0.0
 30
0.0
  3
Group-133
  1

  0
INSERT
  5
3A5
100
AcDbEntity
  8
None
390
0
 62
               7
100
AcDbBlockReference
  2
pad
 10
-1.0208097451909026
 20
29.697509210286221
 30
0.0
  0
ENDBLK
  5
3A6
100
AcDbEntity
  8
None
390
0
100
AcDbBlockEnd
  0
BLOCK
  5
3A7
100
AcDbEntity
  8
None
390
0
100
AcDbBlockBegin
  2
Group-134
 70
               0
 10
0.0
 20
0.0
 30
0.0
  3
Group-134
  1

  0
INSERT
  5
3A8
100
AcDbEntity
  8
None
390
0
 62
               7
100
AcDbBlockReference
  2
pad
 10
-0.5208097451909026
 20
29.697509210286221
 30
0.0
  0
ENDBLK
  5
3A9
100
AcDbEntity
  8
None
390
0
100
AcDbBlockEnd
  0
BLOCK
  5
3AA
100
AcDbEntity
  8
None
390
0
100
AcDbBlockBegin
  2
Group-135
 70
               0
 10
0.0
 20
0.0
 30
0.0
  3
Group-135
  1

  0
INSERT
  5
3AB
100
AcDbEntity
  8
None
390
0
 62
               7
100
AcDbBlockReference
  2
pad
 10
-0.0208097451909026
 20
29.697509210286221
 30
0.0
  0
ENDBLK
  5
3AC
100
AcDbEntity
  8
None
390
0
100
AcDbBlockEnd
  0
BLOCK
  5
3AD
100
AcDbEntity
  8
None
390
0
100
AcDbBlockBegin
  2
Group-136
 70
               0
 10
0.0
 20
0.0
 30
0.0
  3
Group-136
  1

  0
INSERT
  5
3AE
100
AcDbEntity
  8
None
390
0
 62
               7
100
AcDbBlockReference
  2
pad
 10
0.4791902548090974
 20
29.697509210286221
 30
0.0
  0
ENDBLK
  5
3AF
100
AcDbEntity
  8
None
390
0
100
AcDbBlockEnd
  0
BLOCK
  5
3B0
100
AcDbEntity
  8
None
390
0
100
AcDbBlockBegin
  2
Group-137
 70
               0
 10
0.0
 20
0.0
 30
0.0
  3
Group-137
  1

  0
INSERT
  5
3B1
100
AcDbEntity
  8
None
390
0
 62
               7
100
AcDbBlockReference
  2
pad
 10
0.9791902548090974
 20
29.697509210286221
 30
0.0
  0
ENDBLK
  5
3B2
100
AcDbEntity
  8
None
390
0
100
AcDbBlockEnd
  0
BLOCK
  5
3B3
100
AcDbEntity
  8
None
390
0
100
AcDbBlockBegin
  2
Group-138
 70
               0
 10
0.0
 20
0.0
 30
0.0
  3
Group-138
  1

  0
INSERT
  5
3B4
100
AcDbEntity
  8
None
390
0
 62
               7
100
AcDbBlockReference
  2
pad
 10
-6.0208097451909026
 20
30.197509210286221
 30
0.0
  0
ENDBLK
  5
3B5
100
AcDbEntity
  8
None
390
0
100
AcDbBlockEnd
  0
BLOCK
  5
3B6
100
AcDbEntity
  8
None
390
0
100
AcDbBlockBegin
  2
Group-139
 70
               0
 10
0.0
 20
0.0
 30
0.0
  3
Group-139
  1

  0
INSERT
  5
3B7
100
AcDbEntity
  8
None
390
0
 62
               7
100
AcDbBlockReference
  2
pad
 10
-5.5208097451909026
 20
30.197509210286221
 30
0.0
  0
ENDBLK
  5
3B8
100
AcDbEntity
  8
None
390
0
100
AcDbBlockEnd
  0
BLOCK
  5
3B9
100
AcDbEntity
  8
None
390
0
100
AcDbBlockBegin
  2
Group-140
 70
               0
 10
0.0
 20
0.0
 30
0.0
  3
Group-140
  1

  0
INSERT
  5
3BA
100
AcDbEntity
  8
None
390
0
 62
               7
100
AcDbBlockReference
  2
pad
 10
-5.0208097451909026
 20
30.197509210286221
 30
0.0
  0
ENDBLK
  5
3BB
100
AcDbEntity
  8
None
390
0
100
AcDbBlockEnd
  0
BLOCK
  5
3BC
100
AcDbEntity
  8
None
390
0
100
AcDbBlockBegin
  2
Group-141
 70
               0
 10
0.0
 20
0.0
 30
0.0
  3
Group-141
  1

  0
INSERT
  5
3BD
100
AcDbEntity
  8
None
390
0
 62
               7
100
AcDbBlockReference
  2
pad
 10
-4.5208097451909026
 20
30.197509210286221
 30
0.0
  0
ENDBLK
  5
3BE
100
AcDbEntity
  8
None
390
0
100
AcDbBlockEnd
  0
BLOCK
  5
3BF
100
AcDbEntity
  8
None
390
0
100
AcDbBlockBegin
  2
Group-142
 70
               0
 10
0.0
 20
0.0
 30
0.0
  3
Group-142
  1

  0
INSERT
  5
3C0
100
AcDbEntity
  8
None
390
0
 62
               7
100
AcDbBlockReference
  2
pad
 10
-4.0208097451909026
 20
30.197509210286221
 30
0.0
  0
ENDBLK
  5
3C1
100
AcDbEntity
  8
None
390
0
100
AcDbBlockEnd
  0
BLOCK
  5
3C2
100
AcDbEntity
  8
None
390
0
100
AcDbBlockBegin
  2
Group-143
 70
               0
 10
0.0
 20
0.0
 30
0.0
  3
Group-143
  1

  0
INSERT
  5
3C3
100
AcDbEntity
  8
None
390
0
 62
               7
100
AcDbBlockReference
  2
pad
 10
-3.5208097451909026
 20
30.197509210286221
 30
0.0
  0
ENDBLK
  5
3C4
100
AcDbEntity
  8
None
390
0
100
AcDbBlockEnd
  0
BLOCK
  5
3C5
100
AcDbEntity
  8
None
390
0
100
AcDbBlockBegin
  2
Group-144
 70
               0
 10
0.0
 20
0.0
 30
0.0
  3
Group-144
  1

  0
INSERT
  5
3C6
100
AcDbEntity
  8
None
390
0
 62
               7
100
AcDbBlockReference
  2
pad
 10
-3.0208097451909026
 20
30.197509210286221
 30
0.0
  0
ENDBLK
  5
3C7
100
AcDbEntity
  8
None
390
0
100
AcDbBlockEnd
  0
BLOCK
  5
3C8
100
AcDbEntity
  8
None
390
0
100
AcDbBlockBegin
  2
Group-145
 70
               0
 10
0.0
 20
0.0
 30
0.0
  3
Group-145
  1

  0
INSERT
  5
3C9
100
AcDbEntity
  8
None
390
0
 62
               7
100
AcDbBlockReference
  2
pad
 10
-2.5208097451909026
 20
30.197509210286221
 30
0.0
  0
ENDBLK
  5
3CA
100
AcDbEntity
  8
None
390
0
100
AcDbBlockEnd
  0
BLOCK
  5
3CB
100
AcDbEntity
  8
None
390
0
100
AcDbBlockBegin
  2
Group-146
 70
               0
 10
0.0
 20
0.0
 30
0.0
  3
Group-146
  1

  0
INSERT
  5
3CC
100
AcDbEntity
  8
None
390
0
 62
               7
100
AcDbBlockReference
  2
pad
 10
-2.0208097451909026
 20
30.197509210286221
 30
0.0
  0
ENDBLK
  5
3CD
100
AcDbEntity
  8
None
390
0
100
AcDbBlockEnd
  0
BLOCK
  5
3CE
100
AcDbEntity
  8
None
390
0
100
AcDbBlockBegin
  2
Group-147
 70
               0
 10
0.0
 20
0.0
 30
0.0
  3
Group-147
  1

  0
INSERT
  5
3CF
100
AcDbEntity
  8
None
390
0
 62
               7
100
AcDbBlockReference
  2
pad
 10
-1.5208097451909026
 20
30.197509210286221
 30
0.0
  0
ENDBLK
  5
3D0
100
AcDbEntity
  8
None
390
0
100
AcDbBlockEnd
  0
BLOCK
  5
3D1
100
AcDbEntity
  8
None
390
0
100
AcDbBlockBegin
  2
Group-148
 70
               0
 10
0.0
 20
0.0
 30
0.0
  3
Group-148
  1

  0
INSERT
  5
3D2
100
AcDbEntity
  8
None
390
0
 62
               7
100
AcDbBlockReference
  2
pad
 10
-1.0208097451909026
 20
30.197509210286221
 30
0.0
  0
ENDBLK
  5
3D3
100
AcDbEntity
  8
None
390
0
100
AcDbBlockEnd
  0
BLOCK
  5
3D4
100
AcDbEntity
  8
None
390
0
100
AcDbBlockBegin
  2
Group-149
 70
               0
 10
0.0
 20
0.0
 30
0.0
  3
Group-149
  1

  0
INSERT
  5
3D5
100
AcDbEntity
  8
None
390
0
 62
               7
100
AcDbBlockReference
  2
pad
 10
-0.5208097451909026
 20
30.197509210286221
 30
0.0
  0
ENDBLK
  5
3D6
100
AcDbEntity
  8
None
390
0
100
AcDbBlockEnd
  0
BLOCK
  5
3D7
100
AcDbEntity
  8
None
390
0
100
AcDbBlockBegin
  2
Group-150
 70
               0
 10
0.0
 20
0.0
 30
0.0
  3
Group-150
  1

  0
INSERT
  5
3D8
100
AcDbEntity
  8
None
390
0
 62
               7
100
AcDbBlockReference
  2
pad
 10
-0.0208097451909026
 20
30.197509210286221
 30
0.0
  0
ENDBLK
  5
3D9
100
AcDbEntity
  8
None
390
0
100
AcDbBlockEnd
  0
BLOCK
  5
3DA
100
AcDbEntity
  8
None
390
0
100
AcDbBlockBegin
  2
Group-151
 70
               0
 10
0.0
 20
0.0
 30
0.0
  3
Group-151
  1

  0
INSERT
  5
3DB
100
AcDbEntity
  8
None
390
0
 62
               7
100
AcDbBlockReference
  2
pad
 10
0.4791902548090974
 20
30.197509210286221
 30
0.0
  0
ENDBLK
  5
3DC
100
AcDbEntity
  8
None
390
0
100
AcDbBlockEnd
  0
BLOCK
  5
3DD
100
AcDbEntity
  8
None
390
0
100
AcDbBlockBegin
  2
Group-152
 70
               0
 10
0.0
 20
0.0
 30
0.0
  3
Group-152
  1

  0
INSERT
  5
3DE
100
AcDbEntity
  8
None
390
0
 62
               7
100
AcDbBlockReference
  2
pad
 10
0.9791902548090974
 20
30.197509210286221
 30
0.0
  0
ENDBLK
  5
3DF
100
AcDbEntity
  8
None
390
0
100
AcDbBlockEnd
  0
BLOCK
  5
3E0
100
AcDbEntity
  8
None
390
0
100
AcDbBlockBegin
  2
Group-153
 70
               0
 10
0.0
 20
0.0
 30
0.0
  3
Group-153
  1

  0
INSERT
  5
3E1
100
AcDbEntity
  8
None
390
0
 62
               7
100
AcDbBlockReference
  2
pad
 10
-6.0208097451909026
 20
30.697509210286221
 30
0.0
  0
ENDBLK
  5
3E2
100
AcDbEntity
  8
None
390
0
100
AcDbBlockEnd
  0
BLOCK
  5
3E3
100
AcDbEntity
  8
None
390
0
100
AcDbBlockBegin
  2
Group-154
 70
               0
 10
0.0
 20
0.0
 30
0.0
  3
Group-154
  1

  0
INSERT
  5
3E4
100
AcDbEntity
  8
None
390
0
 62
               7
100
AcDbBlockReference
  2
pad
 10
-5.5208097451909026
 20
30.697509210286221
 30
0.0
  0
ENDBLK
  5
3E5
100
AcDbEntity
  8
None
390
0
100
AcDbBlockEnd
  0
BLOCK
  5
3E6
100
AcDbEntity
  8
None
390
0
100
AcDbBlockBegin
  2
Group-155
 70
               0
 10
0.0
 20
0.0
 30
0.0
  3
Group-155
  1

  0
INSERT
  5
3E7
100
AcDbEntity
  8
None
390
0
 62
               7
100
AcDbBlockReference
  2
pad
 10
-5.0208097451909026
 20
30.697509210286221
 30
0.0
  0
ENDBLK
  5
3E8
100
AcDbEntity
  8
None
390
0
100
AcDbBlockEnd
  0
BLOCK
  5
3E9
100
AcDbEntity
  8
None
390
0
100
AcDbBlockBegin
  2
Group-156
 70
               0
 10
0.0
 20
0.0
 30
0.0
  3
Group-156
  1

  0
INSERT
  5
3EA
100
AcDbEntity
  8
None
390
0
 62
               7
100
AcDbBlockReference
  2
pad
 10
-4.5208097451909026
 20
30.697509210286221
 30
0.0
  0
ENDBLK
  5
3EB
100
AcDbEntity
  8
None
390
0
100
AcDbBlockEnd
  0
BLOCK
  5
3EC
100
AcDbEntity
  8
None
390
0
100
AcDbBlockBegin
  2
Group-157
 70
               0
 10
0.0
 20
0.0
 30
0.0
  3
Group-157
  1

  0
INSERT
  5
3ED
100
AcDbEntity
  8
None
390
0
 62
               7
100
AcDbBlockReference
  2
pad
 10
-4.0208097451909026
 20
30.697509210286221
 30
0.0
  0
ENDBLK
  5
3EE
100
AcDbEntity
  8
None
390
0
100
AcDbBlockEnd
  0
BLOCK
  5
3EF
100
AcDbEntity
  8
None
390
0
100
AcDbBlockBegin
  2
Group-158
 70
               0
 10
0.0
 20
0.0
 30
0.0
  3
Group-158
  1

  0
INSERT
  5
3F0
100
AcDbEntity
  8
None
390
0
 62
               7
100
AcDbBlockReference
  2
pad
 10
-3.5208097451909026
 20
30.697509210286221
 30
0.0
  0
ENDBLK
  5
3F1
100
AcDbEntity
  8
None
390
0
100
AcDbBlockEnd
  0
BLOCK
  5
3F2
100
AcDbEntity
  8
None
390
0
100
AcDbBlockBegin
  2
Group-159
 70
               0
 10
0.0
 20
0.0
 30
0.0
  3
Group-159
  1

  0
INSERT
  5
3F3
100
AcDbEntity
  8
None
390
0
 62
               7
100
AcDbBlockReference
  2
pad
 10
-3.0208097451909026
 20
30.697509210286221
 30
0.0
  0
ENDBLK
  5
3F4
100
AcDbEntity
  8
None
390
0
100
AcDbBlockEnd
  0
BLOCK
  5
3F5
100
AcDbEntity
  8
None
390
0
100
AcDbBlockBegin
  2
Group-160
 70
               0
 10
0.0
 20
0.0
 30
0.0
  3
Group-160
  1

  0
INSERT
  5
3F6
100
AcDbEntity
  8
None
390
0
 62
               7
100
AcDbBlockReference
  2
pad
 10
-2.5208097451909026
 20
30.697509210286221
 30
0.0
  0
ENDBLK
  5
3F7
100
AcDbEntity
  8
None
390
0
100
AcDbBlockEnd
  0
BLOCK
  5
3F8
100
AcDbEntity
  8
None
390
0
100
AcDbBlockBegin
  2
Group-161
 70
               0
 10
0.0
 20
0.0
 30
0.0
  3
Group-161
  1

  0
INSERT
  5
3F9
100
AcDbEntity
  8
None
390
0
 62
               7
100
AcDbBlockReference
  2
pad
 10
-2.0208097451909026
 20
30.697509210286221
 30
0.0
  0
ENDBLK
  5
3FA
100
AcDbEntity
  8
None
390
0
100
AcDbBlockEnd
  0
BLOCK
  5
3FB
100
AcDbEntity
  8
None
390
0
100
AcDbBlockBegin
  2
Group-162
 70
               0
 10
0.0
 20
0.0
 30
0.0
  3
Group-162
  1

  0
INSERT
  5
3FC
100
AcDbEntity
  8
None
390
0
 62
               7
100
AcDbBlockReference
  2
pad
 10
-1.5208097451909026
 20
30.697509210286221
 30
0.0
  0
ENDBLK
  5
3FD
100
AcDbEntity
  8
None
390
0
100
AcDbBlockEnd
  0
BLOCK
  5
3FE
100
AcDbEntity
  8
None
390
0
100
AcDbBlockBegin
  2
Group-163
 70
               0
 10
0.0
 20
0.0
 30
0.0
  3
Group-163
  1

  0
INSERT
  5
3FF
100
AcDbEntity
  8
None
390
0
 62
               7
100
AcDbBlockReference
  2
pad
 10
-1.0208097451909026
 20
30.697509210286221
 30
0.0
  0
ENDBLK
  5
400
100
AcDbEntity
  8
None
390
0
100
AcDbBlockEnd
  0
BLOCK
  5
401
100
AcDbEntity
  8
None
390
0
100
AcDbBlockBegin
  2
Group-164
 70
               0
 10
0.0
 20
0.0
 30
0.0
  3
Group-164
  1

  0
INSERT
  5
402
100
AcDbEntity
  8
None
390
0
 62
               7
100
AcDbBlockReference
  2
pad
 10
-0.5208097451909026
 20
30.697509210286221
 30
0.0
  0
ENDBLK
  5
403
100
AcDbEntity
  8
None
390
0
100
AcDbBlockEnd
  0
BLOCK
  5
404
100
AcDbEntity
  8
None
390
0
100
AcDbBlockBegin
  2
Group-165
 70
               0
 10
0.0
 20
0.0
 30
0.0
  3
Group-165
  1

  0
INSERT
  5
405
100
AcDbEntity
  8
None
390
0
 62
               7
100
AcDbBlockReference
  2
pad
 10
-0.0208097451909026
 20
30.697509210286221
 30
0.0
  0
ENDBLK
  5
406
100
AcDbEntity
  8
None
390
0
100
AcDbBlockEnd
  0
BLOCK
  5
407
100
AcDbEntity
  8
None
390
0
100
AcDbBlockBegin
  2
Group-166
 70
               0
 10
0.0
 20
0.0
 30
0.0
  3
Group-166
  1

  0
INSERT
  5
408
100
AcDbEntity
  8
None
390
0
 62
               7
100
AcDbBlockReference
  2
pad
 10
0.4791902548090974
 20
30.697509210286221
 30
0.0
  0
ENDBLK
  5
409
100
AcDbEntity
  8
None
390
0
100
AcDbBlockEnd
  0
BLOCK
  5
40A
100
AcDbEntity
  8
None
390
0
100
AcDbBlockBegin
  2
Group-167
 70
               0
 10
0.0
 20
0.0
 30
0.0
  3
Group-167
  1

  0
INSERT
  5
40B
100
AcDbEntity
  8
None
390
0
 62
               7
100
AcDbBlockReference
  2
pad
 10
0.9791902548090974
 20
30.697509210286221
 30
0.0
  0
ENDBLK
  5
40C
100
AcDbEntity
  8
None
390
0
100
AcDbBlockEnd
  0
BLOCK
  5
40D
100
AcDbEntity
  8
None
390
0
100
AcDbBlockBegin
  2
Group-168
 70
               0
 10
0.0
 20
0.0
 30
0.0
  3
Group-168
  1

  0
INSERT
  5
40E
100
AcDbEntity
  8
None
390
0
 62
               7
100
AcDbBlockReference
  2
pad
 10
-6.0208097451909026
 20
31.197509210286221
 30
0.0
  0
ENDBLK
  5
40F
100
AcDbEntity
  8
None
390
0
100
AcDbBlockEnd
  0
BLOCK
  5
410
100
AcDbEntity
  8
None
390
0
100
AcDbBlockBegin
  2
Group-169
 70
               0
 10
0.0
 20
0.0
 30
0.0
  3
Group-169
  1

  0
INSERT
  5
411
100
AcDbEntity
  8
None
390
0
 62
               7
100
AcDbBlockReference
  2
pad
 10
-5.5208097451909026
 20
31.197509210286221
 30
0.0
  0
ENDBLK
  5
412
100
AcDbEntity
  8
None
390
0
100
AcDbBlockEnd
  0
BLOCK
  5
413
100
AcDbEntity
  8
None
390
0
100
AcDbBlockBegin
  2
Group-170
 70
               0
 10
0.0
 20
0.0
 30
0.0
  3
Group-170
  1

  0
INSERT
  5
414
100
AcDbEntity
  8
None
390
0
 62
               7
100
AcDbBlockReference
  2
pad
 10
-5.0208097451909026
 20
31.197509210286221
 30
0.0
  0
ENDBLK
  5
415
100
AcDbEntity
  8
None
390
0
100
AcDbBlockEnd
  0
BLOCK
  5
416
100
AcDbEntity
  8
None
390
0
100
AcDbBlockBegin
  2
Group-171
 70
               0
 10
0.0
 20
0.0
 30
0.0
  3
Group-171
  1

  0
INSERT
  5
417
100
AcDbEntity
  8
None
390
0
 62
               7
100
AcDbBlockReference
  2
pad
 10
-4.5208097451909026
 20
31.197509210286221
 30
0.0
  0
ENDBLK
  5
418
100
AcDbEntity
  8
None
390
0
100
AcDbBlockEnd
  0
BLOCK
  5
419
100
AcDbEntity
  8
None
390
0
100
AcDbBlockBegin
  2
Group-172
 70
               0
 10
0.0
 20
0.0
 30
0.0
  3
Group-172
  1

  0
INSERT
  5
41A
100
AcDbEntity
  8
None
390
0
 62
               7
100
AcDbBlockReference
  2
pad
 10
-4.0208097451909026
 20
31.197509210286221
 30
0.0
  0
ENDBLK
  5
41B
100
AcDbEntity
  8
None
390
0
100
AcDbBlockEnd
  0
BLOCK
  5
41C
100
AcDbEntity
  8
None
390
0
100
AcDbBlockBegin
  2
Group-173
 70
               0
 10
0.0
 20
0.0
 30
0.0
  3
Group-173
  1

  0
INSERT
  5
41D
100
AcDbEntity
  8
None
390
0
 62
               7
100
AcDbBlockReference
  2
pad
 10
-3.5208097451909026
 20
31.197509210286221
 30
0.0
  0
ENDBLK
  5
41E
100
AcDbEntity
  8
None
390
0
100
AcDbBlockEnd
  0
BLOCK
  5
41F
100
AcDbEntity
  8
None
390
0
100
AcDbBlockBegin
  2
Group-174
 70
               0
 10
0.0
 20
0.0
 30
0.0
  3
Group-174
  1

  0
INSERT
  5
420
100
AcDbEntity
  8
None
390
0
 62
               7
100
AcDbBlockReference
  2
pad
 10
-3.0208097451909026
 20
31.197509210286221
 30
0.0
  0
ENDBLK
  5
421
100
AcDbEntity
  8
None
390
0
100
AcDbBlockEnd
  0
BLOCK
  5
422
100
AcDbEntity
  8
None
390
0
100
AcDbBlockBegin
  2
Group-175
 70
               0
 10
0.0
 20
0.0
 30
0.0
  3
Group-175
  1

  0
INSERT
  5
423
100
AcDbEntity
  8
None
390
0
 62
               7
100
AcDbBlockReference
  2
pad
 10
-2.5208097451909026
 20
31.197509210286221
 30
0.0
  0
ENDBLK
  5
424
100
AcDbEntity
  8
None
390
0
100
AcDbBlockEnd
  0
BLOCK
  5
425
100
AcDbEntity
  8
None
390
0
100
AcDbBlockBegin
  2
Group-176
 70
               0
 10
0.0
 20
0.0
 30
0.0
  3
Group-176
  1

  0
INSERT
  5
426
100
AcDbEntity
  8
None
390
0
 62
               7
100
AcDbBlockReference
  2
pad
 10
-2.0208097451909026
 20
31.197509210286221
 30
0.0
  0
ENDBLK
  5
427
100
AcDbEntity
  8
None
390
0
100
AcDbBlockEnd
  0
BLOCK
  5
428
100
AcDbEntity
  8
None
390
0
100
AcDbBlockBegin
  2
Group-177
 70
               0
 10
0.0
 20
0.0
 30
0.0
  3
Group-177
  1

  0
INSERT
  5
429
100
AcDbEntity
  8
None
390
0
 62
               7
100
AcDbBlockReference
  2
pad
 10
-1.5208097451909026
 20
31.197509210286221
 30
0.0
  0
ENDBLK
  5
42A
100
AcDbEntity
  8
None
390
0
100
AcDbBlockEnd
  0
BLOCK
  5
42B
100
AcDbEntity
  8
None
390
0
100
AcDbBlockBegin
  2
Group-178
 70
               0
 10
0.0
 20
0.0
 30
0.0
  3
Group-178
  1

  0
INSERT
  5
42C
100
AcDbEntity
  8
None
390
0
 62
               7
100
AcDbBlockReference
  2
pad
 10
-1.0208097451909026
 20
31.197509210286221
 30
0.0
  0
ENDBLK
  5
42D
100
AcDbEntity
  8
None
390
0
100
AcDbBlockEnd
  0
BLOCK
  5
42E
100
AcDbEntity
  8
None
390
0
100
AcDbBlockBegin
  2
Group-179
 70
               0
 10
0.0
 20
0.0
 30
0.0
  3
Group-179
  1

  0
INSERT
  5
42F
100
AcDbEntity
  8
None
390
0
 62
               7
100
AcDbBlockReference
  2
pad
 10
-0.5208097451909026
 20
31.197509210286221
 30
0.0
  0
ENDBLK
  5
430
100
AcDbEntity
  8
None
390
0
100
AcDbBlockEnd
  0
BLOCK
  5
431
100
AcDbEntity
  8
None
390
0
100
AcDbBlockBegin
  2
Group-180
 70
               0
 10
0.0
 20
0.0
 30
0.0
  3
Group-180
  1

  0
INSERT
  5
432
100
AcDbEntity
  8
None
390
0
 62
               7
100
AcDbBlockReference
  2
pad
 10
-0.0208097451909026
 20
31.197509210286221
 30
0.0
  0
ENDBLK
  5
433
100
AcDbEntity
  8
None
390
0
100
AcDbBlockEnd
  0
BLOCK
  5
434
100
AcDbEntity
  8
None
390
0
100
AcDbBlockBegin
  2
Group-181
 70
               0
 10
0.0
 20
0.0
 30
0.0
  3
Group-181
  1

  0
INSERT
  5
435
100
AcDbEntity
  8
None
390
0
 62
               7
100
AcDbBlockReference
  2
pad
 10
0.4791902548090974
 20
31.197509210286221
 30
0.0
  0
ENDBLK
  5
436
100
AcDbEntity
  8
None
390
0
100
AcDbBlockEnd
  0
BLOCK
  5
437
100
AcDbEntity
  8
None
390
0
100
AcDbBlockBegin
  2
Group-182
 70
               0
 10
0.0
 20
0.0
 30
0.0
  3
Group-182
  1

  0
INSERT
  5
438
100
AcDbEntity
  8
None
390
0
 62
               7
100
AcDbBlockReference
  2
pad
 10
0.9791902548090974
 20
31.197509210286221
 30
0.0
  0
ENDBLK
  5
439
100
AcDbEntity
  8
None
390
0
100
AcDbBlockEnd
  0
BLOCK
  5
43A
100
AcDbEntity
  8
None
390
0
100
AcDbBlockBegin
  2
Group-183
 70
               0
 10
0.0
 20
0.0
 30
0.0
  3
Group-183
  1

  0
INSERT
  5
43B
100
AcDbEntity
  8
None
390
0
 62
               7
100
AcDbBlockReference
  2
pad
 10
-6.0208097451909026
 20
31.697509210286221
 30
0.0
  0
ENDBLK
  5
43C
100
AcDbEntity
  8
None
390
0
100
AcDbBlockEnd
  0
BLOCK
  5
43D
100
AcDbEntity
  8
None
390
0
100
AcDbBlockBegin
  2
Group-184
 70
               0
 10
0.0
 20
0.0
 30
0.0
  3
Group-184
  1

  0
INSERT
  5
43E
100
AcDbEntity
  8
None
390
0
 62
               7
100
AcDbBlockReference
  2
pad
 10
-5.5208097451909026
 20
31.697509210286221
 30
0.0
  0
ENDBLK
  5
43F
100
AcDbEntity
  8
None
390
0
100
AcDbBlockEnd
  0
BLOCK
  5
440
100
AcDbEntity
  8
None
390
0
100
AcDbBlockBegin
  2
Group-185
 70
               0
 10
0.0
 20
0.0
 30
0.0
  3
Group-185
  1

  0
INSERT
  5
441
100
AcDbEntity
  8
None
390
0
 62
               7
100
AcDbBlockReference
  2
pad
 10
-5.0208097451909026
 20
31.697509210286221
 30
0.0
  0
ENDBLK
  5
442
100
AcDbEntity
  8
None
390
0
100
AcDbBlockEnd
  0
BLOCK
  5
443
100
AcDbEntity
  8
None
390
0
100
AcDbBlockBegin
  2
Group-186
 70
               0
 10
0.0
 20
0.0
 30
0.0
  3
Group-186
  1

  0
INSERT
  5
444
100
AcDbEntity
  8
None
390
0
 62
               7
100
AcDbBlockReference
  2
pad
 10
-4.5208097451909026
 20
31.697509210286221
 30
0.0
  0
ENDBLK
  5
445
100
AcDbEntity
  8
None
390
0
100
AcDbBlockEnd
  0
BLOCK
  5
446
100
AcDbEntity
  8
None
390
0
100
AcDbBlockBegin
  2
Group-187
 70
               0
 10
0.0
 20
0.0
 30
0.0
  3
Group-187
  1

  0
INSERT
  5
447
100
AcDbEntity
  8
None
390
0
 62
               7
100
AcDbBlockReference
  2
pad
 10
-4.0208097451909026
 20
31.697509210286221
 30
0.0
  0
ENDBLK
  5
448
100
AcDbEntity
  8
None
390
0
100
AcDbBlockEnd
  0
BLOCK
  5
449
100
AcDbEntity
  8
None
390
0
100
AcDbBlockBegin
  2
Group-188
 70
               0
 10
0.0
 20
0.0
 30
0.0
  3
Group-188
  1

  0
INSERT
  5
44A
100
AcDbEntity
  8
None
390
0
 62
               7
100
AcDbBlockReference
  2
pad
 10
-3.5208097451909026
 20
31.697509210286221
 30
0.0
  0
ENDBLK
  5
44B
100
AcDbEntity
  8
None
390
0
100
AcDbBlockEnd
  0
BLOCK
  5
44C
100
AcDbEntity
  8
None
390
0
100
AcDbBlockBegin
  2
Group-189
 70
               0
 10
0.0
 20
0.0
 30
0.0
  3
Group-189
  1

  0
INSERT
  5
44D
100
AcDbEntity
  8
None
390
0
 62
               7
100
AcDbBlockReference
  2
pad
 10
-3.0208097451909026
 20
31.697509210286221
 30
0.0
  0
ENDBLK
  5
44E
100
AcDbEntity
  8
None
390
0
100
AcDbBlockEnd
  0
BLOCK
  5
44F
100
AcDbEntity
  8
None
390
0
100
AcDbBlockBegin
  2
Group-190
 70
               0
 10
0.0
 20
0.0
 30
0.0
  3
Group-190
  1

  0
INSERT
  5
450
100
AcDbEntity
  8
None
390
0
 62
               7
100
AcDbBlockReference
  2
pad
 10
-2.5208097451909026
 20
31.697509210286221
 30
0.0
  0
ENDBLK
  5
451
100
AcDbEntity
  8
None
390
0
100
AcDbBlockEnd
  0
BLOCK
  5
452
100
AcDbEntity
  8
None
390
0
100
AcDbBlockBegin
  2
Group-191
 70
               0
 10
0.0
 20
0.0
 30
0.0
  3
Group-191
  1

  0
INSERT
  5
453
100
AcDbEntity
  8
None
390
0
 62
               7
100
AcDbBlockReference
  2
pad
 10
-2.0208097451909026
 20
31.697509210286221
 30
0.0
  0
ENDBLK
  5
454
100
AcDbEntity
  8
None
390
0
100
AcDbBlockEnd
  0
BLOCK
  5
455
100
AcDbEntity
  8
None
390
0
100
AcDbBlockBegin
  2
Group-192
 70
               0
 10
0.0
 20
0.0
 30
0.0
  3
Group-192
  1

  0
INSERT
  5
456
100
AcDbEntity
  8
None
390
0
 62
               7
100
AcDbBlockReference
  2
pad
 10
-1.5208097451909026
 20
31.697509210286221
 30
0.0
  0
ENDBLK
  5
457
100
AcDbEntity
  8
None
390
0
100
AcDbBlockEnd
  0
BLOCK
  5
458
100
AcDbEntity
  8
None
390
0
100
AcDbBlockBegin
  2
Group-193
 70
               0
 10
0.0
 20
0.0
 30
0.0
  3
Group-193
  1

  0
INSERT
  5
459
100
AcDbEntity
  8
None
390
0
 62
               7
100
AcDbBlockReference
  2
pad
 10
-1.0208097451909026
 20
31.697509210286221
 30
0.0
  0
ENDBLK
  5
45A
100
AcDbEntity
  8
None
390
0
100
AcDbBlockEnd
  0
BLOCK
  5
45B
100
AcDbEntity
  8
None
390
0
100
AcDbBlockBegin
  2
Group-194
 70
               0
 10
0.0
 20
0.0
 30
0.0
  3
Group-194
  1

  0
INSERT
  5
45C
100
AcDbEntity
  8
None
390
0
 62
               7
100
AcDbBlockReference
  2
pad
 10
-0.5208097451909026
 20
31.697509210286221
 30
0.0
  0
ENDBLK
  5
45D
100
AcDbEntity
  8
None
390
0
100
AcDbBlockEnd
  0
BLOCK
  5
45E
100
AcDbEntity
  8
None
390
0
100
AcDbBlockBegin
  2
Group-195
 70
               0
 10
0.0
 20
0.0
 30
0.0
  3
Group-195
  1

  0
INSERT
  5
45F
100
AcDbEntity
  8
None
390
0
 62
               7
100
AcDbBlockReference
  2
pad
 10
-0.0208097451909026
 20
31.697509210286221
 30
0.0
  0
ENDBLK
  5
460
100
AcDbEntity
  8
None
390
0
100
AcDbBlockEnd
  0
BLOCK
  5
461
100
AcDbEntity
  8
None
390
0
100
AcDbBlockBegin
  2
Group-196
 70
               0
 10
0.0
 20
0.0
 30
0.0
  3
Group-196
  1

  0
INSERT
  5
462
100
AcDbEntity
  8
None
390
0
 62
               7
100
AcDbBlockReference
  2
pad
 10
0.4791902548090974
 20
31.697509210286221
 30
0.0
  0
ENDBLK
  5
463
100
AcDbEntity
  8
None
390
0
100
AcDbBlockEnd
  0
BLOCK
  5
464
100
AcDbEntity
  8
None
390
0
100
AcDbBlockBegin
  2
Group-197
 70
               0
 10
0.0
 20
0.0
 30
0.0
  3
Group-197
  1

  0
INSERT
  5
465
100
AcDbEntity
  8
None
390
0
 62
               7
100
AcDbBlockReference
  2
pad
 10
0.9791902548090974
 20
31.697509210286221
 30
0.0
  0
ENDBLK
  5
466
100
AcDbEntity
  8
None
390
0
100
AcDbBlockEnd
  0
BLOCK
  5
467
100
AcDbEntity
  8
None
390
0
100
AcDbBlockBegin
  2
Group-198
 70
               0
 10
0.0
 20
0.0
 30
0.0
  3
Group-198
  1

  0
INSERT
  5
468
100
AcDbEntity
  8
None
390
0
 62
               7
100
AcDbBlockReference
  2
pad
 10
-6.0208097451909026
 20
32.197509210286221
 30
0.0
  0
ENDBLK
  5
469
100
AcDbEntity
  8
None
390
0
100
AcDbBlockEnd
  0
BLOCK
  5
46A
100
AcDbEntity
  8
None
390
0
100
AcDbBlockBegin
  2
Group-199
 70
               0
 10
0.0
 20
0.0
 30
0.0
  3
Group-199
  1

  0
INSERT
  5
46B
100
AcDbEntity
  8
None
390
0
 62
               7
100
AcDbBlockReference
  2
pad
 10
-5.5208097451909026
 20
32.197509210286221
 30
0.0
  0
ENDBLK
  5
46C
100
AcDbEntity
  8
None
390
0
100
AcDbBlockEnd
  0
BLOCK
  5
46D
100
AcDbEntity
  8
None
390
0
100
AcDbBlockBegin
  2
Group-200
 70
               0
 10
0.0
 20
0.0
 30
0.0
  3
Group-200
  1

  0
INSERT
  5
46E
100
AcDbEntity
  8
None
390
0
 62
               7
100
AcDbBlockReference
  2
pad
 10
-5.0208097451909026
 20
32.197509210286221
 30
0.0
  0
ENDBLK
  5
46F
100
AcDbEntity
  8
None
390
0
100
AcDbBlockEnd
  0
BLOCK
  5
470
100
AcDbEntity
  8
None
390
0
100
AcDbBlockBegin
  2
Group-201
 70
               0
 10
0.0
 20
0.0
 30
0.0
  3
Group-201
  1

  0
INSERT
  5
471
100
AcDbEntity
  8
None
390
0
 62
               7
100
AcDbBlockReference
  2
pad
 10
-4.5208097451909026
 20
32.197509210286221
 30
0.0
  0
ENDBLK
  5
472
100
AcDbEntity
  8
None
390
0
100
AcDbBlockEnd
  0
BLOCK
  5
473
100
AcDbEntity
  8
None
390
0
100
AcDbBlockBegin
  2
Group-202
 70
               0
 10
0.0
 20
0.0
 30
0.0
  3
Group-202
  1

  0
INSERT
  5
474
100
AcDbEntity
  8
None
390
0
 62
               7
100
AcDbBlockReference
  2
pad
 10
-4.0208097451909026
 20
32.197509210286221
 30
0.0
  0
ENDBLK
  5
475
100
AcDbEntity
  8
None
390
0
100
AcDbBlockEnd
  0
BLOCK
  5
476
100
AcDbEntity
  8
None
390
0
100
AcDbBlockBegin
  2
Group-203
 70
               0
 10
0.0
 20
0.0
 30
0.0
  3
Group-203
  1

  0
INSERT
  5
477
100
AcDbEntity
  8
None
390
0
 62
               7
100
AcDbBlockReference
  2
pad
 10
-3.5208097451909026
 20
32.197509210286221
 30
0.0
  0
ENDBLK
  5
478
100
AcDbEntity
  8
None
390
0
100
AcDbBlockEnd
  0
BLOCK
  5
479
100
AcDbEntity
  8
None
390
0
100
AcDbBlockBegin
  2
Group-204
 70
               0
 10
0.0
 20
0.0
 30
0.0
  3
Group-204
  1

  0
INSERT
  5
47A
100
AcDbEntity
  8
None
390
0
 62
               7
100
AcDbBlockReference
  2
pad
 10
-3.0208097451909026
 20
32.197509210286221
 30
0.0
  0
ENDBLK
  5
47B
100
AcDbEntity
  8
None
390
0
100
AcDbBlockEnd
  0
BLOCK
  5
47C
100
AcDbEntity
  8
None
390
0
100
AcDbBlockBegin
  2
Group-205
 70
               0
 10
0.0
 20
0.0
 30
0.0
  3
Group-205
  1

  0
INSERT
  5
47D
100
AcDbEntity
  8
None
390
0
 62
               7
100
AcDbBlockReference
  2
pad
 10
-2.5208097451909026
 20
32.197509210286221
 30
0.0
  0
ENDBLK
  5
47E
100
AcDbEntity
  8
None
390
0
100
AcDbBlockEnd
  0
BLOCK
  5
47F
100
AcDbEntity
  8
None
390
0
100
AcDbBlockBegin
  2
Group-206
 70
               0
 10
0.0
 20
0.0
 30
0.0
  3
Group-206
  1

  0
INSERT
  5
480
100
AcDbEntity
  8
None
390
0
 62
               7
100
AcDbBlockReference
  2
pad
 10
-2.0208097451909026
 20
32.197509210286221
 30
0.0
  0
ENDBLK
  5
481
100
AcDbEntity
  8
None
390
0
100
AcDbBlockEnd
  0
BLOCK
  5
482
100
AcDbEntity
  8
None
390
0
100
AcDbBlockBegin
  2
Group-207
 70
               0
 10
0.0
 20
0.0
 30
0.0
  3
Group-207
  1

  0
INSERT
  5
483
100
AcDbEntity
  8
None
390
0
 62
               7
100
AcDbBlockReference
  2
pad
 10
-1.5208097451909026
 20
32.197509210286221
 30
0.0
  0
ENDBLK
  5
484
100
AcDbEntity
  8
None
390
0
100
AcDbBlockEnd
  0
BLOCK
  5
485
100
AcDbEntity
  8
None
390
0
100
AcDbBlockBegin
  2
Group-208
 70
               0
 10
0.0
 20
0.0
 30
0.0
  3
Group-208
  1

  0
INSERT
  5
486
100
AcDbEntity
  8
None
390
0
 62
               7
100
AcDbBlockReference
  2
pad
 10
-1.0208097451909026
 20
32.197509210286221
 30
0.0
  0
ENDBLK
  5
487
100
AcDbEntity
  8
None
390
0
100
AcDbBlockEnd
  0
BLOCK
  5
488
100
AcDbEntity
  8
None
390
0
100
AcDbBlockBegin
  2
Group-209
 70
               0
 10
0.0
 20
0.0
 30
0.0
  3
Group-209
  1

  0
INSERT
  5
489
100
AcDbEntity
  8
None
390
0
 62
               7
100
AcDbBlockReference
  2
pad
 10
-0.5208097451909026
 20
32.197509210286221
 30
0.0
  0
ENDBLK
  5
48A
100
AcDbEntity
  8
None
390
0
100
AcDbBlockEnd
  0
BLOCK
  5
48B
100
AcDbEntity
  8
None
390
0
100
AcDbBlockBegin
  2
Group-210
 70
               0
 10
0.0
 20
0.0
 30
0.0
  3
Group-210
  1

  0
INSERT
  5
48C
100
AcDbEntity
  8
None
390
0
 62
               7
100
AcDbBlockReference
  2
pad
 10
-0.0208097451909026
 20
32.197509210286221
 30
0.0
  0
ENDBLK
  5
48D
100
AcDbEntity
  8
None
390
0
100
AcDbBlockEnd
  0
BLOCK
  5
48E
100
AcDbEntity
  8
None
390
0
100
AcDbBlockBegin
  2
Group-211
 70
               0
 10
0.0
 20
0.0
 30
0.0
  3
Group-211
  1

  0
INSERT
  5
48F
100
AcDbEntity
  8
None
390
0
 62
               7
100
AcDbBlockReference
  2
pad
 10
0.4791902548090974
 20
32.197509210286221
 30
0.0
  0
ENDBLK
  5
490
100
AcDbEntity
  8
None
390
0
100
AcDbBlockEnd
  0
BLOCK
  5
491
100
AcDbEntity
  8
None
390
0
100
AcDbBlockBegin
  2
Group-212
 70
               0
 10
0.0
 20
0.0
 30
0.0
  3
Group-212
  1

  0
INSERT
  5
492
100
AcDbEntity
  8
None
390
0
 62
               7
100
AcDbBlockReference
  2
pad
 10
0.9791902548090974
 20
32.197509210286221
 30
0.0
  0
ENDBLK
  5
493
100
AcDbEntity
  8
None
390
0
100
AcDbBlockEnd
  0
BLOCK
  5
494
100
AcDbEntity
  8
None
390
0
100
AcDbBlockBegin
  2
Group-213
 70
               0
 10
0.0
 20
0.0
 30
0.0
  3
Group-213
  1

  0
INSERT
  5
495
100
AcDbEntity
  8
None
390
0
 62
               7
100
AcDbBlockReference
  2
pad
 10
-6.0208097451909026
 20
32.697509210286221
 30
0.0
  0
ENDBLK
  5
496
100
AcDbEntity
  8
None
390
0
100
AcDbBlockEnd
  0
BLOCK
  5
497
100
AcDbEntity
  8
None
390
0
100
AcDbBlockBegin
  2
Group-214
 70
               0
 10
0.0
 20
0.0
 30
0.0
  3
Group-214
  1

  0
INSERT
  5
498
100
AcDbEntity
  8
None
390
0
 62
               7
100
AcDbBlockReference
  2
pad
 10
-5.5208097451909026
 20
32.697509210286221
 30
0.0
  0
ENDBLK
  5
499
100
AcDbEntity
  8
None
390
0
100
AcDbBlockEnd
  0
BLOCK
  5
49A
100
AcDbEntity
  8
None
390
0
100
AcDbBlockBegin
  2
Group-215
 70
               0
 10
0.0
 20
0.0
 30
0.0
  3
Group-215
  1

  0
INSERT
  5
49B
100
AcDbEntity
  8
None
390
0
 62
               7
100
AcDbBlockReference
  2
pad
 10
-5.0208097451909026
 20
32.697509210286221
 30
0.0
  0
ENDBLK
  5
49C
100
AcDbEntity
  8
None
390
0
100
AcDbBlockEnd
  0
BLOCK
  5
49D
100
AcDbEntity
  8
None
390
0
100
AcDbBlockBegin
  2
Group-216
 70
               0
 10
0.0
 20
0.0
 30
0.0
  3
Group-216
  1

  0
INSERT
  5
49E
100
AcDbEntity
  8
None
390
0
 62
               7
100
AcDbBlockReference
  2
pad
 10
-4.5208097451909026
 20
32.697509210286221
 30
0.0
  0
ENDBLK
  5
49F
100
AcDbEntity
  8
None
390
0
100
AcDbBlockEnd
  0
BLOCK
  5
4A0
100
AcDbEntity
  8
None
390
0
100
AcDbBlockBegin
  2
Group-217
 70
               0
 10
0.0
 20
0.0
 30
0.0
  3
Group-217
  1

  0
INSERT
  5
4A1
100
AcDbEntity
  8
None
390
0
 62
               7
100
AcDbBlockReference
  2
pad
 10
-4.0208097451909026
 20
32.697509210286221
 30
0.0
  0
ENDBLK
  5
4A2
100
AcDbEntity
  8
None
390
0
100
AcDbBlockEnd
  0
BLOCK
  5
4A3
100
AcDbEntity
  8
None
390
0
100
AcDbBlockBegin
  2
Group-218
 70
               0
 10
0.0
 20
0.0
 30
0.0
  3
Group-218
  1

  0
INSERT
  5
4A4
100
AcDbEntity
  8
None
390
0
 62
               7
100
AcDbBlockReference
  2
pad
 10
-3.5208097451909026
 20
32.697509210286221
 30
0.0
  0
ENDBLK
  5
4A5
100
AcDbEntity
  8
None
390
0
100
AcDbBlockEnd
  0
BLOCK
  5
4A6
100
AcDbEntity
  8
None
390
0
100
AcDbBlockBegin
  2
Group-219
 70
               0
 10
0.0
 20
0.0
 30
0.0
  3
Group-219
  1

  0
INSERT
  5
4A7
100
AcDbEntity
  8
None
390
0
 62
               7
100
AcDbBlockReference
  2
pad
 10
-3.0208097451909026
 20
32.697509210286221
 30
0.0
  0
ENDBLK
  5
4A8
100
AcDbEntity
  8
None
390
0
100
AcDbBlockEnd
  0
BLOCK
  5
4A9
100
AcDbEntity
  8
None
390
0
100
AcDbBlockBegin
  2
Group-220
 70
               0
 10
0.0
 20
0.0
 30
0.0
  3
Group-220
  1

  0
INSERT
  5
4AA
100
AcDbEntity
  8
None
390
0
 62
               7
100
AcDbBlockReference
  2
pad
 10
-2.5208097451909026
 20
32.697509210286221
 30
0.0
  0
ENDBLK
  5
4AB
100
AcDbEntity
  8
None
390
0
100
AcDbBlockEnd
  0
BLOCK
  5
4AC
100
AcDbEntity
  8
None
390
0
100
AcDbBlockBegin
  2
Group-221
 70
               0
 10
0.0
 20
0.0
 30
0.0
  3
Group-221
  1

  0
INSERT
  5
4AD
100
AcDbEntity
  8
None
390
0
 62
               7
100
AcDbBlockReference
  2
pad
 10
-2.0208097451909026
 20
32.697509210286221
 30
0.0
  0
ENDBLK
  5
4AE
100
AcDbEntity
  8
None
390
0
100
AcDbBlockEnd
  0
BLOCK
  5
4AF
100
AcDbEntity
  8
None
390
0
100
AcDbBlockBegin
  2
Group-222
 70
               0
 10
0.0
 20
0.0
 30
0.0
  3
Group-222
  1

  0
INSERT
  5
4B0
100
AcDbEntity
  8
None
390
0
 62
               7
100
AcDbBlockReference
  2
pad
 10
-1.5208097451909026
 20
32.697509210286221
 30
0.0
  0
ENDBLK
  5
4B1
100
AcDbEntity
  8
None
390
0
100
AcDbBlockEnd
  0
BLOCK
  5
4B2
100
AcDbEntity
  8
None
390
0
100
AcDbBlockBegin
  2
Group-223
 70
               0
 10
0.0
 20
0.0
 30
0.0
  3
Group-223
  1

  0
INSERT
  5
4B3
100
AcDbEntity
  8
None
390
0
 62
               7
100
AcDbBlockReference
  2
pad
 10
-1.0208097451909026
 20
32.697509210286221
 30
0.0
  0
ENDBLK
  5
4B4
100
AcDbEntity
  8
None
390
0
100
AcDbBlockEnd
  0
BLOCK
  5
4B5
100
AcDbEntity
  8
None
390
0
100
AcDbBlockBegin
  2
Group-224
 70
               0
 10
0.0
 20
0.0
 30
0.0
  3
Group-224
  1

  0
INSERT
  5
4B6
100
AcDbEntity
  8
None
390
0
 62
               7
100
AcDbBlockReference
  2
pad
 10
-0.5208097451909026
 20
32.697509210286221
 30
0.0
  0
ENDBLK
  5
4B7
100
AcDbEntity
  8
None
390
0
100
AcDbBlockEnd
  0
BLOCK
  5
4B8
100
AcDbEntity
  8
None
390
0
100
AcDbBlockBegin
  2
Group-225
 70
               0
 10
0.0
 20
0.0
 30
0.0
  3
Group-225
  1

  0
INSERT
  5
4B9
100
AcDbEntity
  8
None
390
0
 62
               7
100
AcDbBlockReference
  2
pad
 10
-0.0208097451909026
 20
32.697509210286221
 30
0.0
  0
ENDBLK
  5
4BA
100
AcDbEntity
  8
None
390
0
100
AcDbBlockEnd
  0
BLOCK
  5
4BB
100
AcDbEntity
  8
None
390
0
100
AcDbBlockBegin
  2
Group-226
 70
               0
 10
0.0
 20
0.0
 30
0.0
  3
Group-226
  1

  0
INSERT
  5
4BC
100
AcDbEntity
  8
None
390
0
 62
               7
100
AcDbBlockReference
  2
pad
 10
0.4791902548090974
 20
32.697509210286221
 30
0.0
  0
ENDBLK
  5
4BD
100
AcDbEntity
  8
None
390
0
100
AcDbBlockEnd
  0
BLOCK
  5
4BE
100
AcDbEntity
  8
None
390
0
100
AcDbBlockBegin
  2
Group-227
 70
               0
 10
0.0
 20
0.0
 30
0.0
  3
Group-227
  1

  0
INSERT
  5
4BF
100
AcDbEntity
  8
None
390
0
 62
               7
100
AcDbBlockReference
  2
pad
 10
0.9791902548090974
 20
32.697509210286221
 30
0.0
  0
ENDBLK
  5
4C0
100
AcDbEntity
  8
None
390
0
100
AcDbBlockEnd
  0
BLOCK
  5
4C1
100
AcDbEntity
  8
AM_VIS
390
0
100
AcDbBlockBegin
  2
Group-228
 70
               0
 10
0.0
 20
0.0
 30
0.0
  3
Group-228
  1

  0
INSERT
  5
4C2
100
AcDbEntity
  8
None
390
0
 62
               7
100
AcDbBlockReference
  2
Group-3
 10
0.0
 20
0.0
 30
0.0
  0
INSERT
  5
4C3
100
AcDbEntity
  8
None
390
0
 62
               7
100
AcDbBlockReference
  2
Group-4
 10
0.0
 20
0.0
 30
0.0
  0
INSERT
  5
4C4
100
AcDbEntity
  8
None
390
0
 62
               7
100
AcDbBlockReference
  2
Group-5
 10
0.0
 20
0.0
 30
0.0
  0
INSERT
  5
4C5
100
AcDbEntity
  8
None
390
0
 62
               7
100
AcDbBlockReference
  2
Group-6
 10
0.0
 20
0.0
 30
0.0
  0
INSERT
  5
4C6
100
AcDbEntity
  8
None
390
0
 62
               7
100
AcDbBlockReference
  2
Group-7
 10
0.0
 20
0.0
 30
0.0
  0
INSERT
  5
4C7
100
AcDbEntity
  8
None
390
0
 62
               7
100
AcDbBlockReference
  2
Group-8
 10
0.0
 20
0.0
 30
0.0
  0
INSERT
  5
4C8
100
AcDbEntity
  8
None
390
0
 62
               7
100
AcDbBlockReference
  2
Group-9
 10
0.0
 20
0.0
 30
0.0
  0
INSERT
  5
4C9
100
AcDbEntity
  8
None
390
0
 62
               7
100
AcDbBlockReference
  2
Group-10
 10
0.0
 20
0.0
 30
0.0
  0
INSERT
  5
4CA
100
AcDbEntity
  8
None
390
0
 62
               7
100
AcDbBlockReference
  2
Group-11
 10
0.0
 20
0.0
 30
0.0
  0
INSERT
  5
4CB
100
AcDbEntity
  8
None
390
0
 62
               7
100
AcDbBlockReference
  2
Group-12
 10
0.0
 20
0.0
 30
0.0
  0
INSERT
  5
4CC
100
AcDbEntity
  8
None
390
0
 62
               7
100
AcDbBlockReference
  2
Group-13
 10
0.0
 20
0.0
 30
0.0
  0
INSERT
  5
4CD
100
AcDbEntity
  8
None
390
0
 62
               7
100
AcDbBlockReference
  2
Group-14
 10
0.0
 20
0.0
 30
0.0
  0
INSERT
  5
4CE
100
AcDbEntity
  8
None
390
0
 62
               7
100
AcDbBlockReference
  2
Group-15
 10
0.0
 20
0.0
 30
0.0
  0
INSERT
  5
4CF
100
AcDbEntity
  8
None
390
0
 62
               7
100
AcDbBlockReference
  2
Group-16
 10
0.0
 20
0.0
 30
0.0
  0
INSERT
  5
4D0
100
AcDbEntity
  8
None
390
0
 62
               7
100
AcDbBlockReference
  2
Group-17
 10
0.0
 20
0.0
 30
0.0
  0
INSERT
  5
4D1
100
AcDbEntity
  8
None
390
0
 62
               7
100
AcDbBlockReference
  2
Group-18
 10
0.0
 20
0.0
 30
0.0
  0
INSERT
  5
4D2
100
AcDbEntity
  8
None
390
0
 62
               7
100
AcDbBlockReference
  2
Group-19
 10
0.0
 20
0.0
 30
0.0
  0
INSERT
  5
4D3
100
AcDbEntity
  8
None
390
0
 62
               7
100
AcDbBlockReference
  2
Group-20
 10
0.0
 20
0.0
 30
0.0
  0
INSERT
  5
4D4
100
AcDbEntity
  8
None
390
0
 62
               7
100
AcDbBlockReference
  2
Group-21
 10
0.0
 20
0.0
 30
0.0
  0
INSERT
  5
4D5
100
AcDbEntity
  8
None
390
0
 62
               7
100
AcDbBlockReference
  2
Group-22
 10
0.0
 20
0.0
 30
0.0
  0
INSERT
  5
4D6
100
AcDbEntity
  8
None
390
0
 62
               7
100
AcDbBlockReference
  2
Group-23
 10
0.0
 20
0.0
 30
0.0
  0
INSERT
  5
4D7
100
AcDbEntity
  8
None
390
0
 62
               7
100
AcDbBlockReference
  2
Group-24
 10
0.0
 20
0.0
 30
0.0
  0
INSERT
  5
4D8
100
AcDbEntity
  8
None
390
0
 62
               7
100
AcDbBlockReference
  2
Group-25
 10
0.0
 20
0.0
 30
0.0
  0
INSERT
  5
4D9
100
AcDbEntity
  8
None
390
0
 62
               7
100
AcDbBlockReference
  2
Group-26
 10
0.0
 20
0.0
 30
0.0
  0
INSERT
  5
4DA
100
AcDbEntity
  8
None
390
0
 62
               7
100
AcDbBlockReference
  2
Group-27
 10
0.0
 20
0.0
 30
0.0
  0
INSERT
  5
4DB
100
AcDbEntity
  8
None
390
0
 62
               7
100
AcDbBlockReference
  2
Group-28
 10
0.0
 20
0.0
 30
0.0
  0
INSERT
  5
4DC
100
AcDbEntity
  8
None
390
0
 62
               7
100
AcDbBlockReference
  2
Group-29
 10
0.0
 20
0.0
 30
0.0
  0
INSERT
  5
4DD
100
AcDbEntity
  8
None
390
0
 62
               7
100
AcDbBlockReference
  2
Group-30
 10
0.0
 20
0.0
 30
0.0
  0
INSERT
  5
4DE
100
AcDbEntity
  8
None
390
0
 62
               7
100
AcDbBlockReference
  2
Group-31
 10
0.0
 20
0.0
 30
0.0
  0
INSERT
  5
4DF
100
AcDbEntity
  8
None
390
0
 62
               7
100
AcDbBlockReference
  2
Group-32
 10
0.0
 20
0.0
 30
0.0
  0
INSERT
  5
4E0
100
AcDbEntity
  8
None
390
0
 62
               7
100
AcDbBlockReference
  2
Group-33
 10
0.0
 20
0.0
 30
0.0
  0
INSERT
  5
4E1
100
AcDbEntity
  8
None
390
0
 62
               7
100
AcDbBlockReference
  2
Group-34
 10
0.0
 20
0.0
 30
0.0
  0
INSERT
  5
4E2
100
AcDbEntity
  8
None
390
0
 62
               7
100
AcDbBlockReference
  2
Group-35
 10
0.0
 20
0.0
 30
0.0
  0
INSERT
  5
4E3
100
AcDbEntity
  8
None
390
0
 62
               7
100
AcDbBlockReference
  2
Group-36
 10
0.0
 20
0.0
 30
0.0
  0
INSERT
  5
4E4
100
AcDbEntity
  8
None
390
0
 62
               7
100
AcDbBlockReference
  2
Group-37
 10
0.0
 20
0.0
 30
0.0
  0
INSERT
  5
4E5
100
AcDbEntity
  8
None
390
0
 62
               7
100
AcDbBlockReference
  2
Group-38
 10
0.0
 20
0.0
 30
0.0
  0
INSERT
  5
4E6
100
AcDbEntity
  8
None
390
0
 62
               7
100
AcDbBlockReference
  2
Group-39
 10
0.0
 20
0.0
 30
0.0
  0
INSERT
  5
4E7
100
AcDbEntity
  8
None
390
0
 62
               7
100
AcDbBlockReference
  2
Group-40
 10
0.0
 20
0.0
 30
0.0
  0
INSERT
  5
4E8
100
AcDbEntity
  8
None
390
0
 62
               7
100
AcDbBlockReference
  2
Group-41
 10
0.0
 20
0.0
 30
0.0
  0
INSERT
  5
4E9
100
AcDbEntity
  8
None
390
0
 62
               7
100
AcDbBlockReference
  2
Group-42
 10
0.0
 20
0.0
 30
0.0
  0
INSERT
  5
4EA
100
AcDbEntity
  8
None
390
0
 62
               7
100
AcDbBlockReference
  2
Group-43
 10
0.0
 20
0.0
 30
0.0
  0
INSERT
  5
4EB
100
AcDbEntity
  8
None
390
0
 62
               7
100
AcDbBlockReference
  2
Group-44
 10
0.0
 20
0.0
 30
0.0
  0
INSERT
  5
4EC
100
AcDbEntity
  8
None
390
0
 62
               7
100
AcDbBlockReference
  2
Group-45
 10
0.0
 20
0.0
 30
0.0
  0
INSERT
  5
4ED
100
AcDbEntity
  8
None
390
0
 62
               7
100
AcDbBlockReference
  2
Group-46
 10
0.0
 20
0.0
 30
0.0
  0
INSERT
  5
4EE
100
AcDbEntity
  8
None
390
0
 62
               7
100
AcDbBlockReference
  2
Group-47
 10
0.0
 20
0.0
 30
0.0
  0
INSERT
  5
4EF
100
AcDbEntity
  8
None
390
0
 62
               7
100
AcDbBlockReference
  2
Group-48
 10
0.0
 20
0.0
 30
0.0
  0
INSERT
  5
4F0
100
AcDbEntity
  8
None
390
0
 62
               7
100
AcDbBlockReference
  2
Group-49
 10
0.0
 20
0.0
 30
0.0
  0
INSERT
  5
4F1
100
AcDbEntity
  8
None
390
0
 62
               7
100
AcDbBlockReference
  2
Group-50
 10
0.0
 20
0.0
 30
0.0
  0
INSERT
  5
4F2
100
AcDbEntity
  8
None
390
0
 62
               7
100
AcDbBlockReference
  2
Group-51
 10
0.0
 20
0.0
 30
0.0
  0
INSERT
  5
4F3
100
AcDbEntity
  8
None
390
0
 62
               7
100
AcDbBlockReference
  2
Group-52
 10
0.0
 20
0.0
 30
0.0
  0
INSERT
  5
4F4
100
AcDbEntity
  8
None
390
0
 62
               7
100
AcDbBlockReference
  2
Group-53
 10
0.0
 20
0.0
 30
0.0
  0
INSERT
  5
4F5
100
AcDbEntity
  8
None
390
0
 62
               7
100
AcDbBlockReference
  2
Group-54
 10
0.0
 20
0.0
 30
0.0
  0
INSERT
  5
4F6
100
AcDbEntity
  8
None
390
0
 62
               7
100
AcDbBlockReference
  2
Group-55
 10
0.0
 20
0.0
 30
0.0
  0
INSERT
  5
4F7
100
AcDbEntity
  8
None
390
0
 62
               7
100
AcDbBlockReference
  2
Group-56
 10
0.0
 20
0.0
 30
0.0
  0
INSERT
  5
4F8
100
AcDbEntity
  8
None
390
0
 62
               7
100
AcDbBlockReference
  2
Group-57
 10
0.0
 20
0.0
 30
0.0
  0
INSERT
  5
4F9
100
AcDbEntity
  8
None
390
0
 62
               7
100
AcDbBlockReference
  2
Group-58
 10
0.0
 20
0.0
 30
0.0
  0
INSERT
  5
4FA
100
AcDbEntity
  8
None
390
0
 62
               7
100
AcDbBlockReference
  2
Group-59
 10
0.0
 20
0.0
 30
0.0
  0
INSERT
  5
4FB
100
AcDbEntity
  8
None
390
0
 62
               7
100
AcDbBlockReference
  2
Group-60
 10
0.0
 20
0.0
 30
0.0
  0
INSERT
  5
4FC
100
AcDbEntity
  8
None
390
0
 62
               7
100
AcDbBlockReference
  2
Group-61
 10
0.0
 20
0.0
 30
0.0
  0
INSERT
  5
4FD
100
AcDbEntity
  8
None
390
0
 62
               7
100
AcDbBlockReference
  2
Group-62
 10
0.0
 20
0.0
 30
0.0
  0
INSERT
  5
4FE
100
AcDbEntity
  8
None
390
0
 62
               7
100
AcDbBlockReference
  2
Group-63
 10
0.0
 20
0.0
 30
0.0
  0
INSERT
  5
4FF
100
AcDbEntity
  8
None
390
0
 62
               7
100
AcDbBlockReference
  2
Group-64
 10
0.0
 20
0.0
 30
0.0
  0
INSERT
  5
500
100
AcDbEntity
  8
None
390
0
 62
               7
100
AcDbBlockReference
  2
Group-65
 10
0.0
 20
0.0
 30
0.0
  0
INSERT
  5
501
100
AcDbEntity
  8
None
390
0
 62
               7
100
AcDbBlockReference
  2
Group-66
 10
0.0
 20
0.0
 30
0.0
  0
INSERT
  5
502
100
AcDbEntity
  8
None
390
0
 62
               7
100
AcDbBlockReference
  2
Group-67
 10
0.0
 20
0.0
 30
0.0
  0
INSERT
  5
503
100
AcDbEntity
  8
None
390
0
 62
               7
100
AcDbBlockReference
  2
Group-68
 10
0.0
 20
0.0
 30
0.0
  0
INSERT
  5
504
100
AcDbEntity
  8
None
390
0
 62
               7
100
AcDbBlockReference
  2
Group-69
 10
0.0
 20
0.0
 30
0.0
  0
INSERT
  5
505
100
AcDbEntity
  8
None
390
0
 62
               7
100
AcDbBlockReference
  2
Group-70
 10
0.0
 20
0.0
 30
0.0
  0
INSERT
  5
506
100
AcDbEntity
  8
None
390
0
 62
               7
100
AcDbBlockReference
  2
Group-71
 10
0.0
 20
0.0
 30
0.0
  0
INSERT
  5
507
100
AcDbEntity
  8
None
390
0
 62
               7
100
AcDbBlockReference
  2
Group-72
 10
0.0
 20
0.0
 30
0.0
  0
INSERT
  5
508
100
AcDbEntity
  8
None
390
0
 62
               7
100
AcDbBlockReference
  2
Group-73
 10
0.0
 20
0.0
 30
0.0
  0
INSERT
  5
509
100
AcDbEntity
  8
None
390
0
 62
               7
100
AcDbBlockReference
  2
Group-74
 10
0.0
 20
0.0
 30
0.0
  0
INSERT
  5
50A
100
AcDbEntity
  8
None
390
0
 62
               7
100
AcDbBlockReference
  2
Group-75
 10
0.0
 20
0.0
 30
0.0
  0
INSERT
  5
50B
100
AcDbEntity
  8
None
390
0
 62
               7
100
AcDbBlockReference
  2
Group-76
 10
0.0
 20
0.0
 30
0.0
  0
INSERT
  5
50C
100
AcDbEntity
  8
None
390
0
 62
               7
100
AcDbBlockReference
  2
Group-77
 10
0.0
 20
0.0
 30
0.0
  0
INSERT
  5
50D
100
AcDbEntity
  8
None
390
0
 62
               7
100
AcDbBlockReference
  2
Group-78
 10
0.0
 20
0.0
 30
0.0
  0
INSERT
  5
50E
100
AcDbEntity
  8
None
390
0
 62
               7
100
AcDbBlockReference
  2
Group-79
 10
0.0
 20
0.0
 30
0.0
  0
INSERT
  5
50F
100
AcDbEntity
  8
None
390
0
 62
               7
100
AcDbBlockReference
  2
Group-80
 10
0.0
 20
0.0
 30
0.0
  0
INSERT
  5
510
100
AcDbEntity
  8
None
390
0
 62
               7
100
AcDbBlockReference
  2
Group-81
 10
0.0
 20
0.0
 30
0.0
  0
INSERT
  5
511
100
AcDbEntity
  8
None
390
0
 62
               7
100
AcDbBlockReference
  2
Group-82
 10
0.0
 20
0.0
 30
0.0
  0
INSERT
  5
512
100
AcDbEntity
  8
None
390
0
 62
               7
100
AcDbBlockReference
  2
Group-83
 10
0.0
 20
0.0
 30
0.0
  0
INSERT
  5
513
100
AcDbEntity
  8
None
390
0
 62
               7
100
AcDbBlockReference
  2
Group-84
 10
0.0
 20
0.0
 30
0.0
  0
INSERT
  5
514
100
AcDbEntity
  8
None
390
0
 62
               7
100
AcDbBlockReference
  2
Group-85
 10
0.0
 20
0.0
 30
0.0
  0
INSERT
  5
515
100
AcDbEntity
  8
None
390
0
 62
               7
100
AcDbBlockReference
  2
Group-86
 10
0.0
 20
0.0
 30
0.0
  0
INSERT
  5
516
100
AcDbEntity
  8
None
390
0
 62
               7
100
AcDbBlockReference
  2
Group-87
 10
0.0
 20
0.0
 30
0.0
  0
INSERT
  5
517
100
AcDbEntity
  8
None
390
0
 62
               7
100
AcDbBlockReference
  2
Group-88
 10
0.0
 20
0.0
 30
0.0
  0
INSERT
  5
518
100
AcDbEntity
  8
None
390
0
 62
               7
100
AcDbBlockReference
  2
Group-89
 10
0.0
 20
0.0
 30
0.0
  0
INSERT
  5
519
100
AcDbEntity
  8
None
390
0
 62
               7
100
AcDbBlockReference
  2
Group-90
 10
0.0
 20
0.0
 30
0.0
  0
INSERT
  5
51A
100
AcDbEntity
  8
None
390
0
 62
               7
100
AcDbBlockReference
  2
Group-91
 10
0.0
 20
0.0
 30
0.0
  0
INSERT
  5
51B
100
AcDbEntity
  8
None
390
0
 62
               7
100
AcDbBlockReference
  2
Group-92
 10
0.0
 20
0.0
 30
0.0
  0
INSERT
  5
51C
100
AcDbEntity
  8
None
390
0
 62
               7
100
AcDbBlockReference
  2
Group-93
 10
0.0
 20
0.0
 30
0.0
  0
INSERT
  5
51D
100
AcDbEntity
  8
None
390
0
 62
               7
100
AcDbBlockReference
  2
Group-94
 10
0.0
 20
0.0
 30
0.0
  0
INSERT
  5
51E
100
AcDbEntity
  8
None
390
0
 62
               7
100
AcDbBlockReference
  2
Group-95
 10
0.0
 20
0.0
 30
0.0
  0
INSERT
  5
51F
100
AcDbEntity
  8
None
390
0
 62
               7
100
AcDbBlockReference
  2
Group-96
 10
0.0
 20
0.0
 30
0.0
  0
INSERT
  5
520
100
AcDbEntity
  8
None
390
0
 62
               7
100
AcDbBlockReference
  2
Group-97
 10
0.0
 20
0.0
 30
0.0
  0
INSERT
  5
521
100
AcDbEntity
  8
None
390
0
 62
               7
100
AcDbBlockReference
  2
Group-98
 10
0.0
 20
0.0
 30
0.0
  0
INSERT
  5
522
100
AcDbEntity
  8
None
390
0
 62
               7
100
AcDbBlockReference
  2
Group-99
 10
0.0
 20
0.0
 30
0.0
  0
INSERT
  5
523
100
AcDbEntity
  8
None
390
0
 62
               7
100
AcDbBlockReference
  2
Group-100
 10
0.0
 20
0.0
 30
0.0
  0
INSERT
  5
524
100
AcDbEntity
  8
None
390
0
 62
               7
100
AcDbBlockReference
  2
Group-101
 10
0.0
 20
0.0
 30
0.0
  0
INSERT
  5
525
100
AcDbEntity
  8
None
390
0
 62
               7
100
AcDbBlockReference
  2
Group-102
 10
0.0
 20
0.0
 30
0.0
  0
INSERT
  5
526
100
AcDbEntity
  8
None
390
0
 62
               7
100
AcDbBlockReference
  2
Group-103
 10
0.0
 20
0.0
 30
0.0
  0
INSERT
  5
527
100
AcDbEntity
  8
None
390
0
 62
               7
100
AcDbBlockReference
  2
Group-104
 10
0.0
 20
0.0
 30
0.0
  0
INSERT
  5
528
100
AcDbEntity
  8
None
390
0
 62
               7
100
AcDbBlockReference
  2
Group-105
 10
0.0
 20
0.0
 30
0.0
  0
INSERT
  5
529
100
AcDbEntity
  8
None
390
0
 62
               7
100
AcDbBlockReference
  2
Group-106
 10
0.0
 20
0.0
 30
0.0
  0
INSERT
  5
52A
100
AcDbEntity
  8
None
390
0
 62
               7
100
AcDbBlockReference
  2
Group-107
 10
0.0
 20
0.0
 30
0.0
  0
INSERT
  5
52B
100
AcDbEntity
  8
None
390
0
 62
               7
100
AcDbBlockReference
  2
Group-108
 10
0.0
 20
0.0
 30
0.0
  0
INSERT
  5
52C
100
AcDbEntity
  8
None
390
0
 62
               7
100
AcDbBlockReference
  2
Group-109
 10
0.0
 20
0.0
 30
0.0
  0
INSERT
  5
52D
100
AcDbEntity
  8
None
390
0
 62
               7
100
AcDbBlockReference
  2
Group-110
 10
0.0
 20
0.0
 30
0.0
  0
INSERT
  5
52E
100
AcDbEntity
  8
None
390
0
 62
               7
100
AcDbBlockReference
  2
Group-111
 10
0.0
 20
0.0
 30
0.0
  0
INSERT
  5
52F
100
AcDbEntity
  8
None
390
0
 62
               7
100
AcDbBlockReference
  2
Group-112
 10
0.0
 20
0.0
 30
0.0
  0
INSERT
  5
530
100
AcDbEntity
  8
None
390
0
 62
               7
100
AcDbBlockReference
  2
Group-113
 10
0.0
 20
0.0
 30
0.0
  0
INSERT
  5
531
100
AcDbEntity
  8
None
390
0
 62
               7
100
AcDbBlockReference
  2
Group-114
 10
0.0
 20
0.0
 30
0.0
  0
INSERT
  5
532
100
AcDbEntity
  8
None
390
0
 62
               7
100
AcDbBlockReference
  2
Group-115
 10
0.0
 20
0.0
 30
0.0
  0
INSERT
  5
533
100
AcDbEntity
  8
None
390
0
 62
               7
100
AcDbBlockReference
  2
Group-116
 10
0.0
 20
0.0
 30
0.0
  0
INSERT
  5
534
100
AcDbEntity
  8
None
390
0
 62
               7
100
AcDbBlockReference
  2
Group-117
 10
0.0
 20
0.0
 30
0.0
  0
INSERT
  5
535
100
AcDbEntity
  8
None
390
0
 62
               7
100
AcDbBlockReference
  2
Group-118
 10
0.0
 20
0.0
 30
0.0
  0
INSERT
  5
536
100
AcDbEntity
  8
None
390
0
 62
               7
100
AcDbBlockReference
  2
Group-119
 10
0.0
 20
0.0
 30
0.0
  0
INSERT
  5
537
100
AcDbEntity
  8
None
390
0
 62
               7
100
AcDbBlockReference
  2
Group-120
 10
0.0
 20
0.0
 30
0.0
  0
INSERT
  5
538
100
AcDbEntity
  8
None
390
0
 62
               7
100
AcDbBlockReference
  2
Group-121
 10
0.0
 20
0.0
 30
0.0
  0
INSERT
  5
539
100
AcDbEntity
  8
None
390
0
 62
               7
100
AcDbBlockReference
  2
Group-122
 10
0.0
 20
0.0
 30
0.0
  0
INSERT
  5
53A
100
AcDbEntity
  8
None
390
0
 62
               7
100
AcDbBlockReference
  2
Group-123
 10
0.0
 20
0.0
 30
0.0
  0
INSERT
  5
53B
100
AcDbEntity
  8
None
390
0
 62
               7
100
AcDbBlockReference
  2
Group-124
 10
0.0
 20
0.0
 30
0.0
  0
INSERT
  5
53C
100
AcDbEntity
  8
None
390
0
 62
               7
100
AcDbBlockReference
  2
Group-125
 10
0.0
 20
0.0
 30
0.0
  0
INSERT
  5
53D
100
AcDbEntity
  8
None
390
0
 62
               7
100
AcDbBlockReference
  2
Group-126
 10
0.0
 20
0.0
 30
0.0
  0
INSERT
  5
53E
100
AcDbEntity
  8
None
390
0
 62
               7
100
AcDbBlockReference
  2
Group-127
 10
0.0
 20
0.0
 30
0.0
  0
INSERT
  5
53F
100
AcDbEntity
  8
None
390
0
 62
               7
100
AcDbBlockReference
  2
Group-128
 10
0.0
 20
0.0
 30
0.0
  0
INSERT
  5
540
100
AcDbEntity
  8
None
390
0
 62
               7
100
AcDbBlockReference
  2
Group-129
 10
0.0
 20
0.0
 30
0.0
  0
INSERT
  5
541
100
AcDbEntity
  8
None
390
0
 62
               7
100
AcDbBlockReference
  2
Group-130
 10
0.0
 20
0.0
 30
0.0
  0
INSERT
  5
542
100
AcDbEntity
  8
None
390
0
 62
               7
100
AcDbBlockReference
  2
Group-131
 10
0.0
 20
0.0
 30
0.0
  0
INSERT
  5
543
100
AcDbEntity
  8
None
390
0
 62
               7
100
AcDbBlockReference
  2
Group-132
 10
0.0
 20
0.0
 30
0.0
  0
INSERT
  5
544
100
AcDbEntity
  8
None
390
0
 62
               7
100
AcDbBlockReference
  2
Group-133
 10
0.0
 20
0.0
 30
0.0
  0
INSERT
  5
545
100
AcDbEntity
  8
None
390
0
 62
               7
100
AcDbBlockReference
  2
Group-134
 10
0.0
 20
0.0
 30
0.0
  0
INSERT
  5
546
100
AcDbEntity
  8
None
390
0
 62
               7
100
AcDbBlockReference
  2
Group-135
 10
0.0
 20
0.0
 30
0.0
  0
INSERT
  5
547
100
AcDbEntity
  8
None
390
0
 62
               7
100
AcDbBlockReference
  2
Group-136
 10
0.0
 20
0.0
 30
0.0
  0
INSERT
  5
548
100
AcDbEntity
  8
None
390
0
 62
               7
100
AcDbBlockReference
  2
Group-137
 10
0.0
 20
0.0
 30
0.0
  0
INSERT
  5
549
100
AcDbEntity
  8
None
390
0
 62
               7
100
AcDbBlockReference
  2
Group-138
 10
0.0
 20
0.0
 30
0.0
  0
INSERT
  5
54A
100
AcDbEntity
  8
None
390
0
 62
               7
100
AcDbBlockReference
  2
Group-139
 10
0.0
 20
0.0
 30
0.0
  0
INSERT
  5
54B
100
AcDbEntity
  8
None
390
0
 62
               7
100
AcDbBlockReference
  2
Group-140
 10
0.0
 20
0.0
 30
0.0
  0
INSERT
  5
54C
100
AcDbEntity
  8
None
390
0
 62
               7
100
AcDbBlockReference
  2
Group-141
 10
0.0
 20
0.0
 30
0.0
  0
INSERT
  5
54D
100
AcDbEntity
  8
None
390
0
 62
               7
100
AcDbBlockReference
  2
Group-142
 10
0.0
 20
0.0
 30
0.0
  0
INSERT
  5
54E
100
AcDbEntity
  8
None
390
0
 62
               7
100
AcDbBlockReference
  2
Group-143
 10
0.0
 20
0.0
 30
0.0
  0
INSERT
  5
54F
100
AcDbEntity
  8
None
390
0
 62
               7
100
AcDbBlockReference
  2
Group-144
 10
0.0
 20
0.0
 30
0.0
  0
INSERT
  5
550
100
AcDbEntity
  8
None
390
0
 62
               7
100
AcDbBlockReference
  2
Group-145
 10
0.0
 20
0.0
 30
0.0
  0
INSERT
  5
551
100
AcDbEntity
  8
None
390
0
 62
               7
100
AcDbBlockReference
  2
Group-146
 10
0.0
 20
0.0
 30
0.0
  0
INSERT
  5
552
100
AcDbEntity
  8
None
390
0
 62
               7
100
AcDbBlockReference
  2
Group-147
 10
0.0
 20
0.0
 30
0.0
  0
INSERT
  5
553
100
AcDbEntity
  8
None
390
0
 62
               7
100
AcDbBlockReference
  2
Group-148
 10
0.0
 20
0.0
 30
0.0
  0
INSERT
  5
554
100
AcDbEntity
  8
None
390
0
 62
               7
100
AcDbBlockReference
  2
Group-149
 10
0.0
 20
0.0
 30
0.0
  0
INSERT
  5
555
100
AcDbEntity
  8
None
390
0
 62
               7
100
AcDbBlockReference
  2
Group-150
 10
0.0
 20
0.0
 30
0.0
  0
INSERT
  5
556
100
AcDbEntity
  8
None
390
0
 62
               7
100
AcDbBlockReference
  2
Group-151
 10
0.0
 20
0.0
 30
0.0
  0
INSERT
  5
557
100
AcDbEntity
  8
None
390
0
 62
               7
100
AcDbBlockReference
  2
Group-152
 10
0.0
 20
0.0
 30
0.0
  0
INSERT
  5
558
100
AcDbEntity
  8
None
390
0
 62
               7
100
AcDbBlockReference
  2
Group-153
 10
0.0
 20
0.0
 30
0.0
  0
INSERT
  5
559
100
AcDbEntity
  8
None
390
0
 62
               7
100
AcDbBlockReference
  2
Group-154
 10
0.0
 20
0.0
 30
0.0
  0
INSERT
  5
55A
100
AcDbEntity
  8
None
390
0
 62
               7
100
AcDbBlockReference
  2
Group-155
 10
0.0
 20
0.0
 30
0.0
  0
INSERT
  5
55B
100
AcDbEntity
  8
None
390
0
 62
               7
100
AcDbBlockReference
  2
Group-156
 10
0.0
 20
0.0
 30
0.0
  0
INSERT
  5
55C
100
AcDbEntity
  8
None
390
0
 62
               7
100
AcDbBlockReference
  2
Group-157
 10
0.0
 20
0.0
 30
0.0
  0
INSERT
  5
55D
100
AcDbEntity
  8
None
390
0
 62
               7
100
AcDbBlockReference
  2
Group-158
 10
0.0
 20
0.0
 30
0.0
  0
INSERT
  5
55E
100
AcDbEntity
  8
None
390
0
 62
               7
100
AcDbBlockReference
  2
Group-159
 10
0.0
 20
0.0
 30
0.0
  0
INSERT
  5
55F
100
AcDbEntity
  8
None
390
0
 62
               7
100
AcDbBlockReference
  2
Group-160
 10
0.0
 20
0.0
 30
0.0
  0
INSERT
  5
560
100
AcDbEntity
  8
None
390
0
 62
               7
100
AcDbBlockReference
  2
Group-161
 10
0.0
 20
0.0
 30
0.0
  0
INSERT
  5
561
100
AcDbEntity
  8
None
390
0
 62
               7
100
AcDbBlockReference
  2
Group-162
 10
0.0
 20
0.0
 30
0.0
  0
INSERT
  5
562
100
AcDbEntity
  8
None
390
0
 62
               7
100
AcDbBlockReference
  2
Group-163
 10
0.0
 20
0.0
 30
0.0
  0
INSERT
  5
563
100
AcDbEntity
  8
None
390
0
 62
               7
100
AcDbBlockReference
  2
Group-164
 10
0.0
 20
0.0
 30
0.0
  0
INSERT
  5
564
100
AcDbEntity
  8
None
390
0
 62
               7
100
AcDbBlockReference
  2
Group-165
 10
0.0
 20
0.0
 30
0.0
  0
INSERT
  5
565
100
AcDbEntity
  8
None
390
0
 62
               7
100
AcDbBlockReference
  2
Group-166
 10
0.0
 20
0.0
 30
0.0
  0
INSERT
  5
566
100
AcDbEntity
  8
None
390
0
 62
               7
100
AcDbBlockReference
  2
Group-167
 10
0.0
 20
0.0
 30
0.0
  0
INSERT
  5
567
100
AcDbEntity
  8
None
390
0
 62
               7
100
AcDbBlockReference
  2
Group-168
 10
0.0
 20
0.0
 30
0.0
  0
INSERT
  5
568
100
AcDbEntity
  8
None
390
0
 62
               7
100
AcDbBlockReference
  2
Group-169
 10
0.0
 20
0.0
 30
0.0
  0
INSERT
  5
569
100
AcDbEntity
  8
None
390
0
 62
               7
100
AcDbBlockReference
  2
Group-170
 10
0.0
 20
0.0
 30
0.0
  0
INSERT
  5
56A
100
AcDbEntity
  8
None
390
0
 62
               7
100
AcDbBlockReference
  2
Group-171
 10
0.0
 20
0.0
 30
0.0
  0
INSERT
  5
56B
100
AcDbEntity
  8
None
390
0
 62
               7
100
AcDbBlockReference
  2
Group-172
 10
0.0
 20
0.0
 30
0.0
  0
INSERT
  5
56C
100
AcDbEntity
  8
None
390
0
 62
               7
100
AcDbBlockReference
  2
Group-173
 10
0.0
 20
0.0
 30
0.0
  0
INSERT
  5
56D
100
AcDbEntity
  8
None
390
0
 62
               7
100
AcDbBlockReference
  2
Group-174
 10
0.0
 20
0.0
 30
0.0
  0
INSERT
  5
56E
100
AcDbEntity
  8
None
390
0
 62
               7
100
AcDbBlockReference
  2
Group-175
 10
0.0
 20
0.0
 30
0.0
  0
INSERT
  5
56F
100
AcDbEntity
  8
None
390
0
 62
               7
100
AcDbBlockReference
  2
Group-176
 10
0.0
 20
0.0
 30
0.0
  0
INSERT
  5
570
100
AcDbEntity
  8
None
390
0
 62
               7
100
AcDbBlockReference
  2
Group-177
 10
0.0
 20
0.0
 30
0.0
  0
INSERT
  5
571
100
AcDbEntity
  8
None
390
0
 62
               7
100
AcDbBlockReference
  2
Group-178
 10
0.0
 20
0.0
 30
0.0
  0
INSERT
  5
572
100
AcDbEntity
  8
None
390
0
 62
               7
100
AcDbBlockReference
  2
Group-179
 10
0.0
 20
0.0
 30
0.0
  0
INSERT
  5
573
100
AcDbEntity
  8
None
390
0
 62
               7
100
AcDbBlockReference
  2
Group-180
 10
0.0
 20
0.0
 30
0.0
  0
INSERT
  5
574
100
AcDbEntity
  8
None
390
0
 62
               7
100
AcDbBlockReference
  2
Group-181
 10
0.0
 20
0.0
 30
0.0
  0
INSERT
  5
575
100
AcDbEntity
  8
None
390
0
 62
               7
100
AcDbBlockReference
  2
Group-182
 10
0.0
 20
0.0
 30
0.0
  0
INSERT
  5
576
100
AcDbEntity
  8
None
390
0
 62
               7
100
AcDbBlockReference
  2
Group-183
 10
0.0
 20
0.0
 30
0.0
  0
INSERT
  5
577
100
AcDbEntity
  8
None
390
0
 62
               7
100
AcDbBlockReference
  2
Group-184
 10
0.0
 20
0.0
 30
0.0
  0
INSERT
  5
578
100
AcDbEntity
  8
None
390
0
 62
               7
100
AcDbBlockReference
  2
Group-185
 10
0.0
 20
0.0
 30
0.0
  0
INSERT
  5
579
100
AcDbEntity
  8
None
390
0
 62
               7
100
AcDbBlockReference
  2
Group-186
 10
0.0
 20
0.0
 30
0.0
  0
INSERT
  5
57A
100
AcDbEntity
  8
None
390
0
 62
               7
100
AcDbBlockReference
  2
Group-187
 10
0.0
 20
0.0
 30
0.0
  0
INSERT
  5
57B
100
AcDbEntity
  8
None
390
0
 62
               7
100
AcDbBlockReference
  2
Group-188
 10
0.0
 20
0.0
 30
0.0
  0
INSERT
  5
57C
100
AcDbEntity
  8
None
390
0
 62
               7
100
AcDbBlockReference
  2
Group-189
 10
0.0
 20
0.0
 30
0.0
  0
INSERT
  5
57D
100
AcDbEntity
  8
None
390
0
 62
               7
100
AcDbBlockReference
  2
Group-190
 10
0.0
 20
0.0
 30
0.0
  0
INSERT
  5
57E
100
AcDbEntity
  8
None
390
0
 62
               7
100
AcDbBlockReference
  2
Group-191
 10
0.0
 20
0.0
 30
0.0
  0
INSERT
  5
57F
100
AcDbEntity
  8
None
390
0
 62
               7
100
AcDbBlockReference
  2
Group-192
 10
0.0
 20
0.0
 30
0.0
  0
INSERT
  5
580
100
AcDbEntity
  8
None
390
0
 62
               7
100
AcDbBlockReference
  2
Group-193
 10
0.0
 20
0.0
 30
0.0
  0
INSERT
  5
581
100
AcDbEntity
  8
None
390
0
 62
               7
100
AcDbBlockReference
  2
Group-194
 10
0.0
 20
0.0
 30
0.0
  0
INSERT
  5
582
100
AcDbEntity
  8
None
390
0
 62
               7
100
AcDbBlockReference
  2
Group-195
 10
0.0
 20
0.0
 30
0.0
  0
INSERT
  5
583
100
AcDbEntity
  8
None
390
0
 62
               7
100
AcDbBlockReference
  2
Group-196
 10
0.0
 20
0.0
 30
0.0
  0
INSERT
  5
584
100
AcDbEntity
  8
None
390
0
 62
               7
100
AcDbBlockReference
  2
Group-197
 10
0.0
 20
0.0
 30
0.0
  0
INSERT
  5
585
100
AcDbEntity
  8
None
390
0
 62
               7
100
AcDbBlockReference
  2
Group-198
 10
0.0
 20
0.0
 30
0.0
  0
INSERT
  5
586
100
AcDbEntity
  8
None
390
0
 62
               7
100
AcDbBlockReference
  2
Group-199
 10
0.0
 20
0.0
 30
0.0
  0
INSERT
  5
587
100
AcDbEntity
  8
None
390
0
 62
               7
100
AcDbBlockReference
  2
Group-200
 10
0.0
 20
0.0
 30
0.0
  0
INSERT
  5
588
100
AcDbEntity
  8
None
390
0
 62
               7
100
AcDbBlockReference
  2
Group-201
 10
0.0
 20
0.0
 30
0.0
  0
INSERT
  5
589
100
AcDbEntity
  8
None
390
0
 62
               7
100
AcDbBlockReference
  2
Group-202
 10
0.0
 20
0.0
 30
0.0
  0
INSERT
  5
58A
100
AcDbEntity
  8
None
390
0
 62
               7
100
AcDbBlockReference
  2
Group-203
 10
0.0
 20
0.0
 30
0.0
  0
INSERT
  5
58B
100
AcDbEntity
  8
None
390
0
 62
               7
100
AcDbBlockReference
  2
Group-204
 10
0.0
 20
0.0
 30
0.0
  0
INSERT
  5
58C
100
AcDbEntity
  8
None
390
0
 62
               7
100
AcDbBlockReference
  2
Group-205
 10
0.0
 20
0.0
 30
0.0
  0
INSERT
  5
58D
100
AcDbEntity
  8
None
390
0
 62
               7
100
AcDbBlockReference
  2
Group-206
 10
0.0
 20
0.0
 30
0.0
  0
INSERT
  5
58E
100
AcDbEntity
  8
None
390
0
 62
               7
100
AcDbBlockReference
  2
Group-207
 10
0.0
 20
0.0
 30
0.0
  0
INSERT
  5
58F
100
AcDbEntity
  8
None
390
0
 62
               7
100
AcDbBlockReference
  2
Group-208
 10
0.0
 20
0.0
 30
0.0
  0
INSERT
  5
590
100
AcDbEntity
  8
None
390
0
 62
               7
100
AcDbBlockReference
  2
Group-209
 10
0.0
 20
0.0
 30
0.0
  0
INSERT
  5
591
100
AcDbEntity
  8
None
390
0
 62
               7
100
AcDbBlockReference
  2
Group-210
 10
0.0
 20
0.0
 30
0.0
  0
INSERT
  5
592
100
AcDbEntity
  8
None
390
0
 62
               7
100
AcDbBlockReference
  2
Group-211
 10
0.0
 20
0.0
 30
0.0
  0
INSERT
  5
593
100
AcDbEntity
  8
None
390
0
 62
               7
100
AcDbBlockReference
  2
Group-212
 10
0.0
 20
0.0
 30
0.0
  0
INSERT
  5
594
100
AcDbEntity
  8
None
390
0
 62
               7
100
AcDbBlockReference
  2
Group-213
 10
0.0
 20
0.0
 30
0.0
  0
INSERT
  5
595
100
AcDbEntity
  8
None
390
0
 62
               7
100
AcDbBlockReference
  2
Group-214
 10
0.0
 20
0.0
 30
0.0
  0
INSERT
  5
596
100
AcDbEntity
  8
None
390
0
 62
               7
100
AcDbBlockReference
  2
Group-215
 10
0.0
 20
0.0
 30
0.0
  0
INSERT
  5
597
100
AcDbEntity
  8
None
390
0
 62
               7
100
AcDbBlockReference
  2
Group-216
 10
0.0
 20
0.0
 30
0.0
  0
INSERT
  5
598
100
AcDbEntity
  8
None
390
0
 62
               7
100
AcDbBlockReference
  2
Group-217
 10
0.0
 20
0.0
 30
0.0
  0
INSERT
  5
599
100
AcDbEntity
  8
None
390
0
 62
               7
100
AcDbBlockReference
  2
Group-218
 10
0.0
 20
0.0
 30
0.0
  0
INSERT
  5
59A
100
AcDbEntity
  8
None
390
0
 62
               7
100
AcDbBlockReference
  2
Group-219
 10
0.0
 20
0.0
 30
0.0
  0
INSERT
  5
59B
100
AcDbEntity
  8
None
390
0
 62
               7
100
AcDbBlockReference
  2
Group-220
 10
0.0
 20
0.0
 30
0.0
  0
INSERT
  5
59C
100
AcDbEntity
  8
None
390
0
 62
               7
100
AcDbBlockReference
  2
Group-221
 10
0.0
 20
0.0
 30
0.0
  0
INSERT
  5
59D
100
AcDbEntity
  8
None
390
0
 62
               7
100
AcDbBlockReference
  2
Group-222
 10
0.0
 20
0.0
 30
0.0
  0
INSERT
  5
59E
100
AcDbEntity
  8
None
390
0
 62
               7
100
AcDbBlockReference
  2
Group-223
 10
0.0
 20
0.0
 30
0.0
  0
INSERT
  5
59F
100
AcDbEntity
  8
None
390
0
 62
               7
100
AcDbBlockReference
  2
Group-224
 10
0.0
 20
0.0
 30
0.0
  0
INSERT
  5
5A0
100
AcDbEntity
  8
None
390
0
 62
               7
100
AcDbBlockReference
  2
Group-225
 10
0.0
 20
0.0
 30
0.0
  0
INSERT
  5
5A1
100
AcDbEntity
  8
None
390
0
 62
               7
100
AcDbBlockReference
  2
Group-226
 10
0.0
 20
0.0
 30
0.0
  0
INSERT
  5
5A2
100
AcDbEntity
  8
None
390
0
 62
               7
100
AcDbBlockReference
  2
Group-227
 10
0.0
 20
0.0
 30
0.0
  0
ENDBLK
  5
5A3
100
AcDbEntity
  8
AM_VIS
390
0
100
AcDbBlockEnd
  0
BLOCK
  5
5A4
100
AcDbEntity
  8
None
390
0
100
AcDbBlockBegin
  2
IE i logo
 70
               0
 10
0.0
 20
0.0
 30
0.0
  3
IE i logo
  1

  0
CIRCLE
  5
5A5
102
{ACAD_REACTORS
330
5A6
102
}
100
AcDbEntity
  8
None
370
               5
390
0
  6
Continuous
 62
               7
100
AcDbCircle
 10
0.0
 20
0.0
 30
0.0
 40
2.6708000015163993
  0
HATCH
  5
5A6
100
AcDbEntity
  8
None
370
               0
390
0
  6
Continuous
 62
               7
100
AcDbHatch
 10
0.0
 20
0.0
 30
0.0
210
0.0
220
0.0
230
1.0
  2
SOLID
 70
               1
 71
               1
 91
        1
 92
        1
 93
        1
 72
               2
 10
0.0
 20
0.0
 40
2.6708000015163993
 50
0.0
 51
360.0
 73
               0
 97
        1
330
5A5
 75
               0
 76
               1
 98
        1
 10
0.0
 20
0.0
  0
WIPEOUT
  5
5A7
100
AcDbEntity
  8
None
370
               5
390
0
  6
Continuous
 62
               7
 92
        0
100
AcDbWipeout
 90
        0
 10
-1.01559
 20
0.7356799999999999
 30
0.0
 11
0.6889700000000001
 21
0.0
 31
0.0
 12
0.0
 22
0.6889700000000001
 32
0.0
 13
1.0
 23
1.0
340
0
 70
               7
280
               1
281
              50
282
              50
283
               0
360
0
 71
               2
 91
       97
 14
-0.3841458989506075
 24
0.0667590751411526
 14
-0.3634902916672715
 24
0.0345951202519703
 14
-0.3415614975978636
 24
0.0026924249241619
 14
-0.3183595167423836
 24
-0.0289490108422718
 14
-0.2938843491008316
 24
-0.0603291870473315
 14
-0.2681359946732077
 24
-0.0914481036910172
 14
-0.2411144534595119
 24
-0.1223057607733282
 14
-0.2128197254597441
 24
-0.1529021582942652
 14
-0.1832518106739045
 24
-0.1832372962538282
 14
-0.1529166727143417
 24
-0.2128053244335748
 14
-0.1223202751934046
 24
-0.2411003926150633
 14
-0.0914626181110934
 24
-0.2681225007982933
 14
-0.0603437014674079
 24
-0.293871648983265
 14
-0.0289635252623482
 24
-0.3183478371699785
 14
0.0026779105040858
 24
-0.3415510653584339
 14
0.0345806058318939
 24
-0.3634813335486309
 14
0.0667445607210765
 24
-0.3841386417405692
 14
0.0986291130237893
 24
-0.4031876841517047
 14
0.1296936005921883
 24
-0.4202931549994916
 14
0.1599380234262741
 24
-0.4354550542839309
 14
0.1893623815260462
 24
-0.4486733820050221
 14
0.2179666748915049
 24
-0.4599481381627649
 14
0.2457509035226498
 24
-0.4692793227571591
 14
0.2727150674194813
 24
-0.4766669357882054
 14
0.2988591665819992
 24
-0.4821109772559039
 14
0.3237520773763735
 24
-0.4855364937878283
 14
0.3469626761687736
 24
-0.4868685320115535
 14
0.3684909629591999
 24
-0.4861070919270796
 14
0.3883369377476522
 24
-0.4832521735344065
 14
0.4065006005341306
 24
-0.478303776833534
 14
0.4229819513186351
 24
-0.4712619018244624
 14
0.4377809901011655
 24
-0.4621265485071919
 14
0.450897716881722
 24
-0.450897716881722
 14
0.4621265485071919
 24
-0.4377809901011653
 14
0.4712619018244625
 24
-0.4229819513186348
 14
0.478303776833534
 24
-0.4065006005341303
 14
0.4832521735344064
 24
-0.3883369377476522
 14
0.4861070919270795
 24
-0.3684909629591999
 14
0.4868685320115535
 24
-0.346962676168774
 14
0.485536493787828
 24
-0.3237520773763738
 14
0.4821109772559037
 24
-0.2988591665819994
 14
0.4766669357882054
 24
-0.2727150674194814
 14
0.4692793227571591
 24
-0.2457509035226501
 14
0.4599481381627646
 24
-0.2179666748915049
 14
0.4486733820050219
 24
-0.1893623815260463
 14
0.4354550542839309
 24
-0.1599380234262744
 14
0.4202931549994919
 24
-0.1296936005921886
 14
0.4031876841517047
 24
-0.0986291130237894
 14
0.3841386417405692
 24
-0.0667445607210765
 14
0.3634814469425374
 24
-0.0345806058318942
 14
0.341551518934061
 24
-0.0026779105040858
 14
0.3183488577151399
 24
0.0289635252623479
 14
0.2938734632857745
 24
0.0603437014674076
 14
0.2681253356459643
 24
0.0914626181110932
 14
0.2411044747957094
 24
0.1223202751934044
 14
0.2128108807350102
 24
0.1529166727143415
 14
0.1832445534638663
 24
0.1832518106739043
 14
0.1529110030189994
 24
0.212819838853651
 14
0.1223157394371308
 24
0.2411149070351392
 14
0.0914587627182606
 24
0.2681370152183693
 14
0.0603400728623887
 24
0.2938861634033411
 14
0.0289596698695154
 24
0.3183623515900547
 14
-0.0026824462603596
 24
0.3415655797785099
 14
-0.0345862755272363
 24
0.3634958479687069
 14
-0.0667518179311145
 24
0.3841531561606457
 14
-0.098637957748523
 24
0.4032020851778743
 14
-0.1297035792559907
 24
0.420307215843941
 14
-0.1599486824535175
 24
0.4354685481588458
 14
-0.1893732673411033
 24
0.4486860821225887
 14
-0.2179773339187483
 24
0.4599598177351699
 14
-0.2457608821864522
 24
0.4692897549965891
 14
-0.2727239121442152
 24
0.4766758939068465
 14
-0.2988664237920372
 24
0.4821182344659419
 14
-0.3237576336778087
 24
0.4855420500892637
 14
-0.3469667583494201
 24
0.4868726141922
 14
-0.368493797806871
 24
0.4861099267747507
 14
-0.3883387520501617
 24
0.483253987836916
 14
-0.4065016210792922
 24
0.4783047973786958
 14
-0.4229824048942623
 24
0.4712623554000899
 14
-0.4377811034950722
 24
0.4621266619010988
 14
-0.450897716881722
 24
0.450897716881722
 14
-0.4621265485071919
 24
0.4377811034950722
 14
-0.4712619018244625
 24
0.4229824048942623
 14
-0.478303776833534
 24
0.4065016210792922
 14
-0.4832521735344062
 24
0.3883387520501617
 14
-0.4861070919270796
 24
0.368493797806871
 14
-0.4868685320115535
 24
0.3469667583494201
 14
-0.4855364937878283
 24
0.3237576336778087
 14
-0.4821109772559035
 24
0.2988664237920372
 14
-0.4766670491821122
 24
0.272724025538122
 14
-0.4692797763327865
 24
0.2457613357620797
 14
-0.4599491587079262
 24
0.21797835446391
 14
-0.4486751963075315
 24
0.1893750816436128
 14
-0.4354578891316022
 24
0.1599515173011885
 14
-0.4202972371801385
 24
0.1297076614366372
 14
-0.4031932404531402
 24
0.0986435140499583
 14
-0.3841458989506075
 24
0.0667590751411526
  0
SPLINE
  5
5A8
100
AcDbEntity
  8
None
370
               5
390
0
  6
Continuous
 62
               7
100
AcDbSpline
210
0.0
220
0.0
230
1.0
 70
               9
 71
               2
 72
              17
 73
              14
 74
               0
 42
0.000001
 43
0.000001
 40
0.0
 40
0.0
 40
0.0
 40
1.0
 40
2.0
 40
3.0
 40
4.0
 40
5.0
 40
6.0
 40
7.0
 40
8.0
 40
9.0
 40
10.0
 40
11.0
 40
12.0
 40
12.0
 40
12.0
 10
-0.93577
 20
1.03417
 30
0.0
 10
-0.8805999999999999
 20
1.12317
 30
0.0
 10
-0.71412
 20
1.28965
 30
0.0
 10
-0.5361199999999999
 20
1.3999999999999999
 30
0.0
 10
-0.39428
 20
1.42465
 30
0.0
 10
-0.32662
 20
1.3569899999999999
 30
0.0
 10
-0.35127
 20
1.21515
 30
0.0
 10
-0.46162
 20
1.03715
 30
0.0
 10
-0.6280899999999999
 20
0.8706699999999999
 30
0.0
 10
-0.8060999999999999
 20
0.7603199999999999
 30
0.0
 10
-0.9479299999999999
 20
0.7356799999999999
 30
0.0
 10
-1.01559
 20
0.8033399999999999
 30
0.0
 10
-0.9909399999999999
 20
0.94517
 30
0.0
 10
-0.93577
 20
1.03417
 30
0.0
  0
WIPEOUT
  5
5A9
100
AcDbEntity
  8
None
370
               5
390
0
  6
Continuous
 62
               7
 92
        0
100
AcDbWipeout
 90
        0
 10
-1.7197899999999999
 20
-1.8961799999999998
 30
0.0
 11
1.8520799999999999
 21
0.0
 31
0.0
 12
0.0
 22
1.8520799999999999
 32
0.0
 13
1.0
 23
1.0
340
0
 70
               7
280
               1
281
              50
282
              50
283
               0
360
0
 71
               2
 91
       36
 14
-0.4523832663815818
 24
0.3095222668567234
 14
-0.25
 24
0.1190499330482485
 14
-0.2142887996198868
 24
0.1190499330482485
 14
-0.0714278000950283
 24
0.3690499330482485
 14
0.0
 24
0.4523832663815818
 14
0.0714278000950284
 24
0.5
 14
0.214283400285085
 24
0.5
 14
0.3690499330482485
 24
0.4047611334283617
 14
0.4761889335233899
 24
0.3095222668567234
 14
0.5
 24
0.238094466761695
 14
0.5
 24
0.1071443998099435
 14
0.4880944667616949
 24
0.0714278000950283
 14
0.4642887996198868
 24
0.0714278000950283
 14
0.4285721999049716
 24
0.0829607792319987
 14
0.3214278000950284
 24
0.1666666666666667
 14
0.2747235540581401
 24
0.1785721999049718
 14
0.214283400285085
 24
0.1666666666666667
 14
0.1904777331432768
 24
0.1070958057967258
 14
0.1428556001900566
 24
0.0238110664766101
 14
0.1190445337134465
 24
-0.0833333333333333
 14
0.1071390004751416
 24
-0.2142834002850848
 14
0.0714278000950284
 24
-0.2857165997149149
 14
0.0238110664766101
 24
-0.3452388665716383
 14
-0.02381106647661
 24
-0.3866193684938015
 14
-0.0714278000950283
 24
-0.3866193684938015
 14
-0.1309554662865535
 24
-0.3571443998099434
 14
-0.1785721999049717
 24
-0.29762213295322
 14
-0.261905533238305
 24
-0.1785721999049716
 14
-0.3424204138050191
 24
-0.1071443998099433
 14
-0.4727063625761306
 24
0.0238110664766101
 14
-0.5
 24
0.0714278000950283
 14
-0.5
 24
0.1547611334283617
 14
-0.5
 24
0.238094466761695
 14
-0.5
 24
0.2857165997149152
 14
-0.4880944667616949
 24
0.3214278000950283
 14
-0.4523832663815818
 24
0.3095222668567234
  0
POLYLINE
  5
5AA
100
AcDbEntity
  8
None
370
               5
390
0
  6
Continuous
 62
               7
100
AcDb2dPolyline
 66
               1
 10
0.0
 20
0.0
 30
0.0
 70
               1
 75
               5
  0
VERTEX
  5
5AB
100
AcDbEntity
  8
None
370
               5
390
0
  6
Continuous
 62
               7
100
AcDbVertex
100
AcDb2dVertex
 10
-1.6315999999999999
 20
-1.5433999999999999
 30
0.0
  0
VERTEX
  5
5AC
100
AcDbEntity
  8
None
370
               5
390
0
  6
Continuous
 62
               7
100
AcDbVertex
100
AcDb2dVertex
 10
-1.2567699999999999
 20
-1.1906299999999999
 30
0.0
  0
VERTEX
  5
5AD
100
AcDbEntity
  8
None
370
               5
390
0
  6
Continuous
 62
               7
100
AcDbVertex
100
AcDb2dVertex
 10
-1.1906299999999999
 20
-1.1906299999999999
 30
0.0
  0
VERTEX
  5
5AE
100
AcDbEntity
  8
None
370
               5
390
0
  6
Continuous
 62
               7
100
AcDbVertex
100
AcDb2dVertex
 10
-0.92604
 20
-1.6536499999999998
 30
0.0
  0
VERTEX
  5
5AF
100
AcDbEntity
  8
None
370
               5
390
0
  6
Continuous
 62
               7
100
AcDbVertex
100
AcDb2dVertex
 10
-0.79375
 20
-1.8079899999999998
 30
0.0
  0
VERTEX
  5
5B0
100
AcDbEntity
  8
None
370
               5
390
0
  6
Continuous
 62
               7
100
AcDbVertex
100
AcDb2dVertex
 10
-0.6614599999999999
 20
-1.8961799999999998
 30
0.0
  0
VERTEX
  5
5B1
100
AcDbEntity
  8
None
370
               5
390
0
  6
Continuous
 62
               7
100
AcDbVertex
100
AcDb2dVertex
 10
-0.39688
 20
-1.8961799999999998
 30
0.0
  0
VERTEX
  5
5B2
100
AcDbEntity
  8
None
370
               5
390
0
  6
Continuous
 62
               7
100
AcDbVertex
100
AcDb2dVertex
 10
-0.11024
 20
-1.7197899999999999
 30
0.0
  0
VERTEX
  5
5B3
100
AcDbEntity
  8
None
370
               5
390
0
  6
Continuous
 62
               7
100
AcDbVertex
100
AcDb2dVertex
 10
0.08819
 20
-1.5433999999999999
 30
0.0
  0
VERTEX
  5
5B4
100
AcDbEntity
  8
None
370
               5
390
0
  6
Continuous
 62
               7
100
AcDbVertex
100
AcDb2dVertex
 10
0.13229
 20
-1.4111099999999999
 30
0.0
  0
VERTEX
  5
5B5
100
AcDbEntity
  8
None
370
               5
390
0
  6
Continuous
 62
               7
100
AcDbVertex
100
AcDb2dVertex
 10
0.13229
 20
-1.16858
 30
0.0
  0
VERTEX
  5
5B6
100
AcDbEntity
  8
None
370
               5
390
0
  6
Continuous
 62
               7
100
AcDbVertex
100
AcDb2dVertex
 10
0.11024
 20
-1.1024299999999998
 30
0.0
  0
VERTEX
  5
5B7
100
AcDbEntity
  8
None
370
               5
390
0
  6
Continuous
 62
               7
100
AcDbVertex
100
AcDb2dVertex
 10
0.06615
 20
-1.1024299999999998
 30
0.0
  0
VERTEX
  5
5B8
100
AcDbEntity
  8
None
370
               5
390
0
  6
Continuous
 62
               7
100
AcDbVertex
100
AcDb2dVertex
 10
0.0
 20
-1.1237899999999998
 30
0.0
  0
VERTEX
  5
5B9
100
AcDbEntity
  8
None
370
               5
390
0
  6
Continuous
 62
               7
100
AcDbVertex
100
AcDb2dVertex
 10
-0.19844
 20
-1.2788199999999998
 30
0.0
  0
VERTEX
  5
5BA
100
AcDbEntity
  8
None
370
               5
390
0
  6
Continuous
 62
               7
100
AcDbVertex
100
AcDb2dVertex
 10
-0.28494
 20
-1.30087
 30
0.0
  0
VERTEX
  5
5BB
100
AcDbEntity
  8
None
370
               5
390
0
  6
Continuous
 62
               7
100
AcDbVertex
100
AcDb2dVertex
 10
-0.39688
 20
-1.2788199999999998
 30
0.0
  0
VERTEX
  5
5BC
100
AcDbEntity
  8
None
370
               5
390
0
  6
Continuous
 62
               7
100
AcDbVertex
100
AcDb2dVertex
 10
-0.44097
 20
-1.1684899999999998
 30
0.0
  0
VERTEX
  5
5BD
100
AcDbEntity
  8
None
370
               5
390
0
  6
Continuous
 62
               7
100
AcDbVertex
100
AcDb2dVertex
 10
-0.5291699999999999
 20
-1.0142399999999998
 30
0.0
  0
VERTEX
  5
5BE
100
AcDbEntity
  8
None
370
               5
390
0
  6
Continuous
 62
               7
100
AcDbVertex
100
AcDb2dVertex
 10
-0.57327
 20
-0.8158
 30
0.0
  0
VERTEX
  5
5BF
100
AcDbEntity
  8
None
370
               5
390
0
  6
Continuous
 62
               7
100
AcDbVertex
100
AcDb2dVertex
 10
-0.59532
 20
-0.57327
 30
0.0
  0
VERTEX
  5
5C0
100
AcDbEntity
  8
None
370
               5
390
0
  6
Continuous
 62
               7
100
AcDbVertex
100
AcDb2dVertex
 10
-0.6614599999999999
 20
-0.44097
 30
0.0
  0
VERTEX
  5
5C1
100
AcDbEntity
  8
None
370
               5
390
0
  6
Continuous
 62
               7
100
AcDbVertex
100
AcDb2dVertex
 10
-0.7496499999999999
 20
-0.33073
 30
0.0
  0
VERTEX
  5
5C2
100
AcDbEntity
  8
None
370
               5
390
0
  6
Continuous
 62
               7
100
AcDbVertex
100
AcDb2dVertex
 10
-0.8378499999999999
 20
-0.25409
 30
0.0
  0
VERTEX
  5
5C3
100
AcDbEntity
  8
None
370
               5
390
0
  6
Continuous
 62
               7
100
AcDbVertex
100
AcDb2dVertex
 10
-0.92604
 20
-0.25409
 30
0.0
  0
VERTEX
  5
5C4
100
AcDbEntity
  8
None
370
               5
390
0
  6
Continuous
 62
               7
100
AcDbVertex
100
AcDb2dVertex
 10
-1.0362899999999999
 20
-0.30868
 30
0.0
  0
VERTEX
  5
5C5
100
AcDbEntity
  8
None
370
               5
390
0
  6
Continuous
 62
               7
100
AcDbVertex
100
AcDb2dVertex
 10
-1.1244799999999999
 20
-0.41892
 30
0.0
  0
VERTEX
  5
5C6
100
AcDbEntity
  8
None
370
               5
390
0
  6
Continuous
 62
               7
100
AcDbVertex
100
AcDb2dVertex
 10
-1.2788199999999998
 20
-0.6394099999999999
 30
0.0
  0
VERTEX
  5
5C7
100
AcDbEntity
  8
None
370
               5
390
0
  6
Continuous
 62
               7
100
AcDbVertex
100
AcDb2dVertex
 10
-1.4279399999999998
 20
-0.7716999999999999
 30
0.0
  0
VERTEX
  5
5C8
100
AcDbEntity
  8
None
370
               5
390
0
  6
Continuous
 62
               7
100
AcDbVertex
100
AcDb2dVertex
 10
-1.6692399999999998
 20
-1.0142399999999998
 30
0.0
  0
VERTEX
  5
5C9
100
AcDbEntity
  8
None
370
               5
390
0
  6
Continuous
 62
               7
100
AcDbVertex
100
AcDb2dVertex
 10
-1.7197899999999999
 20
-1.1024299999999998
 30
0.0
  0
VERTEX
  5
5CA
100
AcDbEntity
  8
None
370
               5
390
0
  6
Continuous
 62
               7
100
AcDbVertex
100
AcDb2dVertex
 10
-1.7197899999999999
 20
-1.2567699999999999
 30
0.0
  0
VERTEX
  5
5CB
100
AcDbEntity
  8
None
370
               5
390
0
  6
Continuous
 62
               7
100
AcDbVertex
100
AcDb2dVertex
 10
-1.7197899999999999
 20
-1.4111099999999999
 30
0.0
  0
VERTEX
  5
5CC
100
AcDbEntity
  8
None
370
               5
390
0
  6
Continuous
 62
               7
100
AcDbVertex
100
AcDb2dVertex
 10
-1.7197899999999999
 20
-1.4993099999999999
 30
0.0
  0
VERTEX
  5
5CD
100
AcDbEntity
  8
None
370
               5
390
0
  6
Continuous
 62
               7
100
AcDbVertex
100
AcDb2dVertex
 10
-1.6977399999999998
 20
-1.5654499999999998
 30
0.0
  0
SEQEND
  5
5CE
100
AcDbEntity
  8
None
370
               5
390
0
  6
Continuous
 62
               7
  0
POLYLINE
  5
5CF
100
AcDbEntity
  8
None
370
               5
390
0
  6
Continuous
 62
               7
100
AcDb2dPolyline
 66
               1
 10
0.0
 20
0.0
 30
0.0
 75
               5
  0
VERTEX
  5
5D0
100
AcDbEntity
  8
None
370
               5
390
0
  6
Continuous
 62
               7
100
AcDbVertex
100
AcDb2dVertex
 10
-1.7197899999999999
 20
-1.1410199999999999
 30
0.0
  0
VERTEX
  5
5D1
100
AcDbEntity
  8
None
370
               5
390
0
  6
Continuous
 62
               7
100
AcDbVertex
100
AcDb2dVertex
 10
-1.7197899999999999
 20
-1.4552099999999999
 30
0.0
  0
VERTEX
  5
5D2
100
AcDbEntity
  8
None
370
               5
390
0
  6
Continuous
 62
               7
100
AcDbVertex
100
AcDb2dVertex
 10
-1.7197899999999999
 20
-1.4772599999999998
 30
0.0
  0
VERTEX
  5
5D3
100
AcDbEntity
  8
None
370
               5
390
0
  6
Continuous
 62
               7
100
AcDbVertex
100
AcDb2dVertex
 10
-1.7142799999999998
 20
-1.5158399999999999
 30
0.0
  0
SEQEND
  5
5D4
100
AcDbEntity
  8
None
370
               5
390
0
  6
Continuous
 62
               7
  0
ENDBLK
  5
5D5
100
AcDbEntity
  8
None
390
0
100
AcDbBlockEnd
  0
BLOCK
  5
5D6
100
AcDbEntity
  8
None
390
0
100
AcDbBlockBegin
  2
©2006_address
 70
               0
 10
0.0
 20
0.0
 30
0.0
  3
©2006_address
  1

  0
MTEXT
  5
5D7
100
AcDbEntity
  8
None
390
0
 62
               7
100
AcDbMText
 10
0.0
 20
2.7477645770833359
 30
0.0
 40
0.9298981770833332
 41
36.738279999999996
 71
               2
 72
               1
  1
© 2007 IRONWOOD ELECTRONICS, INC.\P11351 Rupp Drive, Suite 400, Burnsville, MN 55337\PTele: (952) 229-8200\Pwww.ironwoodelectronics.com
  7
Arial
 73
               1
 44
0.9673603504928809
  0
ENDBLK
  5
5D8
100
AcDbEntity
  8
None
390
0
100
AcDbBlockEnd
  0
ENDSEC
  0
SECTION
  2
ENTITIES
  0
DIMENSION
  5
5D9
100
AcDbEntity
  8
Dimension
370
               9
390
0
  6
Continuous
 62
              12
100
AcDbDimension
  2
*D2
 10
-14.494449745190884
 20
68.408529210286204
 30
0.0
 11
-18.725549745190868
 21
68.408529210286204
 31
0.0
 70
             128
 71
               5
 72
               1
 41
1.0
 42
0.0
  3
IE Standard
100
AcDbAlignedDimension
 13
-15.744449745190867
 23
62.914599210286255
 33
0.0
 14
-14.494449745190884
 24
61.664599210286198
 34
0.0
100
AcDbRotatedDimension
1001
ACAD
1000
DSTYLE
1002
{
1070
             340
1005
11B
1070
              71
1070
               1
1070
              47
1040
0.125
1070
              48
1040
0.125
1070
               3
1000
<>mm (x4)
1070
             174
1070
               0
1070
             147
1040
0.09921875
1002
}
  0
DIMENSION
  5
5DA
100
AcDbEntity
  8
Dimension
370
               9
390
0
  6
Continuous
 62
              12
100
AcDbDimension
  2
*D3
 10
-18.924639745190884
 20
48.939599210286204
 30
0.0
 11
-18.924639745190884
 21
50.902115079426835
 31
0.0
 70
             128
 71
               5
 72
               1
 41
1.0
 42
0.0
  3
IE Standard
100
AcDbAlignedDimension
 13
-14.43424974519089
 23
54.019599210286202
 33
0.0
 14
-14.494449745190884
 24
48.939599210286204
 34
0.0
 50
90.0
100
AcDbRotatedDimension
1001
ACAD
1000
DSTYLE
1002
{
1070
             271
1070
               3
1070
             340
1005
11B
1070
             147
1040
0.09921875
1002
}
  0
DIMENSION
  5
5DB
100
AcDbEntity
  8
Dimension
370
               9
390
0
  6
Continuous
 62
              12
100
AcDbDimension
  2
*D4
 10
-15.744449745190867
 20
39.655989210286208
 30
0.0
 11
-7.7618718490727598
 21
39.655989210286208
 31
0.0
 70
             128
 71
               5
 72
               1
 41
1.0
 42
0.0
  3
IE Standard
100
AcDbAlignedDimension
 13
-0.5194497451909745
 23
47.689599210286204
 33
0.0
 14
-15.744449745190867
 24
47.689599210286204
 34
0.0
100
AcDbRotatedDimension
1001
ACAD
1000
DSTYLE
1002
{
1070
             271
1070
               3
1070
             340
1005
11B
1070
              71
1070
               1
1070
              47
1040
0.125
1070
              48
1040
0.125
1070
               3
1000
<>mm (x4)
1070
             147
1040
0.09921875
1002
}
  0
DIMENSION
  5
5DC
100
AcDbEntity
  8
Dimension
370
               9
390
0
  6
Continuous
 62
              12
100
AcDbDimension
  2
*D5
 10
-14.494449745190884
 20
41.482729210286209
 30
0.0
 11
-7.8954530105717913
 21
41.482729210286209
 31
0.0
 70
             128
 71
               5
 72
               1
 41
1.0
 42
0.0
  3
IE Standard
100
AcDbAlignedDimension
 13
-1.7694497451909745
 23
48.939599210286204
 33
0.0
 14
-14.494449745190884
 24
48.939599210286204
 34
0.0
100
AcDbRotatedDimension
1001
ACAD
1000
DSTYLE
1002
{
1070
             271
1070
               3
1070
             340
1005
11B
1070
               3
1000
<>mm (x4)
1070
             147
1040
0.09921875
1002
}
  0
DIMENSION
  5
5DD
100
AcDbEntity
  8
Dimension
370
               9
390
0
  6
Continuous
 62
              12
100
AcDbDimension
  2
*D6
 10
5.5352102548090256
 20
61.664599210286198
 30
0.0
 11
5.5352102548090256
 21
60.394599210286202
 31
0.0
 70
             128
 71
               5
 72
               1
 41
1.0
 42
0.0
  3
IE Standard
100
AcDbAlignedDimension
 13
-1.7694497451909745
 23
59.124599210286206
 33
0.0
 14
-1.7694497451909745
 24
61.664599210286198
 34
0.0
 50
90.0
100
AcDbRotatedDimension
1001
ACAD
1000
DSTYLE
1002
{
1070
             271
1070
               3
1070
             340
1005
11B
1070
             147
1040
0.09921875
1002
}
  0
DIMENSION
  5
5DE
100
AcDbEntity
  8
Dimension
370
               9
390
0
  6
Continuous
 62
              12
100
AcDbDimension
  2
*D7
 10
-4.5116603422094856
 20
54.832931975211672
 30
0.0
 11
5.9766039401526934
 21
50.926815820653005
 31
0.0
 70
               3
 71
               5
 72
               1
 41
1.0
 42
0.0
  3
IE Standard
100
AcDbDiametricDimension
 15
-4.2548603422094846
 25
54.721331975211676
 35
0.0
 40
9.5203399999999991
1001
ACAD
1000
DSTYLE
1002
{
1070
             172
1070
               0
1070
             289
1070
               0
1070
             342
1005
13A
1070
             340
1005
11B
1070
              75
1070
               1
1070
              76
1070
               1
1070
               3
1000
mm pad
1070
             174
1070
               0
1070
             147
1040
0.09921875
1002
}
  0
DIMENSION
  5
5DF
100
AcDbEntity
  8
Dimension
370
               9
390
0
  6
Continuous
 62
              12
100
AcDbDimension
  2
*D8
 10
-19.5
 20
61.664599210286198
 30
0.0
 11
-19.5
 21
60.400000000000006
 31
0.0
 70
             128
 71
               5
 72
               1
 41
1.0
 42
0.0
  3
IE Standard
100
AcDbAlignedDimension
 13
-11.381949745190902
 23
58.802099210286201
 33
0.0
 14
-14.494449745190884
 24
61.664599210286198
 34
0.0
 50
90.0
100
AcDbRotatedDimension
1001
ACAD
1000
DSTYLE
1002
{
1070
             271
1070
               4
1070
             340
1005
11B
1070
             147
1040
0.09921875
1002
}
  0
DIMENSION
  5
5E0
100
AcDbEntity
  8
Dimension
370
               9
390
0
  6
Continuous
 62
              12
100
AcDbDimension
  2
*D9
 10
-11.381949745190902
 20
43.562099210286206
 30
0.0
 11
-7.8819497451909024
 21
43.562099210286206
 31
0.0
 70
             128
 71
               5
 72
               1
 41
1.0
 42
0.0
  3
IE Standard
100
AcDbAlignedDimension
 13
-4.3819497451909024
 23
51.802099210286201
 33
0.0
 14
-11.381949745190902
 24
51.802099210286201
 34
0.0
100
AcDbRotatedDimension
1001
ACAD
1000
DSTYLE
1002
{
1070
             340
1005
11B
1070
             147
1040
0.09921875
1002
}
  0
DIMENSION
  5
5E1
100
AcDbEntity
  8
Dimension
370
               9
390
0
  6
Continuous
 62
              12
100
AcDbDimension
  2
*D10
 10
-11.381949745190902
 20
67.744963518000006
 30
0.0
 11
-9.9000000000000021
 21
67.744963518000006
 31
0.0
 70
             128
 71
               5
 72
               1
 41
1.0
 42
0.0
  3
IE Standard
100
AcDbAlignedDimension
 13
-14.494449745190884
 23
61.664599210286198
 33
0.0
 14
-11.381949745190902
 24
58.802099210286201
 34
0.0
100
AcDbRotatedDimension
1001
ACAD
1000
DSTYLE
1002
{
1070
             271
1070
               4
1070
             340
1005
11C
1070
               3
1000
*<>mm
1070
             174
1070
               0
1070
             147
1040
0.09921875
1002
}
  0
DIMENSION
  5
5E2
100
AcDbEntity
  8
Dimension
370
               9
390
0
  6
Continuous
 62
              12
100
AcDbDimension
  2
*D11
 10
-6.8819497451909024
 20
65.190639210286207
 30
0.0
 11
-4.5907897451909028
 21
65.190639210286207
 31
0.0
 70
             128
 71
               5
 72
               1
 41
1.0
 42
0.0
  3
IE Standard
100
AcDbAlignedDimension
 13
-6.3819497451909024
 23
58.802099210286201
 33
0.0
 14
-6.8819497451909024
 24
58.802099210286201
 34
0.0
100
AcDbRotatedDimension
1001
ACAD
1000
DSTYLE
1002
{
1070
             340
1005
11B
1070
               3
1000
<>mm typ.
1070
             174
1070
               0
1070
             147
1040
0.09921875
1002
}
  0
DIMENSION
  5
5E3
100
AcDbEntity
  8
Dimension
370
               9
390
0
  6
Continuous
 62
              12
100
AcDbDimension
  2
*D12
 10
-2.1489997451909755
 20
59.315829210286211
 30
0.0
 11
4.6180531886859226
 21
56.662110053767279
 31
0.0
 70
               3
 71
               5
 72
               1
 41
1.0
 42
0.0
  3
IE Standard
100
AcDbDiametricDimension
 15
-1.3898997451909745
 25
58.933369210286202
 35
0.0
 40
5.0477999999999996
1001
ACAD
1000
DSTYLE
1002
{
1070
             271
1070
               3
1070
             172
1070
               0
1070
             289
1070
               0
1070
             342
1005
13A
1070
             340
1005
11B
1070
              75
1070
               1
1070
              76
1070
               1
1070
              71
1070
               1
1070
              47
1040
0.025
1070
              48
1040
0.025
1070
               3
1000
mm (x2)
1070
             174
1070
               0
1070
             147
1040
0.09921875
1002
}
  0
DIMENSION
  5
5E4
100
AcDbEntity
  8
Dimension
370
               9
390
0
  6
Continuous
 62
              12
100
AcDbDimension
  2
*D13
 10
-2.623535604986782
 20
49.277789210286201
 30
0.0
 11
4.0944757069461355
 21
46.862106660446869
 31
0.0
 70
               3
 71
               5
 72
               1
 41
1.0
 42
0.0
  1
 (x4)
  3
IE Standard
100
AcDbDiametricDimension
 15
-1.1625156049867824
 25
48.601409210286207
 35
0.0
 40
4.1400699999999997
1001
ACAD
1000
DSTYLE
1002
{
1070
             172
1070
               0
1070
             289
1070
               0
1070
             342
1005
13A
1070
             340
1005
11B
1070
              75
1070
               1
1070
              76
1070
               1
1070
              71
1070
               1
1070
              47
1040
0.05
1070
              48
1040
0.05
1070
             174
1070
               0
1070
             147
1040
0.09921875
1002
}
  0
DIMENSION
  5
5E5
100
AcDbEntity
  8
Dimension
370
               9
390
0
  6
Continuous
 62
              12
100
AcDbDimension
  2
*D14
 10
-21.856579745190949
 20
58.802099210286201
 30
0.0
 11
-21.856579745190949
 21
55.027059537434639
 31
0.0
 70
             128
 71
               5
 72
               1
 41
1.0
 42
0.0
  3
IE Standard
100
AcDbAlignedDimension
 13
-11.381949745190902
 23
51.802099210286201
 33
0.0
 14
-11.381949745190902
 24
58.802099210286201
 34
0.0
 50
90.0
100
AcDbRotatedDimension
1001
ACAD
1000
DSTYLE
1002
{
1070
             340
1005
11B
1070
             147
1040
0.09921875
1002
}
  0
DIMENSION
  5
5E6
100
AcDbEntity
  8
Dimension
370
               9
390
0
  6
Continuous
 62
              12
100
AcDbDimension
  2
*D15
 10
-16.994449745190849
 20
37.739839210286206
 30
0.0
 11
-8.1319497451909122
 21
37.739839210286206
 31
0.0
 71
               5
 72
               1
 41
1.0
 42
0.0
  3
IE Standard
100
AcDbAlignedDimension
 13
0.7305502548090255
 23
46.439599210286204
 33
0.0
 14
-16.994449745190849
 24
46.439599210286204
 34
0.0
100
AcDbRotatedDimension
1001
ACAD
1000
DSTYLE
1002
{
1070
             340
1005
11B
1070
               3
1000
<>mm sqr.
1070
             147
1040
0.09921875
1002
}
  0
DIMENSION
  5
5E7
100
AcDbEntity
  8
Dimension
370
               9
390
0
  6
Continuous
 62
              12
100
AcDbDimension
  2
*D16
 10
-21.856579745190867
 20
62.914599210286255
 30
0.0
 11
-21.856579745190867
 21
65.352099210286255
 31
0.0
 70
             128
 71
               5
 72
               1
 41
1.0
 42
0.0
  3
IE Standard
100
AcDbAlignedDimension
 13
-14.494449745190884
 23
61.664599210286198
 33
0.0
 14
-15.744449745190867
 24
62.914599210286255
 34
0.0
 50
90.0
100
AcDbRotatedDimension
1001
ACAD
1000
DSTYLE
1002
{
1070
             340
1005
11B
1070
              71
1070
               1
1070
              47
1040
0.125
1070
              48
1040
0.125
1070
               3
1000
<>mm (x4)
1070
             174
1070
               0
1070
             147
1040
0.09921875
1002
}
  0
CIRCLE
  5
5E8
102
{ACAD_REACTORS
330
5E9
102
}
100
AcDbEntity
  8
None
370
               9
390
0
  6
Continuous
 62
             180
100
AcDbCircle
 10
-12.792529745190912
 20
61.962099210286212
 30
0.0
 40
0.2500014851955901
  0
HATCH
  5
5E9
100
AcDbEntity
  8
None
370
               0
390
0
  6
Continuous
 62
             180
100
AcDbHatch
 10
0.0
 20
0.0
 30
0.0
210
0.0
220
0.0
230
1.0
  2
SOLID
 70
               1
 71
               1
 91
        1
 92
        1
 93
        1
 72
               2
 10
-12.792529745190912
 20
61.962099210286212
 40
0.2500014851955901
 50
0.0
 51
360.0
 73
               0
 97
        1
330
5E8
 75
               0
 76
               1
 98
        1
 10
0.0
 20
0.0
  0
CIRCLE
  5
5EA
100
AcDbEntity
  8
None
370
               9
390
0
  6
Continuous
 62
               7
100
AcDbCircle
 10
-14.494449745190884
 20
61.664599210286198
 30
0.0
 40
0.875
  0
CIRCLE
  5
5EB
100
AcDbEntity
  8
None
370
               9
390
0
  6
Continuous
 62
               7
100
AcDbCircle
 10
-1.7694497451909745
 20
48.939599210286204
 30
0.0
 40
0.875
  0
CIRCLE
  5
5EC
100
AcDbEntity
  8
None
370
               9
390
0
  6
Continuous
 62
               7
100
AcDbCircle
 10
-14.494449745190884
 20
48.939599210286204
 30
0.0
 40
0.875
  0
CIRCLE
  5
5ED
100
AcDbEntity
  8
None
370
               9
390
0
  6
Continuous
 62
               7
100
AcDbCircle
 10
-1.7694497451909745
 20
61.664599210286198
 30
0.0
 40
0.875
  0
CIRCLE
  5
5EE
100
AcDbEntity
  8
None
370
               9
390
0
  6
Continuous
 62
               7
100
AcDbCircle
 10
-1.7694497451909745
 20
59.124599210286206
 30
0.0
 40
0.4250000000000007
  0
CIRCLE
  5
5EF
100
AcDbEntity
  8
None
370
               9
390
0
  6
Continuous
 62
               7
100
AcDbCircle
 10
-14.494449745190884
 20
54.019599210286202
 30
0.0
 40
0.4249999999999901
  0
POLYLINE
  5
5F0
100
AcDbEntity
  8
None
370
               9
390
0
  6
STYLE_12
 62
               7
100
AcDb2dPolyline
 66
               1
 10
0.0
 20
0.0
 30
0.0
 70
               1
 75
               5
  0
VERTEX
  5
5F1
100
AcDbEntity
  8
None
370
               9
390
0
  6
STYLE_12
 62
               7
100
AcDbVertex
100
AcDb2dVertex
 10
-16.994449745190849
 20
64.164599210286326
 30
0.0
  0
VERTEX
  5
5F2
100
AcDbEntity
  8
None
370
               9
390
0
  6
STYLE_12
 62
               7
100
AcDbVertex
100
AcDb2dVertex
 10
0.7305502548090255
 20
64.164599210286326
 30
0.0
  0
VERTEX
  5
5F3
100
AcDbEntity
  8
None
370
               9
390
0
  6
STYLE_12
 62
               7
100
AcDbVertex
100
AcDb2dVertex
 10
0.7305502548090255
 20
46.439599210286204
 30
0.0
  0
VERTEX
  5
5F4
100
AcDbEntity
  8
None
370
               9
390
0
  6
STYLE_12
 62
               7
100
AcDbVertex
100
AcDb2dVertex
 10
-16.994449745190849
 20
46.439599210286204
 30
0.0
  0
SEQEND
  5
5F5
100
AcDbEntity
  8
None
370
               9
390
0
  6
STYLE_12
 62
               7
  0
INSERT
  5
5F6
100
AcDbEntity
  8
None
390
0
 62
               7
100
AcDbBlockReference
  2
Group
 10
-5.3611399999999998
 20
26.104589999999984
 30
0.0
  0
INSERT
  5
5F7
100
AcDbEntity
  8
None
390
0
 62
               7
100
AcDbBlockReference
  2
Group-2
 10
-5.3611399999999998
 20
26.104589999999984
 30
0.0
  0
WIPEOUT
  5
5F8
100
AcDbEntity
  8
None
370
               9
390
0
  6
Continuous
 62
              12
 92
        0
100
AcDbWipeout
 90
        0
 10
-33.953919745190845
 20
19.871690847651792
 30
0.0
 11
4.9901799999999987
 21
0.0
 31
0.0
 12
0.0
 22
4.9901799999999987
 32
0.0
 13
1.0
 23
1.0
340
0
 70
               7
280
               1
281
              50
282
              50
283
               0
360
0
 71
               2
 91
        5
 14
-0.5
 24
-5.8055300610398799
 14
0.5
 24
-5.8055300610398799
 14
0.5
 24
-6.2391219434970271
 14
-0.5
 24
-6.2391219434970271
 14
-0.5
 24
-5.8055300610398799
  0
MTEXT
  5
5F9
100
AcDbEntity
  8
None
390
0
 62
              12
100
AcDbMText
 10
-33.953919745190845
 20
53.328163455672609
 30
0.0
 40
0.6737068880208333
 41
4.9901799999999996
 71
               1
 72
               1
  1
Socket Body Size
  7
New Century Schlbk
 73
               1
 44
0.9673603504928808
  0
LINE
  5
5FA
100
AcDbEntity
  8
None
370
               9
390
0
  6
Continuous
 62
              12
100
AcDbLine
 10
-32.013509745190845
 20
51.439411018570652
 30
0.0
 11
-28.639139745190846
 21
48.06503101857065
 31
0.0
  0
LINE
  5
5FB
100
AcDbEntity
  8
None
370
               9
390
0
  6
Continuous
 62
              12
100
AcDbLine
 10
-28.639139745190846
 20
48.06503101857065
 30
0.0
 11
-15.744449745190867
 21
48.06503101857065
 31
0.0
  0
SOLID
  5
5FC
100
AcDbEntity
  8
None
370
               9
390
0
 62
              12
100
AcDbTrace
 10
-15.744449745190867
 20
48.06503101857065
 30
0.0
 11
-16.538199745190866
 21
47.852346347078445
 31
0.0
 12
-16.538199745190866
 22
48.277715690062855
 32
0.0
 13
-16.538199745190866
 23
48.277715690062855
 33
0.0
  0
WIPEOUT
  5
5FD
100
AcDbEntity
  8
None
370
               9
390
0
  6
Continuous
 62
              12
 92
        0
100
AcDbWipeout
 90
        0
 10
3.9474302548090252
 20
13.828748440286223
 30
0.0
 11
10.77147053612603
 21
0.0
 31
0.0
 12
0.0
 22
10.77147053612603
 32
0.0
 13
1.0
 23
1.0
340
0
 70
               7
280
               1
281
              50
282
              50
283
               0
360
0
 71
               2
 91
        5
 14
-0.5
 24
-2.4212102372158246
 14
0.5000000000000002
 24
-2.4212102372158246
 14
0.5000000000000002
 24
-2.5216469200597889
 14
-0.5
 24
-2.5216469200597889
 14
-0.5
 24
-2.4212102372158246
  0
MTEXT
  5
5FE
100
AcDbEntity
  8
None
390
0
 62
              12
100
AcDbMText
 10
3.9474302548090252
 20
46.203370278307034
 30
0.0
 40
0.6737068880208333
 41
0.0
 71
               1
 72
               1
  1
Non plated mounting hole
  7
Arial
 73
               1
 44
0.9673603504928808
  0
WIPEOUT
  5
5FF
100
AcDbEntity
  8
None
370
               9
390
0
  6
Continuous
 62
              12
 92
        0
100
AcDbWipeout
 90
        0
 10
4.6659202548090244
 20
23.728748440286228
 30
0.0
 11
10.97843330171373
 21
0.0
 31
0.0
 12
0.0
 22
10.97843330171373
 32
0.0
 13
1.0
 23
1.0
340
0
 70
               7
280
               1
281
              50
282
              50
283
               0
360
0
 71
               2
 91
        5
 14
-0.5
 24
-2.3661402893515042
 14
0.5000000000000002
 24
-2.3661402893515042
 14
0.5000000000000002
 24
-2.4646835641766218
 14
-0.5
 24
-2.4646835641766218
 14
-0.5
 24
-2.3661402893515042
  0
MTEXT
  5
600
100
AcDbEntity
  8
None
390
0
 62
              12
100
AcDbMText
 10
4.6659202548090244
 20
56.10337027830704
 30
0.0
 40
0.6737068880208333
 41
0.0
 71
               1
 72
               1
  1
Non plated alignment hole
  7
Arial
 73
               1
 44
0.9673603504928808
  0
WIPEOUT
  5
601
100
AcDbEntity
  8
None
370
               9
390
0
  6
Continuous
 62
              12
 92
        0
100
AcDbWipeout
 90
        0
 10
-29.024069745190843
 20
38.961638440286762
 30
0.0
 11
6.9708815680609817
 21
0.0
 31
0.0
 12
0.0
 22
6.9708815680609817
 32
0.0
 13
1.0
 23
1.0
340
0
 70
               7
280
               1
281
              50
282
              50
283
               0
360
0
 71
               2
 91
        5
 14
-0.5
 24
-4.0138810196071768
 14
0.5
 24
-4.0138810196071768
 14
0.5
 24
-4.169076708909488
 14
-0.5
 24
-4.169076708909488
 14
-0.5
 24
-4.0138810196071768
  0
MTEXT
  5
602
100
AcDbEntity
  8
None
390
0
 62
              12
100
AcDbMText
 10
-29.024069745190843
 20
71.336260278307577
 30
0.0
 40
0.6737068880208333
 41
0.0
 71
               1
 72
               1
  1
Orientation Mark
  7
New Century Schlbk
 73
               1
 44
0.9673603504928808
  0
LINE
  5
603
100
AcDbEntity
  8
None
370
               9
390
0
  6
Continuous
 62
              12
100
AcDbLine
 10
-12.792529745190912
 20
61.962099210286212
 30
0.0
 11
-19.038899745190822
 21
71.002099210286715
 31
0.0
  0
SOLID
  5
604
100
AcDbEntity
  8
None
370
               9
390
0
 62
              12
100
AcDbTrace
 10
-12.792529745190912
 20
61.962099210286212
 30
0.0
 11
-13.412712696094381
 21
62.501216024526329
 31
0.0
 12
-13.060065528547256
 22
62.739079542477228
 32
0.0
 13
-13.060065528547256
 23
62.739079542477228
 33
0.0
  0
LINE
  5
605
100
AcDbEntity
  8
None
370
               9
390
0
  6
Continuous
 62
              12
100
AcDbLine
 10
-19.038899745190822
 20
71.002099210286715
 30
0.0
 11
-22.488899745190842
 21
71.002099210286715
 31
0.0
  0
WIPEOUT
  5
606
100
AcDbEntity
  8
None
370
               9
390
0
  6
Continuous
 62
              12
 92
        0
100
AcDbWipeout
 90
        0
 10
-12.071889745190923
 20
4.6851484402860892
 30
0.0
 11
8.6077688958909757
 21
0.0
 31
0.0
 12
0.0
 22
8.6077688958909757
 32
0.0
 13
1.0
 23
1.0
340
0
 70
               7
280
               1
281
              50
282
              50
283
               0
360
0
 71
               2
 91
        5
 14
-0.5
 24
-3.1555035782873464
 14
0.4999999999999998
 24
-3.1555035782873464
 14
0.4999999999999998
 24
-3.2811866423989344
 14
-0.5
 24
-3.2811866423989344
 14
-0.5
 24
-3.1555035782873464
  0
MTEXT
  5
607
100
AcDbEntity
  8
None
390
0
 62
              12
100
AcDbMText
 10
-12.071889745190923
 20
37.059770278306907
 30
0.0
 40
0.6737068880208333
 41
0.0
 71
               1
 72
               1
  1
backing plate outline
  7
Arial
 73
               1
 44
0.9673603504928808
  0
INSERT
  5
608
100
AcDbEntity
  8
AM_VIS
390
0
 62
               7
100
AcDbBlockReference
  2
Group-228
 10
-5.3611399999999998
 20
26.104589999999984
 30
0.0
  0
WIPEOUT
  5
609
100
AcDbEntity
  8
None
370
               9
390
0
  6
Continuous
 62
               7
 92
        0
100
AcDbWipeout
 90
        0
 10
16.18966
 20
-4.8762449999999999
 30
0.0
 11
8.8900002691480822
 21
0.0
 31
0.0
 12
0.0
 22
8.8900002691480822
 32
0.0
 13
1.0
 23
1.0
340
0
 70
               7
280
               1
281
              50
282
              50
283
               0
360
0
 71
               2
 91
        5
 14
-0.5
 24
-3.0394520863175756
 14
0.5
 24
-3.0394520863175756
 14
0.5
 24
-3.2448092229574534
 14
-0.5
 24
-3.2448092229574534
 14
-0.5
 24
-3.0394520863175756
  0
MTEXT
  5
60A
100
AcDbEntity
  8
None
390
0
 62
               7
100
AcDbMText
 10
16.18966
 20
28.123241510416651
 30
0.0
 40
1.1368815104166665
 41
0.0
 71
               1
 72
               1
  1
PAGE 2 of 4
  7
Arial
 73
               1
 44
0.9673603504928806
  0
MTEXT
  5
60B
100
AcDbEntity
  8
None
390
0
 62
               7
100
AcDbMText
 10
12.909365000000001
 20
31.304477549479152
 30
0.0
 40
0.5204840494791666
 41
14.730064999999998
 71
               1
 72
               1
  1
Recommended PCB Layout Tolerances:  ±0.025mm [±0.001"] unless stated otherwise.\P
  7
Helvetica
 73
               1
 44
0.9673603504928806
  0
MTEXT
  5
60C
100
AcDbEntity
  8
None
390
0
 62
               7
100
AcDbMText
 10
-36.949734999999997
 20
73.428393835937484
 30
0.0
 40
0.6124443359374999
 41
11.826889999999999
 71
               1
 72
               1
  1
{\LRecommended PCB Layout Top View}\P
  7
Helvetica
 73
               1
 44
0.9673603504928809
  0
MTEXT
  5
60D
100
AcDbEntity
  8
None
390
0
 62
               7
100
AcDbMText
 10
12.91743
 20
29.40447754947915
 30
0.0
 40
0.5204840494791666
 41
11.323734999999999
 71
               1
 72
               1
  1
All dimensions are in mm.
  7
Helvetica
 73
               1
 44
0.9673603504928806
  0
WIPEOUT
  5
60E
100
AcDbEntity
  8
None
370
               9
390
0
  6
Continuous
 62
              12
 92
        0
100
AcDbWipeout
 90
        0
 10
4.5998425000000021
 20
40.184681800000021
 30
0.0
 11
21.660825000000003
 21
0.0
 31
0.0
 12
0.0
 22
21.660825000000003
 32
0.0
 13
1.0
 23
1.0
340
0
 70
               7
280
               1
281
              50
282
              50
283
               0
360
0
 71
               2
 91
        5
 14
-0.5
 24
-0.9526561199769619
 14
0.5
 24
-0.9526561199769619
 14
0.5
 24
-1.0681587935824228
 14
-0.5
 24
-1.0681587935824228
 14
-0.5
 24
-0.9526561199769619
  0
MTEXT
  5
60F
100
AcDbEntity
  8
None
390
0
 62
              12
100
AcDbMText
 10
4.5998425000000021
 20
73.925583920833333
 30
0.0
 40
0.7592005208333332
 41
21.660824999999999
 71
               1
 72
               1
  1
{\L*Note: BGA pattern is not symmetrical with respect to the mounting holes.}
  7
Arial (bold)
 73
               1
 44
0.992595837897043
  0
WIPEOUT
  5
610
100
AcDbEntity
  8
None
370
              15
390
0
  6
Continuous
 62
              12
 92
        0
100
AcDbWipeout
 90
        0
 10
-37.48057
 20
1.0853150000000111
 30
0.0
 11
17.851437822977701
 21
0.0
 31
0.0
 12
0.0
 22
17.851437822977701
 32
0.0
 13
1.0
 23
1.0
340
0
 70
               7
280
               1
281
              50
282
              50
283
               0
360
0
 71
               2
 91
        5
 14
-0.5
 24
-1.262644012881611
 14
0.5
 24
-1.262644012881611
 14
0.5
 24
-1.4671793582250683
 14
-0.5
 24
-1.4671793582250683
 14
-0.5
 24
-1.262644012881611
  0
MTEXT
  5
611
100
AcDbEntity
  8
None
390
0
 62
              12
100
AcDbMText
 10
-37.48057
 20
36.056360755208331
 30
0.0
 40
0.5684407552083333
 41
17.851437822977701
 71
               1
 72
               1
  1
{\LTarget PCB Recommendations}\PTotal thickness: 1.6mm min.\PPlating: Gold or Solder finish\PPCB Pad height: Same or higher than solder mask
  7
Arial
 73
               1
 44
0.9673603504928806
  0
MTEXT
  5
612
100
AcDbEntity
  8
None
390
0
 62
               7
100
AcDbMText
 10
-2.6305699999999996
 20
32.799752549479159
 30
0.0
 40
0.5204840494791666
 41
28.552694999999996
 71
               1
 72
               1
  1
Recommended PCB Layout Tolerances:  ±0.025mm [±0.001"] unless stated otherwise.\P
  7
Helvetica
 73
               1
 44
0.9673603504928806
  0
WIPEOUT
  5
613
100
AcDbEntity
  8
None
370
               9
390
0
  6
Continuous
 62
               7
 92
        0
100
AcDbWipeout
 90
        0
 10
2.3025903392241149
 20
2.522328250000009
 30
0.0
 11
19.385151269700792
 21
0.0
 31
0.0
 12
0.0
 22
19.385151269700792
 32
0.0
 13
1.0
 23
1.0
340
0
 70
               7
280
               1
281
              50
282
              50
283
               0
360
0
 71
               2
 91
        5
 14
-0.5
 24
-1.1231872303819095
 14
0.5000000000000002
 24
-1.1231872303819095
 14
0.5000000000000002
 24
-1.1755075210976833
 14
-0.5
 24
-1.1755075210976833
 14
-0.5
 24
-1.1231872303819095
  0
MTEXT
  5
614
100
AcDbEntity
  8
None
390
0
 62
               7
100
AcDbMText
 10
2.3025903392241149
 20
34.84014573697916
 30
0.0
 40
0.6316012369791665
 41
0.0
 71
               1
 72
               1
  1
All dimensions are in mm unless stated otherwise
  7
Arial
 73
               1
 44
0.9673603504928809
  0
WIPEOUT
  5
615
100
AcDbEntity
  8
Dimension
370
               5
390
0
  6
Continuous
 62
               7
 92
        0
100
AcDbWipeout
 90
        0
 10
-13.2281209389099
 20
-2.8299998617377158
 30
0.0
 11
10.634030000000006
 21
0.0
 31
0.0
 12
0.0
 22
10.634030000000006
 32
0.0
 13
1.0
 23
1.0
340
0
 70
               7
280
               1
281
              50
282
              50
283
               0
360
0
 71
               2
 91
        5
 14
-0.5
 24
-2.6182016601420126
 14
0.5
 24
-2.6182016601420126
 14
0.5
 24
-2.4589656978586634
 14
-0.5
 24
-2.4589656978586634
 14
-0.5
 24
-2.6182016601420126
  0
POLYLINE
  5
616
100
AcDbEntity
  8
Dimension
370
               5
390
0
  6
Continuous
 62
               7
100
AcDb2dPolyline
 66
               1
 10
0.0
 20
0.0
 30
0.0
 70
               1
 75
               5
  0
VERTEX
  5
617
100
AcDbEntity
  8
Dimension
370
               5
390
0
  6
Continuous
 62
               7
100
AcDbVertex
100
AcDb2dVertex
 10
-13.2281209389099
 20
30.329050138262268
 30
0.0
  0
VERTEX
  5
618
100
AcDbEntity
  8
Dimension
370
               5
390
0
  6
Continuous
 62
               7
100
AcDbVertex
100
AcDb2dVertex
 10
-2.5940909389098934
 20
30.329050138262268
 30
0.0
  0
VERTEX
  5
619
100
AcDbEntity
  8
Dimension
370
               5
390
0
  6
Continuous
 62
               7
100
AcDbVertex
100
AcDb2dVertex
 10
-2.5940909389098934
 20
28.635730138262268
 30
0.0
  0
VERTEX
  5
61A
100
AcDbEntity
  8
Dimension
370
               5
390
0
  6
Continuous
 62
               7
100
AcDbVertex
100
AcDb2dVertex
 10
-13.2281209389099
 20
28.635730138262268
 30
0.0
  0
SEQEND
  5
61B
100
AcDbEntity
  8
Dimension
370
               5
390
0
  6
Continuous
 62
               7
  0
WIPEOUT
  5
61C
100
AcDbEntity
  8
Dimension
370
               5
390
0
  6
Continuous
 62
               7
 92
        0
100
AcDbWipeout
 90
        0
 10
-2.5940909389098934
 20
-2.8299998617377158
 30
0.0
 11
7.4317249999999921
 21
0.0
 31
0.0
 12
0.0
 22
7.4317249999999921
 32
0.0
 13
1.0
 23
1.0
340
0
 70
               7
280
               1
281
              50
282
              50
283
               0
360
0
 71
               2
 91
        5
 14
-0.5
 24
-3.9618241390794227
 14
0.5
 24
-3.9618241390794227
 14
0.5
 24
-3.7339739427925567
 14
-0.5
 24
-3.7339739427925567
 14
-0.5
 24
-3.9618241390794227
  0
POLYLINE
  5
61D
100
AcDbEntity
  8
Dimension
370
               5
390
0
  6
Continuous
 62
               7
100
AcDb2dPolyline
 66
               1
 10
0.0
 20
0.0
 30
0.0
 70
               1
 75
               5
  0
VERTEX
  5
61E
100
AcDbEntity
  8
Dimension
370
               5
390
0
  6
Continuous
 62
               7
100
AcDbVertex
100
AcDb2dVertex
 10
-2.5940909389098934
 20
30.329050138262268
 30
0.0
  0
VERTEX
  5
61F
100
AcDbEntity
  8
Dimension
370
               5
390
0
  6
Continuous
 62
               7
100
AcDbVertex
100
AcDb2dVertex
 10
4.8376340610900987
 20
30.329050138262268
 30
0.0
  0
VERTEX
  5
620
100
AcDbEntity
  8
Dimension
370
               5
390
0
  6
Continuous
 62
               7
100
AcDbVertex
100
AcDb2dVertex
 10
4.8376340610900987
 20
28.635730138262268
 30
0.0
  0
VERTEX
  5
621
100
AcDbEntity
  8
Dimension
370
               5
390
0
  6
Continuous
 62
               7
100
AcDbVertex
100
AcDb2dVertex
 10
-2.5940909389098934
 20
28.635730138262268
 30
0.0
  0
SEQEND
  5
622
100
AcDbEntity
  8
Dimension
370
               5
390
0
  6
Continuous
 62
               7
  0
WIPEOUT
  5
623
100
AcDbEntity
  8
Dimension
370
               5
390
0
  6
Continuous
 62
               7
 92
        0
100
AcDbWipeout
 90
        0
 10
4.8376340610900987
 20
-2.8299998617377158
 30
0.0
 11
7.4421999999999997
 21
0.0
 31
0.0
 12
0.0
 22
7.4421999999999997
 32
0.0
 13
1.0
 23
1.0
340
0
 70
               7
280
               1
281
              50
282
              50
283
               0
360
0
 71
               2
 91
        5
 14
-0.5
 24
-3.9555440595522811
 14
0.5000000000000002
 24
-3.9555440595522811
 14
0.5000000000000002
 24
-3.7280145655854433
 14
-0.5
 24
-3.7280145655854433
 14
-0.5
 24
-3.9555440595522811
  0
POLYLINE
  5
624
100
AcDbEntity
  8
Dimension
370
               5
390
0
  6
Continuous
 62
               7
100
AcDb2dPolyline
 66
               1
 10
0.0
 20
0.0
 30
0.0
 70
               1
 75
               5
  0
VERTEX
  5
625
100
AcDbEntity
  8
Dimension
370
               5
390
0
  6
Continuous
 62
               7
100
AcDbVertex
100
AcDb2dVertex
 10
4.8376340610900987
 20
30.329050138262268
 30
0.0
  0
VERTEX
  5
626
100
AcDbEntity
  8
Dimension
370
               5
390
0
  6
Continuous
 62
               7
100
AcDbVertex
100
AcDb2dVertex
 10
12.279834061090099
 20
30.329050138262268
 30
0.0
  0
VERTEX
  5
627
100
AcDbEntity
  8
Dimension
370
               5
390
0
  6
Continuous
 62
               7
100
AcDbVertex
100
AcDb2dVertex
 10
12.279834061090099
 20
28.635730138262268
 30
0.0
  0
VERTEX
  5
628
100
AcDbEntity
  8
Dimension
370
               5
390
0
  6
Continuous
 62
               7
100
AcDbVertex
100
AcDb2dVertex
 10
4.8376340610900987
 20
28.635730138262268
 30
0.0
  0
SEQEND
  5
629
100
AcDbEntity
  8
Dimension
370
               5
390
0
  6
Continuous
 62
               7
  0
WIPEOUT
  5
62A
100
AcDbEntity
  8
Dimension
370
               5
390
0
  6
Continuous
 62
               7
 92
        0
100
AcDbWipeout
 90
        0
 10
-13.2281209389099
 20
-4.5233548617377206
 30
0.0
 11
13.623100000000004
 21
0.0
 31
0.0
 12
0.0
 22
13.623100000000004
 32
0.0
 13
1.0
 23
1.0
340
0
 70
               7
280
               1
281
              50
282
              50
283
               0
360
0
 71
               2
 91
        5
 14
-0.5
 24
-1.9340337368146736
 14
0.5000000000000002
 24
-1.9340337368146736
 14
0.5000000000000002
 24
-1.8097334674193082
 14
-0.5
 24
-1.8097334674193082
 14
-0.5
 24
-1.9340337368146736
  0
POLYLINE
  5
62B
100
AcDbEntity
  8
Dimension
370
               5
390
0
  6
Continuous
 62
               7
100
AcDb2dPolyline
 66
               1
 10
0.0
 20
0.0
 30
0.0
 70
               1
 75
               5
  0
VERTEX
  5
62C
100
AcDbEntity
  8
Dimension
370
               5
390
0
  6
Continuous
 62
               7
100
AcDbVertex
100
AcDb2dVertex
 10
-13.2281209389099
 20
28.635730138262268
 30
0.0
  0
VERTEX
  5
62D
100
AcDbEntity
  8
Dimension
370
               5
390
0
  6
Continuous
 62
               7
100
AcDbVertex
100
AcDb2dVertex
 10
0.3949790610901065
 20
28.635730138262268
 30
0.0
  0
VERTEX
  5
62E
100
AcDbEntity
  8
Dimension
370
               5
390
0
  6
Continuous
 62
               7
100
AcDbVertex
100
AcDb2dVertex
 10
0.3949790610901065
 20
26.942375138262264
 30
0.0
  0
VERTEX
  5
62F
100
AcDbEntity
  8
Dimension
370
               5
390
0
  6
Continuous
 62
               7
100
AcDbVertex
100
AcDb2dVertex
 10
-13.2281209389099
 20
26.942375138262264
 30
0.0
  0
SEQEND
  5
630
100
AcDbEntity
  8
Dimension
370
               5
390
0
  6
Continuous
 62
               7
  0
WIPEOUT
  5
631
100
AcDbEntity
  8
Dimension
370
               5
390
0
  6
Continuous
 62
               7
 92
        0
100
AcDbWipeout
 90
        0
 10
0.3949790610901065
 20
-4.5233548617377206
 30
0.0
 11
11.884854999999991
 21
0.0
 31
0.0
 12
0.0
 22
11.884854999999991
 32
0.0
 13
1.0
 23
1.0
340
0
 70
               7
280
               1
281
              50
282
              50
283
               0
360
0
 71
               2
 91
        5
 14
-0.5
 24
-2.2900285699741407
 14
0.5000000000000002
 24
-2.2900285699741407
 14
0.5000000000000002
 24
-2.1475484976467958
 14
-0.5
 24
-2.1475484976467958
 14
-0.5
 24
-2.2900285699741407
  0
POLYLINE
  5
632
100
AcDbEntity
  8
Dimension
370
               5
390
0
  6
Continuous
 62
               7
100
AcDb2dPolyline
 66
               1
 10
0.0
 20
0.0
 30
0.0
 70
               1
 75
               5
  0
VERTEX
  5
633
100
AcDbEntity
  8
Dimension
370
               5
390
0
  6
Continuous
 62
               7
100
AcDbVertex
100
AcDb2dVertex
 10
0.3949790610901065
 20
28.635730138262268
 30
0.0
  0
VERTEX
  5
634
100
AcDbEntity
  8
Dimension
370
               5
390
0
  6
Continuous
 62
               7
100
AcDbVertex
100
AcDb2dVertex
 10
12.279834061090099
 20
28.635730138262268
 30
0.0
  0
VERTEX
  5
635
100
AcDbEntity
  8
Dimension
370
               5
390
0
  6
Continuous
 62
               7
100
AcDbVertex
100
AcDb2dVertex
 10
12.279834061090099
 20
26.942375138262264
 30
0.0
  0
VERTEX
  5
636
100
AcDbEntity
  8
Dimension
370
               5
390
0
  6
Continuous
 62
               7
100
AcDbVertex
100
AcDb2dVertex
 10
0.3949790610901065
 20
26.942375138262264
 30
0.0
  0
SEQEND
  5
637
100
AcDbEntity
  8
Dimension
370
               5
390
0
  6
Continuous
 62
               7
  0
WIPEOUT
  5
638
100
AcDbEntity
  8
Dimension
370
               5
390
0
  6
Continuous
 62
               7
 92
        0
100
AcDbWipeout
 90
        0
 10
0.3949790610901065
 20
-6.2166798617377212
 30
0.0
 11
11.884854999999991
 21
0.0
 31
0.0
 12
0.0
 22
11.884854999999991
 32
0.0
 13
1.0
 23
1.0
340
0
 70
               7
280
               1
281
              50
282
              50
283
               0
360
0
 71
               2
 91
        5
 14
-0.5
 24
-2.2900260457531885
 14
0.5000000000000002
 24
-2.2900260457531885
 14
0.5000000000000002
 24
-2.1475484976467958
 14
-0.5
 24
-2.1475484976467958
 14
-0.5
 24
-2.2900260457531885
  0
POLYLINE
  5
639
100
AcDbEntity
  8
Dimension
370
               5
390
0
  6
Continuous
 62
               7
100
AcDb2dPolyline
 66
               1
 10
0.0
 20
0.0
 30
0.0
 70
               1
 75
               5
  0
VERTEX
  5
63A
100
AcDbEntity
  8
Dimension
370
               5
390
0
  6
Continuous
 62
               7
100
AcDbVertex
100
AcDb2dVertex
 10
0.3949790610901065
 20
26.942375138262264
 30
0.0
  0
VERTEX
  5
63B
100
AcDbEntity
  8
Dimension
370
               5
390
0
  6
Continuous
 62
               7
100
AcDbVertex
100
AcDb2dVertex
 10
12.279834061090099
 20
26.942375138262264
 30
0.0
  0
VERTEX
  5
63C
100
AcDbEntity
  8
Dimension
370
               5
390
0
  6
Continuous
 62
               7
100
AcDbVertex
100
AcDb2dVertex
 10
12.279834061090099
 20
25.249050138262263
 30
0.0
  0
VERTEX
  5
63D
100
AcDbEntity
  8
Dimension
370
               5
390
0
  6
Continuous
 62
               7
100
AcDbVertex
100
AcDb2dVertex
 10
0.3949790610901065
 20
25.249050138262263
 30
0.0
  0
SEQEND
  5
63E
100
AcDbEntity
  8
Dimension
370
               5
390
0
  6
Continuous
 62
               7
  0
WIPEOUT
  5
63F
100
AcDbEntity
  8
Dimension
370
               5
390
0
  6
Continuous
 62
               7
 92
        0
100
AcDbWipeout
 90
        0
 10
-13.2281209389099
 20
-6.2166798617377212
 30
0.0
 11
13.623100000000004
 21
0.0
 31
0.0
 12
0.0
 22
13.623100000000004
 32
0.0
 13
1.0
 23
1.0
340
0
 70
               7
280
               1
281
              50
282
              50
283
               0
360
0
 71
               2
 91
        5
 14
-0.5
 24
-1.9340315346727235
 14
0.5000000000000002
 24
-1.9340315346727235
 14
0.5000000000000002
 24
-1.8097334674193077
 14
-0.5
 24
-1.8097334674193077
 14
-0.5
 24
-1.9340315346727235
  0
POLYLINE
  5
640
100
AcDbEntity
  8
Dimension
370
               5
390
0
  6
Continuous
 62
               7
100
AcDb2dPolyline
 66
               1
 10
0.0
 20
0.0
 30
0.0
 70
               1
 75
               5
  0
VERTEX
  5
641
100
AcDbEntity
  8
Dimension
370
               5
390
0
  6
Continuous
 62
               7
100
AcDbVertex
100
AcDb2dVertex
 10
-13.2281209389099
 20
26.942375138262264
 30
0.0
  0
VERTEX
  5
642
100
AcDbEntity
  8
Dimension
370
               5
390
0
  6
Continuous
 62
               7
100
AcDbVertex
100
AcDb2dVertex
 10
0.3949790610901065
 20
26.942375138262264
 30
0.0
  0
VERTEX
  5
643
100
AcDbEntity
  8
Dimension
370
               5
390
0
  6
Continuous
 62
               7
100
AcDbVertex
100
AcDb2dVertex
 10
0.3949790610901065
 20
25.249050138262263
 30
0.0
  0
VERTEX
  5
644
100
AcDbEntity
  8
Dimension
370
               5
390
0
  6
Continuous
 62
               7
100
AcDbVertex
100
AcDb2dVertex
 10
-13.2281209389099
 20
25.249050138262263
 30
0.0
  0
SEQEND
  5
645
100
AcDbEntity
  8
Dimension
370
               5
390
0
  6
Continuous
 62
               7
  0
MTEXT
  5
646
100
AcDbEntity
  8
None
390
0
 62
               7
100
AcDbMText
 10
-12.593120938909893
 20
29.849600875241432
 30
0.0
 40
0.6316012369791665
 41
0.0
 71
               1
 72
               1
  1
Status: Released
  7
Arial
 73
               1
 44
0.9673603504928809
  0
MTEXT
  5
647
100
AcDbEntity
  8
None
390
0
 62
               7
100
AcDbMText
 10
-12.593120938909893
 20
28.154850875241433
 30
0.0
 40
0.6316012369791665
 41
0.0
 71
               1
 72
               1
  1
Drawing: J. Glab
  7
Arial
 73
               1
 44
0.9673603504928809
  0
WIPEOUT
  5
648
100
AcDbEntity
  8
None
370
               5
390
0
  6
Continuous
 62
               7
 92
        0
100
AcDbWipeout
 90
        0
 10
-1.9590909389098936
 20
-2.4242216117377167
 30
0.0
 11
4.1892388025919596
 21
0.0
 31
0.0
 12
0.0
 22
4.1892388025919596
 32
0.0
 13
1.0
 23
1.0
340
0
 70
               7
280
               1
281
              50
282
              50
283
               0
360
0
 71
               2
 91
        5
 14
-0.5
 24
-7.0110853027837789
 14
0.5
 24
-7.0110853027837789
 14
0.5
 24
-7.2531905629022688
 14
-0.5
 24
-7.2531905629022688
 14
-0.5
 24
-7.0110853027837789
  0
MTEXT
  5
649
100
AcDbEntity
  8
None
390
0
 62
               7
100
AcDbMText
 10
-1.9590909389098936
 20
29.893595875241434
 30
0.0
 40
0.6316012369791665
 41
0.0
 71
               1
 72
               1
  1
Scale: 4:1 
  7
Arial
 73
               1
 44
0.9673603504928809
  0
MTEXT
  5
64A
100
AcDbEntity
  8
None
390
0
 62
               7
100
AcDbMText
 10
5.4726340610900985
 20
29.84818587524143
 30
0.0
 40
0.6316012369791665
 41
0.0
 71
               1
 72
               1
  1
Rev: A
  7
Arial
 73
               1
 44
0.9673603504928809
  0
MTEXT
  5
64B
100
AcDbEntity
  8
None
390
0
 62
               7
100
AcDbMText
 10
1.0299790610901063
 20
28.013930875241432
 30
0.0
 40
0.6316012369791665
 41
0.0
 71
               1
 72
               1
  1
Date: 9/13/07
  7
Arial
 73
               1
 44
0.9673603504928809
  0
MTEXT
  5
64C
100
AcDbEntity
  8
None
390
0
 62
               7
100
AcDbMText
 10
1.0299790610901063
 20
26.363164674720597
 30
0.0
 40
0.5041165364583332
 41
0.0
 71
               1
 72
               1
  1
Modified: 
  7
Arial
 73
               1
 44
0.9673603504928806
  0
MTEXT
  5
64D
100
AcDbEntity
  8
None
390
0
 62
               7
100
AcDbMText
 10
-12.593120938909893
 20
26.318254674720595
 30
0.0
 40
0.5041165364583332
 41
13.623094999999999
 71
               1
 72
               1
  1
File: CG-BGA-5002 Dwg.mcd
  7
Arial
 73
               1
 44
0.9673603504928806
  0
WIPEOUT
  5
64E
100
AcDbEntity
  8
Dimension
370
               5
390
0
  6
Continuous
 62
               7
 92
        0
100
AcDbWipeout
 90
        0
 10
-38.532870938909895
 20
-6.2166798617377212
 30
0.0
 11
25.304749999999999
 21
0.0
 31
0.0
 12
0.0
 22
25.304749999999999
 32
0.0
 13
1.0
 23
1.0
340
0
 70
               7
280
               1
281
              50
282
              50
283
               0
360
0
 71
               2
 91
        5
 14
-0.5
 24
-0.8773070273367647
 14
0.4999999999999999
 24
-0.8773070273367647
 14
0.4999999999999999
 24
-0.7434712850354177
 14
-0.5
 24
-0.7434712850354177
 14
-0.5
 24
-0.8773070273367647
  0
POLYLINE
  5
64F
100
AcDbEntity
  8
Dimension
370
               5
390
0
  6
Continuous
 62
               7
100
AcDb2dPolyline
 66
               1
 10
0.0
 20
0.0
 30
0.0
 70
               1
 75
               5
  0
VERTEX
  5
650
100
AcDbEntity
  8
Dimension
370
               5
390
0
  6
Continuous
 62
               7
100
AcDbVertex
100
AcDb2dVertex
 10
-38.532870938909895
 20
28.635730138262268
 30
0.0
  0
VERTEX
  5
651
100
AcDbEntity
  8
Dimension
370
               5
390
0
  6
Continuous
 62
               7
100
AcDbVertex
100
AcDb2dVertex
 10
-13.2281209389099
 20
28.635730138262268
 30
0.0
  0
VERTEX
  5
652
100
AcDbEntity
  8
Dimension
370
               5
390
0
  6
Continuous
 62
               7
100
AcDbVertex
100
AcDb2dVertex
 10
-13.2281209389099
 20
25.249050138262263
 30
0.0
  0
VERTEX
  5
653
100
AcDbEntity
  8
Dimension
370
               5
390
0
  6
Continuous
 62
               7
100
AcDbVertex
100
AcDb2dVertex
 10
-38.532870938909895
 20
25.249050138262263
 30
0.0
  0
SEQEND
  5
654
100
AcDbEntity
  8
Dimension
370
               5
390
0
  6
Continuous
 62
               7
  0
WIPEOUT
  5
655
100
AcDbEntity
  8
Dimension
370
               5
390
0
  6
Continuous
 62
               7
 92
        0
100
AcDbWipeout
 90
        0
 10
-38.532870938909895
 20
-2.8299998617377158
 30
0.0
 11
25.304749999999999
 21
0.0
 31
0.0
 12
0.0
 22
25.304749999999999
 32
0.0
 13
1.0
 23
1.0
340
0
 70
               7
280
               1
281
              50
282
              50
283
               0
360
0
 71
               2
 91
        5
 14
-0.5
 24
-0.8103883658206459
 14
0.4999999999999999
 24
-0.8103883658206459
 14
0.4999999999999999
 24
-0.7434712850354177
 14
-0.5
 24
-0.7434712850354177
 14
-0.5
 24
-0.8103883658206459
  0
POLYLINE
  5
656
100
AcDbEntity
  8
Dimension
370
               5
390
0
  6
Continuous
 62
               7
100
AcDb2dPolyline
 66
               1
 10
0.0
 20
0.0
 30
0.0
 70
               1
 75
               5
  0
VERTEX
  5
657
100
AcDbEntity
  8
Dimension
370
               5
390
0
  6
Continuous
 62
               7
100
AcDbVertex
100
AcDb2dVertex
 10
-38.532870938909895
 20
30.329050138262268
 30
0.0
  0
VERTEX
  5
658
100
AcDbEntity
  8
Dimension
370
               5
390
0
  6
Continuous
 62
               7
100
AcDbVertex
100
AcDb2dVertex
 10
-13.2281209389099
 20
30.329050138262268
 30
0.0
  0
VERTEX
  5
659
100
AcDbEntity
  8
Dimension
370
               5
390
0
  6
Continuous
 62
               7
100
AcDbVertex
100
AcDb2dVertex
 10
-13.2281209389099
 20
28.635730138262268
 30
0.0
  0
VERTEX
  5
65A
100
AcDbEntity
  8
Dimension
370
               5
390
0
  6
Continuous
 62
               7
100
AcDbVertex
100
AcDb2dVertex
 10
-38.532870938909895
 20
28.635730138262268
 30
0.0
  0
SEQEND
  5
65B
100
AcDbEntity
  8
Dimension
370
               5
390
0
  6
Continuous
 62
               7
  0
MTEXT
  5
65C
100
AcDbEntity
  8
None
390
0
 62
               7
100
AcDbMText
 10
-25.008025938909899
 20
29.881756248678933
 30
0.0
 40
0.7367565104166665
 41
0.0
 71
               2
 72
               1
  1
CG-BGA-5002 Drawing
  7
Arial (bold)
 73
               1
 44
0.9925958378970426
  0
INSERT
  5
65D
100
AcDbEntity
  8
None
390
0
 62
               7
100
AcDbBlockReference
  2
IE i logo
 10
-35.825560938909902
 20
26.968850138262262
 30
0.0
 41
0.5
 42
0.5
 43
0.5
  0
INSERT
  5
65E
100
AcDbEntity
  8
None
390
0
 62
               7
100
AcDbBlockReference
  2
©2006_address
 10
-24.551499047878565
 20
27.069736083777947
 30
0.0
 41
0.5
 42
0.5
 43
0.5
  0
ENDSEC
  0
SECTION
  2
OBJECTS
  0
DICTIONARY
  5
19
100
AcDbDictionary
280
               0
281
               1
  3
ACAD_GROUP
350
1A
  3
ACAD_MLINESTYLE
350
1B
  3
ACAD_LAYOUT
350
1E
  3
ACAD_PLOTSETTINGS
350
22
  3
ACAD_PLOTSTYLENAME
350
1F
  3
ACAD_WIPEOUT_VARS
350
23
  0
DICTIONARY
  5
1A
102
{ACAD_REACTORS
330
19
102
}
100
AcDbDictionary
280
               0
281
               1
  0
DICTIONARY
  5
1B
102
{ACAD_REACTORS
330
19
102
}
100
AcDbDictionary
280
               0
281
               1
  3
Standard
350
1C
  0
MLINESTYLE
  5
1C
102
{ACAD_REACTORS
330
1B
102
}
100
AcDbMlineStyle
  2
Standard
 70
               0
  3

 62
               0
 51
90.0
 52
90.0
 71
               2
 49
0.5
 62
             256
  6
ByLayer
 49
-0.5
 62
             256
  6
ByLayer
  0
ACDBDICTIONARYWDFLT
  5
1F
102
{ACAD_REACTORS
330
19
102
}
100
AcDbDictionary
281
               1
  3
Normal
350
1D
100
AcDbDictionaryWithDefault
340
1D
  0
ACDBPLACEHOLDER
  5
1D
102
{ACAD_REACTORS
330
1F
102
}
  0
LAYOUT
  5
20
102
{ACAD_REACTORS
330
1E
102
}
100
AcDbPlotSettings
  1

  2

  4

  6

 40
0.0
 41
0.0
 42
0.0
 43
0.0
 44
0.0
 45
0.0
 46
0.0
 47
0.0
 48
0.0
 49
0.0
140
0.0
141
0.0
142
1.0
143
1.0
 70
            1024
 72
               0
 73
               0
 74
               0
  7

 75
               0
147
1.0
148
0.0
149
0.0
100
AcDbLayout
  1
Model
 70
               0
 71
               0
 10
0.0
 20
0.0
 11
0.0
 21
0.0
 12
0.0
 22
0.0
 32
0.0
 14
0.0
 24
0.0
 34
0.0
 15
0.0
 25
0.0
 35
0.0
146
0.0
 13
0.0
 23
0.0
 33
0.0
 16
0.0
 26
0.0
 36
0.0
 17
0.0
 27
0.0
 37
0.0
 76
               0
330
A
331
0
345
0
346
0
  0
LAYOUT
  5
21
102
{ACAD_REACTORS
330
1E
102
}
100
AcDbPlotSettings
  1

  2

  4

  6

 40
0.0
 41
0.0
 42
0.0
 43
0.0
 44
0.0
 45
0.0
 46
0.0
 47
0.0
 48
0.0
 49
0.0
140
0.0
141
0.0
142
1.0
143
1.0
 70
               0
 72
               0
 73
               0
 74
               0
  7

 75
               0
147
1.0
148
0.0
149
0.0
100
AcDbLayout
  1
Layout1
 70
               0
 71
               0
 10
0.0
 20
0.0
 11
0.0
 21
0.0
 12
0.0
 22
0.0
 32
0.0
 14
0.0
 24
0.0
 34
0.0
 15
0.0
 25
0.0
 35
0.0
146
0.0
 13
0.0
 23
0.0
 33
0.0
 16
0.0
 26
0.0
 36
0.0
 17
0.0
 27
0.0
 37
0.0
 76
               0
330
B
331
0
345
0
346
0
  0
DICTIONARY
  5
1E
102
{ACAD_REACTORS
330
19
102
}
100
AcDbDictionary
280
               0
281
               1
  3
Layout1
350
21
  3
Model
350
20
  0
DICTIONARY
  5
22
102
{ACAD_REACTORS
330
19
102
}
100
AcDbDictionary
280
               0
281
               1
  0
WIPEOUTVARIABLES
  5
23
100
AcDbWipeoutVariables
 70
               0
  0
ENDSEC
  0
EOF
