  0
SECTION
  2
HEADER
  9
$ACADVER
  1
AC1015
  9
$ACADMAINTVER
 70
               6
  9
$DWGCODEPAGE
  3
ANSI_1252
  9
$INSBASE
 10
0.0
 20
0.0
 30
0.0
  9
$EXTMIN
 10
-38.476159636181329
 20
25.430297287292024
 30
-1.0794999999999999
  9
$EXTMAX
 10
27.639429999999997
 20
73.585624999999979
 30
1.0794999999999999
  9
$LIMMIN
 10
0.0
 20
0.0
  9
$LIMMAX
 10
0.0
 20
0.0
  9
$ORTHOMODE
 70
               0
  9
$REGENMODE
 70
               1
  9
$FILLMODE
 70
               1
  9
$QTEXTMODE
 70
               0
  9
$MIRRTEXT
 70
               1
  9
$LTSCALE
 40
6.3499999999999996
  9
$ATTMODE
 70
               1
  9
$TEXTSIZE
 40
0.2
  9
$TRACEWID
 40
1.0
  9
$TEXTSTYLE
  7
Standard
  9
$CLAYER
  8
AM_VIS
  9
$CELTYPE
  6
Continuous
  9
$CECOLOR
 62
             256
  9
$CELTSCALE
 40
1.0
  9
$DISPSILH
 70
               0
  9
$DIMSCALE
 40
1.0
  9
$DIMASZ
 40
0.79375
  9
$DIMEXO
 40
0.396875
  9
$DIMDLI
 40
10.16
  9
$DIMRND
 40
0.0
  9
$DIMDLE
 40
0.0
  9
$DIMEXE
 40
0.79375
  9
$DIMTP
 40
0.0
  9
$DIMTM
 40
0.0
  9
$DIMTXT
 40
0.6315976562499999
  9
$DIMCEN
 40
0.0
  9
$DIMTSZ
 40
0.0
  9
$DIMTOL
 70
               0
  9
$DIMLIM
 70
               0
  9
$DIMTIH
 70
               1
  9
$DIMTOH
 70
               1
  9
$DIMSE1
 70
               0
  9
$DIMSE2
 70
               0
  9
$DIMTAD
 70
               0
  9
$DIMZIN
 70
               3
  9
$DIMBLK
  1
VW_FILLEDARROW
  9
$DIMASO
 70
               1
  9
$DIMSHO
 70
               1
  9
$DIMPOST
  1
<>mm
  9
$DIMAPOST
  1
[]"
  9
$DIMALT
 70
               1
  9
$DIMALTD
 70
               3
  9
$DIMALTF
 40
0.0393700787401575
  9
$DIMLFAC
 40
1.0
  9
$DIMTOFL
 70
               0
  9
$DIMTVP
 40
0.0
  9
$DIMTIX
 70
               1
  9
$DIMSOXD
 70
               0
  9
$DIMSAH
 70
               0
  9
$DIMBLK1
  1

  9
$DIMBLK2
  1

  9
$DIMSTYLE
  2
ASME Dual SideBySide
  9
$DIMCLRD
 70
               0
  9
$DIMCLRE
 70
               0
  9
$DIMCLRT
 70
               0
  9
$DIMTFAC
 40
1.0
  9
$DIMGAP
 40
0.0
  9
$DIMJUST
 70
               0
  9
$DIMSD1
 70
               0
  9
$DIMSD2
 70
               0
  9
$DIMTOLJ
 70
               1
  9
$DIMTZIN
 70
               3
  9
$DIMALTZ
 70
               3
  9
$DIMALTTZ
 70
               3
  9
$DIMUPT
 70
               0
  9
$DIMDEC
 70
               2
  9
$DIMTDEC
 70
               2
  9
$DIMALTU
 70
               2
  9
$DIMALTTD
 70
               2
  9
$DIMTXSTY
  7
Helvetica
  9
$DIMAUNIT
 70
               0
  9
$DIMADEC
 70
               0
  9
$DIMALTRND
 40
0.0
  9
$DIMAZIN
 70
               0
  9
$DIMDSEP
 70
              46
  9
$DIMATFIT
 70
               0
  9
$DIMFRAC
 70
               2
  9
$DIMLDRBLK
  1

  9
$DIMLUNIT
 70
               2
  9
$DIMLWD
 70
              -2
  9
$DIMLWE
 70
              -2
  9
$DIMTMOVE
 70
               0
  9
$LUNITS
 70
               2
  9
$LUPREC
 70
               4
  9
$SKETCHINC
 40
0.1
  9
$FILLETRAD
 40
0.0
  9
$AUNITS
 70
               0
  9
$AUPREC
 70
               0
  9
$MENU
  1
acad
  9
$ELEVATION
 40
0.0
  9
$PELEVATION
 40
0.0
  9
$THICKNESS
 40
0.0
  9
$LIMCHECK
 70
               0
  9
$CHAMFERA
 40
0.0
  9
$CHAMFERB
 40
0.0
  9
$CHAMFERC
 40
0.0
  9
$CHAMFERD
 40
0.0
  9
$SKPOLY
 70
               0
  9
$TDCREATE
 40
2455267.568715278
  9
$TDUCREATE
 40
0.000000000
  9
$TDUPDATE
 40
2455267.568715278
  9
$TDUUPDATE
 40
0.000000000
  9
$TDINDWG
 40
0.0000000000
  9
$TDUSRTIMER
 40
0.0000000000
  9
$USRTIMER
 70
               1
  9
$ANGBASE
 50
0.0
  9
$ANGDIR
 70
               0
  9
$PDMODE
 70
               1
  9
$PDSIZE
 40
-2.0
  9
$PLINEWID
 40
0.0
  9
$SPLFRAME
 70
               0
  9
$SPLINETYPE
 70
               6
  9
$SPLINESEGS
 70
               8
  9
$HANDSEED
  5
2FA
  9
$SURFTAB1
 70
               6
  9
$SURFTAB2
 70
               6
  9
$SURFTYPE
 70
               6
  9
$SURFU
 70
               6
  9
$SURFV
 70
               6
  9
$UCSBASE
  2

  9
$UCSNAME
  2

  9
$UCSORG
 10
0.0
 20
0.0
 30
0.0
  9
$UCSXDIR
 10
1.0
 20
0.0
 30
0.0
  9
$UCSYDIR
 10
0.0
 20
1.0
 30
0.0
  9
$UCSORTHOREF
  2

  9
$UCSORTHOVIEW
 70
               0
  9
$UCSORGTOP
 10
0.0
 20
0.0
 30
0.0
  9
$UCSORGBOTTOM
 10
0.0
 20
0.0
 30
0.0
  9
$UCSORGLEFT
 10
0.0
 20
0.0
 30
0.0
  9
$UCSORGRIGHT
 10
0.0
 20
0.0
 30
0.0
  9
$UCSORGFRONT
 10
0.0
 20
0.0
 30
0.0
  9
$UCSORGBACK
 10
0.0
 20
0.0
 30
0.0
  9
$PUCSBASE
  2

  9
$PUCSNAME
  2

  9
$PUCSORG
 10
0.0
 20
0.0
 30
0.0
  9
$PUCSXDIR
 10
1.0
 20
0.0
 30
0.0
  9
$PUCSYDIR
 10
0.0
 20
1.0
 30
0.0
  9
$PUCSORTHOREF
  2

  9
$PUCSORTHOVIEW
 70
               0
  9
$PUCSORGTOP
 10
0.0
 20
0.0
 30
0.0
  9
$PUCSORGBOTTOM
 10
0.0
 20
0.0
 30
0.0
  9
$PUCSORGLEFT
 10
0.0
 20
0.0
 30
0.0
  9
$PUCSORGRIGHT
 10
0.0
 20
0.0
 30
0.0
  9
$PUCSORGFRONT
 10
0.0
 20
0.0
 30
0.0
  9
$PUCSORGBACK
 10
0.0
 20
0.0
 30
0.0
  9
$USERI1
 70
               0
  9
$USERI2
 70
               0
  9
$USERI3
 70
               0
  9
$USERI4
 70
               0
  9
$USERI5
 70
               0
  9
$USERR1
 40
0.0
  9
$USERR2
 40
0.0
  9
$USERR3
 40
0.0
  9
$USERR4
 40
0.0
  9
$USERR5
 40
0.0
  9
$WORLDVIEW
 70
               1
  9
$SHADEDGE
 70
               3
  9
$SHADEDIF
 70
              70
  9
$TILEMODE
 70
               1
  9
$MAXACTVP
 70
              64
  9
$PINSBASE
 10
0.0
 20
0.0
 30
0.0
  9
$PLIMCHECK
 70
               0
  9
$PEXTMIN
 10
1.0000000000000000E+20
 20
1.0000000000000000E+20
 30
1.0000000000000000E+20
  9
$PEXTMAX
 10
-1.0000000000000000E+20
 20
-1.0000000000000000E+20
 30
-1.0000000000000000E+20
  9
$PLIMMIN
 10
0.0
 20
0.0
  9
$PLIMMAX
 10
12.0
 20
9.0
  9
$UNITMODE
 70
               0
  9
$VISRETAIN
 70
               0
  9
$PLINEGEN
 70
               1
  9
$PSLTSCALE
 70
               0
  9
$TREEDEPTH
 70
            3020
  9
$CMLSTYLE
  2
Standard
  9
$CMLJUST
 70
               0
  9
$CMLSCALE
 40
1.0
  9
$PROXYGRAPHICS
 70
               0
  9
$MEASUREMENT
 70
               1
  9
$CELWEIGHT
370
               0
  9
$ENDCAPS
280
               0
  9
$JOINSTYLE
280
               0
  9
$LWDISPLAY
290
               1
  9
$INSUNITS
 70
               4
  9
$HYPERLINKBASE
  1

  9
$STYLESHEET
  1

  9
$XEDIT
290
               1
  9
$CEPSNTYPE
380
               0
  9
$PSTYLEMODE
290
               1
  9
$FINGERPRINTGUID
  2

  9
$VERSIONGUID
  2

  9
$EXTNAMES
290
               1
  9
$PSVPSCALE
 40
0.0
  0
ENDSEC
  0
SECTION
  2
CLASSES
  0
CLASS
  1
LWPOLYLINE
  2
AcDbPolyline
  3
AutoCAD 2000
 90
        0
280
               0
281
               1
  0
CLASS
  1
IMAGE
  2
AcDbRasterImage
  3
ISM
 90
      127
280
               0
281
               1
  0
CLASS
  1
OLE2FRAME
  2
AcDbOle2Frame
  3
AutoCAD 2000
 90
        0
280
               0
281
               1
  0
CLASS
  1
HATCH
  2
AcDbHatch
  3
AutoCAD 2000
 90
        0
280
               0
281
               1
  0
CLASS
  1
DICTIONARYVAR
  2
AcDbDictionaryVar
  3
AutoCAD 2000
 90
        0
280
               0
281
               0
  0
CLASS
  1
RASTERVARIABLES
  2
AcDbRasterVariables
  3
ISM
 90
        0
280
               0
281
               0
  0
CLASS
  1
IMAGEDEF
  2
AcDbRasterImageDef
  3
ISM
 90
        0
280
               0
281
               0
  0
CLASS
  1
IMAGEDEF_REACTOR
  2
AcDbRasterImageDefReactor
  3
ISM
 90
        1
280
               0
281
               0
  0
CLASS
  1
IDBUFFER
  2
AcDbIdBuffer
  3
AutoCAD 2000
 90
        0
280
               0
281
               0
  0
CLASS
  1
SPATIAL_FILTER
  2
AcDbSpatialFilter
  3
AutoCAD 2000
 90
        0
280
               0
281
               0
  0
CLASS
  1
XRECORD
  2
AcDbXrecord
  3
AutoCAD 2000
 90
        0
280
               0
281
               0
  0
CLASS
  1
SORTENTSTABLE
  2
AcDbSortentsTable
  3
AutoCAD 2000
 90
        0
280
               0
281
               0
  0
CLASS
  1
LAYER_INDEX
  2
AcDbLayerIndex
  3
AutoCAD 2000
 90
        0
280
               0
281
               0
  0
CLASS
  1
SPATIAL_INDEX
  2
AcDbSpatialIndex
  3
AutoCAD 2000
 90
        0
280
               0
281
               0
  0
CLASS
  1
OBJECT_PTR
  2
CAseDLPNTableRecord
  3
"ASE-LPNTableRecord"
 90
        1
280
               0
281
               0
  0
CLASS
  1
LAYOUT
  2
AcDbLayout
  3
AutoCAD 2000
 90
        0
280
               0
281
               0
  0
CLASS
  1
PLOTSETTINGS
  2
AcDbPlotSettings
  3
AutoCAD 2000
 90
        0
280
               0
281
               0
  0
CLASS
  1
ACDBDICTIONARYWDFLT
  2
AcDbDictionaryWithDefault
  3
AutoCAD 2000
 90
        0
280
               0
281
               0
  0
CLASS
  1
ACDBPLACEHOLDER
  2
AcDbPlaceHolder
  3
AutoCAD 2000
 90
        0
280
               0
281
               0
  0
CLASS
  1
VBA_PROJECT
  2
AcDbVbaProject
  3
acadvba
 90
        0
280
               0
281
               0
  0
CLASS
  1
WIPEOUT
  2
AcDbWipeout
  3
WipeOut|AutoCAD Express Tool|expresstools@autodesk.com
 90
      127
280
               0
281
               1
  0
CLASS
  1
WIPEOUTVARIABLES
  2
AcDbWipeoutVariables
  3
WipeOut|AutoCAD Express Tool|expresstools@autodesk.com
 90
        0
280
               0
281
               0
  0
CLASS
  1
RTEXT
  2
RText
  3
RText|AutoCAD Express Tool|expresstools@autodesk.com
 90
        0
280
               0
281
               1
  0
CLASS
  1
ARCALIGNEDTEXT
  2
AcDbArcAlignedText
  3
ATEXT|AutoCAD Express Tool|expresstools@autodesk.com
 90
        0
280
               0
281
               1
  0
ENDSEC
  0
SECTION
  2
TABLES
  0
TABLE
  2
VPORT
  5
7
100
AcDbSymbolTable
 70
               1
  0
VPORT
  5
15
100
AcDbSymbolTableRecord
100
AcDbViewportTableRecord
  2
*ACTIVE
 70
               0
 10
0.0
 20
0.0
 11
1.0
 21
1.0
 12
-5.4183648180906658
 22
49.507961143646
 13
0.0
 23
0.0
 14
1.0
 24
1.0
 15
0.0
 25
0.0
 16
0.0
 26
0.0
 36
1.0
 17
0.0
 27
0.0
 37
0.0
 40
48.155327712707958
 41
0.688564
 42
50.0
 43
0.0
 44
0.0
 50
0.0
 51
0.0
 71
               0
 72
            2000
 73
               1
 74
               1
 75
               0
 76
               0
 77
               0
 78
               0
281
               0
 65
               0
110
0.0
120
0.0
130
0.0
111
1.0
121
0.0
131
0.0
112
0.0
122
1.0
132
0.0
345
0
346
0
 79
               0
146
0.0
  0
ENDTAB
  0
TABLE
  2
LTYPE
  5
4
100
AcDbSymbolTable
 70
              20
  0
LTYPE
  5
11
100
AcDbSymbolTableRecord
100
AcDbLinetypeTableRecord
  2
ByBlock
 70
              64
  3

 72
              65
 73
               0
 40
0.0
  0
LTYPE
  5
12
100
AcDbSymbolTableRecord
100
AcDbLinetypeTableRecord
  2
ByLayer
 70
              64
  3

 72
              65
 73
               0
 40
0.0
  0
LTYPE
  5
13
100
AcDbSymbolTableRecord
100
AcDbLinetypeTableRecord
  2
Continuous
 70
              64
  3
Solid line
 72
              65
 73
               0
 40
0.0
  0
LTYPE
  5
40
100
AcDbSymbolTableRecord
100
AcDbLinetypeTableRecord
  2
STYLE_01
 70
               0
  3

 72
              65
 73
               2
 40
1.5
 49
1.0
 74
               0
 49
-0.5
 74
               0
  0
LTYPE
  5
41
100
AcDbSymbolTableRecord
100
AcDbLinetypeTableRecord
  2
STYLE_02
 70
               0
  3

 72
              65
 73
               2
 40
0.75
 49
0.5
 74
               0
 49
-0.25
 74
               0
  0
LTYPE
  5
42
100
AcDbSymbolTableRecord
100
AcDbLinetypeTableRecord
  2
STYLE_03
 70
               0
  3

 72
              65
 73
               4
 40
0.5555572509765625
 49
0.25
 74
               0
 49
-0.111114501953125
 74
               0
 49
0.0972137451171875
 74
               0
 49
-0.09722900390625
 74
               0
  0
LTYPE
  5
43
100
AcDbSymbolTableRecord
100
AcDbLinetypeTableRecord
  2
STYLE_04
 70
               0
  3

 72
              65
 73
               4
 40
5.0
 49
2.5
 74
               0
 49
-0.5
 74
               0
 49
0.5
 74
               0
 49
-0.5
 74
               0
  0
LTYPE
  5
44
100
AcDbSymbolTableRecord
100
AcDbLinetypeTableRecord
  2
STYLE_05
 70
               0
  3

 72
              65
 73
               2
 40
0.5
 49
0.0001
 74
               0
 49
-0.4999
 74
               0
  0
LTYPE
  5
45
100
AcDbSymbolTableRecord
100
AcDbLinetypeTableRecord
  2
STYLE_06
 70
               0
  3

 72
              65
 73
               4
 40
0.4583282470703125
 49
0.263885498046875
 74
               0
 49
-0.083343505859375
 74
               0
 49
0.02777099609375
 74
               0
 49
-0.0833282470703125
 74
               0
  0
LTYPE
  5
46
100
AcDbSymbolTableRecord
100
AcDbLinetypeTableRecord
  2
STYLE_07
 70
               0
  3

 72
              65
 73
               6
 40
3.5
 49
1.0
 74
               0
 49
-0.5
 74
               0
 49
1.0
 74
               0
 49
-0.5
 74
               0
 49
0.0001000000000002
 74
               0
 49
-0.4998999999999998
 74
               0
  0
LTYPE
  5
47
100
AcDbSymbolTableRecord
100
AcDbLinetypeTableRecord
  2
STYLE_08
 70
               0
  3

 72
              65
 73
               6
 40
2.5
 49
1.0
 74
               0
 49
-0.5
 74
               0
 49
0.0001
 74
               0
 49
-0.4999
 74
               0
 49
0.0001000000000002
 74
               0
 49
-0.4998999999999998
 74
               0
  0
LTYPE
  5
48
100
AcDbSymbolTableRecord
100
AcDbLinetypeTableRecord
  2
STYLE_09
 70
               0
  3

 72
              65
 73
               6
 40
0.5694427490234375
 49
0.25
 74
               0
 49
-0.0694427490234375
 74
               0
 49
0.0555572509765625
 74
               0
 49
-0.0694427490234375
 74
               0
 49
0.0555572509765625
 74
               0
 49
-0.0694427490234375
 74
               0
  0
LTYPE
  5
49
100
AcDbSymbolTableRecord
100
AcDbLinetypeTableRecord
  2
STYLE_10
 70
               0
  3

 72
              65
 73
               2
 40
0.09722900390625
 49
0.0555572509765625
 74
               0
 49
-0.0416717529296875
 74
               0
  0
LTYPE
  5
4A
100
AcDbSymbolTableRecord
100
AcDbLinetypeTableRecord
  2
STYLE_11
 70
               0
  3

 72
              65
 73
               6
 40
0.5416717529296875
 49
0.25
 74
               0
 49
-0.0555572509765625
 74
               0
 49
0.0555572509765625
 74
               0
 49
-0.0555572509765625
 74
               0
 49
0.0555572509765625
 74
               0
 49
-0.0694427490234375
 74
               0
  0
LTYPE
  5
4B
100
AcDbSymbolTableRecord
100
AcDbLinetypeTableRecord
  2
STYLE_12
 70
               0
  3

 72
              65
 73
               2
 40
0.0833282470703125
 49
0.0555572509765625
 74
               0
 49
-0.02777099609375
 74
               0
  0
LTYPE
  5
4C
100
AcDbSymbolTableRecord
100
AcDbLinetypeTableRecord
  2
STYLE_13
 70
               0
  3

 72
              65
 73
               2
 40
0.0833282470703125
 49
0.041656494140625
 74
               0
 49
-0.0416717529296875
 74
               0
  0
LTYPE
  5
4D
100
AcDbSymbolTableRecord
100
AcDbLinetypeTableRecord
  2
STYLE_14
 70
               0
  3

 72
              65
 73
               4
 40
0.4305572509765625
 49
0.236114501953125
 74
               0
 49
-0.0833282470703125
 74
               0
 49
0.013885498046875
 74
               0
 49
-0.09722900390625
 74
               0
  0
LTYPE
  5
4E
100
AcDbSymbolTableRecord
100
AcDbLinetypeTableRecord
  2
STYLE_15
 70
               0
  3

 72
              65
 73
               2
 40
0.375
 49
0.25
 74
               0
 49
-0.125
 74
               0
  0
LTYPE
  5
4F
100
AcDbSymbolTableRecord
100
AcDbLinetypeTableRecord
  2
STYLE_16
 70
               0
  3

 72
              65
 73
               4
 40
0.2083282470703125
 49
0.125
 74
               0
 49
-0.041656494140625
 74
               0
 49
0.013885498046875
 74
               0
 49
-0.0277862548828125
 74
               0
  0
LTYPE
  5
50
100
AcDbSymbolTableRecord
100
AcDbLinetypeTableRecord
  2
STYLE_17
 70
               0
  3

 72
              65
 73
               2
 40
0.25
 49
0.2083282470703125
 74
               0
 49
-0.0416717529296875
 74
               0
  0
ENDTAB
  0
TABLE
  2
LAYER
  5
2
100
AcDbSymbolTable
 70
               7
  0
LAYER
  5
14
100
AcDbSymbolTableRecord
100
AcDbLayerTableRecord
  2
0
 70
               0
 62
               7
  6
Continuous
290
               1
370
              -3
390
1D
  0
LAYER
  5
51
100
AcDbSymbolTableRecord
100
AcDbLayerTableRecord
  2
Defpoints
 70
               0
 62
               7
  6
Continuous
290
               0
370
              -3
390
1D
  0
LAYER
  5
52
100
AcDbSymbolTableRecord
100
AcDbLayerTableRecord
  2
None
 70
               0
 62
               7
  6
Continuous
290
               1
370
               5
390
1D
  0
LAYER
  5
53
100
AcDbSymbolTableRecord
100
AcDbLayerTableRecord
  2
Dimension
 70
               0
 62
               7
  6
Continuous
290
               1
370
               5
390
1D
  0
LAYER
  5
54
100
AcDbSymbolTableRecord
100
AcDbLayerTableRecord
  2
Solid Lines
 70
               0
 62
               7
  6
Continuous
290
               1
370
              25
390
1D
  0
LAYER
  5
55
100
AcDbSymbolTableRecord
100
AcDbLayerTableRecord
  2
AM_VIS
 70
               0
 62
               7
  6
Continuous
290
               1
370
              15
390
1D
  0
LAYER
  5
56
100
AcDbSymbolTableRecord
100
AcDbLayerTableRecord
  2
AM_HID
 70
               0
 62
               7
  6
STYLE_11
290
               1
370
              15
390
1D
  0
ENDTAB
  0
TABLE
  2
STYLE
  5
3
100
AcDbSymbolTable
 70
               6
  0
STYLE
  5
17
100
AcDbSymbolTableRecord
100
AcDbTextStyleTableRecord
  2
Standard
 70
               0
 40
0.0
 41
1.0
 50
0.0
 71
               0
 42
0.0
  3
txt
  4

  0
STYLE
  5
3B
100
AcDbSymbolTableRecord
100
AcDbTextStyleTableRecord
  2
Arial
 70
               0
 40
0.0
 41
1.0
 50
0.0
 71
               0
 42
0.0
  3
Arial
  4

1001
ACAD
1000
Arial
1071
        0
  0
STYLE
  5
3C
100
AcDbSymbolTableRecord
100
AcDbTextStyleTableRecord
  2
Arial (bold)
 70
               0
 40
0.0
 41
1.0
 50
0.0
 71
               0
 42
0.0
  3
Arial
  4

1001
ACAD
1000
Arial
1071
 33554432
  0
STYLE
  5
3D
100
AcDbSymbolTableRecord
100
AcDbTextStyleTableRecord
  2
Helvetica
 70
               0
 40
0.0
 41
1.0
 50
0.0
 71
               0
 42
0.0
  3
Helvetica
  4

1001
ACAD
1000
Helvetica
1071
        0
  0
STYLE
  5
3E
100
AcDbSymbolTableRecord
100
AcDbTextStyleTableRecord
  2
Helvetica (bold)
 70
               0
 40
0.0
 41
1.0
 50
0.0
 71
               0
 42
0.0
  3
Helvetica
  4

1001
ACAD
1000
Helvetica
1071
 33554432
  0
STYLE
  5
3F
100
AcDbSymbolTableRecord
100
AcDbTextStyleTableRecord
  2
New Century Schlbk
 70
               0
 40
0.0
 41
1.0
 50
0.0
 71
               0
 42
0.0
  3
New Century Schlbk
  4

1001
ACAD
1000
New Century Schlbk
1071
        0
  0
ENDTAB
  0
TABLE
  2
VIEW
  5
5
100
AcDbSymbolTable
 70
               0
  0
ENDTAB
  0
TABLE
  2
UCS
  5
6
100
AcDbSymbolTable
 70
               0
  0
ENDTAB
  0
TABLE
  2
APPID
  5
8
100
AcDbSymbolTable
 70
               1
  0
APPID
  5
16
100
AcDbSymbolTableRecord
100
AcDbRegAppTableRecord
  2
ACAD
 70
               0
  0
ENDTAB
  0
TABLE
  2
DIMSTYLE
  5
9
100
AcDbSymbolTable
 70
               3
100
AcDbDimStyleTable
 71
               0
  0
DIMSTYLE
105
18
100
AcDbSymbolTableRecord
100
AcDbDimStyleTableRecord
  2
Standard
 70
               0
  3

  4

 40
1.0
 41
0.18
 42
0.0625
 43
0.38
 44
0.18
 45
0.0
 46
0.0
 47
0.0
 48
0.0
 71
               0
 72
               0
 73
               1
 74
               1
 75
               0
 76
               0
 77
               0
 78
               0
 79
               0
140
0.18
141
0.09
142
0.0
143
25.399999999999999
144
1.0
145
0.0
146
1.0
147
0.09
148
0.0
170
               0
171
               2
172
               0
173
               0
174
               0
175
               0
176
               0
177
               0
178
               0
179
               0
271
               4
272
               4
273
               2
274
               2
275
               0
276
               0
277
               2
278
              46
279
               0
280
               0
281
               0
282
               0
283
               1
284
               0
285
               0
286
               0
288
               0
289
               3
340
17
341
0
342
0
343
0
344
0
371
              -2
372
              -2
  0
DIMSTYLE
105
5F
100
AcDbSymbolTableRecord
100
AcDbDimStyleTableRecord
  2
IE Standard
 70
               0
  3
<>mm
  4
[]"
 40
1.0
 41
0.79375
 42
0.4762500011827797
 43
6.9999859934672708
 44
0.9525000023655593
 45
0.0
 46
0.0
 47
0.0
 48
0.0
 71
               0
 72
               0
 73
               1
 74
               1
 75
               0
 76
               0
 77
               0
 78
               3
 79
               0
140
0.6315976562499999
141
0.0
142
0.0
143
0.0393700787401575
144
1.0
145
0.0
146
1.0
147
0.0
148
0.0
170
               0
171
               3
172
               1
173
               0
174
               1
175
               0
176
               0
177
               0
178
               0
179
               0
271
               2
272
               2
273
               2
274
               2
275
               0
276
               2
277
               2
278
              46
279
               0
280
               0
281
               0
282
               0
283
               1
284
               3
285
               3
286
               3
288
               0
289
               0
340
3D
341
5B
342
57
343
0
344
0
371
              -2
372
              -2
  0
DIMSTYLE
105
60
100
AcDbSymbolTableRecord
100
AcDbDimStyleTableRecord
  2
ASME Dual SideBySide
 70
               0
  3
<>mm
  4
[]"
 40
1.0
 41
0.79375
 42
0.396875
 43
10.16
 44
0.79375
 45
0.0
 46
0.0
 47
0.0
 48
0.0
 71
               0
 72
               0
 73
               1
 74
               1
 75
               0
 76
               0
 77
               0
 78
               3
 79
               0
140
0.6315976562499999
141
0.0
142
0.0
143
0.0393700787401575
144
1.0
145
0.0
146
1.0
147
0.0
148
0.0
170
               1
171
               3
172
               0
173
               0
174
               1
175
               0
176
               0
177
               0
178
               0
179
               0
271
               2
272
               2
273
               2
274
               2
275
               0
276
               2
277
               2
278
              46
279
               0
280
               0
281
               0
282
               0
283
               1
284
               3
285
               3
286
               3
288
               0
289
               0
340
3D
341
57
342
57
343
0
344
0
371
              -2
372
              -2
  0
ENDTAB
  0
TABLE
  2
BLOCK_RECORD
  5
1
100
AcDbSymbolTable
 70
              25
  0
BLOCK_RECORD
  5
A
100
AcDbSymbolTableRecord
100
AcDbBlockTableRecord
  2
*MODEL_SPACE
340
20
  0
BLOCK_RECORD
  5
B
100
AcDbSymbolTableRecord
100
AcDbBlockTableRecord
  2
*PAPER_SPACE
340
21
  0
BLOCK_RECORD
  5
57
100
AcDbSymbolTableRecord
100
AcDbBlockTableRecord
  2
VW_FILLEDARROW
340
0
  0
BLOCK_RECORD
  5
5B
100
AcDbSymbolTableRecord
100
AcDbBlockTableRecord
  2
VW_FILLEDARROW-1
340
0
  0
BLOCK_RECORD
  5
24
100
AcDbSymbolTableRecord
100
AcDbBlockTableRecord
  2
Group
340
0
102
{BLKREFS
331
2BF
102
}
  0
BLOCK_RECORD
  5
25
100
AcDbSymbolTableRecord
100
AcDbBlockTableRecord
  2
Group-1
340
0
102
{BLKREFS
331
2C0
102
}
  0
BLOCK_RECORD
  5
26
100
AcDbSymbolTableRecord
100
AcDbBlockTableRecord
  2
Group-2
340
0
102
{BLKREFS
331
160
102
}
  0
BLOCK_RECORD
  5
27
100
AcDbSymbolTableRecord
100
AcDbBlockTableRecord
  2
Group-3
340
0
102
{BLKREFS
331
2C1
102
}
  0
BLOCK_RECORD
  5
28
100
AcDbSymbolTableRecord
100
AcDbBlockTableRecord
  2
*D6
340
0
  0
BLOCK_RECORD
  5
29
100
AcDbSymbolTableRecord
100
AcDbBlockTableRecord
  2
*D7
340
0
  0
BLOCK_RECORD
  5
2A
100
AcDbSymbolTableRecord
100
AcDbBlockTableRecord
  2
*D8
340
0
  0
BLOCK_RECORD
  5
2B
100
AcDbSymbolTableRecord
100
AcDbBlockTableRecord
  2
*D9
340
0
  0
BLOCK_RECORD
  5
2C
100
AcDbSymbolTableRecord
100
AcDbBlockTableRecord
  2
*D10
340
0
  0
BLOCK_RECORD
  5
2D
100
AcDbSymbolTableRecord
100
AcDbBlockTableRecord
  2
*D11
340
0
  0
BLOCK_RECORD
  5
2E
100
AcDbSymbolTableRecord
100
AcDbBlockTableRecord
  2
*D12
340
0
  0
BLOCK_RECORD
  5
2F
100
AcDbSymbolTableRecord
100
AcDbBlockTableRecord
  2
*D13
340
0
  0
BLOCK_RECORD
  5
30
100
AcDbSymbolTableRecord
100
AcDbBlockTableRecord
  2
*D14
340
0
  0
BLOCK_RECORD
  5
31
100
AcDbSymbolTableRecord
100
AcDbBlockTableRecord
  2
*D15
340
0
  0
BLOCK_RECORD
  5
32
100
AcDbSymbolTableRecord
100
AcDbBlockTableRecord
  2
*D16
340
0
  0
BLOCK_RECORD
  5
33
100
AcDbSymbolTableRecord
100
AcDbBlockTableRecord
  2
*D17
340
0
  0
BLOCK_RECORD
  5
34
100
AcDbSymbolTableRecord
100
AcDbBlockTableRecord
  2
*D18
340
0
  0
BLOCK_RECORD
  5
35
100
AcDbSymbolTableRecord
100
AcDbBlockTableRecord
  2
*D19
340
0
  0
BLOCK_RECORD
  5
36
100
AcDbSymbolTableRecord
100
AcDbBlockTableRecord
  2
*D20
340
0
  0
BLOCK_RECORD
  5
37
100
AcDbSymbolTableRecord
100
AcDbBlockTableRecord
  2
IE i logo
340
0
102
{BLKREFS
331
2AB
102
}
  0
BLOCK_RECORD
  5
38
100
AcDbSymbolTableRecord
100
AcDbBlockTableRecord
  2
©2006_address
340
0
102
{BLKREFS
331
2AC
102
}
  0
BLOCK_RECORD
  5
39
100
AcDbSymbolTableRecord
100
AcDbBlockTableRecord
  2
Group-4
340
0
102
{BLKREFS
331
2AF
102
}
  0
BLOCK_RECORD
  5
3A
100
AcDbSymbolTableRecord
100
AcDbBlockTableRecord
  2
CG-BGA-4005 title block
340
0
102
{BLKREFS
331
2F7
102
}
  0
ENDTAB
  0
ENDSEC
  0
SECTION
  2
BLOCKS
  0
BLOCK
  5
D
100
AcDbEntity
  8
0
390
0
100
AcDbBlockBegin
  2
*MODEL_SPACE
 70
               0
 10
0.0
 20
0.0
 30
0.0
  3
*MODEL_SPACE
  1

  0
ENDBLK
  5
E
100
AcDbEntity
  8
0
390
0
100
AcDbBlockEnd
  0
BLOCK
  5
F
100
AcDbEntity
 67
               1
  8
0
390
0
100
AcDbBlockBegin
  2
*PAPER_SPACE
 70
               0
 10
0.0
 20
0.0
 30
0.0
  3
*PAPER_SPACE
  1

  0
ENDBLK
  5
10
100
AcDbEntity
 67
               1
  8
0
390
0
100
AcDbBlockEnd
  0
BLOCK
  5
58
100
AcDbEntity
  8
0
370
              -2
390
0
  6
ByBlock
 62
               0
100
AcDbBlockBegin
  2
VW_FILLEDARROW
 70
               0
 10
0.0
 20
0.0
 30
0.0
  3
VW_FILLEDARROW
  1

  0
SOLID
  5
59
100
AcDbEntity
  8
0
370
              -2
390
0
 62
               0
100
AcDbTrace
 10
0.0
 20
0.0
 30
0.0
 11
0.9999389648437499
 21
0.2679328381102956
 31
0.0
 12
0.9999389648437499
 22
-0.2679328381102956
 32
0.0
 13
0.9999389648437499
 23
-0.2679328381102956
 33
0.0
  0
ENDBLK
  5
5A
100
AcDbEntity
  8
0
390
0
100
AcDbBlockEnd
  0
BLOCK
  5
5C
100
AcDbEntity
  8
0
370
              -2
390
0
  6
ByBlock
 62
               0
100
AcDbBlockBegin
  2
VW_FILLEDARROW-1
 70
               0
 10
0.0
 20
0.0
 30
0.0
  3
VW_FILLEDARROW
  1

  0
SOLID
  5
5D
100
AcDbEntity
  8
0
370
              -2
390
0
 62
               0
100
AcDbTrace
 10
0.0
 20
0.0
 30
0.0
 11
0.6662384033203125
 21
0.1785180421362783
 31
0.0
 12
0.6662384033203125
 22
-0.1785180421362783
 32
0.0
 13
0.6662384033203125
 23
-0.1785180421362783
 33
0.0
  0
ENDBLK
  5
5E
100
AcDbEntity
  8
0
390
0
100
AcDbBlockEnd
  0
BLOCK
  5
61
100
AcDbEntity
  8
None
390
0
100
AcDbBlockBegin
  2
Group
 70
               0
 10
0.0
 20
0.0
 30
0.0
  3
Group
  1

  0
CIRCLE
  5
62
102
{ACAD_REACTORS
330
63
102
}
100
AcDbEntity
  8
None
370
               9
390
0
  6
Continuous
 62
               7
100
AcDbCircle
 10
-5.2578252468765694
 20
26.085268415625517
 30
0.0
 40
0.125
  0
HATCH
  5
63
100
AcDbEntity
  8
None
370
               0
390
0
  6
Continuous
 62
               7
100
AcDbHatch
 10
0.0
 20
0.0
 30
0.0
210
0.0
220
0.0
230
1.0
  2
SOLID
 70
               1
 71
               1
 91
        1
 92
        1
 93
        1
 72
               2
 10
-5.2578252468765694
 20
26.085268415625517
 40
0.125
 50
0.0
 51
360.0
 73
               0
 97
        1
330
62
 75
               0
 76
               1
 98
        1
 10
0.0
 20
0.0
  0
CIRCLE
  5
64
102
{ACAD_REACTORS
330
65
102
}
100
AcDbEntity
  8
None
370
               9
390
0
  6
Continuous
 62
               7
100
AcDbCircle
 10
-4.7578252468765694
 20
26.085268415625517
 30
0.0
 40
0.125
  0
HATCH
  5
65
100
AcDbEntity
  8
None
370
               0
390
0
  6
Continuous
 62
               7
100
AcDbHatch
 10
0.0
 20
0.0
 30
0.0
210
0.0
220
0.0
230
1.0
  2
SOLID
 70
               1
 71
               1
 91
        1
 92
        1
 93
        1
 72
               2
 10
-4.7578252468765694
 20
26.085268415625517
 40
0.125
 50
0.0
 51
360.0
 73
               0
 97
        1
330
64
 75
               0
 76
               1
 98
        1
 10
0.0
 20
0.0
  0
CIRCLE
  5
66
102
{ACAD_REACTORS
330
67
102
}
100
AcDbEntity
  8
None
370
               9
390
0
  6
Continuous
 62
               7
100
AcDbCircle
 10
-4.2578252468765694
 20
26.085268415625517
 30
0.0
 40
0.125
  0
HATCH
  5
67
100
AcDbEntity
  8
None
370
               0
390
0
  6
Continuous
 62
               7
100
AcDbHatch
 10
0.0
 20
0.0
 30
0.0
210
0.0
220
0.0
230
1.0
  2
SOLID
 70
               1
 71
               1
 91
        1
 92
        1
 93
        1
 72
               2
 10
-4.2578252468765694
 20
26.085268415625517
 40
0.125
 50
0.0
 51
360.0
 73
               0
 97
        1
330
66
 75
               0
 76
               1
 98
        1
 10
0.0
 20
0.0
  0
CIRCLE
  5
68
102
{ACAD_REACTORS
330
69
102
}
100
AcDbEntity
  8
None
370
               9
390
0
  6
Continuous
 62
               7
100
AcDbCircle
 10
-3.7578252468765707
 20
26.085268415625517
 30
0.0
 40
0.1249999999999996
  0
HATCH
  5
69
100
AcDbEntity
  8
None
370
               0
390
0
  6
Continuous
 62
               7
100
AcDbHatch
 10
0.0
 20
0.0
 30
0.0
210
0.0
220
0.0
230
1.0
  2
SOLID
 70
               1
 71
               1
 91
        1
 92
        1
 93
        1
 72
               2
 10
-3.7578252468765707
 20
26.085268415625517
 40
0.1249999999999996
 50
0.0
 51
360.0
 73
               0
 97
        1
330
68
 75
               0
 76
               1
 98
        1
 10
0.0
 20
0.0
  0
CIRCLE
  5
6A
102
{ACAD_REACTORS
330
6B
102
}
100
AcDbEntity
  8
None
370
               9
390
0
  6
Continuous
 62
               7
100
AcDbCircle
 10
-3.2578252468765725
 20
26.085268415625517
 30
0.0
 40
0.1249999999999996
  0
HATCH
  5
6B
100
AcDbEntity
  8
None
370
               0
390
0
  6
Continuous
 62
               7
100
AcDbHatch
 10
0.0
 20
0.0
 30
0.0
210
0.0
220
0.0
230
1.0
  2
SOLID
 70
               1
 71
               1
 91
        1
 92
        1
 93
        1
 72
               2
 10
-3.2578252468765725
 20
26.085268415625517
 40
0.1249999999999996
 50
0.0
 51
360.0
 73
               0
 97
        1
330
6A
 75
               0
 76
               1
 98
        1
 10
0.0
 20
0.0
  0
CIRCLE
  5
6C
102
{ACAD_REACTORS
330
6D
102
}
100
AcDbEntity
  8
None
370
               9
390
0
  6
Continuous
 62
               7
100
AcDbCircle
 10
-2.7578252468765743
 20
26.085268415625517
 30
0.0
 40
0.1249999999999996
  0
HATCH
  5
6D
100
AcDbEntity
  8
None
370
               0
390
0
  6
Continuous
 62
               7
100
AcDbHatch
 10
0.0
 20
0.0
 30
0.0
210
0.0
220
0.0
230
1.0
  2
SOLID
 70
               1
 71
               1
 91
        1
 92
        1
 93
        1
 72
               2
 10
-2.7578252468765743
 20
26.085268415625517
 40
0.1249999999999996
 50
0.0
 51
360.0
 73
               0
 97
        1
330
6C
 75
               0
 76
               1
 98
        1
 10
0.0
 20
0.0
  0
CIRCLE
  5
6E
102
{ACAD_REACTORS
330
6F
102
}
100
AcDbEntity
  8
None
370
               9
390
0
  6
Continuous
 62
               7
100
AcDbCircle
 10
-2.2578252468765765
 20
26.085268415625517
 30
0.0
 40
0.1249999999999996
  0
HATCH
  5
6F
100
AcDbEntity
  8
None
370
               0
390
0
  6
Continuous
 62
               7
100
AcDbHatch
 10
0.0
 20
0.0
 30
0.0
210
0.0
220
0.0
230
1.0
  2
SOLID
 70
               1
 71
               1
 91
        1
 92
        1
 93
        1
 72
               2
 10
-2.2578252468765765
 20
26.085268415625517
 40
0.1249999999999996
 50
0.0
 51
360.0
 73
               0
 97
        1
330
6E
 75
               0
 76
               1
 98
        1
 10
0.0
 20
0.0
  0
CIRCLE
  5
70
102
{ACAD_REACTORS
330
71
102
}
100
AcDbEntity
  8
None
370
               9
390
0
  6
Continuous
 62
               7
100
AcDbCircle
 10
-1.7578252468765783
 20
26.085268415625517
 30
0.0
 40
0.1249999999999996
  0
HATCH
  5
71
100
AcDbEntity
  8
None
370
               0
390
0
  6
Continuous
 62
               7
100
AcDbHatch
 10
0.0
 20
0.0
 30
0.0
210
0.0
220
0.0
230
1.0
  2
SOLID
 70
               1
 71
               1
 91
        1
 92
        1
 93
        1
 72
               2
 10
-1.7578252468765783
 20
26.085268415625517
 40
0.1249999999999996
 50
0.0
 51
360.0
 73
               0
 97
        1
330
70
 75
               0
 76
               1
 98
        1
 10
0.0
 20
0.0
  0
CIRCLE
  5
72
102
{ACAD_REACTORS
330
73
102
}
100
AcDbEntity
  8
None
370
               9
390
0
  6
Continuous
 62
               7
100
AcDbCircle
 10
-1.25782524687658
 20
26.085268415625517
 30
0.0
 40
0.1249999999999996
  0
HATCH
  5
73
100
AcDbEntity
  8
None
370
               0
390
0
  6
Continuous
 62
               7
100
AcDbHatch
 10
0.0
 20
0.0
 30
0.0
210
0.0
220
0.0
230
1.0
  2
SOLID
 70
               1
 71
               1
 91
        1
 92
        1
 93
        1
 72
               2
 10
-1.25782524687658
 20
26.085268415625517
 40
0.1249999999999996
 50
0.0
 51
360.0
 73
               0
 97
        1
330
72
 75
               0
 76
               1
 98
        1
 10
0.0
 20
0.0
  0
CIRCLE
  5
74
102
{ACAD_REACTORS
330
75
102
}
100
AcDbEntity
  8
None
370
               9
390
0
  6
Continuous
 62
               7
100
AcDbCircle
 10
-0.7578252468765823
 20
26.085268415625517
 30
0.0
 40
0.1249999999999996
  0
HATCH
  5
75
100
AcDbEntity
  8
None
370
               0
390
0
  6
Continuous
 62
               7
100
AcDbHatch
 10
0.0
 20
0.0
 30
0.0
210
0.0
220
0.0
230
1.0
  2
SOLID
 70
               1
 71
               1
 91
        1
 92
        1
 93
        1
 72
               2
 10
-0.7578252468765823
 20
26.085268415625517
 40
0.1249999999999996
 50
0.0
 51
360.0
 73
               0
 97
        1
330
74
 75
               0
 76
               1
 98
        1
 10
0.0
 20
0.0
  0
CIRCLE
  5
76
102
{ACAD_REACTORS
330
77
102
}
100
AcDbEntity
  8
None
370
               9
390
0
  6
Continuous
 62
               7
100
AcDbCircle
 10
-0.2578252468765827
 20
26.085268415625517
 30
0.0
 40
0.125
  0
HATCH
  5
77
100
AcDbEntity
  8
None
370
               0
390
0
  6
Continuous
 62
               7
100
AcDbHatch
 10
0.0
 20
0.0
 30
0.0
210
0.0
220
0.0
230
1.0
  2
SOLID
 70
               1
 71
               1
 91
        1
 92
        1
 93
        1
 72
               2
 10
-0.2578252468765827
 20
26.085268415625517
 40
0.125
 50
0.0
 51
360.0
 73
               0
 97
        1
330
76
 75
               0
 76
               1
 98
        1
 10
0.0
 20
0.0
  0
CIRCLE
  5
78
102
{ACAD_REACTORS
330
79
102
}
100
AcDbEntity
  8
None
370
               9
390
0
  6
Continuous
 62
               7
100
AcDbCircle
 10
0.2421747531234173
 20
26.085268415625517
 30
0.0
 40
0.125
  0
HATCH
  5
79
100
AcDbEntity
  8
None
370
               0
390
0
  6
Continuous
 62
               7
100
AcDbHatch
 10
0.0
 20
0.0
 30
0.0
210
0.0
220
0.0
230
1.0
  2
SOLID
 70
               1
 71
               1
 91
        1
 92
        1
 93
        1
 72
               2
 10
0.2421747531234173
 20
26.085268415625517
 40
0.125
 50
0.0
 51
360.0
 73
               0
 97
        1
330
78
 75
               0
 76
               1
 98
        1
 10
0.0
 20
0.0
  0
CIRCLE
  5
7A
102
{ACAD_REACTORS
330
7B
102
}
100
AcDbEntity
  8
None
370
               9
390
0
  6
Continuous
 62
               7
100
AcDbCircle
 10
-5.2578252468765694
 20
26.585268415625517
 30
0.0
 40
0.125
  0
HATCH
  5
7B
100
AcDbEntity
  8
None
370
               0
390
0
  6
Continuous
 62
               7
100
AcDbHatch
 10
0.0
 20
0.0
 30
0.0
210
0.0
220
0.0
230
1.0
  2
SOLID
 70
               1
 71
               1
 91
        1
 92
        1
 93
        1
 72
               2
 10
-5.2578252468765694
 20
26.585268415625517
 40
0.125
 50
0.0
 51
360.0
 73
               0
 97
        1
330
7A
 75
               0
 76
               1
 98
        1
 10
0.0
 20
0.0
  0
CIRCLE
  5
7C
102
{ACAD_REACTORS
330
7D
102
}
100
AcDbEntity
  8
None
370
               9
390
0
  6
Continuous
 62
               7
100
AcDbCircle
 10
-4.7578252468765694
 20
26.585268415625517
 30
0.0
 40
0.125
  0
HATCH
  5
7D
100
AcDbEntity
  8
None
370
               0
390
0
  6
Continuous
 62
               7
100
AcDbHatch
 10
0.0
 20
0.0
 30
0.0
210
0.0
220
0.0
230
1.0
  2
SOLID
 70
               1
 71
               1
 91
        1
 92
        1
 93
        1
 72
               2
 10
-4.7578252468765694
 20
26.585268415625517
 40
0.125
 50
0.0
 51
360.0
 73
               0
 97
        1
330
7C
 75
               0
 76
               1
 98
        1
 10
0.0
 20
0.0
  0
CIRCLE
  5
7E
102
{ACAD_REACTORS
330
7F
102
}
100
AcDbEntity
  8
None
370
               9
390
0
  6
Continuous
 62
               7
100
AcDbCircle
 10
-4.2578252468765694
 20
26.585268415625517
 30
0.0
 40
0.125
  0
HATCH
  5
7F
100
AcDbEntity
  8
None
370
               0
390
0
  6
Continuous
 62
               7
100
AcDbHatch
 10
0.0
 20
0.0
 30
0.0
210
0.0
220
0.0
230
1.0
  2
SOLID
 70
               1
 71
               1
 91
        1
 92
        1
 93
        1
 72
               2
 10
-4.2578252468765694
 20
26.585268415625517
 40
0.125
 50
0.0
 51
360.0
 73
               0
 97
        1
330
7E
 75
               0
 76
               1
 98
        1
 10
0.0
 20
0.0
  0
CIRCLE
  5
80
102
{ACAD_REACTORS
330
81
102
}
100
AcDbEntity
  8
None
370
               9
390
0
  6
Continuous
 62
               7
100
AcDbCircle
 10
-3.7578252468765707
 20
26.585268415625517
 30
0.0
 40
0.1249999999999996
  0
HATCH
  5
81
100
AcDbEntity
  8
None
370
               0
390
0
  6
Continuous
 62
               7
100
AcDbHatch
 10
0.0
 20
0.0
 30
0.0
210
0.0
220
0.0
230
1.0
  2
SOLID
 70
               1
 71
               1
 91
        1
 92
        1
 93
        1
 72
               2
 10
-3.7578252468765707
 20
26.585268415625517
 40
0.1249999999999996
 50
0.0
 51
360.0
 73
               0
 97
        1
330
80
 75
               0
 76
               1
 98
        1
 10
0.0
 20
0.0
  0
CIRCLE
  5
82
102
{ACAD_REACTORS
330
83
102
}
100
AcDbEntity
  8
None
370
               9
390
0
  6
Continuous
 62
               7
100
AcDbCircle
 10
-3.2578252468765725
 20
26.585268415625517
 30
0.0
 40
0.1249999999999996
  0
HATCH
  5
83
100
AcDbEntity
  8
None
370
               0
390
0
  6
Continuous
 62
               7
100
AcDbHatch
 10
0.0
 20
0.0
 30
0.0
210
0.0
220
0.0
230
1.0
  2
SOLID
 70
               1
 71
               1
 91
        1
 92
        1
 93
        1
 72
               2
 10
-3.2578252468765725
 20
26.585268415625517
 40
0.1249999999999996
 50
0.0
 51
360.0
 73
               0
 97
        1
330
82
 75
               0
 76
               1
 98
        1
 10
0.0
 20
0.0
  0
CIRCLE
  5
84
102
{ACAD_REACTORS
330
85
102
}
100
AcDbEntity
  8
None
370
               9
390
0
  6
Continuous
 62
               7
100
AcDbCircle
 10
-2.7578252468765743
 20
26.585268415625517
 30
0.0
 40
0.1249999999999996
  0
HATCH
  5
85
100
AcDbEntity
  8
None
370
               0
390
0
  6
Continuous
 62
               7
100
AcDbHatch
 10
0.0
 20
0.0
 30
0.0
210
0.0
220
0.0
230
1.0
  2
SOLID
 70
               1
 71
               1
 91
        1
 92
        1
 93
        1
 72
               2
 10
-2.7578252468765743
 20
26.585268415625517
 40
0.1249999999999996
 50
0.0
 51
360.0
 73
               0
 97
        1
330
84
 75
               0
 76
               1
 98
        1
 10
0.0
 20
0.0
  0
CIRCLE
  5
86
102
{ACAD_REACTORS
330
87
102
}
100
AcDbEntity
  8
None
370
               9
390
0
  6
Continuous
 62
               7
100
AcDbCircle
 10
-2.2578252468765765
 20
26.585268415625517
 30
0.0
 40
0.1249999999999996
  0
HATCH
  5
87
100
AcDbEntity
  8
None
370
               0
390
0
  6
Continuous
 62
               7
100
AcDbHatch
 10
0.0
 20
0.0
 30
0.0
210
0.0
220
0.0
230
1.0
  2
SOLID
 70
               1
 71
               1
 91
        1
 92
        1
 93
        1
 72
               2
 10
-2.2578252468765765
 20
26.585268415625517
 40
0.1249999999999996
 50
0.0
 51
360.0
 73
               0
 97
        1
330
86
 75
               0
 76
               1
 98
        1
 10
0.0
 20
0.0
  0
CIRCLE
  5
88
102
{ACAD_REACTORS
330
89
102
}
100
AcDbEntity
  8
None
370
               9
390
0
  6
Continuous
 62
               7
100
AcDbCircle
 10
-1.7578252468765783
 20
26.585268415625517
 30
0.0
 40
0.1249999999999996
  0
HATCH
  5
89
100
AcDbEntity
  8
None
370
               0
390
0
  6
Continuous
 62
               7
100
AcDbHatch
 10
0.0
 20
0.0
 30
0.0
210
0.0
220
0.0
230
1.0
  2
SOLID
 70
               1
 71
               1
 91
        1
 92
        1
 93
        1
 72
               2
 10
-1.7578252468765783
 20
26.585268415625517
 40
0.1249999999999996
 50
0.0
 51
360.0
 73
               0
 97
        1
330
88
 75
               0
 76
               1
 98
        1
 10
0.0
 20
0.0
  0
CIRCLE
  5
8A
102
{ACAD_REACTORS
330
8B
102
}
100
AcDbEntity
  8
None
370
               9
390
0
  6
Continuous
 62
               7
100
AcDbCircle
 10
-1.25782524687658
 20
26.585268415625517
 30
0.0
 40
0.1249999999999996
  0
HATCH
  5
8B
100
AcDbEntity
  8
None
370
               0
390
0
  6
Continuous
 62
               7
100
AcDbHatch
 10
0.0
 20
0.0
 30
0.0
210
0.0
220
0.0
230
1.0
  2
SOLID
 70
               1
 71
               1
 91
        1
 92
        1
 93
        1
 72
               2
 10
-1.25782524687658
 20
26.585268415625517
 40
0.1249999999999996
 50
0.0
 51
360.0
 73
               0
 97
        1
330
8A
 75
               0
 76
               1
 98
        1
 10
0.0
 20
0.0
  0
CIRCLE
  5
8C
102
{ACAD_REACTORS
330
8D
102
}
100
AcDbEntity
  8
None
370
               9
390
0
  6
Continuous
 62
               7
100
AcDbCircle
 10
-0.7578252468765823
 20
26.585268415625517
 30
0.0
 40
0.1249999999999996
  0
HATCH
  5
8D
100
AcDbEntity
  8
None
370
               0
390
0
  6
Continuous
 62
               7
100
AcDbHatch
 10
0.0
 20
0.0
 30
0.0
210
0.0
220
0.0
230
1.0
  2
SOLID
 70
               1
 71
               1
 91
        1
 92
        1
 93
        1
 72
               2
 10
-0.7578252468765823
 20
26.585268415625517
 40
0.1249999999999996
 50
0.0
 51
360.0
 73
               0
 97
        1
330
8C
 75
               0
 76
               1
 98
        1
 10
0.0
 20
0.0
  0
CIRCLE
  5
8E
102
{ACAD_REACTORS
330
8F
102
}
100
AcDbEntity
  8
None
370
               9
390
0
  6
Continuous
 62
               7
100
AcDbCircle
 10
-0.2578252468765827
 20
26.585268415625517
 30
0.0
 40
0.125
  0
HATCH
  5
8F
100
AcDbEntity
  8
None
370
               0
390
0
  6
Continuous
 62
               7
100
AcDbHatch
 10
0.0
 20
0.0
 30
0.0
210
0.0
220
0.0
230
1.0
  2
SOLID
 70
               1
 71
               1
 91
        1
 92
        1
 93
        1
 72
               2
 10
-0.2578252468765827
 20
26.585268415625517
 40
0.125
 50
0.0
 51
360.0
 73
               0
 97
        1
330
8E
 75
               0
 76
               1
 98
        1
 10
0.0
 20
0.0
  0
CIRCLE
  5
90
102
{ACAD_REACTORS
330
91
102
}
100
AcDbEntity
  8
None
370
               9
390
0
  6
Continuous
 62
               7
100
AcDbCircle
 10
0.2421747531234173
 20
26.585268415625517
 30
0.0
 40
0.125
  0
HATCH
  5
91
100
AcDbEntity
  8
None
370
               0
390
0
  6
Continuous
 62
               7
100
AcDbHatch
 10
0.0
 20
0.0
 30
0.0
210
0.0
220
0.0
230
1.0
  2
SOLID
 70
               1
 71
               1
 91
        1
 92
        1
 93
        1
 72
               2
 10
0.2421747531234173
 20
26.585268415625517
 40
0.125
 50
0.0
 51
360.0
 73
               0
 97
        1
330
90
 75
               0
 76
               1
 98
        1
 10
0.0
 20
0.0
  0
CIRCLE
  5
92
102
{ACAD_REACTORS
330
93
102
}
100
AcDbEntity
  8
None
370
               9
390
0
  6
Continuous
 62
               7
100
AcDbCircle
 10
-5.2578252468765694
 20
27.085268415625517
 30
0.0
 40
0.125
  0
HATCH
  5
93
100
AcDbEntity
  8
None
370
               0
390
0
  6
Continuous
 62
               7
100
AcDbHatch
 10
0.0
 20
0.0
 30
0.0
210
0.0
220
0.0
230
1.0
  2
SOLID
 70
               1
 71
               1
 91
        1
 92
        1
 93
        1
 72
               2
 10
-5.2578252468765694
 20
27.085268415625517
 40
0.125
 50
0.0
 51
360.0
 73
               0
 97
        1
330
92
 75
               0
 76
               1
 98
        1
 10
0.0
 20
0.0
  0
CIRCLE
  5
94
102
{ACAD_REACTORS
330
95
102
}
100
AcDbEntity
  8
None
370
               9
390
0
  6
Continuous
 62
               7
100
AcDbCircle
 10
-4.7578252468765694
 20
27.085268415625517
 30
0.0
 40
0.125
  0
HATCH
  5
95
100
AcDbEntity
  8
None
370
               0
390
0
  6
Continuous
 62
               7
100
AcDbHatch
 10
0.0
 20
0.0
 30
0.0
210
0.0
220
0.0
230
1.0
  2
SOLID
 70
               1
 71
               1
 91
        1
 92
        1
 93
        1
 72
               2
 10
-4.7578252468765694
 20
27.085268415625517
 40
0.125
 50
0.0
 51
360.0
 73
               0
 97
        1
330
94
 75
               0
 76
               1
 98
        1
 10
0.0
 20
0.0
  0
CIRCLE
  5
96
102
{ACAD_REACTORS
330
97
102
}
100
AcDbEntity
  8
None
370
               9
390
0
  6
Continuous
 62
               7
100
AcDbCircle
 10
-4.2578252468765694
 20
27.085268415625517
 30
0.0
 40
0.125
  0
HATCH
  5
97
100
AcDbEntity
  8
None
370
               0
390
0
  6
Continuous
 62
               7
100
AcDbHatch
 10
0.0
 20
0.0
 30
0.0
210
0.0
220
0.0
230
1.0
  2
SOLID
 70
               1
 71
               1
 91
        1
 92
        1
 93
        1
 72
               2
 10
-4.2578252468765694
 20
27.085268415625517
 40
0.125
 50
0.0
 51
360.0
 73
               0
 97
        1
330
96
 75
               0
 76
               1
 98
        1
 10
0.0
 20
0.0
  0
CIRCLE
  5
98
102
{ACAD_REACTORS
330
99
102
}
100
AcDbEntity
  8
None
370
               9
390
0
  6
Continuous
 62
               7
100
AcDbCircle
 10
-3.7578252468765707
 20
27.085268415625517
 30
0.0
 40
0.1249999999999996
  0
HATCH
  5
99
100
AcDbEntity
  8
None
370
               0
390
0
  6
Continuous
 62
               7
100
AcDbHatch
 10
0.0
 20
0.0
 30
0.0
210
0.0
220
0.0
230
1.0
  2
SOLID
 70
               1
 71
               1
 91
        1
 92
        1
 93
        1
 72
               2
 10
-3.7578252468765707
 20
27.085268415625517
 40
0.1249999999999996
 50
0.0
 51
360.0
 73
               0
 97
        1
330
98
 75
               0
 76
               1
 98
        1
 10
0.0
 20
0.0
  0
CIRCLE
  5
9A
102
{ACAD_REACTORS
330
9B
102
}
100
AcDbEntity
  8
None
370
               9
390
0
  6
Continuous
 62
               7
100
AcDbCircle
 10
-3.2578252468765725
 20
27.085268415625517
 30
0.0
 40
0.1249999999999996
  0
HATCH
  5
9B
100
AcDbEntity
  8
None
370
               0
390
0
  6
Continuous
 62
               7
100
AcDbHatch
 10
0.0
 20
0.0
 30
0.0
210
0.0
220
0.0
230
1.0
  2
SOLID
 70
               1
 71
               1
 91
        1
 92
        1
 93
        1
 72
               2
 10
-3.2578252468765725
 20
27.085268415625517
 40
0.1249999999999996
 50
0.0
 51
360.0
 73
               0
 97
        1
330
9A
 75
               0
 76
               1
 98
        1
 10
0.0
 20
0.0
  0
CIRCLE
  5
9C
102
{ACAD_REACTORS
330
9D
102
}
100
AcDbEntity
  8
None
370
               9
390
0
  6
Continuous
 62
               7
100
AcDbCircle
 10
-2.7578252468765743
 20
27.085268415625517
 30
0.0
 40
0.1249999999999996
  0
HATCH
  5
9D
100
AcDbEntity
  8
None
370
               0
390
0
  6
Continuous
 62
               7
100
AcDbHatch
 10
0.0
 20
0.0
 30
0.0
210
0.0
220
0.0
230
1.0
  2
SOLID
 70
               1
 71
               1
 91
        1
 92
        1
 93
        1
 72
               2
 10
-2.7578252468765743
 20
27.085268415625517
 40
0.1249999999999996
 50
0.0
 51
360.0
 73
               0
 97
        1
330
9C
 75
               0
 76
               1
 98
        1
 10
0.0
 20
0.0
  0
CIRCLE
  5
9E
102
{ACAD_REACTORS
330
9F
102
}
100
AcDbEntity
  8
None
370
               9
390
0
  6
Continuous
 62
               7
100
AcDbCircle
 10
-2.2578252468765765
 20
27.085268415625517
 30
0.0
 40
0.1249999999999996
  0
HATCH
  5
9F
100
AcDbEntity
  8
None
370
               0
390
0
  6
Continuous
 62
               7
100
AcDbHatch
 10
0.0
 20
0.0
 30
0.0
210
0.0
220
0.0
230
1.0
  2
SOLID
 70
               1
 71
               1
 91
        1
 92
        1
 93
        1
 72
               2
 10
-2.2578252468765765
 20
27.085268415625517
 40
0.1249999999999996
 50
0.0
 51
360.0
 73
               0
 97
        1
330
9E
 75
               0
 76
               1
 98
        1
 10
0.0
 20
0.0
  0
CIRCLE
  5
A0
102
{ACAD_REACTORS
330
A1
102
}
100
AcDbEntity
  8
None
370
               9
390
0
  6
Continuous
 62
               7
100
AcDbCircle
 10
-1.7578252468765783
 20
27.085268415625517
 30
0.0
 40
0.1249999999999996
  0
HATCH
  5
A1
100
AcDbEntity
  8
None
370
               0
390
0
  6
Continuous
 62
               7
100
AcDbHatch
 10
0.0
 20
0.0
 30
0.0
210
0.0
220
0.0
230
1.0
  2
SOLID
 70
               1
 71
               1
 91
        1
 92
        1
 93
        1
 72
               2
 10
-1.7578252468765783
 20
27.085268415625517
 40
0.1249999999999996
 50
0.0
 51
360.0
 73
               0
 97
        1
330
A0
 75
               0
 76
               1
 98
        1
 10
0.0
 20
0.0
  0
CIRCLE
  5
A2
102
{ACAD_REACTORS
330
A3
102
}
100
AcDbEntity
  8
None
370
               9
390
0
  6
Continuous
 62
               7
100
AcDbCircle
 10
-1.25782524687658
 20
27.085268415625517
 30
0.0
 40
0.1249999999999996
  0
HATCH
  5
A3
100
AcDbEntity
  8
None
370
               0
390
0
  6
Continuous
 62
               7
100
AcDbHatch
 10
0.0
 20
0.0
 30
0.0
210
0.0
220
0.0
230
1.0
  2
SOLID
 70
               1
 71
               1
 91
        1
 92
        1
 93
        1
 72
               2
 10
-1.25782524687658
 20
27.085268415625517
 40
0.1249999999999996
 50
0.0
 51
360.0
 73
               0
 97
        1
330
A2
 75
               0
 76
               1
 98
        1
 10
0.0
 20
0.0
  0
CIRCLE
  5
A4
102
{ACAD_REACTORS
330
A5
102
}
100
AcDbEntity
  8
None
370
               9
390
0
  6
Continuous
 62
               7
100
AcDbCircle
 10
-0.7578252468765823
 20
27.085268415625517
 30
0.0
 40
0.1249999999999996
  0
HATCH
  5
A5
100
AcDbEntity
  8
None
370
               0
390
0
  6
Continuous
 62
               7
100
AcDbHatch
 10
0.0
 20
0.0
 30
0.0
210
0.0
220
0.0
230
1.0
  2
SOLID
 70
               1
 71
               1
 91
        1
 92
        1
 93
        1
 72
               2
 10
-0.7578252468765823
 20
27.085268415625517
 40
0.1249999999999996
 50
0.0
 51
360.0
 73
               0
 97
        1
330
A4
 75
               0
 76
               1
 98
        1
 10
0.0
 20
0.0
  0
CIRCLE
  5
A6
102
{ACAD_REACTORS
330
A7
102
}
100
AcDbEntity
  8
None
370
               9
390
0
  6
Continuous
 62
               7
100
AcDbCircle
 10
-0.2578252468765827
 20
27.085268415625517
 30
0.0
 40
0.125
  0
HATCH
  5
A7
100
AcDbEntity
  8
None
370
               0
390
0
  6
Continuous
 62
               7
100
AcDbHatch
 10
0.0
 20
0.0
 30
0.0
210
0.0
220
0.0
230
1.0
  2
SOLID
 70
               1
 71
               1
 91
        1
 92
        1
 93
        1
 72
               2
 10
-0.2578252468765827
 20
27.085268415625517
 40
0.125
 50
0.0
 51
360.0
 73
               0
 97
        1
330
A6
 75
               0
 76
               1
 98
        1
 10
0.0
 20
0.0
  0
CIRCLE
  5
A8
102
{ACAD_REACTORS
330
A9
102
}
100
AcDbEntity
  8
None
370
               9
390
0
  6
Continuous
 62
               7
100
AcDbCircle
 10
0.2421747531234173
 20
27.085268415625517
 30
0.0
 40
0.125
  0
HATCH
  5
A9
100
AcDbEntity
  8
None
370
               0
390
0
  6
Continuous
 62
               7
100
AcDbHatch
 10
0.0
 20
0.0
 30
0.0
210
0.0
220
0.0
230
1.0
  2
SOLID
 70
               1
 71
               1
 91
        1
 92
        1
 93
        1
 72
               2
 10
0.2421747531234173
 20
27.085268415625517
 40
0.125
 50
0.0
 51
360.0
 73
               0
 97
        1
330
A8
 75
               0
 76
               1
 98
        1
 10
0.0
 20
0.0
  0
CIRCLE
  5
AA
102
{ACAD_REACTORS
330
AB
102
}
100
AcDbEntity
  8
None
370
               9
390
0
  6
Continuous
 62
               7
100
AcDbCircle
 10
-5.2578252468765694
 20
27.585268415625517
 30
0.0
 40
0.125
  0
HATCH
  5
AB
100
AcDbEntity
  8
None
370
               0
390
0
  6
Continuous
 62
               7
100
AcDbHatch
 10
0.0
 20
0.0
 30
0.0
210
0.0
220
0.0
230
1.0
  2
SOLID
 70
               1
 71
               1
 91
        1
 92
        1
 93
        1
 72
               2
 10
-5.2578252468765694
 20
27.585268415625517
 40
0.125
 50
0.0
 51
360.0
 73
               0
 97
        1
330
AA
 75
               0
 76
               1
 98
        1
 10
0.0
 20
0.0
  0
CIRCLE
  5
AC
102
{ACAD_REACTORS
330
AD
102
}
100
AcDbEntity
  8
None
370
               9
390
0
  6
Continuous
 62
               7
100
AcDbCircle
 10
-4.7578252468765694
 20
27.585268415625517
 30
0.0
 40
0.125
  0
HATCH
  5
AD
100
AcDbEntity
  8
None
370
               0
390
0
  6
Continuous
 62
               7
100
AcDbHatch
 10
0.0
 20
0.0
 30
0.0
210
0.0
220
0.0
230
1.0
  2
SOLID
 70
               1
 71
               1
 91
        1
 92
        1
 93
        1
 72
               2
 10
-4.7578252468765694
 20
27.585268415625517
 40
0.125
 50
0.0
 51
360.0
 73
               0
 97
        1
330
AC
 75
               0
 76
               1
 98
        1
 10
0.0
 20
0.0
  0
CIRCLE
  5
AE
102
{ACAD_REACTORS
330
AF
102
}
100
AcDbEntity
  8
None
370
               9
390
0
  6
Continuous
 62
               7
100
AcDbCircle
 10
-4.2578252468765694
 20
27.585268415625517
 30
0.0
 40
0.125
  0
HATCH
  5
AF
100
AcDbEntity
  8
None
370
               0
390
0
  6
Continuous
 62
               7
100
AcDbHatch
 10
0.0
 20
0.0
 30
0.0
210
0.0
220
0.0
230
1.0
  2
SOLID
 70
               1
 71
               1
 91
        1
 92
        1
 93
        1
 72
               2
 10
-4.2578252468765694
 20
27.585268415625517
 40
0.125
 50
0.0
 51
360.0
 73
               0
 97
        1
330
AE
 75
               0
 76
               1
 98
        1
 10
0.0
 20
0.0
  0
CIRCLE
  5
B0
102
{ACAD_REACTORS
330
B1
102
}
100
AcDbEntity
  8
None
370
               9
390
0
  6
Continuous
 62
               7
100
AcDbCircle
 10
-3.7578252468765707
 20
27.585268415625517
 30
0.0
 40
0.1249999999999996
  0
HATCH
  5
B1
100
AcDbEntity
  8
None
370
               0
390
0
  6
Continuous
 62
               7
100
AcDbHatch
 10
0.0
 20
0.0
 30
0.0
210
0.0
220
0.0
230
1.0
  2
SOLID
 70
               1
 71
               1
 91
        1
 92
        1
 93
        1
 72
               2
 10
-3.7578252468765707
 20
27.585268415625517
 40
0.1249999999999996
 50
0.0
 51
360.0
 73
               0
 97
        1
330
B0
 75
               0
 76
               1
 98
        1
 10
0.0
 20
0.0
  0
CIRCLE
  5
B2
102
{ACAD_REACTORS
330
B3
102
}
100
AcDbEntity
  8
None
370
               9
390
0
  6
Continuous
 62
               7
100
AcDbCircle
 10
-3.2578252468765725
 20
27.585268415625517
 30
0.0
 40
0.1249999999999996
  0
HATCH
  5
B3
100
AcDbEntity
  8
None
370
               0
390
0
  6
Continuous
 62
               7
100
AcDbHatch
 10
0.0
 20
0.0
 30
0.0
210
0.0
220
0.0
230
1.0
  2
SOLID
 70
               1
 71
               1
 91
        1
 92
        1
 93
        1
 72
               2
 10
-3.2578252468765725
 20
27.585268415625517
 40
0.1249999999999996
 50
0.0
 51
360.0
 73
               0
 97
        1
330
B2
 75
               0
 76
               1
 98
        1
 10
0.0
 20
0.0
  0
CIRCLE
  5
B4
102
{ACAD_REACTORS
330
B5
102
}
100
AcDbEntity
  8
None
370
               9
390
0
  6
Continuous
 62
               7
100
AcDbCircle
 10
-2.7578252468765743
 20
27.585268415625517
 30
0.0
 40
0.1249999999999996
  0
HATCH
  5
B5
100
AcDbEntity
  8
None
370
               0
390
0
  6
Continuous
 62
               7
100
AcDbHatch
 10
0.0
 20
0.0
 30
0.0
210
0.0
220
0.0
230
1.0
  2
SOLID
 70
               1
 71
               1
 91
        1
 92
        1
 93
        1
 72
               2
 10
-2.7578252468765743
 20
27.585268415625517
 40
0.1249999999999996
 50
0.0
 51
360.0
 73
               0
 97
        1
330
B4
 75
               0
 76
               1
 98
        1
 10
0.0
 20
0.0
  0
CIRCLE
  5
B6
102
{ACAD_REACTORS
330
B7
102
}
100
AcDbEntity
  8
None
370
               9
390
0
  6
Continuous
 62
               7
100
AcDbCircle
 10
-2.2578252468765765
 20
27.585268415625517
 30
0.0
 40
0.1249999999999996
  0
HATCH
  5
B7
100
AcDbEntity
  8
None
370
               0
390
0
  6
Continuous
 62
               7
100
AcDbHatch
 10
0.0
 20
0.0
 30
0.0
210
0.0
220
0.0
230
1.0
  2
SOLID
 70
               1
 71
               1
 91
        1
 92
        1
 93
        1
 72
               2
 10
-2.2578252468765765
 20
27.585268415625517
 40
0.1249999999999996
 50
0.0
 51
360.0
 73
               0
 97
        1
330
B6
 75
               0
 76
               1
 98
        1
 10
0.0
 20
0.0
  0
CIRCLE
  5
B8
102
{ACAD_REACTORS
330
B9
102
}
100
AcDbEntity
  8
None
370
               9
390
0
  6
Continuous
 62
               7
100
AcDbCircle
 10
-1.7578252468765783
 20
27.585268415625517
 30
0.0
 40
0.1249999999999996
  0
HATCH
  5
B9
100
AcDbEntity
  8
None
370
               0
390
0
  6
Continuous
 62
               7
100
AcDbHatch
 10
0.0
 20
0.0
 30
0.0
210
0.0
220
0.0
230
1.0
  2
SOLID
 70
               1
 71
               1
 91
        1
 92
        1
 93
        1
 72
               2
 10
-1.7578252468765783
 20
27.585268415625517
 40
0.1249999999999996
 50
0.0
 51
360.0
 73
               0
 97
        1
330
B8
 75
               0
 76
               1
 98
        1
 10
0.0
 20
0.0
  0
CIRCLE
  5
BA
102
{ACAD_REACTORS
330
BB
102
}
100
AcDbEntity
  8
None
370
               9
390
0
  6
Continuous
 62
               7
100
AcDbCircle
 10
-1.25782524687658
 20
27.585268415625517
 30
0.0
 40
0.1249999999999996
  0
HATCH
  5
BB
100
AcDbEntity
  8
None
370
               0
390
0
  6
Continuous
 62
               7
100
AcDbHatch
 10
0.0
 20
0.0
 30
0.0
210
0.0
220
0.0
230
1.0
  2
SOLID
 70
               1
 71
               1
 91
        1
 92
        1
 93
        1
 72
               2
 10
-1.25782524687658
 20
27.585268415625517
 40
0.1249999999999996
 50
0.0
 51
360.0
 73
               0
 97
        1
330
BA
 75
               0
 76
               1
 98
        1
 10
0.0
 20
0.0
  0
CIRCLE
  5
BC
102
{ACAD_REACTORS
330
BD
102
}
100
AcDbEntity
  8
None
370
               9
390
0
  6
Continuous
 62
               7
100
AcDbCircle
 10
-0.7578252468765823
 20
27.585268415625517
 30
0.0
 40
0.1249999999999996
  0
HATCH
  5
BD
100
AcDbEntity
  8
None
370
               0
390
0
  6
Continuous
 62
               7
100
AcDbHatch
 10
0.0
 20
0.0
 30
0.0
210
0.0
220
0.0
230
1.0
  2
SOLID
 70
               1
 71
               1
 91
        1
 92
        1
 93
        1
 72
               2
 10
-0.7578252468765823
 20
27.585268415625517
 40
0.1249999999999996
 50
0.0
 51
360.0
 73
               0
 97
        1
330
BC
 75
               0
 76
               1
 98
        1
 10
0.0
 20
0.0
  0
CIRCLE
  5
BE
102
{ACAD_REACTORS
330
BF
102
}
100
AcDbEntity
  8
None
370
               9
390
0
  6
Continuous
 62
               7
100
AcDbCircle
 10
-0.2578252468765827
 20
27.585268415625517
 30
0.0
 40
0.125
  0
HATCH
  5
BF
100
AcDbEntity
  8
None
370
               0
390
0
  6
Continuous
 62
               7
100
AcDbHatch
 10
0.0
 20
0.0
 30
0.0
210
0.0
220
0.0
230
1.0
  2
SOLID
 70
               1
 71
               1
 91
        1
 92
        1
 93
        1
 72
               2
 10
-0.2578252468765827
 20
27.585268415625517
 40
0.125
 50
0.0
 51
360.0
 73
               0
 97
        1
330
BE
 75
               0
 76
               1
 98
        1
 10
0.0
 20
0.0
  0
CIRCLE
  5
C0
102
{ACAD_REACTORS
330
C1
102
}
100
AcDbEntity
  8
None
370
               9
390
0
  6
Continuous
 62
               7
100
AcDbCircle
 10
0.2421747531234173
 20
27.585268415625517
 30
0.0
 40
0.125
  0
HATCH
  5
C1
100
AcDbEntity
  8
None
370
               0
390
0
  6
Continuous
 62
               7
100
AcDbHatch
 10
0.0
 20
0.0
 30
0.0
210
0.0
220
0.0
230
1.0
  2
SOLID
 70
               1
 71
               1
 91
        1
 92
        1
 93
        1
 72
               2
 10
0.2421747531234173
 20
27.585268415625517
 40
0.125
 50
0.0
 51
360.0
 73
               0
 97
        1
330
C0
 75
               0
 76
               1
 98
        1
 10
0.0
 20
0.0
  0
CIRCLE
  5
C2
102
{ACAD_REACTORS
330
C3
102
}
100
AcDbEntity
  8
None
370
               9
390
0
  6
Continuous
 62
               7
100
AcDbCircle
 10
-5.2578252468765694
 20
28.085268415625517
 30
0.0
 40
0.125
  0
HATCH
  5
C3
100
AcDbEntity
  8
None
370
               0
390
0
  6
Continuous
 62
               7
100
AcDbHatch
 10
0.0
 20
0.0
 30
0.0
210
0.0
220
0.0
230
1.0
  2
SOLID
 70
               1
 71
               1
 91
        1
 92
        1
 93
        1
 72
               2
 10
-5.2578252468765694
 20
28.085268415625517
 40
0.125
 50
0.0
 51
360.0
 73
               0
 97
        1
330
C2
 75
               0
 76
               1
 98
        1
 10
0.0
 20
0.0
  0
CIRCLE
  5
C4
102
{ACAD_REACTORS
330
C5
102
}
100
AcDbEntity
  8
None
370
               9
390
0
  6
Continuous
 62
               7
100
AcDbCircle
 10
-4.7578252468765694
 20
28.085268415625517
 30
0.0
 40
0.125
  0
HATCH
  5
C5
100
AcDbEntity
  8
None
370
               0
390
0
  6
Continuous
 62
               7
100
AcDbHatch
 10
0.0
 20
0.0
 30
0.0
210
0.0
220
0.0
230
1.0
  2
SOLID
 70
               1
 71
               1
 91
        1
 92
        1
 93
        1
 72
               2
 10
-4.7578252468765694
 20
28.085268415625517
 40
0.125
 50
0.0
 51
360.0
 73
               0
 97
        1
330
C4
 75
               0
 76
               1
 98
        1
 10
0.0
 20
0.0
  0
CIRCLE
  5
C6
102
{ACAD_REACTORS
330
C7
102
}
100
AcDbEntity
  8
None
370
               9
390
0
  6
Continuous
 62
               7
100
AcDbCircle
 10
-4.2578252468765694
 20
28.085268415625517
 30
0.0
 40
0.125
  0
HATCH
  5
C7
100
AcDbEntity
  8
None
370
               0
390
0
  6
Continuous
 62
               7
100
AcDbHatch
 10
0.0
 20
0.0
 30
0.0
210
0.0
220
0.0
230
1.0
  2
SOLID
 70
               1
 71
               1
 91
        1
 92
        1
 93
        1
 72
               2
 10
-4.2578252468765694
 20
28.085268415625517
 40
0.125
 50
0.0
 51
360.0
 73
               0
 97
        1
330
C6
 75
               0
 76
               1
 98
        1
 10
0.0
 20
0.0
  0
CIRCLE
  5
C8
102
{ACAD_REACTORS
330
C9
102
}
100
AcDbEntity
  8
None
370
               9
390
0
  6
Continuous
 62
               7
100
AcDbCircle
 10
-3.7578252468765707
 20
28.085268415625517
 30
0.0
 40
0.1249999999999996
  0
HATCH
  5
C9
100
AcDbEntity
  8
None
370
               0
390
0
  6
Continuous
 62
               7
100
AcDbHatch
 10
0.0
 20
0.0
 30
0.0
210
0.0
220
0.0
230
1.0
  2
SOLID
 70
               1
 71
               1
 91
        1
 92
        1
 93
        1
 72
               2
 10
-3.7578252468765707
 20
28.085268415625517
 40
0.1249999999999996
 50
0.0
 51
360.0
 73
               0
 97
        1
330
C8
 75
               0
 76
               1
 98
        1
 10
0.0
 20
0.0
  0
CIRCLE
  5
CA
102
{ACAD_REACTORS
330
CB
102
}
100
AcDbEntity
  8
None
370
               9
390
0
  6
Continuous
 62
               7
100
AcDbCircle
 10
-3.2578252468765725
 20
28.085268415625517
 30
0.0
 40
0.1249999999999996
  0
HATCH
  5
CB
100
AcDbEntity
  8
None
370
               0
390
0
  6
Continuous
 62
               7
100
AcDbHatch
 10
0.0
 20
0.0
 30
0.0
210
0.0
220
0.0
230
1.0
  2
SOLID
 70
               1
 71
               1
 91
        1
 92
        1
 93
        1
 72
               2
 10
-3.2578252468765725
 20
28.085268415625517
 40
0.1249999999999996
 50
0.0
 51
360.0
 73
               0
 97
        1
330
CA
 75
               0
 76
               1
 98
        1
 10
0.0
 20
0.0
  0
CIRCLE
  5
CC
102
{ACAD_REACTORS
330
CD
102
}
100
AcDbEntity
  8
None
370
               9
390
0
  6
Continuous
 62
               7
100
AcDbCircle
 10
-2.7578252468765743
 20
28.085268415625517
 30
0.0
 40
0.1249999999999996
  0
HATCH
  5
CD
100
AcDbEntity
  8
None
370
               0
390
0
  6
Continuous
 62
               7
100
AcDbHatch
 10
0.0
 20
0.0
 30
0.0
210
0.0
220
0.0
230
1.0
  2
SOLID
 70
               1
 71
               1
 91
        1
 92
        1
 93
        1
 72
               2
 10
-2.7578252468765743
 20
28.085268415625517
 40
0.1249999999999996
 50
0.0
 51
360.0
 73
               0
 97
        1
330
CC
 75
               0
 76
               1
 98
        1
 10
0.0
 20
0.0
  0
CIRCLE
  5
CE
102
{ACAD_REACTORS
330
CF
102
}
100
AcDbEntity
  8
None
370
               9
390
0
  6
Continuous
 62
               7
100
AcDbCircle
 10
-2.2578252468765765
 20
28.085268415625517
 30
0.0
 40
0.1249999999999996
  0
HATCH
  5
CF
100
AcDbEntity
  8
None
370
               0
390
0
  6
Continuous
 62
               7
100
AcDbHatch
 10
0.0
 20
0.0
 30
0.0
210
0.0
220
0.0
230
1.0
  2
SOLID
 70
               1
 71
               1
 91
        1
 92
        1
 93
        1
 72
               2
 10
-2.2578252468765765
 20
28.085268415625517
 40
0.1249999999999996
 50
0.0
 51
360.0
 73
               0
 97
        1
330
CE
 75
               0
 76
               1
 98
        1
 10
0.0
 20
0.0
  0
CIRCLE
  5
D0
102
{ACAD_REACTORS
330
D1
102
}
100
AcDbEntity
  8
None
370
               9
390
0
  6
Continuous
 62
               7
100
AcDbCircle
 10
-1.7578252468765783
 20
28.085268415625517
 30
0.0
 40
0.1249999999999996
  0
HATCH
  5
D1
100
AcDbEntity
  8
None
370
               0
390
0
  6
Continuous
 62
               7
100
AcDbHatch
 10
0.0
 20
0.0
 30
0.0
210
0.0
220
0.0
230
1.0
  2
SOLID
 70
               1
 71
               1
 91
        1
 92
        1
 93
        1
 72
               2
 10
-1.7578252468765783
 20
28.085268415625517
 40
0.1249999999999996
 50
0.0
 51
360.0
 73
               0
 97
        1
330
D0
 75
               0
 76
               1
 98
        1
 10
0.0
 20
0.0
  0
CIRCLE
  5
D2
102
{ACAD_REACTORS
330
D3
102
}
100
AcDbEntity
  8
None
370
               9
390
0
  6
Continuous
 62
               7
100
AcDbCircle
 10
-1.25782524687658
 20
28.085268415625517
 30
0.0
 40
0.1249999999999996
  0
HATCH
  5
D3
100
AcDbEntity
  8
None
370
               0
390
0
  6
Continuous
 62
               7
100
AcDbHatch
 10
0.0
 20
0.0
 30
0.0
210
0.0
220
0.0
230
1.0
  2
SOLID
 70
               1
 71
               1
 91
        1
 92
        1
 93
        1
 72
               2
 10
-1.25782524687658
 20
28.085268415625517
 40
0.1249999999999996
 50
0.0
 51
360.0
 73
               0
 97
        1
330
D2
 75
               0
 76
               1
 98
        1
 10
0.0
 20
0.0
  0
CIRCLE
  5
D4
102
{ACAD_REACTORS
330
D5
102
}
100
AcDbEntity
  8
None
370
               9
390
0
  6
Continuous
 62
               7
100
AcDbCircle
 10
-0.7578252468765823
 20
28.085268415625517
 30
0.0
 40
0.1249999999999996
  0
HATCH
  5
D5
100
AcDbEntity
  8
None
370
               0
390
0
  6
Continuous
 62
               7
100
AcDbHatch
 10
0.0
 20
0.0
 30
0.0
210
0.0
220
0.0
230
1.0
  2
SOLID
 70
               1
 71
               1
 91
        1
 92
        1
 93
        1
 72
               2
 10
-0.7578252468765823
 20
28.085268415625517
 40
0.1249999999999996
 50
0.0
 51
360.0
 73
               0
 97
        1
330
D4
 75
               0
 76
               1
 98
        1
 10
0.0
 20
0.0
  0
CIRCLE
  5
D6
102
{ACAD_REACTORS
330
D7
102
}
100
AcDbEntity
  8
None
370
               9
390
0
  6
Continuous
 62
               7
100
AcDbCircle
 10
-0.2578252468765827
 20
28.085268415625517
 30
0.0
 40
0.125
  0
HATCH
  5
D7
100
AcDbEntity
  8
None
370
               0
390
0
  6
Continuous
 62
               7
100
AcDbHatch
 10
0.0
 20
0.0
 30
0.0
210
0.0
220
0.0
230
1.0
  2
SOLID
 70
               1
 71
               1
 91
        1
 92
        1
 93
        1
 72
               2
 10
-0.2578252468765827
 20
28.085268415625517
 40
0.125
 50
0.0
 51
360.0
 73
               0
 97
        1
330
D6
 75
               0
 76
               1
 98
        1
 10
0.0
 20
0.0
  0
CIRCLE
  5
D8
102
{ACAD_REACTORS
330
D9
102
}
100
AcDbEntity
  8
None
370
               9
390
0
  6
Continuous
 62
               7
100
AcDbCircle
 10
0.2421747531234173
 20
28.085268415625517
 30
0.0
 40
0.125
  0
HATCH
  5
D9
100
AcDbEntity
  8
None
370
               0
390
0
  6
Continuous
 62
               7
100
AcDbHatch
 10
0.0
 20
0.0
 30
0.0
210
0.0
220
0.0
230
1.0
  2
SOLID
 70
               1
 71
               1
 91
        1
 92
        1
 93
        1
 72
               2
 10
0.2421747531234173
 20
28.085268415625517
 40
0.125
 50
0.0
 51
360.0
 73
               0
 97
        1
330
D8
 75
               0
 76
               1
 98
        1
 10
0.0
 20
0.0
  0
CIRCLE
  5
DA
102
{ACAD_REACTORS
330
DB
102
}
100
AcDbEntity
  8
None
370
               9
390
0
  6
Continuous
 62
               7
100
AcDbCircle
 10
-5.2578252468765694
 20
28.585268415625517
 30
0.0
 40
0.125
  0
HATCH
  5
DB
100
AcDbEntity
  8
None
370
               0
390
0
  6
Continuous
 62
               7
100
AcDbHatch
 10
0.0
 20
0.0
 30
0.0
210
0.0
220
0.0
230
1.0
  2
SOLID
 70
               1
 71
               1
 91
        1
 92
        1
 93
        1
 72
               2
 10
-5.2578252468765694
 20
28.585268415625517
 40
0.125
 50
0.0
 51
360.0
 73
               0
 97
        1
330
DA
 75
               0
 76
               1
 98
        1
 10
0.0
 20
0.0
  0
CIRCLE
  5
DC
102
{ACAD_REACTORS
330
DD
102
}
100
AcDbEntity
  8
None
370
               9
390
0
  6
Continuous
 62
               7
100
AcDbCircle
 10
-4.7578252468765694
 20
28.585268415625517
 30
0.0
 40
0.125
  0
HATCH
  5
DD
100
AcDbEntity
  8
None
370
               0
390
0
  6
Continuous
 62
               7
100
AcDbHatch
 10
0.0
 20
0.0
 30
0.0
210
0.0
220
0.0
230
1.0
  2
SOLID
 70
               1
 71
               1
 91
        1
 92
        1
 93
        1
 72
               2
 10
-4.7578252468765694
 20
28.585268415625517
 40
0.125
 50
0.0
 51
360.0
 73
               0
 97
        1
330
DC
 75
               0
 76
               1
 98
        1
 10
0.0
 20
0.0
  0
CIRCLE
  5
DE
102
{ACAD_REACTORS
330
DF
102
}
100
AcDbEntity
  8
None
370
               9
390
0
  6
Continuous
 62
               7
100
AcDbCircle
 10
-4.2578252468765694
 20
28.585268415625517
 30
0.0
 40
0.125
  0
HATCH
  5
DF
100
AcDbEntity
  8
None
370
               0
390
0
  6
Continuous
 62
               7
100
AcDbHatch
 10
0.0
 20
0.0
 30
0.0
210
0.0
220
0.0
230
1.0
  2
SOLID
 70
               1
 71
               1
 91
        1
 92
        1
 93
        1
 72
               2
 10
-4.2578252468765694
 20
28.585268415625517
 40
0.125
 50
0.0
 51
360.0
 73
               0
 97
        1
330
DE
 75
               0
 76
               1
 98
        1
 10
0.0
 20
0.0
  0
CIRCLE
  5
E0
102
{ACAD_REACTORS
330
E1
102
}
100
AcDbEntity
  8
None
370
               9
390
0
  6
Continuous
 62
               7
100
AcDbCircle
 10
-3.7578252468765707
 20
28.585268415625517
 30
0.0
 40
0.1249999999999996
  0
HATCH
  5
E1
100
AcDbEntity
  8
None
370
               0
390
0
  6
Continuous
 62
               7
100
AcDbHatch
 10
0.0
 20
0.0
 30
0.0
210
0.0
220
0.0
230
1.0
  2
SOLID
 70
               1
 71
               1
 91
        1
 92
        1
 93
        1
 72
               2
 10
-3.7578252468765707
 20
28.585268415625517
 40
0.1249999999999996
 50
0.0
 51
360.0
 73
               0
 97
        1
330
E0
 75
               0
 76
               1
 98
        1
 10
0.0
 20
0.0
  0
CIRCLE
  5
E2
102
{ACAD_REACTORS
330
E3
102
}
100
AcDbEntity
  8
None
370
               9
390
0
  6
Continuous
 62
               7
100
AcDbCircle
 10
-3.2578252468765725
 20
28.585268415625517
 30
0.0
 40
0.1249999999999996
  0
HATCH
  5
E3
100
AcDbEntity
  8
None
370
               0
390
0
  6
Continuous
 62
               7
100
AcDbHatch
 10
0.0
 20
0.0
 30
0.0
210
0.0
220
0.0
230
1.0
  2
SOLID
 70
               1
 71
               1
 91
        1
 92
        1
 93
        1
 72
               2
 10
-3.2578252468765725
 20
28.585268415625517
 40
0.1249999999999996
 50
0.0
 51
360.0
 73
               0
 97
        1
330
E2
 75
               0
 76
               1
 98
        1
 10
0.0
 20
0.0
  0
CIRCLE
  5
E4
102
{ACAD_REACTORS
330
E5
102
}
100
AcDbEntity
  8
None
370
               9
390
0
  6
Continuous
 62
               7
100
AcDbCircle
 10
-2.7578252468765743
 20
28.585268415625517
 30
0.0
 40
0.1249999999999996
  0
HATCH
  5
E5
100
AcDbEntity
  8
None
370
               0
390
0
  6
Continuous
 62
               7
100
AcDbHatch
 10
0.0
 20
0.0
 30
0.0
210
0.0
220
0.0
230
1.0
  2
SOLID
 70
               1
 71
               1
 91
        1
 92
        1
 93
        1
 72
               2
 10
-2.7578252468765743
 20
28.585268415625517
 40
0.1249999999999996
 50
0.0
 51
360.0
 73
               0
 97
        1
330
E4
 75
               0
 76
               1
 98
        1
 10
0.0
 20
0.0
  0
CIRCLE
  5
E6
102
{ACAD_REACTORS
330
E7
102
}
100
AcDbEntity
  8
None
370
               9
390
0
  6
Continuous
 62
               7
100
AcDbCircle
 10
-2.2578252468765765
 20
28.585268415625517
 30
0.0
 40
0.1249999999999996
  0
HATCH
  5
E7
100
AcDbEntity
  8
None
370
               0
390
0
  6
Continuous
 62
               7
100
AcDbHatch
 10
0.0
 20
0.0
 30
0.0
210
0.0
220
0.0
230
1.0
  2
SOLID
 70
               1
 71
               1
 91
        1
 92
        1
 93
        1
 72
               2
 10
-2.2578252468765765
 20
28.585268415625517
 40
0.1249999999999996
 50
0.0
 51
360.0
 73
               0
 97
        1
330
E6
 75
               0
 76
               1
 98
        1
 10
0.0
 20
0.0
  0
CIRCLE
  5
E8
102
{ACAD_REACTORS
330
E9
102
}
100
AcDbEntity
  8
None
370
               9
390
0
  6
Continuous
 62
               7
100
AcDbCircle
 10
-1.7578252468765783
 20
28.585268415625517
 30
0.0
 40
0.1249999999999996
  0
HATCH
  5
E9
100
AcDbEntity
  8
None
370
               0
390
0
  6
Continuous
 62
               7
100
AcDbHatch
 10
0.0
 20
0.0
 30
0.0
210
0.0
220
0.0
230
1.0
  2
SOLID
 70
               1
 71
               1
 91
        1
 92
        1
 93
        1
 72
               2
 10
-1.7578252468765783
 20
28.585268415625517
 40
0.1249999999999996
 50
0.0
 51
360.0
 73
               0
 97
        1
330
E8
 75
               0
 76
               1
 98
        1
 10
0.0
 20
0.0
  0
CIRCLE
  5
EA
102
{ACAD_REACTORS
330
EB
102
}
100
AcDbEntity
  8
None
370
               9
390
0
  6
Continuous
 62
               7
100
AcDbCircle
 10
-1.25782524687658
 20
28.585268415625517
 30
0.0
 40
0.1249999999999996
  0
HATCH
  5
EB
100
AcDbEntity
  8
None
370
               0
390
0
  6
Continuous
 62
               7
100
AcDbHatch
 10
0.0
 20
0.0
 30
0.0
210
0.0
220
0.0
230
1.0
  2
SOLID
 70
               1
 71
               1
 91
        1
 92
        1
 93
        1
 72
               2
 10
-1.25782524687658
 20
28.585268415625517
 40
0.1249999999999996
 50
0.0
 51
360.0
 73
               0
 97
        1
330
EA
 75
               0
 76
               1
 98
        1
 10
0.0
 20
0.0
  0
CIRCLE
  5
EC
102
{ACAD_REACTORS
330
ED
102
}
100
AcDbEntity
  8
None
370
               9
390
0
  6
Continuous
 62
               7
100
AcDbCircle
 10
-0.7578252468765823
 20
28.585268415625517
 30
0.0
 40
0.1249999999999996
  0
HATCH
  5
ED
100
AcDbEntity
  8
None
370
               0
390
0
  6
Continuous
 62
               7
100
AcDbHatch
 10
0.0
 20
0.0
 30
0.0
210
0.0
220
0.0
230
1.0
  2
SOLID
 70
               1
 71
               1
 91
        1
 92
        1
 93
        1
 72
               2
 10
-0.7578252468765823
 20
28.585268415625517
 40
0.1249999999999996
 50
0.0
 51
360.0
 73
               0
 97
        1
330
EC
 75
               0
 76
               1
 98
        1
 10
0.0
 20
0.0
  0
CIRCLE
  5
EE
102
{ACAD_REACTORS
330
EF
102
}
100
AcDbEntity
  8
None
370
               9
390
0
  6
Continuous
 62
               7
100
AcDbCircle
 10
-0.2578252468765827
 20
28.585268415625517
 30
0.0
 40
0.125
  0
HATCH
  5
EF
100
AcDbEntity
  8
None
370
               0
390
0
  6
Continuous
 62
               7
100
AcDbHatch
 10
0.0
 20
0.0
 30
0.0
210
0.0
220
0.0
230
1.0
  2
SOLID
 70
               1
 71
               1
 91
        1
 92
        1
 93
        1
 72
               2
 10
-0.2578252468765827
 20
28.585268415625517
 40
0.125
 50
0.0
 51
360.0
 73
               0
 97
        1
330
EE
 75
               0
 76
               1
 98
        1
 10
0.0
 20
0.0
  0
CIRCLE
  5
F0
102
{ACAD_REACTORS
330
F1
102
}
100
AcDbEntity
  8
None
370
               9
390
0
  6
Continuous
 62
               7
100
AcDbCircle
 10
0.2421747531234173
 20
28.585268415625517
 30
0.0
 40
0.125
  0
HATCH
  5
F1
100
AcDbEntity
  8
None
370
               0
390
0
  6
Continuous
 62
               7
100
AcDbHatch
 10
0.0
 20
0.0
 30
0.0
210
0.0
220
0.0
230
1.0
  2
SOLID
 70
               1
 71
               1
 91
        1
 92
        1
 93
        1
 72
               2
 10
0.2421747531234173
 20
28.585268415625517
 40
0.125
 50
0.0
 51
360.0
 73
               0
 97
        1
330
F0
 75
               0
 76
               1
 98
        1
 10
0.0
 20
0.0
  0
CIRCLE
  5
F2
102
{ACAD_REACTORS
330
F3
102
}
100
AcDbEntity
  8
None
370
               9
390
0
  6
Continuous
 62
               7
100
AcDbCircle
 10
-5.2578252468765694
 20
29.085268415625517
 30
0.0
 40
0.125
  0
HATCH
  5
F3
100
AcDbEntity
  8
None
370
               0
390
0
  6
Continuous
 62
               7
100
AcDbHatch
 10
0.0
 20
0.0
 30
0.0
210
0.0
220
0.0
230
1.0
  2
SOLID
 70
               1
 71
               1
 91
        1
 92
        1
 93
        1
 72
               2
 10
-5.2578252468765694
 20
29.085268415625517
 40
0.125
 50
0.0
 51
360.0
 73
               0
 97
        1
330
F2
 75
               0
 76
               1
 98
        1
 10
0.0
 20
0.0
  0
CIRCLE
  5
F4
102
{ACAD_REACTORS
330
F5
102
}
100
AcDbEntity
  8
None
370
               9
390
0
  6
Continuous
 62
               7
100
AcDbCircle
 10
-4.7578252468765694
 20
29.085268415625517
 30
0.0
 40
0.125
  0
HATCH
  5
F5
100
AcDbEntity
  8
None
370
               0
390
0
  6
Continuous
 62
               7
100
AcDbHatch
 10
0.0
 20
0.0
 30
0.0
210
0.0
220
0.0
230
1.0
  2
SOLID
 70
               1
 71
               1
 91
        1
 92
        1
 93
        1
 72
               2
 10
-4.7578252468765694
 20
29.085268415625517
 40
0.125
 50
0.0
 51
360.0
 73
               0
 97
        1
330
F4
 75
               0
 76
               1
 98
        1
 10
0.0
 20
0.0
  0
CIRCLE
  5
F6
102
{ACAD_REACTORS
330
F7
102
}
100
AcDbEntity
  8
None
370
               9
390
0
  6
Continuous
 62
               7
100
AcDbCircle
 10
-4.2578252468765694
 20
29.085268415625517
 30
0.0
 40
0.125
  0
HATCH
  5
F7
100
AcDbEntity
  8
None
370
               0
390
0
  6
Continuous
 62
               7
100
AcDbHatch
 10
0.0
 20
0.0
 30
0.0
210
0.0
220
0.0
230
1.0
  2
SOLID
 70
               1
 71
               1
 91
        1
 92
        1
 93
        1
 72
               2
 10
-4.2578252468765694
 20
29.085268415625517
 40
0.125
 50
0.0
 51
360.0
 73
               0
 97
        1
330
F6
 75
               0
 76
               1
 98
        1
 10
0.0
 20
0.0
  0
CIRCLE
  5
F8
102
{ACAD_REACTORS
330
F9
102
}
100
AcDbEntity
  8
None
370
               9
390
0
  6
Continuous
 62
               7
100
AcDbCircle
 10
-3.7578252468765707
 20
29.085268415625517
 30
0.0
 40
0.1249999999999996
  0
HATCH
  5
F9
100
AcDbEntity
  8
None
370
               0
390
0
  6
Continuous
 62
               7
100
AcDbHatch
 10
0.0
 20
0.0
 30
0.0
210
0.0
220
0.0
230
1.0
  2
SOLID
 70
               1
 71
               1
 91
        1
 92
        1
 93
        1
 72
               2
 10
-3.7578252468765707
 20
29.085268415625517
 40
0.1249999999999996
 50
0.0
 51
360.0
 73
               0
 97
        1
330
F8
 75
               0
 76
               1
 98
        1
 10
0.0
 20
0.0
  0
CIRCLE
  5
FA
102
{ACAD_REACTORS
330
FB
102
}
100
AcDbEntity
  8
None
370
               9
390
0
  6
Continuous
 62
               7
100
AcDbCircle
 10
-3.2578252468765725
 20
29.085268415625517
 30
0.0
 40
0.1249999999999996
  0
HATCH
  5
FB
100
AcDbEntity
  8
None
370
               0
390
0
  6
Continuous
 62
               7
100
AcDbHatch
 10
0.0
 20
0.0
 30
0.0
210
0.0
220
0.0
230
1.0
  2
SOLID
 70
               1
 71
               1
 91
        1
 92
        1
 93
        1
 72
               2
 10
-3.2578252468765725
 20
29.085268415625517
 40
0.1249999999999996
 50
0.0
 51
360.0
 73
               0
 97
        1
330
FA
 75
               0
 76
               1
 98
        1
 10
0.0
 20
0.0
  0
CIRCLE
  5
FC
102
{ACAD_REACTORS
330
FD
102
}
100
AcDbEntity
  8
None
370
               9
390
0
  6
Continuous
 62
               7
100
AcDbCircle
 10
-2.7578252468765743
 20
29.085268415625517
 30
0.0
 40
0.1249999999999996
  0
HATCH
  5
FD
100
AcDbEntity
  8
None
370
               0
390
0
  6
Continuous
 62
               7
100
AcDbHatch
 10
0.0
 20
0.0
 30
0.0
210
0.0
220
0.0
230
1.0
  2
SOLID
 70
               1
 71
               1
 91
        1
 92
        1
 93
        1
 72
               2
 10
-2.7578252468765743
 20
29.085268415625517
 40
0.1249999999999996
 50
0.0
 51
360.0
 73
               0
 97
        1
330
FC
 75
               0
 76
               1
 98
        1
 10
0.0
 20
0.0
  0
CIRCLE
  5
FE
102
{ACAD_REACTORS
330
FF
102
}
100
AcDbEntity
  8
None
370
               9
390
0
  6
Continuous
 62
               7
100
AcDbCircle
 10
-2.2578252468765765
 20
29.085268415625517
 30
0.0
 40
0.1249999999999996
  0
HATCH
  5
FF
100
AcDbEntity
  8
None
370
               0
390
0
  6
Continuous
 62
               7
100
AcDbHatch
 10
0.0
 20
0.0
 30
0.0
210
0.0
220
0.0
230
1.0
  2
SOLID
 70
               1
 71
               1
 91
        1
 92
        1
 93
        1
 72
               2
 10
-2.2578252468765765
 20
29.085268415625517
 40
0.1249999999999996
 50
0.0
 51
360.0
 73
               0
 97
        1
330
FE
 75
               0
 76
               1
 98
        1
 10
0.0
 20
0.0
  0
CIRCLE
  5
100
102
{ACAD_REACTORS
330
101
102
}
100
AcDbEntity
  8
None
370
               9
390
0
  6
Continuous
 62
               7
100
AcDbCircle
 10
-1.7578252468765783
 20
29.085268415625517
 30
0.0
 40
0.1249999999999996
  0
HATCH
  5
101
100
AcDbEntity
  8
None
370
               0
390
0
  6
Continuous
 62
               7
100
AcDbHatch
 10
0.0
 20
0.0
 30
0.0
210
0.0
220
0.0
230
1.0
  2
SOLID
 70
               1
 71
               1
 91
        1
 92
        1
 93
        1
 72
               2
 10
-1.7578252468765783
 20
29.085268415625517
 40
0.1249999999999996
 50
0.0
 51
360.0
 73
               0
 97
        1
330
100
 75
               0
 76
               1
 98
        1
 10
0.0
 20
0.0
  0
CIRCLE
  5
102
102
{ACAD_REACTORS
330
103
102
}
100
AcDbEntity
  8
None
370
               9
390
0
  6
Continuous
 62
               7
100
AcDbCircle
 10
-1.25782524687658
 20
29.085268415625517
 30
0.0
 40
0.1249999999999996
  0
HATCH
  5
103
100
AcDbEntity
  8
None
370
               0
390
0
  6
Continuous
 62
               7
100
AcDbHatch
 10
0.0
 20
0.0
 30
0.0
210
0.0
220
0.0
230
1.0
  2
SOLID
 70
               1
 71
               1
 91
        1
 92
        1
 93
        1
 72
               2
 10
-1.25782524687658
 20
29.085268415625517
 40
0.1249999999999996
 50
0.0
 51
360.0
 73
               0
 97
        1
330
102
 75
               0
 76
               1
 98
        1
 10
0.0
 20
0.0
  0
CIRCLE
  5
104
102
{ACAD_REACTORS
330
105
102
}
100
AcDbEntity
  8
None
370
               9
390
0
  6
Continuous
 62
               7
100
AcDbCircle
 10
-0.7578252468765823
 20
29.085268415625517
 30
0.0
 40
0.1249999999999996
  0
HATCH
  5
105
100
AcDbEntity
  8
None
370
               0
390
0
  6
Continuous
 62
               7
100
AcDbHatch
 10
0.0
 20
0.0
 30
0.0
210
0.0
220
0.0
230
1.0
  2
SOLID
 70
               1
 71
               1
 91
        1
 92
        1
 93
        1
 72
               2
 10
-0.7578252468765823
 20
29.085268415625517
 40
0.1249999999999996
 50
0.0
 51
360.0
 73
               0
 97
        1
330
104
 75
               0
 76
               1
 98
        1
 10
0.0
 20
0.0
  0
CIRCLE
  5
106
102
{ACAD_REACTORS
330
107
102
}
100
AcDbEntity
  8
None
370
               9
390
0
  6
Continuous
 62
               7
100
AcDbCircle
 10
-0.2578252468765827
 20
29.085268415625517
 30
0.0
 40
0.125
  0
HATCH
  5
107
100
AcDbEntity
  8
None
370
               0
390
0
  6
Continuous
 62
               7
100
AcDbHatch
 10
0.0
 20
0.0
 30
0.0
210
0.0
220
0.0
230
1.0
  2
SOLID
 70
               1
 71
               1
 91
        1
 92
        1
 93
        1
 72
               2
 10
-0.2578252468765827
 20
29.085268415625517
 40
0.125
 50
0.0
 51
360.0
 73
               0
 97
        1
330
106
 75
               0
 76
               1
 98
        1
 10
0.0
 20
0.0
  0
CIRCLE
  5
108
102
{ACAD_REACTORS
330
109
102
}
100
AcDbEntity
  8
None
370
               9
390
0
  6
Continuous
 62
               7
100
AcDbCircle
 10
0.2421747531234173
 20
29.085268415625517
 30
0.0
 40
0.125
  0
HATCH
  5
109
100
AcDbEntity
  8
None
370
               0
390
0
  6
Continuous
 62
               7
100
AcDbHatch
 10
0.0
 20
0.0
 30
0.0
210
0.0
220
0.0
230
1.0
  2
SOLID
 70
               1
 71
               1
 91
        1
 92
        1
 93
        1
 72
               2
 10
0.2421747531234173
 20
29.085268415625517
 40
0.125
 50
0.0
 51
360.0
 73
               0
 97
        1
330
108
 75
               0
 76
               1
 98
        1
 10
0.0
 20
0.0
  0
CIRCLE
  5
10A
102
{ACAD_REACTORS
330
10B
102
}
100
AcDbEntity
  8
None
370
               9
390
0
  6
Continuous
 62
               7
100
AcDbCircle
 10
-5.2578252468765694
 20
29.585268415625517
 30
0.0
 40
0.125
  0
HATCH
  5
10B
100
AcDbEntity
  8
None
370
               0
390
0
  6
Continuous
 62
               7
100
AcDbHatch
 10
0.0
 20
0.0
 30
0.0
210
0.0
220
0.0
230
1.0
  2
SOLID
 70
               1
 71
               1
 91
        1
 92
        1
 93
        1
 72
               2
 10
-5.2578252468765694
 20
29.585268415625517
 40
0.125
 50
0.0
 51
360.0
 73
               0
 97
        1
330
10A
 75
               0
 76
               1
 98
        1
 10
0.0
 20
0.0
  0
CIRCLE
  5
10C
102
{ACAD_REACTORS
330
10D
102
}
100
AcDbEntity
  8
None
370
               9
390
0
  6
Continuous
 62
               7
100
AcDbCircle
 10
-4.7578252468765694
 20
29.585268415625517
 30
0.0
 40
0.125
  0
HATCH
  5
10D
100
AcDbEntity
  8
None
370
               0
390
0
  6
Continuous
 62
               7
100
AcDbHatch
 10
0.0
 20
0.0
 30
0.0
210
0.0
220
0.0
230
1.0
  2
SOLID
 70
               1
 71
               1
 91
        1
 92
        1
 93
        1
 72
               2
 10
-4.7578252468765694
 20
29.585268415625517
 40
0.125
 50
0.0
 51
360.0
 73
               0
 97
        1
330
10C
 75
               0
 76
               1
 98
        1
 10
0.0
 20
0.0
  0
CIRCLE
  5
10E
102
{ACAD_REACTORS
330
10F
102
}
100
AcDbEntity
  8
None
370
               9
390
0
  6
Continuous
 62
               7
100
AcDbCircle
 10
-4.2578252468765694
 20
29.585268415625517
 30
0.0
 40
0.125
  0
HATCH
  5
10F
100
AcDbEntity
  8
None
370
               0
390
0
  6
Continuous
 62
               7
100
AcDbHatch
 10
0.0
 20
0.0
 30
0.0
210
0.0
220
0.0
230
1.0
  2
SOLID
 70
               1
 71
               1
 91
        1
 92
        1
 93
        1
 72
               2
 10
-4.2578252468765694
 20
29.585268415625517
 40
0.125
 50
0.0
 51
360.0
 73
               0
 97
        1
330
10E
 75
               0
 76
               1
 98
        1
 10
0.0
 20
0.0
  0
CIRCLE
  5
110
102
{ACAD_REACTORS
330
111
102
}
100
AcDbEntity
  8
None
370
               9
390
0
  6
Continuous
 62
               7
100
AcDbCircle
 10
-3.7578252468765707
 20
29.585268415625517
 30
0.0
 40
0.1249999999999996
  0
HATCH
  5
111
100
AcDbEntity
  8
None
370
               0
390
0
  6
Continuous
 62
               7
100
AcDbHatch
 10
0.0
 20
0.0
 30
0.0
210
0.0
220
0.0
230
1.0
  2
SOLID
 70
               1
 71
               1
 91
        1
 92
        1
 93
        1
 72
               2
 10
-3.7578252468765707
 20
29.585268415625517
 40
0.1249999999999996
 50
0.0
 51
360.0
 73
               0
 97
        1
330
110
 75
               0
 76
               1
 98
        1
 10
0.0
 20
0.0
  0
CIRCLE
  5
112
102
{ACAD_REACTORS
330
113
102
}
100
AcDbEntity
  8
None
370
               9
390
0
  6
Continuous
 62
               7
100
AcDbCircle
 10
-3.2578252468765725
 20
29.585268415625517
 30
0.0
 40
0.1249999999999996
  0
HATCH
  5
113
100
AcDbEntity
  8
None
370
               0
390
0
  6
Continuous
 62
               7
100
AcDbHatch
 10
0.0
 20
0.0
 30
0.0
210
0.0
220
0.0
230
1.0
  2
SOLID
 70
               1
 71
               1
 91
        1
 92
        1
 93
        1
 72
               2
 10
-3.2578252468765725
 20
29.585268415625517
 40
0.1249999999999996
 50
0.0
 51
360.0
 73
               0
 97
        1
330
112
 75
               0
 76
               1
 98
        1
 10
0.0
 20
0.0
  0
CIRCLE
  5
114
102
{ACAD_REACTORS
330
115
102
}
100
AcDbEntity
  8
None
370
               9
390
0
  6
Continuous
 62
               7
100
AcDbCircle
 10
-2.7578252468765743
 20
29.585268415625517
 30
0.0
 40
0.1249999999999996
  0
HATCH
  5
115
100
AcDbEntity
  8
None
370
               0
390
0
  6
Continuous
 62
               7
100
AcDbHatch
 10
0.0
 20
0.0
 30
0.0
210
0.0
220
0.0
230
1.0
  2
SOLID
 70
               1
 71
               1
 91
        1
 92
        1
 93
        1
 72
               2
 10
-2.7578252468765743
 20
29.585268415625517
 40
0.1249999999999996
 50
0.0
 51
360.0
 73
               0
 97
        1
330
114
 75
               0
 76
               1
 98
        1
 10
0.0
 20
0.0
  0
CIRCLE
  5
116
102
{ACAD_REACTORS
330
117
102
}
100
AcDbEntity
  8
None
370
               9
390
0
  6
Continuous
 62
               7
100
AcDbCircle
 10
-2.2578252468765765
 20
29.585268415625517
 30
0.0
 40
0.1249999999999996
  0
HATCH
  5
117
100
AcDbEntity
  8
None
370
               0
390
0
  6
Continuous
 62
               7
100
AcDbHatch
 10
0.0
 20
0.0
 30
0.0
210
0.0
220
0.0
230
1.0
  2
SOLID
 70
               1
 71
               1
 91
        1
 92
        1
 93
        1
 72
               2
 10
-2.2578252468765765
 20
29.585268415625517
 40
0.1249999999999996
 50
0.0
 51
360.0
 73
               0
 97
        1
330
116
 75
               0
 76
               1
 98
        1
 10
0.0
 20
0.0
  0
CIRCLE
  5
118
102
{ACAD_REACTORS
330
119
102
}
100
AcDbEntity
  8
None
370
               9
390
0
  6
Continuous
 62
               7
100
AcDbCircle
 10
-1.7578252468765783
 20
29.585268415625517
 30
0.0
 40
0.1249999999999996
  0
HATCH
  5
119
100
AcDbEntity
  8
None
370
               0
390
0
  6
Continuous
 62
               7
100
AcDbHatch
 10
0.0
 20
0.0
 30
0.0
210
0.0
220
0.0
230
1.0
  2
SOLID
 70
               1
 71
               1
 91
        1
 92
        1
 93
        1
 72
               2
 10
-1.7578252468765783
 20
29.585268415625517
 40
0.1249999999999996
 50
0.0
 51
360.0
 73
               0
 97
        1
330
118
 75
               0
 76
               1
 98
        1
 10
0.0
 20
0.0
  0
CIRCLE
  5
11A
102
{ACAD_REACTORS
330
11B
102
}
100
AcDbEntity
  8
None
370
               9
390
0
  6
Continuous
 62
               7
100
AcDbCircle
 10
-1.25782524687658
 20
29.585268415625517
 30
0.0
 40
0.1249999999999996
  0
HATCH
  5
11B
100
AcDbEntity
  8
None
370
               0
390
0
  6
Continuous
 62
               7
100
AcDbHatch
 10
0.0
 20
0.0
 30
0.0
210
0.0
220
0.0
230
1.0
  2
SOLID
 70
               1
 71
               1
 91
        1
 92
        1
 93
        1
 72
               2
 10
-1.25782524687658
 20
29.585268415625517
 40
0.1249999999999996
 50
0.0
 51
360.0
 73
               0
 97
        1
330
11A
 75
               0
 76
               1
 98
        1
 10
0.0
 20
0.0
  0
CIRCLE
  5
11C
102
{ACAD_REACTORS
330
11D
102
}
100
AcDbEntity
  8
None
370
               9
390
0
  6
Continuous
 62
               7
100
AcDbCircle
 10
-0.7578252468765823
 20
29.585268415625517
 30
0.0
 40
0.1249999999999996
  0
HATCH
  5
11D
100
AcDbEntity
  8
None
370
               0
390
0
  6
Continuous
 62
               7
100
AcDbHatch
 10
0.0
 20
0.0
 30
0.0
210
0.0
220
0.0
230
1.0
  2
SOLID
 70
               1
 71
               1
 91
        1
 92
        1
 93
        1
 72
               2
 10
-0.7578252468765823
 20
29.585268415625517
 40
0.1249999999999996
 50
0.0
 51
360.0
 73
               0
 97
        1
330
11C
 75
               0
 76
               1
 98
        1
 10
0.0
 20
0.0
  0
CIRCLE
  5
11E
102
{ACAD_REACTORS
330
11F
102
}
100
AcDbEntity
  8
None
370
               9
390
0
  6
Continuous
 62
               7
100
AcDbCircle
 10
-0.2578252468765827
 20
29.585268415625517
 30
0.0
 40
0.125
  0
HATCH
  5
11F
100
AcDbEntity
  8
None
370
               0
390
0
  6
Continuous
 62
               7
100
AcDbHatch
 10
0.0
 20
0.0
 30
0.0
210
0.0
220
0.0
230
1.0
  2
SOLID
 70
               1
 71
               1
 91
        1
 92
        1
 93
        1
 72
               2
 10
-0.2578252468765827
 20
29.585268415625517
 40
0.125
 50
0.0
 51
360.0
 73
               0
 97
        1
330
11E
 75
               0
 76
               1
 98
        1
 10
0.0
 20
0.0
  0
CIRCLE
  5
120
102
{ACAD_REACTORS
330
121
102
}
100
AcDbEntity
  8
None
370
               9
390
0
  6
Continuous
 62
               7
100
AcDbCircle
 10
0.2421747531234173
 20
29.585268415625517
 30
0.0
 40
0.125
  0
HATCH
  5
121
100
AcDbEntity
  8
None
370
               0
390
0
  6
Continuous
 62
               7
100
AcDbHatch
 10
0.0
 20
0.0
 30
0.0
210
0.0
220
0.0
230
1.0
  2
SOLID
 70
               1
 71
               1
 91
        1
 92
        1
 93
        1
 72
               2
 10
0.2421747531234173
 20
29.585268415625517
 40
0.125
 50
0.0
 51
360.0
 73
               0
 97
        1
330
120
 75
               0
 76
               1
 98
        1
 10
0.0
 20
0.0
  0
CIRCLE
  5
122
102
{ACAD_REACTORS
330
123
102
}
100
AcDbEntity
  8
None
370
               9
390
0
  6
Continuous
 62
               7
100
AcDbCircle
 10
-5.2578252468765694
 20
30.085268415625517
 30
0.0
 40
0.125
  0
HATCH
  5
123
100
AcDbEntity
  8
None
370
               0
390
0
  6
Continuous
 62
               7
100
AcDbHatch
 10
0.0
 20
0.0
 30
0.0
210
0.0
220
0.0
230
1.0
  2
SOLID
 70
               1
 71
               1
 91
        1
 92
        1
 93
        1
 72
               2
 10
-5.2578252468765694
 20
30.085268415625517
 40
0.125
 50
0.0
 51
360.0
 73
               0
 97
        1
330
122
 75
               0
 76
               1
 98
        1
 10
0.0
 20
0.0
  0
CIRCLE
  5
124
102
{ACAD_REACTORS
330
125
102
}
100
AcDbEntity
  8
None
370
               9
390
0
  6
Continuous
 62
               7
100
AcDbCircle
 10
-4.7578252468765694
 20
30.085268415625517
 30
0.0
 40
0.125
  0
HATCH
  5
125
100
AcDbEntity
  8
None
370
               0
390
0
  6
Continuous
 62
               7
100
AcDbHatch
 10
0.0
 20
0.0
 30
0.0
210
0.0
220
0.0
230
1.0
  2
SOLID
 70
               1
 71
               1
 91
        1
 92
        1
 93
        1
 72
               2
 10
-4.7578252468765694
 20
30.085268415625517
 40
0.125
 50
0.0
 51
360.0
 73
               0
 97
        1
330
124
 75
               0
 76
               1
 98
        1
 10
0.0
 20
0.0
  0
CIRCLE
  5
126
102
{ACAD_REACTORS
330
127
102
}
100
AcDbEntity
  8
None
370
               9
390
0
  6
Continuous
 62
               7
100
AcDbCircle
 10
-4.2578252468765694
 20
30.085268415625517
 30
0.0
 40
0.125
  0
HATCH
  5
127
100
AcDbEntity
  8
None
370
               0
390
0
  6
Continuous
 62
               7
100
AcDbHatch
 10
0.0
 20
0.0
 30
0.0
210
0.0
220
0.0
230
1.0
  2
SOLID
 70
               1
 71
               1
 91
        1
 92
        1
 93
        1
 72
               2
 10
-4.2578252468765694
 20
30.085268415625517
 40
0.125
 50
0.0
 51
360.0
 73
               0
 97
        1
330
126
 75
               0
 76
               1
 98
        1
 10
0.0
 20
0.0
  0
CIRCLE
  5
128
102
{ACAD_REACTORS
330
129
102
}
100
AcDbEntity
  8
None
370
               9
390
0
  6
Continuous
 62
               7
100
AcDbCircle
 10
-3.7578252468765707
 20
30.085268415625517
 30
0.0
 40
0.1249999999999996
  0
HATCH
  5
129
100
AcDbEntity
  8
None
370
               0
390
0
  6
Continuous
 62
               7
100
AcDbHatch
 10
0.0
 20
0.0
 30
0.0
210
0.0
220
0.0
230
1.0
  2
SOLID
 70
               1
 71
               1
 91
        1
 92
        1
 93
        1
 72
               2
 10
-3.7578252468765707
 20
30.085268415625517
 40
0.1249999999999996
 50
0.0
 51
360.0
 73
               0
 97
        1
330
128
 75
               0
 76
               1
 98
        1
 10
0.0
 20
0.0
  0
CIRCLE
  5
12A
102
{ACAD_REACTORS
330
12B
102
}
100
AcDbEntity
  8
None
370
               9
390
0
  6
Continuous
 62
               7
100
AcDbCircle
 10
-3.2578252468765725
 20
30.085268415625517
 30
0.0
 40
0.1249999999999996
  0
HATCH
  5
12B
100
AcDbEntity
  8
None
370
               0
390
0
  6
Continuous
 62
               7
100
AcDbHatch
 10
0.0
 20
0.0
 30
0.0
210
0.0
220
0.0
230
1.0
  2
SOLID
 70
               1
 71
               1
 91
        1
 92
        1
 93
        1
 72
               2
 10
-3.2578252468765725
 20
30.085268415625517
 40
0.1249999999999996
 50
0.0
 51
360.0
 73
               0
 97
        1
330
12A
 75
               0
 76
               1
 98
        1
 10
0.0
 20
0.0
  0
CIRCLE
  5
12C
102
{ACAD_REACTORS
330
12D
102
}
100
AcDbEntity
  8
None
370
               9
390
0
  6
Continuous
 62
               7
100
AcDbCircle
 10
-2.7578252468765743
 20
30.085268415625517
 30
0.0
 40
0.1249999999999996
  0
HATCH
  5
12D
100
AcDbEntity
  8
None
370
               0
390
0
  6
Continuous
 62
               7
100
AcDbHatch
 10
0.0
 20
0.0
 30
0.0
210
0.0
220
0.0
230
1.0
  2
SOLID
 70
               1
 71
               1
 91
        1
 92
        1
 93
        1
 72
               2
 10
-2.7578252468765743
 20
30.085268415625517
 40
0.1249999999999996
 50
0.0
 51
360.0
 73
               0
 97
        1
330
12C
 75
               0
 76
               1
 98
        1
 10
0.0
 20
0.0
  0
CIRCLE
  5
12E
102
{ACAD_REACTORS
330
12F
102
}
100
AcDbEntity
  8
None
370
               9
390
0
  6
Continuous
 62
               7
100
AcDbCircle
 10
-2.2578252468765765
 20
30.085268415625517
 30
0.0
 40
0.1249999999999996
  0
HATCH
  5
12F
100
AcDbEntity
  8
None
370
               0
390
0
  6
Continuous
 62
               7
100
AcDbHatch
 10
0.0
 20
0.0
 30
0.0
210
0.0
220
0.0
230
1.0
  2
SOLID
 70
               1
 71
               1
 91
        1
 92
        1
 93
        1
 72
               2
 10
-2.2578252468765765
 20
30.085268415625517
 40
0.1249999999999996
 50
0.0
 51
360.0
 73
               0
 97
        1
330
12E
 75
               0
 76
               1
 98
        1
 10
0.0
 20
0.0
  0
CIRCLE
  5
130
102
{ACAD_REACTORS
330
131
102
}
100
AcDbEntity
  8
None
370
               9
390
0
  6
Continuous
 62
               7
100
AcDbCircle
 10
-1.7578252468765783
 20
30.085268415625517
 30
0.0
 40
0.1249999999999996
  0
HATCH
  5
131
100
AcDbEntity
  8
None
370
               0
390
0
  6
Continuous
 62
               7
100
AcDbHatch
 10
0.0
 20
0.0
 30
0.0
210
0.0
220
0.0
230
1.0
  2
SOLID
 70
               1
 71
               1
 91
        1
 92
        1
 93
        1
 72
               2
 10
-1.7578252468765783
 20
30.085268415625517
 40
0.1249999999999996
 50
0.0
 51
360.0
 73
               0
 97
        1
330
130
 75
               0
 76
               1
 98
        1
 10
0.0
 20
0.0
  0
CIRCLE
  5
132
102
{ACAD_REACTORS
330
133
102
}
100
AcDbEntity
  8
None
370
               9
390
0
  6
Continuous
 62
               7
100
AcDbCircle
 10
-1.25782524687658
 20
30.085268415625517
 30
0.0
 40
0.1249999999999996
  0
HATCH
  5
133
100
AcDbEntity
  8
None
370
               0
390
0
  6
Continuous
 62
               7
100
AcDbHatch
 10
0.0
 20
0.0
 30
0.0
210
0.0
220
0.0
230
1.0
  2
SOLID
 70
               1
 71
               1
 91
        1
 92
        1
 93
        1
 72
               2
 10
-1.25782524687658
 20
30.085268415625517
 40
0.1249999999999996
 50
0.0
 51
360.0
 73
               0
 97
        1
330
132
 75
               0
 76
               1
 98
        1
 10
0.0
 20
0.0
  0
CIRCLE
  5
134
102
{ACAD_REACTORS
330
135
102
}
100
AcDbEntity
  8
None
370
               9
390
0
  6
Continuous
 62
               7
100
AcDbCircle
 10
-0.7578252468765823
 20
30.085268415625517
 30
0.0
 40
0.1249999999999996
  0
HATCH
  5
135
100
AcDbEntity
  8
None
370
               0
390
0
  6
Continuous
 62
               7
100
AcDbHatch
 10
0.0
 20
0.0
 30
0.0
210
0.0
220
0.0
230
1.0
  2
SOLID
 70
               1
 71
               1
 91
        1
 92
        1
 93
        1
 72
               2
 10
-0.7578252468765823
 20
30.085268415625517
 40
0.1249999999999996
 50
0.0
 51
360.0
 73
               0
 97
        1
330
134
 75
               0
 76
               1
 98
        1
 10
0.0
 20
0.0
  0
CIRCLE
  5
136
102
{ACAD_REACTORS
330
137
102
}
100
AcDbEntity
  8
None
370
               9
390
0
  6
Continuous
 62
               7
100
AcDbCircle
 10
-0.2578252468765827
 20
30.085268415625517
 30
0.0
 40
0.125
  0
HATCH
  5
137
100
AcDbEntity
  8
None
370
               0
390
0
  6
Continuous
 62
               7
100
AcDbHatch
 10
0.0
 20
0.0
 30
0.0
210
0.0
220
0.0
230
1.0
  2
SOLID
 70
               1
 71
               1
 91
        1
 92
        1
 93
        1
 72
               2
 10
-0.2578252468765827
 20
30.085268415625517
 40
0.125
 50
0.0
 51
360.0
 73
               0
 97
        1
330
136
 75
               0
 76
               1
 98
        1
 10
0.0
 20
0.0
  0
CIRCLE
  5
138
102
{ACAD_REACTORS
330
139
102
}
100
AcDbEntity
  8
None
370
               9
390
0
  6
Continuous
 62
               7
100
AcDbCircle
 10
0.2421747531234173
 20
30.085268415625517
 30
0.0
 40
0.125
  0
HATCH
  5
139
100
AcDbEntity
  8
None
370
               0
390
0
  6
Continuous
 62
               7
100
AcDbHatch
 10
0.0
 20
0.0
 30
0.0
210
0.0
220
0.0
230
1.0
  2
SOLID
 70
               1
 71
               1
 91
        1
 92
        1
 93
        1
 72
               2
 10
0.2421747531234173
 20
30.085268415625517
 40
0.125
 50
0.0
 51
360.0
 73
               0
 97
        1
330
138
 75
               0
 76
               1
 98
        1
 10
0.0
 20
0.0
  0
CIRCLE
  5
13A
102
{ACAD_REACTORS
330
13B
102
}
100
AcDbEntity
  8
None
370
               9
390
0
  6
Continuous
 62
               7
100
AcDbCircle
 10
-5.2578252468765694
 20
30.585268415625514
 30
0.0
 40
0.125
  0
HATCH
  5
13B
100
AcDbEntity
  8
None
370
               0
390
0
  6
Continuous
 62
               7
100
AcDbHatch
 10
0.0
 20
0.0
 30
0.0
210
0.0
220
0.0
230
1.0
  2
SOLID
 70
               1
 71
               1
 91
        1
 92
        1
 93
        1
 72
               2
 10
-5.2578252468765694
 20
30.585268415625514
 40
0.125
 50
0.0
 51
360.0
 73
               0
 97
        1
330
13A
 75
               0
 76
               1
 98
        1
 10
0.0
 20
0.0
  0
CIRCLE
  5
13C
102
{ACAD_REACTORS
330
13D
102
}
100
AcDbEntity
  8
None
370
               9
390
0
  6
Continuous
 62
               7
100
AcDbCircle
 10
-4.7578252468765694
 20
30.585268415625514
 30
0.0
 40
0.125
  0
HATCH
  5
13D
100
AcDbEntity
  8
None
370
               0
390
0
  6
Continuous
 62
               7
100
AcDbHatch
 10
0.0
 20
0.0
 30
0.0
210
0.0
220
0.0
230
1.0
  2
SOLID
 70
               1
 71
               1
 91
        1
 92
        1
 93
        1
 72
               2
 10
-4.7578252468765694
 20
30.585268415625514
 40
0.125
 50
0.0
 51
360.0
 73
               0
 97
        1
330
13C
 75
               0
 76
               1
 98
        1
 10
0.0
 20
0.0
  0
CIRCLE
  5
13E
102
{ACAD_REACTORS
330
13F
102
}
100
AcDbEntity
  8
None
370
               9
390
0
  6
Continuous
 62
               7
100
AcDbCircle
 10
-4.2578252468765694
 20
30.585268415625514
 30
0.0
 40
0.125
  0
HATCH
  5
13F
100
AcDbEntity
  8
None
370
               0
390
0
  6
Continuous
 62
               7
100
AcDbHatch
 10
0.0
 20
0.0
 30
0.0
210
0.0
220
0.0
230
1.0
  2
SOLID
 70
               1
 71
               1
 91
        1
 92
        1
 93
        1
 72
               2
 10
-4.2578252468765694
 20
30.585268415625514
 40
0.125
 50
0.0
 51
360.0
 73
               0
 97
        1
330
13E
 75
               0
 76
               1
 98
        1
 10
0.0
 20
0.0
  0
CIRCLE
  5
140
102
{ACAD_REACTORS
330
141
102
}
100
AcDbEntity
  8
None
370
               9
390
0
  6
Continuous
 62
               7
100
AcDbCircle
 10
-3.7578252468765707
 20
30.585268415625514
 30
0.0
 40
0.1249999999999996
  0
HATCH
  5
141
100
AcDbEntity
  8
None
370
               0
390
0
  6
Continuous
 62
               7
100
AcDbHatch
 10
0.0
 20
0.0
 30
0.0
210
0.0
220
0.0
230
1.0
  2
SOLID
 70
               1
 71
               1
 91
        1
 92
        1
 93
        1
 72
               2
 10
-3.7578252468765707
 20
30.585268415625514
 40
0.1249999999999996
 50
0.0
 51
360.0
 73
               0
 97
        1
330
140
 75
               0
 76
               1
 98
        1
 10
0.0
 20
0.0
  0
CIRCLE
  5
142
102
{ACAD_REACTORS
330
143
102
}
100
AcDbEntity
  8
None
370
               9
390
0
  6
Continuous
 62
               7
100
AcDbCircle
 10
-3.2578252468765725
 20
30.585268415625514
 30
0.0
 40
0.1249999999999996
  0
HATCH
  5
143
100
AcDbEntity
  8
None
370
               0
390
0
  6
Continuous
 62
               7
100
AcDbHatch
 10
0.0
 20
0.0
 30
0.0
210
0.0
220
0.0
230
1.0
  2
SOLID
 70
               1
 71
               1
 91
        1
 92
        1
 93
        1
 72
               2
 10
-3.2578252468765725
 20
30.585268415625514
 40
0.1249999999999996
 50
0.0
 51
360.0
 73
               0
 97
        1
330
142
 75
               0
 76
               1
 98
        1
 10
0.0
 20
0.0
  0
CIRCLE
  5
144
102
{ACAD_REACTORS
330
145
102
}
100
AcDbEntity
  8
None
370
               9
390
0
  6
Continuous
 62
               7
100
AcDbCircle
 10
-2.7578252468765743
 20
30.585268415625514
 30
0.0
 40
0.1249999999999996
  0
HATCH
  5
145
100
AcDbEntity
  8
None
370
               0
390
0
  6
Continuous
 62
               7
100
AcDbHatch
 10
0.0
 20
0.0
 30
0.0
210
0.0
220
0.0
230
1.0
  2
SOLID
 70
               1
 71
               1
 91
        1
 92
        1
 93
        1
 72
               2
 10
-2.7578252468765743
 20
30.585268415625514
 40
0.1249999999999996
 50
0.0
 51
360.0
 73
               0
 97
        1
330
144
 75
               0
 76
               1
 98
        1
 10
0.0
 20
0.0
  0
CIRCLE
  5
146
102
{ACAD_REACTORS
330
147
102
}
100
AcDbEntity
  8
None
370
               9
390
0
  6
Continuous
 62
               7
100
AcDbCircle
 10
-2.2578252468765765
 20
30.585268415625514
 30
0.0
 40
0.1249999999999996
  0
HATCH
  5
147
100
AcDbEntity
  8
None
370
               0
390
0
  6
Continuous
 62
               7
100
AcDbHatch
 10
0.0
 20
0.0
 30
0.0
210
0.0
220
0.0
230
1.0
  2
SOLID
 70
               1
 71
               1
 91
        1
 92
        1
 93
        1
 72
               2
 10
-2.2578252468765765
 20
30.585268415625514
 40
0.1249999999999996
 50
0.0
 51
360.0
 73
               0
 97
        1
330
146
 75
               0
 76
               1
 98
        1
 10
0.0
 20
0.0
  0
CIRCLE
  5
148
102
{ACAD_REACTORS
330
149
102
}
100
AcDbEntity
  8
None
370
               9
390
0
  6
Continuous
 62
               7
100
AcDbCircle
 10
-1.7578252468765783
 20
30.585268415625514
 30
0.0
 40
0.1249999999999996
  0
HATCH
  5
149
100
AcDbEntity
  8
None
370
               0
390
0
  6
Continuous
 62
               7
100
AcDbHatch
 10
0.0
 20
0.0
 30
0.0
210
0.0
220
0.0
230
1.0
  2
SOLID
 70
               1
 71
               1
 91
        1
 92
        1
 93
        1
 72
               2
 10
-1.7578252468765783
 20
30.585268415625514
 40
0.1249999999999996
 50
0.0
 51
360.0
 73
               0
 97
        1
330
148
 75
               0
 76
               1
 98
        1
 10
0.0
 20
0.0
  0
CIRCLE
  5
14A
102
{ACAD_REACTORS
330
14B
102
}
100
AcDbEntity
  8
None
370
               9
390
0
  6
Continuous
 62
               7
100
AcDbCircle
 10
-1.25782524687658
 20
30.585268415625514
 30
0.0
 40
0.1249999999999996
  0
HATCH
  5
14B
100
AcDbEntity
  8
None
370
               0
390
0
  6
Continuous
 62
               7
100
AcDbHatch
 10
0.0
 20
0.0
 30
0.0
210
0.0
220
0.0
230
1.0
  2
SOLID
 70
               1
 71
               1
 91
        1
 92
        1
 93
        1
 72
               2
 10
-1.25782524687658
 20
30.585268415625514
 40
0.1249999999999996
 50
0.0
 51
360.0
 73
               0
 97
        1
330
14A
 75
               0
 76
               1
 98
        1
 10
0.0
 20
0.0
  0
CIRCLE
  5
14C
102
{ACAD_REACTORS
330
14D
102
}
100
AcDbEntity
  8
None
370
               9
390
0
  6
Continuous
 62
               7
100
AcDbCircle
 10
-0.7578252468765823
 20
30.585268415625514
 30
0.0
 40
0.1249999999999996
  0
HATCH
  5
14D
100
AcDbEntity
  8
None
370
               0
390
0
  6
Continuous
 62
               7
100
AcDbHatch
 10
0.0
 20
0.0
 30
0.0
210
0.0
220
0.0
230
1.0
  2
SOLID
 70
               1
 71
               1
 91
        1
 92
        1
 93
        1
 72
               2
 10
-0.7578252468765823
 20
30.585268415625514
 40
0.1249999999999996
 50
0.0
 51
360.0
 73
               0
 97
        1
330
14C
 75
               0
 76
               1
 98
        1
 10
0.0
 20
0.0
  0
CIRCLE
  5
14E
102
{ACAD_REACTORS
330
14F
102
}
100
AcDbEntity
  8
None
370
               9
390
0
  6
Continuous
 62
               7
100
AcDbCircle
 10
-0.2578252468765827
 20
30.585268415625514
 30
0.0
 40
0.125
  0
HATCH
  5
14F
100
AcDbEntity
  8
None
370
               0
390
0
  6
Continuous
 62
               7
100
AcDbHatch
 10
0.0
 20
0.0
 30
0.0
210
0.0
220
0.0
230
1.0
  2
SOLID
 70
               1
 71
               1
 91
        1
 92
        1
 93
        1
 72
               2
 10
-0.2578252468765827
 20
30.585268415625514
 40
0.125
 50
0.0
 51
360.0
 73
               0
 97
        1
330
14E
 75
               0
 76
               1
 98
        1
 10
0.0
 20
0.0
  0
CIRCLE
  5
150
102
{ACAD_REACTORS
330
151
102
}
100
AcDbEntity
  8
None
370
               9
390
0
  6
Continuous
 62
               7
100
AcDbCircle
 10
0.2421747531234173
 20
30.585268415625514
 30
0.0
 40
0.125
  0
HATCH
  5
151
100
AcDbEntity
  8
None
370
               0
390
0
  6
Continuous
 62
               7
100
AcDbHatch
 10
0.0
 20
0.0
 30
0.0
210
0.0
220
0.0
230
1.0
  2
SOLID
 70
               1
 71
               1
 91
        1
 92
        1
 93
        1
 72
               2
 10
0.2421747531234173
 20
30.585268415625514
 40
0.125
 50
0.0
 51
360.0
 73
               0
 97
        1
330
150
 75
               0
 76
               1
 98
        1
 10
0.0
 20
0.0
  0
ENDBLK
  5
152
100
AcDbEntity
  8
None
390
0
100
AcDbBlockEnd
  0
BLOCK
  5
153
100
AcDbEntity
  8
None
390
0
100
AcDbBlockBegin
  2
Group-1
 70
               0
 10
0.0
 20
0.0
 30
0.0
  3
Group-1
  1

  0
POLYLINE
  5
154
100
AcDbEntity
  8
None
370
               9
390
0
  6
STYLE_12
 62
               7
100
AcDb2dPolyline
 66
               1
 10
0.0
 20
0.0
 30
0.0
 70
               1
 75
               5
  0
VERTEX
  5
155
100
AcDbEntity
  8
None
370
               9
390
0
  6
STYLE_12
 62
               7
100
AcDbVertex
100
AcDb2dVertex
 10
-10.370325246876568
 20
35.947768415625575
 30
0.0
  0
VERTEX
  5
156
100
AcDbEntity
  8
None
370
               9
390
0
  6
STYLE_12
 62
               7
100
AcDbVertex
100
AcDb2dVertex
 10
4.8546747531234189
 20
35.947768415625575
 30
0.0
  0
VERTEX
  5
157
100
AcDbEntity
  8
None
370
               9
390
0
  6
STYLE_12
 62
               7
100
AcDbVertex
100
AcDb2dVertex
 10
4.8546747531234189
 20
20.722768415625517
 30
0.0
  0
VERTEX
  5
158
100
AcDbEntity
  8
None
370
               9
390
0
  6
STYLE_12
 62
               7
100
AcDbVertex
100
AcDb2dVertex
 10
-10.370325246876568
 20
20.722768415625517
 30
0.0
  0
SEQEND
  5
159
100
AcDbEntity
  8
None
370
               9
390
0
  6
STYLE_12
 62
               7
  0
ENDBLK
  5
15A
100
AcDbEntity
  8
None
390
0
100
AcDbBlockEnd
  0
BLOCK
  5
15B
100
AcDbEntity
  8
None
390
0
100
AcDbBlockBegin
  2
Group-2
 70
               0
 10
0.0
 20
0.0
 30
0.0
  3
Group-2
  1

  0
LINE
  5
15C
100
AcDbEntity
  8
None
370
               9
390
0
  6
STYLE_16
 62
             132
100
AcDbLine
 10
-2.7578252468765743
 20
38.835268415625571
 30
0.0
 11
-2.7578252468765743
 21
17.835268415625517
 31
0.0
  0
LINE
  5
15D
100
AcDbEntity
  8
None
370
               9
390
0
  6
STYLE_16
 62
             132
100
AcDbLine
 10
-13.257825246876568
 20
28.335268415625517
 30
0.0
 11
7.7421747531234288
 21
28.335268415625517
 31
0.0
  0
ENDBLK
  5
15E
100
AcDbEntity
  8
None
390
0
100
AcDbBlockEnd
  0
BLOCK
  5
15F
100
AcDbEntity
  8
None
390
0
100
AcDbBlockBegin
  2
Group-3
 70
               0
 10
0.0
 20
0.0
 30
0.0
  3
Group-3
  1

  0
INSERT
  5
160
100
AcDbEntity
  8
None
390
0
 62
             132
100
AcDbBlockReference
  2
Group-2
 10
0.0
 20
0.0
 30
0.0
  0
ENDBLK
  5
161
100
AcDbEntity
  8
None
390
0
100
AcDbBlockEnd
  0
BLOCK
  5
162
100
AcDbEntity
  8
Dimension
390
0
100
AcDbBlockBegin
  2
*D6
 70
               1
 10
0.0
 20
0.0
 30
0.0
  3
*D6
  1

  0
LINE
  5
163
100
AcDbEntity
  8
Dimension
370
              -2
390
0
  6
Continuous
 62
               0
100
AcDbLine
 10
-14.481465246876567
 20
61.278608416808339
 30
0.0
 11
-14.481465246876567
 21
67.64537266695001
 31
0.0
  0
LINE
  5
164
100
AcDbEntity
  8
Dimension
370
              -2
390
0
  6
Continuous
 62
               0
100
AcDbLine
 10
-15.731465246876567
 20
62.528608416808339
 30
0.0
 11
-15.731465246876567
 21
67.64537266695001
 31
0.0
  0
LINE
  5
165
100
AcDbEntity
  8
Dimension
370
              -2
390
0
  6
Continuous
 62
               0
100
AcDbLine
 10
-15.731465246876567
 20
66.692872664584442
 30
0.0
 11
-14.481465246876567
 21
66.692872664584442
 31
0.0
  0
LINE
  5
166
100
AcDbEntity
  8
Dimension
370
              -2
390
0
  6
Continuous
 62
               0
100
AcDbLine
 10
-14.481465246876567
 20
66.692872664584442
 30
0.0
 11
-12.731468748509752
 21
66.692872664584442
 31
0.0
  0
SOLID
  5
167
100
AcDbEntity
  8
Dimension
370
              -2
390
0
 62
               0
100
AcDbTrace
 10
-14.481465246876567
 20
66.692872664584442
 30
0.0
 11
-13.687715246876568
 21
66.905557336076654
 31
0.0
 12
-13.687715246876568
 22
66.480187993092244
 32
0.0
 13
-13.687715246876568
 23
66.480187993092244
 33
0.0
  0
LINE
  5
168
100
AcDbEntity
  8
Dimension
370
              -2
390
0
  6
Continuous
 62
               0
100
AcDbLine
 10
-15.731465246876567
 20
66.692872664584442
 30
0.0
 11
-21.823738915892665
 21
66.692872664584442
 31
0.0
  0
SOLID
  5
169
100
AcDbEntity
  8
Dimension
370
              -2
390
0
 62
               0
100
AcDbTrace
 10
-15.731465246876567
 20
66.692872664584442
 30
0.0
 11
-16.525215246876567
 21
66.480187993092244
 31
0.0
 12
-16.525215246876567
 22
66.905557336076654
 32
0.0
 13
-16.525215246876567
 23
66.905557336076654
 33
0.0
  0
WIPEOUT
  5
16A
100
AcDbEntity
  8
Dimension
370
              -2
390
0
  6
Continuous
 62
               0
 92
        0
100
AcDbWipeout
 90
        0
 10
-30.484398270155548
 20
34.720029720140019
 30
0.0
 11
3.2102614270316217
 21
0.0
 31
0.0
 12
0.0
 22
3.2102614270316217
 32
0.0
 13
1.0
 23
1.0
340
0
 70
               7
280
               1
281
              50
282
              50
283
               0
360
0
 71
               2
 91
        5
 14
-0.5
 24
-9.3016098424404223
 14
0.5
 24
-9.3016098424404223
 14
0.5
 24
-9.6175439253969692
 14
-0.5
 24
-9.6175439253969692
 14
-0.5
 24
-9.3016098424404223
  0
MTEXT
  5
16B
100
AcDbEntity
  8
Dimension
390
0
 62
               0
100
AcDbMText
 10
-30.484398270155548
 20
67.037842376390003
 30
0.0
 40
0.6315976562499999
 41
0.0
 71
               1
 72
               1
  1
1.25mm
  7
Helvetica
 73
               1
 44
0.9673603504928808
  0
WIPEOUT
  5
16C
100
AcDbEntity
  8
Dimension
370
              -2
390
0
  6
Continuous
 62
               0
 92
        0
100
AcDbWipeout
 90
        0
 10
-27.274136843123927
 20
34.720027497917798
 30
0.0
 11
3.695328516430326
 21
0.0
 31
0.0
 12
0.0
 22
3.695328516430326
 32
0.0
 13
1.0
 23
1.0
340
0
 70
               7
280
               1
281
              50
282
              50
283
               0
360
0
 71
               2
 91
        5
 14
-0.5
 24
-8.0150020790021017
 14
0.5
 24
-8.0150020790021017
 14
0.5
 24
-8.2894650923689763
 14
-0.5
 24
-8.2894650923689763
 14
-0.5
 24
-8.0150020790021017
  0
MTEXT
  5
16D
100
AcDbEntity
  8
Dimension
390
0
 62
               0
100
AcDbMText
 10
-27.274136843123927
 20
67.037840154167782
 30
0.0
 40
0.6315976562499999
 41
0.0
 71
               1
 72
               1
  1
±0.13mm
  7
Helvetica
 73
               1
 44
0.9673603504928808
  0
WIPEOUT
  5
16E
100
AcDbEntity
  8
Dimension
370
              -2
390
0
  6
Continuous
 62
               0
 92
        0
100
AcDbWipeout
 90
        0
 10
-23.578808326693601
 20
34.720024609028911
 30
0.0
 11
1.7550694108009353
 21
0.0
 31
0.0
 12
0.0
 22
1.7550694108009353
 32
0.0
 13
1.0
 23
1.0
340
0
 70
               7
280
               1
281
              50
282
              50
283
               0
360
0
 71
               2
 91
        5
 14
-0.5
 24
-17.428481806107275
 14
0.5
 24
-17.428481806107275
 14
0.5
 24
-18.006371264421212
 14
-0.5
 24
-18.006371264421212
 14
-0.5
 24
-17.428481806107275
  0
MTEXT
  5
16F
100
AcDbEntity
  8
Dimension
390
0
 62
               0
100
AcDbMText
 10
-23.578808326693601
 20
67.037841559260372
 30
0.0
 40
0.6316008391203704
 41
0.0
 71
               1
 72
               1
  1
 (x4)
  7
Helvetica
 73
               1
 44
0.9673603504928805
  0
POINT
  5
170
100
AcDbEntity
  8
Defpoints
370
               0
390
0
 62
               0
100
AcDbPoint
 10
-15.731465246876567
 20
62.052358415625562
 30
0.0
  0
POINT
  5
171
100
AcDbEntity
  8
Defpoints
370
               0
390
0
 62
               0
100
AcDbPoint
 10
-14.481465246876567
 20
60.802358415625562
 30
0.0
  0
POINT
  5
172
100
AcDbEntity
  8
Defpoints
370
               0
390
0
 62
               0
100
AcDbPoint
 10
-14.481465246876567
 20
66.692872664584442
 30
0.0
  0
ENDBLK
  5
173
100
AcDbEntity
  8
Dimension
390
0
100
AcDbBlockEnd
  0
BLOCK
  5
174
100
AcDbEntity
  8
Dimension
390
0
100
AcDbBlockBegin
  2
*D7
 70
               1
 10
0.0
 20
0.0
 30
0.0
  3
*D7
  1

  0
LINE
  5
175
100
AcDbEntity
  8
Dimension
370
              -2
390
0
  6
Continuous
 62
               0
100
AcDbLine
 10
-16.207715248059348
 20
62.052358415625562
 30
0.0
 11
-26.9305402209731
 21
62.052358415625562
 31
0.0
  0
LINE
  5
176
100
AcDbEntity
  8
Dimension
370
              -2
390
0
  6
Continuous
 62
               0
100
AcDbLine
 10
-14.957715248059348
 20
60.802358415625562
 30
0.0
 11
-26.9305402209731
 21
60.802358415625562
 31
0.0
  0
LINE
  5
177
100
AcDbEntity
  8
Dimension
370
              -2
390
0
  6
Continuous
 62
               0
100
AcDbLine
 10
-25.978040218607539
 20
60.802358415625562
 30
0.0
 11
-25.978040218607539
 21
62.052358415625562
 31
0.0
  0
LINE
  5
178
100
AcDbEntity
  8
Dimension
370
              -2
390
0
  6
Continuous
 62
               0
100
AcDbLine
 10
-25.978040218607539
 20
62.052358415625562
 30
0.0
 11
-25.978040218607539
 21
64.882736471181119
 31
0.0
  0
SOLID
  5
179
100
AcDbEntity
  8
Dimension
370
              -2
390
0
 62
               0
100
AcDbTrace
 10
-25.978040218607539
 20
62.052358415625562
 30
0.0
 11
-26.190724890099744
 21
62.846108415625565
 31
0.0
 12
-25.765355547115334
 22
62.846108415625565
 32
0.0
 13
-25.765355547115334
 23
62.846108415625565
 33
0.0
  0
LINE
  5
17A
100
AcDbEntity
  8
Dimension
370
              -2
390
0
  6
Continuous
 62
               0
100
AcDbLine
 10
-25.978040218607539
 20
60.802358415625562
 30
0.0
 11
-25.978040218607539
 21
59.052361917258736
 31
0.0
  0
SOLID
  5
17B
100
AcDbEntity
  8
Dimension
370
              -2
390
0
 62
               0
100
AcDbTrace
 10
-25.978040218607539
 20
60.802358415625562
 30
0.0
 11
-25.765355547115337
 21
60.008608415625559
 31
0.0
 12
-26.190724890099744
 22
60.008608415625559
 32
0.0
 13
-26.190724890099744
 23
60.008608415625559
 33
0.0
  0
WIPEOUT
  5
17C
100
AcDbEntity
  8
Dimension
370
              -2
390
0
  6
Continuous
 62
               0
 92
        0
100
AcDbWipeout
 90
        0
 10
-30.308369895738981
 20
32.909893526736688
 30
0.0
 11
3.2102614270316217
 21
0.0
 31
0.0
 12
0.0
 22
3.2102614270316217
 32
0.0
 13
1.0
 23
1.0
340
0
 70
               7
280
               1
281
              50
282
              50
283
               0
360
0
 71
               2
 91
        5
 14
-0.5
 24
-9.3016098424404241
 14
0.5
 24
-9.3016098424404241
 14
0.5
 24
-9.6175439253969675
 14
-0.5
 24
-9.6175439253969675
 14
-0.5
 24
-9.3016098424404241
  0
MTEXT
  5
17D
100
AcDbEntity
  8
Dimension
390
0
 62
               0
100
AcDbMText
 10
-30.308369895738981
 20
65.22770618298668
 30
0.0
 40
0.6315976562499999
 41
0.0
 71
               1
 72
               1
  1
1.25mm
  7
Helvetica
 73
               1
 44
0.9673603504928808
  0
WIPEOUT
  5
17E
100
AcDbEntity
  8
Dimension
370
              -2
390
0
  6
Continuous
 62
               0
 92
        0
100
AcDbWipeout
 90
        0
 10
-27.098108468707359
 20
32.909891304514467
 30
0.0
 11
3.695328516430326
 21
0.0
 31
0.0
 12
0.0
 22
3.695328516430326
 32
0.0
 13
1.0
 23
1.0
340
0
 70
               7
280
               1
281
              50
282
              50
283
               0
360
0
 71
               2
 91
        5
 14
-0.5
 24
-8.0150020790021035
 14
0.5
 24
-8.0150020790021035
 14
0.5
 24
-8.2894650923689746
 14
-0.5
 24
-8.2894650923689746
 14
-0.5
 24
-8.0150020790021035
  0
MTEXT
  5
17F
100
AcDbEntity
  8
Dimension
390
0
 62
               0
100
AcDbMText
 10
-27.098108468707359
 20
65.227703960764458
 30
0.0
 40
0.6315976562499999
 41
0.0
 71
               1
 72
               1
  1
±0.13mm
  7
Helvetica
 73
               1
 44
0.9673603504928808
  0
WIPEOUT
  5
180
100
AcDbEntity
  8
Dimension
370
              -2
390
0
  6
Continuous
 62
               0
 92
        0
100
AcDbWipeout
 90
        0
 10
-23.402779952277033
 20
32.909888415625581
 30
0.0
 11
1.7550694108009353
 21
0.0
 31
0.0
 12
0.0
 22
1.7550694108009353
 32
0.0
 13
1.0
 23
1.0
340
0
 70
               7
280
               1
281
              50
282
              50
283
               0
360
0
 71
               2
 91
        5
 14
-0.5
 24
-17.428481806107278
 14
0.5
 24
-17.428481806107278
 14
0.5
 24
-18.006371264421208
 14
-0.5
 24
-18.006371264421208
 14
-0.5
 24
-17.428481806107278
  0
MTEXT
  5
181
100
AcDbEntity
  8
Dimension
390
0
 62
               0
100
AcDbMText
 10
-23.402779952277033
 20
65.227705365857048
 30
0.0
 40
0.6316008391203704
 41
0.0
 71
               1
 72
               1
  1
 (x4)
  7
Helvetica
 73
               1
 44
0.9673603504928805
  0
POINT
  5
182
100
AcDbEntity
  8
Defpoints
370
               0
390
0
 62
               0
100
AcDbPoint
 10
-14.481465246876567
 20
60.802358415625562
 30
0.0
  0
POINT
  5
183
100
AcDbEntity
  8
Defpoints
370
               0
390
0
 62
               0
100
AcDbPoint
 10
-15.731465246876567
 20
62.052358415625562
 30
0.0
  0
POINT
  5
184
100
AcDbEntity
  8
Defpoints
370
               0
390
0
 62
               0
100
AcDbPoint
 10
-25.978040218607539
 20
62.052358415625562
 30
0.0
  0
ENDBLK
  5
185
100
AcDbEntity
  8
Dimension
390
0
100
AcDbBlockEnd
  0
BLOCK
  5
186
100
AcDbEntity
  8
Dimension
390
0
100
AcDbBlockBegin
  2
*D8
 70
               1
 10
0.0
 20
0.0
 30
0.0
  3
*D8
  1

  0
LINE
  5
187
100
AcDbEntity
  8
Dimension
370
              -2
390
0
  6
Continuous
 62
               0
100
AcDbLine
 10
-14.957715248059348
 20
48.077358415625497
 30
0.0
 11
-24.252500002365558
 21
48.077358415625497
 31
0.0
  0
LINE
  5
188
100
AcDbEntity
  8
Dimension
370
              -2
390
0
  6
Continuous
 62
               0
100
AcDbLine
 10
-14.897515248059349
 20
53.157358415625495
 30
0.0
 11
-24.252500002365561
 21
53.157358415625495
 31
0.0
  0
LINE
  5
189
100
AcDbEntity
  8
Dimension
370
              -2
390
0
  6
Continuous
 62
               0
100
AcDbLine
 10
-23.300000000000001
 20
48.077358415625497
 30
0.0
 11
-23.300000000000001
 21
53.157358415625495
 31
0.0
  0
SOLID
  5
18A
100
AcDbEntity
  8
Dimension
370
              -2
390
0
 62
               0
100
AcDbTrace
 10
-23.300000000000001
 20
48.077358415625497
 30
0.0
 11
-23.512684671492206
 21
48.8711084156255
 31
0.0
 12
-23.087315328507795
 22
48.8711084156255
 32
0.0
 13
-23.087315328507795
 23
48.8711084156255
 33
0.0
  0
SOLID
  5
18B
100
AcDbEntity
  8
Dimension
370
              -2
390
0
 62
               0
100
AcDbTrace
 10
-23.300000000000001
 20
53.157358415625495
 30
0.0
 11
-23.087315328507799
 21
52.3636084156255
 31
0.0
 12
-23.512684671492206
 22
52.3636084156255
 32
0.0
 13
-23.512684671492206
 23
52.3636084156255
 33
0.0
  0
WIPEOUT
  5
18C
100
AcDbEntity
  8
Dimension
370
              -2
390
0
  6
Continuous
 62
               0
 92
        0
100
AcDbWipeout
 90
        0
 10
-25.152073913150364
 20
18.627154500000021
 30
0.0
 11
3.7041478263007264
 21
0.0
 31
0.0
 12
0.0
 22
3.7041478263007264
 32
0.0
 13
1.0
 23
1.0
340
0
 70
               7
280
               1
281
              50
282
              50
283
               0
360
0
 71
               2
 91
        5
 14
-0.5
 24
-7.9947284707652475
 14
0.5
 24
-7.9947284707652475
 14
0.5
 24
-8.2685380074145716
 14
-0.5
 24
-8.2685380074145716
 14
-0.5
 24
-7.9947284707652475
  0
MTEXT
  5
18D
100
AcDbEntity
  8
Dimension
390
0
 62
               0
100
AcDbMText
 10
-25.152073913150364
 20
50.944967156250001
 30
0.0
 40
0.6315976562499999
 41
0.0
 71
               1
 72
               1
  1
5.080mm
  7
Helvetica
 73
               1
 44
0.9673603504928808
  0
POINT
  5
18E
100
AcDbEntity
  8
Defpoints
370
               0
390
0
 62
               0
100
AcDbPoint
 10
-14.421265246876569
 20
53.157358415625495
 30
0.0
  0
POINT
  5
18F
100
AcDbEntity
  8
Defpoints
370
               0
390
0
 62
               0
100
AcDbPoint
 10
-14.481465246876567
 20
48.077358415625497
 30
0.0
  0
POINT
  5
190
100
AcDbEntity
  8
Defpoints
370
               0
390
0
 62
               0
100
AcDbPoint
 10
-23.300000000000001
 20
48.077358415625497
 30
0.0
  0
ENDBLK
  5
191
100
AcDbEntity
  8
Dimension
390
0
100
AcDbBlockEnd
  0
BLOCK
  5
192
100
AcDbEntity
  8
Dimension
390
0
100
AcDbBlockBegin
  2
*D9
 70
               1
 10
0.0
 20
0.0
 30
0.0
  3
*D9
  1

  0
LINE
  5
193
100
AcDbEntity
  8
Dimension
370
              -2
390
0
  6
Continuous
 62
               0
100
AcDbLine
 10
-15.731465246876567
 20
46.35110841444272
 30
0.0
 11
-15.731465246876567
 21
39.428744524371055
 31
0.0
  0
LINE
  5
194
100
AcDbEntity
  8
Dimension
370
              -2
390
0
  6
Continuous
 62
               0
100
AcDbLine
 10
-0.5064652468765809
 20
46.35110841444272
 30
0.0
 11
-0.5064652468765809
 21
39.428744524371055
 31
0.0
  0
LINE
  5
195
100
AcDbEntity
  8
Dimension
370
              -2
390
0
  6
Continuous
 62
               0
100
AcDbLine
 10
-15.731465246876567
 20
40.381244526736616
 30
0.0
 11
-0.5064652468765809
 21
40.381244526736616
 31
0.0
  0
SOLID
  5
196
100
AcDbEntity
  8
Dimension
370
              -2
390
0
 62
               0
100
AcDbTrace
 10
-15.731465246876567
 20
40.381244526736616
 30
0.0
 11
-14.937715246876568
 21
40.593929198228821
 31
0.0
 12
-14.937715246876568
 22
40.168559855244411
 32
0.0
 13
-14.937715246876568
 23
40.168559855244411
 33
0.0
  0
SOLID
  5
197
100
AcDbEntity
  8
Dimension
370
              -2
390
0
 62
               0
100
AcDbTrace
 10
-0.5064652468765809
 20
40.381244526736616
 30
0.0
 11
-1.3002152468765811
 21
40.168559855244411
 31
0.0
 12
-1.3002152468765811
 22
40.593929198228821
 32
0.0
 13
-1.3002152468765811
 23
40.593929198228821
 33
0.0
  0
WIPEOUT
  5
198
100
AcDbEntity
  8
Dimension
370
              -2
390
0
  6
Continuous
 62
               0
 92
        0
100
AcDbWipeout
 90
        0
 10
-12.371159276035097
 20
8.4084015822921856
 30
0.0
 11
4.1980342255698311
 21
0.0
 31
0.0
 12
0.0
 22
4.1980342255698311
 32
0.0
 13
1.0
 23
1.0
340
0
 70
               7
280
               1
281
              50
282
              50
283
               0
360
0
 71
               2
 91
        5
 14
-0.5
 24
-6.9953486106295149
 14
0.5
 24
-6.9953486106295149
 14
0.5
 24
-7.2369452593234245
 14
-0.5
 24
-7.2369452593234245
 14
-0.5
 24
-6.9953486106295149
  0
MTEXT
  5
199
100
AcDbEntity
  8
Dimension
390
0
 62
               0
100
AcDbMText
 10
-12.371159276035097
 20
40.72621423854217
 30
0.0
 40
0.6315976562499999
 41
0.0
 71
               1
 72
               1
  1
15.225mm
  7
Helvetica
 73
               1
 44
0.9673603504928808
  0
WIPEOUT
  5
19A
100
AcDbEntity
  8
Dimension
370
              -2
390
0
  6
Continuous
 62
               0
 92
        0
100
AcDbWipeout
 90
        0
 10
-8.1731250504652664
 20
8.4083993600699642
 30
0.0
 11
4.1892149156994289
 21
0.0
 31
0.0
 12
0.0
 22
4.1892149156994289
 32
0.0
 13
1.0
 23
1.0
340
0
 70
               7
280
               1
281
              50
282
              50
283
               0
360
0
 71
               2
 91
        5
 14
-0.5
 24
-7.0111281309725975
 14
0.5000000000000002
 24
-7.0111281309725975
 14
0.5000000000000002
 24
-7.2532333990024345
 14
-0.5
 24
-7.2532333990024345
 14
-0.5
 24
-7.0111281309725975
  0
MTEXT
  5
19B
100
AcDbEntity
  8
Dimension
390
0
 62
               0
100
AcDbMText
 10
-8.1731250504652664
 20
40.726212016319948
 30
0.0
 40
0.6315976562499999
 41
0.0
 71
               1
 72
               1
  1
±0.125mm
  7
Helvetica
 73
               1
 44
0.9673603504928808
  0
WIPEOUT
  5
19C
100
AcDbEntity
  8
Dimension
370
              -2
390
0
  6
Continuous
 62
               0
 92
        0
100
AcDbWipeout
 90
        0
 10
-3.9839101347658366
 20
8.4083964711810779
 30
0.0
 11
1.7550694108009335
 21
0.0
 31
0.0
 12
0.0
 22
1.7550694108009335
 32
0.0
 13
1.0
 23
1.0
340
0
 70
               7
280
               1
281
              50
282
              50
283
               0
360
0
 71
               2
 91
        5
 14
-0.5
 24
-17.428481806107293
 14
0.5
 24
-17.428481806107293
 14
0.5
 24
-18.006371264421229
 14
-0.5
 24
-18.006371264421229
 14
-0.5
 24
-17.428481806107293
  0
MTEXT
  5
19D
100
AcDbEntity
  8
Dimension
390
0
 62
               0
100
AcDbMText
 10
-3.9839101347658366
 20
40.726213421412538
 30
0.0
 40
0.6316008391203704
 41
0.0
 71
               1
 72
               1
  1
 (x4)
  7
Helvetica
 73
               1
 44
0.9673603504928805
  0
POINT
  5
19E
100
AcDbEntity
  8
Defpoints
370
               0
390
0
 62
               0
100
AcDbPoint
 10
-0.5064652468765809
 20
46.827358415625497
 30
0.0
  0
POINT
  5
19F
100
AcDbEntity
  8
Defpoints
370
               0
390
0
 62
               0
100
AcDbPoint
 10
-15.731465246876567
 20
46.827358415625497
 30
0.0
  0
POINT
  5
1A0
100
AcDbEntity
  8
Defpoints
370
               0
390
0
 62
               0
100
AcDbPoint
 10
-15.731465246876567
 20
40.381244526736616
 30
0.0
  0
ENDBLK
  5
1A1
100
AcDbEntity
  8
Dimension
390
0
100
AcDbBlockEnd
  0
BLOCK
  5
1A2
100
AcDbEntity
  8
Dimension
390
0
100
AcDbBlockBegin
  2
*D10
 70
               1
 10
0.0
 20
0.0
 30
0.0
  3
*D10
  1

  0
LINE
  5
1A3
100
AcDbEntity
  8
Dimension
370
              -2
390
0
  6
Continuous
 62
               0
100
AcDbLine
 10
-14.481465246876567
 20
47.60110841444272
 30
0.0
 11
-14.481465246876567
 21
41.247499997634442
 31
0.0
  0
LINE
  5
1A4
100
AcDbEntity
  8
Dimension
370
              -2
390
0
  6
Continuous
 62
               0
100
AcDbLine
 10
-1.7564652468765827
 20
47.60110841444272
 30
0.0
 11
-1.7564652468765827
 21
41.247499997634442
 31
0.0
  0
LINE
  5
1A5
100
AcDbEntity
  8
Dimension
370
              -2
390
0
  6
Continuous
 62
               0
100
AcDbLine
 10
-14.481465246876567
 20
42.200000000000003
 30
0.0
 11
-1.7564652468765827
 21
42.200000000000003
 31
0.0
  0
SOLID
  5
1A6
100
AcDbEntity
  8
Dimension
370
              -2
390
0
 62
               0
100
AcDbTrace
 10
-14.481465246876567
 20
42.200000000000003
 30
0.0
 11
-13.687715246876568
 21
42.412684671492208
 31
0.0
 12
-13.687715246876568
 22
41.987315328507798
 32
0.0
 13
-13.687715246876568
 23
41.987315328507798
 33
0.0
  0
SOLID
  5
1A7
100
AcDbEntity
  8
Dimension
370
              -2
390
0
 62
               0
100
AcDbTrace
 10
-1.7564652468765827
 20
42.200000000000003
 30
0.0
 11
-2.5502152468765829
 21
41.987315328507798
 31
0.0
 12
-2.5502152468765824
 22
42.412684671492208
 32
0.0
 13
-2.5502152468765824
 23
42.412684671492208
 33
0.0
  0
WIPEOUT
  5
1A8
100
AcDbEntity
  8
Dimension
370
              -2
390
0
  6
Continuous
 62
               0
 92
        0
100
AcDbWipeout
 90
        0
 10
-11.095512607296802
 20
10.227154500000019
 30
0.0
 11
5.9530947208404541
 21
0.0
 31
0.0
 12
0.0
 22
5.9530947208404541
 32
0.0
 13
1.0
 23
1.0
340
0
 70
               7
280
               1
281
              50
282
              50
283
               0
360
0
 71
               2
 91
        5
 14
-0.5
 24
-4.7856088262539309
 14
0.5
 24
-4.7856088262539309
 14
0.5
 24
-4.9559792046135094
 14
-0.5
 24
-4.9559792046135094
 14
-0.5
 24
-4.7856088262539309
  0
MTEXT
  5
1A9
100
AcDbEntity
  8
Dimension
390
0
 62
               0
100
AcDbMText
 10
-11.095512607296802
 20
42.544967156250003
 30
0.0
 40
0.6315976562499999
 41
0.0
 71
               1
 72
               1
  1
12.725mm (x4)
  7
Helvetica
 73
               1
 44
0.9673603504928808
  0
POINT
  5
1AA
100
AcDbEntity
  8
Defpoints
370
               0
390
0
 62
               0
100
AcDbPoint
 10
-1.7564652468765827
 20
48.077358415625497
 30
0.0
  0
POINT
  5
1AB
100
AcDbEntity
  8
Defpoints
370
               0
390
0
 62
               0
100
AcDbPoint
 10
-14.481465246876567
 20
48.077358415625497
 30
0.0
  0
POINT
  5
1AC
100
AcDbEntity
  8
Defpoints
370
               0
390
0
 62
               0
100
AcDbPoint
 10
-14.481465246876567
 20
42.200000000000003
 30
0.0
  0
ENDBLK
  5
1AD
100
AcDbEntity
  8
Dimension
390
0
100
AcDbBlockEnd
  0
BLOCK
  5
1AE
100
AcDbEntity
  8
Dimension
390
0
100
AcDbBlockBegin
  2
*D11
 70
               1
 10
0.0
 20
0.0
 30
0.0
  3
*D11
  1

  0
LINE
  5
1AF
100
AcDbEntity
  8
Dimension
370
              -2
390
0
  6
Continuous
 62
               0
100
AcDbLine
 10
-1.2802152456938032
 20
60.802358415625562
 30
0.0
 11
8.8525000023655593
 21
60.802358415625562
 31
0.0
  0
LINE
  5
1B0
100
AcDbEntity
  8
Dimension
370
              -2
390
0
  6
Continuous
 62
               0
100
AcDbLine
 10
-1.2802152456938032
 20
58.262358415625556
 30
0.0
 11
8.8525000023655593
 21
58.262358415625556
 31
0.0
  0
LINE
  5
1B1
100
AcDbEntity
  8
Dimension
370
              -2
390
0
  6
Continuous
 62
               0
100
AcDbLine
 10
7.9000000000000012
 20
58.262358415625556
 30
0.0
 11
7.9000000000000012
 21
60.802358415625562
 31
0.0
  0
LINE
  5
1B2
100
AcDbEntity
  8
Dimension
370
              -2
390
0
  6
Continuous
 62
               0
100
AcDbLine
 10
7.9000000000000012
 20
60.802358415625562
 30
0.0
 11
7.9000000000000012
 21
62.552354913992374
 31
0.0
  0
SOLID
  5
1B3
100
AcDbEntity
  8
Dimension
370
              -2
390
0
 62
               0
100
AcDbTrace
 10
7.9000000000000012
 20
60.802358415625562
 30
0.0
 11
7.6873153285077978
 21
61.596108415625565
 31
0.0
 12
8.1126846714922038
 22
61.596108415625565
 32
0.0
 13
8.1126846714922038
 23
61.596108415625565
 33
0.0
  0
LINE
  5
1B4
100
AcDbEntity
  8
Dimension
370
              -2
390
0
  6
Continuous
 62
               0
100
AcDbLine
 10
7.9000000000000012
 20
58.262358415625556
 30
0.0
 11
7.9000000000000012
 21
56.512361917258744
 31
0.0
  0
SOLID
  5
1B5
100
AcDbEntity
  8
Dimension
370
              -2
390
0
 62
               0
100
AcDbTrace
 10
7.9000000000000012
 20
58.262358415625556
 30
0.0
 11
8.1126846714922038
 21
57.46860841562556
 31
0.0
 12
7.6873153285077978
 22
57.46860841562556
 32
0.0
 13
7.6873153285077978
 23
57.46860841562556
 33
0.0
  0
WIPEOUT
  5
1B6
100
AcDbEntity
  8
Dimension
370
              -2
390
0
  6
Continuous
 62
               0
 92
        0
100
AcDbWipeout
 90
        0
 10
6.0479260868496381
 20
27.627154500000017
 30
0.0
 11
3.7041478263007264
 21
0.0
 31
0.0
 12
0.0
 22
3.7041478263007264
 32
0.0
 13
1.0
 23
1.0
340
0
 70
               7
280
               1
281
              50
282
              50
283
               0
360
0
 71
               2
 91
        5
 14
-0.5
 24
-7.9947284707652457
 14
0.5000000000000002
 24
-7.9947284707652457
 14
0.5000000000000002
 24
-8.2685380074145716
 14
-0.5
 24
-8.2685380074145716
 14
-0.5
 24
-7.9947284707652457
  0
MTEXT
  5
1B7
100
AcDbEntity
  8
Dimension
390
0
 62
               0
100
AcDbMText
 10
6.0479260868496381
 20
59.944967156250001
 30
0.0
 40
0.6315976562499999
 41
0.0
 71
               1
 72
               1
  1
2.540mm
  7
Helvetica
 73
               1
 44
0.9673603504928808
  0
POINT
  5
1B8
100
AcDbEntity
  8
Defpoints
370
               0
390
0
 62
               0
100
AcDbPoint
 10
-1.7564652468765827
 20
58.262358415625556
 30
0.0
  0
POINT
  5
1B9
100
AcDbEntity
  8
Defpoints
370
               0
390
0
 62
               0
100
AcDbPoint
 10
-1.7564652468765827
 20
60.802358415625562
 30
0.0
  0
POINT
  5
1BA
100
AcDbEntity
  8
Defpoints
370
               0
390
0
 62
               0
100
AcDbPoint
 10
7.9000000000000012
 20
60.802358415625562
 30
0.0
  0
ENDBLK
  5
1BB
100
AcDbEntity
  8
Dimension
390
0
100
AcDbBlockEnd
  0
BLOCK
  5
1BC
100
AcDbEntity
  8
Dimension
390
0
100
AcDbBlockBegin
  2
*D12
 70
               1
 10
0.0
 20
0.0
 30
0.0
  3
*D12
  1

  0
LINE
  5
1BD
100
AcDbEntity
  8
Dimension
370
              -2
390
0
  6
Continuous
 62
               0
100
AcDbLine
 10
-14.957715248059348
 20
60.802358415625562
 30
0.0
 11
-24.052500002365562
 21
60.802358415625562
 31
0.0
  0
LINE
  5
1BE
100
AcDbEntity
  8
Dimension
370
              -2
390
0
  6
Continuous
 62
               0
100
AcDbLine
 10
-11.095215248059349
 20
56.689858415625494
 30
0.0
 11
-24.052500002365562
 21
56.689858415625494
 31
0.0
  0
LINE
  5
1BF
100
AcDbEntity
  8
Dimension
370
              -2
390
0
  6
Continuous
 62
               0
100
AcDbLine
 10
-23.100000000000001
 20
56.689858415625494
 30
0.0
 11
-23.100000000000001
 21
60.802358415625562
 31
0.0
  0
LINE
  5
1C0
100
AcDbEntity
  8
Dimension
370
              -2
390
0
  6
Continuous
 62
               0
100
AcDbLine
 10
-23.100000000000001
 20
60.802358415625562
 30
0.0
 11
-23.100000000000001
 21
62.552354913992374
 31
0.0
  0
SOLID
  5
1C1
100
AcDbEntity
  8
Dimension
370
              -2
390
0
 62
               0
100
AcDbTrace
 10
-23.100000000000001
 20
60.802358415625562
 30
0.0
 11
-23.312684671492207
 21
61.596108415625565
 31
0.0
 12
-22.887315328507796
 22
61.596108415625565
 32
0.0
 13
-22.887315328507796
 23
61.596108415625565
 33
0.0
  0
LINE
  5
1C2
100
AcDbEntity
  8
Dimension
370
              -2
390
0
  6
Continuous
 62
               0
100
AcDbLine
 10
-23.100000000000001
 20
56.689858415625494
 30
0.0
 11
-23.100000000000001
 21
54.939861917258682
 31
0.0
  0
SOLID
  5
1C3
100
AcDbEntity
  8
Dimension
370
              -2
390
0
 62
               0
100
AcDbTrace
 10
-23.100000000000001
 20
56.689858415625494
 30
0.0
 11
-22.8873153285078
 21
55.896108415625498
 31
0.0
 12
-23.312684671492207
 22
55.896108415625498
 32
0.0
 13
-23.312684671492207
 23
55.896108415625498
 33
0.0
  0
WIPEOUT
  5
1C4
100
AcDbEntity
  8
Dimension
370
              -2
390
0
  6
Continuous
 62
               0
 92
        0
100
AcDbWipeout
 90
        0
 10
-25.199017112784915
 20
27.127154500000017
 30
0.0
 11
4.1980342255698311
 21
0.0
 31
0.0
 12
0.0
 22
4.1980342255698311
 32
0.0
 13
1.0
 23
1.0
340
0
 70
               7
280
               1
281
              50
282
              50
283
               0
360
0
 71
               2
 91
        5
 14
-0.5
 24
-6.995348610629514
 14
0.5
 24
-6.995348610629514
 14
0.5
 24
-7.2369452593234245
 14
-0.5
 24
-7.2369452593234245
 14
-0.5
 24
-6.995348610629514
  0
MTEXT
  5
1C5
100
AcDbEntity
  8
Dimension
390
0
 62
               0
100
AcDbMText
 10
-25.199017112784915
 20
59.444967156250001
 30
0.0
 40
0.6315976562499999
 41
0.0
 71
               1
 72
               1
  1
4.1125mm
  7
Helvetica
 73
               1
 44
0.9673603504928808
  0
POINT
  5
1C6
100
AcDbEntity
  8
Defpoints
370
               0
390
0
 62
               0
100
AcDbPoint
 10
-10.61896524687657
 20
56.689858415625494
 30
0.0
  0
POINT
  5
1C7
100
AcDbEntity
  8
Defpoints
370
               0
390
0
 62
               0
100
AcDbPoint
 10
-14.481465246876567
 20
60.802358415625562
 30
0.0
  0
POINT
  5
1C8
100
AcDbEntity
  8
Defpoints
370
               0
390
0
 62
               0
100
AcDbPoint
 10
-23.100000000000001
 20
60.802358415625562
 30
0.0
  0
ENDBLK
  5
1C9
100
AcDbEntity
  8
Dimension
390
0
100
AcDbBlockEnd
  0
BLOCK
  5
1CA
100
AcDbEntity
  8
Dimension
390
0
100
AcDbBlockBegin
  2
*D13
 70
               1
 10
0.0
 20
0.0
 30
0.0
  3
*D13
  1

  0
LINE
  5
1CB
100
AcDbEntity
  8
Dimension
370
              -2
390
0
  6
Continuous
 62
               0
100
AcDbLine
 10
-10.61896524687657
 20
51.713608414442717
 30
0.0
 11
-10.61896524687657
 21
43.70660307790169
 31
0.0
  0
LINE
  5
1CC
100
AcDbEntity
  8
Dimension
370
              -2
390
0
  6
Continuous
 62
               0
100
AcDbLine
 10
-5.1189652468765825
 20
51.73735841325994
 30
0.0
 11
-5.1189652468765825
 21
43.706603077901683
 31
0.0
  0
LINE
  5
1CD
100
AcDbEntity
  8
Dimension
370
              -2
390
0
  6
Continuous
 62
               0
100
AcDbLine
 10
-5.1189652468765825
 20
44.659103080267244
 30
0.0
 11
-10.61896524687657
 21
44.659103080267244
 31
0.0
  0
LINE
  5
1CE
100
AcDbEntity
  8
Dimension
370
              -2
390
0
  6
Continuous
 62
               0
100
AcDbLine
 10
-10.61896524687657
 20
44.659103080267244
 30
0.0
 11
-12.368961745243386
 21
44.659103080267244
 31
0.0
  0
SOLID
  5
1CF
100
AcDbEntity
  8
Dimension
370
              -2
390
0
 62
               0
100
AcDbTrace
 10
-10.61896524687657
 20
44.659103080267244
 30
0.0
 11
-11.412715246876569
 21
44.446418408775038
 31
0.0
 12
-11.412715246876569
 22
44.871787751759449
 32
0.0
 13
-11.412715246876569
 23
44.871787751759449
 33
0.0
  0
LINE
  5
1D0
100
AcDbEntity
  8
Dimension
370
              -2
390
0
  6
Continuous
 62
               0
100
AcDbLine
 10
-5.1189652468765825
 20
44.659103080267244
 30
0.0
 11
-3.368968748509765
 21
44.659103080267244
 31
0.0
  0
SOLID
  5
1D1
100
AcDbEntity
  8
Dimension
370
              -2
390
0
 62
               0
100
AcDbTrace
 10
-5.1189652468765825
 20
44.659103080267244
 30
0.0
 11
-4.3252152468765823
 21
44.871787751759449
 31
0.0
 12
-4.3252152468765823
 22
44.446418408775038
 32
0.0
 13
-4.3252152468765823
 23
44.446418408775038
 33
0.0
  0
WIPEOUT
  5
1D2
100
AcDbEntity
  8
Dimension
370
              -2
390
0
  6
Continuous
 62
               0
 92
        0
100
AcDbWipeout
 90
        0
 10
-9.0240975603923808
 20
12.686257580267259
 30
0.0
 11
3.210261427031623
 21
0.0
 31
0.0
 12
0.0
 22
3.210261427031623
 32
0.0
 13
1.0
 23
1.0
340
0
 70
               7
280
               1
281
              50
282
              50
283
               0
360
0
 71
               2
 91
        5
 14
-0.5
 24
-9.3016098424404206
 14
0.5000000000000002
 24
-9.3016098424404206
 14
0.5000000000000002
 24
-9.6175439253969621
 14
-0.5
 24
-9.6175439253969621
 14
-0.5
 24
-9.3016098424404206
  0
MTEXT
  5
1D3
100
AcDbEntity
  8
Dimension
390
0
 62
               0
100
AcDbMText
 10
-9.0240975603923808
 20
45.004070236517236
 30
0.0
 40
0.6315976562499999
 41
0.0
 71
               1
 72
               1
  1
5.50mm
  7
Helvetica
 73
               1
 44
0.9673603504928808
  0
POINT
  5
1D4
100
AcDbEntity
  8
Defpoints
370
               0
390
0
 62
               0
100
AcDbPoint
 10
-5.1189652468765825
 20
52.213608414442717
 30
0.0
  0
POINT
  5
1D5
100
AcDbEntity
  8
Defpoints
370
               0
390
0
 62
               0
100
AcDbPoint
 10
-10.61896524687657
 20
52.189858415625501
 30
0.0
  0
POINT
  5
1D6
100
AcDbEntity
  8
Defpoints
370
               0
390
0
 62
               0
100
AcDbPoint
 10
-10.61896524687657
 20
44.659103080267244
 30
0.0
  0
ENDBLK
  5
1D7
100
AcDbEntity
  8
Dimension
390
0
100
AcDbBlockEnd
  0
BLOCK
  5
1D8
100
AcDbEntity
  8
Dimension
390
0
100
AcDbBlockBegin
  2
*D14
 70
               1
 10
0.0
 20
0.0
 30
0.0
  3
*D14
  1

  0
LINE
  5
1D9
100
AcDbEntity
  8
Dimension
370
              -2
390
0
  6
Continuous
 62
               0
100
AcDbLine
 10
-10.61896524687657
 20
57.166108416808278
 30
0.0
 11
-10.61896524687657
 21
70.552500002365562
 31
0.0
  0
LINE
  5
1DA
100
AcDbEntity
  8
Dimension
370
              -2
390
0
  6
Continuous
 62
               0
100
AcDbLine
 10
-14.481465246876567
 20
61.278608416808339
 30
0.0
 11
-14.481465246876567
 21
70.552500002365562
 31
0.0
  0
LINE
  5
1DB
100
AcDbEntity
  8
Dimension
370
              -2
390
0
  6
Continuous
 62
               0
100
AcDbLine
 10
-14.481465246876567
 20
69.600000000000009
 30
0.0
 11
-10.61896524687657
 21
69.600000000000009
 31
0.0
  0
LINE
  5
1DC
100
AcDbEntity
  8
Dimension
370
              -2
390
0
  6
Continuous
 62
               0
100
AcDbLine
 10
-10.61896524687657
 20
69.600000000000009
 30
0.0
 11
-9.2094826234382836
 21
69.600000000000009
 31
0.0
  0
SOLID
  5
1DD
100
AcDbEntity
  8
Dimension
370
              -2
390
0
 62
               0
100
AcDbTrace
 10
-10.61896524687657
 20
69.600000000000009
 30
0.0
 11
-9.825215246876569
 21
69.812684671492207
 31
0.0
 12
-9.825215246876569
 22
69.387315328507796
 32
0.0
 13
-9.825215246876569
 23
69.387315328507796
 33
0.0
  0
LINE
  5
1DE
100
AcDbEntity
  8
Dimension
370
              -2
390
0
  6
Continuous
 62
               0
100
AcDbLine
 10
-14.481465246876567
 20
69.600000000000009
 30
0.0
 11
-16.231461745243386
 21
69.600000000000009
 31
0.0
  0
SOLID
  5
1DF
100
AcDbEntity
  8
Dimension
370
              -2
390
0
 62
               0
100
AcDbTrace
 10
-14.481465246876567
 20
69.600000000000009
 30
0.0
 11
-15.275215246876567
 21
69.387315328507796
 31
0.0
 12
-15.275215246876567
 22
69.812684671492207
 32
0.0
 13
-15.275215246876567
 23
69.812684671492207
 33
0.0
  0
WIPEOUT
  5
1E0
100
AcDbEntity
  8
Dimension
370
              -2
390
0
  6
Continuous
 62
               0
 92
        0
100
AcDbWipeout
 90
        0
 10
-9.2094826234382836
 20
37.613925400000021
 30
0.0
 11
4.630184782875908
 21
0.0
 31
0.0
 12
0.0
 22
4.630184782875908
 32
0.0
 13
1.0
 23
1.0
340
0
 70
               7
280
               1
281
              50
282
              50
283
               0
360
0
 71
               2
 91
        5
 14
-0.5
 24
-6.2957827766121985
 14
0.4999999999999998
 24
-6.2957827766121985
 14
0.4999999999999998
 24
-6.5205446919139041
 14
-0.5
 24
-6.5205446919139041
 14
-0.5
 24
-6.2957827766121985
  0
MTEXT
  5
1E1
100
AcDbEntity
  8
Dimension
390
0
 62
               0
100
AcDbMText
 10
-9.2094826234382836
 20
69.931738056250012
 30
0.0
 40
0.6315976562499999
 41
0.0
 71
               1
 72
               1
  1
*3.8625mm
  7
Helvetica (bold)
 73
               1
 44
0.9925958378970431
  0
POINT
  5
1E2
100
AcDbEntity
  8
Defpoints
370
               0
390
0
 62
               0
100
AcDbPoint
 10
-14.481465246876567
 20
60.802358415625562
 30
0.0
  0
POINT
  5
1E3
100
AcDbEntity
  8
Defpoints
370
               0
390
0
 62
               0
100
AcDbPoint
 10
-10.61896524687657
 20
56.689858415625494
 30
0.0
  0
POINT
  5
1E4
100
AcDbEntity
  8
Defpoints
370
               0
390
0
 62
               0
100
AcDbPoint
 10
-10.61896524687657
 20
69.600000000000009
 30
0.0
  0
ENDBLK
  5
1E5
100
AcDbEntity
  8
Dimension
390
0
100
AcDbBlockEnd
  0
BLOCK
  5
1E6
100
AcDbEntity
  8
Dimension
390
0
100
AcDbBlockBegin
  2
*D15
 70
               1
 10
0.0
 20
0.0
 30
0.0
  3
*D15
  1

  0
LINE
  5
1E7
100
AcDbEntity
  8
Dimension
370
              -2
390
0
  6
Continuous
 62
               0
100
AcDbLine
 10
-6.6189652468765798
 20
57.142358417991062
 30
0.0
 11
-6.6189652468765798
 21
65.684461004333087
 31
0.0
  0
LINE
  5
1E8
100
AcDbEntity
  8
Dimension
370
              -2
390
0
  6
Continuous
 62
               0
100
AcDbLine
 10
-6.1189652468765825
 20
57.166108416808278
 30
0.0
 11
-6.1189652468765825
 21
65.684461004333087
 31
0.0
  0
LINE
  5
1E9
100
AcDbEntity
  8
Dimension
370
              -2
390
0
  6
Continuous
 62
               0
100
AcDbLine
 10
-6.1189652468765825
 20
64.731961001967534
 30
0.0
 11
-6.6189652468765798
 21
64.731961001967534
 31
0.0
  0
LINE
  5
1EA
100
AcDbEntity
  8
Dimension
370
              -2
390
0
  6
Continuous
 62
               0
100
AcDbLine
 10
-6.6189652468765798
 20
64.731961001967534
 30
0.0
 11
-8.3689617452433964
 21
64.731961001967534
 31
0.0
  0
SOLID
  5
1EB
100
AcDbEntity
  8
Dimension
370
              -2
390
0
 62
               0
100
AcDbTrace
 10
-6.6189652468765798
 20
64.731961001967534
 30
0.0
 11
-7.41271524687658
 21
64.519276330475321
 31
0.0
 12
-7.41271524687658
 22
64.944645673459732
 32
0.0
 13
-7.41271524687658
 23
64.944645673459732
 33
0.0
  0
LINE
  5
1EC
100
AcDbEntity
  8
Dimension
370
              -2
390
0
  6
Continuous
 62
               0
100
AcDbLine
 10
-6.1189652468765825
 20
64.731961001967534
 30
0.0
 11
-4.4689668468765742
 21
64.731961001967534
 31
0.0
  0
SOLID
  5
1ED
100
AcDbEntity
  8
Dimension
370
              -2
390
0
 62
               0
100
AcDbTrace
 10
-6.1189652468765825
 20
64.731961001967534
 30
0.0
 11
-5.3252152468765823
 21
64.944645673459732
 31
0.0
 12
-5.3252152468765823
 22
64.519276330475321
 32
0.0
 13
-5.3252152468765823
 23
64.519276330475321
 33
0.0
  0
WIPEOUT
  5
1EE
100
AcDbEntity
  8
Dimension
370
              -2
390
0
  6
Continuous
 62
               0
 92
        0
100
AcDbWipeout
 90
        0
 10
-4.4689668468765742
 20
32.75911550196755
 30
0.0
 11
4.877128150728014
 21
0.0
 31
0.0
 12
0.0
 22
4.877128150728014
 32
0.0
 13
1.0
 23
1.0
340
0
 70
               7
280
               1
281
              50
282
              50
283
               0
360
0
 71
               2
 91
        5
 14
-0.5
 24
-5.9516922720808685
 14
0.5000000000000002
 24
-5.9516922720808685
 14
0.5000000000000002
 24
-6.1596488745434472
 14
-0.5
 24
-6.1596488745434472
 14
-0.5
 24
-5.9516922720808685
  0
MTEXT
  5
1EF
100
AcDbEntity
  8
Dimension
390
0
 62
               0
100
AcDbMText
 10
-4.4689668468765742
 20
65.076928158217541
 30
0.0
 40
0.6315976562499999
 41
0.0
 71
               1
 72
               1
  1
0.50mm typ.
  7
Helvetica
 73
               1
 44
0.9673603504928808
  0
POINT
  5
1F0
100
AcDbEntity
  8
Defpoints
370
               0
390
0
 62
               0
100
AcDbPoint
 10
-6.1189652468765825
 20
56.689858415625494
 30
0.0
  0
POINT
  5
1F1
100
AcDbEntity
  8
Defpoints
370
               0
390
0
 62
               0
100
AcDbPoint
 10
-6.6189652468765798
 20
56.666108416808285
 30
0.0
  0
POINT
  5
1F2
100
AcDbEntity
  8
Defpoints
370
               0
390
0
 62
               0
100
AcDbPoint
 10
-6.6189652468765798
 20
64.731961001967534
 30
0.0
  0
ENDBLK
  5
1F3
100
AcDbEntity
  8
Dimension
390
0
100
AcDbBlockEnd
  0
BLOCK
  5
1F4
100
AcDbEntity
  8
Dimension
390
0
100
AcDbBlockBegin
  2
*D16
 70
               1
 10
0.0
 20
0.0
 30
0.0
  3
*D16
  1

  0
LINE
  5
1F5
100
AcDbEntity
  8
Dimension
370
              -2
390
0
  6
Continuous
 62
               0
100
AcDbLine
 10
-1.3557160782019517
 20
58.120848331862618
 30
0.0
 11
5.5000000000000027
 21
55.700000000000003
 31
0.0
  0
SOLID
  5
1F6
100
AcDbEntity
  8
Dimension
370
              -2
390
0
 62
               0
100
AcDbTrace
 10
-1.3557160782019517
 20
58.120848331862618
 30
0.0
 11
-0.8101003446468242
 21
58.073113140535156
 31
0.0
 12
-0.9070665879024578
 22
57.806700576740965
 32
0.0
 13
-0.9070665879024578
 23
57.806700576740965
 33
0.0
  0
LINE
  5
1F7
100
AcDbEntity
  8
Dimension
370
              -2
390
0
  6
Continuous
 62
               0
100
AcDbLine
 10
5.5000000000000027
 20
55.700000000000003
 30
0.0
 11
6.9999970019795024
 21
55.700000000000003
 31
0.0
  0
WIPEOUT
  5
1F8
100
AcDbEntity
  8
Dimension
370
              -2
390
0
  6
Continuous
 62
               0
 92
        0
100
AcDbWipeout
 90
        0
 10
6.9999970019795041
 20
23.72715705555558
 30
0.0
 11
4.6390044291814156
 21
0.0
 31
0.0
 12
0.0
 22
4.6390044291814156
 32
0.0
 13
1.0
 23
1.0
340
0
 70
               7
280
               1
281
              50
282
              50
283
               0
360
0
 71
               2
 91
        5
 14
-0.5
 24
-6.2828626767559097
 14
0.5000000000000002
 24
-6.2828626767559097
 14
0.5000000000000002
 24
-6.5014938540878466
 14
-0.5
 24
-6.5014938540878466
 14
-0.5
 24
-6.2828626767559097
  0
MTEXT
  5
1F9
100
AcDbEntity
  8
Dimension
390
0
 62
               0
100
AcDbMText
 10
6.9999970019795041
 20
56.044969711805564
 30
0.0
 40
0.6315976562499999
 41
0.0
 71
               1
 72
               1
  1
Ø 0.850mm
  7
Helvetica
 73
               1
 44
0.9673603504928808
  0
WIPEOUT
  5
1FA
100
AcDbEntity
  8
Dimension
370
              -2
390
0
  6
Continuous
 62
               0
 92
        0
100
AcDbWipeout
 90
        0
 10
11.639001431160921
 20
23.727154833333358
 30
0.0
 11
4.1892149156994307
 21
0.0
 31
0.0
 12
0.0
 22
4.1892149156994307
 32
0.0
 13
1.0
 23
1.0
340
0
 70
               7
280
               1
281
              50
282
              50
283
               0
360
0
 71
               2
 91
        5
 14
-0.5
 24
-7.0111281309725939
 14
0.5
 24
-7.0111281309725939
 14
0.5
 24
-7.2532333990024318
 14
-0.5
 24
-7.2532333990024318
 14
-0.5
 24
-7.0111281309725939
  0
MTEXT
  5
1FB
100
AcDbEntity
  8
Dimension
390
0
 62
               0
100
AcDbMText
 10
11.639001431160921
 20
56.044967489583343
 30
0.0
 40
0.6315976562499999
 41
0.0
 71
               1
 72
               1
  1
±0.025mm
  7
Helvetica
 73
               1
 44
0.9673603504928808
  0
WIPEOUT
  5
1FC
100
AcDbEntity
  8
Dimension
370
              -2
390
0
  6
Continuous
 62
               0
 92
        0
100
AcDbWipeout
 90
        0
 10
15.828216346860351
 20
23.727151944444469
 30
0.0
 11
1.7550694108009353
 21
0.0
 31
0.0
 12
0.0
 22
1.7550694108009353
 32
0.0
 13
1.0
 23
1.0
340
0
 70
               7
280
               1
281
              50
282
              50
283
               0
360
0
 71
               2
 91
        5
 14
-0.5
 24
-17.428481806107275
 14
0.5
 24
-17.428481806107275
 14
0.5
 24
-18.006371264421212
 14
-0.5
 24
-18.006371264421212
 14
-0.5
 24
-17.428481806107275
  0
MTEXT
  5
1FD
100
AcDbEntity
  8
Dimension
390
0
 62
               0
100
AcDbMText
 10
15.828216346860351
 20
56.044968894675932
 30
0.0
 40
0.6316008391203704
 41
0.0
 71
               1
 72
               1
  1
 (x2)
  7
Helvetica
 73
               1
 44
0.9673603504928805
  0
POINT
  5
1FE
100
AcDbEntity
  8
Defpoints
370
               0
390
0
 62
               0
100
AcDbPoint
 10
-2.1572144155512132
 20
58.403868499388494
 30
0.0
  0
POINT
  5
1FF
100
AcDbEntity
  8
Defpoints
370
               0
390
0
 62
               0
100
AcDbPoint
 10
-1.3557160782019517
 20
58.120848331862618
 30
0.0
  0
ENDBLK
  5
200
100
AcDbEntity
  8
Dimension
390
0
100
AcDbBlockEnd
  0
BLOCK
  5
201
100
AcDbEntity
  8
Dimension
390
0
100
AcDbBlockBegin
  2
*D17
 70
               1
 10
0.0
 20
0.0
 30
0.0
  3
*D17
  1

  0
LINE
  5
202
100
AcDbEntity
  8
Dimension
370
              -2
390
0
  6
Continuous
 62
               0
100
AcDbLine
 10
-11.095215248059349
 20
56.689858415625494
 30
0.0
 11
-26.688006676273751
 21
56.689858415625494
 31
0.0
  0
LINE
  5
203
100
AcDbEntity
  8
Dimension
370
              -2
390
0
  6
Continuous
 62
               0
100
AcDbLine
 10
-11.095215248059349
 20
52.189858415625501
 30
0.0
 11
-26.688006676273751
 21
52.189858415625501
 31
0.0
  0
LINE
  5
204
100
AcDbEntity
  8
Dimension
370
              -2
390
0
  6
Continuous
 62
               0
100
AcDbLine
 10
-25.735506673908191
 20
56.689858415625494
 30
0.0
 11
-25.735506673908191
 21
52.189858415625501
 31
0.0
  0
SOLID
  5
205
100
AcDbEntity
  8
Dimension
370
              -2
390
0
 62
               0
100
AcDbTrace
 10
-25.735506673908191
 20
56.689858415625494
 30
0.0
 11
-25.522822002415989
 21
55.896108415625498
 31
0.0
 12
-25.948191345400396
 22
55.896108415625498
 32
0.0
 13
-25.948191345400396
 23
55.896108415625498
 33
0.0
  0
SOLID
  5
206
100
AcDbEntity
  8
Dimension
370
              -2
390
0
 62
               0
100
AcDbTrace
 10
-25.735506673908191
 20
52.189858415625501
 30
0.0
 11
-25.948191345400396
 21
52.983608415625497
 31
0.0
 12
-25.522822002415985
 22
52.983608415625497
 32
0.0
 13
-25.522822002415985
 23
52.983608415625497
 33
0.0
  0
WIPEOUT
  5
207
100
AcDbEntity
  8
Dimension
370
              -2
390
0
  6
Continuous
 62
               0
 92
        0
100
AcDbWipeout
 90
        0
 10
-27.340637387424003
 20
22.974128415625511
 30
0.0
 11
3.2102614270316217
 21
0.0
 31
0.0
 12
0.0
 22
3.2102614270316217
 32
0.0
 13
1.0
 23
1.0
340
0
 70
               7
280
               1
281
              50
282
              50
283
               0
360
0
 71
               2
 91
        5
 14
-0.5
 24
-9.3016098424404241
 14
0.5
 24
-9.3016098424404241
 14
0.5
 24
-9.6175439253969639
 14
-0.5
 24
-9.6175439253969639
 14
-0.5
 24
-9.3016098424404241
  0
MTEXT
  5
208
100
AcDbEntity
  8
Dimension
390
0
 62
               0
100
AcDbMText
 10
-27.340637387424003
 20
55.291941071875492
 30
0.0
 40
0.6315976562499999
 41
0.0
 71
               1
 72
               1
  1
4.50mm
  7
Helvetica
 73
               1
 44
0.9673603504928808
  0
POINT
  5
209
100
AcDbEntity
  8
Defpoints
370
               0
390
0
 62
               0
100
AcDbPoint
 10
-10.61896524687657
 20
52.189858415625501
 30
0.0
  0
POINT
  5
20A
100
AcDbEntity
  8
Defpoints
370
               0
390
0
 62
               0
100
AcDbPoint
 10
-10.61896524687657
 20
56.689858415625494
 30
0.0
  0
POINT
  5
20B
100
AcDbEntity
  8
Defpoints
370
               0
390
0
 62
               0
100
AcDbPoint
 10
-25.735506673908191
 20
56.689858415625494
 30
0.0
  0
ENDBLK
  5
20C
100
AcDbEntity
  8
Dimension
390
0
100
AcDbBlockEnd
  0
BLOCK
  5
20D
100
AcDbEntity
  8
Dimension
390
0
100
AcDbBlockBegin
  2
*D18
 70
               1
 10
0.0
 20
0.0
 30
0.0
  3
*D18
  1

  0
LINE
  5
20E
100
AcDbEntity
  8
Dimension
370
              -2
390
0
  6
Continuous
 62
               0
100
AcDbLine
 10
-16.981465246876567
 20
45.10110841444272
 30
0.0
 11
-16.981465246876567
 21
36.147499997634441
 31
0.0
  0
LINE
  5
20F
100
AcDbEntity
  8
Dimension
370
              -2
390
0
  6
Continuous
 62
               0
100
AcDbLine
 10
0.7435347531234244
 20
45.10110841444272
 30
0.0
 11
0.7435347531234244
 21
36.147499997634441
 31
0.0
  0
LINE
  5
210
100
AcDbEntity
  8
Dimension
370
              -2
390
0
  6
Continuous
 62
               0
100
AcDbLine
 10
-16.981465246876567
 20
37.100000000000001
 30
0.0
 11
0.7435347531234244
 21
37.100000000000001
 31
0.0
  0
SOLID
  5
211
100
AcDbEntity
  8
Dimension
370
              -2
390
0
 62
               0
100
AcDbTrace
 10
-16.981465246876567
 20
37.100000000000001
 30
0.0
 11
-16.187715246876568
 21
37.312684671492207
 31
0.0
 12
-16.187715246876568
 22
36.887315328507796
 32
0.0
 13
-16.187715246876568
 23
36.887315328507796
 33
0.0
  0
SOLID
  5
212
100
AcDbEntity
  8
Dimension
370
              -2
390
0
 62
               0
100
AcDbTrace
 10
0.7435347531234244
 20
37.100000000000001
 30
0.0
 11
-0.0502152468765757
 21
36.887315328507796
 31
0.0
 12
-0.0502152468765757
 22
37.312684671492207
 32
0.0
 13
-0.0502152468765757
 23
37.312684671492207
 33
0.0
  0
WIPEOUT
  5
213
100
AcDbEntity
  8
Dimension
370
              -2
390
0
  6
Continuous
 62
               0
 92
        0
100
AcDbWipeout
 90
        0
 10
-11.211662549143185
 20
5.1271545000000183
 30
0.0
 11
5.4151114357842332
 21
0.0
 31
0.0
 12
0.0
 22
5.4151114357842332
 32
0.0
 13
1.0
 23
1.0
340
0
 70
               7
280
               1
281
              50
282
              50
283
               0
360
0
 71
               2
 91
        5
 14
-0.5
 24
-5.3107262192367095
 14
0.4999999999999999
 24
-5.3107262192367095
 14
0.4999999999999999
 24
-5.4980226418546714
 14
-0.5
 24
-5.4980226418546714
 14
-0.5
 24
-5.3107262192367095
  0
MTEXT
  5
214
100
AcDbEntity
  8
Dimension
390
0
 62
               0
100
AcDbMText
 10
-11.211662549143185
 20
37.444967156250001
 30
0.0
 40
0.6315976562499999
 41
0.0
 71
               1
 72
               1
  1
17.73mm sqr.
  7
Helvetica
 73
               1
 44
0.9673603504928808
  0
POINT
  5
215
100
AcDbEntity
  8
Defpoints
370
               0
390
0
 62
               0
100
AcDbPoint
 10
0.7435347531234244
 20
45.577358415625497
 30
0.0
  0
POINT
  5
216
100
AcDbEntity
  8
Defpoints
370
               0
390
0
 62
               0
100
AcDbPoint
 10
-16.981465246876567
 20
45.577358415625497
 30
0.0
  0
POINT
  5
217
100
AcDbEntity
  8
Defpoints
370
               0
390
0
 62
               0
100
AcDbPoint
 10
-16.981465246876567
 20
37.100000000000001
 30
0.0
  0
ENDBLK
  5
218
100
AcDbEntity
  8
Dimension
390
0
100
AcDbBlockEnd
  0
BLOCK
  5
219
100
AcDbEntity
  8
Dimension
390
0
100
AcDbBlockBegin
  2
*D19
 70
               1
 10
0.0
 20
0.0
 30
0.0
  3
*D19
  1

  0
LINE
  5
21A
100
AcDbEntity
  8
Dimension
370
              -2
390
0
  6
Continuous
 62
               0
100
AcDbLine
 10
-0.8783391625089303
 20
47.865917027774266
 30
0.0
 11
4.6210347531234275
 21
46.457939125433541
 31
0.0
  0
SOLID
  5
21B
100
AcDbEntity
  8
Dimension
370
              -2
390
0
 62
               0
100
AcDbTrace
 10
-0.8783391625089303
 20
47.865917027774266
 30
0.0
 11
-0.3306392654905279
 21
47.865917027774266
 31
0.0
 12
-0.4040171380408735
 22
47.592067079265064
 32
0.0
 13
-0.4040171380408735
 23
47.592067079265064
 33
0.0
  0
LINE
  5
21C
100
AcDbEntity
  8
Dimension
370
              -2
390
0
  6
Continuous
 62
               0
100
AcDbLine
 10
4.6210347531234275
 20
46.457939125433541
 30
0.0
 11
6.1210317551029272
 21
46.457939125433541
 31
0.0
  0
WIPEOUT
  5
21D
100
AcDbEntity
  8
Dimension
370
              -2
390
0
  6
Continuous
 62
               0
 92
        0
100
AcDbWipeout
 90
        0
 10
6.1210317551029272
 20
14.485091069878003
 30
0.0
 11
4.1451388888888889
 21
0.0
 31
0.0
 12
0.0
 22
4.1451388888888889
 32
0.0
 13
1.0
 23
1.0
340
0
 70
               7
280
               1
281
              50
282
              50
283
               0
360
0
 71
               2
 91
        5
 14
-0.5
 24
-7.0909953426034482
 14
0.5000000000000002
 24
-7.0909953426034482
 14
0.5000000000000002
 24
-7.3356761936672754
 14
-0.5
 24
-7.3356761936672754
 14
-0.5
 24
-7.0909953426034482
  0
MTEXT
  5
21E
100
AcDbEntity
  8
Dimension
390
0
 62
               0
100
AcDbMText
 10
6.1210317551029272
 20
46.80290802010947
 30
0.0
 40
0.6316008391203704
 41
0.0
 71
               1
 72
               1
  1
Ø 1.75mm
  7
Helvetica
 73
               1
 44
0.9673603504928805
  0
WIPEOUT
  5
21F
100
AcDbEntity
  8
Dimension
370
              -2
390
0
  6
Continuous
 62
               0
 92
        0
100
AcDbWipeout
 90
        0
 10
10.266170643991817
 20
14.485091069878003
 30
0.0
 11
3.6953473567962654
 21
0.0
 31
0.0
 12
0.0
 22
3.6953473567962654
 32
0.0
 13
1.0
 23
1.0
340
0
 70
               7
280
               1
281
              50
282
              50
283
               0
360
0
 71
               2
 91
        5
 14
-0.5
 24
-8.0149586660994316
 14
0.5
 24
-8.0149586660994316
 14
0.5
 24
-8.2894216632641715
 14
-0.5
 24
-8.2894216632641715
 14
-0.5
 24
-8.0149586660994316
  0
MTEXT
  5
220
100
AcDbEntity
  8
Dimension
390
0
 62
               0
100
AcDbMText
 10
10.266170643991817
 20
46.80290802010947
 30
0.0
 40
0.6316008391203704
 41
0.0
 71
               1
 72
               1
  1
±0.05mm
  7
Helvetica
 73
               1
 44
0.9673603504928805
  0
WIPEOUT
  5
221
100
AcDbEntity
  8
Dimension
370
              -2
390
0
  6
Continuous
 62
               0
 92
        0
100
AcDbWipeout
 90
        0
 10
13.961518000788082
 20
14.485091069878003
 30
0.0
 11
1.7550694108009353
 21
0.0
 31
0.0
 12
0.0
 22
1.7550694108009353
 32
0.0
 13
1.0
 23
1.0
340
0
 70
               7
280
               1
281
              50
282
              50
283
               0
360
0
 71
               2
 91
        5
 14
-0.5
 24
-17.428481806107278
 14
0.5
 24
-17.428481806107278
 14
0.5
 24
-18.006371264421208
 14
-0.5
 24
-18.006371264421208
 14
-0.5
 24
-17.428481806107278
  0
MTEXT
  5
222
100
AcDbEntity
  8
Dimension
390
0
 62
               0
100
AcDbMText
 10
13.961518000788082
 20
46.80290802010947
 30
0.0
 40
0.6316008391203704
 41
0.0
 71
               1
 72
               1
  1
 (x4)
  7
Helvetica
 73
               1
 44
0.9673603504928805
  0
POINT
  5
223
100
AcDbEntity
  8
Defpoints
370
               0
390
0
 62
               0
100
AcDbPoint
 10
-2.5736579043714243
 20
48.299961223092815
 30
0.0
  0
POINT
  5
224
100
AcDbEntity
  8
Defpoints
370
               0
390
0
 62
               0
100
AcDbPoint
 10
-0.8783391625089303
 20
47.865917027774266
 30
0.0
  0
ENDBLK
  5
225
100
AcDbEntity
  8
Dimension
390
0
100
AcDbBlockEnd
  0
BLOCK
  5
226
100
AcDbEntity
  8
Dimension
390
0
100
AcDbBlockBegin
  2
*D20
 70
               1
 10
0.0
 20
0.0
 30
0.0
  3
*D20
  1

  0
LINE
  5
227
100
AcDbEntity
  8
Dimension
370
              -2
390
0
  6
Continuous
 62
               0
100
AcDbLine
 10
-5.0121227441172298
 20
55.169360862059605
 30
0.0
 11
3.6095576753244503
 21
49.783933554524978
 31
0.0
  0
SOLID
  5
228
100
AcDbEntity
  8
Dimension
370
              -2
390
0
 62
               0
100
AcDbTrace
 10
-5.0121227441172298
 20
55.169360862059605
 30
0.0
 11
-4.4883547277580664
 21
55.009228909491867
 31
0.0
 12
-4.6385923125442794
 22
54.768798514998757
 32
0.0
 13
-4.6385923125442794
 23
54.768798514998757
 33
0.0
  0
LINE
  5
229
100
AcDbEntity
  8
Dimension
370
              -2
390
0
  6
Continuous
 62
               0
100
AcDbLine
 10
3.6095576753244503
 20
49.783933554524978
 30
0.0
 11
5.10955467730395
 21
49.783933554524978
 31
0.0
  0
WIPEOUT
  5
22A
100
AcDbEntity
  8
Dimension
370
              -2
390
0
  6
Continuous
 62
               0
 92
        0
100
AcDbWipeout
 90
        0
 10
5.10955467730395
 20
17.811085498969437
 30
0.0
 11
8.6165976259443475
 21
0.0
 31
0.0
 12
0.0
 22
8.6165976259443475
 32
0.0
 13
1.0
 23
1.0
340
0
 70
               7
280
               1
281
              50
282
              50
283
               0
360
0
 71
               2
 91
        5
 14
-0.5
 24
-3.1517580796923257
 14
0.5
 24
-3.1517580796923257
 14
0.5
 24
-3.2694653413215882
 14
-0.5
 24
-3.2694653413215882
 14
-0.5
 24
-3.1517580796923257
  0
MTEXT
  5
22B
100
AcDbEntity
  8
Dimension
390
0
 62
               0
100
AcDbMText
 10
5.10955467730395
 20
50.128902449200901
 30
0.0
 40
0.6316008391203704
 41
0.0
 71
               1
 72
               1
  1
Ø 0.25mm pad (x120)
  7
Helvetica
 73
               1
 44
0.9673603504928805
  0
POINT
  5
22C
100
AcDbEntity
  8
Defpoints
370
               0
390
0
 62
               0
100
AcDbPoint
 10
-5.2326381947106153
 20
55.307103143330082
 30
0.0
  0
POINT
  5
22D
100
AcDbEntity
  8
Defpoints
370
               0
390
0
 62
               0
100
AcDbPoint
 10
-5.0121227441172298
 20
55.169360862059605
 30
0.0
  0
ENDBLK
  5
22E
100
AcDbEntity
  8
Dimension
390
0
100
AcDbBlockEnd
  0
BLOCK
  5
22F
100
AcDbEntity
  8
None
390
0
100
AcDbBlockBegin
  2
IE i logo
 70
               0
 10
0.0
 20
0.0
 30
0.0
  3
IE i logo
  1

  0
CIRCLE
  5
230
102
{ACAD_REACTORS
330
231
102
}
100
AcDbEntity
  8
None
370
               5
390
0
  6
Continuous
 62
               7
100
AcDbCircle
 10
0.0
 20
0.0
 30
0.0
 40
2.6708000015163993
  0
HATCH
  5
231
100
AcDbEntity
  8
None
370
               0
390
0
  6
Continuous
 62
               7
100
AcDbHatch
 10
0.0
 20
0.0
 30
0.0
210
0.0
220
0.0
230
1.0
  2
SOLID
 70
               1
 71
               1
 91
        1
 92
        1
 93
        1
 72
               2
 10
0.0
 20
0.0
 40
2.6708000015163993
 50
0.0
 51
360.0
 73
               0
 97
        1
330
230
 75
               0
 76
               1
 98
        1
 10
0.0
 20
0.0
  0
WIPEOUT
  5
232
100
AcDbEntity
  8
None
370
               5
390
0
  6
Continuous
 62
               7
 92
        0
100
AcDbWipeout
 90
        0
 10
-1.01559
 20
0.7356799999999999
 30
0.0
 11
0.6889700000000001
 21
0.0
 31
0.0
 12
0.0
 22
0.6889700000000001
 32
0.0
 13
1.0
 23
1.0
340
0
 70
               7
280
               1
281
              50
282
              50
283
               0
360
0
 71
               2
 91
       97
 14
-0.3841458989506075
 24
0.0667590751411526
 14
-0.3634902916672715
 24
0.0345951202519703
 14
-0.3415614975978636
 24
0.0026924249241619
 14
-0.3183595167423836
 24
-0.0289490108422718
 14
-0.2938843491008316
 24
-0.0603291870473315
 14
-0.2681359946732077
 24
-0.0914481036910172
 14
-0.2411144534595119
 24
-0.1223057607733282
 14
-0.2128197254597441
 24
-0.1529021582942652
 14
-0.1832518106739045
 24
-0.1832372962538282
 14
-0.1529166727143417
 24
-0.2128053244335748
 14
-0.1223202751934046
 24
-0.2411003926150633
 14
-0.0914626181110934
 24
-0.2681225007982933
 14
-0.0603437014674079
 24
-0.293871648983265
 14
-0.0289635252623482
 24
-0.3183478371699785
 14
0.0026779105040858
 24
-0.3415510653584339
 14
0.0345806058318939
 24
-0.3634813335486309
 14
0.0667445607210765
 24
-0.3841386417405692
 14
0.0986291130237893
 24
-0.4031876841517047
 14
0.1296936005921883
 24
-0.4202931549994916
 14
0.1599380234262741
 24
-0.4354550542839309
 14
0.1893623815260462
 24
-0.4486733820050221
 14
0.2179666748915049
 24
-0.4599481381627649
 14
0.2457509035226498
 24
-0.4692793227571591
 14
0.2727150674194813
 24
-0.4766669357882054
 14
0.2988591665819992
 24
-0.4821109772559039
 14
0.3237520773763735
 24
-0.4855364937878283
 14
0.3469626761687736
 24
-0.4868685320115535
 14
0.3684909629591999
 24
-0.4861070919270796
 14
0.3883369377476522
 24
-0.4832521735344065
 14
0.4065006005341306
 24
-0.478303776833534
 14
0.4229819513186351
 24
-0.4712619018244624
 14
0.4377809901011655
 24
-0.4621265485071919
 14
0.450897716881722
 24
-0.450897716881722
 14
0.4621265485071919
 24
-0.4377809901011653
 14
0.4712619018244625
 24
-0.4229819513186348
 14
0.478303776833534
 24
-0.4065006005341303
 14
0.4832521735344064
 24
-0.3883369377476522
 14
0.4861070919270795
 24
-0.3684909629591999
 14
0.4868685320115535
 24
-0.346962676168774
 14
0.485536493787828
 24
-0.3237520773763738
 14
0.4821109772559037
 24
-0.2988591665819994
 14
0.4766669357882054
 24
-0.2727150674194814
 14
0.4692793227571591
 24
-0.2457509035226501
 14
0.4599481381627646
 24
-0.2179666748915049
 14
0.4486733820050219
 24
-0.1893623815260463
 14
0.4354550542839309
 24
-0.1599380234262744
 14
0.4202931549994919
 24
-0.1296936005921886
 14
0.4031876841517047
 24
-0.0986291130237894
 14
0.3841386417405692
 24
-0.0667445607210765
 14
0.3634814469425374
 24
-0.0345806058318942
 14
0.341551518934061
 24
-0.0026779105040858
 14
0.3183488577151399
 24
0.0289635252623479
 14
0.2938734632857745
 24
0.0603437014674076
 14
0.2681253356459643
 24
0.0914626181110932
 14
0.2411044747957094
 24
0.1223202751934044
 14
0.2128108807350102
 24
0.1529166727143415
 14
0.1832445534638663
 24
0.1832518106739043
 14
0.1529110030189994
 24
0.212819838853651
 14
0.1223157394371308
 24
0.2411149070351392
 14
0.0914587627182606
 24
0.2681370152183693
 14
0.0603400728623887
 24
0.2938861634033411
 14
0.0289596698695154
 24
0.3183623515900547
 14
-0.0026824462603596
 24
0.3415655797785099
 14
-0.0345862755272363
 24
0.3634958479687069
 14
-0.0667518179311145
 24
0.3841531561606457
 14
-0.098637957748523
 24
0.4032020851778743
 14
-0.1297035792559907
 24
0.420307215843941
 14
-0.1599486824535175
 24
0.4354685481588458
 14
-0.1893732673411033
 24
0.4486860821225887
 14
-0.2179773339187483
 24
0.4599598177351699
 14
-0.2457608821864522
 24
0.4692897549965891
 14
-0.2727239121442152
 24
0.4766758939068465
 14
-0.2988664237920372
 24
0.4821182344659419
 14
-0.3237576336778087
 24
0.4855420500892637
 14
-0.3469667583494201
 24
0.4868726141922
 14
-0.368493797806871
 24
0.4861099267747507
 14
-0.3883387520501617
 24
0.483253987836916
 14
-0.4065016210792922
 24
0.4783047973786958
 14
-0.4229824048942623
 24
0.4712623554000899
 14
-0.4377811034950722
 24
0.4621266619010988
 14
-0.450897716881722
 24
0.450897716881722
 14
-0.4621265485071919
 24
0.4377811034950722
 14
-0.4712619018244625
 24
0.4229824048942623
 14
-0.478303776833534
 24
0.4065016210792922
 14
-0.4832521735344062
 24
0.3883387520501617
 14
-0.4861070919270796
 24
0.368493797806871
 14
-0.4868685320115535
 24
0.3469667583494201
 14
-0.4855364937878283
 24
0.3237576336778087
 14
-0.4821109772559035
 24
0.2988664237920372
 14
-0.4766670491821122
 24
0.272724025538122
 14
-0.4692797763327865
 24
0.2457613357620797
 14
-0.4599491587079262
 24
0.21797835446391
 14
-0.4486751963075315
 24
0.1893750816436128
 14
-0.4354578891316022
 24
0.1599515173011885
 14
-0.4202972371801385
 24
0.1297076614366372
 14
-0.4031932404531402
 24
0.0986435140499583
 14
-0.3841458989506075
 24
0.0667590751411526
  0
SPLINE
  5
233
100
AcDbEntity
  8
None
370
               5
390
0
  6
Continuous
 62
               7
100
AcDbSpline
210
0.0
220
0.0
230
1.0
 70
               9
 71
               2
 72
              17
 73
              14
 74
               0
 42
0.000001
 43
0.000001
 40
0.0
 40
0.0
 40
0.0
 40
1.0
 40
2.0
 40
3.0
 40
4.0
 40
5.0
 40
6.0
 40
7.0
 40
8.0
 40
9.0
 40
10.0
 40
11.0
 40
12.0
 40
12.0
 40
12.0
 10
-0.93577
 20
1.03417
 30
0.0
 10
-0.8805999999999999
 20
1.12317
 30
0.0
 10
-0.71412
 20
1.28965
 30
0.0
 10
-0.5361199999999999
 20
1.3999999999999999
 30
0.0
 10
-0.39428
 20
1.42465
 30
0.0
 10
-0.32662
 20
1.3569899999999999
 30
0.0
 10
-0.35127
 20
1.21515
 30
0.0
 10
-0.46162
 20
1.03715
 30
0.0
 10
-0.6280899999999999
 20
0.8706699999999999
 30
0.0
 10
-0.8060999999999999
 20
0.7603199999999999
 30
0.0
 10
-0.9479299999999999
 20
0.7356799999999999
 30
0.0
 10
-1.01559
 20
0.8033399999999999
 30
0.0
 10
-0.9909399999999999
 20
0.94517
 30
0.0
 10
-0.93577
 20
1.03417
 30
0.0
  0
WIPEOUT
  5
234
100
AcDbEntity
  8
None
370
               5
390
0
  6
Continuous
 62
               7
 92
        0
100
AcDbWipeout
 90
        0
 10
-1.7197899999999999
 20
-1.8961799999999998
 30
0.0
 11
1.8520799999999999
 21
0.0
 31
0.0
 12
0.0
 22
1.8520799999999999
 32
0.0
 13
1.0
 23
1.0
340
0
 70
               7
280
               1
281
              50
282
              50
283
               0
360
0
 71
               2
 91
       36
 14
-0.4523832663815818
 24
0.3095222668567234
 14
-0.25
 24
0.1190499330482485
 14
-0.2142887996198868
 24
0.1190499330482485
 14
-0.0714278000950283
 24
0.3690499330482485
 14
0.0
 24
0.4523832663815818
 14
0.0714278000950284
 24
0.5
 14
0.214283400285085
 24
0.5
 14
0.3690499330482485
 24
0.4047611334283617
 14
0.4761889335233899
 24
0.3095222668567234
 14
0.5
 24
0.238094466761695
 14
0.5
 24
0.1071443998099435
 14
0.4880944667616949
 24
0.0714278000950283
 14
0.4642887996198868
 24
0.0714278000950283
 14
0.4285721999049716
 24
0.0829607792319987
 14
0.3214278000950284
 24
0.1666666666666667
 14
0.2747235540581401
 24
0.1785721999049718
 14
0.214283400285085
 24
0.1666666666666667
 14
0.1904777331432768
 24
0.1070958057967258
 14
0.1428556001900566
 24
0.0238110664766101
 14
0.1190445337134465
 24
-0.0833333333333333
 14
0.1071390004751416
 24
-0.2142834002850848
 14
0.0714278000950284
 24
-0.2857165997149149
 14
0.0238110664766101
 24
-0.3452388665716383
 14
-0.02381106647661
 24
-0.3866193684938015
 14
-0.0714278000950283
 24
-0.3866193684938015
 14
-0.1309554662865535
 24
-0.3571443998099434
 14
-0.1785721999049717
 24
-0.29762213295322
 14
-0.261905533238305
 24
-0.1785721999049716
 14
-0.3424204138050191
 24
-0.1071443998099433
 14
-0.4727063625761306
 24
0.0238110664766101
 14
-0.5
 24
0.0714278000950283
 14
-0.5
 24
0.1547611334283617
 14
-0.5
 24
0.238094466761695
 14
-0.5
 24
0.2857165997149152
 14
-0.4880944667616949
 24
0.3214278000950283
 14
-0.4523832663815818
 24
0.3095222668567234
  0
POLYLINE
  5
235
100
AcDbEntity
  8
None
370
               5
390
0
  6
Continuous
 62
               7
100
AcDb2dPolyline
 66
               1
 10
0.0
 20
0.0
 30
0.0
 70
               1
 75
               5
  0
VERTEX
  5
236
100
AcDbEntity
  8
None
370
               5
390
0
  6
Continuous
 62
               7
100
AcDbVertex
100
AcDb2dVertex
 10
-1.6315999999999999
 20
-1.5433999999999999
 30
0.0
  0
VERTEX
  5
237
100
AcDbEntity
  8
None
370
               5
390
0
  6
Continuous
 62
               7
100
AcDbVertex
100
AcDb2dVertex
 10
-1.2567699999999999
 20
-1.1906299999999999
 30
0.0
  0
VERTEX
  5
238
100
AcDbEntity
  8
None
370
               5
390
0
  6
Continuous
 62
               7
100
AcDbVertex
100
AcDb2dVertex
 10
-1.1906299999999999
 20
-1.1906299999999999
 30
0.0
  0
VERTEX
  5
239
100
AcDbEntity
  8
None
370
               5
390
0
  6
Continuous
 62
               7
100
AcDbVertex
100
AcDb2dVertex
 10
-0.92604
 20
-1.6536499999999998
 30
0.0
  0
VERTEX
  5
23A
100
AcDbEntity
  8
None
370
               5
390
0
  6
Continuous
 62
               7
100
AcDbVertex
100
AcDb2dVertex
 10
-0.79375
 20
-1.8079899999999998
 30
0.0
  0
VERTEX
  5
23B
100
AcDbEntity
  8
None
370
               5
390
0
  6
Continuous
 62
               7
100
AcDbVertex
100
AcDb2dVertex
 10
-0.6614599999999999
 20
-1.8961799999999998
 30
0.0
  0
VERTEX
  5
23C
100
AcDbEntity
  8
None
370
               5
390
0
  6
Continuous
 62
               7
100
AcDbVertex
100
AcDb2dVertex
 10
-0.39688
 20
-1.8961799999999998
 30
0.0
  0
VERTEX
  5
23D
100
AcDbEntity
  8
None
370
               5
390
0
  6
Continuous
 62
               7
100
AcDbVertex
100
AcDb2dVertex
 10
-0.11024
 20
-1.7197899999999999
 30
0.0
  0
VERTEX
  5
23E
100
AcDbEntity
  8
None
370
               5
390
0
  6
Continuous
 62
               7
100
AcDbVertex
100
AcDb2dVertex
 10
0.08819
 20
-1.5433999999999999
 30
0.0
  0
VERTEX
  5
23F
100
AcDbEntity
  8
None
370
               5
390
0
  6
Continuous
 62
               7
100
AcDbVertex
100
AcDb2dVertex
 10
0.13229
 20
-1.4111099999999999
 30
0.0
  0
VERTEX
  5
240
100
AcDbEntity
  8
None
370
               5
390
0
  6
Continuous
 62
               7
100
AcDbVertex
100
AcDb2dVertex
 10
0.13229
 20
-1.16858
 30
0.0
  0
VERTEX
  5
241
100
AcDbEntity
  8
None
370
               5
390
0
  6
Continuous
 62
               7
100
AcDbVertex
100
AcDb2dVertex
 10
0.11024
 20
-1.1024299999999998
 30
0.0
  0
VERTEX
  5
242
100
AcDbEntity
  8
None
370
               5
390
0
  6
Continuous
 62
               7
100
AcDbVertex
100
AcDb2dVertex
 10
0.06615
 20
-1.1024299999999998
 30
0.0
  0
VERTEX
  5
243
100
AcDbEntity
  8
None
370
               5
390
0
  6
Continuous
 62
               7
100
AcDbVertex
100
AcDb2dVertex
 10
0.0
 20
-1.1237899999999998
 30
0.0
  0
VERTEX
  5
244
100
AcDbEntity
  8
None
370
               5
390
0
  6
Continuous
 62
               7
100
AcDbVertex
100
AcDb2dVertex
 10
-0.19844
 20
-1.2788199999999998
 30
0.0
  0
VERTEX
  5
245
100
AcDbEntity
  8
None
370
               5
390
0
  6
Continuous
 62
               7
100
AcDbVertex
100
AcDb2dVertex
 10
-0.28494
 20
-1.30087
 30
0.0
  0
VERTEX
  5
246
100
AcDbEntity
  8
None
370
               5
390
0
  6
Continuous
 62
               7
100
AcDbVertex
100
AcDb2dVertex
 10
-0.39688
 20
-1.2788199999999998
 30
0.0
  0
VERTEX
  5
247
100
AcDbEntity
  8
None
370
               5
390
0
  6
Continuous
 62
               7
100
AcDbVertex
100
AcDb2dVertex
 10
-0.44097
 20
-1.1684899999999998
 30
0.0
  0
VERTEX
  5
248
100
AcDbEntity
  8
None
370
               5
390
0
  6
Continuous
 62
               7
100
AcDbVertex
100
AcDb2dVertex
 10
-0.5291699999999999
 20
-1.0142399999999998
 30
0.0
  0
VERTEX
  5
249
100
AcDbEntity
  8
None
370
               5
390
0
  6
Continuous
 62
               7
100
AcDbVertex
100
AcDb2dVertex
 10
-0.57327
 20
-0.8158
 30
0.0
  0
VERTEX
  5
24A
100
AcDbEntity
  8
None
370
               5
390
0
  6
Continuous
 62
               7
100
AcDbVertex
100
AcDb2dVertex
 10
-0.59532
 20
-0.57327
 30
0.0
  0
VERTEX
  5
24B
100
AcDbEntity
  8
None
370
               5
390
0
  6
Continuous
 62
               7
100
AcDbVertex
100
AcDb2dVertex
 10
-0.6614599999999999
 20
-0.44097
 30
0.0
  0
VERTEX
  5
24C
100
AcDbEntity
  8
None
370
               5
390
0
  6
Continuous
 62
               7
100
AcDbVertex
100
AcDb2dVertex
 10
-0.7496499999999999
 20
-0.33073
 30
0.0
  0
VERTEX
  5
24D
100
AcDbEntity
  8
None
370
               5
390
0
  6
Continuous
 62
               7
100
AcDbVertex
100
AcDb2dVertex
 10
-0.8378499999999999
 20
-0.25409
 30
0.0
  0
VERTEX
  5
24E
100
AcDbEntity
  8
None
370
               5
390
0
  6
Continuous
 62
               7
100
AcDbVertex
100
AcDb2dVertex
 10
-0.92604
 20
-0.25409
 30
0.0
  0
VERTEX
  5
24F
100
AcDbEntity
  8
None
370
               5
390
0
  6
Continuous
 62
               7
100
AcDbVertex
100
AcDb2dVertex
 10
-1.0362899999999999
 20
-0.30868
 30
0.0
  0
VERTEX
  5
250
100
AcDbEntity
  8
None
370
               5
390
0
  6
Continuous
 62
               7
100
AcDbVertex
100
AcDb2dVertex
 10
-1.1244799999999999
 20
-0.41892
 30
0.0
  0
VERTEX
  5
251
100
AcDbEntity
  8
None
370
               5
390
0
  6
Continuous
 62
               7
100
AcDbVertex
100
AcDb2dVertex
 10
-1.2788199999999998
 20
-0.6394099999999999
 30
0.0
  0
VERTEX
  5
252
100
AcDbEntity
  8
None
370
               5
390
0
  6
Continuous
 62
               7
100
AcDbVertex
100
AcDb2dVertex
 10
-1.4279399999999998
 20
-0.7716999999999999
 30
0.0
  0
VERTEX
  5
253
100
AcDbEntity
  8
None
370
               5
390
0
  6
Continuous
 62
               7
100
AcDbVertex
100
AcDb2dVertex
 10
-1.6692399999999998
 20
-1.0142399999999998
 30
0.0
  0
VERTEX
  5
254
100
AcDbEntity
  8
None
370
               5
390
0
  6
Continuous
 62
               7
100
AcDbVertex
100
AcDb2dVertex
 10
-1.7197899999999999
 20
-1.1024299999999998
 30
0.0
  0
VERTEX
  5
255
100
AcDbEntity
  8
None
370
               5
390
0
  6
Continuous
 62
               7
100
AcDbVertex
100
AcDb2dVertex
 10
-1.7197899999999999
 20
-1.2567699999999999
 30
0.0
  0
VERTEX
  5
256
100
AcDbEntity
  8
None
370
               5
390
0
  6
Continuous
 62
               7
100
AcDbVertex
100
AcDb2dVertex
 10
-1.7197899999999999
 20
-1.4111099999999999
 30
0.0
  0
VERTEX
  5
257
100
AcDbEntity
  8
None
370
               5
390
0
  6
Continuous
 62
               7
100
AcDbVertex
100
AcDb2dVertex
 10
-1.7197899999999999
 20
-1.4993099999999999
 30
0.0
  0
VERTEX
  5
258
100
AcDbEntity
  8
None
370
               5
390
0
  6
Continuous
 62
               7
100
AcDbVertex
100
AcDb2dVertex
 10
-1.6977399999999998
 20
-1.5654499999999998
 30
0.0
  0
SEQEND
  5
259
100
AcDbEntity
  8
None
370
               5
390
0
  6
Continuous
 62
               7
  0
POLYLINE
  5
25A
100
AcDbEntity
  8
None
370
               5
390
0
  6
Continuous
 62
               7
100
AcDb2dPolyline
 66
               1
 10
0.0
 20
0.0
 30
0.0
 75
               5
  0
VERTEX
  5
25B
100
AcDbEntity
  8
None
370
               5
390
0
  6
Continuous
 62
               7
100
AcDbVertex
100
AcDb2dVertex
 10
-1.7197899999999999
 20
-1.1410199999999999
 30
0.0
  0
VERTEX
  5
25C
100
AcDbEntity
  8
None
370
               5
390
0
  6
Continuous
 62
               7
100
AcDbVertex
100
AcDb2dVertex
 10
-1.7197899999999999
 20
-1.4552099999999999
 30
0.0
  0
VERTEX
  5
25D
100
AcDbEntity
  8
None
370
               5
390
0
  6
Continuous
 62
               7
100
AcDbVertex
100
AcDb2dVertex
 10
-1.7197899999999999
 20
-1.4772599999999998
 30
0.0
  0
VERTEX
  5
25E
100
AcDbEntity
  8
None
370
               5
390
0
  6
Continuous
 62
               7
100
AcDbVertex
100
AcDb2dVertex
 10
-1.7142799999999998
 20
-1.5158399999999999
 30
0.0
  0
SEQEND
  5
25F
100
AcDbEntity
  8
None
370
               5
390
0
  6
Continuous
 62
               7
  0
ENDBLK
  5
260
100
AcDbEntity
  8
None
390
0
100
AcDbBlockEnd
  0
BLOCK
  5
261
100
AcDbEntity
  8
None
390
0
100
AcDbBlockBegin
  2
©2006_address
 70
               0
 10
0.0
 20
0.0
 30
0.0
  3
©2006_address
  1

  0
MTEXT
  5
262
100
AcDbEntity
  8
None
390
0
 62
               7
100
AcDbMText
 10
0.0
 20
2.6946263104166697
 30
0.0
 40
1.1368815104166665
 41
36.738279999999996
 71
               2
 72
               1
  1
© 2010 IRONWOOD ELECTRONICS, INC.\PTele: (952) 229-8200\Pwww.ironwoodelectronics.com
  7
Arial
 73
               1
 44
0.9673603504928806
  0
ENDBLK
  5
263
100
AcDbEntity
  8
None
390
0
100
AcDbBlockEnd
  0
BLOCK
  5
264
100
AcDbEntity
  8
None
390
0
100
AcDbBlockBegin
  2
Group-4
 70
               0
 10
0.0
 20
0.0
 30
0.0
  3
Group-4
  1

  0
WIPEOUT
  5
265
100
AcDbEntity
  8
Dimension
370
               5
390
0
  6
Continuous
 62
               7
 92
        0
100
AcDbWipeout
 90
        0
 10
-0.2032050000000005
 20
1.6933599999999984
 30
0.0
 11
21.268059999999998
 21
0.0
 31
0.0
 12
0.0
 22
21.268059999999998
 32
0.0
 13
1.0
 23
1.0
340
0
 70
               7
280
               1
281
              50
282
              50
283
               0
360
0
 71
               2
 91
        5
 14
-0.5
 24
0.3407640377166512
 14
0.5
 24
0.3407640377166512
 14
0.5
 24
0.5
 14
-0.5
 24
0.5
 14
-0.5
 24
0.3407640377166512
  0
POLYLINE
  5
266
100
AcDbEntity
  8
Dimension
370
               5
390
0
  6
Continuous
 62
               7
100
AcDb2dPolyline
 66
               1
 10
0.0
 20
0.0
 30
0.0
 70
               1
 75
               5
  0
VERTEX
  5
267
100
AcDbEntity
  8
Dimension
370
               5
390
0
  6
Continuous
 62
               7
100
AcDbVertex
100
AcDb2dVertex
 10
-0.2032050000000005
 20
5.0799999999999983
 30
0.0
  0
VERTEX
  5
268
100
AcDbEntity
  8
Dimension
370
               5
390
0
  6
Continuous
 62
               7
100
AcDbVertex
100
AcDb2dVertex
 10
21.064854999999998
 20
5.0799999999999983
 30
0.0
  0
VERTEX
  5
269
100
AcDbEntity
  8
Dimension
370
               5
390
0
  6
Continuous
 62
               7
100
AcDbVertex
100
AcDb2dVertex
 10
21.064854999999998
 20
1.6933599999999984
 30
0.0
  0
VERTEX
  5
26A
100
AcDbEntity
  8
Dimension
370
               5
390
0
  6
Continuous
 62
               7
100
AcDbVertex
100
AcDb2dVertex
 10
-0.2032050000000005
 20
1.6933599999999984
 30
0.0
  0
SEQEND
  5
26B
100
AcDbEntity
  8
Dimension
370
               5
390
0
  6
Continuous
 62
               7
  0
WIPEOUT
  5
26C
100
AcDbEntity
  8
Dimension
370
               5
390
0
  6
Continuous
 62
               7
 92
        0
100
AcDbWipeout
 90
        0
 10
21.064854999999998
 20
1.6933599999999984
 30
0.0
 11
14.863449999999997
 21
0.0
 31
0.0
 12
0.0
 22
14.863449999999997
 32
0.0
 13
1.0
 23
1.0
340
0
 70
               7
280
               1
281
              50
282
              50
283
               0
360
0
 71
               2
 91
        5
 14
-0.5
 24
0.2721498037131352
 14
0.5
 24
0.2721498037131352
 14
0.5
 24
0.5
 14
-0.5
 24
0.5
 14
-0.5
 24
0.2721498037131352
  0
POLYLINE
  5
26D
100
AcDbEntity
  8
Dimension
370
               5
390
0
  6
Continuous
 62
               7
100
AcDb2dPolyline
 66
               1
 10
0.0
 20
0.0
 30
0.0
 70
               1
 75
               5
  0
VERTEX
  5
26E
100
AcDbEntity
  8
Dimension
370
               5
390
0
  6
Continuous
 62
               7
100
AcDbVertex
100
AcDb2dVertex
 10
21.064854999999998
 20
5.0799999999999983
 30
0.0
  0
VERTEX
  5
26F
100
AcDbEntity
  8
Dimension
370
               5
390
0
  6
Continuous
 62
               7
100
AcDbVertex
100
AcDb2dVertex
 10
35.928304999999995
 20
5.0799999999999983
 30
0.0
  0
VERTEX
  5
270
100
AcDbEntity
  8
Dimension
370
               5
390
0
  6
Continuous
 62
               7
100
AcDbVertex
100
AcDb2dVertex
 10
35.928304999999995
 20
1.6933599999999984
 30
0.0
  0
VERTEX
  5
271
100
AcDbEntity
  8
Dimension
370
               5
390
0
  6
Continuous
 62
               7
100
AcDbVertex
100
AcDb2dVertex
 10
21.064854999999998
 20
1.6933599999999984
 30
0.0
  0
SEQEND
  5
272
100
AcDbEntity
  8
Dimension
370
               5
390
0
  6
Continuous
 62
               7
  0
WIPEOUT
  5
273
100
AcDbEntity
  8
Dimension
370
               5
390
0
  6
Continuous
 62
               7
 92
        0
100
AcDbWipeout
 90
        0
 10
35.928304999999995
 20
1.6933599999999984
 30
0.0
 11
14.884399999999999
 21
0.0
 31
0.0
 12
0.0
 22
14.884399999999999
 32
0.0
 13
1.0
 23
1.0
340
0
 70
               7
280
               1
281
              50
282
              50
283
               0
360
0
 71
               2
 91
        5
 14
-0.5
 24
0.2724705060331623
 14
0.5
 24
0.2724705060331623
 14
0.5
 24
0.5
 14
-0.5
 24
0.5
 14
-0.5
 24
0.2724705060331623
  0
POLYLINE
  5
274
100
AcDbEntity
  8
Dimension
370
               5
390
0
  6
Continuous
 62
               7
100
AcDb2dPolyline
 66
               1
 10
0.0
 20
0.0
 30
0.0
 70
               1
 75
               5
  0
VERTEX
  5
275
100
AcDbEntity
  8
Dimension
370
               5
390
0
  6
Continuous
 62
               7
100
AcDbVertex
100
AcDb2dVertex
 10
35.928304999999995
 20
5.0799999999999983
 30
0.0
  0
VERTEX
  5
276
100
AcDbEntity
  8
Dimension
370
               5
390
0
  6
Continuous
 62
               7
100
AcDbVertex
100
AcDb2dVertex
 10
50.812704999999994
 20
5.0799999999999983
 30
0.0
  0
VERTEX
  5
277
100
AcDbEntity
  8
Dimension
370
               5
390
0
  6
Continuous
 62
               7
100
AcDbVertex
100
AcDb2dVertex
 10
50.812704999999994
 20
1.6933599999999984
 30
0.0
  0
VERTEX
  5
278
100
AcDbEntity
  8
Dimension
370
               5
390
0
  6
Continuous
 62
               7
100
AcDbVertex
100
AcDb2dVertex
 10
35.928304999999995
 20
1.6933599999999984
 30
0.0
  0
SEQEND
  5
279
100
AcDbEntity
  8
Dimension
370
               5
390
0
  6
Continuous
 62
               7
  0
WIPEOUT
  5
27A
100
AcDbEntity
  8
Dimension
370
               5
390
0
  6
Continuous
 62
               7
 92
        0
100
AcDbWipeout
 90
        0
 10
-0.2032050000000005
 20
-1.6933499999999952
 30
0.0
 11
27.246199999999998
 21
0.0
 31
0.0
 12
0.0
 22
27.246199999999998
 32
0.0
 13
1.0
 23
1.0
340
0
 70
               7
280
               1
281
              50
282
              50
283
               0
360
0
 71
               2
 91
        5
 14
-0.5
 24
0.375699730604635
 14
0.5
 24
0.375699730604635
 14
0.5
 24
0.5
 14
-0.5
 24
0.5
 14
-0.5
 24
0.375699730604635
  0
POLYLINE
  5
27B
100
AcDbEntity
  8
Dimension
370
               5
390
0
  6
Continuous
 62
               7
100
AcDb2dPolyline
 66
               1
 10
0.0
 20
0.0
 30
0.0
 70
               1
 75
               5
  0
VERTEX
  5
27C
100
AcDbEntity
  8
Dimension
370
               5
390
0
  6
Continuous
 62
               7
100
AcDbVertex
100
AcDb2dVertex
 10
-0.2032050000000005
 20
1.6933599999999984
 30
0.0
  0
VERTEX
  5
27D
100
AcDbEntity
  8
Dimension
370
               5
390
0
  6
Continuous
 62
               7
100
AcDbVertex
100
AcDb2dVertex
 10
27.042994999999998
 20
1.6933599999999984
 30
0.0
  0
VERTEX
  5
27E
100
AcDbEntity
  8
Dimension
370
               5
390
0
  6
Continuous
 62
               7
100
AcDbVertex
100
AcDb2dVertex
 10
27.042994999999998
 20
-1.6933499999999952
 30
0.0
  0
VERTEX
  5
27F
100
AcDbEntity
  8
Dimension
370
               5
390
0
  6
Continuous
 62
               7
100
AcDbVertex
100
AcDb2dVertex
 10
-0.2032050000000005
 20
-1.6933499999999952
 30
0.0
  0
SEQEND
  5
280
100
AcDbEntity
  8
Dimension
370
               5
390
0
  6
Continuous
 62
               7
  0
WIPEOUT
  5
281
100
AcDbEntity
  8
Dimension
370
               5
390
0
  6
Continuous
 62
               7
 92
        0
100
AcDbWipeout
 90
        0
 10
27.042994999999998
 20
-1.6933499999999952
 30
0.0
 11
23.769709999999996
 21
0.0
 31
0.0
 12
0.0
 22
23.769709999999996
 32
0.0
 13
1.0
 23
1.0
340
0
 70
               7
280
               1
281
              50
282
              50
283
               0
360
0
 71
               2
 91
        5
 14
-0.5
 24
0.357519927672656
 14
0.5
 24
0.357519927672656
 14
0.5
 24
0.5
 14
-0.5
 24
0.5
 14
-0.5
 24
0.357519927672656
  0
POLYLINE
  5
282
100
AcDbEntity
  8
Dimension
370
               5
390
0
  6
Continuous
 62
               7
100
AcDb2dPolyline
 66
               1
 10
0.0
 20
0.0
 30
0.0
 70
               1
 75
               5
  0
VERTEX
  5
283
100
AcDbEntity
  8
Dimension
370
               5
390
0
  6
Continuous
 62
               7
100
AcDbVertex
100
AcDb2dVertex
 10
27.042994999999998
 20
1.6933599999999984
 30
0.0
  0
VERTEX
  5
284
100
AcDbEntity
  8
Dimension
370
               5
390
0
  6
Continuous
 62
               7
100
AcDbVertex
100
AcDb2dVertex
 10
50.812704999999994
 20
1.6933599999999984
 30
0.0
  0
VERTEX
  5
285
100
AcDbEntity
  8
Dimension
370
               5
390
0
  6
Continuous
 62
               7
100
AcDbVertex
100
AcDb2dVertex
 10
50.812704999999994
 20
-1.6933499999999952
 30
0.0
  0
VERTEX
  5
286
100
AcDbEntity
  8
Dimension
370
               5
390
0
  6
Continuous
 62
               7
100
AcDbVertex
100
AcDb2dVertex
 10
27.042994999999998
 20
-1.6933499999999952
 30
0.0
  0
SEQEND
  5
287
100
AcDbEntity
  8
Dimension
370
               5
390
0
  6
Continuous
 62
               7
  0
WIPEOUT
  5
288
100
AcDbEntity
  8
Dimension
370
               5
390
0
  6
Continuous
 62
               7
 92
        0
100
AcDbWipeout
 90
        0
 10
27.042994999999998
 20
-5.0799999999999983
 30
0.0
 11
23.769709999999996
 21
0.0
 31
0.0
 12
0.0
 22
23.769709999999996
 32
0.0
 13
1.0
 23
1.0
340
0
 70
               7
280
               1
281
              50
282
              50
283
               0
360
0
 71
               2
 91
        5
 14
-0.5
 24
0.3575224518936073
 14
0.5
 24
0.3575224518936073
 14
0.5
 24
0.5
 14
-0.5
 24
0.5
 14
-0.5
 24
0.3575224518936073
  0
POLYLINE
  5
289
100
AcDbEntity
  8
Dimension
370
               5
390
0
  6
Continuous
 62
               7
100
AcDb2dPolyline
 66
               1
 10
0.0
 20
0.0
 30
0.0
 70
               1
 75
               5
  0
VERTEX
  5
28A
100
AcDbEntity
  8
Dimension
370
               5
390
0
  6
Continuous
 62
               7
100
AcDbVertex
100
AcDb2dVertex
 10
27.042994999999998
 20
-1.6933499999999952
 30
0.0
  0
VERTEX
  5
28B
100
AcDbEntity
  8
Dimension
370
               5
390
0
  6
Continuous
 62
               7
100
AcDbVertex
100
AcDb2dVertex
 10
50.812704999999994
 20
-1.6933499999999952
 30
0.0
  0
VERTEX
  5
28C
100
AcDbEntity
  8
Dimension
370
               5
390
0
  6
Continuous
 62
               7
100
AcDbVertex
100
AcDb2dVertex
 10
50.812704999999994
 20
-5.0799999999999983
 30
0.0
  0
VERTEX
  5
28D
100
AcDbEntity
  8
Dimension
370
               5
390
0
  6
Continuous
 62
               7
100
AcDbVertex
100
AcDb2dVertex
 10
27.042994999999998
 20
-5.0799999999999983
 30
0.0
  0
SEQEND
  5
28E
100
AcDbEntity
  8
Dimension
370
               5
390
0
  6
Continuous
 62
               7
  0
WIPEOUT
  5
28F
100
AcDbEntity
  8
Dimension
370
               5
390
0
  6
Continuous
 62
               7
 92
        0
100
AcDbWipeout
 90
        0
 10
-0.2032050000000005
 20
-5.0799999999999983
 30
0.0
 11
27.246199999999998
 21
0.0
 31
0.0
 12
0.0
 22
27.246199999999998
 32
0.0
 13
1.0
 23
1.0
340
0
 70
               7
280
               1
281
              50
282
              50
283
               0
360
0
 71
               2
 91
        5
 14
-0.5
 24
0.3757019327465847
 14
0.5
 24
0.3757019327465847
 14
0.5
 24
0.5
 14
-0.5
 24
0.5
 14
-0.5
 24
0.3757019327465847
  0
POLYLINE
  5
290
100
AcDbEntity
  8
Dimension
370
               5
390
0
  6
Continuous
 62
               7
100
AcDb2dPolyline
 66
               1
 10
0.0
 20
0.0
 30
0.0
 70
               1
 75
               5
  0
VERTEX
  5
291
100
AcDbEntity
  8
Dimension
370
               5
390
0
  6
Continuous
 62
               7
100
AcDbVertex
100
AcDb2dVertex
 10
-0.2032050000000005
 20
-1.6933499999999952
 30
0.0
  0
VERTEX
  5
292
100
AcDbEntity
  8
Dimension
370
               5
390
0
  6
Continuous
 62
               7
100
AcDbVertex
100
AcDb2dVertex
 10
27.042994999999998
 20
-1.6933499999999952
 30
0.0
  0
VERTEX
  5
293
100
AcDbEntity
  8
Dimension
370
               5
390
0
  6
Continuous
 62
               7
100
AcDbVertex
100
AcDb2dVertex
 10
27.042994999999998
 20
-5.0799999999999983
 30
0.0
  0
VERTEX
  5
294
100
AcDbEntity
  8
Dimension
370
               5
390
0
  6
Continuous
 62
               7
100
AcDbVertex
100
AcDb2dVertex
 10
-0.2032050000000005
 20
-5.0799999999999983
 30
0.0
  0
SEQEND
  5
295
100
AcDbEntity
  8
Dimension
370
               5
390
0
  6
Continuous
 62
               7
  0
MTEXT
  5
296
100
AcDbEntity
  8
None
390
0
 62
               7
100
AcDbMText
 10
1.066794999999999
 20
4.1211014739583396
 30
0.0
 40
1.263202473958333
 41
0.0
 71
               1
 72
               1
  1
Status: Released
  7
Arial
 73
               1
 44
0.9673603504928809
  0
MTEXT
  5
297
100
AcDbEntity
  8
None
390
0
 62
               7
100
AcDbMText
 10
1.066794999999999
 20
0.7316014739583414
 30
0.0
 40
1.263202473958333
 41
0.0
 71
               1
 72
               1
  1
Drawing: Vinayak R
  7
Arial
 73
               1
 44
0.9673603504928809
  0
MTEXT
  5
298
100
AcDbEntity
  8
None
390
0
 62
               7
100
AcDbMText
 10
37.198304999999998
 20
4.1182714739583366
 30
0.0
 40
1.263202473958333
 41
0.0
 71
               1
 72
               1
  1
Rev: A
  7
Arial
 73
               1
 44
0.9673603504928809
  0
MTEXT
  5
299
100
AcDbEntity
  8
None
390
0
 62
               7
100
AcDbMText
 10
28.312994999999997
 20
0.4497614739583389
 30
0.0
 40
1.263202473958333
 41
0.0
 71
               1
 72
               1
  1
Date: 2/16/10
  7
Arial
 73
               1
 44
0.9673603504928809
  0
MTEXT
  5
29A
100
AcDbEntity
  8
None
390
0
 62
               7
100
AcDbMText
 10
28.312994999999997
 20
-2.8517709270833289
 30
0.0
 40
1.0082330729166664
 41
0.0
 71
               1
 72
               1
  1
Modified: 
  7
Arial
 73
               1
 44
0.9673603504928806
  0
MTEXT
  5
29B
100
AcDbEntity
  8
None
390
0
 62
               7
100
AcDbMText
 10
1.066794999999999
 20
-2.941590927083332
 30
0.0
 40
1.0082330729166664
 41
27.246189999999999
 71
               1
 72
               1
  1
File: CG-BGA-5003 Dwg
  7
Arial
 73
               1
 44
0.9673603504928806
  0
WIPEOUT
  5
29C
100
AcDbEntity
  8
Dimension
370
               5
390
0
  6
Continuous
 62
               7
 92
        0
100
AcDbWipeout
 90
        0
 10
-50.812704999999994
 20
-5.0799999999999983
 30
0.0
 11
50.609499999999997
 21
0.0
 31
0.0
 12
0.0
 22
50.609499999999997
 32
0.0
 13
1.0
 23
1.0
340
0
 70
               7
280
               1
281
              50
282
              50
283
               0
360
0
 71
               2
 91
        5
 14
-0.5
 24
0.3661642576986535
 14
0.5
 24
0.3661642576986535
 14
0.5
 24
0.5
 14
-0.5
 24
0.5
 14
-0.5
 24
0.3661642576986535
  0
POLYLINE
  5
29D
100
AcDbEntity
  8
Dimension
370
               5
390
0
  6
Continuous
 62
               7
100
AcDb2dPolyline
 66
               1
 10
0.0
 20
0.0
 30
0.0
 70
               1
 75
               5
  0
VERTEX
  5
29E
100
AcDbEntity
  8
Dimension
370
               5
390
0
  6
Continuous
 62
               7
100
AcDbVertex
100
AcDb2dVertex
 10
-50.812704999999994
 20
1.6933599999999984
 30
0.0
  0
VERTEX
  5
29F
100
AcDbEntity
  8
Dimension
370
               5
390
0
  6
Continuous
 62
               7
100
AcDbVertex
100
AcDb2dVertex
 10
-0.2032050000000005
 20
1.6933599999999984
 30
0.0
  0
VERTEX
  5
2A0
100
AcDbEntity
  8
Dimension
370
               5
390
0
  6
Continuous
 62
               7
100
AcDbVertex
100
AcDb2dVertex
 10
-0.2032050000000005
 20
-5.0799999999999983
 30
0.0
  0
VERTEX
  5
2A1
100
AcDbEntity
  8
Dimension
370
               5
390
0
  6
Continuous
 62
               7
100
AcDbVertex
100
AcDb2dVertex
 10
-50.812704999999994
 20
-5.0799999999999983
 30
0.0
  0
SEQEND
  5
2A2
100
AcDbEntity
  8
Dimension
370
               5
390
0
  6
Continuous
 62
               7
  0
WIPEOUT
  5
2A3
100
AcDbEntity
  8
Dimension
370
               5
390
0
  6
Continuous
 62
               7
 92
        0
100
AcDbWipeout
 90
        0
 10
-50.812704999999994
 20
1.6933599999999984
 30
0.0
 11
50.609499999999997
 21
0.0
 31
0.0
 12
0.0
 22
50.609499999999997
 32
0.0
 13
1.0
 23
1.0
340
0
 70
               7
280
               1
281
              50
282
              50
283
               0
360
0
 71
               2
 91
        5
 14
-0.5
 24
0.4330829192147719
 14
0.5
 24
0.4330829192147719
 14
0.5
 24
0.5
 14
-0.5
 24
0.5
 14
-0.5
 24
0.4330829192147719
  0
POLYLINE
  5
2A4
100
AcDbEntity
  8
Dimension
370
               5
390
0
  6
Continuous
 62
               7
100
AcDb2dPolyline
 66
               1
 10
0.0
 20
0.0
 30
0.0
 70
               1
 75
               5
  0
VERTEX
  5
2A5
100
AcDbEntity
  8
Dimension
370
               5
390
0
  6
Continuous
 62
               7
100
AcDbVertex
100
AcDb2dVertex
 10
-50.812704999999994
 20
5.0799999999999983
 30
0.0
  0
VERTEX
  5
2A6
100
AcDbEntity
  8
Dimension
370
               5
390
0
  6
Continuous
 62
               7
100
AcDbVertex
100
AcDb2dVertex
 10
-0.2032050000000005
 20
5.0799999999999983
 30
0.0
  0
VERTEX
  5
2A7
100
AcDbEntity
  8
Dimension
370
               5
390
0
  6
Continuous
 62
               7
100
AcDbVertex
100
AcDb2dVertex
 10
-0.2032050000000005
 20
1.6933599999999984
 30
0.0
  0
VERTEX
  5
2A8
100
AcDbEntity
  8
Dimension
370
               5
390
0
  6
Continuous
 62
               7
100
AcDbVertex
100
AcDb2dVertex
 10
-50.812704999999994
 20
1.6933599999999984
 30
0.0
  0
SEQEND
  5
2A9
100
AcDbEntity
  8
Dimension
370
               5
390
0
  6
Continuous
 62
               7
  0
MTEXT
  5
2AA
100
AcDbEntity
  8
None
390
0
 62
               7
100
AcDbMText
 10
-24.311630635491586
 20
4.185412220833328
 30
0.0
 40
1.4735130208333329
 41
0.0
 71
               2
 72
               1
  1
CG-BGA-5003  Drawing
  7
Arial (bold)
 73
               1
 44
0.9925958378970426
  0
INSERT
  5
2AB
100
AcDbEntity
  8
None
390
0
 62
               7
100
AcDbBlockReference
  2
IE i logo
 10
-45.398084999999995
 20
-1.6403999999999996
 30
0.0
  0
INSERT
  5
2AC
100
AcDbEntity
  8
None
390
0
 62
               7
100
AcDbBlockReference
  2
©2006_address
 10
-21.24320500000001
 20
-1.6845917037006388
 30
0.0
  0
ENDBLK
  5
2AD
100
AcDbEntity
  8
None
390
0
100
AcDbBlockEnd
  0
BLOCK
  5
2AE
100
AcDbEntity
  8
None
390
0
100
AcDbBlockBegin
  2
CG-BGA-4005 title block
 70
               0
 10
0.0
 20
0.0
 30
0.0
  3
CG-BGA-4005 title block
  1

  0
INSERT
  5
2AF
100
AcDbEntity
  8
None
390
0
 62
               7
100
AcDbBlockReference
  2
Group-4
 10
0.0
 20
0.0
 30
0.0
  0
ENDBLK
  5
2B0
100
AcDbEntity
  8
None
390
0
100
AcDbBlockEnd
  0
ENDSEC
  0
SECTION
  2
ENTITIES
  0
CIRCLE
  5
2B1
102
{ACAD_REACTORS
330
2B2
102
}
100
AcDbEntity
  8
None
370
               9
390
0
  6
Continuous
 62
             180
100
AcDbCircle
 10
-12.77954524687657
 20
61.099858415625562
 30
0.0
 40
0.2500014851955847
  0
HATCH
  5
2B2
100
AcDbEntity
  8
None
370
               0
390
0
  6
Continuous
 62
             180
100
AcDbHatch
 10
0.0
 20
0.0
 30
0.0
210
0.0
220
0.0
230
1.0
  2
SOLID
 70
               1
 71
               1
 91
        1
 92
        1
 93
        1
 72
               2
 10
-12.77954524687657
 20
61.099858415625562
 40
0.2500014851955847
 50
0.0
 51
360.0
 73
               0
 97
        1
330
2B1
 75
               0
 76
               1
 98
        1
 10
0.0
 20
0.0
  0
CIRCLE
  5
2B3
100
AcDbEntity
  8
None
370
               9
390
0
  6
Continuous
 62
               7
100
AcDbCircle
 10
-14.481465246876567
 20
60.802358415625562
 30
0.0
 40
0.875
  0
CIRCLE
  5
2B4
100
AcDbEntity
  8
None
370
               9
390
0
  6
Continuous
 62
               7
100
AcDbCircle
 10
-1.7564652468765827
 20
48.077358415625497
 30
0.0
 40
0.875
  0
CIRCLE
  5
2B5
100
AcDbEntity
  8
None
370
               9
390
0
  6
Continuous
 62
               7
100
AcDbCircle
 10
-14.481465246876567
 20
48.077358415625497
 30
0.0
 40
0.875
  0
CIRCLE
  5
2B6
100
AcDbEntity
  8
None
370
               9
390
0
  6
Continuous
 62
               7
100
AcDbCircle
 10
-1.7564652468765827
 20
60.802358415625562
 30
0.0
 40
0.875
  0
CIRCLE
  5
2B7
100
AcDbEntity
  8
None
370
               9
390
0
  6
Continuous
 62
               7
100
AcDbCircle
 10
-1.7564652468765827
 20
58.262358415625556
 30
0.0
 40
0.4249999999999998
  0
CIRCLE
  5
2B8
100
AcDbEntity
  8
None
370
               9
390
0
  6
Continuous
 62
               7
100
AcDbCircle
 10
-14.481465246876567
 20
53.157358415625495
 30
0.0
 40
0.4249999999999989
  0
POLYLINE
  5
2B9
100
AcDbEntity
  8
None
370
               9
390
0
  6
STYLE_12
 62
               7
100
AcDb2dPolyline
 66
               1
 10
0.0
 20
0.0
 30
0.0
 70
               1
 75
               5
  0
VERTEX
  5
2BA
100
AcDbEntity
  8
None
370
               9
390
0
  6
STYLE_12
 62
               7
100
AcDbVertex
100
AcDb2dVertex
 10
-16.981465246876567
 20
63.302358415625562
 30
0.0
  0
VERTEX
  5
2BB
100
AcDbEntity
  8
None
370
               9
390
0
  6
STYLE_12
 62
               7
100
AcDbVertex
100
AcDb2dVertex
 10
0.7435347531234244
 20
63.302358415625562
 30
0.0
  0
VERTEX
  5
2BC
100
AcDbEntity
  8
None
370
               9
390
0
  6
STYLE_12
 62
               7
100
AcDbVertex
100
AcDb2dVertex
 10
0.7435347531234244
 20
45.577358415625497
 30
0.0
  0
VERTEX
  5
2BD
100
AcDbEntity
  8
None
370
               9
390
0
  6
STYLE_12
 62
               7
100
AcDbVertex
100
AcDb2dVertex
 10
-16.981465246876567
 20
45.577358415625497
 30
0.0
  0
SEQEND
  5
2BE
100
AcDbEntity
  8
None
370
               9
390
0
  6
STYLE_12
 62
               7
  0
INSERT
  5
2BF
100
AcDbEntity
  8
None
390
0
 62
               7
100
AcDbBlockReference
  2
Group
 10
-5.3611399999999998
 20
26.104589999999984
 30
0.0
  0
INSERT
  5
2C0
100
AcDbEntity
  8
None
390
0
 62
               7
100
AcDbBlockReference
  2
Group-1
 10
-5.3611399999999998
 20
26.104589999999984
 30
0.0
  0
INSERT
  5
2C1
100
AcDbEntity
  8
None
390
0
 62
               7
100
AcDbBlockReference
  2
Group-3
 10
-5.3611399999999998
 20
26.104589999999984
 30
0.0
  0
WIPEOUT
  5
2C2
100
AcDbEntity
  8
None
370
               9
390
0
  6
Continuous
 62
              12
 92
        0
100
AcDbWipeout
 90
        0
 10
-33.940935246876563
 20
18.482886493458135
 30
0.0
 11
4.9901799999999987
 21
0.0
 31
0.0
 12
0.0
 22
4.9901799999999987
 32
0.0
 13
1.0
 23
1.0
340
0
 70
               7
280
               1
281
              50
282
              50
283
               0
360
0
 71
               2
 91
        5
 14
-0.5
 24
-5.8055300610398808
 14
0.5
 24
-5.8055300610398808
 14
0.5
 24
-6.2120208088686164
 14
-0.5
 24
-6.2120208088686164
 14
-0.5
 24
-5.8055300610398808
  0
MTEXT
  5
2C3
100
AcDbEntity
  8
None
390
0
 62
              12
100
AcDbMText
 10
-33.940935246876563
 20
51.814930149708118
 30
0.0
 40
0.6315976562499999
 41
4.9901799999999996
 71
               1
 72
               1
  1
Socket Body Size
  7
New Century Schlbk
 73
               1
 44
0.9673603504928808
  0
LINE
  5
2C4
100
AcDbEntity
  8
None
370
               9
390
0
  6
Continuous
 62
              12
100
AcDbLine
 10
-32.00052524687657
 20
50.47145849345803
 30
0.0
 11
-28.626155246876568
 21
47.097078493457929
 31
0.0
  0
LINE
  5
2C5
100
AcDbEntity
  8
None
370
               9
390
0
  6
Continuous
 62
              12
100
AcDbLine
 10
-28.626155246876568
 20
47.097078493457929
 30
0.0
 11
-15.731465246876567
 21
47.097078493457929
 31
0.0
  0
SOLID
  5
2C6
100
AcDbEntity
  8
None
370
               9
390
0
 62
              12
100
AcDbTrace
 10
-15.731465246876567
 20
47.097078493457929
 30
0.0
 11
-16.525215246876567
 21
46.884393821965723
 31
0.0
 12
-16.525215246876567
 22
47.309763164950134
 32
0.0
 13
-16.525215246876567
 23
47.309763164950134
 33
0.0
  0
WIPEOUT
  5
2C7
100
AcDbEntity
  8
None
370
               9
390
0
  6
Continuous
 62
              12
 92
        0
100
AcDbWipeout
 90
        0
 10
6.6993879923556383
 20
13.452330584281885
 30
0.0
 11
10.098212750752765
 21
0.0
 31
0.0
 12
0.0
 22
10.098212750752765
 32
0.0
 13
1.0
 23
1.0
340
0
 70
               7
280
               1
281
              50
282
              50
283
               0
360
0
 71
               2
 91
        5
 14
-0.5
 24
-2.6159701995439133
 14
0.5
 24
-2.6159701995439133
 14
0.5
 24
-2.716406883245631
 14
-0.5
 24
-2.716406883245631
 14
-0.5
 24
-2.6159701995439133
  0
MTEXT
  5
2C8
100
AcDbEntity
  8
None
390
0
 62
              12
100
AcDbMText
 10
6.6993879923556383
 20
45.770143240531866
 30
0.0
 40
0.6315976562499999
 41
0.0
 71
               1
 72
               1
  1
Non plated mounting hole
  7
Arial
 73
               1
 44
0.9673603504928808
  0
WIPEOUT
  5
2C9
100
AcDbEntity
  8
None
370
               9
390
0
  6
Continuous
 62
              12
 92
        0
100
AcDbWipeout
 90
        0
 10
7.0575821178755804
 20
22.666980819468957
 30
0.0
 11
10.292239586512247
 21
0.0
 31
0.0
 12
0.0
 22
10.292239586512247
 32
0.0
 13
1.0
 23
1.0
340
0
 70
               7
280
               1
281
              50
282
              50
283
               0
360
0
 71
               2
 91
        5
 14
-0.5
 24
-2.5572286755970128
 14
0.5000000000000002
 24
-2.5572286755970128
 14
0.5000000000000002
 24
-2.6557719509915265
 14
-0.5
 24
-2.6557719509915265
 14
-0.5
 24
-2.5572286755970128
  0
MTEXT
  5
2CA
100
AcDbEntity
  8
None
390
0
 62
              12
100
AcDbMText
 10
7.0575821178755804
 20
54.984793475718938
 30
0.0
 40
0.6315976562499999
 41
0.0
 71
               1
 72
               1
  1
Non plated alignment hole
  7
Arial
 73
               1
 44
0.9673603504928808
  0
WIPEOUT
  5
2CB
100
AcDbEntity
  8
None
370
               9
390
0
  6
Continuous
 62
              12
 92
        0
100
AcDbWipeout
 90
        0
 10
-29.011085246876565
 20
38.167017415625573
 30
0.0
 11
6.5351752281188951
 21
0.0
 31
0.0
 12
0.0
 22
6.5351752281188951
 32
0.0
 13
1.0
 23
1.0
340
0
 70
               7
280
               1
281
              50
282
              50
283
               0
360
0
 71
               2
 91
        5
 14
-0.5
 24
-4.3148257547268827
 14
0.5
 24
-4.3148257547268827
 14
0.5
 24
-4.4700214403201421
 14
-0.5
 24
-4.4700214403201421
 14
-0.5
 24
-4.3148257547268827
  0
MTEXT
  5
2CC
100
AcDbEntity
  8
None
390
0
 62
              12
100
AcDbMText
 10
-29.011085246876565
 20
70.484830071875564
 30
0.0
 40
0.6315976562499999
 41
0.0
 71
               1
 72
               1
  1
Orientation Mark
  7
New Century Schlbk
 73
               1
 44
0.9673603504928808
  0
LINE
  5
2CD
100
AcDbEntity
  8
None
370
               9
390
0
  6
Continuous
 62
              12
100
AcDbLine
 10
-12.77954524687657
 20
61.099858415625562
 30
0.0
 11
-19.025915246876565
 21
70.139858415625554
 31
0.0
  0
SOLID
  5
2CE
100
AcDbEntity
  8
None
370
               9
390
0
 62
              12
100
AcDbTrace
 10
-12.77954524687657
 20
61.099858415625562
 30
0.0
 11
-13.399728197780036
 21
61.638975229865679
 31
0.0
 12
-13.04708103023291
 22
61.876838747816564
 32
0.0
 13
-13.04708103023291
 23
61.876838747816564
 33
0.0
  0
LINE
  5
2CF
100
AcDbEntity
  8
None
370
               9
390
0
  6
Continuous
 62
              12
100
AcDbLine
 10
-19.025915246876565
 20
70.139858415625554
 30
0.0
 11
-22.475915246876568
 21
70.139858415625554
 31
0.0
  0
DIMENSION
  5
2D0
100
AcDbEntity
  8
Dimension
370
               9
390
0
  6
Continuous
 62
              12
100
AcDbDimension
  2
*D6
 10
-14.481465246876567
 20
66.692872664584442
 30
0.0
 11
-21.823738915892665
 21
66.692872664584442
 31
0.0
 70
             128
 71
               5
 72
               1
 41
1.0
 42
0.0
  3
IE Standard
100
AcDbAlignedDimension
 13
-15.731465246876567
 23
62.052358415625562
 33
0.0
 14
-14.481465246876567
 24
60.802358415625562
 34
0.0
100
AcDbRotatedDimension
1001
ACAD
1000
DSTYLE
1002
{
1070
             340
1005
3B
1070
              71
1070
               1
1070
              47
1040
0.125
1070
              48
1040
0.125
1070
               3
1000
<>mm (x4)
1070
             174
1070
               0
1070
             147
1040
0.09921875
1002
}
  0
DIMENSION
  5
2D1
100
AcDbEntity
  8
Dimension
370
               9
390
0
  6
Continuous
 62
              12
100
AcDbDimension
  2
*D7
 10
-25.978040218607539
 20
62.052358415625562
 30
0.0
 11
-25.978040218607539
 21
64.882736471181119
 31
0.0
 70
             128
 71
               5
 72
               1
 41
1.0
 42
0.0
  3
IE Standard
100
AcDbAlignedDimension
 13
-14.481465246876567
 23
60.802358415625562
 33
0.0
 14
-15.731465246876567
 24
62.052358415625562
 34
0.0
 50
90.0
100
AcDbRotatedDimension
1001
ACAD
1000
DSTYLE
1002
{
1070
             340
1005
3B
1070
              71
1070
               1
1070
              47
1040
0.125
1070
              48
1040
0.125
1070
               3
1000
<>mm (x4)
1070
             174
1070
               0
1070
             147
1040
0.09921875
1002
}
  0
DIMENSION
  5
2D2
100
AcDbEntity
  8
Dimension
370
               9
390
0
  6
Continuous
 62
              12
100
AcDbDimension
  2
*D8
 10
-23.300000000000001
 20
48.077358415625497
 30
0.0
 11
-23.300000000000001
 21
50.600000000000009
 31
0.0
 70
             128
 71
               5
 72
               1
 41
1.0
 42
0.0
  3
IE Standard
100
AcDbAlignedDimension
 13
-14.421265246876569
 23
53.157358415625495
 33
0.0
 14
-14.481465246876567
 24
48.077358415625497
 34
0.0
 50
90.0
100
AcDbRotatedDimension
1001
ACAD
1000
DSTYLE
1002
{
1070
             271
1070
               3
1070
             340
1005
3B
1070
             147
1040
0.09921875
1002
}
  0
DIMENSION
  5
2D3
100
AcDbEntity
  8
Dimension
370
               9
390
0
  6
Continuous
 62
              12
100
AcDbDimension
  2
*D9
 10
-15.731465246876567
 20
40.381244526736616
 30
0.0
 11
-7.2999999999999998
 21
40.381244526736616
 31
0.0
 70
             128
 71
               5
 72
               1
 41
1.0
 42
0.0
  3
IE Standard
100
AcDbAlignedDimension
 13
-0.5064652468765809
 23
46.827358415625497
 33
0.0
 14
-15.731465246876567
 24
46.827358415625497
 34
0.0
100
AcDbRotatedDimension
1001
ACAD
1000
DSTYLE
1002
{
1070
             271
1070
               3
1070
             340
1005
3B
1070
              71
1070
               1
1070
              47
1040
0.125
1070
              48
1040
0.125
1070
               3
1000
<>mm (x4)
1070
             147
1040
0.09921875
1002
}
  0
DIMENSION
  5
2D4
100
AcDbEntity
  8
Dimension
370
               9
390
0
  6
Continuous
 62
              12
100
AcDbDimension
  2
*D10
 10
-14.481465246876567
 20
42.200000000000003
 30
0.0
 11
-8.1189652468765754
 21
42.200000000000003
 31
0.0
 70
             128
 71
               5
 72
               1
 41
1.0
 42
0.0
  3
IE Standard
100
AcDbAlignedDimension
 13
-1.7564652468765827
 23
48.077358415625497
 33
0.0
 14
-14.481465246876567
 24
48.077358415625497
 34
0.0
100
AcDbRotatedDimension
1001
ACAD
1000
DSTYLE
1002
{
1070
             271
1070
               3
1070
             340
1005
3B
1070
               3
1000
<>mm (x4)
1070
             147
1040
0.09921875
1002
}
  0
DIMENSION
  5
2D5
100
AcDbEntity
  8
Dimension
370
               9
390
0
  6
Continuous
 62
              12
100
AcDbDimension
  2
*D11
 10
7.9000000000000012
 20
60.802358415625562
 30
0.0
 11
7.9000000000000012
 21
59.599999999999994
 31
0.0
 70
             128
 71
               5
 72
               1
 41
1.0
 42
0.0
  3
IE Standard
100
AcDbAlignedDimension
 13
-1.7564652468765827
 23
58.262358415625556
 33
0.0
 14
-1.7564652468765827
 24
60.802358415625562
 34
0.0
 50
90.0
100
AcDbRotatedDimension
1001
ACAD
1000
DSTYLE
1002
{
1070
             271
1070
               3
1070
             340
1005
3B
1070
             147
1040
0.09921875
1002
}
  0
DIMENSION
  5
2D6
100
AcDbEntity
  8
Dimension
370
               9
390
0
  6
Continuous
 62
              12
100
AcDbDimension
  2
*D12
 10
-23.100000000000001
 20
60.802358415625562
 30
0.0
 11
-23.100000000000001
 21
59.099999999999994
 31
0.0
 70
             128
 71
               5
 72
               1
 41
1.0
 42
0.0
  3
IE Standard
100
AcDbAlignedDimension
 13
-10.61896524687657
 23
56.689858415625494
 33
0.0
 14
-14.481465246876567
 24
60.802358415625562
 34
0.0
 50
90.0
100
AcDbRotatedDimension
1001
ACAD
1000
DSTYLE
1002
{
1070
             271
1070
               4
1070
             340
1005
3B
1070
             147
1040
0.09921875
1002
}
  0
DIMENSION
  5
2D7
100
AcDbEntity
  8
Dimension
370
               9
390
0
  6
Continuous
 62
              12
100
AcDbDimension
  2
*D13
 10
-10.61896524687657
 20
44.659103080267244
 30
0.0
 11
-7.4189668468765682
 21
44.659103080267244
 31
0.0
 70
             128
 71
               5
 72
               1
 41
1.0
 42
0.0
  3
IE Standard
100
AcDbAlignedDimension
 13
-5.1189652468765825
 23
52.213608414442717
 33
0.0
 14
-10.61896524687657
 24
52.189858415625501
 34
0.0
100
AcDbRotatedDimension
1001
ACAD
1000
DSTYLE
1002
{
1070
             340
1005
3B
1070
             147
1040
0.09921875
1002
}
  0
DIMENSION
  5
2D8
100
AcDbEntity
  8
Dimension
370
               9
390
0
  6
Continuous
 62
              12
100
AcDbDimension
  2
*D14
 10
-10.61896524687657
 20
69.600000000000009
 30
0.0
 11
-9.2094826234382836
 21
69.600000000000009
 31
0.0
 70
             128
 71
               5
 72
               1
 41
1.0
 42
0.0
  3
IE Standard
100
AcDbAlignedDimension
 13
-14.481465246876567
 23
60.802358415625562
 33
0.0
 14
-10.61896524687657
 24
56.689858415625494
 34
0.0
100
AcDbRotatedDimension
1001
ACAD
1000
DSTYLE
1002
{
1070
             271
1070
               4
1070
             340
1005
3C
1070
               3
1000
*<>mm
1070
             174
1070
               0
1070
             147
1040
0.09921875
1002
}
  0
DIMENSION
  5
2D9
100
AcDbEntity
  8
Dimension
370
               9
390
0
  6
Continuous
 62
              12
100
AcDbDimension
  2
*D15
 10
-6.6189652468765798
 20
64.731961001967534
 30
0.0
 11
-4.4689668468765742
 21
64.731961001967534
 31
0.0
 70
             128
 71
               5
 72
               1
 41
1.0
 42
0.0
  3
IE Standard
100
AcDbAlignedDimension
 13
-6.1189652468765825
 23
56.689858415625494
 33
0.0
 14
-6.6189652468765798
 24
56.666108416808285
 34
0.0
100
AcDbRotatedDimension
1001
ACAD
1000
DSTYLE
1002
{
1070
             340
1005
3B
1070
               3
1000
<>mm typ.
1070
             174
1070
               0
1070
             147
1040
0.09921875
1002
}
  0
DIMENSION
  5
2DA
100
AcDbEntity
  8
Dimension
370
               9
390
0
  6
Continuous
 62
              12
100
AcDbDimension
  2
*D16
 10
-2.1572144155512132
 20
58.403868499388494
 30
0.0
 11
6.9999970019795237
 21
55.700000000000067
 31
0.0
 70
               3
 71
               5
 72
               1
 41
1.0
 42
0.0
  3
IE Standard
100
AcDbDiametricDimension
 15
-1.3557160782019517
 25
58.120848331862618
 35
0.0
 40
7.2705811040658057
1001
ACAD
1000
DSTYLE
1002
{
1070
             271
1070
               3
1070
             172
1070
               0
1070
             289
1070
               0
1070
             342
1005
5B
1070
             340
1005
3B
1070
              75
1070
               1
1070
              76
1070
               1
1070
              71
1070
               1
1070
              47
1040
0.025
1070
              48
1040
0.025
1070
               3
1000
mm (x2)
1070
             174
1070
               0
1070
             147
1040
0.09921875
1002
}
  0
DIMENSION
  5
2DB
100
AcDbEntity
  8
Dimension
370
               9
390
0
  6
Continuous
 62
              12
100
AcDbDimension
  2
*D17
 10
-25.735506673908191
 20
56.689858415625494
 30
0.0
 11
-25.735506673908191
 21
54.946973915625492
 31
0.0
 70
             128
 71
               5
 72
               1
 41
1.0
 42
0.0
  3
IE Standard
100
AcDbAlignedDimension
 13
-10.61896524687657
 23
52.189858415625501
 33
0.0
 14
-10.61896524687657
 24
56.689858415625494
 34
0.0
 50
90.0
100
AcDbRotatedDimension
1001
ACAD
1000
DSTYLE
1002
{
1070
             340
1005
3B
1070
             147
1040
0.09921875
1002
}
  0
DIMENSION
  5
2DC
100
AcDbEntity
  8
Dimension
370
               9
390
0
  6
Continuous
 62
              12
100
AcDbDimension
  2
*D18
 10
-16.981465246876567
 20
37.100000000000001
 30
0.0
 11
-8.5041068312510681
 21
37.100000000000001
 31
0.0
 70
             128
 71
               5
 72
               1
 41
1.0
 42
0.0
  3
IE Standard
100
AcDbAlignedDimension
 13
0.7435347531234244
 23
45.577358415625497
 33
0.0
 14
-16.981465246876567
 24
45.577358415625497
 34
0.0
100
AcDbRotatedDimension
1001
ACAD
1000
DSTYLE
1002
{
1070
             340
1005
3B
1070
               3
1000
<>mm sqr.
1070
             147
1040
0.09921875
1002
}
  0
WIPEOUT
  5
2DD
100
AcDbEntity
  8
None
370
               9
390
0
  6
Continuous
 62
              12
 92
        0
100
AcDbWipeout
 90
        0
 10
-12.05890524687657
 20
3.8271545000000176
 30
0.0
 11
8.0697506215837276
 21
0.0
 31
0.0
 12
0.0
 22
8.0697506215837276
 32
0.0
 13
1.0
 23
1.0
340
0
 70
               7
280
               1
281
              50
282
              50
283
               0
360
0
 71
               2
 91
        5
 14
-0.5
 24
-3.3992196259250305
 14
0.5000000000000002
 24
-3.3992196259250305
 14
0.5000000000000002
 24
-3.5249026919279984
 14
-0.5
 24
-3.5249026919279984
 14
-0.5
 24
-3.3992196259250305
  0
MTEXT
  5
2DE
100
AcDbEntity
  8
None
390
0
 62
              12
100
AcDbMText
 10
-12.05890524687657
 20
36.144967156250004
 30
0.0
 40
0.6315976562499999
 41
0.0
 71
               1
 72
               1
  1
backing plate outline
  7
Arial
 73
               1
 44
0.9673603504928808
  0
DIMENSION
  5
2DF
100
AcDbEntity
  8
Dimension
370
               9
390
0
  6
Continuous
 62
              12
100
AcDbDimension
  2
*D19
 10
-2.5736579043714243
 20
48.299961223092815
 30
0.0
 11
6.121031755102929
 21
46.457939125433541
 31
0.0
 70
               3
 71
               5
 72
               1
 41
1.0
 42
0.0
  3
IE Standard
100
AcDbDiametricDimension
 15
-0.8783391625089303
 25
47.865917027774266
 35
0.0
 40
5.6767521733309243
1001
ACAD
1000
DSTYLE
1002
{
1070
             172
1070
               0
1070
             289
1070
               0
1070
             342
1005
5B
1070
             340
1005
3B
1070
             140
1040
0.6316008391203704
1070
              75
1070
               1
1070
              76
1070
               1
1070
              71
1070
               1
1070
              47
1040
0.05
1070
              48
1040
0.05
1070
               3
1000
mm (x4)
1070
             174
1070
               0
1070
             147
1040
0.09921875
1002
}
  0
DIMENSION
  5
2E0
100
AcDbEntity
  8
Dimension
370
               9
390
0
  6
Continuous
 62
              12
100
AcDbDimension
  2
*D20
 10
-5.2326381947106153
 20
55.307103143330082
 30
0.0
 11
5.1095546773038842
 21
49.783933554524864
 31
0.0
 70
               3
 71
               5
 72
               1
 41
1.0
 42
0.0
  1
 pad (x120)
  3
IE Standard
100
AcDbDiametricDimension
 15
-5.0121227441172298
 25
55.169360862059605
 35
0.0
 40
10.165441482775048
1001
ACAD
1000
DSTYLE
1002
{
1070
             172
1070
               0
1070
             289
1070
               0
1070
             342
1005
5B
1070
             340
1005
3B
1070
             140
1040
0.6316008391203704
1070
              75
1070
               1
1070
              76
1070
               1
1070
             174
1070
               0
1070
             147
1040
0.09921875
1002
}
  0
POLYLINE
  5
2E1
100
AcDbEntity
  8
None
370
               9
390
0
  6
STYLE_12
 62
               7
100
AcDb2dPolyline
 66
               1
 10
0.0
 20
0.0
 30
0.0
 70
               1
 75
               5
  0
VERTEX
  5
2E2
100
AcDbEntity
  8
None
370
               9
390
0
  6
STYLE_12
 62
               7
100
AcDbVertex
100
AcDb2dVertex
 10
-20.858965246876572
 20
68.562689060819736
 30
0.0
  0
VERTEX
  5
2E3
100
AcDbEntity
  8
None
370
               9
390
0
  6
STYLE_12
 62
               7
100
AcDbVertex
100
AcDb2dVertex
 10
4.6210347531234293
 20
68.562689060819736
 30
0.0
  0
VERTEX
  5
2E4
100
AcDbEntity
  8
None
370
               9
390
0
  6
STYLE_12
 62
               7
100
AcDbVertex
100
AcDb2dVertex
 10
4.6210347531234293
 20
38.312689060819771
 30
0.0
  0
VERTEX
  5
2E5
100
AcDbEntity
  8
None
370
               9
390
0
  6
STYLE_12
 62
               7
100
AcDbVertex
100
AcDb2dVertex
 10
-20.858965246876572
 20
38.312689060819771
 30
0.0
  0
SEQEND
  5
2E6
100
AcDbEntity
  8
None
370
               9
390
0
  6
STYLE_12
 62
               7
  0
LINE
  5
2E7
100
AcDbEntity
  8
AM_VIS
370
               9
390
0
  6
Continuous
 62
             224
100
AcDbLine
 10
4.6210347531234293
 20
38.997830645194242
 30
0.0
 11
11.800000000000001
 21
38.997830645194242
 31
0.0
  0
SOLID
  5
2E8
100
AcDbEntity
  8
AM_VIS
370
               9
390
0
 62
             224
100
AcDbTrace
 10
4.6210347531234293
 20
38.997830645194242
 30
0.0
 11
5.1291432736312421
 21
39.133977912931684
 31
0.0
 12
5.1291432736312421
 22
38.861683377456799
 32
0.0
 13
5.1291432736312421
 23
38.861683377456799
 33
0.0
  0
LINE
  5
2E9
100
AcDbEntity
  8
AM_VIS
370
               9
390
0
  6
Continuous
 62
               7
100
AcDbLine
 10
11.800000000000001
 20
38.997830645194242
 30
0.0
 11
14.699999999999999
 21
41.897830645194247
 31
0.0
  0
MTEXT
  5
2EA
100
AcDbEntity
  8
AM_VIS
390
0
 62
             224
100
AcDbMText
 10
14.100000000000001
 20
42.251896400402572
 30
0.0
 40
0.5684407552083333
 41
6.1999999999999993
 71
               1
 72
               1
  1
Soclet Lid Size
  7
Arial
 73
               1
 44
0.9673603504928806
  0
LINE
  5
2EB
100
AcDbEntity
  8
AM_VIS
370
               9
390
0
  6
Continuous
 62
             224
100
AcDbLine
 10
11.800000000000001
 20
38.997830645194242
 30
0.0
 11
14.699999999999999
 21
41.897830645194247
 31
0.0
  0
WIPEOUT
  5
2EC
100
AcDbEntity
  8
None
370
               9
390
0
  6
Continuous
 62
               7
 92
        0
100
AcDbWipeout
 90
        0
 10
16.18966
 20
-6.0354327127079586
 30
0.0
 11
8.8900002691480822
 21
0.0
 31
0.0
 12
0.0
 22
8.8900002691480822
 32
0.0
 13
1.0
 23
1.0
340
0
 70
               7
280
               1
281
              50
282
              50
283
               0
360
0
 71
               2
 91
        5
 14
-0.5
 24
-3.0394520863175751
 14
0.5
 24
-3.0394520863175751
 14
0.5
 24
-3.2448092229574534
 14
-0.5
 24
-3.2448092229574534
 14
-0.5
 24
-3.0394520863175751
  0
MTEXT
  5
2ED
100
AcDbEntity
  8
None
390
0
 62
               7
100
AcDbMText
 10
16.18966
 20
26.964053797708694
 30
0.0
 40
1.1368815104166665
 41
0.0
 71
               1
 72
               1
  1
PAGE 2 of 4
  7
Arial
 73
               1
 44
0.9673603504928806
  0
MTEXT
  5
2EE
100
AcDbEntity
  8
None
390
0
 62
               7
100
AcDbMText
 10
12.909365000000001
 20
30.323626407957033
 30
0.0
 40
0.5204840494791666
 41
14.730064999999998
 71
               1
 72
               1
  1
Recommended PCB Layout Tolerances:  ±0.025mm [±0.001"] unless stated otherwise.\P
  7
Helvetica
 73
               1
 44
0.9673603504928806
  0
MTEXT
  5
2EF
100
AcDbEntity
  8
None
390
0
 62
               7
100
AcDbMText
 10
-36.949734999999997
 20
73.428393835937484
 30
0.0
 40
0.6124443359374999
 41
11.826889999999999
 71
               1
 72
               1
  1
{\LRecommended PCB Layout Top View}\P
  7
Helvetica
 73
               1
 44
0.9673603504928809
  0
WIPEOUT
  5
2F0
100
AcDbEntity
  8
None
370
               9
390
0
  6
Continuous
 62
              12
 92
        0
100
AcDbWipeout
 90
        0
 10
5.4998425000000042
 20
38.984681800000025
 30
0.0
 11
21.660824999999996
 21
0.0
 31
0.0
 12
0.0
 22
21.660824999999996
 32
0.0
 13
1.0
 23
1.0
340
0
 70
               7
280
               1
281
              50
282
              50
283
               0
360
0
 71
               2
 91
        5
 14
-0.5
 24
-0.9526561199769628
 14
0.5000000000000002
 24
-0.9526561199769628
 14
0.5000000000000002
 24
-1.068158793582423
 14
-0.5
 24
-1.068158793582423
 14
-0.5
 24
-0.9526561199769628
  0
MTEXT
  5
2F1
100
AcDbEntity
  8
None
390
0
 62
              12
100
AcDbMText
 10
5.4998425000000042
 20
72.725583920833344
 30
0.0
 40
0.7592005208333332
 41
21.660824999999999
 71
               1
 72
               1
  1
{\L*Note: BGA pattern is not symmetrical with respect to the mounting holes.}
  7
Arial (bold)
 73
               1
 44
0.992595837897043
  0
WIPEOUT
  5
2F2
100
AcDbEntity
  8
None
370
              15
390
0
  6
Continuous
 62
              12
 92
        0
100
AcDbWipeout
 90
        0
 10
-37.48057
 20
1.0853150000000111
 30
0.0
 11
17.851437822977701
 21
0.0
 31
0.0
 12
0.0
 22
17.851437822977701
 32
0.0
 13
1.0
 23
1.0
340
0
 70
               7
280
               1
281
              50
282
              50
283
               0
360
0
 71
               2
 91
        5
 14
-0.5
 24
-1.262644012881611
 14
0.5
 24
-1.262644012881611
 14
0.5
 24
-1.4671793582250683
 14
-0.5
 24
-1.4671793582250683
 14
-0.5
 24
-1.262644012881611
  0
MTEXT
  5
2F3
100
AcDbEntity
  8
None
390
0
 62
              12
100
AcDbMText
 10
-37.48057
 20
36.056360755208331
 30
0.0
 40
0.5684407552083333
 41
17.851437822977701
 71
               1
 72
               1
  1
{\LTarget PCB Recommendations}\PTotal thickness: 1.6mm min.\PPlating: Gold or Solder finish\PPCB Pad height: Same or higher than solder mask
  7
Arial
 73
               1
 44
0.9673603504928806
  0
MTEXT
  5
2F4
100
AcDbEntity
  8
None
390
0
 62
               7
100
AcDbMText
 10
-2.6305699999999996
 20
32.799752549479159
 30
0.0
 40
0.5204840494791666
 41
28.552694999999996
 71
               1
 72
               1
  1
Recommended PCB Layout Tolerances:  ±0.025mm [±0.001"] unless stated otherwise.\P
  7
Helvetica
 73
               1
 44
0.9673603504928806
  0
WIPEOUT
  5
2F5
100
AcDbEntity
  8
None
370
               9
390
0
  6
Continuous
 62
               7
 92
        0
100
AcDbWipeout
 90
        0
 10
2.3025903392241149
 20
2.522328250000009
 30
0.0
 11
19.385151269700792
 21
0.0
 31
0.0
 12
0.0
 22
19.385151269700792
 32
0.0
 13
1.0
 23
1.0
340
0
 70
               7
280
               1
281
              50
282
              50
283
               0
360
0
 71
               2
 91
        5
 14
-0.5
 24
-1.1231872303819095
 14
0.5000000000000002
 24
-1.1231872303819095
 14
0.5000000000000002
 24
-1.1755075210976833
 14
-0.5
 24
-1.1755075210976833
 14
-0.5
 24
-1.1231872303819095
  0
MTEXT
  5
2F6
100
AcDbEntity
  8
None
390
0
 62
               7
100
AcDbMText
 10
2.3025903392241149
 20
34.84014573697916
 30
0.0
 40
0.6316012369791665
 41
0.0
 71
               1
 72
               1
  1
All dimensions are in mm unless stated otherwise
  7
Arial
 73
               1
 44
0.9673603504928809
  0
INSERT
  5
2F7
100
AcDbEntity
  8
None
390
0
 62
               7
100
AcDbBlockReference
  2
CG-BGA-4005 title block
 10
-13.069807136181335
 20
28.635089818090652
 30
0.0
 41
0.5
 42
0.5
 43
0.5
  0
WIPEOUT
  5
2F8
100
AcDbEntity
  8
None
370
               5
390
0
  6
Continuous
 62
               7
 92
        0
100
AcDbWipeout
 90
        0
 10
-1.5081450585465439
 20
-1.6449311540201315
 30
0.0
 11
4.1892388025919587
 21
0.0
 31
0.0
 12
0.0
 22
4.1892388025919587
 32
0.0
 13
1.0
 23
1.0
340
0
 70
               7
280
               1
281
              50
282
              50
283
               0
360
0
 71
               2
 91
        5
 14
-0.5
 24
-7.0110853027837798
 14
0.5
 24
-7.0110853027837798
 14
0.5
 24
-7.2531905629022724
 14
-0.5
 24
-7.2531905629022724
 14
-0.5
 24
-7.0110853027837798
  0
MTEXT
  5
2F9
100
AcDbEntity
  8
None
390
0
 62
               7
100
AcDbMText
 10
-1.5081450585465439
 20
30.672886332959017
 30
0.0
 40
0.6316012369791665
 41
0.0
 71
               1
 72
               1
  1
Scale: 4:1 
  7
Arial
 73
               1
 44
0.9673603504928809
  0
ENDSEC
  0
SECTION
  2
OBJECTS
  0
DICTIONARY
  5
19
100
AcDbDictionary
280
               0
281
               1
  3
ACAD_GROUP
350
1A
  3
ACAD_MLINESTYLE
350
1B
  3
ACAD_LAYOUT
350
1E
  3
ACAD_PLOTSETTINGS
350
22
  3
ACAD_PLOTSTYLENAME
350
1F
  3
ACAD_WIPEOUT_VARS
350
23
  0
DICTIONARY
  5
1A
102
{ACAD_REACTORS
330
19
102
}
100
AcDbDictionary
280
               0
281
               1
  0
DICTIONARY
  5
1B
102
{ACAD_REACTORS
330
19
102
}
100
AcDbDictionary
280
               0
281
               1
  3
Standard
350
1C
  0
MLINESTYLE
  5
1C
102
{ACAD_REACTORS
330
1B
102
}
100
AcDbMlineStyle
  2
Standard
 70
               0
  3

 62
               0
 51
90.0
 52
90.0
 71
               2
 49
0.5
 62
             256
  6
ByLayer
 49
-0.5
 62
             256
  6
ByLayer
  0
ACDBDICTIONARYWDFLT
  5
1F
102
{ACAD_REACTORS
330
19
102
}
100
AcDbDictionary
281
               1
  3
Normal
350
1D
100
AcDbDictionaryWithDefault
340
1D
  0
ACDBPLACEHOLDER
  5
1D
102
{ACAD_REACTORS
330
1F
102
}
  0
LAYOUT
  5
20
102
{ACAD_REACTORS
330
1E
102
}
100
AcDbPlotSettings
  1

  2

  4

  6

 40
0.0
 41
0.0
 42
0.0
 43
0.0
 44
0.0
 45
0.0
 46
0.0
 47
0.0
 48
0.0
 49
0.0
140
0.0
141
0.0
142
1.0
143
1.0
 70
            1024
 72
               0
 73
               0
 74
               0
  7

 75
               0
147
1.0
148
0.0
149
0.0
100
AcDbLayout
  1
Model
 70
               0
 71
               0
 10
0.0
 20
0.0
 11
0.0
 21
0.0
 12
0.0
 22
0.0
 32
0.0
 14
0.0
 24
0.0
 34
0.0
 15
0.0
 25
0.0
 35
0.0
146
0.0
 13
0.0
 23
0.0
 33
0.0
 16
0.0
 26
0.0
 36
0.0
 17
0.0
 27
0.0
 37
0.0
 76
               0
330
A
331
0
345
0
346
0
  0
LAYOUT
  5
21
102
{ACAD_REACTORS
330
1E
102
}
100
AcDbPlotSettings
  1

  2

  4

  6

 40
0.0
 41
0.0
 42
0.0
 43
0.0
 44
0.0
 45
0.0
 46
0.0
 47
0.0
 48
0.0
 49
0.0
140
0.0
141
0.0
142
1.0
143
1.0
 70
               0
 72
               0
 73
               0
 74
               0
  7

 75
               0
147
1.0
148
0.0
149
0.0
100
AcDbLayout
  1
Layout1
 70
               0
 71
               0
 10
0.0
 20
0.0
 11
0.0
 21
0.0
 12
0.0
 22
0.0
 32
0.0
 14
0.0
 24
0.0
 34
0.0
 15
0.0
 25
0.0
 35
0.0
146
0.0
 13
0.0
 23
0.0
 33
0.0
 16
0.0
 26
0.0
 36
0.0
 17
0.0
 27
0.0
 37
0.0
 76
               0
330
B
331
0
345
0
346
0
  0
DICTIONARY
  5
1E
102
{ACAD_REACTORS
330
19
102
}
100
AcDbDictionary
280
               0
281
               1
  3
Layout1
350
21
  3
Model
350
20
  0
DICTIONARY
  5
22
102
{ACAD_REACTORS
330
19
102
}
100
AcDbDictionary
280
               0
281
               1
  0
WIPEOUTVARIABLES
  5
23
100
AcDbWipeoutVariables
 70
               0
  0
ENDSEC
  0
EOF
