  0
SECTION
  2
HEADER
  9
$ACADVER
  1
AC1015
  9
$ACADMAINTVER
 70
               6
  9
$DWGCODEPAGE
  3
ANSI_1252
  9
$INSBASE
 10
0.0
 20
0.0
 30
0.0
  9
$EXTMIN
 10
-5.7985134000000009
 20
-130.34961009999998
 30
0.0
  9
$EXTMAX
 10
57.430955078096844
 20
-83.288715099999976
 30
0.0
  9
$LIMMIN
 10
0.0
 20
0.0
  9
$LIMMAX
 10
0.0
 20
0.0
  9
$ORTHOMODE
 70
               0
  9
$REGENMODE
 70
               1
  9
$FILLMODE
 70
               1
  9
$QTEXTMODE
 70
               0
  9
$MIRRTEXT
 70
               1
  9
$LTSCALE
 40
6.3499999999999996
  9
$ATTMODE
 70
               1
  9
$TEXTSIZE
 40
0.2
  9
$TRACEWID
 40
1.0
  9
$TEXTSTYLE
  7
Standard
  9
$CLAYER
  8
None
  9
$CELTYPE
  6
Continuous
  9
$CECOLOR
 62
             256
  9
$CELTSCALE
 40
1.0
  9
$DISPSILH
 70
               0
  9
$DIMSCALE
 40
1.0
  9
$DIMASZ
 40
0.79375
  9
$DIMEXO
 40
0.4762500011827797
  9
$DIMDLI
 40
6.9999859934672708
  9
$DIMRND
 40
0.0
  9
$DIMDLE
 40
0.0
  9
$DIMEXE
 40
0.9525000023655593
  9
$DIMTP
 40
0.0
  9
$DIMTM
 40
0.0
  9
$DIMTXT
 40
0.5684407552083333
  9
$DIMCEN
 40
0.0
  9
$DIMTSZ
 40
0.0
  9
$DIMTOL
 70
               0
  9
$DIMLIM
 70
               0
  9
$DIMTIH
 70
               1
  9
$DIMTOH
 70
               1
  9
$DIMSE1
 70
               0
  9
$DIMSE2
 70
               0
  9
$DIMTAD
 70
               0
  9
$DIMZIN
 70
               3
  9
$DIMBLK
  1
VW_FILLEDARROW
  9
$DIMASO
 70
               1
  9
$DIMSHO
 70
               1
  9
$DIMPOST
  1
<>mm
  9
$DIMAPOST
  1
[]"
  9
$DIMALT
 70
               0
  9
$DIMALTD
 70
               3
  9
$DIMALTF
 40
0.0393700787401575
  9
$DIMLFAC
 40
1.0
  9
$DIMTOFL
 70
               1
  9
$DIMTVP
 40
0.0
  9
$DIMTIX
 70
               1
  9
$DIMSOXD
 70
               0
  9
$DIMSAH
 70
               0
  9
$DIMBLK1
  1

  9
$DIMBLK2
  1

  9
$DIMSTYLE
  2
IE Standard
  9
$DIMCLRD
 70
               0
  9
$DIMCLRE
 70
               0
  9
$DIMCLRT
 70
               0
  9
$DIMTFAC
 40
1.0
  9
$DIMGAP
 40
0.0
  9
$DIMJUST
 70
               0
  9
$DIMSD1
 70
               0
  9
$DIMSD2
 70
               0
  9
$DIMTOLJ
 70
               1
  9
$DIMTZIN
 70
               3
  9
$DIMALTZ
 70
               3
  9
$DIMALTTZ
 70
               3
  9
$DIMUPT
 70
               0
  9
$DIMDEC
 70
               2
  9
$DIMTDEC
 70
               2
  9
$DIMALTU
 70
               2
  9
$DIMALTTD
 70
               2
  9
$DIMTXSTY
  7
Helvetica
  9
$DIMAUNIT
 70
               0
  9
$DIMADEC
 70
               0
  9
$DIMALTRND
 40
0.0
  9
$DIMAZIN
 70
               0
  9
$DIMDSEP
 70
              46
  9
$DIMATFIT
 70
               0
  9
$DIMFRAC
 70
               2
  9
$DIMLDRBLK
  1

  9
$DIMLUNIT
 70
               2
  9
$DIMLWD
 70
              -2
  9
$DIMLWE
 70
              -2
  9
$DIMTMOVE
 70
               0
  9
$LUNITS
 70
               2
  9
$LUPREC
 70
               4
  9
$SKETCHINC
 40
0.1
  9
$FILLETRAD
 40
0.0
  9
$AUNITS
 70
               0
  9
$AUPREC
 70
               0
  9
$MENU
  1
acad
  9
$ELEVATION
 40
0.0
  9
$PELEVATION
 40
0.0
  9
$THICKNESS
 40
0.0
  9
$LIMCHECK
 70
               0
  9
$CHAMFERA
 40
0.0
  9
$CHAMFERB
 40
0.0
  9
$CHAMFERC
 40
0.0
  9
$CHAMFERD
 40
0.0
  9
$SKPOLY
 70
               0
  9
$TDCREATE
 40
2454637.550821759
  9
$TDUCREATE
 40
0.000000000
  9
$TDUPDATE
 40
2454637.550821759
  9
$TDUUPDATE
 40
0.000000000
  9
$TDINDWG
 40
0.0000000000
  9
$TDUSRTIMER
 40
0.0000000000
  9
$USRTIMER
 70
               1
  9
$ANGBASE
 50
0.0
  9
$ANGDIR
 70
               0
  9
$PDMODE
 70
               1
  9
$PDSIZE
 40
-2.0
  9
$PLINEWID
 40
0.0
  9
$SPLFRAME
 70
               0
  9
$SPLINETYPE
 70
               6
  9
$SPLINESEGS
 70
               8
  9
$HANDSEED
  5
2B2
  9
$SURFTAB1
 70
               6
  9
$SURFTAB2
 70
               6
  9
$SURFTYPE
 70
               6
  9
$SURFU
 70
               6
  9
$SURFV
 70
               6
  9
$UCSBASE
  2

  9
$UCSNAME
  2

  9
$UCSORG
 10
0.0
 20
0.0
 30
0.0
  9
$UCSXDIR
 10
1.0
 20
0.0
 30
0.0
  9
$UCSYDIR
 10
0.0
 20
1.0
 30
0.0
  9
$UCSORTHOREF
  2

  9
$UCSORTHOVIEW
 70
               0
  9
$UCSORGTOP
 10
0.0
 20
0.0
 30
0.0
  9
$UCSORGBOTTOM
 10
0.0
 20
0.0
 30
0.0
  9
$UCSORGLEFT
 10
0.0
 20
0.0
 30
0.0
  9
$UCSORGRIGHT
 10
0.0
 20
0.0
 30
0.0
  9
$UCSORGFRONT
 10
0.0
 20
0.0
 30
0.0
  9
$UCSORGBACK
 10
0.0
 20
0.0
 30
0.0
  9
$PUCSBASE
  2

  9
$PUCSNAME
  2

  9
$PUCSORG
 10
0.0
 20
0.0
 30
0.0
  9
$PUCSXDIR
 10
1.0
 20
0.0
 30
0.0
  9
$PUCSYDIR
 10
0.0
 20
1.0
 30
0.0
  9
$PUCSORTHOREF
  2

  9
$PUCSORTHOVIEW
 70
               0
  9
$PUCSORGTOP
 10
0.0
 20
0.0
 30
0.0
  9
$PUCSORGBOTTOM
 10
0.0
 20
0.0
 30
0.0
  9
$PUCSORGLEFT
 10
0.0
 20
0.0
 30
0.0
  9
$PUCSORGRIGHT
 10
0.0
 20
0.0
 30
0.0
  9
$PUCSORGFRONT
 10
0.0
 20
0.0
 30
0.0
  9
$PUCSORGBACK
 10
0.0
 20
0.0
 30
0.0
  9
$USERI1
 70
               0
  9
$USERI2
 70
               0
  9
$USERI3
 70
               0
  9
$USERI4
 70
               0
  9
$USERI5
 70
               0
  9
$USERR1
 40
0.0
  9
$USERR2
 40
0.0
  9
$USERR3
 40
0.0
  9
$USERR4
 40
0.0
  9
$USERR5
 40
0.0
  9
$WORLDVIEW
 70
               1
  9
$SHADEDGE
 70
               3
  9
$SHADEDIF
 70
              70
  9
$TILEMODE
 70
               1
  9
$MAXACTVP
 70
              64
  9
$PINSBASE
 10
0.0
 20
0.0
 30
0.0
  9
$PLIMCHECK
 70
               0
  9
$PEXTMIN
 10
1.0000000000000000E+20
 20
1.0000000000000000E+20
 30
1.0000000000000000E+20
  9
$PEXTMAX
 10
-1.0000000000000000E+20
 20
-1.0000000000000000E+20
 30
-1.0000000000000000E+20
  9
$PLIMMIN
 10
0.0
 20
0.0
  9
$PLIMMAX
 10
12.0
 20
9.0
  9
$UNITMODE
 70
               0
  9
$VISRETAIN
 70
               0
  9
$PLINEGEN
 70
               1
  9
$PSLTSCALE
 70
               0
  9
$TREEDEPTH
 70
            3020
  9
$CMLSTYLE
  2
Standard
  9
$CMLJUST
 70
               0
  9
$CMLSCALE
 40
1.0
  9
$PROXYGRAPHICS
 70
               0
  9
$MEASUREMENT
 70
               1
  9
$CELWEIGHT
370
               0
  9
$ENDCAPS
280
               0
  9
$JOINSTYLE
280
               0
  9
$LWDISPLAY
290
               1
  9
$INSUNITS
 70
               4
  9
$HYPERLINKBASE
  1

  9
$STYLESHEET
  1

  9
$XEDIT
290
               1
  9
$CEPSNTYPE
380
               0
  9
$PSTYLEMODE
290
               1
  9
$FINGERPRINTGUID
  2

  9
$VERSIONGUID
  2

  9
$EXTNAMES
290
               1
  9
$PSVPSCALE
 40
0.0
  0
ENDSEC
  0
SECTION
  2
CLASSES
  0
CLASS
  1
LWPOLYLINE
  2
AcDbPolyline
  3
AutoCAD 2000
 90
        0
280
               0
281
               1
  0
CLASS
  1
IMAGE
  2
AcDbRasterImage
  3
ISM
 90
      127
280
               0
281
               1
  0
CLASS
  1
OLE2FRAME
  2
AcDbOle2Frame
  3
AutoCAD 2000
 90
        0
280
               0
281
               1
  0
CLASS
  1
HATCH
  2
AcDbHatch
  3
AutoCAD 2000
 90
        0
280
               0
281
               1
  0
CLASS
  1
DICTIONARYVAR
  2
AcDbDictionaryVar
  3
AutoCAD 2000
 90
        0
280
               0
281
               0
  0
CLASS
  1
RASTERVARIABLES
  2
AcDbRasterVariables
  3
ISM
 90
        0
280
               0
281
               0
  0
CLASS
  1
IMAGEDEF
  2
AcDbRasterImageDef
  3
ISM
 90
        0
280
               0
281
               0
  0
CLASS
  1
IMAGEDEF_REACTOR
  2
AcDbRasterImageDefReactor
  3
ISM
 90
        1
280
               0
281
               0
  0
CLASS
  1
IDBUFFER
  2
AcDbIdBuffer
  3
AutoCAD 2000
 90
        0
280
               0
281
               0
  0
CLASS
  1
SPATIAL_FILTER
  2
AcDbSpatialFilter
  3
AutoCAD 2000
 90
        0
280
               0
281
               0
  0
CLASS
  1
XRECORD
  2
AcDbXrecord
  3
AutoCAD 2000
 90
        0
280
               0
281
               0
  0
CLASS
  1
SORTENTSTABLE
  2
AcDbSortentsTable
  3
AutoCAD 2000
 90
        0
280
               0
281
               0
  0
CLASS
  1
LAYER_INDEX
  2
AcDbLayerIndex
  3
AutoCAD 2000
 90
        0
280
               0
281
               0
  0
CLASS
  1
SPATIAL_INDEX
  2
AcDbSpatialIndex
  3
AutoCAD 2000
 90
        0
280
               0
281
               0
  0
CLASS
  1
OBJECT_PTR
  2
CAseDLPNTableRecord
  3
"ASE-LPNTableRecord"
 90
        1
280
               0
281
               0
  0
CLASS
  1
LAYOUT
  2
AcDbLayout
  3
AutoCAD 2000
 90
        0
280
               0
281
               0
  0
CLASS
  1
PLOTSETTINGS
  2
AcDbPlotSettings
  3
AutoCAD 2000
 90
        0
280
               0
281
               0
  0
CLASS
  1
ACDBDICTIONARYWDFLT
  2
AcDbDictionaryWithDefault
  3
AutoCAD 2000
 90
        0
280
               0
281
               0
  0
CLASS
  1
ACDBPLACEHOLDER
  2
AcDbPlaceHolder
  3
AutoCAD 2000
 90
        0
280
               0
281
               0
  0
CLASS
  1
VBA_PROJECT
  2
AcDbVbaProject
  3
acadvba
 90
        0
280
               0
281
               0
  0
CLASS
  1
WIPEOUT
  2
AcDbWipeout
  3
WipeOut|AutoCAD Express Tool|expresstools@autodesk.com
 90
      127
280
               0
281
               1
  0
CLASS
  1
WIPEOUTVARIABLES
  2
AcDbWipeoutVariables
  3
WipeOut|AutoCAD Express Tool|expresstools@autodesk.com
 90
        0
280
               0
281
               0
  0
CLASS
  1
RTEXT
  2
RText
  3
RText|AutoCAD Express Tool|expresstools@autodesk.com
 90
        0
280
               0
281
               1
  0
CLASS
  1
ARCALIGNEDTEXT
  2
AcDbArcAlignedText
  3
ATEXT|AutoCAD Express Tool|expresstools@autodesk.com
 90
        0
280
               0
281
               1
  0
ENDSEC
  0
SECTION
  2
TABLES
  0
TABLE
  2
VPORT
  5
7
100
AcDbSymbolTable
 70
               1
  0
VPORT
  5
15
100
AcDbSymbolTableRecord
100
AcDbViewportTableRecord
  2
*ACTIVE
 70
               0
 10
0.0
 20
0.0
 11
1.0
 21
1.0
 12
25.816220839048423
 22
-106.81916259999997
 13
0.0
 23
0.0
 14
1.0
 24
1.0
 15
0.0
 25
0.0
 16
0.0
 26
0.0
 36
1.0
 17
0.0
 27
0.0
 37
0.0
 40
47.060895000000002
 41
0.688564
 42
50.0
 43
0.0
 44
0.0
 50
0.0
 51
0.0
 71
               0
 72
            2000
 73
               1
 74
               1
 75
               0
 76
               0
 77
               0
 78
               0
281
               0
 65
               0
110
0.0
120
0.0
130
0.0
111
1.0
121
0.0
131
0.0
112
0.0
122
1.0
132
0.0
345
0
346
0
 79
               0
146
0.0
  0
ENDTAB
  0
TABLE
  2
LTYPE
  5
4
100
AcDbSymbolTable
 70
              16
  0
LTYPE
  5
11
100
AcDbSymbolTableRecord
100
AcDbLinetypeTableRecord
  2
ByBlock
 70
              64
  3

 72
              65
 73
               0
 40
0.0
  0
LTYPE
  5
12
100
AcDbSymbolTableRecord
100
AcDbLinetypeTableRecord
  2
ByLayer
 70
              64
  3

 72
              65
 73
               0
 40
0.0
  0
LTYPE
  5
13
100
AcDbSymbolTableRecord
100
AcDbLinetypeTableRecord
  2
Continuous
 70
              64
  3
Solid line
 72
              65
 73
               0
 40
0.0
  0
LTYPE
  5
37
100
AcDbSymbolTableRecord
100
AcDbLinetypeTableRecord
  2
STYLE_01
 70
               0
  3

 72
              65
 73
               2
 40
1.5
 49
1.0
 74
               0
 49
-0.5
 74
               0
  0
LTYPE
  5
38
100
AcDbSymbolTableRecord
100
AcDbLinetypeTableRecord
  2
STYLE_02
 70
               0
  3

 72
              65
 73
               2
 40
0.75
 49
0.5
 74
               0
 49
-0.25
 74
               0
  0
LTYPE
  5
39
100
AcDbSymbolTableRecord
100
AcDbLinetypeTableRecord
  2
STYLE_03
 70
               0
  3

 72
              65
 73
               4
 40
4.0
 49
0.25
 74
               0
 49
-0.5
 74
               0
 49
0.5
 74
               0
 49
-0.5
 74
               0
  0
LTYPE
  5
3A
100
AcDbSymbolTableRecord
100
AcDbLinetypeTableRecord
  2
STYLE_04
 70
               0
  3

 72
              65
 73
               4
 40
5.0
 49
2.5
 74
               0
 49
-0.5
 74
               0
 49
0.5
 74
               0
 49
-0.5
 74
               0
  0
LTYPE
  5
3B
100
AcDbSymbolTableRecord
100
AcDbLinetypeTableRecord
  2
STYLE_05
 70
               0
  3

 72
              65
 73
               2
 40
0.5
 49
0.0001
 74
               0
 49
-0.4999
 74
               0
  0
LTYPE
  5
3C
100
AcDbSymbolTableRecord
100
AcDbLinetypeTableRecord
  2
STYLE_06
 70
               0
  3

 72
              65
 73
               4
 40
2.0
 49
1.0
 74
               0
 49
-0.5
 74
               0
 49
0.0001
 74
               0
 49
-0.4999
 74
               0
  0
LTYPE
  5
3D
100
AcDbSymbolTableRecord
100
AcDbLinetypeTableRecord
  2
STYLE_07
 70
               0
  3

 72
              65
 73
               6
 40
3.5
 49
1.0
 74
               0
 49
-0.5
 74
               0
 49
1.0
 74
               0
 49
-0.5
 74
               0
 49
0.0001000000000002
 74
               0
 49
-0.4998999999999998
 74
               0
  0
LTYPE
  5
3E
100
AcDbSymbolTableRecord
100
AcDbLinetypeTableRecord
  2
STYLE_08
 70
               0
  3

 72
              65
 73
               6
 40
2.5
 49
1.0
 74
               0
 49
-0.5
 74
               0
 49
0.0001
 74
               0
 49
-0.4999
 74
               0
 49
0.0001000000000002
 74
               0
 49
-0.4998999999999998
 74
               0
  0
LTYPE
  5
3F
100
AcDbSymbolTableRecord
100
AcDbLinetypeTableRecord
  2
STYLE_09
 70
               0
  3

 72
              65
 73
               2
 40
0.375
 49
0.25
 74
               0
 49
-0.125
 74
               0
  0
LTYPE
  5
40
100
AcDbSymbolTableRecord
100
AcDbLinetypeTableRecord
  2
STYLE_10
 70
               0
  3

 72
              65
 73
               2
 40
0.0833282470703125
 49
0.0555572509765625
 74
               0
 49
-0.02777099609375
 74
               0
  0
LTYPE
  5
41
100
AcDbSymbolTableRecord
100
AcDbLinetypeTableRecord
  2
STYLE_11
 70
               0
  3

 72
              65
 73
               4
 40
0.59722900390625
 49
0.3055572509765625
 74
               0
 49
-0.15277099609375
 74
               0
 49
0.013885498046875
 74
               0
 49
-0.1250152587890625
 74
               0
  0
LTYPE
  5
42
100
AcDbSymbolTableRecord
100
AcDbLinetypeTableRecord
  2
STYLE_12
 70
               0
  3

 72
              65
 73
               4
 40
0.4305572509765625
 49
0.236114501953125
 74
               0
 49
-0.0833282470703125
 74
               0
 49
0.013885498046875
 74
               0
 49
-0.09722900390625
 74
               0
  0
LTYPE
  5
43
100
AcDbSymbolTableRecord
100
AcDbLinetypeTableRecord
  2
STYLE_13
 70
               0
  3

 72
              65
 73
               2
 40
0.09722900390625
 49
0.0555572509765625
 74
               0
 49
-0.0416717529296875
 74
               0
  0
ENDTAB
  0
TABLE
  2
LAYER
  5
2
100
AcDbSymbolTable
 70
               5
  0
LAYER
  5
14
100
AcDbSymbolTableRecord
100
AcDbLayerTableRecord
  2
0
 70
               0
 62
               7
  6
Continuous
290
               1
370
              -3
390
1D
  0
LAYER
  5
44
100
AcDbSymbolTableRecord
100
AcDbLayerTableRecord
  2
Defpoints
 70
               0
 62
               7
  6
Continuous
290
               0
370
              -3
390
1D
  0
LAYER
  5
45
100
AcDbSymbolTableRecord
100
AcDbLayerTableRecord
  2
None
 70
               0
 62
               7
  6
Continuous
290
               1
370
               5
390
1D
  0
LAYER
  5
46
100
AcDbSymbolTableRecord
100
AcDbLayerTableRecord
  2
Dimension
 70
               0
 62
               7
  6
Continuous
290
               1
370
               5
390
1D
  0
LAYER
  5
47
100
AcDbSymbolTableRecord
100
AcDbLayerTableRecord
  2
Solid Lines
 70
               0
 62
               7
  6
Continuous
290
               1
370
              25
390
1D
  0
ENDTAB
  0
TABLE
  2
STYLE
  5
3
100
AcDbSymbolTable
 70
               5
  0
STYLE
  5
17
100
AcDbSymbolTableRecord
100
AcDbTextStyleTableRecord
  2
Standard
 70
               0
 40
0.0
 41
1.0
 50
0.0
 71
               0
 42
0.0
  3
txt
  4

  0
STYLE
  5
33
100
AcDbSymbolTableRecord
100
AcDbTextStyleTableRecord
  2
Arial
 70
               0
 40
0.0
 41
1.0
 50
0.0
 71
               0
 42
0.0
  3
Arial
  4

1001
ACAD
1000
Arial
1071
        0
  0
STYLE
  5
34
100
AcDbSymbolTableRecord
100
AcDbTextStyleTableRecord
  2
Helvetica
 70
               0
 40
0.0
 41
1.0
 50
0.0
 71
               0
 42
0.0
  3
Helvetica
  4

1001
ACAD
1000
Helvetica
1071
        0
  0
STYLE
  5
35
100
AcDbSymbolTableRecord
100
AcDbTextStyleTableRecord
  2
Helvetica (bold)
 70
               0
 40
0.0
 41
1.0
 50
0.0
 71
               0
 42
0.0
  3
Helvetica
  4

1001
ACAD
1000
Helvetica
1071
 33554432
  0
STYLE
  5
36
100
AcDbSymbolTableRecord
100
AcDbTextStyleTableRecord
  2
New Century Schlbk
 70
               0
 40
0.0
 41
1.0
 50
0.0
 71
               0
 42
0.0
  3
New Century Schlbk
  4

1001
ACAD
1000
New Century Schlbk
1071
        0
  0
ENDTAB
  0
TABLE
  2
VIEW
  5
5
100
AcDbSymbolTable
 70
               0
  0
ENDTAB
  0
TABLE
  2
UCS
  5
6
100
AcDbSymbolTable
 70
               0
  0
ENDTAB
  0
TABLE
  2
APPID
  5
8
100
AcDbSymbolTable
 70
               1
  0
APPID
  5
16
100
AcDbSymbolTableRecord
100
AcDbRegAppTableRecord
  2
ACAD
 70
               0
  0
ENDTAB
  0
TABLE
  2
DIMSTYLE
  5
9
100
AcDbSymbolTable
 70
               2
100
AcDbDimStyleTable
 71
               0
  0
DIMSTYLE
105
18
100
AcDbSymbolTableRecord
100
AcDbDimStyleTableRecord
  2
Standard
 70
               0
  3

  4

 40
1.0
 41
0.18
 42
0.0625
 43
0.38
 44
0.18
 45
0.0
 46
0.0
 47
0.0
 48
0.0
 71
               0
 72
               0
 73
               1
 74
               1
 75
               0
 76
               0
 77
               0
 78
               0
 79
               0
140
0.18
141
0.09
142
0.0
143
25.399999999999999
144
1.0
145
0.0
146
1.0
147
0.09
148
0.0
170
               0
171
               2
172
               0
173
               0
174
               0
175
               0
176
               0
177
               0
178
               0
179
               0
271
               4
272
               4
273
               2
274
               2
275
               0
276
               0
277
               2
278
              46
279
               0
280
               0
281
               0
282
               0
283
               1
284
               0
285
               0
286
               0
288
               0
289
               3
340
17
341
0
342
0
343
0
344
0
371
              -2
372
              -2
  0
DIMSTYLE
105
50
100
AcDbSymbolTableRecord
100
AcDbDimStyleTableRecord
  2
IE Standard
 70
               0
  3
<>mm
  4
[]"
 40
1.0
 41
0.79375
 42
0.4762500011827797
 43
6.9999859934672708
 44
0.9525000023655593
 45
0.0
 46
0.0
 47
0.0
 48
0.0
 71
               0
 72
               0
 73
               1
 74
               1
 75
               0
 76
               0
 77
               0
 78
               3
 79
               0
140
0.5684407552083333
141
0.0
142
0.0
143
0.0393700787401575
144
1.0
145
0.0
146
1.0
147
0.0
148
0.0
170
               0
171
               3
172
               1
173
               0
174
               1
175
               0
176
               0
177
               0
178
               0
179
               0
271
               2
272
               2
273
               2
274
               2
275
               0
276
               2
277
               2
278
              46
279
               0
280
               0
281
               0
282
               0
283
               1
284
               3
285
               3
286
               3
288
               0
289
               0
340
34
341
4C
342
48
343
0
344
0
371
              -2
372
              -2
  0
ENDTAB
  0
TABLE
  2
BLOCK_RECORD
  5
1
100
AcDbSymbolTable
 70
              17
  0
BLOCK_RECORD
  5
A
100
AcDbSymbolTableRecord
100
AcDbBlockTableRecord
  2
*MODEL_SPACE
340
20
  0
BLOCK_RECORD
  5
B
100
AcDbSymbolTableRecord
100
AcDbBlockTableRecord
  2
*PAPER_SPACE
340
21
  0
BLOCK_RECORD
  5
48
100
AcDbSymbolTableRecord
100
AcDbBlockTableRecord
  2
VW_FILLEDARROW
340
0
  0
BLOCK_RECORD
  5
4C
100
AcDbSymbolTableRecord
100
AcDbBlockTableRecord
  2
VW_FILLEDARROW-1
340
0
  0
BLOCK_RECORD
  5
24
100
AcDbSymbolTableRecord
100
AcDbBlockTableRecord
  2
IE i logo
340
0
102
{BLKREFS
331
192
102
}
  0
BLOCK_RECORD
  5
25
100
AcDbSymbolTableRecord
100
AcDbBlockTableRecord
  2
*D3
340
0
  0
BLOCK_RECORD
  5
26
100
AcDbSymbolTableRecord
100
AcDbBlockTableRecord
  2
*D4
340
0
  0
BLOCK_RECORD
  5
27
100
AcDbSymbolTableRecord
100
AcDbBlockTableRecord
  2
*D5
340
0
  0
BLOCK_RECORD
  5
28
100
AcDbSymbolTableRecord
100
AcDbBlockTableRecord
  2
*D6
340
0
  0
BLOCK_RECORD
  5
29
100
AcDbSymbolTableRecord
100
AcDbBlockTableRecord
  2
*D7
340
0
  0
BLOCK_RECORD
  5
2A
100
AcDbSymbolTableRecord
100
AcDbBlockTableRecord
  2
*D8
340
0
  0
BLOCK_RECORD
  5
2B
100
AcDbSymbolTableRecord
100
AcDbBlockTableRecord
  2
*D9
340
0
  0
BLOCK_RECORD
  5
2C
100
AcDbSymbolTableRecord
100
AcDbBlockTableRecord
  2
*D10
340
0
  0
BLOCK_RECORD
  5
2D
100
AcDbSymbolTableRecord
100
AcDbBlockTableRecord
  2
*D11
340
0
  0
BLOCK_RECORD
  5
2E
100
AcDbSymbolTableRecord
100
AcDbBlockTableRecord
  2
*D12
340
0
  0
BLOCK_RECORD
  5
2F
100
AcDbSymbolTableRecord
100
AcDbBlockTableRecord
  2
*D13
340
0
  0
BLOCK_RECORD
  5
30
100
AcDbSymbolTableRecord
100
AcDbBlockTableRecord
  2
*D14
340
0
  0
BLOCK_RECORD
  5
31
100
AcDbSymbolTableRecord
100
AcDbBlockTableRecord
  2
*D15
340
0
  0
BLOCK_RECORD
  5
32
100
AcDbSymbolTableRecord
100
AcDbBlockTableRecord
  2
*D16
340
0
  0
ENDTAB
  0
ENDSEC
  0
SECTION
  2
BLOCKS
  0
BLOCK
  5
D
100
AcDbEntity
  8
0
390
0
100
AcDbBlockBegin
  2
*MODEL_SPACE
 70
               0
 10
0.0
 20
0.0
 30
0.0
  3
*MODEL_SPACE
  1

  0
ENDBLK
  5
E
100
AcDbEntity
  8
0
390
0
100
AcDbBlockEnd
  0
BLOCK
  5
F
100
AcDbEntity
 67
               1
  8
0
390
0
100
AcDbBlockBegin
  2
*PAPER_SPACE
 70
               0
 10
0.0
 20
0.0
 30
0.0
  3
*PAPER_SPACE
  1

  0
ENDBLK
  5
10
100
AcDbEntity
 67
               1
  8
0
390
0
100
AcDbBlockEnd
  0
BLOCK
  5
49
100
AcDbEntity
  8
0
370
              -2
390
0
  6
ByBlock
 62
               0
100
AcDbBlockBegin
  2
VW_FILLEDARROW
 70
               0
 10
0.0
 20
0.0
 30
0.0
  3
VW_FILLEDARROW
  1

  0
SOLID
  5
4A
100
AcDbEntity
  8
0
370
              -2
390
0
 62
               0
100
AcDbTrace
 10
0.0
 20
0.0
 30
0.0
 11
-0.9999389648437499
 21
-0.2679328381102956
 31
0.0
 12
-0.9999389648437499
 22
0.2679328381102958
 32
0.0
 13
-0.9999389648437499
 23
0.2679328381102958
 33
0.0
  0
ENDBLK
  5
4B
100
AcDbEntity
  8
0
390
0
100
AcDbBlockEnd
  0
BLOCK
  5
4D
100
AcDbEntity
  8
0
370
              -2
390
0
  6
ByBlock
 62
               0
100
AcDbBlockBegin
  2
VW_FILLEDARROW-1
 70
               0
 10
0.0
 20
0.0
 30
0.0
  3
VW_FILLEDARROW
  1

  0
SOLID
  5
4E
100
AcDbEntity
  8
0
370
              -2
390
0
 62
               0
100
AcDbTrace
 10
0.0
 20
0.0
 30
0.0
 11
-0.6662384033203125
 21
-0.1785180421362784
 31
0.0
 12
-0.6662384033203125
 22
0.1785180421362785
 32
0.0
 13
-0.6662384033203125
 23
0.1785180421362785
 33
0.0
  0
ENDBLK
  5
4F
100
AcDbEntity
  8
0
390
0
100
AcDbBlockEnd
  0
BLOCK
  5
51
100
AcDbEntity
  8
None
390
0
100
AcDbBlockBegin
  2
IE i logo
 70
               0
 10
0.0
 20
0.0
 30
0.0
  3
IE i logo
  1

  0
CIRCLE
  5
52
102
{ACAD_REACTORS
330
53
102
}
100
AcDbEntity
  8
None
370
               5
390
0
  6
Continuous
 62
               7
100
AcDbCircle
 10
0.0
 20
0.0
 30
0.0
 40
2.6708000015163993
  0
HATCH
  5
53
100
AcDbEntity
  8
None
370
               0
390
0
  6
Continuous
 62
               7
100
AcDbHatch
 10
0.0
 20
0.0
 30
0.0
210
0.0
220
0.0
230
1.0
  2
SOLID
 70
               1
 71
               1
 91
        1
 92
        1
 93
        1
 72
               2
 10
0.0
 20
0.0
 40
2.6708000015163993
 50
0.0
 51
360.0
 73
               0
 97
        1
330
52
 75
               0
 76
               1
 98
        1
 10
0.0
 20
0.0
  0
WIPEOUT
  5
54
100
AcDbEntity
  8
None
370
               5
390
0
  6
Continuous
 62
               7
 92
        0
100
AcDbWipeout
 90
        0
 10
-1.01559
 20
0.7356799999999999
 30
0.0
 11
0.6889700000000001
 21
0.0
 31
0.0
 12
0.0
 22
0.6889700000000001
 32
0.0
 13
1.0
 23
1.0
340
0
 70
               7
280
               1
281
              50
282
              50
283
               0
360
0
 71
               2
 91
       97
 14
-0.3841458989506075
 24
0.0667590751411526
 14
-0.3634902916672715
 24
0.0345951202519703
 14
-0.3415614975978636
 24
0.0026924249241619
 14
-0.3183595167423836
 24
-0.0289490108422718
 14
-0.2938843491008316
 24
-0.0603291870473315
 14
-0.2681359946732077
 24
-0.0914481036910172
 14
-0.2411144534595119
 24
-0.1223057607733282
 14
-0.2128197254597441
 24
-0.1529021582942652
 14
-0.1832518106739045
 24
-0.1832372962538282
 14
-0.1529166727143417
 24
-0.2128053244335748
 14
-0.1223202751934046
 24
-0.2411003926150633
 14
-0.0914626181110934
 24
-0.2681225007982933
 14
-0.0603437014674079
 24
-0.293871648983265
 14
-0.0289635252623482
 24
-0.3183478371699785
 14
0.0026779105040858
 24
-0.3415510653584339
 14
0.0345806058318939
 24
-0.3634813335486309
 14
0.0667445607210765
 24
-0.3841386417405692
 14
0.0986291130237893
 24
-0.4031876841517047
 14
0.1296936005921883
 24
-0.4202931549994916
 14
0.1599380234262741
 24
-0.4354550542839309
 14
0.1893623815260462
 24
-0.4486733820050221
 14
0.2179666748915049
 24
-0.4599481381627649
 14
0.2457509035226498
 24
-0.4692793227571591
 14
0.2727150674194813
 24
-0.4766669357882054
 14
0.2988591665819992
 24
-0.4821109772559039
 14
0.3237520773763735
 24
-0.4855364937878283
 14
0.3469626761687736
 24
-0.4868685320115535
 14
0.3684909629591999
 24
-0.4861070919270796
 14
0.3883369377476522
 24
-0.4832521735344065
 14
0.4065006005341306
 24
-0.478303776833534
 14
0.4229819513186351
 24
-0.4712619018244624
 14
0.4377809901011655
 24
-0.4621265485071919
 14
0.450897716881722
 24
-0.450897716881722
 14
0.4621265485071919
 24
-0.4377809901011653
 14
0.4712619018244625
 24
-0.4229819513186348
 14
0.478303776833534
 24
-0.4065006005341303
 14
0.4832521735344064
 24
-0.3883369377476522
 14
0.4861070919270795
 24
-0.3684909629591999
 14
0.4868685320115535
 24
-0.346962676168774
 14
0.485536493787828
 24
-0.3237520773763738
 14
0.4821109772559037
 24
-0.2988591665819994
 14
0.4766669357882054
 24
-0.2727150674194814
 14
0.4692793227571591
 24
-0.2457509035226501
 14
0.4599481381627646
 24
-0.2179666748915049
 14
0.4486733820050219
 24
-0.1893623815260463
 14
0.4354550542839309
 24
-0.1599380234262744
 14
0.4202931549994919
 24
-0.1296936005921886
 14
0.4031876841517047
 24
-0.0986291130237894
 14
0.3841386417405692
 24
-0.0667445607210765
 14
0.3634814469425374
 24
-0.0345806058318942
 14
0.341551518934061
 24
-0.0026779105040858
 14
0.3183488577151399
 24
0.0289635252623479
 14
0.2938734632857745
 24
0.0603437014674076
 14
0.2681253356459643
 24
0.0914626181110932
 14
0.2411044747957094
 24
0.1223202751934044
 14
0.2128108807350102
 24
0.1529166727143415
 14
0.1832445534638663
 24
0.1832518106739043
 14
0.1529110030189994
 24
0.212819838853651
 14
0.1223157394371308
 24
0.2411149070351392
 14
0.0914587627182606
 24
0.2681370152183693
 14
0.0603400728623887
 24
0.2938861634033411
 14
0.0289596698695154
 24
0.3183623515900547
 14
-0.0026824462603596
 24
0.3415655797785099
 14
-0.0345862755272363
 24
0.3634958479687069
 14
-0.0667518179311145
 24
0.3841531561606457
 14
-0.098637957748523
 24
0.4032020851778743
 14
-0.1297035792559907
 24
0.420307215843941
 14
-0.1599486824535175
 24
0.4354685481588458
 14
-0.1893732673411033
 24
0.4486860821225887
 14
-0.2179773339187483
 24
0.4599598177351699
 14
-0.2457608821864522
 24
0.4692897549965891
 14
-0.2727239121442152
 24
0.4766758939068465
 14
-0.2988664237920372
 24
0.4821182344659419
 14
-0.3237576336778087
 24
0.4855420500892637
 14
-0.3469667583494201
 24
0.4868726141922
 14
-0.368493797806871
 24
0.4861099267747507
 14
-0.3883387520501617
 24
0.483253987836916
 14
-0.4065016210792922
 24
0.4783047973786958
 14
-0.4229824048942623
 24
0.4712623554000899
 14
-0.4377811034950722
 24
0.4621266619010988
 14
-0.450897716881722
 24
0.450897716881722
 14
-0.4621265485071919
 24
0.4377811034950722
 14
-0.4712619018244625
 24
0.4229824048942623
 14
-0.478303776833534
 24
0.4065016210792922
 14
-0.4832521735344062
 24
0.3883387520501617
 14
-0.4861070919270796
 24
0.368493797806871
 14
-0.4868685320115535
 24
0.3469667583494201
 14
-0.4855364937878283
 24
0.3237576336778087
 14
-0.4821109772559035
 24
0.2988664237920372
 14
-0.4766670491821122
 24
0.272724025538122
 14
-0.4692797763327865
 24
0.2457613357620797
 14
-0.4599491587079262
 24
0.21797835446391
 14
-0.4486751963075315
 24
0.1893750816436128
 14
-0.4354578891316022
 24
0.1599515173011885
 14
-0.4202972371801385
 24
0.1297076614366372
 14
-0.4031932404531402
 24
0.0986435140499583
 14
-0.3841458989506075
 24
0.0667590751411526
  0
SPLINE
  5
55
100
AcDbEntity
  8
None
370
               5
390
0
  6
Continuous
 62
               7
100
AcDbSpline
210
0.0
220
0.0
230
1.0
 70
               9
 71
               2
 72
              17
 73
              14
 74
               0
 42
0.000001
 43
0.000001
 40
0.0
 40
0.0
 40
0.0
 40
1.0
 40
2.0
 40
3.0
 40
4.0
 40
5.0
 40
6.0
 40
7.0
 40
8.0
 40
9.0
 40
10.0
 40
11.0
 40
12.0
 40
12.0
 40
12.0
 10
-0.93577
 20
1.03417
 30
0.0
 10
-0.8805999999999999
 20
1.12317
 30
0.0
 10
-0.71412
 20
1.28965
 30
0.0
 10
-0.5361199999999999
 20
1.3999999999999999
 30
0.0
 10
-0.39428
 20
1.42465
 30
0.0
 10
-0.32662
 20
1.3569899999999999
 30
0.0
 10
-0.35127
 20
1.21515
 30
0.0
 10
-0.46162
 20
1.03715
 30
0.0
 10
-0.6280899999999999
 20
0.8706699999999999
 30
0.0
 10
-0.8060999999999999
 20
0.7603199999999999
 30
0.0
 10
-0.9479299999999999
 20
0.7356799999999999
 30
0.0
 10
-1.01559
 20
0.8033399999999999
 30
0.0
 10
-0.9909399999999999
 20
0.94517
 30
0.0
 10
-0.93577
 20
1.03417
 30
0.0
  0
WIPEOUT
  5
56
100
AcDbEntity
  8
None
370
               5
390
0
  6
Continuous
 62
               7
 92
        0
100
AcDbWipeout
 90
        0
 10
-1.7197899999999999
 20
-1.8961799999999998
 30
0.0
 11
1.8520799999999999
 21
0.0
 31
0.0
 12
0.0
 22
1.8520799999999999
 32
0.0
 13
1.0
 23
1.0
340
0
 70
               7
280
               1
281
              50
282
              50
283
               0
360
0
 71
               2
 91
       36
 14
-0.4523832663815818
 24
0.3095222668567234
 14
-0.25
 24
0.1190499330482485
 14
-0.2142887996198868
 24
0.1190499330482485
 14
-0.0714278000950283
 24
0.3690499330482485
 14
0.0
 24
0.4523832663815818
 14
0.0714278000950284
 24
0.5
 14
0.214283400285085
 24
0.5
 14
0.3690499330482485
 24
0.4047611334283617
 14
0.4761889335233899
 24
0.3095222668567234
 14
0.5
 24
0.238094466761695
 14
0.5
 24
0.1071443998099435
 14
0.4880944667616949
 24
0.0714278000950283
 14
0.4642887996198868
 24
0.0714278000950283
 14
0.4285721999049716
 24
0.0829607792319987
 14
0.3214278000950284
 24
0.1666666666666667
 14
0.2747235540581401
 24
0.1785721999049718
 14
0.214283400285085
 24
0.1666666666666667
 14
0.1904777331432768
 24
0.1070958057967258
 14
0.1428556001900566
 24
0.0238110664766101
 14
0.1190445337134465
 24
-0.0833333333333333
 14
0.1071390004751416
 24
-0.2142834002850848
 14
0.0714278000950284
 24
-0.2857165997149149
 14
0.0238110664766101
 24
-0.3452388665716383
 14
-0.02381106647661
 24
-0.3866193684938015
 14
-0.0714278000950283
 24
-0.3866193684938015
 14
-0.1309554662865535
 24
-0.3571443998099434
 14
-0.1785721999049717
 24
-0.29762213295322
 14
-0.261905533238305
 24
-0.1785721999049716
 14
-0.3424204138050191
 24
-0.1071443998099433
 14
-0.4727063625761306
 24
0.0238110664766101
 14
-0.5
 24
0.0714278000950283
 14
-0.5
 24
0.1547611334283617
 14
-0.5
 24
0.238094466761695
 14
-0.5
 24
0.2857165997149152
 14
-0.4880944667616949
 24
0.3214278000950283
 14
-0.4523832663815818
 24
0.3095222668567234
  0
POLYLINE
  5
57
100
AcDbEntity
  8
None
370
               5
390
0
  6
Continuous
 62
               7
100
AcDb2dPolyline
 66
               1
 10
0.0
 20
0.0
 30
0.0
 70
               1
 75
               5
  0
VERTEX
  5
58
100
AcDbEntity
  8
None
370
               5
390
0
  6
Continuous
 62
               7
100
AcDbVertex
100
AcDb2dVertex
 10
-1.6315999999999999
 20
-1.5433999999999999
 30
0.0
  0
VERTEX
  5
59
100
AcDbEntity
  8
None
370
               5
390
0
  6
Continuous
 62
               7
100
AcDbVertex
100
AcDb2dVertex
 10
-1.2567699999999999
 20
-1.1906299999999999
 30
0.0
  0
VERTEX
  5
5A
100
AcDbEntity
  8
None
370
               5
390
0
  6
Continuous
 62
               7
100
AcDbVertex
100
AcDb2dVertex
 10
-1.1906299999999999
 20
-1.1906299999999999
 30
0.0
  0
VERTEX
  5
5B
100
AcDbEntity
  8
None
370
               5
390
0
  6
Continuous
 62
               7
100
AcDbVertex
100
AcDb2dVertex
 10
-0.92604
 20
-1.6536499999999998
 30
0.0
  0
VERTEX
  5
5C
100
AcDbEntity
  8
None
370
               5
390
0
  6
Continuous
 62
               7
100
AcDbVertex
100
AcDb2dVertex
 10
-0.79375
 20
-1.8079899999999998
 30
0.0
  0
VERTEX
  5
5D
100
AcDbEntity
  8
None
370
               5
390
0
  6
Continuous
 62
               7
100
AcDbVertex
100
AcDb2dVertex
 10
-0.6614599999999999
 20
-1.8961799999999998
 30
0.0
  0
VERTEX
  5
5E
100
AcDbEntity
  8
None
370
               5
390
0
  6
Continuous
 62
               7
100
AcDbVertex
100
AcDb2dVertex
 10
-0.39688
 20
-1.8961799999999998
 30
0.0
  0
VERTEX
  5
5F
100
AcDbEntity
  8
None
370
               5
390
0
  6
Continuous
 62
               7
100
AcDbVertex
100
AcDb2dVertex
 10
-0.11024
 20
-1.7197899999999999
 30
0.0
  0
VERTEX
  5
60
100
AcDbEntity
  8
None
370
               5
390
0
  6
Continuous
 62
               7
100
AcDbVertex
100
AcDb2dVertex
 10
0.08819
 20
-1.5433999999999999
 30
0.0
  0
VERTEX
  5
61
100
AcDbEntity
  8
None
370
               5
390
0
  6
Continuous
 62
               7
100
AcDbVertex
100
AcDb2dVertex
 10
0.13229
 20
-1.4111099999999999
 30
0.0
  0
VERTEX
  5
62
100
AcDbEntity
  8
None
370
               5
390
0
  6
Continuous
 62
               7
100
AcDbVertex
100
AcDb2dVertex
 10
0.13229
 20
-1.16858
 30
0.0
  0
VERTEX
  5
63
100
AcDbEntity
  8
None
370
               5
390
0
  6
Continuous
 62
               7
100
AcDbVertex
100
AcDb2dVertex
 10
0.11024
 20
-1.1024299999999998
 30
0.0
  0
VERTEX
  5
64
100
AcDbEntity
  8
None
370
               5
390
0
  6
Continuous
 62
               7
100
AcDbVertex
100
AcDb2dVertex
 10
0.06615
 20
-1.1024299999999998
 30
0.0
  0
VERTEX
  5
65
100
AcDbEntity
  8
None
370
               5
390
0
  6
Continuous
 62
               7
100
AcDbVertex
100
AcDb2dVertex
 10
0.0
 20
-1.1237899999999998
 30
0.0
  0
VERTEX
  5
66
100
AcDbEntity
  8
None
370
               5
390
0
  6
Continuous
 62
               7
100
AcDbVertex
100
AcDb2dVertex
 10
-0.19844
 20
-1.2788199999999998
 30
0.0
  0
VERTEX
  5
67
100
AcDbEntity
  8
None
370
               5
390
0
  6
Continuous
 62
               7
100
AcDbVertex
100
AcDb2dVertex
 10
-0.28494
 20
-1.30087
 30
0.0
  0
VERTEX
  5
68
100
AcDbEntity
  8
None
370
               5
390
0
  6
Continuous
 62
               7
100
AcDbVertex
100
AcDb2dVertex
 10
-0.39688
 20
-1.2788199999999998
 30
0.0
  0
VERTEX
  5
69
100
AcDbEntity
  8
None
370
               5
390
0
  6
Continuous
 62
               7
100
AcDbVertex
100
AcDb2dVertex
 10
-0.44097
 20
-1.1684899999999998
 30
0.0
  0
VERTEX
  5
6A
100
AcDbEntity
  8
None
370
               5
390
0
  6
Continuous
 62
               7
100
AcDbVertex
100
AcDb2dVertex
 10
-0.5291699999999999
 20
-1.0142399999999998
 30
0.0
  0
VERTEX
  5
6B
100
AcDbEntity
  8
None
370
               5
390
0
  6
Continuous
 62
               7
100
AcDbVertex
100
AcDb2dVertex
 10
-0.57327
 20
-0.8158
 30
0.0
  0
VERTEX
  5
6C
100
AcDbEntity
  8
None
370
               5
390
0
  6
Continuous
 62
               7
100
AcDbVertex
100
AcDb2dVertex
 10
-0.59532
 20
-0.57327
 30
0.0
  0
VERTEX
  5
6D
100
AcDbEntity
  8
None
370
               5
390
0
  6
Continuous
 62
               7
100
AcDbVertex
100
AcDb2dVertex
 10
-0.6614599999999999
 20
-0.44097
 30
0.0
  0
VERTEX
  5
6E
100
AcDbEntity
  8
None
370
               5
390
0
  6
Continuous
 62
               7
100
AcDbVertex
100
AcDb2dVertex
 10
-0.7496499999999999
 20
-0.33073
 30
0.0
  0
VERTEX
  5
6F
100
AcDbEntity
  8
None
370
               5
390
0
  6
Continuous
 62
               7
100
AcDbVertex
100
AcDb2dVertex
 10
-0.8378499999999999
 20
-0.25409
 30
0.0
  0
VERTEX
  5
70
100
AcDbEntity
  8
None
370
               5
390
0
  6
Continuous
 62
               7
100
AcDbVertex
100
AcDb2dVertex
 10
-0.92604
 20
-0.25409
 30
0.0
  0
VERTEX
  5
71
100
AcDbEntity
  8
None
370
               5
390
0
  6
Continuous
 62
               7
100
AcDbVertex
100
AcDb2dVertex
 10
-1.0362899999999999
 20
-0.30868
 30
0.0
  0
VERTEX
  5
72
100
AcDbEntity
  8
None
370
               5
390
0
  6
Continuous
 62
               7
100
AcDbVertex
100
AcDb2dVertex
 10
-1.1244799999999999
 20
-0.41892
 30
0.0
  0
VERTEX
  5
73
100
AcDbEntity
  8
None
370
               5
390
0
  6
Continuous
 62
               7
100
AcDbVertex
100
AcDb2dVertex
 10
-1.2788199999999998
 20
-0.6394099999999999
 30
0.0
  0
VERTEX
  5
74
100
AcDbEntity
  8
None
370
               5
390
0
  6
Continuous
 62
               7
100
AcDbVertex
100
AcDb2dVertex
 10
-1.4279399999999998
 20
-0.7716999999999999
 30
0.0
  0
VERTEX
  5
75
100
AcDbEntity
  8
None
370
               5
390
0
  6
Continuous
 62
               7
100
AcDbVertex
100
AcDb2dVertex
 10
-1.6692399999999998
 20
-1.0142399999999998
 30
0.0
  0
VERTEX
  5
76
100
AcDbEntity
  8
None
370
               5
390
0
  6
Continuous
 62
               7
100
AcDbVertex
100
AcDb2dVertex
 10
-1.7197899999999999
 20
-1.1024299999999998
 30
0.0
  0
VERTEX
  5
77
100
AcDbEntity
  8
None
370
               5
390
0
  6
Continuous
 62
               7
100
AcDbVertex
100
AcDb2dVertex
 10
-1.7197899999999999
 20
-1.2567699999999999
 30
0.0
  0
VERTEX
  5
78
100
AcDbEntity
  8
None
370
               5
390
0
  6
Continuous
 62
               7
100
AcDbVertex
100
AcDb2dVertex
 10
-1.7197899999999999
 20
-1.4111099999999999
 30
0.0
  0
VERTEX
  5
79
100
AcDbEntity
  8
None
370
               5
390
0
  6
Continuous
 62
               7
100
AcDbVertex
100
AcDb2dVertex
 10
-1.7197899999999999
 20
-1.4993099999999999
 30
0.0
  0
VERTEX
  5
7A
100
AcDbEntity
  8
None
370
               5
390
0
  6
Continuous
 62
               7
100
AcDbVertex
100
AcDb2dVertex
 10
-1.6977399999999998
 20
-1.5654499999999998
 30
0.0
  0
SEQEND
  5
7B
100
AcDbEntity
  8
None
370
               5
390
0
  6
Continuous
 62
               7
  0
POLYLINE
  5
7C
100
AcDbEntity
  8
None
370
               5
390
0
  6
Continuous
 62
               7
100
AcDb2dPolyline
 66
               1
 10
0.0
 20
0.0
 30
0.0
 75
               5
  0
VERTEX
  5
7D
100
AcDbEntity
  8
None
370
               5
390
0
  6
Continuous
 62
               7
100
AcDbVertex
100
AcDb2dVertex
 10
-1.7197899999999999
 20
-1.1410199999999999
 30
0.0
  0
VERTEX
  5
7E
100
AcDbEntity
  8
None
370
               5
390
0
  6
Continuous
 62
               7
100
AcDbVertex
100
AcDb2dVertex
 10
-1.7197899999999999
 20
-1.4552099999999999
 30
0.0
  0
VERTEX
  5
7F
100
AcDbEntity
  8
None
370
               5
390
0
  6
Continuous
 62
               7
100
AcDbVertex
100
AcDb2dVertex
 10
-1.7197899999999999
 20
-1.4772599999999998
 30
0.0
  0
VERTEX
  5
80
100
AcDbEntity
  8
None
370
               5
390
0
  6
Continuous
 62
               7
100
AcDbVertex
100
AcDb2dVertex
 10
-1.7142799999999998
 20
-1.5158399999999999
 30
0.0
  0
SEQEND
  5
81
100
AcDbEntity
  8
None
370
               5
390
0
  6
Continuous
 62
               7
  0
ENDBLK
  5
82
100
AcDbEntity
  8
None
390
0
100
AcDbBlockEnd
  0
BLOCK
  5
83
100
AcDbEntity
  8
Dimension
390
0
100
AcDbBlockBegin
  2
*D3
 70
               1
 10
0.0
 20
0.0
 30
0.0
  3
*D3
  1

  0
LINE
  5
84
100
AcDbEntity
  8
Dimension
370
              -2
390
0
  6
Continuous
 62
               0
100
AcDbLine
 10
21.266201599999995
 20
-95.8106750988172
 30
0.0
 11
21.266201599999995
 21
-87.257505097634407
 31
0.0
  0
LINE
  5
85
100
AcDbEntity
  8
Dimension
370
              -2
390
0
  6
Continuous
 62
               0
100
AcDbLine
 10
20.016201599999995
 20
-94.5606750988172
 30
0.0
 11
20.016201599999995
 21
-87.257505097634407
 31
0.0
  0
LINE
  5
86
100
AcDbEntity
  8
Dimension
370
              -2
390
0
  6
Continuous
 62
               0
100
AcDbLine
 10
20.016201599999995
 20
-88.210005099999975
 30
0.0
 11
21.266201599999995
 21
-88.210005099999975
 31
0.0
  0
LINE
  5
87
100
AcDbEntity
  8
Dimension
370
              -2
390
0
  6
Continuous
 62
               0
100
AcDbLine
 10
21.266201599999995
 20
-88.210005099999975
 30
0.0
 11
23.016198098366811
 21
-88.210005099999975
 31
0.0
  0
SOLID
  5
88
100
AcDbEntity
  8
Dimension
370
              -2
390
0
 62
               0
100
AcDbTrace
 10
21.266201599999995
 20
-88.210005099999975
 30
0.0
 11
22.059951599999994
 21
-87.997320428507777
 31
0.0
 12
22.059951599999994
 22
-88.422689771492173
 32
0.0
 13
22.059951599999994
 23
-88.422689771492173
 33
0.0
  0
LINE
  5
89
100
AcDbEntity
  8
Dimension
370
              -2
390
0
  6
Continuous
 62
               0
100
AcDbLine
 10
20.016201599999995
 20
-88.210005099999975
 30
0.0
 11
16.020001599999993
 21
-88.210005099999975
 31
0.0
  0
SOLID
  5
8A
100
AcDbEntity
  8
Dimension
370
              -2
390
0
 62
               0
100
AcDbTrace
 10
20.016201599999995
 20
-88.210005099999975
 30
0.0
 11
19.222451599999992
 21
-88.422689771492173
 31
0.0
 12
19.222451599999992
 22
-87.997320428507777
 32
0.0
 13
19.222451599999992
 23
-87.997320428507777
 33
0.0
  0
WIPEOUT
  5
8B
100
AcDbEntity
  8
Dimension
370
              -2
390
0
  6
Continuous
 62
               0
 92
        0
100
AcDbWipeout
 90
        0
 10
8.4476261256264955
 20
43.818905349999994
 30
0.0
 11
2.8892501884036594
 21
0.0
 31
0.0
 12
0.0
 22
2.8892501884036594
 32
0.0
 13
1.0
 23
1.0
340
0
 70
               7
280
               1
281
              50
282
              50
283
               0
360
0
 71
               2
 91
        5
 14
-0.5
 24
46.354567123243655
 14
0.5
 24
46.354567123243655
 14
0.5
 24
46.038633077911172
 14
-0.5
 24
46.038633077911172
 14
-0.5
 24
46.354567123243655
  0
MTEXT
  5
8C
100
AcDbEntity
  8
Dimension
390
0
 62
               0
100
AcDbMText
 10
8.4476261256264955
 20
-87.89953309479165
 30
0.0
 40
0.5684407552083333
 41
0.0
 71
               1
 72
               1
  1
1.25mm
  7
Helvetica
 73
               1
 44
0.9673603504928806
  0
WIPEOUT
  5
8D
100
AcDbEntity
  8
Dimension
370
              -2
390
0
  6
Continuous
 62
               0
 92
        0
100
AcDbWipeout
 90
        0
 10
11.336876314030155
 20
43.818905349999994
 30
0.0
 11
3.3258127556906807
 21
0.0
 31
0.0
 12
0.0
 22
3.3258127556906807
 32
0.0
 13
1.0
 23
1.0
340
0
 70
               7
280
               1
281
              50
282
              50
283
               0
360
0
 71
               2
 91
        5
 14
-0.5
 24
40.335470735178653
 14
0.5
 24
40.335470735178653
 14
0.5
 24
40.061007749119639
 14
-0.5
 24
40.061007749119639
 14
-0.5
 24
40.335470735178653
  0
MTEXT
  5
8E
100
AcDbEntity
  8
Dimension
390
0
 62
               0
100
AcDbMText
 10
11.336876314030155
 20
-87.89953309479165
 30
0.0
 40
0.5684407552083333
 41
0.0
 71
               1
 72
               1
  1
±0.13mm
  7
Helvetica
 73
               1
 44
0.9673603504928806
  0
WIPEOUT
  5
8F
100
AcDbEntity
  8
Dimension
370
              -2
390
0
  6
Continuous
 62
               0
 92
        0
100
AcDbWipeout
 90
        0
 10
14.662689069720836
 20
43.818905349999994
 30
0.0
 11
1.3573125302791595
 21
0.0
 31
0.0
 12
0.0
 22
1.3573125302791595
 32
0.0
 13
1.0
 23
1.0
340
0
 70
               7
280
               1
281
              50
282
              50
283
               0
360
0
 71
               2
 91
        5
 14
-0.5
 24
98.108556426390322
 14
0.4999999999999987
 24
98.108556426390322
 14
0.4999999999999987
 24
97.43604182150986
 14
-0.5
 24
97.43604182150986
 14
-0.5
 24
98.108556426390322
  0
MTEXT
  5
90
100
AcDbEntity
  8
Dimension
390
0
 62
               0
100
AcDbMText
 10
14.662689069720836
 20
-87.89953309479165
 30
0.0
 40
0.5684407552083333
 41
0.0
 71
               1
 72
               1
  1
(x4)
  7
Helvetica
 73
               1
 44
0.9673603504928806
  0
POINT
  5
91
100
AcDbEntity
  8
Defpoints
370
               0
390
0
 62
               0
100
AcDbPoint
 10
20.016201599999995
 20
-95.036925099999976
 30
0.0
  0
POINT
  5
92
100
AcDbEntity
  8
Defpoints
370
               0
390
0
 62
               0
100
AcDbPoint
 10
21.266201599999995
 20
-96.286925099999976
 30
0.0
  0
POINT
  5
93
100
AcDbEntity
  8
Defpoints
370
               0
390
0
 62
               0
100
AcDbPoint
 10
21.266201599999995
 20
-88.210005099999975
 30
0.0
  0
ENDBLK
  5
94
100
AcDbEntity
  8
Dimension
390
0
100
AcDbBlockEnd
  0
BLOCK
  5
95
100
AcDbEntity
  8
Dimension
390
0
100
AcDbBlockBegin
  2
*D4
 70
               1
 10
0.0
 20
0.0
 30
0.0
  3
*D4
  1

  0
LINE
  5
96
100
AcDbEntity
  8
Dimension
370
              -2
390
0
  6
Continuous
 62
               0
100
AcDbLine
 10
19.539951598817215
 20
-95.036925099999976
 30
0.0
 11
8.1650015976344363
 21
-95.036925099999976
 31
0.0
  0
LINE
  5
97
100
AcDbEntity
  8
Dimension
370
              -2
390
0
  6
Continuous
 62
               0
100
AcDbLine
 10
20.789951598817215
 20
-96.286925099999976
 30
0.0
 11
8.1650015976344328
 21
-96.286925099999976
 31
0.0
  0
LINE
  5
98
100
AcDbEntity
  8
Dimension
370
              -2
390
0
  6
Continuous
 62
               0
100
AcDbLine
 10
9.1175015999999935
 20
-96.286925099999976
 30
0.0
 11
9.1175015999999935
 21
-95.036925099999976
 31
0.0
  0
LINE
  5
99
100
AcDbEntity
  8
Dimension
370
              -2
390
0
  6
Continuous
 62
               0
100
AcDbLine
 10
9.1175015999999935
 20
-95.036925099999976
 30
0.0
 11
9.1175015999999935
 21
-92.460005099999975
 31
0.0
  0
SOLID
  5
9A
100
AcDbEntity
  8
Dimension
370
              -2
390
0
 62
               0
100
AcDbTrace
 10
9.1175015999999935
 20
-95.036925099999976
 30
0.0
 11
8.9048169285077883
 21
-94.243175099999974
 31
0.0
 12
9.3301862714921988
 22
-94.243175099999974
 32
0.0
 13
9.3301862714921988
 23
-94.243175099999974
 33
0.0
  0
LINE
  5
9B
100
AcDbEntity
  8
Dimension
370
              -2
390
0
  6
Continuous
 62
               0
100
AcDbLine
 10
9.1175015999999935
 20
-96.286925099999976
 30
0.0
 11
9.1175015999999935
 21
-98.036921598366789
 31
0.0
  0
SOLID
  5
9C
100
AcDbEntity
  8
Dimension
370
              -2
390
0
 62
               0
100
AcDbTrace
 10
9.1175015999999935
 20
-96.286925099999976
 30
0.0
 11
9.3301862714921953
 21
-97.080675099999979
 31
0.0
 12
8.9048169285077883
 22
-97.080675099999979
 32
0.0
 13
8.9048169285077883
 23
-97.080675099999979
 33
0.0
  0
WIPEOUT
  5
9D
100
AcDbEntity
  8
Dimension
370
              -2
390
0
  6
Continuous
 62
               0
 92
        0
100
AcDbWipeout
 90
        0
 10
5.3313138628132428
 20
39.568905349999994
 30
0.0
 11
2.8892501884036577
 21
0.0
 31
0.0
 12
0.0
 22
2.8892501884036577
 32
0.0
 13
1.0
 23
1.0
340
0
 70
               7
280
               1
281
              50
282
              50
283
               0
360
0
 71
               2
 91
        5
 14
-0.5
 24
46.354567123243683
 14
0.5
 24
46.354567123243683
 14
0.5
 24
46.0386330779112
 14
-0.5
 24
46.0386330779112
 14
-0.5
 24
46.354567123243683
  0
MTEXT
  5
9E
100
AcDbEntity
  8
Dimension
390
0
 62
               0
100
AcDbMText
 10
5.3313138628132428
 20
-92.14953309479165
 30
0.0
 40
0.5684407552083333
 41
0.0
 71
               1
 72
               1
  1
1.25mm
  7
Helvetica
 73
               1
 44
0.9673603504928806
  0
WIPEOUT
  5
9F
100
AcDbEntity
  8
Dimension
370
              -2
390
0
  6
Continuous
 62
               0
 92
        0
100
AcDbWipeout
 90
        0
 10
8.2205640512169005
 20
39.568905349999994
 30
0.0
 11
3.3258127556906807
 21
0.0
 31
0.0
 12
0.0
 22
3.3258127556906807
 32
0.0
 13
1.0
 23
1.0
340
0
 70
               7
280
               1
281
              50
282
              50
283
               0
360
0
 71
               2
 91
        5
 14
-0.5
 24
40.335470735178653
 14
0.5
 24
40.335470735178653
 14
0.5
 24
40.061007749119639
 14
-0.5
 24
40.061007749119639
 14
-0.5
 24
40.335470735178653
  0
MTEXT
  5
A0
100
AcDbEntity
  8
Dimension
390
0
 62
               0
100
AcDbMText
 10
8.2205640512169005
 20
-92.14953309479165
 30
0.0
 40
0.5684407552083333
 41
0.0
 71
               1
 72
               1
  1
±0.13mm
  7
Helvetica
 73
               1
 44
0.9673603504928806
  0
WIPEOUT
  5
A1
100
AcDbEntity
  8
Dimension
370
              -2
390
0
  6
Continuous
 62
               0
 92
        0
100
AcDbWipeout
 90
        0
 10
11.546376806907583
 20
39.568905349999994
 30
0.0
 11
1.3573125302791595
 21
0.0
 31
0.0
 12
0.0
 22
1.3573125302791595
 32
0.0
 13
1.0
 23
1.0
340
0
 70
               7
280
               1
281
              50
282
              50
283
               0
360
0
 71
               2
 91
        5
 14
-0.5
 24
98.108556426390322
 14
0.5
 24
98.108556426390322
 14
0.5
 24
97.43604182150986
 14
-0.5
 24
97.43604182150986
 14
-0.5
 24
98.108556426390322
  0
MTEXT
  5
A2
100
AcDbEntity
  8
Dimension
390
0
 62
               0
100
AcDbMText
 10
11.546376806907583
 20
-92.14953309479165
 30
0.0
 40
0.5684407552083333
 41
0.0
 71
               1
 72
               1
  1
(x4)
  7
Helvetica
 73
               1
 44
0.9673603504928806
  0
POINT
  5
A3
100
AcDbEntity
  8
Defpoints
370
               0
390
0
 62
               0
100
AcDbPoint
 10
21.266201599999995
 20
-96.286925099999976
 30
0.0
  0
POINT
  5
A4
100
AcDbEntity
  8
Defpoints
370
               0
390
0
 62
               0
100
AcDbPoint
 10
20.016201599999995
 20
-95.036925099999976
 30
0.0
  0
POINT
  5
A5
100
AcDbEntity
  8
Defpoints
370
               0
390
0
 62
               0
100
AcDbPoint
 10
9.1175015999999935
 20
-95.036925099999976
 30
0.0
  0
ENDBLK
  5
A6
100
AcDbEntity
  8
Dimension
390
0
100
AcDbBlockEnd
  0
BLOCK
  5
A7
100
AcDbEntity
  8
Dimension
390
0
100
AcDbBlockBegin
  2
*D5
 70
               1
 10
0.0
 20
0.0
 30
0.0
  3
*D5
  1

  0
LINE
  5
A8
100
AcDbEntity
  8
Dimension
370
              -2
390
0
  6
Continuous
 62
               0
100
AcDbLine
 10
19.539951598817215
 20
-95.036925099999976
 30
0.0
 11
3.5175015976344355
 21
-95.036925099999976
 31
0.0
  0
LINE
  5
A9
100
AcDbEntity
  8
Dimension
370
              -2
390
0
  6
Continuous
 62
               0
100
AcDbLine
 10
19.539951598817215
 20
-110.26192509999997
 30
0.0
 11
3.5175015976344355
 21
-110.26192509999997
 31
0.0
  0
LINE
  5
AA
100
AcDbEntity
  8
Dimension
370
              -2
390
0
  6
Continuous
 62
               0
100
AcDbLine
 10
4.4700015999999962
 20
-95.036925099999976
 30
0.0
 11
4.4700015999999962
 21
-110.26192509999997
 31
0.0
  0
SOLID
  5
AB
100
AcDbEntity
  8
Dimension
370
              -2
390
0
 62
               0
100
AcDbTrace
 10
4.4700015999999962
 20
-95.036925099999976
 30
0.0
 11
4.682686271492198
 21
-95.830675099999979
 31
0.0
 12
4.257316928507791
 22
-95.830675099999979
 32
0.0
 13
4.257316928507791
 23
-95.830675099999979
 33
0.0
  0
SOLID
  5
AC
100
AcDbEntity
  8
Dimension
370
              -2
390
0
 62
               0
100
AcDbTrace
 10
4.4700015999999962
 20
-110.26192509999997
 30
0.0
 11
4.257316928507791
 21
-109.46817509999997
 31
0.0
 12
4.6826862714922015
 22
-109.46817509999997
 32
0.0
 13
4.6826862714922015
 23
-109.46817509999997
 33
0.0
  0
WIPEOUT
  5
AD
100
AcDbEntity
  8
Dimension
370
              -2
390
0
  6
Continuous
 62
               0
 92
        0
100
AcDbWipeout
 90
        0
 10
0.017064078131714
 20
29.775582533227531
 30
0.0
 11
3.7782500134574022
 21
0.0
 31
0.0
 12
0.0
 22
3.7782500134574022
 32
0.0
 13
1.0
 23
1.0
340
0
 70
               7
280
               1
281
              50
282
              50
283
               0
360
0
 71
               2
 91
        5
 14
-0.5
 24
35.56525937354931
 14
0.5
 24
35.56525937354931
 14
0.5
 24
35.323662735754368
 14
-0.5
 24
35.323662735754368
 14
-0.5
 24
35.56525937354931
  0
MTEXT
  5
AE
100
AcDbEntity
  8
Dimension
390
0
 62
               0
100
AcDbMText
 10
0.017064078131714
 20
-101.9428559115641
 30
0.0
 40
0.5684407552083333
 41
0.0
 71
               1
 72
               1
  1
15.225mm
  7
Helvetica
 73
               1
 44
0.9673603504928806
  0
WIPEOUT
  5
AF
100
AcDbEntity
  8
Dimension
370
              -2
390
0
  6
Continuous
 62
               0
 92
        0
100
AcDbWipeout
 90
        0
 10
3.7953140915891161
 20
29.775582533227531
 30
0.0
 11
3.7703124999999993
 21
0.0
 31
0.0
 12
0.0
 22
3.7703124999999993
 32
0.0
 13
1.0
 23
1.0
340
0
 70
               7
280
               1
281
              50
282
              50
283
               0
360
0
 71
               2
 91
        5
 14
-0.5
 24
35.639081097389138
 14
0.5
 24
35.639081097389138
 14
0.5
 24
35.396975834231249
 14
-0.5
 24
35.396975834231249
 14
-0.5
 24
35.639081097389138
  0
MTEXT
  5
B0
100
AcDbEntity
  8
Dimension
390
0
 62
               0
100
AcDbMText
 10
3.7953140915891161
 20
-101.9428559115641
 30
0.0
 40
0.5684407552083333
 41
0.0
 71
               1
 72
               1
  1
±0.125mm
  7
Helvetica
 73
               1
 44
0.9673603504928806
  0
WIPEOUT
  5
B1
100
AcDbEntity
  8
Dimension
370
              -2
390
0
  6
Continuous
 62
               0
 92
        0
100
AcDbWipeout
 90
        0
 10
7.565626591589119
 20
29.775582533227531
 30
0.0
 11
1.3573125302791595
 21
0.0
 31
0.0
 12
0.0
 22
1.3573125302791595
 32
0.0
 13
1.0
 23
1.0
340
0
 70
               7
280
               1
281
              50
282
              50
283
               0
360
0
 71
               2
 91
        5
 14
-0.5
 24
98.108556426390322
 14
0.5
 24
98.108556426390322
 14
0.5
 24
97.43604182150986
 14
-0.5
 24
97.43604182150986
 14
-0.5
 24
98.108556426390322
  0
MTEXT
  5
B2
100
AcDbEntity
  8
Dimension
390
0
 62
               0
100
AcDbMText
 10
7.565626591589119
 20
-101.9428559115641
 30
0.0
 40
0.5684407552083333
 41
0.0
 71
               1
 72
               1
  1
(x4)
  7
Helvetica
 73
               1
 44
0.9673603504928806
  0
POINT
  5
B3
100
AcDbEntity
  8
Defpoints
370
               0
390
0
 62
               0
100
AcDbPoint
 10
20.016201599999995
 20
-110.26192509999997
 30
0.0
  0
POINT
  5
B4
100
AcDbEntity
  8
Defpoints
370
               0
390
0
 62
               0
100
AcDbPoint
 10
20.016201599999995
 20
-95.036925099999976
 30
0.0
  0
POINT
  5
B5
100
AcDbEntity
  8
Defpoints
370
               0
390
0
 62
               0
100
AcDbPoint
 10
4.4700015999999962
 20
-95.036925099999976
 30
0.0
  0
ENDBLK
  5
B6
100
AcDbEntity
  8
Dimension
390
0
100
AcDbBlockEnd
  0
BLOCK
  5
B7
100
AcDbEntity
  8
Dimension
390
0
100
AcDbBlockBegin
  2
*D6
 70
               1
 10
0.0
 20
0.0
 30
0.0
  3
*D6
  1

  0
LINE
  5
B8
100
AcDbEntity
  8
Dimension
370
              -2
390
0
  6
Continuous
 62
               0
100
AcDbLine
 10
20.789951598817215
 20
-109.01192509999997
 30
0.0
 11
15.611461597634435
 21
-109.01192509999997
 31
0.0
  0
LINE
  5
B9
100
AcDbEntity
  8
Dimension
370
              -2
390
0
  6
Continuous
 62
               0
100
AcDbLine
 10
20.789951598817215
 20
-103.93192509999997
 30
0.0
 11
15.611461597634435
 21
-103.93192509999997
 31
0.0
  0
LINE
  5
BA
100
AcDbEntity
  8
Dimension
370
              -2
390
0
  6
Continuous
 62
               0
100
AcDbLine
 10
16.563961599999992
 20
-109.01192509999997
 30
0.0
 11
16.563961599999992
 21
-103.93192509999997
 31
0.0
  0
SOLID
  5
BB
100
AcDbEntity
  8
Dimension
370
              -2
390
0
 62
               0
100
AcDbTrace
 10
16.563961599999992
 20
-109.01192509999997
 30
0.0
 11
16.35127692850779
 21
-108.21817509999997
 31
0.0
 12
16.776646271492197
 22
-108.21817509999997
 32
0.0
 13
16.776646271492197
 23
-108.21817509999997
 33
0.0
  0
SOLID
  5
BC
100
AcDbEntity
  8
Dimension
370
              -2
390
0
 62
               0
100
AcDbTrace
 10
16.563961599999992
 20
-103.93192509999997
 30
0.0
 11
16.776646271492197
 21
-104.72567509999998
 31
0.0
 12
16.35127692850779
 22
-104.72567509999998
 32
0.0
 13
16.35127692850779
 23
-104.72567509999998
 33
0.0
  0
WIPEOUT
  5
BD
100
AcDbEntity
  8
Dimension
370
              -2
390
0
  6
Continuous
 62
               0
 92
        0
100
AcDbWipeout
 90
        0
 10
15.119336505798163
 20
26.125322752343745
 30
0.0
 11
2.8892501884036594
 21
0.0
 31
0.0
 12
0.0
 22
2.8892501884036594
 32
0.0
 13
1.0
 23
1.0
340
0
 70
               7
280
               1
281
              50
282
              50
283
               0
360
0
 71
               2
 91
        5
 14
-0.5
 24
46.354567123243655
 14
0.5000000000000007
 24
46.354567123243655
 14
0.5000000000000007
 24
46.038633077911172
 14
-0.5
 24
46.038633077911172
 14
-0.5
 24
46.354567123243655
  0
MTEXT
  5
BE
100
AcDbEntity
  8
Dimension
390
0
 62
               0
100
AcDbMText
 10
15.119336505798163
 20
-105.5931156924479
 30
0.0
 40
0.5684407552083333
 41
0.0
 71
               1
 72
               1
  1
5.08mm
  7
Helvetica
 73
               1
 44
0.9673603504928806
  0
POINT
  5
BF
100
AcDbEntity
  8
Defpoints
370
               0
390
0
 62
               0
100
AcDbPoint
 10
21.266201599999995
 20
-103.93192509999997
 30
0.0
  0
POINT
  5
C0
100
AcDbEntity
  8
Defpoints
370
               0
390
0
 62
               0
100
AcDbPoint
 10
21.266201599999995
 20
-109.01192509999997
 30
0.0
  0
POINT
  5
C1
100
AcDbEntity
  8
Defpoints
370
               0
390
0
 62
               0
100
AcDbPoint
 10
16.563961599999992
 20
-109.01192509999997
 30
0.0
  0
ENDBLK
  5
C2
100
AcDbEntity
  8
Dimension
390
0
100
AcDbBlockEnd
  0
BLOCK
  5
C3
100
AcDbEntity
  8
Dimension
390
0
100
AcDbBlockBegin
  2
*D7
 70
               1
 10
0.0
 20
0.0
 30
0.0
  3
*D7
  1

  0
LINE
  5
C4
100
AcDbEntity
  8
Dimension
370
              -2
390
0
  6
Continuous
 62
               0
100
AcDbLine
 10
21.266201599999995
 20
-109.48817510118275
 30
0.0
 11
21.266201599999995
 21
-114.71250510236553
 31
0.0
  0
LINE
  5
C5
100
AcDbEntity
  8
Dimension
370
              -2
390
0
  6
Continuous
 62
               0
100
AcDbLine
 10
33.991201599999997
 20
-109.48817510118275
 30
0.0
 11
33.991201599999997
 21
-114.71250510236553
 31
0.0
  0
LINE
  5
C6
100
AcDbEntity
  8
Dimension
370
              -2
390
0
  6
Continuous
 62
               0
100
AcDbLine
 10
21.266201599999995
 20
-113.76000509999997
 30
0.0
 11
33.991201599999997
 21
-113.76000509999997
 31
0.0
  0
SOLID
  5
C7
100
AcDbEntity
  8
Dimension
370
              -2
390
0
 62
               0
100
AcDbTrace
 10
21.266201599999995
 20
-113.76000509999997
 30
0.0
 11
22.059951599999994
 21
-113.54732042850777
 31
0.0
 12
22.059951599999994
 22
-113.97268977149217
 32
0.0
 13
22.059951599999994
 23
-113.97268977149217
 33
0.0
  0
SOLID
  5
C8
100
AcDbEntity
  8
Dimension
370
              -2
390
0
 62
               0
100
AcDbTrace
 10
33.991201599999997
 20
-113.76000509999997
 30
0.0
 11
33.197451599999994
 21
-113.97268977149217
 31
0.0
 12
33.197451599999994
 22
-113.54732042850777
 32
0.0
 13
33.197451599999994
 23
-113.54732042850777
 33
0.0
  0
WIPEOUT
  5
C9
100
AcDbEntity
  8
Dimension
370
              -2
390
0
  6
Continuous
 62
               0
 92
        0
100
AcDbWipeout
 90
        0
 10
25.060920201968546
 20
18.268905349999994
 30
0.0
 11
5.1355627960628922
 21
0.0
 31
0.0
 12
0.0
 22
5.1355627960628922
 32
0.0
 13
1.0
 23
1.0
340
0
 70
               7
280
               1
281
              50
282
              50
283
               0
360
0
 71
               2
 91
        5
 14
-0.5
 24
26.297623738836958
 14
0.5
 24
26.297623738836958
 14
0.5
 24
26.119880317862766
 14
-0.5
 24
26.119880317862766
 14
-0.5
 24
26.297623738836958
  0
MTEXT
  5
CA
100
AcDbEntity
  8
Dimension
390
0
 62
               0
100
AcDbMText
 10
25.060920201968546
 20
-113.44953309479163
 30
0.0
 40
0.5684407552083333
 41
0.0
 71
               1
 72
               1
  1
12.725mm(x4)
  7
Helvetica
 73
               1
 44
0.9673603504928806
  0
POINT
  5
CB
100
AcDbEntity
  8
Defpoints
370
               0
390
0
 62
               0
100
AcDbPoint
 10
33.991201599999997
 20
-109.01192509999997
 30
0.0
  0
POINT
  5
CC
100
AcDbEntity
  8
Defpoints
370
               0
390
0
 62
               0
100
AcDbPoint
 10
21.266201599999995
 20
-109.01192509999997
 30
0.0
  0
POINT
  5
CD
100
AcDbEntity
  8
Defpoints
370
               0
390
0
 62
               0
100
AcDbPoint
 10
21.266201599999995
 20
-113.76000509999997
 30
0.0
  0
ENDBLK
  5
CE
100
AcDbEntity
  8
Dimension
390
0
100
AcDbBlockEnd
  0
BLOCK
  5
CF
100
AcDbEntity
  8
Dimension
390
0
100
AcDbBlockBegin
  2
*D8
 70
               1
 10
0.0
 20
0.0
 30
0.0
  3
*D8
  1

  0
LINE
  5
D0
100
AcDbEntity
  8
Dimension
370
              -2
390
0
  6
Continuous
 62
               0
100
AcDbLine
 10
29.603701599999994
 20
-98.173175098817197
 30
0.0
 11
29.603701599999994
 21
-92.507505097634407
 31
0.0
  0
LINE
  5
D1
100
AcDbEntity
  8
Dimension
370
              -2
390
0
  6
Continuous
 62
               0
100
AcDbLine
 10
30.403701599999994
 20
-98.173175098817197
 30
0.0
 11
30.403701599999994
 21
-92.507505097634422
 31
0.0
  0
LINE
  5
D2
100
AcDbEntity
  8
Dimension
370
              -2
390
0
  6
Continuous
 62
               0
100
AcDbLine
 10
30.403701599999994
 20
-93.460005099999975
 30
0.0
 11
29.603701599999994
 21
-93.460005099999975
 31
0.0
  0
LINE
  5
D3
100
AcDbEntity
  8
Dimension
370
              -2
390
0
  6
Continuous
 62
               0
100
AcDbLine
 10
29.603701599999994
 20
-93.460005099999975
 30
0.0
 11
27.853705101633174
 21
-93.460005099999975
 31
0.0
  0
SOLID
  5
D4
100
AcDbEntity
  8
Dimension
370
              -2
390
0
 62
               0
100
AcDbTrace
 10
29.603701599999994
 20
-93.460005099999975
 30
0.0
 11
28.809951599999994
 21
-93.672689771492173
 31
0.0
 12
28.809951599999994
 22
-93.247320428507777
 32
0.0
 13
28.809951599999994
 23
-93.247320428507777
 33
0.0
  0
LINE
  5
D5
100
AcDbEntity
  8
Dimension
370
              -2
390
0
  6
Continuous
 62
               0
100
AcDbLine
 10
30.403701599999994
 20
-93.460005099999975
 30
0.0
 11
32.670001599999992
 21
-93.460005099999975
 31
0.0
  0
SOLID
  5
D6
100
AcDbEntity
  8
Dimension
370
              -2
390
0
 62
               0
100
AcDbTrace
 10
30.403701599999994
 20
-93.460005099999975
 30
0.0
 11
31.197451599999994
 21
-93.247320428507777
 31
0.0
 12
31.197451599999994
 22
-93.672689771492173
 32
0.0
 13
31.197451599999994
 23
-93.672689771492173
 33
0.0
  0
WIPEOUT
  5
D7
100
AcDbEntity
  8
Dimension
370
              -2
390
0
  6
Continuous
 62
               0
 92
        0
100
AcDbWipeout
 90
        0
 10
32.670001599999992
 20
38.568905349999994
 30
0.0
 11
4.3894375403722128
 21
0.0
 31
0.0
 12
0.0
 22
4.3894375403722128
 32
0.0
 13
1.0
 23
1.0
340
0
 70
               7
280
               1
281
              50
282
              50
283
               0
360
0
 71
               2
 91
        5
 14
-0.5
 24
30.682754733711409
 14
0.5000000000000002
 24
30.682754733711409
 14
0.5000000000000002
 24
30.474798135262443
 14
-0.5
 24
30.474798135262443
 14
-0.5
 24
30.682754733711409
  0
MTEXT
  5
D8
100
AcDbEntity
  8
Dimension
390
0
 62
               0
100
AcDbMText
 10
32.670001599999992
 20
-93.14953309479165
 30
0.0
 40
0.5684407552083333
 41
0.0
 71
               1
 72
               1
  1
0.80mm typ.
  7
Helvetica
 73
               1
 44
0.9673603504928806
  0
POINT
  5
D9
100
AcDbEntity
  8
Defpoints
370
               0
390
0
 62
               0
100
AcDbPoint
 10
30.403701599999994
 20
-98.649425099999974
 30
0.0
  0
POINT
  5
DA
100
AcDbEntity
  8
Defpoints
370
               0
390
0
 62
               0
100
AcDbPoint
 10
29.603701599999994
 20
-98.649425099999974
 30
0.0
  0
POINT
  5
DB
100
AcDbEntity
  8
Defpoints
370
               0
390
0
 62
               0
100
AcDbPoint
 10
29.603701599999994
 20
-93.460005099999975
 30
0.0
  0
ENDBLK
  5
DC
100
AcDbEntity
  8
Dimension
390
0
100
AcDbBlockEnd
  0
BLOCK
  5
DD
100
AcDbEntity
  8
Dimension
390
0
100
AcDbBlockBegin
  2
*D9
 70
               1
 10
0.0
 20
0.0
 30
0.0
  3
*D9
  1

  0
LINE
  5
DE
100
AcDbEntity
  8
Dimension
370
              -2
390
0
  6
Continuous
 62
               0
100
AcDbLine
 10
34.71069159999999
 20
-109.37297509999998
 30
0.0
 11
38.770001440342725
 21
-111.41000316912546
 31
0.0
  0
SOLID
  5
DF
100
AcDbEntity
  8
Dimension
370
              -2
390
0
 62
               0
100
AcDbTrace
 10
34.71069159999999
 20
-109.37297509999998
 30
0.0
 11
35.246422940190698
 21
-109.48684831164978
 31
0.0
 12
35.117711944383721
 22
-109.73945786419458
 32
0.0
 13
35.117711944383721
 23
-109.73945786419458
 33
0.0
  0
LINE
  5
E0
100
AcDbEntity
  8
Dimension
370
              -2
390
0
  6
Continuous
 62
               0
100
AcDbLine
 10
38.770001440342725
 20
-111.41000316912546
 30
0.0
 11
40.269998442322219
 21
-111.41000316912546
 31
0.0
  0
WIPEOUT
  5
E1
100
AcDbEntity
  8
Dimension
370
              -2
390
0
  6
Continuous
 62
               0
 92
        0
100
AcDbWipeout
 90
        0
 10
40.269998442322219
 20
20.618907280874506
 30
0.0
 11
3.7306252691480832
 21
0.0
 31
0.0
 12
0.0
 22
3.7306252691480832
 32
0.0
 13
1.0
 23
1.0
340
0
 70
               7
280
               1
281
              50
282
              50
283
               0
360
0
 71
               2
 91
        5
 14
-0.5
 24
36.012898546965026
 14
0.5000000000000004
 24
36.012898546965026
 14
0.5000000000000004
 24
35.768217713553831
 14
-0.5
 24
35.768217713553831
 14
-0.5
 24
36.012898546965026
  0
MTEXT
  5
E2
100
AcDbEntity
  8
Dimension
390
0
 62
               0
100
AcDbMText
 10
40.269998442322219
 20
-111.09953116391713
 30
0.0
 40
0.5684407552083333
 41
0.0
 71
               1
 72
               1
  1
Ø 1.61mm
  7
Helvetica
 73
               1
 44
0.9673603504928806
  0
WIPEOUT
  5
E3
100
AcDbEntity
  8
Dimension
370
              -2
390
0
  6
Continuous
 62
               0
 92
        0
100
AcDbWipeout
 90
        0
 10
44.000623711470304
 20
20.618907280874506
 30
0.0
 11
3.3258127556906807
 21
0.0
 31
0.0
 12
0.0
 22
3.3258127556906807
 32
0.0
 13
1.0
 23
1.0
340
0
 70
               7
280
               1
281
              50
282
              50
283
               0
360
0
 71
               2
 91
        5
 14
-0.5
 24
40.335470735178653
 14
0.5000000000000011
 24
40.335470735178653
 14
0.5000000000000011
 24
40.061007749119639
 14
-0.5
 24
40.061007749119639
 14
-0.5
 24
40.335470735178653
  0
MTEXT
  5
E4
100
AcDbEntity
  8
Dimension
390
0
 62
               0
100
AcDbMText
 10
44.000623711470304
 20
-111.09953116391713
 30
0.0
 40
0.5684407552083333
 41
0.0
 71
               1
 72
               1
  1
±0.05mm
  7
Helvetica
 73
               1
 44
0.9673603504928806
  0
WIPEOUT
  5
E5
100
AcDbEntity
  8
Dimension
370
              -2
390
0
  6
Continuous
 62
               0
 92
        0
100
AcDbWipeout
 90
        0
 10
47.326436467160988
 20
20.618907280874506
 30
0.0
 11
1.3573125302791595
 21
0.0
 31
0.0
 12
0.0
 22
1.3573125302791595
 32
0.0
 13
1.0
 23
1.0
340
0
 70
               7
280
               1
281
              50
282
              50
283
               0
360
0
 71
               2
 91
        5
 14
-0.5
 24
98.108556426390322
 14
0.5
 24
98.108556426390322
 14
0.5
 24
97.43604182150986
 14
-0.5
 24
97.43604182150986
 14
-0.5
 24
98.108556426390322
  0
MTEXT
  5
E6
100
AcDbEntity
  8
Dimension
390
0
 62
               0
100
AcDbMText
 10
47.326436467160988
 20
-111.09953116391713
 30
0.0
 40
0.5684407552083333
 41
0.0
 71
               1
 72
               1
  1
(x4)
  7
Helvetica
 73
               1
 44
0.9673603504928806
  0
POINT
  5
E7
100
AcDbEntity
  8
Defpoints
370
               0
390
0
 62
               0
100
AcDbPoint
 10
33.271711599999989
 20
-108.65087509999998
 30
0.0
  0
POINT
  5
E8
100
AcDbEntity
  8
Defpoints
370
               0
390
0
 62
               0
100
AcDbPoint
 10
34.71069159999999
 20
-109.37297509999998
 30
0.0
  0
ENDBLK
  5
E9
100
AcDbEntity
  8
Dimension
390
0
100
AcDbBlockEnd
  0
BLOCK
  5
EA
100
AcDbEntity
  8
Dimension
390
0
100
AcDbBlockBegin
  2
*D10
 70
               1
 10
0.0
 20
0.0
 30
0.0
  3
*D10
  1

  0
LINE
  5
EB
100
AcDbEntity
  8
Dimension
370
              -2
390
0
  6
Continuous
 62
               0
100
AcDbLine
 10
34.363281599999993
 20
-99.03229509999997
 30
0.0
 11
38.370006209573198
 21
-101.24383542460583
 31
0.0
  0
SOLID
  5
EC
100
AcDbEntity
  8
Dimension
370
              -2
390
0
 62
               0
100
AcDbTrace
 10
34.363281599999993
 20
-99.03229509999997
 30
0.0
 11
34.894712469358751
 21
-99.164795697306403
 31
0.0
 12
34.757263934566708
 22
-99.412759417963343
 32
0.0
 13
34.757263934566708
 23
-99.412759417963343
 33
0.0
  0
LINE
  5
ED
100
AcDbEntity
  8
Dimension
370
              -2
390
0
  6
Continuous
 62
               0
100
AcDbLine
 10
38.370006209573198
 20
-101.24383542460583
 30
0.0
 11
39.870003211552699
 21
-101.24383542460583
 31
0.0
  0
WIPEOUT
  5
EE
100
AcDbEntity
  8
Dimension
370
              -2
390
0
  6
Continuous
 62
               0
 92
        0
100
AcDbWipeout
 90
        0
 10
39.870003211552699
 20
30.785075025394139
 30
0.0
 11
4.1751250134574018
 21
0.0
 31
0.0
 12
0.0
 22
4.1751250134574018
 32
0.0
 13
1.0
 23
1.0
340
0
 70
               7
280
               1
281
              50
282
              50
283
               0
360
0
 71
               2
 91
        5
 14
-0.5
 24
32.232059824069673
 14
0.5000000000000004
 24
32.232059824069673
 14
0.5000000000000004
 24
32.013428646067148
 14
-0.5
 24
32.013428646067148
 14
-0.5
 24
32.232059824069673
  0
MTEXT
  5
EF
100
AcDbEntity
  8
Dimension
390
0
 62
               0
100
AcDbMText
 10
39.870003211552699
 20
-100.93336341939749
 30
0.0
 40
0.5684407552083333
 41
0.0
 71
               1
 72
               1
  1
Ø 0.850mm
  7
Helvetica
 73
               1
 44
0.9673603504928806
  0
WIPEOUT
  5
F0
100
AcDbEntity
  8
Dimension
370
              -2
390
0
  6
Continuous
 62
               0
 92
        0
100
AcDbWipeout
 90
        0
 10
44.045128225010103
 20
30.785075025394139
 30
0.0
 11
3.7703124999999993
 21
0.0
 31
0.0
 12
0.0
 22
3.7703124999999993
 32
0.0
 13
1.0
 23
1.0
340
0
 70
               7
280
               1
281
              50
282
              50
283
               0
360
0
 71
               2
 91
        5
 14
-0.5
 24
35.639081097389138
 14
0.4999999999999991
 24
35.639081097389138
 14
0.4999999999999991
 24
35.396975834231249
 14
-0.5
 24
35.396975834231249
 14
-0.5
 24
35.639081097389138
  0
MTEXT
  5
F1
100
AcDbEntity
  8
Dimension
390
0
 62
               0
100
AcDbMText
 10
44.045128225010103
 20
-100.93336341939749
 30
0.0
 40
0.5684407552083333
 41
0.0
 71
               1
 72
               1
  1
±0.025mm
  7
Helvetica
 73
               1
 44
0.9673603504928806
  0
WIPEOUT
  5
F2
100
AcDbEntity
  8
Dimension
370
              -2
390
0
  6
Continuous
 62
               0
 92
        0
100
AcDbWipeout
 90
        0
 10
47.815440725010106
 20
30.785075025394139
 30
0.0
 11
1.3573125302791595
 21
0.0
 31
0.0
 12
0.0
 22
1.3573125302791595
 32
0.0
 13
1.0
 23
1.0
340
0
 70
               7
280
               1
281
              50
282
              50
283
               0
360
0
 71
               2
 91
        5
 14
-0.5
 24
98.108556426390322
 14
0.5
 24
98.108556426390322
 14
0.5
 24
97.43604182150986
 14
-0.5
 24
97.43604182150986
 14
-0.5
 24
98.108556426390322
  0
MTEXT
  5
F3
100
AcDbEntity
  8
Dimension
390
0
 62
               0
100
AcDbMText
 10
47.815440725010106
 20
-100.93336341939749
 30
0.0
 40
0.5684407552083333
 41
0.0
 71
               1
 72
               1
  1
(x2)
  7
Helvetica
 73
               1
 44
0.9673603504928806
  0
POINT
  5
F4
100
AcDbEntity
  8
Defpoints
370
               0
390
0
 62
               0
100
AcDbPoint
 10
33.619121599999993
 20
-98.621555099999966
 30
0.0
  0
POINT
  5
F5
100
AcDbEntity
  8
Defpoints
370
               0
390
0
 62
               0
100
AcDbPoint
 10
34.363281599999993
 20
-99.03229509999997
 30
0.0
  0
ENDBLK
  5
F6
100
AcDbEntity
  8
Dimension
390
0
100
AcDbBlockEnd
  0
BLOCK
  5
F7
100
AcDbEntity
  8
Dimension
390
0
100
AcDbBlockBegin
  2
*D11
 70
               1
 10
0.0
 20
0.0
 30
0.0
  3
*D11
  1

  0
LINE
  5
F8
100
AcDbEntity
  8
Dimension
370
              -2
390
0
  6
Continuous
 62
               0
100
AcDbLine
 10
32.157201599999993
 20
-101.94344509999998
 30
0.0
 11
38.470005405883128
 21
-105.8100093592066
 31
0.0
  0
SOLID
  5
F9
100
AcDbEntity
  8
Dimension
370
              -2
390
0
 62
               0
100
AcDbTrace
 10
32.157201599999993
 20
-101.94344509999998
 30
0.0
 11
32.680969616359157
 21
-102.10357705256772
 31
0.0
 12
32.530732031572938
 22
-102.34400744706082
 32
0.0
 13
32.530732031572938
 23
-102.34400744706082
 33
0.0
  0
LINE
  5
FA
100
AcDbEntity
  8
Dimension
370
              -2
390
0
  6
Continuous
 62
               0
100
AcDbLine
 10
38.470005405883128
 20
-105.8100093592066
 30
0.0
 11
39.97000240786263
 21
-105.8100093592066
 31
0.0
  0
WIPEOUT
  5
FB
100
AcDbEntity
  8
Dimension
370
              -2
390
0
  6
Continuous
 62
               0
 92
        0
100
AcDbWipeout
 90
        0
 10
39.97000240786263
 20
26.218901090793359
 30
0.0
 11
6.199187580744427
 21
0.0
 31
0.0
 12
0.0
 22
6.199187580744427
 32
0.0
 13
1.0
 23
1.0
340
0
 70
               7
280
               1
281
              50
282
              50
283
               0
360
0
 71
               2
 91
        5
 14
-0.5
 24
21.871399876899762
 14
0.5000000000000002
 24
21.871399876899762
 14
0.5000000000000002
 24
21.72415275973955
 14
-0.5
 24
21.72415275973955
 14
-0.5
 24
21.871399876899762
  0
MTEXT
  5
FC
100
AcDbEntity
  8
Dimension
390
0
 62
               0
100
AcDbMText
 10
39.97000240786263
 20
-105.49953735399828
 30
0.0
 40
0.5684407552083333
 41
0.0
 71
               1
 72
               1
  1
Ø 0.360mmxPAD
  7
Helvetica
 73
               1
 44
0.9673603504928806
  0
POINT
  5
FD
100
AcDbEntity
  8
Defpoints
370
               0
390
0
 62
               0
100
AcDbPoint
 10
31.850201599999991
 20
-101.75540509999998
 30
0.0
  0
POINT
  5
FE
100
AcDbEntity
  8
Defpoints
370
               0
390
0
 62
               0
100
AcDbPoint
 10
32.157201599999993
 20
-101.94344509999998
 30
0.0
  0
ENDBLK
  5
FF
100
AcDbEntity
  8
Dimension
390
0
100
AcDbBlockEnd
  0
BLOCK
  5
100
100
AcDbEntity
  8
Dimension
390
0
100
AcDbBlockBegin
  2
*D12
 70
               1
 10
0.0
 20
0.0
 30
0.0
  3
*D12
  1

  0
LINE
  5
101
100
AcDbEntity
  8
Dimension
370
              -2
390
0
  6
Continuous
 62
               0
100
AcDbLine
 10
21.266201599999995
 20
-95.8106750988172
 30
0.0
 11
21.266201599999995
 21
-90.407505097634413
 31
0.0
  0
LINE
  5
102
100
AcDbEntity
  8
Dimension
370
              -2
390
0
  6
Continuous
 62
               0
100
AcDbLine
 10
24.003701599999992
 20
-98.173175098817197
 30
0.0
 11
24.003701599999992
 21
-90.407505097634413
 31
0.0
  0
LINE
  5
103
100
AcDbEntity
  8
Dimension
370
              -2
390
0
  6
Continuous
 62
               0
100
AcDbLine
 10
24.003701599999992
 20
-91.360005099999967
 30
0.0
 11
25.370001599999995
 21
-91.360005099999967
 31
0.0
  0
LINE
  5
104
100
AcDbEntity
  8
Dimension
370
              -2
390
0
  6
Continuous
 62
               0
100
AcDbLine
 10
21.266201599999995
 20
-91.360005099999967
 30
0.0
 11
24.003701599999992
 21
-91.360005099999967
 31
0.0
  0
SOLID
  5
105
100
AcDbEntity
  8
Dimension
370
              -2
390
0
 62
               0
100
AcDbTrace
 10
21.266201599999995
 20
-91.360005099999967
 30
0.0
 11
22.059951599999994
 21
-91.147320428507768
 31
0.0
 12
22.059951599999994
 22
-91.572689771492179
 32
0.0
 13
22.059951599999994
 23
-91.572689771492179
 33
0.0
  0
SOLID
  5
106
100
AcDbEntity
  8
Dimension
370
              -2
390
0
 62
               0
100
AcDbTrace
 10
24.003701599999992
 20
-91.360005099999967
 30
0.0
 11
23.209951599999993
 21
-91.572689771492179
 31
0.0
 12
23.209951599999993
 22
-91.147320428507768
 32
0.0
 13
23.209951599999993
 23
-91.147320428507768
 33
0.0
  0
WIPEOUT
  5
107
100
AcDbEntity
  8
Dimension
370
              -2
390
0
  6
Continuous
 62
               0
 92
        0
100
AcDbWipeout
 90
        0
 10
25.370001599999995
 20
40.668905349999989
 30
0.0
 11
3.7782500134574031
 21
0.0
 31
0.0
 12
0.0
 22
3.7782500134574031
 32
0.0
 13
1.0
 23
1.0
340
0
 70
               7
280
               1
281
              50
282
              50
283
               0
360
0
 71
               2
 91
        5
 14
-0.5
 24
35.565259373549303
 14
0.4999999999999998
 24
35.565259373549303
 14
0.4999999999999998
 24
35.323662735754361
 14
-0.5
 24
35.323662735754361
 14
-0.5
 24
35.565259373549303
  0
MTEXT
  5
108
100
AcDbEntity
  8
Dimension
390
0
 62
               0
100
AcDbMText
 10
25.370001599999995
 20
-91.049533094791641
 30
0.0
 40
0.5684407552083333
 41
0.0
 71
               1
 72
               1
  1
2.7375mm
  7
Helvetica
 73
               1
 44
0.9673603504928806
  0
POINT
  5
109
100
AcDbEntity
  8
Defpoints
370
               0
390
0
 62
               0
100
AcDbPoint
 10
24.003701599999992
 20
-98.649425099999974
 30
0.0
  0
POINT
  5
10A
100
AcDbEntity
  8
Defpoints
370
               0
390
0
 62
               0
100
AcDbPoint
 10
21.266201599999995
 20
-96.286925099999976
 30
0.0
  0
POINT
  5
10B
100
AcDbEntity
  8
Defpoints
370
               0
390
0
 62
               0
100
AcDbPoint
 10
21.266201599999995
 20
-91.360005099999967
 30
0.0
  0
ENDBLK
  5
10C
100
AcDbEntity
  8
Dimension
390
0
100
AcDbBlockEnd
  0
BLOCK
  5
10D
100
AcDbEntity
  8
Dimension
390
0
100
AcDbBlockBegin
  2
*D13
 70
               1
 10
0.0
 20
0.0
 30
0.0
  3
*D13
  1

  0
LINE
  5
10E
100
AcDbEntity
  8
Dimension
370
              -2
390
0
  6
Continuous
 62
               0
100
AcDbLine
 10
34.467451601182773
 20
-96.286925099999976
 30
0.0
 11
40.222501602365554
 21
-96.286925099999976
 31
0.0
  0
LINE
  5
10F
100
AcDbEntity
  8
Dimension
370
              -2
390
0
  6
Continuous
 62
               0
100
AcDbLine
 10
34.467451601182773
 20
-98.826925099999968
 30
0.0
 11
40.222501602365554
 21
-98.826925099999968
 31
0.0
  0
LINE
  5
110
100
AcDbEntity
  8
Dimension
370
              -2
390
0
  6
Continuous
 62
               0
100
AcDbLine
 10
39.270001599999993
 20
-98.826925099999968
 30
0.0
 11
39.270001599999993
 21
-96.286925099999976
 31
0.0
  0
LINE
  5
111
100
AcDbEntity
  8
Dimension
370
              -2
390
0
  6
Continuous
 62
               0
100
AcDbLine
 10
39.270001599999993
 20
-96.286925099999976
 30
0.0
 11
39.270001599999993
 21
-94.53692860163315
 31
0.0
  0
SOLID
  5
112
100
AcDbEntity
  8
Dimension
370
              -2
390
0
 62
               0
100
AcDbTrace
 10
39.270001599999993
 20
-96.286925099999976
 30
0.0
 11
39.057316928507788
 21
-95.493175099999974
 31
0.0
 12
39.482686271492199
 22
-95.493175099999974
 32
0.0
 13
39.482686271492199
 23
-95.493175099999974
 33
0.0
  0
LINE
  5
113
100
AcDbEntity
  8
Dimension
370
              -2
390
0
  6
Continuous
 62
               0
100
AcDbLine
 10
39.270001599999993
 20
-98.826925099999968
 30
0.0
 11
39.270001599999993
 21
-100.57692159836679
 31
0.0
  0
SOLID
  5
114
100
AcDbEntity
  8
Dimension
370
              -2
390
0
 62
               0
100
AcDbTrace
 10
39.270001599999993
 20
-98.826925099999968
 30
0.0
 11
39.482686271492199
 21
-99.620675099999971
 31
0.0
 12
39.057316928507788
 22
-99.620675099999971
 32
0.0
 13
39.057316928507788
 23
-99.620675099999971
 33
0.0
  0
WIPEOUT
  5
115
100
AcDbEntity
  8
Dimension
370
              -2
390
0
  6
Continuous
 62
               0
 92
        0
100
AcDbWipeout
 90
        0
 10
37.825376505798161
 20
34.468923521386714
 30
0.0
 11
2.8892501884036594
 21
0.0
 31
0.0
 12
0.0
 22
2.8892501884036594
 32
0.0
 13
1.0
 23
1.0
340
0
 70
               7
280
               1
281
              50
282
              50
283
               0
360
0
 71
               2
 91
        5
 14
-0.5
 24
46.354567123243655
 14
0.5000000000000018
 24
46.354567123243655
 14
0.5000000000000018
 24
46.038633077911172
 14
-0.5
 24
46.038633077911172
 14
-0.5
 24
46.354567123243655
  0
MTEXT
  5
116
100
AcDbEntity
  8
Dimension
390
0
 62
               0
100
AcDbMText
 10
37.825376505798161
 20
-97.249514923404917
 30
0.0
 40
0.5684407552083333
 41
0.0
 71
               1
 72
               1
  1
2.54mm
  7
Helvetica
 73
               1
 44
0.9673603504928806
  0
POINT
  5
117
100
AcDbEntity
  8
Defpoints
370
               0
390
0
 62
               0
100
AcDbPoint
 10
33.991201599999997
 20
-98.826925099999968
 30
0.0
  0
POINT
  5
118
100
AcDbEntity
  8
Defpoints
370
               0
390
0
 62
               0
100
AcDbPoint
 10
33.991201599999997
 20
-96.286925099999976
 30
0.0
  0
POINT
  5
119
100
AcDbEntity
  8
Defpoints
370
               0
390
0
 62
               0
100
AcDbPoint
 10
39.270001599999993
 20
-96.286925099999976
 30
0.0
  0
ENDBLK
  5
11A
100
AcDbEntity
  8
Dimension
390
0
100
AcDbBlockEnd
  0
BLOCK
  5
11B
100
AcDbEntity
  8
Dimension
390
0
100
AcDbBlockBegin
  2
*D14
 70
               1
 10
0.0
 20
0.0
 30
0.0
  3
*D14
  1

  0
LINE
  5
11C
100
AcDbEntity
  8
Dimension
370
              -2
390
0
  6
Continuous
 62
               0
100
AcDbLine
 10
20.789951598817215
 20
-96.286925099999976
 30
0.0
 11
14.817501597634436
 21
-96.286925099999976
 31
0.0
  0
LINE
  5
11D
100
AcDbEntity
  8
Dimension
370
              -2
390
0
  6
Continuous
 62
               0
100
AcDbLine
 10
23.527451598817215
 20
-98.649425099999974
 30
0.0
 11
14.817501597634434
 21
-98.649425099999974
 31
0.0
  0
LINE
  5
11E
100
AcDbEntity
  8
Dimension
370
              -2
390
0
  6
Continuous
 62
               0
100
AcDbLine
 10
15.770001599999993
 20
-98.649425099999974
 30
0.0
 11
15.770001599999993
 21
-96.286925099999976
 31
0.0
  0
LINE
  5
11F
100
AcDbEntity
  8
Dimension
370
              -2
390
0
  6
Continuous
 62
               0
100
AcDbLine
 10
15.770001599999993
 20
-96.286925099999976
 30
0.0
 11
15.770001599999993
 21
-94.53692860163315
 31
0.0
  0
SOLID
  5
120
100
AcDbEntity
  8
Dimension
370
              -2
390
0
 62
               0
100
AcDbTrace
 10
15.770001599999993
 20
-96.286925099999976
 30
0.0
 11
15.55731692850779
 21
-95.493175099999974
 31
0.0
 12
15.982686271492197
 22
-95.493175099999974
 32
0.0
 13
15.982686271492197
 23
-95.493175099999974
 33
0.0
  0
LINE
  5
121
100
AcDbEntity
  8
Dimension
370
              -2
390
0
  6
Continuous
 62
               0
100
AcDbLine
 10
15.770001599999993
 20
-98.649425099999974
 30
0.0
 11
15.770001599999993
 21
-100.39942159836679
 31
0.0
  0
SOLID
  5
122
100
AcDbEntity
  8
Dimension
370
              -2
390
0
 62
               0
100
AcDbTrace
 10
15.770001599999993
 20
-98.649425099999974
 30
0.0
 11
15.982686271492197
 21
-99.443175099999976
 31
0.0
 12
15.55731692850779
 22
-99.443175099999976
 32
0.0
 13
15.55731692850779
 23
-99.443175099999976
 33
0.0
  0
WIPEOUT
  5
123
100
AcDbEntity
  8
Dimension
370
              -2
390
0
  6
Continuous
 62
               0
 92
        0
100
AcDbWipeout
 90
        0
 10
13.202220201968547
 20
34.560735349999995
 30
0.0
 11
5.1355627960628922
 21
0.0
 31
0.0
 12
0.0
 22
5.1355627960628922
 32
0.0
 13
1.0
 23
1.0
340
0
 70
               7
280
               1
281
              50
282
              50
283
               0
360
0
 71
               2
 91
        5
 14
-0.5
 24
26.297623738836958
 14
0.5
 24
26.297623738836958
 14
0.5
 24
26.119880317862766
 14
-0.5
 24
26.119880317862766
 14
-0.5
 24
26.297623738836958
  0
MTEXT
  5
124
100
AcDbEntity
  8
Dimension
390
0
 62
               0
100
AcDbMText
 10
13.202220201968547
 20
-97.157703094791643
 30
0.0
 40
0.5684407552083333
 41
0.0
 71
               1
 72
               1
  1
2.3625mm(x4)
  7
Helvetica
 73
               1
 44
0.9673603504928806
  0
POINT
  5
125
100
AcDbEntity
  8
Defpoints
370
               0
390
0
 62
               0
100
AcDbPoint
 10
24.003701599999992
 20
-98.649425099999974
 30
0.0
  0
POINT
  5
126
100
AcDbEntity
  8
Defpoints
370
               0
390
0
 62
               0
100
AcDbPoint
 10
21.266201599999995
 20
-96.286925099999976
 30
0.0
  0
POINT
  5
127
100
AcDbEntity
  8
Defpoints
370
               0
390
0
 62
               0
100
AcDbPoint
 10
15.770001599999993
 20
-96.286925099999976
 30
0.0
  0
ENDBLK
  5
128
100
AcDbEntity
  8
Dimension
390
0
100
AcDbBlockEnd
  0
BLOCK
  5
129
100
AcDbEntity
  8
Dimension
390
0
100
AcDbBlockBegin
  2
*D15
 70
               1
 10
0.0
 20
0.0
 30
0.0
  3
*D15
  1

  0
LINE
  5
12A
100
AcDbEntity
  8
Dimension
370
              -2
390
0
  6
Continuous
 62
               0
100
AcDbLine
 10
23.527451598817215
 20
-98.649425099999974
 30
0.0
 11
11.267501597634435
 21
-98.649425099999974
 31
0.0
  0
LINE
  5
12B
100
AcDbEntity
  8
Dimension
370
              -2
390
0
  6
Continuous
 62
               0
100
AcDbLine
 10
23.527451598817215
 20
-106.64942509999997
 30
0.0
 11
11.267501597634435
 21
-106.64942509999997
 31
0.0
  0
LINE
  5
12C
100
AcDbEntity
  8
Dimension
370
              -2
390
0
  6
Continuous
 62
               0
100
AcDbLine
 10
12.220001599999994
 20
-98.649425099999974
 30
0.0
 11
12.220001599999994
 21
-106.64942509999997
 31
0.0
  0
SOLID
  5
12D
100
AcDbEntity
  8
Dimension
370
              -2
390
0
 62
               0
100
AcDbTrace
 10
12.220001599999994
 20
-98.649425099999974
 30
0.0
 11
12.432686271492198
 21
-99.443175099999976
 31
0.0
 12
12.007316928507791
 22
-99.443175099999976
 32
0.0
 13
12.007316928507791
 23
-99.443175099999976
 33
0.0
  0
SOLID
  5
12E
100
AcDbEntity
  8
Dimension
370
              -2
390
0
 62
               0
100
AcDbTrace
 10
12.220001599999994
 20
-106.64942509999997
 30
0.0
 11
12.007316928507791
 21
-105.85567509999997
 31
0.0
 12
12.432686271492198
 22
-105.85567509999997
 32
0.0
 13
12.432686271492198
 23
-105.85567509999997
 33
0.0
  0
WIPEOUT
  5
12F
100
AcDbEntity
  8
Dimension
370
              -2
390
0
  6
Continuous
 62
               0
 92
        0
100
AcDbWipeout
 90
        0
 10
10.775376505798164
 20
29.379485349999992
 30
0.0
 11
2.8892501884036594
 21
0.0
 31
0.0
 12
0.0
 22
2.8892501884036594
 32
0.0
 13
1.0
 23
1.0
340
0
 70
               7
280
               1
281
              50
282
              50
283
               0
360
0
 71
               2
 91
        5
 14
-0.5
 24
46.354567123243655
 14
0.5
 24
46.354567123243655
 14
0.5
 24
46.038633077911172
 14
-0.5
 24
46.038633077911172
 14
-0.5
 24
46.354567123243655
  0
MTEXT
  5
130
100
AcDbEntity
  8
Dimension
390
0
 62
               0
100
AcDbMText
 10
10.775376505798164
 20
-102.33895309479163
 30
0.0
 40
0.5684407552083333
 41
0.0
 71
               1
 72
               1
  1
8.00mm
  7
Helvetica
 73
               1
 44
0.9673603504928806
  0
POINT
  5
131
100
AcDbEntity
  8
Defpoints
370
               0
390
0
 62
               0
100
AcDbPoint
 10
24.003701599999992
 20
-106.64942509999997
 30
0.0
  0
POINT
  5
132
100
AcDbEntity
  8
Defpoints
370
               0
390
0
 62
               0
100
AcDbPoint
 10
24.003701599999992
 20
-98.649425099999974
 30
0.0
  0
POINT
  5
133
100
AcDbEntity
  8
Defpoints
370
               0
390
0
 62
               0
100
AcDbPoint
 10
12.220001599999994
 20
-98.649425099999974
 30
0.0
  0
ENDBLK
  5
134
100
AcDbEntity
  8
Dimension
390
0
100
AcDbBlockEnd
  0
BLOCK
  5
135
100
AcDbEntity
  8
Dimension
390
0
100
AcDbBlockBegin
  2
*D16
 70
               1
 10
0.0
 20
0.0
 30
0.0
  3
*D16
  1

  0
LINE
  5
136
100
AcDbEntity
  8
Dimension
370
              -2
390
0
  6
Continuous
 62
               0
100
AcDbLine
 10
24.003701599999992
 20
-98.173175098817197
 30
0.0
 11
24.003701599999992
 21
-88.957505097634424
 31
0.0
  0
LINE
  5
137
100
AcDbEntity
  8
Dimension
370
              -2
390
0
  6
Continuous
 62
               0
100
AcDbLine
 10
32.003701599999992
 20
-98.173175098817197
 30
0.0
 11
32.003701599999992
 21
-88.95750509763441
 31
0.0
  0
LINE
  5
138
100
AcDbEntity
  8
Dimension
370
              -2
390
0
  6
Continuous
 62
               0
100
AcDbLine
 10
24.003701599999992
 20
-89.910005099999978
 30
0.0
 11
32.003701599999992
 21
-89.910005099999978
 31
0.0
  0
SOLID
  5
139
100
AcDbEntity
  8
Dimension
370
              -2
390
0
 62
               0
100
AcDbTrace
 10
24.003701599999992
 20
-89.910005099999978
 30
0.0
 11
24.797451599999995
 21
-89.697320428507766
 31
0.0
 12
24.797451599999995
 22
-90.122689771492176
 32
0.0
 13
24.797451599999995
 23
-90.122689771492176
 33
0.0
  0
SOLID
  5
13A
100
AcDbEntity
  8
Dimension
370
              -2
390
0
 62
               0
100
AcDbTrace
 10
32.003701599999992
 20
-89.910005099999978
 30
0.0
 11
31.209951599999993
 21
-90.122689771492176
 31
0.0
 12
31.209951599999993
 22
-89.697320428507766
 32
0.0
 13
31.209951599999993
 23
-89.697320428507766
 33
0.0
  0
WIPEOUT
  5
13B
100
AcDbEntity
  8
Dimension
370
              -2
390
0
  6
Continuous
 62
               0
 92
        0
100
AcDbWipeout
 90
        0
 10
26.537225919860663
 20
42.118905349999991
 30
0.0
 11
2.8892501884036594
 21
0.0
 31
0.0
 12
0.0
 22
2.8892501884036594
 32
0.0
 13
1.0
 23
1.0
340
0
 70
               7
280
               1
281
              50
282
              50
283
               0
360
0
 71
               2
 91
        5
 14
-0.5
 24
46.354567123243655
 14
0.5000000000000007
 24
46.354567123243655
 14
0.5000000000000007
 24
46.038633077911172
 14
-0.5
 24
46.038633077911172
 14
-0.5
 24
46.354567123243655
  0
MTEXT
  5
13C
100
AcDbEntity
  8
Dimension
390
0
 62
               0
100
AcDbMText
 10
26.537225919860663
 20
-89.599533094791639
 30
0.0
 40
0.5684407552083333
 41
0.0
 71
               1
 72
               1
  1
8.00mm
  7
Helvetica
 73
               1
 44
0.9673603504928806
  0
POINT
  5
13D
100
AcDbEntity
  8
Defpoints
370
               0
390
0
 62
               0
100
AcDbPoint
 10
32.003701599999992
 20
-98.649425099999974
 30
0.0
  0
POINT
  5
13E
100
AcDbEntity
  8
Defpoints
370
               0
390
0
 62
               0
100
AcDbPoint
 10
24.003701599999992
 20
-98.649425099999974
 30
0.0
  0
POINT
  5
13F
100
AcDbEntity
  8
Defpoints
370
               0
390
0
 62
               0
100
AcDbPoint
 10
24.003701599999992
 20
-89.910005099999978
 30
0.0
  0
ENDBLK
  5
140
100
AcDbEntity
  8
Dimension
390
0
100
AcDbBlockEnd
  0
ENDSEC
  0
SECTION
  2
ENTITIES
  0
MTEXT
  5
141
100
AcDbEntity
  8
None
390
0
 62
               7
100
AcDbMText
 10
27.909006599999994
 20
-123.4132725505208
 30
0.0
 40
0.5204840494791666
 41
28.552694999999996
 71
               1
 72
               1
  1
Recommended PCB Layout Tolerances:  ±0.025mm [±0.001"] unless stated otherwise.\P
  7
Helvetica
 73
               1
 44
0.9673603504928806
  0
MTEXT
  5
142
100
AcDbEntity
  8
None
390
0
 62
               7
100
AcDbMText
 10
-3.5596884000000024
 20
-83.445946264062485
 30
0.0
 40
0.6124443359374999
 41
11.826889999999999
 71
               1
 72
               1
  1
{\LRecommended PCB Layout Top View}\P
  7
Helvetica
 73
               1
 44
0.9673603504928809
  0
WIPEOUT
  5
143
100
AcDbEntity
  8
None
370
              15
390
0
  6
Continuous
 62
               1
 92
        0
100
AcDbWipeout
 90
        0
 10
-5.688863400000006
 20
10.818611599999993
 30
0.0
 11
17.851437822977701
 21
0.0
 31
0.0
 12
0.0
 22
17.851437822977701
 32
0.0
 13
1.0
 23
1.0
340
0
 70
               7
280
               1
281
              50
282
              50
283
               0
360
0
 71
               2
 91
        5
 14
-0.5
 24
7.9215487858053564
 14
0.5
 24
7.9215487858053564
 14
0.5
 24
7.7170134404618986
 14
-0.5
 24
7.7170134404618986
 14
-0.5
 24
7.9215487858053564
  0
MTEXT
  5
144
100
AcDbEntity
  8
None
390
0
 62
               1
100
AcDbMText
 10
-5.688863400000006
 20
-118.16138934479164
 30
0.0
 40
0.5684407552083333
 41
0.0
 71
               1
 72
               1
  1
{\LTarget PCB Recommendations}\PTotal thickness: 1.6mm min.\PPlating: Gold or Solder finish\PPCB Pad height: Same or higher than solder mask
  7
New Century Schlbk
 73
               1
 44
0.9673603504928806
  0
WIPEOUT
  5
145
100
AcDbEntity
  8
None
370
              15
390
0
  6
Continuous
 62
               1
 92
        0
100
AcDbWipeout
 90
        0
 10
-5.732793400000002
 20
8.5634590999999922
 30
0.0
 11
26.77318814595542
 21
0.0
 31
0.0
 12
0.0
 22
26.77318814595542
 32
0.0
 13
1.0
 23
1.0
340
0
 70
               7
280
               1
281
              50
282
              50
283
               0
360
0
 71
               2
 91
        5
 14
-0.5
 24
5.4484325877721176
 14
0.5
 24
5.4484325877721176
 14
0.5
 24
5.4143383105039886
 14
-0.5
 24
5.4143383105039886
 14
-0.5
 24
5.4484325877721176
  0
MTEXT
  5
146
100
AcDbEntity
  8
None
390
0
 62
               1
100
AcDbMText
 10
-5.732793400000002
 20
-123.15497934479164
 30
0.0
 40
0.5684407552083333
 41
0.0
 71
               1
 72
               1
  1
NOTE: Steel backing plate may be required based on end user's application
  7
New Century Schlbk
 73
               1
 44
0.9673603504928806
  0
WIPEOUT
  5
147
100
AcDbEntity
  8
None
370
              15
390
0
  6
Continuous
 62
               1
 92
        0
100
AcDbWipeout
 90
        0
 10
-5.688863400000006
 20
16.348506349999994
 30
0.0
 11
12.400146155887178
 21
0.0
 31
0.0
 12
0.0
 22
12.400146155887178
 32
0.0
 13
1.0
 23
1.0
340
0
 70
               7
280
               1
281
              50
282
              50
283
               0
360
0
 71
               2
 91
        5
 14
-0.5
 24
11.184173802024127
 14
0.5
 24
11.184173802024127
 14
0.5
 24
10.938796835353825
 14
-0.5
 24
10.938796835353825
 14
-0.5
 24
11.184173802024127
  0
MTEXT
  5
148
100
AcDbEntity
  8
None
390
0
 62
               1
100
AcDbMText
 10
-5.688863400000006
 20
-113.2562493630208
 30
0.0
 40
0.6316012369791665
 41
0.0
 71
               1
 72
               1
  1
Note: Full BGA pattern shown. \PPlease adjust pattern according\P to individual requirements.
  7
New Century Schlbk
 73
               1
 44
0.9673603504928809
  0
WIPEOUT
  5
149
100
AcDbEntity
  8
None
370
              15
390
0
  6
Continuous
 62
               7
 92
        0
100
AcDbWipeout
 90
        0
 10
49.201486599999996
 20
2.5980583499999952
 30
0.0
 11
8.2294684780968552
 21
0.0
 31
0.0
 12
0.0
 22
8.2294684780968552
 32
0.0
 13
1.0
 23
1.0
340
0
 70
               7
280
               1
281
              50
282
              50
283
               0
360
0
 71
               2
 91
        5
 14
-0.5
 24
16.598891083016639
 14
0.4999999999999991
 24
16.598891083016639
 14
0.4999999999999991
 24
16.375590118332106
 14
-0.5
 24
16.375590118332106
 14
-0.5
 24
16.598891083016639
  0
MTEXT
  5
14A
100
AcDbEntity
  8
None
390
0
 62
               7
100
AcDbMText
 10
49.201486599999996
 20
-128.34340078489581
 30
0.0
 40
1.1443688151041664
 41
0.0
 71
               1
 72
               1
  1
Page 2 of 3
  7
New Century Schlbk
 73
               1
 44
0.9673603504928806
  0
WIPEOUT
  5
14B
100
AcDbEntity
  8
Dimension
370
               5
390
0
  6
Continuous
 62
               7
 92
        0
100
AcDbWipeout
 90
        0
 10
19.506236599999994
 20
5.5223815999999957
 30
0.0
 11
10.634029999999999
 21
0.0
 31
0.0
 12
0.0
 22
10.634029999999999
 32
0.0
 13
1.0
 23
1.0
340
0
 70
               7
280
               1
281
              50
282
              50
283
               0
360
0
 71
               2
 91
        5
 14
-0.5
 24
12.799381485664416
 14
0.5
 24
12.799381485664416
 14
0.5
 24
12.958617918136396
 14
-0.5
 24
12.958617918136396
 14
-0.5
 24
12.799381485664416
  0
POLYLINE
  5
14C
100
AcDbEntity
  8
Dimension
370
               5
390
0
  6
Continuous
 62
               7
100
AcDb2dPolyline
 66
               1
 10
0.0
 20
0.0
 30
0.0
 70
               1
 75
               5
  0
VERTEX
  5
14D
100
AcDbEntity
  8
Dimension
370
               5
390
0
  6
Continuous
 62
               7
100
AcDbVertex
100
AcDb2dVertex
 10
19.506236599999994
 20
-125.26961009999997
 30
0.0
  0
VERTEX
  5
14E
100
AcDbEntity
  8
Dimension
370
               5
390
0
  6
Continuous
 62
               7
100
AcDbVertex
100
AcDb2dVertex
 10
30.140266599999993
 20
-125.26961009999997
 30
0.0
  0
VERTEX
  5
14F
100
AcDbEntity
  8
Dimension
370
               5
390
0
  6
Continuous
 62
               7
100
AcDbVertex
100
AcDb2dVertex
 10
30.140266599999993
 20
-126.96293509999997
 30
0.0
  0
VERTEX
  5
150
100
AcDbEntity
  8
Dimension
370
               5
390
0
  6
Continuous
 62
               7
100
AcDbVertex
100
AcDb2dVertex
 10
19.506236599999994
 20
-126.96293509999997
 30
0.0
  0
SEQEND
  5
151
100
AcDbEntity
  8
Dimension
370
               5
390
0
  6
Continuous
 62
               7
  0
WIPEOUT
  5
152
100
AcDbEntity
  8
Dimension
370
               5
390
0
  6
Continuous
 62
               7
 92
        0
100
AcDbWipeout
 90
        0
 10
30.140266599999993
 20
5.5223815999999957
 30
0.0
 11
7.4317249999999984
 21
0.0
 31
0.0
 12
0.0
 22
7.4317249999999984
 32
0.0
 13
1.0
 23
1.0
340
0
 70
               7
280
               1
281
              50
282
              50
283
               0
360
0
 71
               2
 91
        5
 14
-0.5
 24
18.099143092619812
 14
0.4999999999999998
 24
18.099143092619812
 14
0.4999999999999998
 24
18.32699396169799
 14
-0.5
 24
18.32699396169799
 14
-0.5
 24
18.099143092619812
  0
POLYLINE
  5
153
100
AcDbEntity
  8
Dimension
370
               5
390
0
  6
Continuous
 62
               7
100
AcDb2dPolyline
 66
               1
 10
0.0
 20
0.0
 30
0.0
 70
               1
 75
               5
  0
VERTEX
  5
154
100
AcDbEntity
  8
Dimension
370
               5
390
0
  6
Continuous
 62
               7
100
AcDbVertex
100
AcDb2dVertex
 10
30.140266599999993
 20
-125.26961009999997
 30
0.0
  0
VERTEX
  5
155
100
AcDbEntity
  8
Dimension
370
               5
390
0
  6
Continuous
 62
               7
100
AcDbVertex
100
AcDb2dVertex
 10
37.57199159999999
 20
-125.26961009999997
 30
0.0
  0
VERTEX
  5
156
100
AcDbEntity
  8
Dimension
370
               5
390
0
  6
Continuous
 62
               7
100
AcDbVertex
100
AcDb2dVertex
 10
37.57199159999999
 20
-126.96293509999997
 30
0.0
  0
VERTEX
  5
157
100
AcDbEntity
  8
Dimension
370
               5
390
0
  6
Continuous
 62
               7
100
AcDbVertex
100
AcDb2dVertex
 10
30.140266599999993
 20
-126.96293509999997
 30
0.0
  0
SEQEND
  5
158
100
AcDbEntity
  8
Dimension
370
               5
390
0
  6
Continuous
 62
               7
  0
WIPEOUT
  5
159
100
AcDbEntity
  8
Dimension
370
               5
390
0
  6
Continuous
 62
               7
 92
        0
100
AcDbWipeout
 90
        0
 10
37.57199159999999
 20
5.5223815999999957
 30
0.0
 11
7.4422000000000015
 21
0.0
 31
0.0
 12
0.0
 22
7.4422000000000015
 32
0.0
 13
1.0
 23
1.0
340
0
 70
               7
280
               1
281
              50
282
              50
283
               0
360
0
 71
               2
 91
        5
 14
-0.5
 24
18.074372053962527
 14
0.4999999999999998
 24
18.074372053962527
 14
0.4999999999999998
 24
18.301902219773716
 14
-0.5
 24
18.301902219773716
 14
-0.5
 24
18.074372053962527
  0
POLYLINE
  5
15A
100
AcDbEntity
  8
Dimension
370
               5
390
0
  6
Continuous
 62
               7
100
AcDb2dPolyline
 66
               1
 10
0.0
 20
0.0
 30
0.0
 70
               1
 75
               5
  0
VERTEX
  5
15B
100
AcDbEntity
  8
Dimension
370
               5
390
0
  6
Continuous
 62
               7
100
AcDbVertex
100
AcDb2dVertex
 10
37.57199159999999
 20
-125.26961009999997
 30
0.0
  0
VERTEX
  5
15C
100
AcDbEntity
  8
Dimension
370
               5
390
0
  6
Continuous
 62
               7
100
AcDbVertex
100
AcDb2dVertex
 10
45.01419159999999
 20
-125.26961009999997
 30
0.0
  0
VERTEX
  5
15D
100
AcDbEntity
  8
Dimension
370
               5
390
0
  6
Continuous
 62
               7
100
AcDbVertex
100
AcDb2dVertex
 10
45.01419159999999
 20
-126.96293509999997
 30
0.0
  0
VERTEX
  5
15E
100
AcDbEntity
  8
Dimension
370
               5
390
0
  6
Continuous
 62
               7
100
AcDbVertex
100
AcDb2dVertex
 10
37.57199159999999
 20
-126.96293509999997
 30
0.0
  0
SEQEND
  5
15F
100
AcDbEntity
  8
Dimension
370
               5
390
0
  6
Continuous
 62
               7
  0
WIPEOUT
  5
160
100
AcDbEntity
  8
Dimension
370
               5
390
0
  6
Continuous
 62
               7
 92
        0
100
AcDbWipeout
 90
        0
 10
19.506236599999994
 20
3.8290265999999953
 30
0.0
 11
13.623099999999999
 21
0.0
 31
0.0
 12
0.0
 22
13.623099999999999
 32
0.0
 13
1.0
 23
1.0
340
0
 70
               7
280
               1
281
              50
282
              50
283
               0
360
0
 71
               2
 91
        5
 14
-0.5
 24
10.100748853051066
 14
0.5000000000000002
 24
10.100748853051066
 14
0.5000000000000002
 24
10.225049122446432
 14
-0.5
 24
10.225049122446432
 14
-0.5
 24
10.100748853051066
  0
POLYLINE
  5
161
100
AcDbEntity
  8
Dimension
370
               5
390
0
  6
Continuous
 62
               7
100
AcDb2dPolyline
 66
               1
 10
0.0
 20
0.0
 30
0.0
 70
               1
 75
               5
  0
VERTEX
  5
162
100
AcDbEntity
  8
Dimension
370
               5
390
0
  6
Continuous
 62
               7
100
AcDbVertex
100
AcDb2dVertex
 10
19.506236599999994
 20
-126.96293509999997
 30
0.0
  0
VERTEX
  5
163
100
AcDbEntity
  8
Dimension
370
               5
390
0
  6
Continuous
 62
               7
100
AcDbVertex
100
AcDb2dVertex
 10
33.129336599999995
 20
-126.96293509999997
 30
0.0
  0
VERTEX
  5
164
100
AcDbEntity
  8
Dimension
370
               5
390
0
  6
Continuous
 62
               7
100
AcDbVertex
100
AcDb2dVertex
 10
33.129336599999995
 20
-128.65629009999998
 30
0.0
  0
VERTEX
  5
165
100
AcDbEntity
  8
Dimension
370
               5
390
0
  6
Continuous
 62
               7
100
AcDbVertex
100
AcDb2dVertex
 10
19.506236599999994
 20
-128.65629009999998
 30
0.0
  0
SEQEND
  5
166
100
AcDbEntity
  8
Dimension
370
               5
390
0
  6
Continuous
 62
               7
  0
WIPEOUT
  5
167
100
AcDbEntity
  8
Dimension
370
               5
390
0
  6
Continuous
 62
               7
 92
        0
100
AcDbWipeout
 90
        0
 10
33.129336599999995
 20
3.8290265999999953
 30
0.0
 11
11.884855
 21
0.0
 31
0.0
 12
0.0
 22
11.884855
 32
0.0
 13
1.0
 23
1.0
340
0
 70
               7
280
               1
281
              50
282
              50
283
               0
360
0
 71
               2
 91
        5
 14
-0.5
 24
11.50492700163359
 14
0.4999999999999996
 24
11.50492700163359
 14
0.4999999999999996
 24
11.647407073960933
 14
-0.5
 24
11.647407073960933
 14
-0.5
 24
11.50492700163359
  0
POLYLINE
  5
168
100
AcDbEntity
  8
Dimension
370
               5
390
0
  6
Continuous
 62
               7
100
AcDb2dPolyline
 66
               1
 10
0.0
 20
0.0
 30
0.0
 70
               1
 75
               5
  0
VERTEX
  5
169
100
AcDbEntity
  8
Dimension
370
               5
390
0
  6
Continuous
 62
               7
100
AcDbVertex
100
AcDb2dVertex
 10
33.129336599999995
 20
-126.96293509999997
 30
0.0
  0
VERTEX
  5
16A
100
AcDbEntity
  8
Dimension
370
               5
390
0
  6
Continuous
 62
               7
100
AcDbVertex
100
AcDb2dVertex
 10
45.01419159999999
 20
-126.96293509999997
 30
0.0
  0
VERTEX
  5
16B
100
AcDbEntity
  8
Dimension
370
               5
390
0
  6
Continuous
 62
               7
100
AcDbVertex
100
AcDb2dVertex
 10
45.01419159999999
 20
-128.65629009999998
 30
0.0
  0
VERTEX
  5
16C
100
AcDbEntity
  8
Dimension
370
               5
390
0
  6
Continuous
 62
               7
100
AcDbVertex
100
AcDb2dVertex
 10
33.129336599999995
 20
-128.65629009999998
 30
0.0
  0
SEQEND
  5
16D
100
AcDbEntity
  8
Dimension
370
               5
390
0
  6
Continuous
 62
               7
  0
WIPEOUT
  5
16E
100
AcDbEntity
  8
Dimension
370
               5
390
0
  6
Continuous
 62
               7
 92
        0
100
AcDbWipeout
 90
        0
 10
33.129336599999995
 20
2.1357065999999953
 30
0.0
 11
11.884855
 21
0.0
 31
0.0
 12
0.0
 22
11.884855
 32
0.0
 13
1.0
 23
1.0
340
0
 70
               7
280
               1
281
              50
282
              50
283
               0
360
0
 71
               2
 91
        5
 14
-0.5
 24
11.504929946558033
 14
0.4999999999999996
 24
11.504929946558033
 14
0.4999999999999996
 24
11.647407073960933
 14
-0.5
 24
11.647407073960933
 14
-0.5
 24
11.504929946558033
  0
POLYLINE
  5
16F
100
AcDbEntity
  8
Dimension
370
               5
390
0
  6
Continuous
 62
               7
100
AcDb2dPolyline
 66
               1
 10
0.0
 20
0.0
 30
0.0
 70
               1
 75
               5
  0
VERTEX
  5
170
100
AcDbEntity
  8
Dimension
370
               5
390
0
  6
Continuous
 62
               7
100
AcDbVertex
100
AcDb2dVertex
 10
33.129336599999995
 20
-128.65629009999998
 30
0.0
  0
VERTEX
  5
171
100
AcDbEntity
  8
Dimension
370
               5
390
0
  6
Continuous
 62
               7
100
AcDbVertex
100
AcDb2dVertex
 10
45.01419159999999
 20
-128.65629009999998
 30
0.0
  0
VERTEX
  5
172
100
AcDbEntity
  8
Dimension
370
               5
390
0
  6
Continuous
 62
               7
100
AcDbVertex
100
AcDb2dVertex
 10
45.01419159999999
 20
-130.34961009999998
 30
0.0
  0
VERTEX
  5
173
100
AcDbEntity
  8
Dimension
370
               5
390
0
  6
Continuous
 62
               7
100
AcDbVertex
100
AcDb2dVertex
 10
33.129336599999995
 20
-130.34961009999998
 30
0.0
  0
SEQEND
  5
174
100
AcDbEntity
  8
Dimension
370
               5
390
0
  6
Continuous
 62
               7
  0
WIPEOUT
  5
175
100
AcDbEntity
  8
Dimension
370
               5
390
0
  6
Continuous
 62
               7
 92
        0
100
AcDbWipeout
 90
        0
 10
19.506236599999994
 20
2.1357065999999953
 30
0.0
 11
13.623099999999999
 21
0.0
 31
0.0
 12
0.0
 22
13.623099999999999
 32
0.0
 13
1.0
 23
1.0
340
0
 70
               7
280
               1
281
              50
282
              50
283
               0
360
0
 71
               2
 91
        5
 14
-0.5
 24
10.100751422216675
 14
0.5000000000000002
 24
10.100751422216675
 14
0.5000000000000002
 24
10.225049122446432
 14
-0.5
 24
10.225049122446432
 14
-0.5
 24
10.100751422216675
  0
POLYLINE
  5
176
100
AcDbEntity
  8
Dimension
370
               5
390
0
  6
Continuous
 62
               7
100
AcDb2dPolyline
 66
               1
 10
0.0
 20
0.0
 30
0.0
 70
               1
 75
               5
  0
VERTEX
  5
177
100
AcDbEntity
  8
Dimension
370
               5
390
0
  6
Continuous
 62
               7
100
AcDbVertex
100
AcDb2dVertex
 10
19.506236599999994
 20
-128.65629009999998
 30
0.0
  0
VERTEX
  5
178
100
AcDbEntity
  8
Dimension
370
               5
390
0
  6
Continuous
 62
               7
100
AcDbVertex
100
AcDb2dVertex
 10
33.129336599999995
 20
-128.65629009999998
 30
0.0
  0
VERTEX
  5
179
100
AcDbEntity
  8
Dimension
370
               5
390
0
  6
Continuous
 62
               7
100
AcDbVertex
100
AcDb2dVertex
 10
33.129336599999995
 20
-130.34961009999998
 30
0.0
  0
VERTEX
  5
17A
100
AcDbEntity
  8
Dimension
370
               5
390
0
  6
Continuous
 62
               7
100
AcDbVertex
100
AcDb2dVertex
 10
19.506236599999994
 20
-130.34961009999998
 30
0.0
  0
SEQEND
  5
17B
100
AcDbEntity
  8
Dimension
370
               5
390
0
  6
Continuous
 62
               7
  0
MTEXT
  5
17C
100
AcDbEntity
  8
None
390
0
 62
               7
100
AcDbMText
 10
20.141236599999992
 20
-125.7437335114583
 30
0.0
 40
0.6108365885416666
 41
0.0
 71
               1
 72
               1
  1
Status: Released
  7
Helvetica
 73
               1
 44
0.9673603504928806
  0
MTEXT
  5
17D
100
AcDbEntity
  8
None
390
0
 62
               7
100
AcDbMText
 10
20.141236599999992
 20
-127.44094531874997
 30
0.0
 40
0.6204257812499999
 41
0.0
 71
               1
 72
               1
  1
Drawing: H. Hansenen
  7
Helvetica
 73
               1
 44
0.9673603504928806
  0
WIPEOUT
  5
17E
100
AcDbEntity
  8
None
370
               5
390
0
  6
Continuous
 62
               7
 92
        0
100
AcDbWipeout
 90
        0
 10
30.775266599999995
 20
5.9618310999999977
 30
0.0
 11
3.8114349630143911
 21
0.0
 31
0.0
 12
0.0
 22
3.8114349630143911
 32
0.0
 13
1.0
 23
1.0
340
0
 70
               7
280
               1
281
              50
282
              50
283
               0
360
0
 71
               2
 91
        5
 14
-0.5
 24
35.259957335129201
 14
0.5000000000000002
 24
35.259957335129201
 14
0.5000000000000002
 24
35.002686645870348
 14
-0.5
 24
35.002686645870348
 14
-0.5
 24
35.259957335129201
  0
MTEXT
  5
17F
100
AcDbEntity
  8
None
390
0
 62
               7
100
AcDbMText
 10
30.775266599999995
 20
-125.69968203229163
 30
0.0
 40
0.6106360677083332
 41
0.0
 71
               1
 72
               1
  1
Scale: 4:1
  7
Helvetica
 73
               1
 44
0.9673603504928808
  0
MTEXT
  5
180
100
AcDbEntity
  8
None
390
0
 62
               7
100
AcDbMText
 10
33.764336599999993
 20
-127.57939851145831
 30
0.0
 40
0.6108365885416666
 41
0.0
 71
               1
 72
               1
  1
Date: 11/26/01
  7
Helvetica
 73
               1
 44
0.9673603504928806
  0
MTEXT
  5
181
100
AcDbEntity
  8
None
390
0
 62
               7
100
AcDbMText
 10
20.141236599999992
 20
-129.28040096718746
 30
0.0
 40
0.5040986328124999
 41
13.623094999999999
 71
               1
 72
               1
  1
File: SG-BGA-6021 Dwg.mcd
  7
Helvetica
 73
               1
 44
0.9673603504928809
  0
WIPEOUT
  5
182
100
AcDbEntity
  8
Dimension
370
               5
390
0
  6
Continuous
 62
               7
 92
        0
100
AcDbWipeout
 90
        0
 10
-5.7985134000000009
 20
2.1357065999999953
 30
0.0
 11
25.304749999999995
 21
0.0
 31
0.0
 12
0.0
 22
25.304749999999995
 32
0.0
 13
1.0
 23
1.0
340
0
 70
               7
280
               1
281
              50
282
              50
283
               0
360
0
 71
               2
 91
        5
 14
-0.5
 24
5.6017552712435412
 14
0.5
 24
5.6017552712435412
 14
0.5
 24
5.7355908159535263
 14
-0.5
 24
5.7355908159535263
 14
-0.5
 24
5.6017552712435412
  0
POLYLINE
  5
183
100
AcDbEntity
  8
Dimension
370
               5
390
0
  6
Continuous
 62
               7
100
AcDb2dPolyline
 66
               1
 10
0.0
 20
0.0
 30
0.0
 70
               1
 75
               5
  0
VERTEX
  5
184
100
AcDbEntity
  8
Dimension
370
               5
390
0
  6
Continuous
 62
               7
100
AcDbVertex
100
AcDb2dVertex
 10
-5.7985134000000009
 20
-126.96293509999997
 30
0.0
  0
VERTEX
  5
185
100
AcDbEntity
  8
Dimension
370
               5
390
0
  6
Continuous
 62
               7
100
AcDbVertex
100
AcDb2dVertex
 10
19.506236599999994
 20
-126.96293509999997
 30
0.0
  0
VERTEX
  5
186
100
AcDbEntity
  8
Dimension
370
               5
390
0
  6
Continuous
 62
               7
100
AcDbVertex
100
AcDb2dVertex
 10
19.506236599999994
 20
-130.34961009999998
 30
0.0
  0
VERTEX
  5
187
100
AcDbEntity
  8
Dimension
370
               5
390
0
  6
Continuous
 62
               7
100
AcDbVertex
100
AcDb2dVertex
 10
-5.7985134000000009
 20
-130.34961009999998
 30
0.0
  0
SEQEND
  5
188
100
AcDbEntity
  8
Dimension
370
               5
390
0
  6
Continuous
 62
               7
  0
WIPEOUT
  5
189
100
AcDbEntity
  8
Dimension
370
               5
390
0
  6
Continuous
 62
               7
 92
        0
100
AcDbWipeout
 90
        0
 10
-5.7985134000000009
 20
5.5223815999999957
 30
0.0
 11
25.304749999999995
 21
0.0
 31
0.0
 12
0.0
 22
25.304749999999995
 32
0.0
 13
1.0
 23
1.0
340
0
 70
               7
280
               1
281
              50
282
              50
283
               0
360
0
 71
               2
 91
        5
 14
-0.5
 24
5.6686735375769359
 14
0.5
 24
5.6686735375769359
 14
0.5
 24
5.7355908159535263
 14
-0.5
 24
5.7355908159535263
 14
-0.5
 24
5.6686735375769359
  0
POLYLINE
  5
18A
100
AcDbEntity
  8
Dimension
370
               5
390
0
  6
Continuous
 62
               7
100
AcDb2dPolyline
 66
               1
 10
0.0
 20
0.0
 30
0.0
 70
               1
 75
               5
  0
VERTEX
  5
18B
100
AcDbEntity
  8
Dimension
370
               5
390
0
  6
Continuous
 62
               7
100
AcDbVertex
100
AcDb2dVertex
 10
-5.7985134000000009
 20
-125.26961009999997
 30
0.0
  0
VERTEX
  5
18C
100
AcDbEntity
  8
Dimension
370
               5
390
0
  6
Continuous
 62
               7
100
AcDbVertex
100
AcDb2dVertex
 10
19.506236599999994
 20
-125.26961009999997
 30
0.0
  0
VERTEX
  5
18D
100
AcDbEntity
  8
Dimension
370
               5
390
0
  6
Continuous
 62
               7
100
AcDbVertex
100
AcDb2dVertex
 10
19.506236599999994
 20
-126.96293509999997
 30
0.0
  0
VERTEX
  5
18E
100
AcDbEntity
  8
Dimension
370
               5
390
0
  6
Continuous
 62
               7
100
AcDbVertex
100
AcDb2dVertex
 10
-5.7985134000000009
 20
-126.96293509999997
 30
0.0
  0
SEQEND
  5
18F
100
AcDbEntity
  8
Dimension
370
               5
390
0
  6
Continuous
 62
               7
  0
MTEXT
  5
190
100
AcDbEntity
  8
None
390
0
 62
               7
100
AcDbMText
 10
6.8538615999999948
 20
-125.7169039895833
 30
0.0
 40
0.7367565104166665
 41
0.0
 71
               2
 72
               1
  1
SG-BGA-6021 Drawing
  7
Helvetica (bold)
 73
               1
 44
0.9925958378970426
  0
MTEXT
  5
191
100
AcDbEntity
  8
None
390
0
 62
               7
100
AcDbMText
 10
8.5419965999999938
 20
-127.06109574843747
 30
0.0
 40
0.5024228515624999
 41
18.369139999999998
 71
               2
 72
               1
  1
© 2001 IRONWOOD ELECTRONICS, INC.\PPO BOX 21151 ST. PAUL, MN  55121\PTele: (651) 452-8100\Pwww.ironwoodelectronics.com
  7
Helvetica
 73
               1
 44
0.9673603504928806
  0
INSERT
  5
192
100
AcDbEntity
  8
None
390
0
 62
               7
100
AcDbBlockReference
  2
IE i logo
 10
-3.0912034000000048
 20
-128.62981009999999
 30
0.0
 41
0.5
 42
0.5
 43
0.5
  0
MTEXT
  5
193
100
AcDbEntity
  8
None
390
0
 62
               7
100
AcDbMText
 10
38.487325282385221
 20
-125.77158726874998
 30
0.0
 40
0.6204257812499999
 41
0.0
 71
               1
 72
               1
  1
Rev: E
  7
Arial
 73
               1
 44
0.9673603504928806
  0
MTEXT
  5
194
100
AcDbEntity
  8
None
390
0
 62
               7
100
AcDbMText
 10
34.044670282385226
 20
-129.25947751354167
 30
0.0
 40
0.5041165364583332
 41
0.0
 71
               1
 72
               1
  1
Modified: 4/3/06, MT
  7
Arial
 73
               1
 44
0.9673603504928806
  0
WIPEOUT
  5
195
100
AcDbEntity
  8
None
370
              15
390
0
  6
Continuous
 62
               1
 92
        0
100
AcDbWipeout
 90
        0
 10
44.207171599999995
 20
18.985179099999993
 30
0.0
 11
5.1276252826054893
 21
0.0
 31
0.0
 12
0.0
 22
5.1276252826054893
 32
0.0
 13
1.0
 23
1.0
340
0
 70
               7
280
               1
281
              50
282
              50
283
               0
360
0
 71
               2
 91
        5
 14
-0.5
 24
26.337558206414119
 14
0.4999999999999993
 24
26.337558206414119
 14
0.4999999999999993
 24
26.159539640374092
 14
-0.5
 24
26.159539640374092
 14
-0.5
 24
26.337558206414119
  0
MTEXT
  5
196
100
AcDbEntity
  8
None
390
0
 62
               1
100
AcDbMText
 10
44.207171599999995
 20
-112.73325934479163
 30
0.0
 40
0.5684407552083333
 41
0.0
 71
               1
 72
               1
  1
Mounting Hole
  7
New Century Schlbk
 73
               1
 44
0.9673603504928806
  0
WIPEOUT
  5
197
100
AcDbEntity
  8
None
370
              15
390
0
  6
Continuous
 62
               1
 92
        0
100
AcDbWipeout
 90
        0
 10
45.223941599999989
 20
29.425829099999994
 30
0.0
 11
5.3975000672870195
 21
0.0
 31
0.0
 12
0.0
 22
5.3975000672870195
 32
0.0
 13
1.0
 23
1.0
340
0
 70
               7
280
               1
281
              50
282
              50
283
               0
360
0
 71
               2
 91
        5
 14
-0.5
 24
25.04568134291695
 14
0.5000000000000013
 24
25.04568134291695
 14
0.5000000000000013
 24
24.8765636979664
 14
-0.5
 24
24.8765636979664
 14
-0.5
 24
25.04568134291695
  0
MTEXT
  5
198
100
AcDbEntity
  8
None
390
0
 62
               1
100
AcDbMText
 10
45.223941599999989
 20
-102.29260934479164
 30
0.0
 40
0.5684407552083333
 41
0.0
 71
               1
 72
               1
  1
Alignment Hole
  7
New Century Schlbk
 73
               1
 44
0.9673603504928806
  0
CIRCLE
  5
199
102
{ACAD_REACTORS
330
19A
102
}
100
AcDbEntity
  8
None
370
              15
390
0
  6
Continuous
 62
             180
100
AcDbCircle
 10
22.891201599999995
 20
-96.211925099999974
 30
0.0
 40
0.2500014851955876
  0
HATCH
  5
19A
100
AcDbEntity
  8
None
370
               0
390
0
  6
Continuous
 62
             180
100
AcDbHatch
 10
0.0
 20
0.0
 30
0.0
210
0.0
220
0.0
230
1.0
  2
SOLID
 70
               1
 71
               1
 91
        1
 92
        1
 93
        1
 72
               2
 10
22.891201599999995
 20
-96.211925099999974
 40
0.2500014851955876
 50
0.0
 51
360.0
 73
               0
 97
        1
330
199
 75
               0
 76
               1
 98
        1
 10
0.0
 20
0.0
  0
WIPEOUT
  5
19B
100
AcDbEntity
  8
None
370
              15
390
0
  6
Continuous
 62
               1
 92
        0
100
AcDbWipeout
 90
        0
 10
4.1041315999999952
 20
41.725319099999993
 30
0.0
 11
5.881687715318467
 21
0.0
 31
0.0
 12
0.0
 22
5.881687715318467
 32
0.0
 13
1.0
 23
1.0
340
0
 70
               7
280
               1
281
              50
282
              50
283
               0
360
0
 71
               2
 91
        5
 14
-0.5
 24
23.025051160902461
 14
0.5
 24
23.025051160902461
 14
0.5
 24
22.869855485072435
 14
-0.5
 24
22.869855485072435
 14
-0.5
 24
23.025051160902461
  0
MTEXT
  5
19C
100
AcDbEntity
  8
None
390
0
 62
               1
100
AcDbMText
 10
4.1041315999999952
 20
-89.993119344791637
 30
0.0
 40
0.5684407552083333
 41
0.0
 71
               1
 72
               1
  1
Orientation Mark
  7
New Century Schlbk
 73
               1
 44
0.9673603504928806
  0
LINE
  5
19D
100
AcDbEntity
  8
None
370
              15
390
0
  6
Continuous
 62
               1
100
AcDbLine
 10
23.073341599999992
 20
-95.93500509999997
 30
0.0
 11
18.320001599999994
 21
-90.210005099999975
 31
0.0
  0
SOLID
  5
19E
100
AcDbEntity
  8
None
370
              15
390
0
 62
               1
100
AcDbTrace
 10
23.073341599999992
 20
-95.93500509999997
 30
0.0
 11
22.647772247892711
 21
-95.625810867078343
 31
0.0
 12
22.859384846463815
 22
-95.454450363532558
 32
0.0
 13
22.859384846463815
 23
-95.454450363532558
 33
0.0
  0
LINE
  5
19F
100
AcDbEntity
  8
None
370
              15
390
0
  6
Continuous
 62
               1
100
AcDbLine
 10
18.320001599999994
 20
-90.210005099999975
 30
0.0
 11
10.623341599999996
 21
-90.210005099999975
 31
0.0
  0
LINE
  5
1A0
100
AcDbEntity
  8
None
370
              15
390
0
  6
STYLE_12
 62
             200
100
AcDbLine
 10
27.628701599999992
 20
-119.81192509999997
 30
0.0
 11
27.628701599999992
 21
-85.486925099999979
 31
0.0
  0
LINE
  5
1A1
100
AcDbEntity
  8
None
370
              15
390
0
  6
STYLE_12
 62
             200
100
AcDbLine
 10
10.466201599999994
 20
-102.64942509999997
 30
0.0
 11
44.791201599999994
 21
-102.64942509999997
 31
0.0
  0
DIMENSION
  5
1A2
100
AcDbEntity
  8
Dimension
370
               5
390
0
  6
Continuous
 62
               1
100
AcDbDimension
  2
*D3
 10
21.266201599999995
 20
-88.210005099999975
 30
0.0
 11
16.020001599999993
 21
-88.210005099999975
 31
0.0
 70
             128
 71
               5
 72
               1
 41
1.0
 42
0.0
  3
IE Standard
100
AcDbAlignedDimension
 13
20.016201599999995
 23
-95.036925099999976
 33
0.0
 14
21.266201599999995
 24
-96.286925099999976
 34
0.0
100
AcDbRotatedDimension
1001
ACAD
1000
DSTYLE
1002
{
1070
             340
1005
33
1070
              71
1070
               1
1070
              47
1040
0.13
1070
              48
1040
0.13
1070
               3
1000
<>mm(x4)
1070
             174
1070
               0
1070
             147
1040
0.09921875
1002
}
  0
DIMENSION
  5
1A3
100
AcDbEntity
  8
Dimension
370
               5
390
0
  6
Continuous
 62
               1
100
AcDbDimension
  2
*D4
 10
9.1175015999999935
 20
-95.036925099999976
 30
0.0
 11
9.1175015999999935
 21
-92.460005099999975
 31
0.0
 70
             128
 71
               5
 72
               1
 41
1.0
 42
0.0
  3
IE Standard
100
AcDbAlignedDimension
 13
21.266201599999995
 23
-96.286925099999976
 33
0.0
 14
20.016201599999995
 24
-95.036925099999976
 34
0.0
 50
90.0
100
AcDbRotatedDimension
1001
ACAD
1000
DSTYLE
1002
{
1070
             340
1005
33
1070
              71
1070
               1
1070
              47
1040
0.13
1070
              48
1040
0.13
1070
               3
1000
<>mm(x4)
1070
             174
1070
               0
1070
             147
1040
0.09921875
1002
}
  0
DIMENSION
  5
1A4
100
AcDbEntity
  8
Dimension
370
               5
390
0
  6
Continuous
 62
               1
100
AcDbDimension
  2
*D5
 10
4.4700015999999962
 20
-95.036925099999976
 30
0.0
 11
4.4700015999999962
 21
-102.25332791677243
 31
0.0
 70
             128
 71
               5
 72
               1
 41
1.0
 42
0.0
  3
IE Standard
100
AcDbAlignedDimension
 13
20.016201599999995
 23
-110.26192509999997
 33
0.0
 14
20.016201599999995
 24
-95.036925099999976
 34
0.0
 50
90.0
100
AcDbRotatedDimension
1001
ACAD
1000
DSTYLE
1002
{
1070
             271
1070
               3
1070
             340
1005
33
1070
              71
1070
               1
1070
              47
1040
0.125
1070
              48
1040
0.125
1070
               3
1000
<>mm(x4)
1070
             147
1040
0.09921875
1002
}
  0
DIMENSION
  5
1A5
100
AcDbEntity
  8
Dimension
370
               5
390
0
  6
Continuous
 62
               1
100
AcDbDimension
  2
*D6
 10
16.563961599999992
 20
-109.01192509999997
 30
0.0
 11
16.563961599999992
 21
-105.90358769765622
 31
0.0
 70
             128
 71
               5
 72
               1
 41
1.0
 42
0.0
  3
IE Standard
100
AcDbAlignedDimension
 13
21.266201599999995
 23
-103.93192509999997
 33
0.0
 14
21.266201599999995
 24
-109.01192509999997
 34
0.0
 50
90.0
100
AcDbRotatedDimension
1001
ACAD
1000
DSTYLE
1002
{
1070
             340
1005
33
1070
             147
1040
0.09921875
1002
}
  0
DIMENSION
  5
1A6
100
AcDbEntity
  8
Dimension
370
               5
390
0
  6
Continuous
 62
               1
100
AcDbDimension
  2
*D7
 10
21.266201599999995
 20
-113.76000509999997
 30
0.0
 11
27.628701599999992
 21
-113.76000509999997
 31
0.0
 70
             128
 71
               5
 72
               1
 41
1.0
 42
0.0
  3
IE Standard
100
AcDbAlignedDimension
 13
33.991201599999997
 23
-109.01192509999997
 33
0.0
 14
21.266201599999995
 24
-109.01192509999997
 34
0.0
100
AcDbRotatedDimension
1001
ACAD
1000
DSTYLE
1002
{
1070
             271
1070
               3
1070
             340
1005
33
1070
               3
1000
<>mm(x4)
1070
             147
1040
0.09921875
1002
}
  0
DIMENSION
  5
1A7
100
AcDbEntity
  8
Dimension
370
               5
390
0
  6
Continuous
 62
               1
100
AcDbDimension
  2
*D8
 10
29.603701599999994
 20
-93.460005099999975
 30
0.0
 11
32.670001599999992
 21
-93.460005099999975
 31
0.0
 70
             128
 71
               5
 72
               1
 41
1.0
 42
0.0
  3
IE Standard
100
AcDbAlignedDimension
 13
30.403701599999994
 23
-98.649425099999974
 33
0.0
 14
29.603701599999994
 24
-98.649425099999974
 34
0.0
100
AcDbRotatedDimension
1001
ACAD
1000
DSTYLE
1002
{
1070
             340
1005
33
1070
               3
1000
<>mm typ.
1070
             174
1070
               0
1070
             147
1040
0.09921875
1002
}
  0
DIMENSION
  5
1A8
100
AcDbEntity
  8
Dimension
370
               5
390
0
  6
Continuous
 62
               1
100
AcDbDimension
  2
*D9
 10
33.271711599999989
 20
-108.65087509999998
 30
0.0
 11
40.270003936673803
 21
-111.40999549165431
 31
0.0
 70
               3
 71
               5
 72
               1
 41
1.0
 42
0.0
  3
IE Standard
100
AcDbDiametricDimension
 15
34.71069159999999
 25
-109.37297509999998
 35
0.0
 40
4.5417499999999995
1001
ACAD
1000
DSTYLE
1002
{
1070
             172
1070
               0
1070
             289
1070
               0
1070
             342
1005
4C
1070
             340
1005
33
1070
              75
1070
               1
1070
              76
1070
               1
1070
              71
1070
               1
1070
              47
1040
0.05
1070
              48
1040
0.05
1070
               3
1000
mm(x4)
1070
             174
1070
               0
1070
             147
1040
0.09921875
1002
}
  0
POLYLINE
  5
1A9
100
AcDbEntity
  8
None
370
               9
390
0
  6
STYLE_10
 62
               7
100
AcDb2dPolyline
 66
               1
 10
0.0
 20
0.0
 30
0.0
 70
               1
 75
               5
  0
VERTEX
  5
1AA
100
AcDbEntity
  8
None
370
               9
390
0
  6
STYLE_10
 62
               7
100
AcDbVertex
100
AcDb2dVertex
 10
20.016201599999995
 20
-95.036925099999976
 30
0.0
  0
VERTEX
  5
1AB
100
AcDbEntity
  8
None
370
               9
390
0
  6
STYLE_10
 62
               7
100
AcDbVertex
100
AcDb2dVertex
 10
35.241201599999997
 20
-95.036925099999976
 30
0.0
  0
VERTEX
  5
1AC
100
AcDbEntity
  8
None
370
               9
390
0
  6
STYLE_10
 62
               7
100
AcDbVertex
100
AcDb2dVertex
 10
35.241201599999997
 20
-110.26192509999997
 30
0.0
  0
VERTEX
  5
1AD
100
AcDbEntity
  8
None
370
               9
390
0
  6
STYLE_10
 62
               7
100
AcDbVertex
100
AcDb2dVertex
 10
20.016201599999995
 20
-110.26192509999997
 30
0.0
  0
SEQEND
  5
1AE
100
AcDbEntity
  8
None
370
               9
390
0
  6
STYLE_10
 62
               7
  0
DIMENSION
  5
1AF
100
AcDbEntity
  8
Dimension
370
               5
390
0
  6
Continuous
 62
               1
100
AcDbDimension
  2
*D10
 10
33.619121599999993
 20
-98.621555099999966
 30
0.0
 11
39.870010036860798
 21
-101.24381529668234
 31
0.0
 70
               3
 71
               5
 72
               1
 41
1.0
 42
0.0
  3
IE Standard
100
AcDbDiametricDimension
 15
34.363281599999993
 25
-99.03229509999997
 35
0.0
 40
4.5765399999999996
1001
ACAD
1000
DSTYLE
1002
{
1070
             271
1070
               3
1070
             172
1070
               0
1070
             289
1070
               0
1070
             342
1005
4C
1070
             340
1005
33
1070
              75
1070
               1
1070
              76
1070
               1
1070
              71
1070
               1
1070
              47
1040
0.025
1070
              48
1040
0.025
1070
               3
1000
mm(x2)
1070
             174
1070
               0
1070
             147
1040
0.09921875
1002
}
  0
DIMENSION
  5
1B0
100
AcDbEntity
  8
Dimension
370
              15
390
0
  6
Continuous
 62
               1
100
AcDbDimension
  2
*D11
 10
31.850201599999991
 20
-101.75540509999998
 30
0.0
 11
39.969963142334926
 21
-105.81006478784504
 31
0.0
 70
               3
 71
               5
 72
               1
 41
1.0
 42
0.0
  3
IE Standard
100
AcDbDiametricDimension
 15
32.157201599999993
 25
-101.94344509999998
 35
0.0
 40
7.4028199999999993
1001
ACAD
1000
DSTYLE
1002
{
1070
             271
1070
               3
1070
             172
1070
               0
1070
             289
1070
               0
1070
             342
1005
4C
1070
             340
1005
33
1070
              75
1070
               1
1070
              76
1070
               1
1070
               3
1000
mmxPAD
1070
             174
1070
               0
1070
             147
1040
0.09921875
1002
}
  0
DIMENSION
  5
1B1
100
AcDbEntity
  8
Dimension
370
              15
390
0
  6
Continuous
 62
               1
100
AcDbDimension
  2
*D12
 10
21.266201599999995
 20
-91.360005099999967
 30
0.0
 11
25.370001599999995
 21
-91.360005099999967
 31
0.0
 70
             128
 71
               5
 72
               1
 41
1.0
 42
0.0
  3
IE Standard
100
AcDbAlignedDimension
 13
24.003701599999992
 23
-98.649425099999974
 33
0.0
 14
21.266201599999995
 24
-96.286925099999976
 34
0.0
100
AcDbRotatedDimension
1001
ACAD
1000
DSTYLE
1002
{
1070
             271
1070
               4
1070
             340
1005
33
1070
             174
1070
               0
1070
             147
1040
0.09921875
1002
}
  0
WIPEOUT
  5
1B2
100
AcDbEntity
  8
None
370
              15
390
0
  6
Continuous
 62
               1
 92
        0
100
AcDbWipeout
 90
        0
 10
5.3980715999999944
 20
28.935529099999993
 30
0.0
 11
4.064000161488849
 21
0.0
 31
0.0
 12
0.0
 22
4.064000161488849
 32
0.0
 13
1.0
 23
1.0
340
0
 70
               7
280
               1
281
              50
282
              50
283
               0
360
0
 71
               2
 91
        5
 14
-0.5
 24
33.099732144563667
 14
0.5
 24
33.099732144563667
 14
0.5
 24
32.875122778488844
 14
-0.5
 24
32.875122778488844
 14
-0.5
 24
33.099732144563667
  0
MTEXT
  5
1B3
100
AcDbEntity
  8
None
390
0
 62
               1
100
AcDbMText
 10
5.3980715999999944
 20
-102.78290934479163
 30
0.0
 40
0.5684407552083333
 41
0.0
 71
               1
 72
               1
  1
Socket size
  7
New Century Schlbk
 73
               1
 44
0.9673603504928806
  0
CIRCLE
  5
1B4
100
AcDbEntity
  8
None
370
               9
390
0
  6
Continuous
 62
               7
100
AcDbCircle
 10
21.266201599999995
 20
-96.286925099999976
 30
0.0
 40
0.8050000000000006
  0
DIMENSION
  5
1B5
100
AcDbEntity
  8
Dimension
370
              15
390
0
  6
Continuous
 62
               1
100
AcDbDimension
  2
*D13
 10
39.270001599999993
 20
-96.286925099999976
 30
0.0
 11
39.270001599999993
 21
-97.559986928613256
 31
0.0
 70
             128
 71
               5
 72
               1
 41
1.0
 42
0.0
  3
IE Standard
100
AcDbAlignedDimension
 13
33.991201599999997
 23
-98.826925099999968
 33
0.0
 14
33.991201599999997
 24
-96.286925099999976
 34
0.0
 50
90.0
100
AcDbRotatedDimension
1001
ACAD
1000
DSTYLE
1002
{
1070
             340
1005
33
1070
             147
1040
0.09921875
1002
}
  0
DIMENSION
  5
1B6
100
AcDbEntity
  8
Dimension
370
              15
390
0
  6
Continuous
 62
               1
100
AcDbDimension
  2
*D14
 10
15.770001599999993
 20
-96.286925099999976
 30
0.0
 11
15.770001599999993
 21
-97.468175099999968
 31
0.0
 70
             128
 71
               5
 72
               1
 41
1.0
 42
0.0
  3
IE Standard
100
AcDbAlignedDimension
 13
24.003701599999992
 23
-98.649425099999974
 33
0.0
 14
21.266201599999995
 24
-96.286925099999976
 34
0.0
 50
90.0
100
AcDbRotatedDimension
1001
ACAD
1000
DSTYLE
1002
{
1070
             271
1070
               4
1070
             340
1005
33
1070
               3
1000
<>mm(x4)
1070
             147
1040
0.09921875
1002
}
  0
CIRCLE
  5
1B7
102
{ACAD_REACTORS
330
1B8
102
}
100
AcDbEntity
  8
None
370
              15
390
0
  6
Continuous
 62
               7
100
AcDbCircle
 10
28.003701599999992
 20
-102.64942509999997
 30
0.0
 40
0.1799982336024441
  0
HATCH
  5
1B8
100
AcDbEntity
  8
None
370
               0
390
0
  6
Continuous
 62
               7
100
AcDbHatch
 10
0.0
 20
0.0
 30
0.0
210
0.0
220
0.0
230
1.0
  2
SOLID
 70
               1
 71
               1
 91
        1
 92
        1
 93
        1
 72
               2
 10
28.003701599999992
 20
-102.64942509999997
 40
0.1799982336024441
 50
0.0
 51
360.0
 73
               0
 97
        1
330
1B7
 75
               0
 76
               1
 98
        1
 10
0.0
 20
0.0
  0
CIRCLE
  5
1B9
100
AcDbEntity
  8
None
370
               5
390
0
  6
Continuous
 62
               7
100
AcDbCircle
 10
33.991201599999997
 20
-98.826925099999968
 30
0.0
 40
0.4249999999999998
  0
CIRCLE
  5
1BA
100
AcDbEntity
  8
None
370
               9
390
0
  6
Continuous
 62
               7
100
AcDbCircle
 10
33.991201599999997
 20
-96.286925099999976
 30
0.0
 40
0.8050000000000006
  0
CIRCLE
  5
1BB
100
AcDbEntity
  8
None
370
               9
390
0
  6
Continuous
 62
               7
100
AcDbCircle
 10
33.991201599999997
 20
-109.01192509999997
 30
0.0
 40
0.8050000000000006
  0
CIRCLE
  5
1BC
100
AcDbEntity
  8
None
370
               5
390
0
  6
Continuous
 62
               7
100
AcDbCircle
 10
21.266201599999995
 20
-103.93192509999997
 30
0.0
 40
0.425
  0
CIRCLE
  5
1BD
100
AcDbEntity
  8
None
370
               9
390
0
  6
Continuous
 62
               7
100
AcDbCircle
 10
21.266201599999995
 20
-109.01192509999997
 30
0.0
 40
0.8050000000000006
  0
CIRCLE
  5
1BE
102
{ACAD_REACTORS
330
1BF
102
}
100
AcDbEntity
  8
None
370
              15
390
0
  6
Continuous
 62
               7
100
AcDbCircle
 10
28.803701599999993
 20
-102.64942509999997
 30
0.0
 40
0.1799982336024443
  0
HATCH
  5
1BF
100
AcDbEntity
  8
None
370
               0
390
0
  6
Continuous
 62
               7
100
AcDbHatch
 10
0.0
 20
0.0
 30
0.0
210
0.0
220
0.0
230
1.0
  2
SOLID
 70
               1
 71
               1
 91
        1
 92
        1
 93
        1
 72
               2
 10
28.803701599999993
 20
-102.64942509999997
 40
0.1799982336024443
 50
0.0
 51
360.0
 73
               0
 97
        1
330
1BE
 75
               0
 76
               1
 98
        1
 10
0.0
 20
0.0
  0
CIRCLE
  5
1C0
102
{ACAD_REACTORS
330
1C1
102
}
100
AcDbEntity
  8
None
370
              15
390
0
  6
Continuous
 62
               7
100
AcDbCircle
 10
29.603701599999994
 20
-102.64942509999997
 30
0.0
 40
0.1799982336024443
  0
HATCH
  5
1C1
100
AcDbEntity
  8
None
370
               0
390
0
  6
Continuous
 62
               7
100
AcDbHatch
 10
0.0
 20
0.0
 30
0.0
210
0.0
220
0.0
230
1.0
  2
SOLID
 70
               1
 71
               1
 91
        1
 92
        1
 93
        1
 72
               2
 10
29.603701599999994
 20
-102.64942509999997
 40
0.1799982336024443
 50
0.0
 51
360.0
 73
               0
 97
        1
330
1C0
 75
               0
 76
               1
 98
        1
 10
0.0
 20
0.0
  0
CIRCLE
  5
1C2
102
{ACAD_REACTORS
330
1C3
102
}
100
AcDbEntity
  8
None
370
              15
390
0
  6
Continuous
 62
               7
100
AcDbCircle
 10
30.403701599999994
 20
-102.64942509999997
 30
0.0
 40
0.1799982336024438
  0
HATCH
  5
1C3
100
AcDbEntity
  8
None
370
               0
390
0
  6
Continuous
 62
               7
100
AcDbHatch
 10
0.0
 20
0.0
 30
0.0
210
0.0
220
0.0
230
1.0
  2
SOLID
 70
               1
 71
               1
 91
        1
 92
        1
 93
        1
 72
               2
 10
30.403701599999994
 20
-102.64942509999997
 40
0.1799982336024438
 50
0.0
 51
360.0
 73
               0
 97
        1
330
1C2
 75
               0
 76
               1
 98
        1
 10
0.0
 20
0.0
  0
CIRCLE
  5
1C4
102
{ACAD_REACTORS
330
1C5
102
}
100
AcDbEntity
  8
None
370
              15
390
0
  6
Continuous
 62
               7
100
AcDbCircle
 10
31.203701599999992
 20
-102.64942509999997
 30
0.0
 40
0.1799982336024443
  0
HATCH
  5
1C5
100
AcDbEntity
  8
None
370
               0
390
0
  6
Continuous
 62
               7
100
AcDbHatch
 10
0.0
 20
0.0
 30
0.0
210
0.0
220
0.0
230
1.0
  2
SOLID
 70
               1
 71
               1
 91
        1
 92
        1
 93
        1
 72
               2
 10
31.203701599999992
 20
-102.64942509999997
 40
0.1799982336024443
 50
0.0
 51
360.0
 73
               0
 97
        1
330
1C4
 75
               0
 76
               1
 98
        1
 10
0.0
 20
0.0
  0
CIRCLE
  5
1C6
102
{ACAD_REACTORS
330
1C7
102
}
100
AcDbEntity
  8
None
370
              15
390
0
  6
Continuous
 62
               7
100
AcDbCircle
 10
32.003701599999992
 20
-102.64942509999997
 30
0.0
 40
0.1799982336024434
  0
HATCH
  5
1C7
100
AcDbEntity
  8
None
370
               0
390
0
  6
Continuous
 62
               7
100
AcDbHatch
 10
0.0
 20
0.0
 30
0.0
210
0.0
220
0.0
230
1.0
  2
SOLID
 70
               1
 71
               1
 91
        1
 92
        1
 93
        1
 72
               2
 10
32.003701599999992
 20
-102.64942509999997
 40
0.1799982336024434
 50
0.0
 51
360.0
 73
               0
 97
        1
330
1C6
 75
               0
 76
               1
 98
        1
 10
0.0
 20
0.0
  0
CIRCLE
  5
1C8
102
{ACAD_REACTORS
330
1C9
102
}
100
AcDbEntity
  8
None
370
              15
390
0
  6
Continuous
 62
               7
100
AcDbCircle
 10
28.003701599999992
 20
-101.84942509999998
 30
0.0
 40
0.1799982336024441
  0
HATCH
  5
1C9
100
AcDbEntity
  8
None
370
               0
390
0
  6
Continuous
 62
               7
100
AcDbHatch
 10
0.0
 20
0.0
 30
0.0
210
0.0
220
0.0
230
1.0
  2
SOLID
 70
               1
 71
               1
 91
        1
 92
        1
 93
        1
 72
               2
 10
28.003701599999992
 20
-101.84942509999998
 40
0.1799982336024441
 50
0.0
 51
360.0
 73
               0
 97
        1
330
1C8
 75
               0
 76
               1
 98
        1
 10
0.0
 20
0.0
  0
CIRCLE
  5
1CA
102
{ACAD_REACTORS
330
1CB
102
}
100
AcDbEntity
  8
None
370
              15
390
0
  6
Continuous
 62
               7
100
AcDbCircle
 10
28.803701599999993
 20
-101.84942509999998
 30
0.0
 40
0.1799982336024443
  0
HATCH
  5
1CB
100
AcDbEntity
  8
None
370
               0
390
0
  6
Continuous
 62
               7
100
AcDbHatch
 10
0.0
 20
0.0
 30
0.0
210
0.0
220
0.0
230
1.0
  2
SOLID
 70
               1
 71
               1
 91
        1
 92
        1
 93
        1
 72
               2
 10
28.803701599999993
 20
-101.84942509999998
 40
0.1799982336024443
 50
0.0
 51
360.0
 73
               0
 97
        1
330
1CA
 75
               0
 76
               1
 98
        1
 10
0.0
 20
0.0
  0
CIRCLE
  5
1CC
102
{ACAD_REACTORS
330
1CD
102
}
100
AcDbEntity
  8
None
370
              15
390
0
  6
Continuous
 62
               7
100
AcDbCircle
 10
29.603701599999994
 20
-101.84942509999998
 30
0.0
 40
0.1799982336024443
  0
HATCH
  5
1CD
100
AcDbEntity
  8
None
370
               0
390
0
  6
Continuous
 62
               7
100
AcDbHatch
 10
0.0
 20
0.0
 30
0.0
210
0.0
220
0.0
230
1.0
  2
SOLID
 70
               1
 71
               1
 91
        1
 92
        1
 93
        1
 72
               2
 10
29.603701599999994
 20
-101.84942509999998
 40
0.1799982336024443
 50
0.0
 51
360.0
 73
               0
 97
        1
330
1CC
 75
               0
 76
               1
 98
        1
 10
0.0
 20
0.0
  0
CIRCLE
  5
1CE
102
{ACAD_REACTORS
330
1CF
102
}
100
AcDbEntity
  8
None
370
              15
390
0
  6
Continuous
 62
               7
100
AcDbCircle
 10
30.403701599999994
 20
-101.84942509999998
 30
0.0
 40
0.1799982336024438
  0
HATCH
  5
1CF
100
AcDbEntity
  8
None
370
               0
390
0
  6
Continuous
 62
               7
100
AcDbHatch
 10
0.0
 20
0.0
 30
0.0
210
0.0
220
0.0
230
1.0
  2
SOLID
 70
               1
 71
               1
 91
        1
 92
        1
 93
        1
 72
               2
 10
30.403701599999994
 20
-101.84942509999998
 40
0.1799982336024438
 50
0.0
 51
360.0
 73
               0
 97
        1
330
1CE
 75
               0
 76
               1
 98
        1
 10
0.0
 20
0.0
  0
CIRCLE
  5
1D0
102
{ACAD_REACTORS
330
1D1
102
}
100
AcDbEntity
  8
None
370
              15
390
0
  6
Continuous
 62
               7
100
AcDbCircle
 10
31.203701599999992
 20
-101.84942509999998
 30
0.0
 40
0.1799982336024443
  0
HATCH
  5
1D1
100
AcDbEntity
  8
None
370
               0
390
0
  6
Continuous
 62
               7
100
AcDbHatch
 10
0.0
 20
0.0
 30
0.0
210
0.0
220
0.0
230
1.0
  2
SOLID
 70
               1
 71
               1
 91
        1
 92
        1
 93
        1
 72
               2
 10
31.203701599999992
 20
-101.84942509999998
 40
0.1799982336024443
 50
0.0
 51
360.0
 73
               0
 97
        1
330
1D0
 75
               0
 76
               1
 98
        1
 10
0.0
 20
0.0
  0
CIRCLE
  5
1D2
102
{ACAD_REACTORS
330
1D3
102
}
100
AcDbEntity
  8
None
370
              15
390
0
  6
Continuous
 62
               7
100
AcDbCircle
 10
32.003701599999992
 20
-101.84942509999998
 30
0.0
 40
0.1799982336024434
  0
HATCH
  5
1D3
100
AcDbEntity
  8
None
370
               0
390
0
  6
Continuous
 62
               7
100
AcDbHatch
 10
0.0
 20
0.0
 30
0.0
210
0.0
220
0.0
230
1.0
  2
SOLID
 70
               1
 71
               1
 91
        1
 92
        1
 93
        1
 72
               2
 10
32.003701599999992
 20
-101.84942509999998
 40
0.1799982336024434
 50
0.0
 51
360.0
 73
               0
 97
        1
330
1D2
 75
               0
 76
               1
 98
        1
 10
0.0
 20
0.0
  0
CIRCLE
  5
1D4
102
{ACAD_REACTORS
330
1D5
102
}
100
AcDbEntity
  8
None
370
              15
390
0
  6
Continuous
 62
               7
100
AcDbCircle
 10
28.003701599999992
 20
-101.04942509999998
 30
0.0
 40
0.1799982336024441
  0
HATCH
  5
1D5
100
AcDbEntity
  8
None
370
               0
390
0
  6
Continuous
 62
               7
100
AcDbHatch
 10
0.0
 20
0.0
 30
0.0
210
0.0
220
0.0
230
1.0
  2
SOLID
 70
               1
 71
               1
 91
        1
 92
        1
 93
        1
 72
               2
 10
28.003701599999992
 20
-101.04942509999998
 40
0.1799982336024441
 50
0.0
 51
360.0
 73
               0
 97
        1
330
1D4
 75
               0
 76
               1
 98
        1
 10
0.0
 20
0.0
  0
CIRCLE
  5
1D6
102
{ACAD_REACTORS
330
1D7
102
}
100
AcDbEntity
  8
None
370
              15
390
0
  6
Continuous
 62
               7
100
AcDbCircle
 10
28.803701599999993
 20
-101.04942509999998
 30
0.0
 40
0.1799982336024443
  0
HATCH
  5
1D7
100
AcDbEntity
  8
None
370
               0
390
0
  6
Continuous
 62
               7
100
AcDbHatch
 10
0.0
 20
0.0
 30
0.0
210
0.0
220
0.0
230
1.0
  2
SOLID
 70
               1
 71
               1
 91
        1
 92
        1
 93
        1
 72
               2
 10
28.803701599999993
 20
-101.04942509999998
 40
0.1799982336024443
 50
0.0
 51
360.0
 73
               0
 97
        1
330
1D6
 75
               0
 76
               1
 98
        1
 10
0.0
 20
0.0
  0
CIRCLE
  5
1D8
102
{ACAD_REACTORS
330
1D9
102
}
100
AcDbEntity
  8
None
370
              15
390
0
  6
Continuous
 62
               7
100
AcDbCircle
 10
29.603701599999994
 20
-101.04942509999998
 30
0.0
 40
0.1799982336024443
  0
HATCH
  5
1D9
100
AcDbEntity
  8
None
370
               0
390
0
  6
Continuous
 62
               7
100
AcDbHatch
 10
0.0
 20
0.0
 30
0.0
210
0.0
220
0.0
230
1.0
  2
SOLID
 70
               1
 71
               1
 91
        1
 92
        1
 93
        1
 72
               2
 10
29.603701599999994
 20
-101.04942509999998
 40
0.1799982336024443
 50
0.0
 51
360.0
 73
               0
 97
        1
330
1D8
 75
               0
 76
               1
 98
        1
 10
0.0
 20
0.0
  0
CIRCLE
  5
1DA
102
{ACAD_REACTORS
330
1DB
102
}
100
AcDbEntity
  8
None
370
              15
390
0
  6
Continuous
 62
               7
100
AcDbCircle
 10
30.403701599999994
 20
-101.04942509999998
 30
0.0
 40
0.1799982336024438
  0
HATCH
  5
1DB
100
AcDbEntity
  8
None
370
               0
390
0
  6
Continuous
 62
               7
100
AcDbHatch
 10
0.0
 20
0.0
 30
0.0
210
0.0
220
0.0
230
1.0
  2
SOLID
 70
               1
 71
               1
 91
        1
 92
        1
 93
        1
 72
               2
 10
30.403701599999994
 20
-101.04942509999998
 40
0.1799982336024438
 50
0.0
 51
360.0
 73
               0
 97
        1
330
1DA
 75
               0
 76
               1
 98
        1
 10
0.0
 20
0.0
  0
CIRCLE
  5
1DC
102
{ACAD_REACTORS
330
1DD
102
}
100
AcDbEntity
  8
None
370
              15
390
0
  6
Continuous
 62
               7
100
AcDbCircle
 10
31.203701599999992
 20
-101.04942509999998
 30
0.0
 40
0.1799982336024443
  0
HATCH
  5
1DD
100
AcDbEntity
  8
None
370
               0
390
0
  6
Continuous
 62
               7
100
AcDbHatch
 10
0.0
 20
0.0
 30
0.0
210
0.0
220
0.0
230
1.0
  2
SOLID
 70
               1
 71
               1
 91
        1
 92
        1
 93
        1
 72
               2
 10
31.203701599999992
 20
-101.04942509999998
 40
0.1799982336024443
 50
0.0
 51
360.0
 73
               0
 97
        1
330
1DC
 75
               0
 76
               1
 98
        1
 10
0.0
 20
0.0
  0
CIRCLE
  5
1DE
102
{ACAD_REACTORS
330
1DF
102
}
100
AcDbEntity
  8
None
370
              15
390
0
  6
Continuous
 62
               7
100
AcDbCircle
 10
32.003701599999992
 20
-101.04942509999998
 30
0.0
 40
0.1799982336024434
  0
HATCH
  5
1DF
100
AcDbEntity
  8
None
370
               0
390
0
  6
Continuous
 62
               7
100
AcDbHatch
 10
0.0
 20
0.0
 30
0.0
210
0.0
220
0.0
230
1.0
  2
SOLID
 70
               1
 71
               1
 91
        1
 92
        1
 93
        1
 72
               2
 10
32.003701599999992
 20
-101.04942509999998
 40
0.1799982336024434
 50
0.0
 51
360.0
 73
               0
 97
        1
330
1DE
 75
               0
 76
               1
 98
        1
 10
0.0
 20
0.0
  0
CIRCLE
  5
1E0
102
{ACAD_REACTORS
330
1E1
102
}
100
AcDbEntity
  8
None
370
              15
390
0
  6
Continuous
 62
               7
100
AcDbCircle
 10
28.003701599999992
 20
-100.24942509999997
 30
0.0
 40
0.1799982336024441
  0
HATCH
  5
1E1
100
AcDbEntity
  8
None
370
               0
390
0
  6
Continuous
 62
               7
100
AcDbHatch
 10
0.0
 20
0.0
 30
0.0
210
0.0
220
0.0
230
1.0
  2
SOLID
 70
               1
 71
               1
 91
        1
 92
        1
 93
        1
 72
               2
 10
28.003701599999992
 20
-100.24942509999997
 40
0.1799982336024441
 50
0.0
 51
360.0
 73
               0
 97
        1
330
1E0
 75
               0
 76
               1
 98
        1
 10
0.0
 20
0.0
  0
CIRCLE
  5
1E2
102
{ACAD_REACTORS
330
1E3
102
}
100
AcDbEntity
  8
None
370
              15
390
0
  6
Continuous
 62
               7
100
AcDbCircle
 10
28.803701599999993
 20
-100.24942509999997
 30
0.0
 40
0.1799982336024443
  0
HATCH
  5
1E3
100
AcDbEntity
  8
None
370
               0
390
0
  6
Continuous
 62
               7
100
AcDbHatch
 10
0.0
 20
0.0
 30
0.0
210
0.0
220
0.0
230
1.0
  2
SOLID
 70
               1
 71
               1
 91
        1
 92
        1
 93
        1
 72
               2
 10
28.803701599999993
 20
-100.24942509999997
 40
0.1799982336024443
 50
0.0
 51
360.0
 73
               0
 97
        1
330
1E2
 75
               0
 76
               1
 98
        1
 10
0.0
 20
0.0
  0
CIRCLE
  5
1E4
102
{ACAD_REACTORS
330
1E5
102
}
100
AcDbEntity
  8
None
370
              15
390
0
  6
Continuous
 62
               7
100
AcDbCircle
 10
29.603701599999994
 20
-100.24942509999997
 30
0.0
 40
0.1799982336024443
  0
HATCH
  5
1E5
100
AcDbEntity
  8
None
370
               0
390
0
  6
Continuous
 62
               7
100
AcDbHatch
 10
0.0
 20
0.0
 30
0.0
210
0.0
220
0.0
230
1.0
  2
SOLID
 70
               1
 71
               1
 91
        1
 92
        1
 93
        1
 72
               2
 10
29.603701599999994
 20
-100.24942509999997
 40
0.1799982336024443
 50
0.0
 51
360.0
 73
               0
 97
        1
330
1E4
 75
               0
 76
               1
 98
        1
 10
0.0
 20
0.0
  0
CIRCLE
  5
1E6
102
{ACAD_REACTORS
330
1E7
102
}
100
AcDbEntity
  8
None
370
              15
390
0
  6
Continuous
 62
               7
100
AcDbCircle
 10
30.403701599999994
 20
-100.24942509999997
 30
0.0
 40
0.1799982336024438
  0
HATCH
  5
1E7
100
AcDbEntity
  8
None
370
               0
390
0
  6
Continuous
 62
               7
100
AcDbHatch
 10
0.0
 20
0.0
 30
0.0
210
0.0
220
0.0
230
1.0
  2
SOLID
 70
               1
 71
               1
 91
        1
 92
        1
 93
        1
 72
               2
 10
30.403701599999994
 20
-100.24942509999997
 40
0.1799982336024438
 50
0.0
 51
360.0
 73
               0
 97
        1
330
1E6
 75
               0
 76
               1
 98
        1
 10
0.0
 20
0.0
  0
CIRCLE
  5
1E8
102
{ACAD_REACTORS
330
1E9
102
}
100
AcDbEntity
  8
None
370
              15
390
0
  6
Continuous
 62
               7
100
AcDbCircle
 10
31.203701599999992
 20
-100.24942509999997
 30
0.0
 40
0.1799982336024443
  0
HATCH
  5
1E9
100
AcDbEntity
  8
None
370
               0
390
0
  6
Continuous
 62
               7
100
AcDbHatch
 10
0.0
 20
0.0
 30
0.0
210
0.0
220
0.0
230
1.0
  2
SOLID
 70
               1
 71
               1
 91
        1
 92
        1
 93
        1
 72
               2
 10
31.203701599999992
 20
-100.24942509999997
 40
0.1799982336024443
 50
0.0
 51
360.0
 73
               0
 97
        1
330
1E8
 75
               0
 76
               1
 98
        1
 10
0.0
 20
0.0
  0
CIRCLE
  5
1EA
102
{ACAD_REACTORS
330
1EB
102
}
100
AcDbEntity
  8
None
370
              15
390
0
  6
Continuous
 62
               7
100
AcDbCircle
 10
32.003701599999992
 20
-100.24942509999997
 30
0.0
 40
0.1799982336024434
  0
HATCH
  5
1EB
100
AcDbEntity
  8
None
370
               0
390
0
  6
Continuous
 62
               7
100
AcDbHatch
 10
0.0
 20
0.0
 30
0.0
210
0.0
220
0.0
230
1.0
  2
SOLID
 70
               1
 71
               1
 91
        1
 92
        1
 93
        1
 72
               2
 10
32.003701599999992
 20
-100.24942509999997
 40
0.1799982336024434
 50
0.0
 51
360.0
 73
               0
 97
        1
330
1EA
 75
               0
 76
               1
 98
        1
 10
0.0
 20
0.0
  0
CIRCLE
  5
1EC
102
{ACAD_REACTORS
330
1ED
102
}
100
AcDbEntity
  8
None
370
              15
390
0
  6
Continuous
 62
               7
100
AcDbCircle
 10
28.003701599999992
 20
-99.449425099999971
 30
0.0
 40
0.1799982336024441
  0
HATCH
  5
1ED
100
AcDbEntity
  8
None
370
               0
390
0
  6
Continuous
 62
               7
100
AcDbHatch
 10
0.0
 20
0.0
 30
0.0
210
0.0
220
0.0
230
1.0
  2
SOLID
 70
               1
 71
               1
 91
        1
 92
        1
 93
        1
 72
               2
 10
28.003701599999992
 20
-99.449425099999971
 40
0.1799982336024441
 50
0.0
 51
360.0
 73
               0
 97
        1
330
1EC
 75
               0
 76
               1
 98
        1
 10
0.0
 20
0.0
  0
CIRCLE
  5
1EE
102
{ACAD_REACTORS
330
1EF
102
}
100
AcDbEntity
  8
None
370
              15
390
0
  6
Continuous
 62
               7
100
AcDbCircle
 10
28.803701599999993
 20
-99.449425099999971
 30
0.0
 40
0.1799982336024443
  0
HATCH
  5
1EF
100
AcDbEntity
  8
None
370
               0
390
0
  6
Continuous
 62
               7
100
AcDbHatch
 10
0.0
 20
0.0
 30
0.0
210
0.0
220
0.0
230
1.0
  2
SOLID
 70
               1
 71
               1
 91
        1
 92
        1
 93
        1
 72
               2
 10
28.803701599999993
 20
-99.449425099999971
 40
0.1799982336024443
 50
0.0
 51
360.0
 73
               0
 97
        1
330
1EE
 75
               0
 76
               1
 98
        1
 10
0.0
 20
0.0
  0
CIRCLE
  5
1F0
102
{ACAD_REACTORS
330
1F1
102
}
100
AcDbEntity
  8
None
370
              15
390
0
  6
Continuous
 62
               7
100
AcDbCircle
 10
29.603701599999994
 20
-99.449425099999971
 30
0.0
 40
0.1799982336024443
  0
HATCH
  5
1F1
100
AcDbEntity
  8
None
370
               0
390
0
  6
Continuous
 62
               7
100
AcDbHatch
 10
0.0
 20
0.0
 30
0.0
210
0.0
220
0.0
230
1.0
  2
SOLID
 70
               1
 71
               1
 91
        1
 92
        1
 93
        1
 72
               2
 10
29.603701599999994
 20
-99.449425099999971
 40
0.1799982336024443
 50
0.0
 51
360.0
 73
               0
 97
        1
330
1F0
 75
               0
 76
               1
 98
        1
 10
0.0
 20
0.0
  0
CIRCLE
  5
1F2
102
{ACAD_REACTORS
330
1F3
102
}
100
AcDbEntity
  8
None
370
              15
390
0
  6
Continuous
 62
               7
100
AcDbCircle
 10
30.403701599999994
 20
-99.449425099999971
 30
0.0
 40
0.1799982336024438
  0
HATCH
  5
1F3
100
AcDbEntity
  8
None
370
               0
390
0
  6
Continuous
 62
               7
100
AcDbHatch
 10
0.0
 20
0.0
 30
0.0
210
0.0
220
0.0
230
1.0
  2
SOLID
 70
               1
 71
               1
 91
        1
 92
        1
 93
        1
 72
               2
 10
30.403701599999994
 20
-99.449425099999971
 40
0.1799982336024438
 50
0.0
 51
360.0
 73
               0
 97
        1
330
1F2
 75
               0
 76
               1
 98
        1
 10
0.0
 20
0.0
  0
CIRCLE
  5
1F4
102
{ACAD_REACTORS
330
1F5
102
}
100
AcDbEntity
  8
None
370
              15
390
0
  6
Continuous
 62
               7
100
AcDbCircle
 10
31.203701599999992
 20
-99.449425099999971
 30
0.0
 40
0.1799982336024443
  0
HATCH
  5
1F5
100
AcDbEntity
  8
None
370
               0
390
0
  6
Continuous
 62
               7
100
AcDbHatch
 10
0.0
 20
0.0
 30
0.0
210
0.0
220
0.0
230
1.0
  2
SOLID
 70
               1
 71
               1
 91
        1
 92
        1
 93
        1
 72
               2
 10
31.203701599999992
 20
-99.449425099999971
 40
0.1799982336024443
 50
0.0
 51
360.0
 73
               0
 97
        1
330
1F4
 75
               0
 76
               1
 98
        1
 10
0.0
 20
0.0
  0
CIRCLE
  5
1F6
102
{ACAD_REACTORS
330
1F7
102
}
100
AcDbEntity
  8
None
370
              15
390
0
  6
Continuous
 62
               7
100
AcDbCircle
 10
32.003701599999992
 20
-99.449425099999971
 30
0.0
 40
0.1799982336024434
  0
HATCH
  5
1F7
100
AcDbEntity
  8
None
370
               0
390
0
  6
Continuous
 62
               7
100
AcDbHatch
 10
0.0
 20
0.0
 30
0.0
210
0.0
220
0.0
230
1.0
  2
SOLID
 70
               1
 71
               1
 91
        1
 92
        1
 93
        1
 72
               2
 10
32.003701599999992
 20
-99.449425099999971
 40
0.1799982336024434
 50
0.0
 51
360.0
 73
               0
 97
        1
330
1F6
 75
               0
 76
               1
 98
        1
 10
0.0
 20
0.0
  0
CIRCLE
  5
1F8
102
{ACAD_REACTORS
330
1F9
102
}
100
AcDbEntity
  8
None
370
              15
390
0
  6
Continuous
 62
               7
100
AcDbCircle
 10
28.003701599999992
 20
-98.649425099999974
 30
0.0
 40
0.1799982336024441
  0
HATCH
  5
1F9
100
AcDbEntity
  8
None
370
               0
390
0
  6
Continuous
 62
               7
100
AcDbHatch
 10
0.0
 20
0.0
 30
0.0
210
0.0
220
0.0
230
1.0
  2
SOLID
 70
               1
 71
               1
 91
        1
 92
        1
 93
        1
 72
               2
 10
28.003701599999992
 20
-98.649425099999974
 40
0.1799982336024441
 50
0.0
 51
360.0
 73
               0
 97
        1
330
1F8
 75
               0
 76
               1
 98
        1
 10
0.0
 20
0.0
  0
CIRCLE
  5
1FA
102
{ACAD_REACTORS
330
1FB
102
}
100
AcDbEntity
  8
None
370
              15
390
0
  6
Continuous
 62
               7
100
AcDbCircle
 10
28.803701599999993
 20
-98.649425099999974
 30
0.0
 40
0.1799982336024443
  0
HATCH
  5
1FB
100
AcDbEntity
  8
None
370
               0
390
0
  6
Continuous
 62
               7
100
AcDbHatch
 10
0.0
 20
0.0
 30
0.0
210
0.0
220
0.0
230
1.0
  2
SOLID
 70
               1
 71
               1
 91
        1
 92
        1
 93
        1
 72
               2
 10
28.803701599999993
 20
-98.649425099999974
 40
0.1799982336024443
 50
0.0
 51
360.0
 73
               0
 97
        1
330
1FA
 75
               0
 76
               1
 98
        1
 10
0.0
 20
0.0
  0
CIRCLE
  5
1FC
102
{ACAD_REACTORS
330
1FD
102
}
100
AcDbEntity
  8
None
370
              15
390
0
  6
Continuous
 62
               7
100
AcDbCircle
 10
29.603701599999994
 20
-98.649425099999974
 30
0.0
 40
0.1799982336024443
  0
HATCH
  5
1FD
100
AcDbEntity
  8
None
370
               0
390
0
  6
Continuous
 62
               7
100
AcDbHatch
 10
0.0
 20
0.0
 30
0.0
210
0.0
220
0.0
230
1.0
  2
SOLID
 70
               1
 71
               1
 91
        1
 92
        1
 93
        1
 72
               2
 10
29.603701599999994
 20
-98.649425099999974
 40
0.1799982336024443
 50
0.0
 51
360.0
 73
               0
 97
        1
330
1FC
 75
               0
 76
               1
 98
        1
 10
0.0
 20
0.0
  0
CIRCLE
  5
1FE
102
{ACAD_REACTORS
330
1FF
102
}
100
AcDbEntity
  8
None
370
              15
390
0
  6
Continuous
 62
               7
100
AcDbCircle
 10
30.403701599999994
 20
-98.649425099999974
 30
0.0
 40
0.1799982336024438
  0
HATCH
  5
1FF
100
AcDbEntity
  8
None
370
               0
390
0
  6
Continuous
 62
               7
100
AcDbHatch
 10
0.0
 20
0.0
 30
0.0
210
0.0
220
0.0
230
1.0
  2
SOLID
 70
               1
 71
               1
 91
        1
 92
        1
 93
        1
 72
               2
 10
30.403701599999994
 20
-98.649425099999974
 40
0.1799982336024438
 50
0.0
 51
360.0
 73
               0
 97
        1
330
1FE
 75
               0
 76
               1
 98
        1
 10
0.0
 20
0.0
  0
CIRCLE
  5
200
102
{ACAD_REACTORS
330
201
102
}
100
AcDbEntity
  8
None
370
              15
390
0
  6
Continuous
 62
               7
100
AcDbCircle
 10
31.203701599999992
 20
-98.649425099999974
 30
0.0
 40
0.1799982336024443
  0
HATCH
  5
201
100
AcDbEntity
  8
None
370
               0
390
0
  6
Continuous
 62
               7
100
AcDbHatch
 10
0.0
 20
0.0
 30
0.0
210
0.0
220
0.0
230
1.0
  2
SOLID
 70
               1
 71
               1
 91
        1
 92
        1
 93
        1
 72
               2
 10
31.203701599999992
 20
-98.649425099999974
 40
0.1799982336024443
 50
0.0
 51
360.0
 73
               0
 97
        1
330
200
 75
               0
 76
               1
 98
        1
 10
0.0
 20
0.0
  0
CIRCLE
  5
202
102
{ACAD_REACTORS
330
203
102
}
100
AcDbEntity
  8
None
370
              15
390
0
  6
Continuous
 62
               7
100
AcDbCircle
 10
32.003701599999992
 20
-98.649425099999974
 30
0.0
 40
0.1799982336024434
  0
HATCH
  5
203
100
AcDbEntity
  8
None
370
               0
390
0
  6
Continuous
 62
               7
100
AcDbHatch
 10
0.0
 20
0.0
 30
0.0
210
0.0
220
0.0
230
1.0
  2
SOLID
 70
               1
 71
               1
 91
        1
 92
        1
 93
        1
 72
               2
 10
32.003701599999992
 20
-98.649425099999974
 40
0.1799982336024434
 50
0.0
 51
360.0
 73
               0
 97
        1
330
202
 75
               0
 76
               1
 98
        1
 10
0.0
 20
0.0
  0
CIRCLE
  5
204
102
{ACAD_REACTORS
330
205
102
}
100
AcDbEntity
  8
None
370
              15
390
0
  6
Continuous
 62
               7
100
AcDbCircle
 10
27.203701599999992
 20
-101.84942509999998
 30
0.0
 40
0.179998233602444
  0
HATCH
  5
205
100
AcDbEntity
  8
None
370
               0
390
0
  6
Continuous
 62
               7
100
AcDbHatch
 10
0.0
 20
0.0
 30
0.0
210
0.0
220
0.0
230
1.0
  2
SOLID
 70
               1
 71
               1
 91
        1
 92
        1
 93
        1
 72
               2
 10
27.203701599999992
 20
-101.84942509999998
 40
0.179998233602444
 50
0.0
 51
360.0
 73
               0
 97
        1
330
204
 75
               0
 76
               1
 98
        1
 10
0.0
 20
0.0
  0
CIRCLE
  5
206
102
{ACAD_REACTORS
330
207
102
}
100
AcDbEntity
  8
None
370
              15
390
0
  6
Continuous
 62
               7
100
AcDbCircle
 10
26.403701599999994
 20
-101.84942509999998
 30
0.0
 40
0.1799982336024439
  0
HATCH
  5
207
100
AcDbEntity
  8
None
370
               0
390
0
  6
Continuous
 62
               7
100
AcDbHatch
 10
0.0
 20
0.0
 30
0.0
210
0.0
220
0.0
230
1.0
  2
SOLID
 70
               1
 71
               1
 91
        1
 92
        1
 93
        1
 72
               2
 10
26.403701599999994
 20
-101.84942509999998
 40
0.1799982336024439
 50
0.0
 51
360.0
 73
               0
 97
        1
330
206
 75
               0
 76
               1
 98
        1
 10
0.0
 20
0.0
  0
CIRCLE
  5
208
102
{ACAD_REACTORS
330
209
102
}
100
AcDbEntity
  8
None
370
              15
390
0
  6
Continuous
 62
               7
100
AcDbCircle
 10
25.603701599999994
 20
-101.84942509999998
 30
0.0
 40
0.1799982336024438
  0
HATCH
  5
209
100
AcDbEntity
  8
None
370
               0
390
0
  6
Continuous
 62
               7
100
AcDbHatch
 10
0.0
 20
0.0
 30
0.0
210
0.0
220
0.0
230
1.0
  2
SOLID
 70
               1
 71
               1
 91
        1
 92
        1
 93
        1
 72
               2
 10
25.603701599999994
 20
-101.84942509999998
 40
0.1799982336024438
 50
0.0
 51
360.0
 73
               0
 97
        1
330
208
 75
               0
 76
               1
 98
        1
 10
0.0
 20
0.0
  0
CIRCLE
  5
20A
102
{ACAD_REACTORS
330
20B
102
}
100
AcDbEntity
  8
None
370
              15
390
0
  6
Continuous
 62
               7
100
AcDbCircle
 10
24.803701599999993
 20
-101.84942509999998
 30
0.0
 40
0.1799982336024438
  0
HATCH
  5
20B
100
AcDbEntity
  8
None
370
               0
390
0
  6
Continuous
 62
               7
100
AcDbHatch
 10
0.0
 20
0.0
 30
0.0
210
0.0
220
0.0
230
1.0
  2
SOLID
 70
               1
 71
               1
 91
        1
 92
        1
 93
        1
 72
               2
 10
24.803701599999993
 20
-101.84942509999998
 40
0.1799982336024438
 50
0.0
 51
360.0
 73
               0
 97
        1
330
20A
 75
               0
 76
               1
 98
        1
 10
0.0
 20
0.0
  0
CIRCLE
  5
20C
102
{ACAD_REACTORS
330
20D
102
}
100
AcDbEntity
  8
None
370
              15
390
0
  6
Continuous
 62
               7
100
AcDbCircle
 10
24.003701599999992
 20
-101.84942509999998
 30
0.0
 40
0.1799982336024443
  0
HATCH
  5
20D
100
AcDbEntity
  8
None
370
               0
390
0
  6
Continuous
 62
               7
100
AcDbHatch
 10
0.0
 20
0.0
 30
0.0
210
0.0
220
0.0
230
1.0
  2
SOLID
 70
               1
 71
               1
 91
        1
 92
        1
 93
        1
 72
               2
 10
24.003701599999992
 20
-101.84942509999998
 40
0.1799982336024443
 50
0.0
 51
360.0
 73
               0
 97
        1
330
20C
 75
               0
 76
               1
 98
        1
 10
0.0
 20
0.0
  0
CIRCLE
  5
20E
102
{ACAD_REACTORS
330
20F
102
}
100
AcDbEntity
  8
None
370
              15
390
0
  6
Continuous
 62
               7
100
AcDbCircle
 10
27.203701599999992
 20
-101.04942509999998
 30
0.0
 40
0.179998233602444
  0
HATCH
  5
20F
100
AcDbEntity
  8
None
370
               0
390
0
  6
Continuous
 62
               7
100
AcDbHatch
 10
0.0
 20
0.0
 30
0.0
210
0.0
220
0.0
230
1.0
  2
SOLID
 70
               1
 71
               1
 91
        1
 92
        1
 93
        1
 72
               2
 10
27.203701599999992
 20
-101.04942509999998
 40
0.179998233602444
 50
0.0
 51
360.0
 73
               0
 97
        1
330
20E
 75
               0
 76
               1
 98
        1
 10
0.0
 20
0.0
  0
CIRCLE
  5
210
102
{ACAD_REACTORS
330
211
102
}
100
AcDbEntity
  8
None
370
              15
390
0
  6
Continuous
 62
               7
100
AcDbCircle
 10
26.403701599999994
 20
-101.04942509999998
 30
0.0
 40
0.1799982336024439
  0
HATCH
  5
211
100
AcDbEntity
  8
None
370
               0
390
0
  6
Continuous
 62
               7
100
AcDbHatch
 10
0.0
 20
0.0
 30
0.0
210
0.0
220
0.0
230
1.0
  2
SOLID
 70
               1
 71
               1
 91
        1
 92
        1
 93
        1
 72
               2
 10
26.403701599999994
 20
-101.04942509999998
 40
0.1799982336024439
 50
0.0
 51
360.0
 73
               0
 97
        1
330
210
 75
               0
 76
               1
 98
        1
 10
0.0
 20
0.0
  0
CIRCLE
  5
212
102
{ACAD_REACTORS
330
213
102
}
100
AcDbEntity
  8
None
370
              15
390
0
  6
Continuous
 62
               7
100
AcDbCircle
 10
25.603701599999994
 20
-101.04942509999998
 30
0.0
 40
0.1799982336024438
  0
HATCH
  5
213
100
AcDbEntity
  8
None
370
               0
390
0
  6
Continuous
 62
               7
100
AcDbHatch
 10
0.0
 20
0.0
 30
0.0
210
0.0
220
0.0
230
1.0
  2
SOLID
 70
               1
 71
               1
 91
        1
 92
        1
 93
        1
 72
               2
 10
25.603701599999994
 20
-101.04942509999998
 40
0.1799982336024438
 50
0.0
 51
360.0
 73
               0
 97
        1
330
212
 75
               0
 76
               1
 98
        1
 10
0.0
 20
0.0
  0
CIRCLE
  5
214
102
{ACAD_REACTORS
330
215
102
}
100
AcDbEntity
  8
None
370
              15
390
0
  6
Continuous
 62
               7
100
AcDbCircle
 10
24.803701599999993
 20
-101.04942509999998
 30
0.0
 40
0.1799982336024438
  0
HATCH
  5
215
100
AcDbEntity
  8
None
370
               0
390
0
  6
Continuous
 62
               7
100
AcDbHatch
 10
0.0
 20
0.0
 30
0.0
210
0.0
220
0.0
230
1.0
  2
SOLID
 70
               1
 71
               1
 91
        1
 92
        1
 93
        1
 72
               2
 10
24.803701599999993
 20
-101.04942509999998
 40
0.1799982336024438
 50
0.0
 51
360.0
 73
               0
 97
        1
330
214
 75
               0
 76
               1
 98
        1
 10
0.0
 20
0.0
  0
CIRCLE
  5
216
102
{ACAD_REACTORS
330
217
102
}
100
AcDbEntity
  8
None
370
              15
390
0
  6
Continuous
 62
               7
100
AcDbCircle
 10
24.003701599999992
 20
-101.04942509999998
 30
0.0
 40
0.1799982336024443
  0
HATCH
  5
217
100
AcDbEntity
  8
None
370
               0
390
0
  6
Continuous
 62
               7
100
AcDbHatch
 10
0.0
 20
0.0
 30
0.0
210
0.0
220
0.0
230
1.0
  2
SOLID
 70
               1
 71
               1
 91
        1
 92
        1
 93
        1
 72
               2
 10
24.003701599999992
 20
-101.04942509999998
 40
0.1799982336024443
 50
0.0
 51
360.0
 73
               0
 97
        1
330
216
 75
               0
 76
               1
 98
        1
 10
0.0
 20
0.0
  0
CIRCLE
  5
218
102
{ACAD_REACTORS
330
219
102
}
100
AcDbEntity
  8
None
370
              15
390
0
  6
Continuous
 62
               7
100
AcDbCircle
 10
27.203701599999992
 20
-100.24942509999997
 30
0.0
 40
0.179998233602444
  0
HATCH
  5
219
100
AcDbEntity
  8
None
370
               0
390
0
  6
Continuous
 62
               7
100
AcDbHatch
 10
0.0
 20
0.0
 30
0.0
210
0.0
220
0.0
230
1.0
  2
SOLID
 70
               1
 71
               1
 91
        1
 92
        1
 93
        1
 72
               2
 10
27.203701599999992
 20
-100.24942509999997
 40
0.179998233602444
 50
0.0
 51
360.0
 73
               0
 97
        1
330
218
 75
               0
 76
               1
 98
        1
 10
0.0
 20
0.0
  0
CIRCLE
  5
21A
102
{ACAD_REACTORS
330
21B
102
}
100
AcDbEntity
  8
None
370
              15
390
0
  6
Continuous
 62
               7
100
AcDbCircle
 10
26.403701599999994
 20
-100.24942509999997
 30
0.0
 40
0.1799982336024439
  0
HATCH
  5
21B
100
AcDbEntity
  8
None
370
               0
390
0
  6
Continuous
 62
               7
100
AcDbHatch
 10
0.0
 20
0.0
 30
0.0
210
0.0
220
0.0
230
1.0
  2
SOLID
 70
               1
 71
               1
 91
        1
 92
        1
 93
        1
 72
               2
 10
26.403701599999994
 20
-100.24942509999997
 40
0.1799982336024439
 50
0.0
 51
360.0
 73
               0
 97
        1
330
21A
 75
               0
 76
               1
 98
        1
 10
0.0
 20
0.0
  0
CIRCLE
  5
21C
102
{ACAD_REACTORS
330
21D
102
}
100
AcDbEntity
  8
None
370
              15
390
0
  6
Continuous
 62
               7
100
AcDbCircle
 10
25.603701599999994
 20
-100.24942509999997
 30
0.0
 40
0.1799982336024438
  0
HATCH
  5
21D
100
AcDbEntity
  8
None
370
               0
390
0
  6
Continuous
 62
               7
100
AcDbHatch
 10
0.0
 20
0.0
 30
0.0
210
0.0
220
0.0
230
1.0
  2
SOLID
 70
               1
 71
               1
 91
        1
 92
        1
 93
        1
 72
               2
 10
25.603701599999994
 20
-100.24942509999997
 40
0.1799982336024438
 50
0.0
 51
360.0
 73
               0
 97
        1
330
21C
 75
               0
 76
               1
 98
        1
 10
0.0
 20
0.0
  0
CIRCLE
  5
21E
102
{ACAD_REACTORS
330
21F
102
}
100
AcDbEntity
  8
None
370
              15
390
0
  6
Continuous
 62
               7
100
AcDbCircle
 10
24.803701599999993
 20
-100.24942509999997
 30
0.0
 40
0.1799982336024438
  0
HATCH
  5
21F
100
AcDbEntity
  8
None
370
               0
390
0
  6
Continuous
 62
               7
100
AcDbHatch
 10
0.0
 20
0.0
 30
0.0
210
0.0
220
0.0
230
1.0
  2
SOLID
 70
               1
 71
               1
 91
        1
 92
        1
 93
        1
 72
               2
 10
24.803701599999993
 20
-100.24942509999997
 40
0.1799982336024438
 50
0.0
 51
360.0
 73
               0
 97
        1
330
21E
 75
               0
 76
               1
 98
        1
 10
0.0
 20
0.0
  0
CIRCLE
  5
220
102
{ACAD_REACTORS
330
221
102
}
100
AcDbEntity
  8
None
370
              15
390
0
  6
Continuous
 62
               7
100
AcDbCircle
 10
24.003701599999992
 20
-100.24942509999997
 30
0.0
 40
0.1799982336024443
  0
HATCH
  5
221
100
AcDbEntity
  8
None
370
               0
390
0
  6
Continuous
 62
               7
100
AcDbHatch
 10
0.0
 20
0.0
 30
0.0
210
0.0
220
0.0
230
1.0
  2
SOLID
 70
               1
 71
               1
 91
        1
 92
        1
 93
        1
 72
               2
 10
24.003701599999992
 20
-100.24942509999997
 40
0.1799982336024443
 50
0.0
 51
360.0
 73
               0
 97
        1
330
220
 75
               0
 76
               1
 98
        1
 10
0.0
 20
0.0
  0
CIRCLE
  5
222
102
{ACAD_REACTORS
330
223
102
}
100
AcDbEntity
  8
None
370
              15
390
0
  6
Continuous
 62
               7
100
AcDbCircle
 10
27.203701599999992
 20
-99.449425099999971
 30
0.0
 40
0.179998233602444
  0
HATCH
  5
223
100
AcDbEntity
  8
None
370
               0
390
0
  6
Continuous
 62
               7
100
AcDbHatch
 10
0.0
 20
0.0
 30
0.0
210
0.0
220
0.0
230
1.0
  2
SOLID
 70
               1
 71
               1
 91
        1
 92
        1
 93
        1
 72
               2
 10
27.203701599999992
 20
-99.449425099999971
 40
0.179998233602444
 50
0.0
 51
360.0
 73
               0
 97
        1
330
222
 75
               0
 76
               1
 98
        1
 10
0.0
 20
0.0
  0
CIRCLE
  5
224
102
{ACAD_REACTORS
330
225
102
}
100
AcDbEntity
  8
None
370
              15
390
0
  6
Continuous
 62
               7
100
AcDbCircle
 10
26.403701599999994
 20
-99.449425099999971
 30
0.0
 40
0.1799982336024439
  0
HATCH
  5
225
100
AcDbEntity
  8
None
370
               0
390
0
  6
Continuous
 62
               7
100
AcDbHatch
 10
0.0
 20
0.0
 30
0.0
210
0.0
220
0.0
230
1.0
  2
SOLID
 70
               1
 71
               1
 91
        1
 92
        1
 93
        1
 72
               2
 10
26.403701599999994
 20
-99.449425099999971
 40
0.1799982336024439
 50
0.0
 51
360.0
 73
               0
 97
        1
330
224
 75
               0
 76
               1
 98
        1
 10
0.0
 20
0.0
  0
CIRCLE
  5
226
102
{ACAD_REACTORS
330
227
102
}
100
AcDbEntity
  8
None
370
              15
390
0
  6
Continuous
 62
               7
100
AcDbCircle
 10
25.603701599999994
 20
-99.449425099999971
 30
0.0
 40
0.1799982336024438
  0
HATCH
  5
227
100
AcDbEntity
  8
None
370
               0
390
0
  6
Continuous
 62
               7
100
AcDbHatch
 10
0.0
 20
0.0
 30
0.0
210
0.0
220
0.0
230
1.0
  2
SOLID
 70
               1
 71
               1
 91
        1
 92
        1
 93
        1
 72
               2
 10
25.603701599999994
 20
-99.449425099999971
 40
0.1799982336024438
 50
0.0
 51
360.0
 73
               0
 97
        1
330
226
 75
               0
 76
               1
 98
        1
 10
0.0
 20
0.0
  0
CIRCLE
  5
228
102
{ACAD_REACTORS
330
229
102
}
100
AcDbEntity
  8
None
370
              15
390
0
  6
Continuous
 62
               7
100
AcDbCircle
 10
24.803701599999993
 20
-99.449425099999971
 30
0.0
 40
0.1799982336024438
  0
HATCH
  5
229
100
AcDbEntity
  8
None
370
               0
390
0
  6
Continuous
 62
               7
100
AcDbHatch
 10
0.0
 20
0.0
 30
0.0
210
0.0
220
0.0
230
1.0
  2
SOLID
 70
               1
 71
               1
 91
        1
 92
        1
 93
        1
 72
               2
 10
24.803701599999993
 20
-99.449425099999971
 40
0.1799982336024438
 50
0.0
 51
360.0
 73
               0
 97
        1
330
228
 75
               0
 76
               1
 98
        1
 10
0.0
 20
0.0
  0
CIRCLE
  5
22A
102
{ACAD_REACTORS
330
22B
102
}
100
AcDbEntity
  8
None
370
              15
390
0
  6
Continuous
 62
               7
100
AcDbCircle
 10
24.003701599999992
 20
-99.449425099999971
 30
0.0
 40
0.1799982336024443
  0
HATCH
  5
22B
100
AcDbEntity
  8
None
370
               0
390
0
  6
Continuous
 62
               7
100
AcDbHatch
 10
0.0
 20
0.0
 30
0.0
210
0.0
220
0.0
230
1.0
  2
SOLID
 70
               1
 71
               1
 91
        1
 92
        1
 93
        1
 72
               2
 10
24.003701599999992
 20
-99.449425099999971
 40
0.1799982336024443
 50
0.0
 51
360.0
 73
               0
 97
        1
330
22A
 75
               0
 76
               1
 98
        1
 10
0.0
 20
0.0
  0
CIRCLE
  5
22C
102
{ACAD_REACTORS
330
22D
102
}
100
AcDbEntity
  8
None
370
              15
390
0
  6
Continuous
 62
               7
100
AcDbCircle
 10
27.203701599999992
 20
-98.649425099999974
 30
0.0
 40
0.179998233602444
  0
HATCH
  5
22D
100
AcDbEntity
  8
None
370
               0
390
0
  6
Continuous
 62
               7
100
AcDbHatch
 10
0.0
 20
0.0
 30
0.0
210
0.0
220
0.0
230
1.0
  2
SOLID
 70
               1
 71
               1
 91
        1
 92
        1
 93
        1
 72
               2
 10
27.203701599999992
 20
-98.649425099999974
 40
0.179998233602444
 50
0.0
 51
360.0
 73
               0
 97
        1
330
22C
 75
               0
 76
               1
 98
        1
 10
0.0
 20
0.0
  0
CIRCLE
  5
22E
102
{ACAD_REACTORS
330
22F
102
}
100
AcDbEntity
  8
None
370
              15
390
0
  6
Continuous
 62
               7
100
AcDbCircle
 10
26.403701599999994
 20
-98.649425099999974
 30
0.0
 40
0.1799982336024439
  0
HATCH
  5
22F
100
AcDbEntity
  8
None
370
               0
390
0
  6
Continuous
 62
               7
100
AcDbHatch
 10
0.0
 20
0.0
 30
0.0
210
0.0
220
0.0
230
1.0
  2
SOLID
 70
               1
 71
               1
 91
        1
 92
        1
 93
        1
 72
               2
 10
26.403701599999994
 20
-98.649425099999974
 40
0.1799982336024439
 50
0.0
 51
360.0
 73
               0
 97
        1
330
22E
 75
               0
 76
               1
 98
        1
 10
0.0
 20
0.0
  0
CIRCLE
  5
230
102
{ACAD_REACTORS
330
231
102
}
100
AcDbEntity
  8
None
370
              15
390
0
  6
Continuous
 62
               7
100
AcDbCircle
 10
25.603701599999994
 20
-98.649425099999974
 30
0.0
 40
0.1799982336024438
  0
HATCH
  5
231
100
AcDbEntity
  8
None
370
               0
390
0
  6
Continuous
 62
               7
100
AcDbHatch
 10
0.0
 20
0.0
 30
0.0
210
0.0
220
0.0
230
1.0
  2
SOLID
 70
               1
 71
               1
 91
        1
 92
        1
 93
        1
 72
               2
 10
25.603701599999994
 20
-98.649425099999974
 40
0.1799982336024438
 50
0.0
 51
360.0
 73
               0
 97
        1
330
230
 75
               0
 76
               1
 98
        1
 10
0.0
 20
0.0
  0
CIRCLE
  5
232
102
{ACAD_REACTORS
330
233
102
}
100
AcDbEntity
  8
None
370
              15
390
0
  6
Continuous
 62
               7
100
AcDbCircle
 10
24.803701599999993
 20
-98.649425099999974
 30
0.0
 40
0.1799982336024438
  0
HATCH
  5
233
100
AcDbEntity
  8
None
370
               0
390
0
  6
Continuous
 62
               7
100
AcDbHatch
 10
0.0
 20
0.0
 30
0.0
210
0.0
220
0.0
230
1.0
  2
SOLID
 70
               1
 71
               1
 91
        1
 92
        1
 93
        1
 72
               2
 10
24.803701599999993
 20
-98.649425099999974
 40
0.1799982336024438
 50
0.0
 51
360.0
 73
               0
 97
        1
330
232
 75
               0
 76
               1
 98
        1
 10
0.0
 20
0.0
  0
CIRCLE
  5
234
102
{ACAD_REACTORS
330
235
102
}
100
AcDbEntity
  8
None
370
              15
390
0
  6
Continuous
 62
               7
100
AcDbCircle
 10
24.003701599999992
 20
-98.649425099999974
 30
0.0
 40
0.1799982336024443
  0
HATCH
  5
235
100
AcDbEntity
  8
None
370
               0
390
0
  6
Continuous
 62
               7
100
AcDbHatch
 10
0.0
 20
0.0
 30
0.0
210
0.0
220
0.0
230
1.0
  2
SOLID
 70
               1
 71
               1
 91
        1
 92
        1
 93
        1
 72
               2
 10
24.003701599999992
 20
-98.649425099999974
 40
0.1799982336024443
 50
0.0
 51
360.0
 73
               0
 97
        1
330
234
 75
               0
 76
               1
 98
        1
 10
0.0
 20
0.0
  0
CIRCLE
  5
236
102
{ACAD_REACTORS
330
237
102
}
100
AcDbEntity
  8
None
370
              15
390
0
  6
Continuous
 62
               7
100
AcDbCircle
 10
27.203701599999992
 20
-103.44942509999997
 30
0.0
 40
0.179998233602444
  0
HATCH
  5
237
100
AcDbEntity
  8
None
370
               0
390
0
  6
Continuous
 62
               7
100
AcDbHatch
 10
0.0
 20
0.0
 30
0.0
210
0.0
220
0.0
230
1.0
  2
SOLID
 70
               1
 71
               1
 91
        1
 92
        1
 93
        1
 72
               2
 10
27.203701599999992
 20
-103.44942509999997
 40
0.179998233602444
 50
0.0
 51
360.0
 73
               0
 97
        1
330
236
 75
               0
 76
               1
 98
        1
 10
0.0
 20
0.0
  0
CIRCLE
  5
238
102
{ACAD_REACTORS
330
239
102
}
100
AcDbEntity
  8
None
370
              15
390
0
  6
Continuous
 62
               7
100
AcDbCircle
 10
26.403701599999994
 20
-103.44942509999997
 30
0.0
 40
0.1799982336024439
  0
HATCH
  5
239
100
AcDbEntity
  8
None
370
               0
390
0
  6
Continuous
 62
               7
100
AcDbHatch
 10
0.0
 20
0.0
 30
0.0
210
0.0
220
0.0
230
1.0
  2
SOLID
 70
               1
 71
               1
 91
        1
 92
        1
 93
        1
 72
               2
 10
26.403701599999994
 20
-103.44942509999997
 40
0.1799982336024439
 50
0.0
 51
360.0
 73
               0
 97
        1
330
238
 75
               0
 76
               1
 98
        1
 10
0.0
 20
0.0
  0
CIRCLE
  5
23A
102
{ACAD_REACTORS
330
23B
102
}
100
AcDbEntity
  8
None
370
              15
390
0
  6
Continuous
 62
               7
100
AcDbCircle
 10
25.603701599999994
 20
-103.44942509999997
 30
0.0
 40
0.1799982336024438
  0
HATCH
  5
23B
100
AcDbEntity
  8
None
370
               0
390
0
  6
Continuous
 62
               7
100
AcDbHatch
 10
0.0
 20
0.0
 30
0.0
210
0.0
220
0.0
230
1.0
  2
SOLID
 70
               1
 71
               1
 91
        1
 92
        1
 93
        1
 72
               2
 10
25.603701599999994
 20
-103.44942509999997
 40
0.1799982336024438
 50
0.0
 51
360.0
 73
               0
 97
        1
330
23A
 75
               0
 76
               1
 98
        1
 10
0.0
 20
0.0
  0
CIRCLE
  5
23C
102
{ACAD_REACTORS
330
23D
102
}
100
AcDbEntity
  8
None
370
              15
390
0
  6
Continuous
 62
               7
100
AcDbCircle
 10
24.803701599999993
 20
-103.44942509999997
 30
0.0
 40
0.1799982336024438
  0
HATCH
  5
23D
100
AcDbEntity
  8
None
370
               0
390
0
  6
Continuous
 62
               7
100
AcDbHatch
 10
0.0
 20
0.0
 30
0.0
210
0.0
220
0.0
230
1.0
  2
SOLID
 70
               1
 71
               1
 91
        1
 92
        1
 93
        1
 72
               2
 10
24.803701599999993
 20
-103.44942509999997
 40
0.1799982336024438
 50
0.0
 51
360.0
 73
               0
 97
        1
330
23C
 75
               0
 76
               1
 98
        1
 10
0.0
 20
0.0
  0
CIRCLE
  5
23E
102
{ACAD_REACTORS
330
23F
102
}
100
AcDbEntity
  8
None
370
              15
390
0
  6
Continuous
 62
               7
100
AcDbCircle
 10
24.003701599999992
 20
-103.44942509999997
 30
0.0
 40
0.1799982336024443
  0
HATCH
  5
23F
100
AcDbEntity
  8
None
370
               0
390
0
  6
Continuous
 62
               7
100
AcDbHatch
 10
0.0
 20
0.0
 30
0.0
210
0.0
220
0.0
230
1.0
  2
SOLID
 70
               1
 71
               1
 91
        1
 92
        1
 93
        1
 72
               2
 10
24.003701599999992
 20
-103.44942509999997
 40
0.1799982336024443
 50
0.0
 51
360.0
 73
               0
 97
        1
330
23E
 75
               0
 76
               1
 98
        1
 10
0.0
 20
0.0
  0
CIRCLE
  5
240
102
{ACAD_REACTORS
330
241
102
}
100
AcDbEntity
  8
None
370
              15
390
0
  6
Continuous
 62
               7
100
AcDbCircle
 10
27.203701599999992
 20
-104.24942509999997
 30
0.0
 40
0.179998233602444
  0
HATCH
  5
241
100
AcDbEntity
  8
None
370
               0
390
0
  6
Continuous
 62
               7
100
AcDbHatch
 10
0.0
 20
0.0
 30
0.0
210
0.0
220
0.0
230
1.0
  2
SOLID
 70
               1
 71
               1
 91
        1
 92
        1
 93
        1
 72
               2
 10
27.203701599999992
 20
-104.24942509999997
 40
0.179998233602444
 50
0.0
 51
360.0
 73
               0
 97
        1
330
240
 75
               0
 76
               1
 98
        1
 10
0.0
 20
0.0
  0
CIRCLE
  5
242
102
{ACAD_REACTORS
330
243
102
}
100
AcDbEntity
  8
None
370
              15
390
0
  6
Continuous
 62
               7
100
AcDbCircle
 10
26.403701599999994
 20
-104.24942509999997
 30
0.0
 40
0.1799982336024439
  0
HATCH
  5
243
100
AcDbEntity
  8
None
370
               0
390
0
  6
Continuous
 62
               7
100
AcDbHatch
 10
0.0
 20
0.0
 30
0.0
210
0.0
220
0.0
230
1.0
  2
SOLID
 70
               1
 71
               1
 91
        1
 92
        1
 93
        1
 72
               2
 10
26.403701599999994
 20
-104.24942509999997
 40
0.1799982336024439
 50
0.0
 51
360.0
 73
               0
 97
        1
330
242
 75
               0
 76
               1
 98
        1
 10
0.0
 20
0.0
  0
CIRCLE
  5
244
102
{ACAD_REACTORS
330
245
102
}
100
AcDbEntity
  8
None
370
              15
390
0
  6
Continuous
 62
               7
100
AcDbCircle
 10
25.603701599999994
 20
-104.24942509999997
 30
0.0
 40
0.1799982336024438
  0
HATCH
  5
245
100
AcDbEntity
  8
None
370
               0
390
0
  6
Continuous
 62
               7
100
AcDbHatch
 10
0.0
 20
0.0
 30
0.0
210
0.0
220
0.0
230
1.0
  2
SOLID
 70
               1
 71
               1
 91
        1
 92
        1
 93
        1
 72
               2
 10
25.603701599999994
 20
-104.24942509999997
 40
0.1799982336024438
 50
0.0
 51
360.0
 73
               0
 97
        1
330
244
 75
               0
 76
               1
 98
        1
 10
0.0
 20
0.0
  0
CIRCLE
  5
246
102
{ACAD_REACTORS
330
247
102
}
100
AcDbEntity
  8
None
370
              15
390
0
  6
Continuous
 62
               7
100
AcDbCircle
 10
24.803701599999993
 20
-104.24942509999997
 30
0.0
 40
0.1799982336024438
  0
HATCH
  5
247
100
AcDbEntity
  8
None
370
               0
390
0
  6
Continuous
 62
               7
100
AcDbHatch
 10
0.0
 20
0.0
 30
0.0
210
0.0
220
0.0
230
1.0
  2
SOLID
 70
               1
 71
               1
 91
        1
 92
        1
 93
        1
 72
               2
 10
24.803701599999993
 20
-104.24942509999997
 40
0.1799982336024438
 50
0.0
 51
360.0
 73
               0
 97
        1
330
246
 75
               0
 76
               1
 98
        1
 10
0.0
 20
0.0
  0
CIRCLE
  5
248
102
{ACAD_REACTORS
330
249
102
}
100
AcDbEntity
  8
None
370
              15
390
0
  6
Continuous
 62
               7
100
AcDbCircle
 10
24.003701599999992
 20
-104.24942509999997
 30
0.0
 40
0.1799982336024443
  0
HATCH
  5
249
100
AcDbEntity
  8
None
370
               0
390
0
  6
Continuous
 62
               7
100
AcDbHatch
 10
0.0
 20
0.0
 30
0.0
210
0.0
220
0.0
230
1.0
  2
SOLID
 70
               1
 71
               1
 91
        1
 92
        1
 93
        1
 72
               2
 10
24.003701599999992
 20
-104.24942509999997
 40
0.1799982336024443
 50
0.0
 51
360.0
 73
               0
 97
        1
330
248
 75
               0
 76
               1
 98
        1
 10
0.0
 20
0.0
  0
CIRCLE
  5
24A
102
{ACAD_REACTORS
330
24B
102
}
100
AcDbEntity
  8
None
370
              15
390
0
  6
Continuous
 62
               7
100
AcDbCircle
 10
27.203701599999992
 20
-105.04942509999998
 30
0.0
 40
0.179998233602444
  0
HATCH
  5
24B
100
AcDbEntity
  8
None
370
               0
390
0
  6
Continuous
 62
               7
100
AcDbHatch
 10
0.0
 20
0.0
 30
0.0
210
0.0
220
0.0
230
1.0
  2
SOLID
 70
               1
 71
               1
 91
        1
 92
        1
 93
        1
 72
               2
 10
27.203701599999992
 20
-105.04942509999998
 40
0.179998233602444
 50
0.0
 51
360.0
 73
               0
 97
        1
330
24A
 75
               0
 76
               1
 98
        1
 10
0.0
 20
0.0
  0
CIRCLE
  5
24C
102
{ACAD_REACTORS
330
24D
102
}
100
AcDbEntity
  8
None
370
              15
390
0
  6
Continuous
 62
               7
100
AcDbCircle
 10
26.403701599999994
 20
-105.04942509999998
 30
0.0
 40
0.1799982336024439
  0
HATCH
  5
24D
100
AcDbEntity
  8
None
370
               0
390
0
  6
Continuous
 62
               7
100
AcDbHatch
 10
0.0
 20
0.0
 30
0.0
210
0.0
220
0.0
230
1.0
  2
SOLID
 70
               1
 71
               1
 91
        1
 92
        1
 93
        1
 72
               2
 10
26.403701599999994
 20
-105.04942509999998
 40
0.1799982336024439
 50
0.0
 51
360.0
 73
               0
 97
        1
330
24C
 75
               0
 76
               1
 98
        1
 10
0.0
 20
0.0
  0
CIRCLE
  5
24E
102
{ACAD_REACTORS
330
24F
102
}
100
AcDbEntity
  8
None
370
              15
390
0
  6
Continuous
 62
               7
100
AcDbCircle
 10
25.603701599999994
 20
-105.04942509999998
 30
0.0
 40
0.1799982336024438
  0
HATCH
  5
24F
100
AcDbEntity
  8
None
370
               0
390
0
  6
Continuous
 62
               7
100
AcDbHatch
 10
0.0
 20
0.0
 30
0.0
210
0.0
220
0.0
230
1.0
  2
SOLID
 70
               1
 71
               1
 91
        1
 92
        1
 93
        1
 72
               2
 10
25.603701599999994
 20
-105.04942509999998
 40
0.1799982336024438
 50
0.0
 51
360.0
 73
               0
 97
        1
330
24E
 75
               0
 76
               1
 98
        1
 10
0.0
 20
0.0
  0
CIRCLE
  5
250
102
{ACAD_REACTORS
330
251
102
}
100
AcDbEntity
  8
None
370
              15
390
0
  6
Continuous
 62
               7
100
AcDbCircle
 10
24.803701599999993
 20
-105.04942509999998
 30
0.0
 40
0.1799982336024438
  0
HATCH
  5
251
100
AcDbEntity
  8
None
370
               0
390
0
  6
Continuous
 62
               7
100
AcDbHatch
 10
0.0
 20
0.0
 30
0.0
210
0.0
220
0.0
230
1.0
  2
SOLID
 70
               1
 71
               1
 91
        1
 92
        1
 93
        1
 72
               2
 10
24.803701599999993
 20
-105.04942509999998
 40
0.1799982336024438
 50
0.0
 51
360.0
 73
               0
 97
        1
330
250
 75
               0
 76
               1
 98
        1
 10
0.0
 20
0.0
  0
CIRCLE
  5
252
102
{ACAD_REACTORS
330
253
102
}
100
AcDbEntity
  8
None
370
              15
390
0
  6
Continuous
 62
               7
100
AcDbCircle
 10
24.003701599999992
 20
-105.04942509999998
 30
0.0
 40
0.1799982336024443
  0
HATCH
  5
253
100
AcDbEntity
  8
None
370
               0
390
0
  6
Continuous
 62
               7
100
AcDbHatch
 10
0.0
 20
0.0
 30
0.0
210
0.0
220
0.0
230
1.0
  2
SOLID
 70
               1
 71
               1
 91
        1
 92
        1
 93
        1
 72
               2
 10
24.003701599999992
 20
-105.04942509999998
 40
0.1799982336024443
 50
0.0
 51
360.0
 73
               0
 97
        1
330
252
 75
               0
 76
               1
 98
        1
 10
0.0
 20
0.0
  0
CIRCLE
  5
254
102
{ACAD_REACTORS
330
255
102
}
100
AcDbEntity
  8
None
370
              15
390
0
  6
Continuous
 62
               7
100
AcDbCircle
 10
27.203701599999992
 20
-105.84942509999998
 30
0.0
 40
0.179998233602444
  0
HATCH
  5
255
100
AcDbEntity
  8
None
370
               0
390
0
  6
Continuous
 62
               7
100
AcDbHatch
 10
0.0
 20
0.0
 30
0.0
210
0.0
220
0.0
230
1.0
  2
SOLID
 70
               1
 71
               1
 91
        1
 92
        1
 93
        1
 72
               2
 10
27.203701599999992
 20
-105.84942509999998
 40
0.179998233602444
 50
0.0
 51
360.0
 73
               0
 97
        1
330
254
 75
               0
 76
               1
 98
        1
 10
0.0
 20
0.0
  0
CIRCLE
  5
256
102
{ACAD_REACTORS
330
257
102
}
100
AcDbEntity
  8
None
370
              15
390
0
  6
Continuous
 62
               7
100
AcDbCircle
 10
26.403701599999994
 20
-105.84942509999998
 30
0.0
 40
0.1799982336024439
  0
HATCH
  5
257
100
AcDbEntity
  8
None
370
               0
390
0
  6
Continuous
 62
               7
100
AcDbHatch
 10
0.0
 20
0.0
 30
0.0
210
0.0
220
0.0
230
1.0
  2
SOLID
 70
               1
 71
               1
 91
        1
 92
        1
 93
        1
 72
               2
 10
26.403701599999994
 20
-105.84942509999998
 40
0.1799982336024439
 50
0.0
 51
360.0
 73
               0
 97
        1
330
256
 75
               0
 76
               1
 98
        1
 10
0.0
 20
0.0
  0
CIRCLE
  5
258
102
{ACAD_REACTORS
330
259
102
}
100
AcDbEntity
  8
None
370
              15
390
0
  6
Continuous
 62
               7
100
AcDbCircle
 10
25.603701599999994
 20
-105.84942509999998
 30
0.0
 40
0.1799982336024438
  0
HATCH
  5
259
100
AcDbEntity
  8
None
370
               0
390
0
  6
Continuous
 62
               7
100
AcDbHatch
 10
0.0
 20
0.0
 30
0.0
210
0.0
220
0.0
230
1.0
  2
SOLID
 70
               1
 71
               1
 91
        1
 92
        1
 93
        1
 72
               2
 10
25.603701599999994
 20
-105.84942509999998
 40
0.1799982336024438
 50
0.0
 51
360.0
 73
               0
 97
        1
330
258
 75
               0
 76
               1
 98
        1
 10
0.0
 20
0.0
  0
CIRCLE
  5
25A
102
{ACAD_REACTORS
330
25B
102
}
100
AcDbEntity
  8
None
370
              15
390
0
  6
Continuous
 62
               7
100
AcDbCircle
 10
24.803701599999993
 20
-105.84942509999998
 30
0.0
 40
0.1799982336024438
  0
HATCH
  5
25B
100
AcDbEntity
  8
None
370
               0
390
0
  6
Continuous
 62
               7
100
AcDbHatch
 10
0.0
 20
0.0
 30
0.0
210
0.0
220
0.0
230
1.0
  2
SOLID
 70
               1
 71
               1
 91
        1
 92
        1
 93
        1
 72
               2
 10
24.803701599999993
 20
-105.84942509999998
 40
0.1799982336024438
 50
0.0
 51
360.0
 73
               0
 97
        1
330
25A
 75
               0
 76
               1
 98
        1
 10
0.0
 20
0.0
  0
CIRCLE
  5
25C
102
{ACAD_REACTORS
330
25D
102
}
100
AcDbEntity
  8
None
370
              15
390
0
  6
Continuous
 62
               7
100
AcDbCircle
 10
24.003701599999992
 20
-105.84942509999998
 30
0.0
 40
0.1799982336024443
  0
HATCH
  5
25D
100
AcDbEntity
  8
None
370
               0
390
0
  6
Continuous
 62
               7
100
AcDbHatch
 10
0.0
 20
0.0
 30
0.0
210
0.0
220
0.0
230
1.0
  2
SOLID
 70
               1
 71
               1
 91
        1
 92
        1
 93
        1
 72
               2
 10
24.003701599999992
 20
-105.84942509999998
 40
0.1799982336024443
 50
0.0
 51
360.0
 73
               0
 97
        1
330
25C
 75
               0
 76
               1
 98
        1
 10
0.0
 20
0.0
  0
CIRCLE
  5
25E
102
{ACAD_REACTORS
330
25F
102
}
100
AcDbEntity
  8
None
370
              15
390
0
  6
Continuous
 62
               7
100
AcDbCircle
 10
27.203701599999992
 20
-106.64942509999997
 30
0.0
 40
0.179998233602444
  0
HATCH
  5
25F
100
AcDbEntity
  8
None
370
               0
390
0
  6
Continuous
 62
               7
100
AcDbHatch
 10
0.0
 20
0.0
 30
0.0
210
0.0
220
0.0
230
1.0
  2
SOLID
 70
               1
 71
               1
 91
        1
 92
        1
 93
        1
 72
               2
 10
27.203701599999992
 20
-106.64942509999997
 40
0.179998233602444
 50
0.0
 51
360.0
 73
               0
 97
        1
330
25E
 75
               0
 76
               1
 98
        1
 10
0.0
 20
0.0
  0
CIRCLE
  5
260
102
{ACAD_REACTORS
330
261
102
}
100
AcDbEntity
  8
None
370
              15
390
0
  6
Continuous
 62
               7
100
AcDbCircle
 10
26.403701599999994
 20
-106.64942509999997
 30
0.0
 40
0.1799982336024439
  0
HATCH
  5
261
100
AcDbEntity
  8
None
370
               0
390
0
  6
Continuous
 62
               7
100
AcDbHatch
 10
0.0
 20
0.0
 30
0.0
210
0.0
220
0.0
230
1.0
  2
SOLID
 70
               1
 71
               1
 91
        1
 92
        1
 93
        1
 72
               2
 10
26.403701599999994
 20
-106.64942509999997
 40
0.1799982336024439
 50
0.0
 51
360.0
 73
               0
 97
        1
330
260
 75
               0
 76
               1
 98
        1
 10
0.0
 20
0.0
  0
CIRCLE
  5
262
102
{ACAD_REACTORS
330
263
102
}
100
AcDbEntity
  8
None
370
              15
390
0
  6
Continuous
 62
               7
100
AcDbCircle
 10
25.603701599999994
 20
-106.64942509999997
 30
0.0
 40
0.1799982336024438
  0
HATCH
  5
263
100
AcDbEntity
  8
None
370
               0
390
0
  6
Continuous
 62
               7
100
AcDbHatch
 10
0.0
 20
0.0
 30
0.0
210
0.0
220
0.0
230
1.0
  2
SOLID
 70
               1
 71
               1
 91
        1
 92
        1
 93
        1
 72
               2
 10
25.603701599999994
 20
-106.64942509999997
 40
0.1799982336024438
 50
0.0
 51
360.0
 73
               0
 97
        1
330
262
 75
               0
 76
               1
 98
        1
 10
0.0
 20
0.0
  0
CIRCLE
  5
264
102
{ACAD_REACTORS
330
265
102
}
100
AcDbEntity
  8
None
370
              15
390
0
  6
Continuous
 62
               7
100
AcDbCircle
 10
24.803701599999993
 20
-106.64942509999997
 30
0.0
 40
0.1799982336024438
  0
HATCH
  5
265
100
AcDbEntity
  8
None
370
               0
390
0
  6
Continuous
 62
               7
100
AcDbHatch
 10
0.0
 20
0.0
 30
0.0
210
0.0
220
0.0
230
1.0
  2
SOLID
 70
               1
 71
               1
 91
        1
 92
        1
 93
        1
 72
               2
 10
24.803701599999993
 20
-106.64942509999997
 40
0.1799982336024438
 50
0.0
 51
360.0
 73
               0
 97
        1
330
264
 75
               0
 76
               1
 98
        1
 10
0.0
 20
0.0
  0
CIRCLE
  5
266
102
{ACAD_REACTORS
330
267
102
}
100
AcDbEntity
  8
None
370
              15
390
0
  6
Continuous
 62
               7
100
AcDbCircle
 10
24.003701599999992
 20
-106.64942509999997
 30
0.0
 40
0.1799982336024443
  0
HATCH
  5
267
100
AcDbEntity
  8
None
370
               0
390
0
  6
Continuous
 62
               7
100
AcDbHatch
 10
0.0
 20
0.0
 30
0.0
210
0.0
220
0.0
230
1.0
  2
SOLID
 70
               1
 71
               1
 91
        1
 92
        1
 93
        1
 72
               2
 10
24.003701599999992
 20
-106.64942509999997
 40
0.1799982336024443
 50
0.0
 51
360.0
 73
               0
 97
        1
330
266
 75
               0
 76
               1
 98
        1
 10
0.0
 20
0.0
  0
CIRCLE
  5
268
102
{ACAD_REACTORS
330
269
102
}
100
AcDbEntity
  8
None
370
              15
390
0
  6
Continuous
 62
               7
100
AcDbCircle
 10
28.803701599999993
 20
-103.44942509999997
 30
0.0
 40
0.1799982336024443
  0
HATCH
  5
269
100
AcDbEntity
  8
None
370
               0
390
0
  6
Continuous
 62
               7
100
AcDbHatch
 10
0.0
 20
0.0
 30
0.0
210
0.0
220
0.0
230
1.0
  2
SOLID
 70
               1
 71
               1
 91
        1
 92
        1
 93
        1
 72
               2
 10
28.803701599999993
 20
-103.44942509999997
 40
0.1799982336024443
 50
0.0
 51
360.0
 73
               0
 97
        1
330
268
 75
               0
 76
               1
 98
        1
 10
0.0
 20
0.0
  0
CIRCLE
  5
26A
102
{ACAD_REACTORS
330
26B
102
}
100
AcDbEntity
  8
None
370
              15
390
0
  6
Continuous
 62
               7
100
AcDbCircle
 10
29.603701599999994
 20
-103.44942509999997
 30
0.0
 40
0.1799982336024443
  0
HATCH
  5
26B
100
AcDbEntity
  8
None
370
               0
390
0
  6
Continuous
 62
               7
100
AcDbHatch
 10
0.0
 20
0.0
 30
0.0
210
0.0
220
0.0
230
1.0
  2
SOLID
 70
               1
 71
               1
 91
        1
 92
        1
 93
        1
 72
               2
 10
29.603701599999994
 20
-103.44942509999997
 40
0.1799982336024443
 50
0.0
 51
360.0
 73
               0
 97
        1
330
26A
 75
               0
 76
               1
 98
        1
 10
0.0
 20
0.0
  0
CIRCLE
  5
26C
102
{ACAD_REACTORS
330
26D
102
}
100
AcDbEntity
  8
None
370
              15
390
0
  6
Continuous
 62
               7
100
AcDbCircle
 10
30.403701599999994
 20
-103.44942509999997
 30
0.0
 40
0.1799982336024438
  0
HATCH
  5
26D
100
AcDbEntity
  8
None
370
               0
390
0
  6
Continuous
 62
               7
100
AcDbHatch
 10
0.0
 20
0.0
 30
0.0
210
0.0
220
0.0
230
1.0
  2
SOLID
 70
               1
 71
               1
 91
        1
 92
        1
 93
        1
 72
               2
 10
30.403701599999994
 20
-103.44942509999997
 40
0.1799982336024438
 50
0.0
 51
360.0
 73
               0
 97
        1
330
26C
 75
               0
 76
               1
 98
        1
 10
0.0
 20
0.0
  0
CIRCLE
  5
26E
102
{ACAD_REACTORS
330
26F
102
}
100
AcDbEntity
  8
None
370
              15
390
0
  6
Continuous
 62
               7
100
AcDbCircle
 10
31.203701599999992
 20
-103.44942509999997
 30
0.0
 40
0.1799982336024443
  0
HATCH
  5
26F
100
AcDbEntity
  8
None
370
               0
390
0
  6
Continuous
 62
               7
100
AcDbHatch
 10
0.0
 20
0.0
 30
0.0
210
0.0
220
0.0
230
1.0
  2
SOLID
 70
               1
 71
               1
 91
        1
 92
        1
 93
        1
 72
               2
 10
31.203701599999992
 20
-103.44942509999997
 40
0.1799982336024443
 50
0.0
 51
360.0
 73
               0
 97
        1
330
26E
 75
               0
 76
               1
 98
        1
 10
0.0
 20
0.0
  0
CIRCLE
  5
270
102
{ACAD_REACTORS
330
271
102
}
100
AcDbEntity
  8
None
370
              15
390
0
  6
Continuous
 62
               7
100
AcDbCircle
 10
32.003701599999992
 20
-103.44942509999997
 30
0.0
 40
0.1799982336024434
  0
HATCH
  5
271
100
AcDbEntity
  8
None
370
               0
390
0
  6
Continuous
 62
               7
100
AcDbHatch
 10
0.0
 20
0.0
 30
0.0
210
0.0
220
0.0
230
1.0
  2
SOLID
 70
               1
 71
               1
 91
        1
 92
        1
 93
        1
 72
               2
 10
32.003701599999992
 20
-103.44942509999997
 40
0.1799982336024434
 50
0.0
 51
360.0
 73
               0
 97
        1
330
270
 75
               0
 76
               1
 98
        1
 10
0.0
 20
0.0
  0
CIRCLE
  5
272
102
{ACAD_REACTORS
330
273
102
}
100
AcDbEntity
  8
None
370
              15
390
0
  6
Continuous
 62
               7
100
AcDbCircle
 10
28.803701599999993
 20
-104.24942509999997
 30
0.0
 40
0.1799982336024443
  0
HATCH
  5
273
100
AcDbEntity
  8
None
370
               0
390
0
  6
Continuous
 62
               7
100
AcDbHatch
 10
0.0
 20
0.0
 30
0.0
210
0.0
220
0.0
230
1.0
  2
SOLID
 70
               1
 71
               1
 91
        1
 92
        1
 93
        1
 72
               2
 10
28.803701599999993
 20
-104.24942509999997
 40
0.1799982336024443
 50
0.0
 51
360.0
 73
               0
 97
        1
330
272
 75
               0
 76
               1
 98
        1
 10
0.0
 20
0.0
  0
CIRCLE
  5
274
102
{ACAD_REACTORS
330
275
102
}
100
AcDbEntity
  8
None
370
              15
390
0
  6
Continuous
 62
               7
100
AcDbCircle
 10
29.603701599999994
 20
-104.24942509999997
 30
0.0
 40
0.1799982336024443
  0
HATCH
  5
275
100
AcDbEntity
  8
None
370
               0
390
0
  6
Continuous
 62
               7
100
AcDbHatch
 10
0.0
 20
0.0
 30
0.0
210
0.0
220
0.0
230
1.0
  2
SOLID
 70
               1
 71
               1
 91
        1
 92
        1
 93
        1
 72
               2
 10
29.603701599999994
 20
-104.24942509999997
 40
0.1799982336024443
 50
0.0
 51
360.0
 73
               0
 97
        1
330
274
 75
               0
 76
               1
 98
        1
 10
0.0
 20
0.0
  0
CIRCLE
  5
276
102
{ACAD_REACTORS
330
277
102
}
100
AcDbEntity
  8
None
370
              15
390
0
  6
Continuous
 62
               7
100
AcDbCircle
 10
30.403701599999994
 20
-104.24942509999997
 30
0.0
 40
0.1799982336024438
  0
HATCH
  5
277
100
AcDbEntity
  8
None
370
               0
390
0
  6
Continuous
 62
               7
100
AcDbHatch
 10
0.0
 20
0.0
 30
0.0
210
0.0
220
0.0
230
1.0
  2
SOLID
 70
               1
 71
               1
 91
        1
 92
        1
 93
        1
 72
               2
 10
30.403701599999994
 20
-104.24942509999997
 40
0.1799982336024438
 50
0.0
 51
360.0
 73
               0
 97
        1
330
276
 75
               0
 76
               1
 98
        1
 10
0.0
 20
0.0
  0
CIRCLE
  5
278
102
{ACAD_REACTORS
330
279
102
}
100
AcDbEntity
  8
None
370
              15
390
0
  6
Continuous
 62
               7
100
AcDbCircle
 10
31.203701599999992
 20
-104.24942509999997
 30
0.0
 40
0.1799982336024443
  0
HATCH
  5
279
100
AcDbEntity
  8
None
370
               0
390
0
  6
Continuous
 62
               7
100
AcDbHatch
 10
0.0
 20
0.0
 30
0.0
210
0.0
220
0.0
230
1.0
  2
SOLID
 70
               1
 71
               1
 91
        1
 92
        1
 93
        1
 72
               2
 10
31.203701599999992
 20
-104.24942509999997
 40
0.1799982336024443
 50
0.0
 51
360.0
 73
               0
 97
        1
330
278
 75
               0
 76
               1
 98
        1
 10
0.0
 20
0.0
  0
CIRCLE
  5
27A
102
{ACAD_REACTORS
330
27B
102
}
100
AcDbEntity
  8
None
370
              15
390
0
  6
Continuous
 62
               7
100
AcDbCircle
 10
32.003701599999992
 20
-104.24942509999997
 30
0.0
 40
0.1799982336024434
  0
HATCH
  5
27B
100
AcDbEntity
  8
None
370
               0
390
0
  6
Continuous
 62
               7
100
AcDbHatch
 10
0.0
 20
0.0
 30
0.0
210
0.0
220
0.0
230
1.0
  2
SOLID
 70
               1
 71
               1
 91
        1
 92
        1
 93
        1
 72
               2
 10
32.003701599999992
 20
-104.24942509999997
 40
0.1799982336024434
 50
0.0
 51
360.0
 73
               0
 97
        1
330
27A
 75
               0
 76
               1
 98
        1
 10
0.0
 20
0.0
  0
CIRCLE
  5
27C
102
{ACAD_REACTORS
330
27D
102
}
100
AcDbEntity
  8
None
370
              15
390
0
  6
Continuous
 62
               7
100
AcDbCircle
 10
28.803701599999993
 20
-105.04942509999998
 30
0.0
 40
0.1799982336024443
  0
HATCH
  5
27D
100
AcDbEntity
  8
None
370
               0
390
0
  6
Continuous
 62
               7
100
AcDbHatch
 10
0.0
 20
0.0
 30
0.0
210
0.0
220
0.0
230
1.0
  2
SOLID
 70
               1
 71
               1
 91
        1
 92
        1
 93
        1
 72
               2
 10
28.803701599999993
 20
-105.04942509999998
 40
0.1799982336024443
 50
0.0
 51
360.0
 73
               0
 97
        1
330
27C
 75
               0
 76
               1
 98
        1
 10
0.0
 20
0.0
  0
CIRCLE
  5
27E
102
{ACAD_REACTORS
330
27F
102
}
100
AcDbEntity
  8
None
370
              15
390
0
  6
Continuous
 62
               7
100
AcDbCircle
 10
29.603701599999994
 20
-105.04942509999998
 30
0.0
 40
0.1799982336024443
  0
HATCH
  5
27F
100
AcDbEntity
  8
None
370
               0
390
0
  6
Continuous
 62
               7
100
AcDbHatch
 10
0.0
 20
0.0
 30
0.0
210
0.0
220
0.0
230
1.0
  2
SOLID
 70
               1
 71
               1
 91
        1
 92
        1
 93
        1
 72
               2
 10
29.603701599999994
 20
-105.04942509999998
 40
0.1799982336024443
 50
0.0
 51
360.0
 73
               0
 97
        1
330
27E
 75
               0
 76
               1
 98
        1
 10
0.0
 20
0.0
  0
CIRCLE
  5
280
102
{ACAD_REACTORS
330
281
102
}
100
AcDbEntity
  8
None
370
              15
390
0
  6
Continuous
 62
               7
100
AcDbCircle
 10
30.403701599999994
 20
-105.04942509999998
 30
0.0
 40
0.1799982336024438
  0
HATCH
  5
281
100
AcDbEntity
  8
None
370
               0
390
0
  6
Continuous
 62
               7
100
AcDbHatch
 10
0.0
 20
0.0
 30
0.0
210
0.0
220
0.0
230
1.0
  2
SOLID
 70
               1
 71
               1
 91
        1
 92
        1
 93
        1
 72
               2
 10
30.403701599999994
 20
-105.04942509999998
 40
0.1799982336024438
 50
0.0
 51
360.0
 73
               0
 97
        1
330
280
 75
               0
 76
               1
 98
        1
 10
0.0
 20
0.0
  0
CIRCLE
  5
282
102
{ACAD_REACTORS
330
283
102
}
100
AcDbEntity
  8
None
370
              15
390
0
  6
Continuous
 62
               7
100
AcDbCircle
 10
31.203701599999992
 20
-105.04942509999998
 30
0.0
 40
0.1799982336024443
  0
HATCH
  5
283
100
AcDbEntity
  8
None
370
               0
390
0
  6
Continuous
 62
               7
100
AcDbHatch
 10
0.0
 20
0.0
 30
0.0
210
0.0
220
0.0
230
1.0
  2
SOLID
 70
               1
 71
               1
 91
        1
 92
        1
 93
        1
 72
               2
 10
31.203701599999992
 20
-105.04942509999998
 40
0.1799982336024443
 50
0.0
 51
360.0
 73
               0
 97
        1
330
282
 75
               0
 76
               1
 98
        1
 10
0.0
 20
0.0
  0
CIRCLE
  5
284
102
{ACAD_REACTORS
330
285
102
}
100
AcDbEntity
  8
None
370
              15
390
0
  6
Continuous
 62
               7
100
AcDbCircle
 10
32.003701599999992
 20
-105.04942509999998
 30
0.0
 40
0.1799982336024434
  0
HATCH
  5
285
100
AcDbEntity
  8
None
370
               0
390
0
  6
Continuous
 62
               7
100
AcDbHatch
 10
0.0
 20
0.0
 30
0.0
210
0.0
220
0.0
230
1.0
  2
SOLID
 70
               1
 71
               1
 91
        1
 92
        1
 93
        1
 72
               2
 10
32.003701599999992
 20
-105.04942509999998
 40
0.1799982336024434
 50
0.0
 51
360.0
 73
               0
 97
        1
330
284
 75
               0
 76
               1
 98
        1
 10
0.0
 20
0.0
  0
CIRCLE
  5
286
102
{ACAD_REACTORS
330
287
102
}
100
AcDbEntity
  8
None
370
              15
390
0
  6
Continuous
 62
               7
100
AcDbCircle
 10
28.803701599999993
 20
-105.84942509999998
 30
0.0
 40
0.1799982336024443
  0
HATCH
  5
287
100
AcDbEntity
  8
None
370
               0
390
0
  6
Continuous
 62
               7
100
AcDbHatch
 10
0.0
 20
0.0
 30
0.0
210
0.0
220
0.0
230
1.0
  2
SOLID
 70
               1
 71
               1
 91
        1
 92
        1
 93
        1
 72
               2
 10
28.803701599999993
 20
-105.84942509999998
 40
0.1799982336024443
 50
0.0
 51
360.0
 73
               0
 97
        1
330
286
 75
               0
 76
               1
 98
        1
 10
0.0
 20
0.0
  0
CIRCLE
  5
288
102
{ACAD_REACTORS
330
289
102
}
100
AcDbEntity
  8
None
370
              15
390
0
  6
Continuous
 62
               7
100
AcDbCircle
 10
29.603701599999994
 20
-105.84942509999998
 30
0.0
 40
0.1799982336024443
  0
HATCH
  5
289
100
AcDbEntity
  8
None
370
               0
390
0
  6
Continuous
 62
               7
100
AcDbHatch
 10
0.0
 20
0.0
 30
0.0
210
0.0
220
0.0
230
1.0
  2
SOLID
 70
               1
 71
               1
 91
        1
 92
        1
 93
        1
 72
               2
 10
29.603701599999994
 20
-105.84942509999998
 40
0.1799982336024443
 50
0.0
 51
360.0
 73
               0
 97
        1
330
288
 75
               0
 76
               1
 98
        1
 10
0.0
 20
0.0
  0
CIRCLE
  5
28A
102
{ACAD_REACTORS
330
28B
102
}
100
AcDbEntity
  8
None
370
              15
390
0
  6
Continuous
 62
               7
100
AcDbCircle
 10
30.403701599999994
 20
-105.84942509999998
 30
0.0
 40
0.1799982336024438
  0
HATCH
  5
28B
100
AcDbEntity
  8
None
370
               0
390
0
  6
Continuous
 62
               7
100
AcDbHatch
 10
0.0
 20
0.0
 30
0.0
210
0.0
220
0.0
230
1.0
  2
SOLID
 70
               1
 71
               1
 91
        1
 92
        1
 93
        1
 72
               2
 10
30.403701599999994
 20
-105.84942509999998
 40
0.1799982336024438
 50
0.0
 51
360.0
 73
               0
 97
        1
330
28A
 75
               0
 76
               1
 98
        1
 10
0.0
 20
0.0
  0
CIRCLE
  5
28C
102
{ACAD_REACTORS
330
28D
102
}
100
AcDbEntity
  8
None
370
              15
390
0
  6
Continuous
 62
               7
100
AcDbCircle
 10
31.203701599999992
 20
-105.84942509999998
 30
0.0
 40
0.1799982336024443
  0
HATCH
  5
28D
100
AcDbEntity
  8
None
370
               0
390
0
  6
Continuous
 62
               7
100
AcDbHatch
 10
0.0
 20
0.0
 30
0.0
210
0.0
220
0.0
230
1.0
  2
SOLID
 70
               1
 71
               1
 91
        1
 92
        1
 93
        1
 72
               2
 10
31.203701599999992
 20
-105.84942509999998
 40
0.1799982336024443
 50
0.0
 51
360.0
 73
               0
 97
        1
330
28C
 75
               0
 76
               1
 98
        1
 10
0.0
 20
0.0
  0
CIRCLE
  5
28E
102
{ACAD_REACTORS
330
28F
102
}
100
AcDbEntity
  8
None
370
              15
390
0
  6
Continuous
 62
               7
100
AcDbCircle
 10
32.003701599999992
 20
-105.84942509999998
 30
0.0
 40
0.1799982336024434
  0
HATCH
  5
28F
100
AcDbEntity
  8
None
370
               0
390
0
  6
Continuous
 62
               7
100
AcDbHatch
 10
0.0
 20
0.0
 30
0.0
210
0.0
220
0.0
230
1.0
  2
SOLID
 70
               1
 71
               1
 91
        1
 92
        1
 93
        1
 72
               2
 10
32.003701599999992
 20
-105.84942509999998
 40
0.1799982336024434
 50
0.0
 51
360.0
 73
               0
 97
        1
330
28E
 75
               0
 76
               1
 98
        1
 10
0.0
 20
0.0
  0
CIRCLE
  5
290
102
{ACAD_REACTORS
330
291
102
}
100
AcDbEntity
  8
None
370
              15
390
0
  6
Continuous
 62
               7
100
AcDbCircle
 10
28.803701599999993
 20
-106.64942509999997
 30
0.0
 40
0.1799982336024443
  0
HATCH
  5
291
100
AcDbEntity
  8
None
370
               0
390
0
  6
Continuous
 62
               7
100
AcDbHatch
 10
0.0
 20
0.0
 30
0.0
210
0.0
220
0.0
230
1.0
  2
SOLID
 70
               1
 71
               1
 91
        1
 92
        1
 93
        1
 72
               2
 10
28.803701599999993
 20
-106.64942509999997
 40
0.1799982336024443
 50
0.0
 51
360.0
 73
               0
 97
        1
330
290
 75
               0
 76
               1
 98
        1
 10
0.0
 20
0.0
  0
CIRCLE
  5
292
102
{ACAD_REACTORS
330
293
102
}
100
AcDbEntity
  8
None
370
              15
390
0
  6
Continuous
 62
               7
100
AcDbCircle
 10
29.603701599999994
 20
-106.64942509999997
 30
0.0
 40
0.1799982336024443
  0
HATCH
  5
293
100
AcDbEntity
  8
None
370
               0
390
0
  6
Continuous
 62
               7
100
AcDbHatch
 10
0.0
 20
0.0
 30
0.0
210
0.0
220
0.0
230
1.0
  2
SOLID
 70
               1
 71
               1
 91
        1
 92
        1
 93
        1
 72
               2
 10
29.603701599999994
 20
-106.64942509999997
 40
0.1799982336024443
 50
0.0
 51
360.0
 73
               0
 97
        1
330
292
 75
               0
 76
               1
 98
        1
 10
0.0
 20
0.0
  0
CIRCLE
  5
294
102
{ACAD_REACTORS
330
295
102
}
100
AcDbEntity
  8
None
370
              15
390
0
  6
Continuous
 62
               7
100
AcDbCircle
 10
30.403701599999994
 20
-106.64942509999997
 30
0.0
 40
0.1799982336024438
  0
HATCH
  5
295
100
AcDbEntity
  8
None
370
               0
390
0
  6
Continuous
 62
               7
100
AcDbHatch
 10
0.0
 20
0.0
 30
0.0
210
0.0
220
0.0
230
1.0
  2
SOLID
 70
               1
 71
               1
 91
        1
 92
        1
 93
        1
 72
               2
 10
30.403701599999994
 20
-106.64942509999997
 40
0.1799982336024438
 50
0.0
 51
360.0
 73
               0
 97
        1
330
294
 75
               0
 76
               1
 98
        1
 10
0.0
 20
0.0
  0
CIRCLE
  5
296
102
{ACAD_REACTORS
330
297
102
}
100
AcDbEntity
  8
None
370
              15
390
0
  6
Continuous
 62
               7
100
AcDbCircle
 10
31.203701599999992
 20
-106.64942509999997
 30
0.0
 40
0.1799982336024443
  0
HATCH
  5
297
100
AcDbEntity
  8
None
370
               0
390
0
  6
Continuous
 62
               7
100
AcDbHatch
 10
0.0
 20
0.0
 30
0.0
210
0.0
220
0.0
230
1.0
  2
SOLID
 70
               1
 71
               1
 91
        1
 92
        1
 93
        1
 72
               2
 10
31.203701599999992
 20
-106.64942509999997
 40
0.1799982336024443
 50
0.0
 51
360.0
 73
               0
 97
        1
330
296
 75
               0
 76
               1
 98
        1
 10
0.0
 20
0.0
  0
CIRCLE
  5
298
102
{ACAD_REACTORS
330
299
102
}
100
AcDbEntity
  8
None
370
              15
390
0
  6
Continuous
 62
               7
100
AcDbCircle
 10
32.003701599999992
 20
-106.64942509999997
 30
0.0
 40
0.1799982336024434
  0
HATCH
  5
299
100
AcDbEntity
  8
None
370
               0
390
0
  6
Continuous
 62
               7
100
AcDbHatch
 10
0.0
 20
0.0
 30
0.0
210
0.0
220
0.0
230
1.0
  2
SOLID
 70
               1
 71
               1
 91
        1
 92
        1
 93
        1
 72
               2
 10
32.003701599999992
 20
-106.64942509999997
 40
0.1799982336024434
 50
0.0
 51
360.0
 73
               0
 97
        1
330
298
 75
               0
 76
               1
 98
        1
 10
0.0
 20
0.0
  0
CIRCLE
  5
29A
102
{ACAD_REACTORS
330
29B
102
}
100
AcDbEntity
  8
None
370
              15
390
0
  6
Continuous
 62
               7
100
AcDbCircle
 10
27.203701599999992
 20
-102.64942509999997
 30
0.0
 40
0.179998233602444
  0
HATCH
  5
29B
100
AcDbEntity
  8
None
370
               0
390
0
  6
Continuous
 62
               7
100
AcDbHatch
 10
0.0
 20
0.0
 30
0.0
210
0.0
220
0.0
230
1.0
  2
SOLID
 70
               1
 71
               1
 91
        1
 92
        1
 93
        1
 72
               2
 10
27.203701599999992
 20
-102.64942509999997
 40
0.179998233602444
 50
0.0
 51
360.0
 73
               0
 97
        1
330
29A
 75
               0
 76
               1
 98
        1
 10
0.0
 20
0.0
  0
CIRCLE
  5
29C
102
{ACAD_REACTORS
330
29D
102
}
100
AcDbEntity
  8
None
370
              15
390
0
  6
Continuous
 62
               7
100
AcDbCircle
 10
26.403701599999994
 20
-102.64942509999997
 30
0.0
 40
0.1799982336024439
  0
HATCH
  5
29D
100
AcDbEntity
  8
None
370
               0
390
0
  6
Continuous
 62
               7
100
AcDbHatch
 10
0.0
 20
0.0
 30
0.0
210
0.0
220
0.0
230
1.0
  2
SOLID
 70
               1
 71
               1
 91
        1
 92
        1
 93
        1
 72
               2
 10
26.403701599999994
 20
-102.64942509999997
 40
0.1799982336024439
 50
0.0
 51
360.0
 73
               0
 97
        1
330
29C
 75
               0
 76
               1
 98
        1
 10
0.0
 20
0.0
  0
CIRCLE
  5
29E
102
{ACAD_REACTORS
330
29F
102
}
100
AcDbEntity
  8
None
370
              15
390
0
  6
Continuous
 62
               7
100
AcDbCircle
 10
25.603701599999994
 20
-102.64942509999997
 30
0.0
 40
0.1799982336024438
  0
HATCH
  5
29F
100
AcDbEntity
  8
None
370
               0
390
0
  6
Continuous
 62
               7
100
AcDbHatch
 10
0.0
 20
0.0
 30
0.0
210
0.0
220
0.0
230
1.0
  2
SOLID
 70
               1
 71
               1
 91
        1
 92
        1
 93
        1
 72
               2
 10
25.603701599999994
 20
-102.64942509999997
 40
0.1799982336024438
 50
0.0
 51
360.0
 73
               0
 97
        1
330
29E
 75
               0
 76
               1
 98
        1
 10
0.0
 20
0.0
  0
CIRCLE
  5
2A0
102
{ACAD_REACTORS
330
2A1
102
}
100
AcDbEntity
  8
None
370
              15
390
0
  6
Continuous
 62
               7
100
AcDbCircle
 10
24.803701599999993
 20
-102.64942509999997
 30
0.0
 40
0.1799982336024438
  0
HATCH
  5
2A1
100
AcDbEntity
  8
None
370
               0
390
0
  6
Continuous
 62
               7
100
AcDbHatch
 10
0.0
 20
0.0
 30
0.0
210
0.0
220
0.0
230
1.0
  2
SOLID
 70
               1
 71
               1
 91
        1
 92
        1
 93
        1
 72
               2
 10
24.803701599999993
 20
-102.64942509999997
 40
0.1799982336024438
 50
0.0
 51
360.0
 73
               0
 97
        1
330
2A0
 75
               0
 76
               1
 98
        1
 10
0.0
 20
0.0
  0
CIRCLE
  5
2A2
102
{ACAD_REACTORS
330
2A3
102
}
100
AcDbEntity
  8
None
370
              15
390
0
  6
Continuous
 62
               7
100
AcDbCircle
 10
24.003701599999992
 20
-102.64942509999997
 30
0.0
 40
0.1799982336024443
  0
HATCH
  5
2A3
100
AcDbEntity
  8
None
370
               0
390
0
  6
Continuous
 62
               7
100
AcDbHatch
 10
0.0
 20
0.0
 30
0.0
210
0.0
220
0.0
230
1.0
  2
SOLID
 70
               1
 71
               1
 91
        1
 92
        1
 93
        1
 72
               2
 10
24.003701599999992
 20
-102.64942509999997
 40
0.1799982336024443
 50
0.0
 51
360.0
 73
               0
 97
        1
330
2A2
 75
               0
 76
               1
 98
        1
 10
0.0
 20
0.0
  0
CIRCLE
  5
2A4
102
{ACAD_REACTORS
330
2A5
102
}
100
AcDbEntity
  8
None
370
              15
390
0
  6
Continuous
 62
               7
100
AcDbCircle
 10
28.003701599999992
 20
-103.44942509999997
 30
0.0
 40
0.1799982336024441
  0
HATCH
  5
2A5
100
AcDbEntity
  8
None
370
               0
390
0
  6
Continuous
 62
               7
100
AcDbHatch
 10
0.0
 20
0.0
 30
0.0
210
0.0
220
0.0
230
1.0
  2
SOLID
 70
               1
 71
               1
 91
        1
 92
        1
 93
        1
 72
               2
 10
28.003701599999992
 20
-103.44942509999997
 40
0.1799982336024441
 50
0.0
 51
360.0
 73
               0
 97
        1
330
2A4
 75
               0
 76
               1
 98
        1
 10
0.0
 20
0.0
  0
CIRCLE
  5
2A6
102
{ACAD_REACTORS
330
2A7
102
}
100
AcDbEntity
  8
None
370
              15
390
0
  6
Continuous
 62
               7
100
AcDbCircle
 10
28.003701599999992
 20
-104.24942509999997
 30
0.0
 40
0.1799982336024441
  0
HATCH
  5
2A7
100
AcDbEntity
  8
None
370
               0
390
0
  6
Continuous
 62
               7
100
AcDbHatch
 10
0.0
 20
0.0
 30
0.0
210
0.0
220
0.0
230
1.0
  2
SOLID
 70
               1
 71
               1
 91
        1
 92
        1
 93
        1
 72
               2
 10
28.003701599999992
 20
-104.24942509999997
 40
0.1799982336024441
 50
0.0
 51
360.0
 73
               0
 97
        1
330
2A6
 75
               0
 76
               1
 98
        1
 10
0.0
 20
0.0
  0
CIRCLE
  5
2A8
102
{ACAD_REACTORS
330
2A9
102
}
100
AcDbEntity
  8
None
370
              15
390
0
  6
Continuous
 62
               7
100
AcDbCircle
 10
28.003701599999992
 20
-105.04942509999998
 30
0.0
 40
0.1799982336024441
  0
HATCH
  5
2A9
100
AcDbEntity
  8
None
370
               0
390
0
  6
Continuous
 62
               7
100
AcDbHatch
 10
0.0
 20
0.0
 30
0.0
210
0.0
220
0.0
230
1.0
  2
SOLID
 70
               1
 71
               1
 91
        1
 92
        1
 93
        1
 72
               2
 10
28.003701599999992
 20
-105.04942509999998
 40
0.1799982336024441
 50
0.0
 51
360.0
 73
               0
 97
        1
330
2A8
 75
               0
 76
               1
 98
        1
 10
0.0
 20
0.0
  0
CIRCLE
  5
2AA
102
{ACAD_REACTORS
330
2AB
102
}
100
AcDbEntity
  8
None
370
              15
390
0
  6
Continuous
 62
               7
100
AcDbCircle
 10
28.003701599999992
 20
-105.84942509999998
 30
0.0
 40
0.1799982336024441
  0
HATCH
  5
2AB
100
AcDbEntity
  8
None
370
               0
390
0
  6
Continuous
 62
               7
100
AcDbHatch
 10
0.0
 20
0.0
 30
0.0
210
0.0
220
0.0
230
1.0
  2
SOLID
 70
               1
 71
               1
 91
        1
 92
        1
 93
        1
 72
               2
 10
28.003701599999992
 20
-105.84942509999998
 40
0.1799982336024441
 50
0.0
 51
360.0
 73
               0
 97
        1
330
2AA
 75
               0
 76
               1
 98
        1
 10
0.0
 20
0.0
  0
CIRCLE
  5
2AC
102
{ACAD_REACTORS
330
2AD
102
}
100
AcDbEntity
  8
None
370
              15
390
0
  6
Continuous
 62
               7
100
AcDbCircle
 10
28.003701599999992
 20
-106.64942509999997
 30
0.0
 40
0.1799982336024441
  0
HATCH
  5
2AD
100
AcDbEntity
  8
None
370
               0
390
0
  6
Continuous
 62
               7
100
AcDbHatch
 10
0.0
 20
0.0
 30
0.0
210
0.0
220
0.0
230
1.0
  2
SOLID
 70
               1
 71
               1
 91
        1
 92
        1
 93
        1
 72
               2
 10
28.003701599999992
 20
-106.64942509999997
 40
0.1799982336024441
 50
0.0
 51
360.0
 73
               0
 97
        1
330
2AC
 75
               0
 76
               1
 98
        1
 10
0.0
 20
0.0
  0
DIMENSION
  5
2AE
100
AcDbEntity
  8
Dimension
370
              15
390
0
  6
Continuous
 62
               1
100
AcDbDimension
  2
*D15
 10
12.220001599999994
 20
-98.649425099999974
 30
0.0
 11
12.220001599999994
 21
-102.64942509999997
 31
0.0
 71
               5
 72
               1
 41
1.0
 42
0.0
  3
IE Standard
100
AcDbAlignedDimension
 13
24.003701599999992
 23
-106.64942509999997
 33
0.0
 14
24.003701599999992
 24
-98.649425099999974
 34
0.0
 50
90.0
100
AcDbRotatedDimension
1001
ACAD
1000
DSTYLE
1002
{
1070
             340
1005
33
1070
             147
1040
0.09921875
1002
}
  0
DIMENSION
  5
2AF
100
AcDbEntity
  8
Dimension
370
              15
390
0
  6
Continuous
 62
               1
100
AcDbDimension
  2
*D16
 10
24.003701599999992
 20
-89.910005099999978
 30
0.0
 11
27.981851014062492
 21
-89.910005099999978
 31
0.0
 70
             128
 71
               5
 72
               1
 41
1.0
 42
0.0
  3
IE Standard
100
AcDbAlignedDimension
 13
32.003701599999992
 23
-98.649425099999974
 33
0.0
 14
24.003701599999992
 24
-98.649425099999974
 34
0.0
100
AcDbRotatedDimension
1001
ACAD
1000
DSTYLE
1002
{
1070
             340
1005
33
1070
             147
1040
0.09921875
1002
}
  0
WIPEOUT
  5
2B0
100
AcDbEntity
  8
None
370
               9
390
0
  6
Continuous
 62
               7
 92
        0
100
AcDbWipeout
 90
        0
 10
36.370001599999995
 20
44.553986599999988
 30
0.0
 11
13.6
 21
0.0
 31
0.0
 12
0.0
 22
13.6
 32
0.0
 13
1.0
 23
1.0
340
0
 70
               7
280
               1
281
              50
282
              50
283
               0
360
0
 71
               2
 91
        5
 14
-0.5
 24
10.241567404411761
 14
0.4999999999999996
 24
10.241567404411761
 14
0.4999999999999996
 24
10.107330272058821
 14
-0.5
 24
10.107330272058821
 14
-0.5
 24
10.241567404411761
  0
MTEXT
  5
2B1
100
AcDbEntity
  8
None
390
0
 62
               7
100
AcDbMText
 10
36.370001599999995
 20
-86.251639344791641
 30
0.0
 40
0.5684407552083333
 41
13.6
 71
               1
 72
               1
  1
{\LNote: BGA pattern is not symmetrical with respect to the mounting holes.}
  7
Arial
 73
               1
 44
0.9673603504928806
  0
ENDSEC
  0
SECTION
  2
OBJECTS
  0
DICTIONARY
  5
19
100
AcDbDictionary
280
               0
281
               1
  3
ACAD_GROUP
350
1A
  3
ACAD_MLINESTYLE
350
1B
  3
ACAD_LAYOUT
350
1E
  3
ACAD_PLOTSETTINGS
350
22
  3
ACAD_PLOTSTYLENAME
350
1F
  3
ACAD_WIPEOUT_VARS
350
23
  0
DICTIONARY
  5
1A
102
{ACAD_REACTORS
330
19
102
}
100
AcDbDictionary
280
               0
281
               1
  0
DICTIONARY
  5
1B
102
{ACAD_REACTORS
330
19
102
}
100
AcDbDictionary
280
               0
281
               1
  3
Standard
350
1C
  0
MLINESTYLE
  5
1C
102
{ACAD_REACTORS
330
1B
102
}
100
AcDbMlineStyle
  2
Standard
 70
               0
  3

 62
               0
 51
90.0
 52
90.0
 71
               2
 49
0.5
 62
             256
  6
ByLayer
 49
-0.5
 62
             256
  6
ByLayer
  0
ACDBDICTIONARYWDFLT
  5
1F
102
{ACAD_REACTORS
330
19
102
}
100
AcDbDictionary
281
               1
  3
Normal
350
1D
100
AcDbDictionaryWithDefault
340
1D
  0
ACDBPLACEHOLDER
  5
1D
102
{ACAD_REACTORS
330
1F
102
}
  0
LAYOUT
  5
20
102
{ACAD_REACTORS
330
1E
102
}
100
AcDbPlotSettings
  1

  2

  4

  6

 40
0.0
 41
0.0
 42
0.0
 43
0.0
 44
0.0
 45
0.0
 46
0.0
 47
0.0
 48
0.0
 49
0.0
140
0.0
141
0.0
142
1.0
143
1.0
 70
            1024
 72
               0
 73
               0
 74
               0
  7

 75
               0
147
1.0
148
0.0
149
0.0
100
AcDbLayout
  1
Model
 70
               0
 71
               0
 10
0.0
 20
0.0
 11
0.0
 21
0.0
 12
0.0
 22
0.0
 32
0.0
 14
0.0
 24
0.0
 34
0.0
 15
0.0
 25
0.0
 35
0.0
146
0.0
 13
0.0
 23
0.0
 33
0.0
 16
0.0
 26
0.0
 36
0.0
 17
0.0
 27
0.0
 37
0.0
 76
               0
330
A
331
0
345
0
346
0
  0
LAYOUT
  5
21
102
{ACAD_REACTORS
330
1E
102
}
100
AcDbPlotSettings
  1

  2

  4

  6

 40
0.0
 41
0.0
 42
0.0
 43
0.0
 44
0.0
 45
0.0
 46
0.0
 47
0.0
 48
0.0
 49
0.0
140
0.0
141
0.0
142
1.0
143
1.0
 70
               0
 72
               0
 73
               0
 74
               0
  7

 75
               0
147
1.0
148
0.0
149
0.0
100
AcDbLayout
  1
Layout1
 70
               0
 71
               0
 10
0.0
 20
0.0
 11
0.0
 21
0.0
 12
0.0
 22
0.0
 32
0.0
 14
0.0
 24
0.0
 34
0.0
 15
0.0
 25
0.0
 35
0.0
146
0.0
 13
0.0
 23
0.0
 33
0.0
 16
0.0
 26
0.0
 36
0.0
 17
0.0
 27
0.0
 37
0.0
 76
               0
330
B
331
0
345
0
346
0
  0
DICTIONARY
  5
1E
102
{ACAD_REACTORS
330
19
102
}
100
AcDbDictionary
280
               0
281
               1
  3
Layout1
350
21
  3
Model
350
20
  0
DICTIONARY
  5
22
102
{ACAD_REACTORS
330
19
102
}
100
AcDbDictionary
280
               0
281
               1
  0
WIPEOUTVARIABLES
  5
23
100
AcDbWipeoutVariables
 70
               0
  0
ENDSEC
  0
EOF
