  0
SECTION
  2
HEADER
  9
$ACADVER
  1
AC1015
  9
$ACADMAINTVER
 70
               6
  9
$DWGCODEPAGE
  3
ANSI_1252
  9
$INSBASE
 10
0.0
 20
0.0
 30
0.0
  9
$EXTMIN
 10
-16.598484937060004
 20
-154.90306667969548
 30
-1.3787717693750003
  9
$EXTMAX
 10
67.134764662939986
 20
-90.689411208914606
 30
1.3787717693750003
  9
$LIMMIN
 10
0.0
 20
0.0
  9
$LIMMAX
 10
0.0
 20
0.0
  9
$ORTHOMODE
 70
               0
  9
$REGENMODE
 70
               1
  9
$FILLMODE
 70
               1
  9
$QTEXTMODE
 70
               0
  9
$MIRRTEXT
 70
               1
  9
$LTSCALE
 40
8.4666582000000012
  9
$ATTMODE
 70
               1
  9
$TEXTSIZE
 40
0.2
  9
$TRACEWID
 40
1.0
  9
$TEXTSTYLE
  7
Standard
  9
$CLAYER
  8
None
  9
$CELTYPE
  6
Continuous
  9
$CECOLOR
 62
             256
  9
$CELTSCALE
 40
1.0
  9
$DISPSILH
 70
               0
  9
$DIMSCALE
 40
1.0
  9
$DIMASZ
 40
1.0583322750000002
  9
$DIMEXO
 40
2.1166645500000003
  9
$DIMDLI
 40
10.16
  9
$DIMRND
 40
0.0
  9
$DIMDLE
 40
0.0
  9
$DIMEXE
 40
1.0583322750000002
  9
$DIMTP
 40
0.0
  9
$DIMTM
 40
0.0
  9
$DIMTXT
 40
0.8421373697916665
  9
$DIMCEN
 40
0.0
  9
$DIMTSZ
 40
0.0
  9
$DIMTOL
 70
               0
  9
$DIMLIM
 70
               0
  9
$DIMTIH
 70
               1
  9
$DIMTOH
 70
               1
  9
$DIMSE1
 70
               0
  9
$DIMSE2
 70
               0
  9
$DIMTAD
 70
               0
  9
$DIMZIN
 70
               3
  9
$DIMBLK
  1
VW_FILLEDARROW
  9
$DIMASO
 70
               1
  9
$DIMSHO
 70
               1
  9
$DIMPOST
  1
<>mm\X
  9
$DIMAPOST
  1
[]"
  9
$DIMALT
 70
               1
  9
$DIMALTD
 70
               3
  9
$DIMALTF
 40
0.0393700787401575
  9
$DIMLFAC
 40
1.0
  9
$DIMTOFL
 70
               0
  9
$DIMTVP
 40
0.0
  9
$DIMTIX
 70
               1
  9
$DIMSOXD
 70
               0
  9
$DIMSAH
 70
               0
  9
$DIMBLK1
  1

  9
$DIMBLK2
  1

  9
$DIMSTYLE
  2
ASME Dual Stacked
  9
$DIMCLRD
 70
               0
  9
$DIMCLRE
 70
               0
  9
$DIMCLRT
 70
               0
  9
$DIMTFAC
 40
1.0
  9
$DIMGAP
 40
0.0
  9
$DIMJUST
 70
               0
  9
$DIMSD1
 70
               0
  9
$DIMSD2
 70
               0
  9
$DIMTOLJ
 70
               1
  9
$DIMTZIN
 70
               3
  9
$DIMALTZ
 70
               3
  9
$DIMALTTZ
 70
               3
  9
$DIMUPT
 70
               0
  9
$DIMDEC
 70
               2
  9
$DIMTDEC
 70
               2
  9
$DIMALTU
 70
               2
  9
$DIMALTTD
 70
               2
  9
$DIMTXSTY
  7
Helvetica
  9
$DIMAUNIT
 70
               0
  9
$DIMADEC
 70
               0
  9
$DIMALTRND
 40
0.0
  9
$DIMAZIN
 70
               0
  9
$DIMDSEP
 70
              46
  9
$DIMATFIT
 70
               0
  9
$DIMFRAC
 70
               2
  9
$DIMLDRBLK
  1

  9
$DIMLUNIT
 70
               2
  9
$DIMLWD
 70
              -2
  9
$DIMLWE
 70
              -2
  9
$DIMTMOVE
 70
               0
  9
$LUNITS
 70
               2
  9
$LUPREC
 70
               4
  9
$SKETCHINC
 40
0.1
  9
$FILLETRAD
 40
0.0
  9
$AUNITS
 70
               0
  9
$AUPREC
 70
               0
  9
$MENU
  1
acad
  9
$ELEVATION
 40
0.0
  9
$PELEVATION
 40
0.0
  9
$THICKNESS
 40
0.0
  9
$LIMCHECK
 70
               0
  9
$CHAMFERA
 40
0.0
  9
$CHAMFERB
 40
0.0
  9
$CHAMFERC
 40
0.0
  9
$CHAMFERD
 40
0.0
  9
$SKPOLY
 70
               0
  9
$TDCREATE
 40
2454603.449942130
  9
$TDUCREATE
 40
0.000000000
  9
$TDUPDATE
 40
2454603.449942130
  9
$TDUUPDATE
 40
0.000000000
  9
$TDINDWG
 40
0.0000000000
  9
$TDUSRTIMER
 40
0.0000000000
  9
$USRTIMER
 70
               1
  9
$ANGBASE
 50
0.0
  9
$ANGDIR
 70
               0
  9
$PDMODE
 70
               1
  9
$PDSIZE
 40
-2.0
  9
$PLINEWID
 40
0.0
  9
$SPLFRAME
 70
               0
  9
$SPLINETYPE
 70
               6
  9
$SPLINESEGS
 70
               8
  9
$HANDSEED
  5
3BF
  9
$SURFTAB1
 70
               6
  9
$SURFTAB2
 70
               6
  9
$SURFTYPE
 70
               6
  9
$SURFU
 70
               6
  9
$SURFV
 70
               6
  9
$UCSBASE
  2

  9
$UCSNAME
  2

  9
$UCSORG
 10
0.0
 20
0.0
 30
0.0
  9
$UCSXDIR
 10
1.0
 20
0.0
 30
0.0
  9
$UCSYDIR
 10
0.0
 20
1.0
 30
0.0
  9
$UCSORTHOREF
  2

  9
$UCSORTHOVIEW
 70
               0
  9
$UCSORGTOP
 10
0.0
 20
0.0
 30
0.0
  9
$UCSORGBOTTOM
 10
0.0
 20
0.0
 30
0.0
  9
$UCSORGLEFT
 10
0.0
 20
0.0
 30
0.0
  9
$UCSORGRIGHT
 10
0.0
 20
0.0
 30
0.0
  9
$UCSORGFRONT
 10
0.0
 20
0.0
 30
0.0
  9
$UCSORGBACK
 10
0.0
 20
0.0
 30
0.0
  9
$PUCSBASE
  2

  9
$PUCSNAME
  2

  9
$PUCSORG
 10
0.0
 20
0.0
 30
0.0
  9
$PUCSXDIR
 10
1.0
 20
0.0
 30
0.0
  9
$PUCSYDIR
 10
0.0
 20
1.0
 30
0.0
  9
$PUCSORTHOREF
  2

  9
$PUCSORTHOVIEW
 70
               0
  9
$PUCSORGTOP
 10
0.0
 20
0.0
 30
0.0
  9
$PUCSORGBOTTOM
 10
0.0
 20
0.0
 30
0.0
  9
$PUCSORGLEFT
 10
0.0
 20
0.0
 30
0.0
  9
$PUCSORGRIGHT
 10
0.0
 20
0.0
 30
0.0
  9
$PUCSORGFRONT
 10
0.0
 20
0.0
 30
0.0
  9
$PUCSORGBACK
 10
0.0
 20
0.0
 30
0.0
  9
$USERI1
 70
               0
  9
$USERI2
 70
               0
  9
$USERI3
 70
               0
  9
$USERI4
 70
               0
  9
$USERI5
 70
               0
  9
$USERR1
 40
0.0
  9
$USERR2
 40
0.0
  9
$USERR3
 40
0.0
  9
$USERR4
 40
0.0
  9
$USERR5
 40
0.0
  9
$WORLDVIEW
 70
               1
  9
$SHADEDGE
 70
               3
  9
$SHADEDIF
 70
              70
  9
$TILEMODE
 70
               1
  9
$MAXACTVP
 70
              64
  9
$PINSBASE
 10
0.0
 20
0.0
 30
0.0
  9
$PLIMCHECK
 70
               0
  9
$PEXTMIN
 10
1.0000000000000000E+20
 20
1.0000000000000000E+20
 30
1.0000000000000000E+20
  9
$PEXTMAX
 10
-1.0000000000000000E+20
 20
-1.0000000000000000E+20
 30
-1.0000000000000000E+20
  9
$PLIMMIN
 10
0.0
 20
0.0
  9
$PLIMMAX
 10
12.0
 20
9.0
  9
$UNITMODE
 70
               0
  9
$VISRETAIN
 70
               0
  9
$PLINEGEN
 70
               1
  9
$PSLTSCALE
 70
               0
  9
$TREEDEPTH
 70
            3020
  9
$CMLSTYLE
  2
Standard
  9
$CMLJUST
 70
               0
  9
$CMLSCALE
 40
1.0
  9
$PROXYGRAPHICS
 70
               0
  9
$MEASUREMENT
 70
               1
  9
$CELWEIGHT
370
               0
  9
$ENDCAPS
280
               0
  9
$JOINSTYLE
280
               0
  9
$LWDISPLAY
290
               1
  9
$INSUNITS
 70
               4
  9
$HYPERLINKBASE
  1

  9
$STYLESHEET
  1

  9
$XEDIT
290
               1
  9
$CEPSNTYPE
380
               0
  9
$PSTYLEMODE
290
               1
  9
$FINGERPRINTGUID
  2

  9
$VERSIONGUID
  2

  9
$EXTNAMES
290
               1
  9
$PSVPSCALE
 40
0.0
  0
ENDSEC
  0
SECTION
  2
CLASSES
  0
CLASS
  1
LWPOLYLINE
  2
AcDbPolyline
  3
AutoCAD 2000
 90
        0
280
               0
281
               1
  0
CLASS
  1
IMAGE
  2
AcDbRasterImage
  3
ISM
 90
      127
280
               0
281
               1
  0
CLASS
  1
OLE2FRAME
  2
AcDbOle2Frame
  3
AutoCAD 2000
 90
        0
280
               0
281
               1
  0
CLASS
  1
HATCH
  2
AcDbHatch
  3
AutoCAD 2000
 90
        0
280
               0
281
               1
  0
CLASS
  1
DICTIONARYVAR
  2
AcDbDictionaryVar
  3
AutoCAD 2000
 90
        0
280
               0
281
               0
  0
CLASS
  1
RASTERVARIABLES
  2
AcDbRasterVariables
  3
ISM
 90
        0
280
               0
281
               0
  0
CLASS
  1
IMAGEDEF
  2
AcDbRasterImageDef
  3
ISM
 90
        0
280
               0
281
               0
  0
CLASS
  1
IMAGEDEF_REACTOR
  2
AcDbRasterImageDefReactor
  3
ISM
 90
        1
280
               0
281
               0
  0
CLASS
  1
IDBUFFER
  2
AcDbIdBuffer
  3
AutoCAD 2000
 90
        0
280
               0
281
               0
  0
CLASS
  1
SPATIAL_FILTER
  2
AcDbSpatialFilter
  3
AutoCAD 2000
 90
        0
280
               0
281
               0
  0
CLASS
  1
XRECORD
  2
AcDbXrecord
  3
AutoCAD 2000
 90
        0
280
               0
281
               0
  0
CLASS
  1
SORTENTSTABLE
  2
AcDbSortentsTable
  3
AutoCAD 2000
 90
        0
280
               0
281
               0
  0
CLASS
  1
LAYER_INDEX
  2
AcDbLayerIndex
  3
AutoCAD 2000
 90
        0
280
               0
281
               0
  0
CLASS
  1
SPATIAL_INDEX
  2
AcDbSpatialIndex
  3
AutoCAD 2000
 90
        0
280
               0
281
               0
  0
CLASS
  1
OBJECT_PTR
  2
CAseDLPNTableRecord
  3
"ASE-LPNTableRecord"
 90
        1
280
               0
281
               0
  0
CLASS
  1
LAYOUT
  2
AcDbLayout
  3
AutoCAD 2000
 90
        0
280
               0
281
               0
  0
CLASS
  1
PLOTSETTINGS
  2
AcDbPlotSettings
  3
AutoCAD 2000
 90
        0
280
               0
281
               0
  0
CLASS
  1
ACDBDICTIONARYWDFLT
  2
AcDbDictionaryWithDefault
  3
AutoCAD 2000
 90
        0
280
               0
281
               0
  0
CLASS
  1
ACDBPLACEHOLDER
  2
AcDbPlaceHolder
  3
AutoCAD 2000
 90
        0
280
               0
281
               0
  0
CLASS
  1
VBA_PROJECT
  2
AcDbVbaProject
  3
acadvba
 90
        0
280
               0
281
               0
  0
CLASS
  1
WIPEOUT
  2
AcDbWipeout
  3
WipeOut|AutoCAD Express Tool|expresstools@autodesk.com
 90
      127
280
               0
281
               1
  0
CLASS
  1
WIPEOUTVARIABLES
  2
AcDbWipeoutVariables
  3
WipeOut|AutoCAD Express Tool|expresstools@autodesk.com
 90
        0
280
               0
281
               0
  0
CLASS
  1
RTEXT
  2
RText
  3
RText|AutoCAD Express Tool|expresstools@autodesk.com
 90
        0
280
               0
281
               1
  0
CLASS
  1
ARCALIGNEDTEXT
  2
AcDbArcAlignedText
  3
ATEXT|AutoCAD Express Tool|expresstools@autodesk.com
 90
        0
280
               0
281
               1
  0
ENDSEC
  0
SECTION
  2
TABLES
  0
TABLE
  2
VPORT
  5
7
100
AcDbSymbolTable
 70
               1
  0
VPORT
  5
15
100
AcDbSymbolTableRecord
100
AcDbViewportTableRecord
  2
*ACTIVE
 70
               0
 10
0.0
 20
0.0
 11
1.0
 21
1.0
 12
25.268139862939993
 22
-122.79623894430505
 13
0.0
 23
0.0
 14
1.0
 24
1.0
 15
0.0
 25
0.0
 16
0.0
 26
0.0
 36
1.0
 17
0.0
 27
0.0
 37
0.0
 40
64.213655470780878
 41
0.688564
 42
50.0
 43
0.0
 44
0.0
 50
0.0
 51
0.0
 71
               0
 72
            2000
 73
               1
 74
               1
 75
               0
 76
               0
 77
               0
 78
               0
281
               0
 65
               0
110
0.0
120
0.0
130
0.0
111
1.0
121
0.0
131
0.0
112
0.0
122
1.0
132
0.0
345
0
346
0
 79
               0
146
0.0
  0
ENDTAB
  0
TABLE
  2
LTYPE
  5
4
100
AcDbSymbolTable
 70
              21
  0
LTYPE
  5
11
100
AcDbSymbolTableRecord
100
AcDbLinetypeTableRecord
  2
ByBlock
 70
              64
  3

 72
              65
 73
               0
 40
0.0
  0
LTYPE
  5
12
100
AcDbSymbolTableRecord
100
AcDbLinetypeTableRecord
  2
ByLayer
 70
              64
  3

 72
              65
 73
               0
 40
0.0
  0
LTYPE
  5
13
100
AcDbSymbolTableRecord
100
AcDbLinetypeTableRecord
  2
Continuous
 70
              64
  3
Solid line
 72
              65
 73
               0
 40
0.0
  0
LTYPE
  5
37
100
AcDbSymbolTableRecord
100
AcDbLinetypeTableRecord
  2
STYLE_01
 70
               0
  3

 72
              65
 73
               2
 40
1.5
 49
1.0
 74
               0
 49
-0.5
 74
               0
  0
LTYPE
  5
38
100
AcDbSymbolTableRecord
100
AcDbLinetypeTableRecord
  2
STYLE_02
 70
               0
  3

 72
              65
 73
               2
 40
0.75
 49
0.5
 74
               0
 49
-0.25
 74
               0
  0
LTYPE
  5
39
100
AcDbSymbolTableRecord
100
AcDbLinetypeTableRecord
  2
STYLE_03
 70
               0
  3

 72
              65
 73
               4
 40
4.0
 49
0.25
 74
               0
 49
-0.5
 74
               0
 49
0.5
 74
               0
 49
-0.5
 74
               0
  0
LTYPE
  5
3A
100
AcDbSymbolTableRecord
100
AcDbLinetypeTableRecord
  2
STYLE_04
 70
               0
  3

 72
              65
 73
               4
 40
5.0
 49
2.5
 74
               0
 49
-0.5
 74
               0
 49
0.5
 74
               0
 49
-0.5
 74
               0
  0
LTYPE
  5
3B
100
AcDbSymbolTableRecord
100
AcDbLinetypeTableRecord
  2
STYLE_05
 70
               0
  3

 72
              65
 73
               2
 40
0.5
 49
0.0001
 74
               0
 49
-0.4999
 74
               0
  0
LTYPE
  5
3C
100
AcDbSymbolTableRecord
100
AcDbLinetypeTableRecord
  2
STYLE_06
 70
               0
  3

 72
              65
 73
               4
 40
2.0
 49
1.0
 74
               0
 49
-0.5
 74
               0
 49
0.0001
 74
               0
 49
-0.4999
 74
               0
  0
LTYPE
  5
3D
100
AcDbSymbolTableRecord
100
AcDbLinetypeTableRecord
  2
STYLE_07
 70
               0
  3

 72
              65
 73
               6
 40
3.5
 49
1.0
 74
               0
 49
-0.5
 74
               0
 49
1.0
 74
               0
 49
-0.5
 74
               0
 49
0.0001000000000002
 74
               0
 49
-0.4998999999999998
 74
               0
  0
LTYPE
  5
3E
100
AcDbSymbolTableRecord
100
AcDbLinetypeTableRecord
  2
STYLE_08
 70
               0
  3

 72
              65
 73
               6
 40
2.5
 49
1.0
 74
               0
 49
-0.5
 74
               0
 49
0.0001
 74
               0
 49
-0.4999
 74
               0
 49
0.0001000000000002
 74
               0
 49
-0.4998999999999998
 74
               0
  0
LTYPE
  5
3F
100
AcDbSymbolTableRecord
100
AcDbLinetypeTableRecord
  2
STYLE_09
 70
               0
  3

 72
              65
 73
               2
 40
0.09722900390625
 49
0.0555572509765625
 74
               0
 49
-0.0416717529296875
 74
               0
  0
LTYPE
  5
40
100
AcDbSymbolTableRecord
100
AcDbLinetypeTableRecord
  2
STYLE_10
 70
               0
  3

 72
              65
 73
               4
 40
0.59722900390625
 49
0.3055572509765625
 74
               0
 49
-0.15277099609375
 74
               0
 49
0.013885498046875
 74
               0
 49
-0.1250152587890625
 74
               0
  0
LTYPE
  5
41
100
AcDbSymbolTableRecord
100
AcDbLinetypeTableRecord
  2
STYLE_11
 70
               0
  3

 72
              65
 73
               4
 40
0.4305572509765625
 49
0.236114501953125
 74
               0
 49
-0.0833282470703125
 74
               0
 49
0.013885498046875
 74
               0
 49
-0.09722900390625
 74
               0
  0
LTYPE
  5
42
100
AcDbSymbolTableRecord
100
AcDbLinetypeTableRecord
  2
STYLE_12
 70
               0
  3

 72
              65
 73
               2
 40
0.0833282470703125
 49
0.0555572509765625
 74
               0
 49
-0.02777099609375
 74
               0
  0
LTYPE
  5
43
100
AcDbSymbolTableRecord
100
AcDbLinetypeTableRecord
  2
STYLE_13
 70
               0
  3

 72
              65
 73
               4
 40
0.068511962890625
 49
0.0428314208984375
 74
               0
 49
-0.0085601806640625
 74
               0
 49
0.0085601806640625
 74
               0
 49
-0.0085601806640625
 74
               0
  0
LTYPE
  5
44
100
AcDbSymbolTableRecord
100
AcDbLinetypeTableRecord
  2
STYLE_14
 70
               0
  3

 72
              65
 73
               2
 40
0.02569580078125
 49
0.0171356201171875
 74
               0
 49
-0.0085601806640625
 74
               0
  0
LTYPE
  5
45
100
AcDbSymbolTableRecord
100
AcDbLinetypeTableRecord
  2
STYLE_15
 70
               0
  3

 72
              65
 73
               6
 40
0.08563232421875
 49
0.0428314208984375
 74
               0
 49
-0.0085601806640625
 74
               0
 49
0.0085601806640625
 74
               0
 49
-0.0085601806640625
 74
               0
 49
0.0085601806640625
 74
               0
 49
-0.0085601806640625
 74
               0
  0
LTYPE
  5
46
100
AcDbSymbolTableRecord
100
AcDbLinetypeTableRecord
  2
STYLE_16
 70
               0
  3

 72
              65
 73
               2
 40
0.375
 49
0.25
 74
               0
 49
-0.125
 74
               0
  0
LTYPE
  5
47
100
AcDbSymbolTableRecord
100
AcDbLinetypeTableRecord
  2
STYLE_17
 70
               0
  3

 72
              65
 73
               2
 40
0.7947845458984375
 49
0.5298614501953125
 74
               0
 49
-0.264923095703125
 74
               0
  0
LTYPE
  5
48
100
AcDbSymbolTableRecord
100
AcDbLinetypeTableRecord
  2
STYLE_18
 70
               0
  3

 72
              65
 73
               4
 40
0.2083282470703125
 49
0.125
 74
               0
 49
-0.041656494140625
 74
               0
 49
0.013885498046875
 74
               0
 49
-0.0277862548828125
 74
               0
  0
ENDTAB
  0
TABLE
  2
LAYER
  5
2
100
AcDbSymbolTable
 70
              12
  0
LAYER
  5
14
100
AcDbSymbolTableRecord
100
AcDbLayerTableRecord
  2
0
 70
               0
 62
               7
  6
Continuous
290
               1
370
              15
390
1D
  0
LAYER
  5
49
100
AcDbSymbolTableRecord
100
AcDbLayerTableRecord
  2
Defpoints
 70
               0
 62
               7
  6
Continuous
290
               0
370
              -3
390
1D
  0
LAYER
  5
4A
100
AcDbSymbolTableRecord
100
AcDbLayerTableRecord
  2
None
 70
               0
 62
               7
  6
Continuous
290
               1
370
               5
390
1D
  0
LAYER
  5
4B
100
AcDbSymbolTableRecord
100
AcDbLayerTableRecord
  2
Dimension
 70
               0
 62
               7
  6
Continuous
290
               1
370
               5
390
1D
  0
LAYER
  5
4C
100
AcDbSymbolTableRecord
100
AcDbLayerTableRecord
  2
AM_VIS
 70
               0
 62
               7
  6
Continuous
290
               1
370
              15
390
1D
  0
LAYER
  5
4D
100
AcDbSymbolTableRecord
100
AcDbLayerTableRecord
  2
Solid Lines
 70
               0
 62
               7
  6
Continuous
290
               1
370
              25
390
1D
  0
LAYER
  5
4E
100
AcDbSymbolTableRecord
100
AcDbLayerTableRecord
  2
AM_HID
 70
               0
 62
               7
  6
STYLE_17
290
               1
370
              15
390
1D
  0
LAYER
  5
4F
100
AcDbSymbolTableRecord
100
AcDbLayerTableRecord
  2
DIM
 70
               0
 62
               7
  6
Continuous
290
               1
370
              15
390
1D
  0
LAYER
  5
50
100
AcDbSymbolTableRecord
100
AcDbLayerTableRecord
  2
TEXT
 70
               0
 62
               7
  6
Continuous
290
               1
370
              15
390
1D
  0
LAYER
  5
51
100
AcDbSymbolTableRecord
100
AcDbLayerTableRecord
  2
SHEET1
 70
               0
 62
               1
  6
Continuous
290
               1
370
              15
390
1D
  0
LAYER
  5
52
100
AcDbSymbolTableRecord
100
AcDbLayerTableRecord
  2
BORDER
 70
               0
 62
               7
  6
Continuous
290
               1
370
              15
390
1D
  0
LAYER
  5
53
100
AcDbSymbolTableRecord
100
AcDbLayerTableRecord
  2
ACTEL
 70
               0
 62
               6
  6
Continuous
290
               1
370
              15
390
1D
  0
ENDTAB
  0
TABLE
  2
STYLE
  5
3
100
AcDbSymbolTable
 70
               5
  0
STYLE
  5
17
100
AcDbSymbolTableRecord
100
AcDbTextStyleTableRecord
  2
Standard
 70
               0
 40
0.0
 41
1.0
 50
0.0
 71
               0
 42
0.0
  3
txt
  4

  0
STYLE
  5
33
100
AcDbSymbolTableRecord
100
AcDbTextStyleTableRecord
  2
Arial
 70
               0
 40
0.0
 41
1.0
 50
0.0
 71
               0
 42
0.0
  3
Arial
  4

1001
ACAD
1000
Arial
1071
        0
  0
STYLE
  5
34
100
AcDbSymbolTableRecord
100
AcDbTextStyleTableRecord
  2
Arial (bold)
 70
               0
 40
0.0
 41
1.0
 50
0.0
 71
               0
 42
0.0
  3
Arial
  4

1001
ACAD
1000
Arial
1071
 33554432
  0
STYLE
  5
35
100
AcDbSymbolTableRecord
100
AcDbTextStyleTableRecord
  2
Helvetica
 70
               0
 40
0.0
 41
1.0
 50
0.0
 71
               0
 42
0.0
  3
Helvetica
  4

1001
ACAD
1000
Helvetica
1071
        0
  0
STYLE
  5
36
100
AcDbSymbolTableRecord
100
AcDbTextStyleTableRecord
  2
New Century Schlbk
 70
               0
 40
0.0
 41
1.0
 50
0.0
 71
               0
 42
0.0
  3
New Century Schlbk
  4

1001
ACAD
1000
New Century Schlbk
1071
        0
  0
ENDTAB
  0
TABLE
  2
VIEW
  5
5
100
AcDbSymbolTable
 70
               0
  0
ENDTAB
  0
TABLE
  2
UCS
  5
6
100
AcDbSymbolTable
 70
               0
  0
ENDTAB
  0
TABLE
  2
APPID
  5
8
100
AcDbSymbolTable
 70
               1
  0
APPID
  5
16
100
AcDbSymbolTableRecord
100
AcDbRegAppTableRecord
  2
ACAD
 70
               0
  0
ENDTAB
  0
TABLE
  2
DIMSTYLE
  5
9
100
AcDbSymbolTable
 70
               4
100
AcDbDimStyleTable
 71
               0
  0
DIMSTYLE
105
18
100
AcDbSymbolTableRecord
100
AcDbDimStyleTableRecord
  2
Standard
 70
               0
  3

  4

 40
1.0
 41
0.18
 42
0.0625
 43
0.38
 44
0.18
 45
0.0
 46
0.0
 47
0.0
 48
0.0
 71
               0
 72
               0
 73
               1
 74
               1
 75
               0
 76
               0
 77
               0
 78
               0
 79
               0
140
0.18
141
0.09
142
0.0
143
25.399999999999999
144
1.0
145
0.0
146
1.0
147
0.09
148
0.0
170
               0
171
               2
172
               0
173
               0
174
               0
175
               0
176
               0
177
               0
178
               0
179
               0
271
               4
272
               4
273
               2
274
               2
275
               0
276
               0
277
               2
278
              46
279
               0
280
               0
281
               0
282
               0
283
               1
284
               0
285
               0
286
               0
288
               0
289
               3
340
17
341
0
342
0
343
0
344
0
371
              -2
372
              -2
  0
DIMSTYLE
105
5C
100
AcDbSymbolTableRecord
100
AcDbDimStyleTableRecord
  2
IE Standard
 70
               0
  3
<>mm
  4
[]"
 40
1.0
 41
1.0583322750000002
 42
0.634999366577038
 43
6.9999859934672708
 44
1.2699987331540761
 45
0.0
 46
0.0
 47
0.0
 48
0.0
 71
               0
 72
               0
 73
               1
 74
               1
 75
               0
 76
               0
 77
               0
 78
               3
 79
               0
140
0.8421373697916665
141
0.0
142
0.0
143
0.0393700787401575
144
1.0
145
0.0
146
1.0
147
0.0
148
0.0
170
               0
171
               3
172
               1
173
               0
174
               1
175
               0
176
               0
177
               0
178
               0
179
               0
271
               2
272
               2
273
               2
274
               2
275
               0
276
               2
277
               2
278
              46
279
               0
280
               0
281
               0
282
               0
283
               1
284
               3
285
               3
286
               3
288
               0
289
               0
340
35
341
58
342
54
343
0
344
0
371
              -2
372
              -2
  0
DIMSTYLE
105
5D
100
AcDbSymbolTableRecord
100
AcDbDimStyleTableRecord
  2
ASME
 70
               0
  3
<>mm
  4
[]"
 40
1.0
 41
1.0583322750000002
 42
0.5291661375000001
 43
10.16
 44
1.0583322750000002
 45
0.0
 46
0.0
 47
0.0
 48
0.0
 71
               0
 72
               0
 73
               1
 74
               1
 75
               0
 76
               0
 77
               0
 78
               3
 79
               0
140
0.8421373697916665
141
0.0
142
0.0
143
0.0393700787401575
144
1.0
145
0.0
146
1.0
147
0.0
148
0.0
170
               0
171
               3
172
               0
173
               0
174
               1
175
               0
176
               0
177
               0
178
               0
179
               0
271
               2
272
               2
273
               2
274
               2
275
               0
276
               2
277
               2
278
              46
279
               0
280
               0
281
               0
282
               0
283
               1
284
               3
285
               3
286
               3
288
               0
289
               0
340
35
341
54
342
54
343
0
344
0
371
              -2
372
              -2
  0
DIMSTYLE
105
5E
100
AcDbSymbolTableRecord
100
AcDbDimStyleTableRecord
  2
ASME Dual Stacked
 70
               0
  3
<>mm\X
  4
[]"
 40
1.0
 41
1.0583322750000002
 42
2.1166645500000003
 43
10.16
 44
1.0583322750000002
 45
0.0
 46
0.0
 47
0.0
 48
0.0
 71
               0
 72
               0
 73
               1
 74
               1
 75
               0
 76
               0
 77
               0
 78
               3
 79
               0
140
0.8421373697916665
141
0.0
142
0.0
143
0.0393700787401575
144
1.0
145
0.0
146
1.0
147
0.0
148
0.0
170
               1
171
               3
172
               0
173
               0
174
               1
175
               0
176
               0
177
               0
178
               0
179
               0
271
               2
272
               2
273
               2
274
               2
275
               0
276
               2
277
               2
278
              46
279
               0
280
               0
281
               0
282
               0
283
               1
284
               3
285
               3
286
               3
288
               0
289
               0
340
35
341
54
342
54
343
0
344
0
371
              -2
372
              -2
  0
ENDTAB
  0
TABLE
  2
BLOCK_RECORD
  5
1
100
AcDbSymbolTable
 70
              17
  0
BLOCK_RECORD
  5
A
100
AcDbSymbolTableRecord
100
AcDbBlockTableRecord
  2
*MODEL_SPACE
340
20
  0
BLOCK_RECORD
  5
B
100
AcDbSymbolTableRecord
100
AcDbBlockTableRecord
  2
*PAPER_SPACE
340
21
  0
BLOCK_RECORD
  5
54
100
AcDbSymbolTableRecord
100
AcDbBlockTableRecord
  2
VW_FILLEDARROW
340
0
  0
BLOCK_RECORD
  5
58
100
AcDbSymbolTableRecord
100
AcDbBlockTableRecord
  2
VW_FILLEDARROW-1
340
0
  0
BLOCK_RECORD
  5
24
100
AcDbSymbolTableRecord
100
AcDbBlockTableRecord
  2
IE i logo
340
0
102
{BLKREFS
331
180
102
}
  0
BLOCK_RECORD
  5
25
100
AcDbSymbolTableRecord
100
AcDbBlockTableRecord
  2
©2006_address
340
0
102
{BLKREFS
331
186
102
}
  0
BLOCK_RECORD
  5
26
100
AcDbSymbolTableRecord
100
AcDbBlockTableRecord
  2
*D4
340
0
  0
BLOCK_RECORD
  5
27
100
AcDbSymbolTableRecord
100
AcDbBlockTableRecord
  2
*D5
340
0
  0
BLOCK_RECORD
  5
28
100
AcDbSymbolTableRecord
100
AcDbBlockTableRecord
  2
*D6
340
0
  0
BLOCK_RECORD
  5
29
100
AcDbSymbolTableRecord
100
AcDbBlockTableRecord
  2
*D7
340
0
  0
BLOCK_RECORD
  5
2A
100
AcDbSymbolTableRecord
100
AcDbBlockTableRecord
  2
*D8
340
0
  0
BLOCK_RECORD
  5
2B
100
AcDbSymbolTableRecord
100
AcDbBlockTableRecord
  2
*D9
340
0
  0
BLOCK_RECORD
  5
2C
100
AcDbSymbolTableRecord
100
AcDbBlockTableRecord
  2
*D10
340
0
  0
BLOCK_RECORD
  5
2D
100
AcDbSymbolTableRecord
100
AcDbBlockTableRecord
  2
*D11
340
0
  0
BLOCK_RECORD
  5
2E
100
AcDbSymbolTableRecord
100
AcDbBlockTableRecord
  2
*D12
340
0
  0
BLOCK_RECORD
  5
2F
100
AcDbSymbolTableRecord
100
AcDbBlockTableRecord
  2
*D13
340
0
  0
BLOCK_RECORD
  5
30
100
AcDbSymbolTableRecord
100
AcDbBlockTableRecord
  2
Group
340
0
102
{BLKREFS
331
3BA
102
}
  0
BLOCK_RECORD
  5
31
100
AcDbSymbolTableRecord
100
AcDbBlockTableRecord
  2
*D15
340
0
  0
BLOCK_RECORD
  5
32
100
AcDbSymbolTableRecord
100
AcDbBlockTableRecord
  2
*D16
340
0
  0
ENDTAB
  0
ENDSEC
  0
SECTION
  2
BLOCKS
  0
BLOCK
  5
D
100
AcDbEntity
  8
0
390
0
100
AcDbBlockBegin
  2
*MODEL_SPACE
 70
               0
 10
0.0
 20
0.0
 30
0.0
  3
*MODEL_SPACE
  1

  0
ENDBLK
  5
E
100
AcDbEntity
  8
0
390
0
100
AcDbBlockEnd
  0
BLOCK
  5
F
100
AcDbEntity
 67
               1
  8
0
390
0
100
AcDbBlockBegin
  2
*PAPER_SPACE
 70
               0
 10
0.0
 20
0.0
 30
0.0
  3
*PAPER_SPACE
  1

  0
ENDBLK
  5
10
100
AcDbEntity
 67
               1
  8
0
390
0
100
AcDbBlockEnd
  0
BLOCK
  5
55
100
AcDbEntity
  8
0
370
              -2
390
0
  6
ByBlock
 62
               0
100
AcDbBlockBegin
  2
VW_FILLEDARROW
 70
               0
 10
0.0
 20
0.0
 30
0.0
  3
VW_FILLEDARROW
  1

  0
SOLID
  5
56
100
AcDbEntity
  8
0
370
              -2
390
0
 62
               0
100
AcDbTrace
 10
0.0
 20
0.0
 30
0.0
 11
0.9999379649047853
 21
0.2679325701774575
 31
0.0
 12
0.9999379649047853
 22
-0.2679325701774575
 32
0.0
 13
0.9999379649047853
 23
-0.2679325701774575
 33
0.0
  0
ENDBLK
  5
57
100
AcDbEntity
  8
0
390
0
100
AcDbBlockEnd
  0
BLOCK
  5
59
100
AcDbEntity
  8
0
370
              -2
390
0
  6
ByBlock
 62
               0
100
AcDbBlockBegin
  2
VW_FILLEDARROW-1
 70
               0
 10
0.0
 20
0.0
 30
0.0
  3
VW_FILLEDARROW
  1

  0
SOLID
  5
5A
100
AcDbEntity
  8
0
370
              -2
390
0
 62
               0
100
AcDbTrace
 10
0.0
 20
0.0
 30
0.0
 11
0.6661085461303712
 21
0.1784832470071022
 31
0.0
 12
0.6661085461303712
 22
-0.1784832470071022
 32
0.0
 13
0.6661085461303712
 23
-0.1784832470071022
 33
0.0
  0
ENDBLK
  5
5B
100
AcDbEntity
  8
0
390
0
100
AcDbBlockEnd
  0
BLOCK
  5
5F
100
AcDbEntity
  8
None
390
0
100
AcDbBlockBegin
  2
IE i logo
 70
               0
 10
0.0
 20
0.0
 30
0.0
  3
IE i logo
  1

  0
CIRCLE
  5
60
102
{ACAD_REACTORS
330
61
102
}
100
AcDbEntity
  8
None
370
               5
390
0
  6
Continuous
 62
               7
100
AcDbCircle
 10
0.0
 20
0.0
 30
0.0
 40
2.6707900018721049
  0
HATCH
  5
61
100
AcDbEntity
  8
None
370
               0
390
0
  6
Continuous
 62
               7
100
AcDbHatch
 10
0.0
 20
0.0
 30
0.0
210
0.0
220
0.0
230
1.0
  2
SOLID
 70
               1
 71
               1
 91
        1
 92
        1
 93
        1
 72
               2
 10
0.0
 20
0.0
 40
2.6707900018721049
 50
0.0
 51
360.0
 73
               0
 97
        1
330
60
 75
               0
 76
               1
 98
        1
 10
0.0
 20
0.0
  0
WIPEOUT
  5
62
100
AcDbEntity
  8
None
370
               5
390
0
  6
Continuous
 62
               7
 92
        0
100
AcDbWipeout
 90
        0
 10
-1.01559
 20
0.73569
 30
0.0
 11
0.6889700000000001
 21
0.0
 31
0.0
 12
0.0
 22
0.6889700000000001
 32
0.0
 13
1.0
 23
1.0
340
0
 70
               7
280
               1
281
              50
282
              50
283
               0
360
0
 71
               2
 91
       97
 14
-0.384131384530531
 24
0.0667881039813055
 14
-0.3634758906411018
 24
0.0346239223043094
 14
-0.3415474367534144
 24
0.00272054661306
 14
-0.3183460228674687
 24
-0.0289220230924422
 14
-0.2938716489832648
 24
-0.0603037868121978
 14
-0.2681243151008025
 24
-0.0914247445462067
 14
-0.2411040212200821
 24
-0.1222848962944686
 14
-0.2128107673411033
 24
-0.1528842420569836
 14
-0.1832445534638663
 24
-0.1832227818337517
 14
-0.1529111164129063
 24
-0.2127940984367968
 14
-0.1223161930127582
 24
-0.2410917746781425
 14
-0.0914597832634222
 24
-0.2681158105577891
 14
-0.0603418871648982
 24
-0.2938662060757359
 14
-0.0289625047171866
 24
-0.3183429612319839
 14
0.0026783640797133
 24
-0.3415460760265321
 14
0.0345807192258009
 24
-0.3634755504593811
 14
0.0667445607210765
 24
-0.384131384530531
 14
0.0986291130237893
 24
-0.4031788394269708
 14
0.1296936005921883
 24
-0.4202831763356896
 14
0.1599380234262741
 24
-0.4354443952566872
 14
0.1893623815260462
 24
-0.4486624961899646
 14
0.2179666748915049
 24
-0.4599374791355209
 14
0.2457509035226498
 24
-0.4692693440933564
 14
0.2727150674194813
 24
-0.4766580910634712
 14
0.2988591665819992
 24
-0.4821037200458653
 14
0.3237520773763735
 24
-0.485530597304672
 14
0.3469626761687736
 24
-0.4868630891040248
 14
0.3684909629591999
 24
-0.4861011954439233
 14
0.3883369377476522
 24
-0.483244916324368
 14
0.4065006005341306
 24
-0.4782942517453585
 14
0.4229819513186351
 24
-0.4712492017068954
 14
0.4377809901011655
 24
-0.4621097662089782
 14
0.450897716881722
 24
-0.4508759452516074
 14
0.462126435113285
 24
-0.4377544559269632
 14
0.4712614482488352
 24
-0.4229520153272275
 14
0.4783027562883724
 24
-0.4064686234523998
 14
0.4832503592318967
 24
-0.3883042803024801
 14
0.4861042570794083
 24
-0.3684589858774687
 14
0.486864449830907
 24
-0.3469327401773656
 14
0.4855309374863926
 24
-0.3237255432021711
 14
0.4821037200458654
 24
-0.2988373949518843
 14
0.4766580910634716
 24
-0.2726983985151745
 14
0.4692693440933567
 24
-0.24573865698071
 14
0.4599374791355212
 24
-0.217958170348491
 14
0.4486624961899646
 24
-0.1893569386185173
 14
0.4354443952566874
 24
-0.1599349617907888
 14
0.4202831763356894
 24
-0.1296922398653057
 14
0.4031788394269706
 24
-0.0986287728420684
 14
0.384131384530531
 24
-0.0667445607210762
 14
0.363475890641102
 24
-0.0345803790440801
 14
0.3415474367534145
 24
-0.0026770033528307
 14
0.3183460228674687
 24
0.0289655663526718
 14
0.2938716489832648
 24
0.0603473300724272
 14
0.2681243151008025
 24
0.0914682878064358
 14
0.2411040212200821
 24
0.1223284395546979
 14
0.2128107673411033
 24
0.1529277853172129
 14
0.1832445534638663
 24
0.1832663250939811
 14
0.1529111164129063
 24
0.2128376416970262
 14
0.1223161930127581
 24
0.2411353179383721
 14
0.0914597832634222
 24
0.2681593538180184
 14
0.0603418871648983
 24
0.2939097493359655
 14
0.0289625047171866
 24
0.3183865044922132
 14
-0.0026783640797133
 24
0.3415896192867617
 14
-0.0345807192258009
 24
0.3635190937196106
 14
-0.0667445607210765
 24
0.3841749277907604
 14
-0.0986291130237892
 24
0.4032220425054794
 14
-0.1296936005921883
 24
0.4203253588690366
 14
-0.159938023426274
 24
0.4354848768814319
 14
-0.1893623815260462
 24
0.4487005965426653
 14
-0.2179666748915049
 24
0.4599725178527369
 14
-0.2457509035226499
 24
0.4693006408116466
 14
-0.2727150674194813
 24
0.4766849654193943
 14
-0.2988591665819992
 24
0.4821254916759801
 14
-0.3237520773763735
 24
0.4855476063906992
 14
-0.3469626761687736
 24
0.4868766963728464
 14
-0.3684909629591999
 24
0.486112761622422
 14
-0.3883369377476522
 24
0.4832558021394255
 14
-0.4065006005341306
 24
0.4783058179238573
 14
-0.4229819513186351
 24
0.4712628089757174
 14
-0.4377809901011655
 24
0.4621267752950057
 14
-0.450897716881722
 24
0.450897716881722
 14
-0.462126435113285
 24
0.437781330282886
 14
-0.4712614482488352
 24
0.4229833120455172
 14
-0.4783027562883724
 24
0.4065036621696155
 14
-0.4832503592318967
 24
0.388342380655181
 14
-0.4861042570794085
 24
0.3684994675022135
 14
-0.486864449830907
 24
0.3469749227107132
 14
-0.4855309374863926
 24
0.32376874628068
 14
-0.4821037200458657
 24
0.2988809382121138
 14
-0.4766580910634715
 24
0.2727419417754038
 14
-0.4692693440933567
 24
0.2457822002409394
 14
-0.4599374791355211
 24
0.2180017136087203
 14
-0.4486624961899646
 24
0.1894004818787466
 14
-0.4354443952566874
 24
0.1599785050510182
 14
-0.4202831763356894
 24
0.1297357831255353
 14
-0.4031788394269706
 24
0.0986723161022978
 14
-0.384131384530531
 24
0.0667881039813055
  0
SPLINE
  5
63
100
AcDbEntity
  8
None
370
               5
390
0
  6
Continuous
 62
               7
100
AcDbSpline
210
0.0
220
0.0
230
1.0
 70
               9
 71
               2
 72
              17
 73
              14
 74
               0
 42
0.000001
 43
0.000001
 40
0.0
 40
0.0
 40
0.0
 40
1.0
 40
2.0
 40
3.0
 40
4.0
 40
5.0
 40
6.0
 40
7.0
 40
8.0
 40
9.0
 40
10.0
 40
11.0
 40
12.0
 40
12.0
 40
12.0
 10
-0.9357599999999999
 20
1.03416
 30
0.0
 10
-0.8805899999999999
 20
1.1231599999999999
 30
0.0
 10
-0.71412
 20
1.2896599999999998
 30
0.0
 10
-0.5361199999999999
 20
1.3999999999999999
 30
0.0
 10
-0.39428
 20
1.4246599999999998
 30
0.0
 10
-0.32662
 20
1.3569699999999998
 30
0.0
 10
-0.35128
 20
1.2151599999999998
 30
0.0
 10
-0.46162
 20
1.0371599999999999
 30
0.0
 10
-0.6280899999999999
 20
0.8706599999999999
 30
0.0
 10
-0.80609
 20
0.7603199999999999
 30
0.0
 10
-0.9479299999999999
 20
0.73569
 30
0.0
 10
-1.01559
 20
0.8033499999999999
 30
0.0
 10
-0.9909299999999999
 20
0.9451599999999999
 30
0.0
 10
-0.9357599999999999
 20
1.03416
 30
0.0
  0
WIPEOUT
  5
64
100
AcDbEntity
  8
None
370
               5
390
0
  6
Continuous
 62
               7
 92
        0
100
AcDbWipeout
 90
        0
 10
-1.7197799999999999
 20
-1.8961899999999998
 30
0.0
 11
1.8520599999999998
 21
0.0
 31
0.0
 12
0.0
 22
1.8520599999999998
 32
0.0
 13
1.0
 23
1.0
340
0
 70
               7
280
               1
281
              50
282
              50
283
               0
360
0
 71
               2
 91
       36
 14
-0.4523827521786551
 24
0.3095202099284041
 14
-0.2500026996965541
 24
0.1190404198568081
 14
-0.2142911136788225
 24
0.1190404198568081
 14
-0.0714231720354632
 24
0.3690377201602539
 14
0.0
 24
0.4523827521786551
 14
0.0714231720354633
 24
0.5
 14
0.2142857142857143
 24
0.5
 14
0.3690539183395787
 24
0.4047493061779856
 14
0.4761940757858817
 24
0.3095202099284041
 14
0.5
 24
0.2380916384998327
 14
0.5
 24
0.1071347580531948
 14
0.4880997375894949
 24
0.0714231720354632
 14
0.4642884139822685
 24
0.0714231720354632
 14
0.4285768279645368
 24
0.0829562757146097
 14
0.3214258717320173
 24
0.1666522682850447
 14
0.274726520739069
 24
0.1785579300886581
 14
0.2142857142857143
 24
0.1666522682850447
 14
0.190479790071596
 24
0.1070915629083291
 14
0.1428625422502512
 24
0.0238059242141183
 14
0.1190404198568082
 24
-0.0833450320184012
 14
0.1071347580531948
 24
-0.2142911136788225
 14
0.0714231720354633
 24
-0.2857304838936103
 14
0.0238059242141184
 24
-0.3452533935185685
 14
-0.0238059242141183
 24
-0.3866289429068173
 14
-0.0714231720354632
 24
-0.3866289429068173
 14
-0.1309622798397461
 24
-0.3571536559290736
 14
-0.1785741282679827
 24
-0.2976361456972236
 14
-0.2619029621070591
 24
-0.178579527661091
 14
-0.342424111529864
 24
-0.1071563556256276
 14
-0.4727114672310832
 24
0.0238059242141183
 14
-0.5
 24
0.0714231720354632
 14
-0.5
 24
0.1547520058745397
 14
-0.5
 24
0.2380916384998327
 14
-0.5
 24
0.2857088863211775
 14
-0.4880997375894949
 24
0.3214204723389091
 14
-0.4523827521786551
 24
0.3095202099284041
  0
POLYLINE
  5
65
100
AcDbEntity
  8
None
370
               5
390
0
  6
Continuous
 62
               7
100
AcDb2dPolyline
 66
               1
 10
0.0
 20
0.0
 30
0.0
 70
               1
 75
               5
  0
VERTEX
  5
66
100
AcDbEntity
  8
None
370
               5
390
0
  6
Continuous
 62
               7
100
AcDbVertex
100
AcDb2dVertex
 10
-1.6315899999999999
 20
-1.5434099999999999
 30
0.0
  0
VERTEX
  5
67
100
AcDbEntity
  8
None
370
               5
390
0
  6
Continuous
 62
               7
100
AcDbVertex
100
AcDb2dVertex
 10
-1.2567699999999999
 20
-1.1906299999999999
 30
0.0
  0
VERTEX
  5
68
100
AcDbEntity
  8
None
370
               5
390
0
  6
Continuous
 62
               7
100
AcDbVertex
100
AcDb2dVertex
 10
-1.1906299999999999
 20
-1.1906299999999999
 30
0.0
  0
VERTEX
  5
69
100
AcDbEntity
  8
None
370
               5
390
0
  6
Continuous
 62
               7
100
AcDbVertex
100
AcDb2dVertex
 10
-0.9260299999999999
 20
-1.6536399999999998
 30
0.0
  0
VERTEX
  5
6A
100
AcDbEntity
  8
None
370
               5
390
0
  6
Continuous
 62
               7
100
AcDbVertex
100
AcDb2dVertex
 10
-0.79375
 20
-1.8079999999999998
 30
0.0
  0
VERTEX
  5
6B
100
AcDbEntity
  8
None
370
               5
390
0
  6
Continuous
 62
               7
100
AcDbVertex
100
AcDb2dVertex
 10
-0.6614699999999999
 20
-1.8961899999999998
 30
0.0
  0
VERTEX
  5
6C
100
AcDbEntity
  8
None
370
               5
390
0
  6
Continuous
 62
               7
100
AcDbVertex
100
AcDb2dVertex
 10
-0.39688
 20
-1.8961899999999998
 30
0.0
  0
VERTEX
  5
6D
100
AcDbEntity
  8
None
370
               5
390
0
  6
Continuous
 62
               7
100
AcDbVertex
100
AcDb2dVertex
 10
-0.11024
 20
-1.7197799999999999
 30
0.0
  0
VERTEX
  5
6E
100
AcDbEntity
  8
None
370
               5
390
0
  6
Continuous
 62
               7
100
AcDbVertex
100
AcDb2dVertex
 10
0.08819
 20
-1.5434099999999999
 30
0.0
  0
VERTEX
  5
6F
100
AcDbEntity
  8
None
370
               5
390
0
  6
Continuous
 62
               7
100
AcDbVertex
100
AcDb2dVertex
 10
0.13228
 20
-1.4111199999999999
 30
0.0
  0
VERTEX
  5
70
100
AcDbEntity
  8
None
370
               5
390
0
  6
Continuous
 62
               7
100
AcDbVertex
100
AcDb2dVertex
 10
0.13228
 20
-1.16858
 30
0.0
  0
VERTEX
  5
71
100
AcDbEntity
  8
None
370
               5
390
0
  6
Continuous
 62
               7
100
AcDbVertex
100
AcDb2dVertex
 10
0.11024
 20
-1.1024399999999999
 30
0.0
  0
VERTEX
  5
72
100
AcDbEntity
  8
None
370
               5
390
0
  6
Continuous
 62
               7
100
AcDbVertex
100
AcDb2dVertex
 10
0.06614
 20
-1.1024399999999999
 30
0.0
  0
VERTEX
  5
73
100
AcDbEntity
  8
None
370
               5
390
0
  6
Continuous
 62
               7
100
AcDbVertex
100
AcDb2dVertex
 10
0.0
 20
-1.1237999999999999
 30
0.0
  0
VERTEX
  5
74
100
AcDbEntity
  8
None
370
               5
390
0
  6
Continuous
 62
               7
100
AcDbVertex
100
AcDb2dVertex
 10
-0.19845
 20
-1.2788099999999998
 30
0.0
  0
VERTEX
  5
75
100
AcDbEntity
  8
None
370
               5
390
0
  6
Continuous
 62
               7
100
AcDbVertex
100
AcDb2dVertex
 10
-0.28494
 20
-1.3008599999999999
 30
0.0
  0
VERTEX
  5
76
100
AcDbEntity
  8
None
370
               5
390
0
  6
Continuous
 62
               7
100
AcDbVertex
100
AcDb2dVertex
 10
-0.39688
 20
-1.2788099999999998
 30
0.0
  0
VERTEX
  5
77
100
AcDbEntity
  8
None
370
               5
390
0
  6
Continuous
 62
               7
100
AcDbVertex
100
AcDb2dVertex
 10
-0.44097
 20
-1.1684999999999999
 30
0.0
  0
VERTEX
  5
78
100
AcDbEntity
  8
None
370
               5
390
0
  6
Continuous
 62
               7
100
AcDbVertex
100
AcDb2dVertex
 10
-0.52916
 20
-1.0142499999999999
 30
0.0
  0
VERTEX
  5
79
100
AcDbEntity
  8
None
370
               5
390
0
  6
Continuous
 62
               7
100
AcDbVertex
100
AcDb2dVertex
 10
-0.5732799999999999
 20
-0.8158
 30
0.0
  0
VERTEX
  5
7A
100
AcDbEntity
  8
None
370
               5
390
0
  6
Continuous
 62
               7
100
AcDbVertex
100
AcDb2dVertex
 10
-0.5953299999999999
 20
-0.5732799999999999
 30
0.0
  0
VERTEX
  5
7B
100
AcDbEntity
  8
None
370
               5
390
0
  6
Continuous
 62
               7
100
AcDbVertex
100
AcDb2dVertex
 10
-0.6614699999999999
 20
-0.44097
 30
0.0
  0
VERTEX
  5
7C
100
AcDbEntity
  8
None
370
               5
390
0
  6
Continuous
 62
               7
100
AcDbVertex
100
AcDb2dVertex
 10
-0.7496599999999999
 20
-0.33073
 30
0.0
  0
VERTEX
  5
7D
100
AcDbEntity
  8
None
370
               5
390
0
  6
Continuous
 62
               7
100
AcDbVertex
100
AcDb2dVertex
 10
-0.8378399999999999
 20
-0.2541
 30
0.0
  0
VERTEX
  5
7E
100
AcDbEntity
  8
None
370
               5
390
0
  6
Continuous
 62
               7
100
AcDbVertex
100
AcDb2dVertex
 10
-0.9260299999999999
 20
-0.2541
 30
0.0
  0
VERTEX
  5
7F
100
AcDbEntity
  8
None
370
               5
390
0
  6
Continuous
 62
               7
100
AcDbVertex
100
AcDb2dVertex
 10
-1.0363
 20
-0.30869
 30
0.0
  0
VERTEX
  5
80
100
AcDbEntity
  8
None
370
               5
390
0
  6
Continuous
 62
               7
100
AcDbVertex
100
AcDb2dVertex
 10
-1.1244799999999999
 20
-0.41892
 30
0.0
  0
VERTEX
  5
81
100
AcDbEntity
  8
None
370
               5
390
0
  6
Continuous
 62
               7
100
AcDbVertex
100
AcDb2dVertex
 10
-1.2788099999999998
 20
-0.63942
 30
0.0
  0
VERTEX
  5
82
100
AcDbEntity
  8
None
370
               5
390
0
  6
Continuous
 62
               7
100
AcDbVertex
100
AcDb2dVertex
 10
-1.4279399999999998
 20
-0.7716999999999999
 30
0.0
  0
VERTEX
  5
83
100
AcDbEntity
  8
None
370
               5
390
0
  6
Continuous
 62
               7
100
AcDbVertex
100
AcDb2dVertex
 10
-1.6692399999999998
 20
-1.0142499999999999
 30
0.0
  0
VERTEX
  5
84
100
AcDbEntity
  8
None
370
               5
390
0
  6
Continuous
 62
               7
100
AcDbVertex
100
AcDb2dVertex
 10
-1.7197799999999999
 20
-1.1024399999999999
 30
0.0
  0
VERTEX
  5
85
100
AcDbEntity
  8
None
370
               5
390
0
  6
Continuous
 62
               7
100
AcDbVertex
100
AcDb2dVertex
 10
-1.7197799999999999
 20
-1.2567699999999999
 30
0.0
  0
VERTEX
  5
86
100
AcDbEntity
  8
None
370
               5
390
0
  6
Continuous
 62
               7
100
AcDbVertex
100
AcDb2dVertex
 10
-1.7197799999999999
 20
-1.4111199999999999
 30
0.0
  0
VERTEX
  5
87
100
AcDbEntity
  8
None
370
               5
390
0
  6
Continuous
 62
               7
100
AcDbVertex
100
AcDb2dVertex
 10
-1.7197799999999999
 20
-1.4993099999999999
 30
0.0
  0
VERTEX
  5
88
100
AcDbEntity
  8
None
370
               5
390
0
  6
Continuous
 62
               7
100
AcDbVertex
100
AcDb2dVertex
 10
-1.6977399999999998
 20
-1.5654499999999998
 30
0.0
  0
SEQEND
  5
89
100
AcDbEntity
  8
None
370
               5
390
0
  6
Continuous
 62
               7
  0
POLYLINE
  5
8A
100
AcDbEntity
  8
None
370
               5
390
0
  6
Continuous
 62
               7
100
AcDb2dPolyline
 66
               1
 10
0.0
 20
0.0
 30
0.0
 75
               5
  0
VERTEX
  5
8B
100
AcDbEntity
  8
None
370
               5
390
0
  6
Continuous
 62
               7
100
AcDbVertex
100
AcDb2dVertex
 10
-1.7197799999999999
 20
-1.1410199999999999
 30
0.0
  0
VERTEX
  5
8C
100
AcDbEntity
  8
None
370
               5
390
0
  6
Continuous
 62
               7
100
AcDbVertex
100
AcDb2dVertex
 10
-1.7197799999999999
 20
-1.45522
 30
0.0
  0
VERTEX
  5
8D
100
AcDbEntity
  8
None
370
               5
390
0
  6
Continuous
 62
               7
100
AcDbVertex
100
AcDb2dVertex
 10
-1.7197799999999999
 20
-1.4772599999999998
 30
0.0
  0
VERTEX
  5
8E
100
AcDbEntity
  8
None
370
               5
390
0
  6
Continuous
 62
               7
100
AcDbVertex
100
AcDb2dVertex
 10
-1.71427
 20
-1.5158499999999999
 30
0.0
  0
SEQEND
  5
8F
100
AcDbEntity
  8
None
370
               5
390
0
  6
Continuous
 62
               7
  0
ENDBLK
  5
90
100
AcDbEntity
  8
None
390
0
100
AcDbBlockEnd
  0
BLOCK
  5
91
100
AcDbEntity
  8
None
390
0
100
AcDbBlockBegin
  2
©2006_address
 70
               0
 10
0.0
 20
0.0
 30
0.0
  3
©2006_address
  1

  0
MTEXT
  5
92
100
AcDbEntity
  8
None
390
0
 62
               7
100
AcDbMText
 10
0.0
 20
2.7477645770833359
 30
0.0
 40
0.9298981770833332
 41
36.738279999999996
 71
               2
 72
               1
  1
© 2006 IRONWOOD ELECTRONICS, INC.\P11351 Rupp Drive, Suite 400, Burnsville, MN 55337\PTele: (952) 229-8200\Pwww.ironwoodelectronics.com
  7
Arial
 73
               1
 44
0.9673603504928809
  0
ENDBLK
  5
93
100
AcDbEntity
  8
None
390
0
100
AcDbBlockEnd
  0
BLOCK
  5
94
100
AcDbEntity
  8
Dimension
390
0
100
AcDbBlockBegin
  2
*D4
 70
               1
 10
0.0
 20
0.0
 30
0.0
  3
*D4
  1

  0
LINE
  5
95
100
AcDbEntity
  8
Dimension
370
              -2
390
0
  6
Continuous
 62
               0
100
AcDbLine
 10
6.5708354624999963
 20
-99.700788257305192
 30
0.0
 11
-7.0642118090340595
 21
-99.700788257305192
 31
0.0
  0
LINE
  5
96
100
AcDbEntity
  8
Dimension
370
              -2
390
0
  6
Continuous
 62
               0
100
AcDbLine
 10
6.5708354624999963
 20
-130.20078825730519
 30
0.0
 11
-7.0642118090340524
 21
-130.20078825730519
 31
0.0
  0
LINE
  5
97
100
AcDbEntity
  8
Dimension
370
              -2
390
0
  6
Continuous
 62
               0
100
AcDbLine
 10
-6.0058795340340545
 20
-99.700788257305192
 30
0.0
 11
-6.0058795340340545
 21
-130.20078825730519
 31
0.0
  0
SOLID
  5
98
100
AcDbEntity
  8
Dimension
370
              -2
390
0
 62
               0
100
AcDbTrace
 10
-6.0058795340340545
 20
-99.700788257305192
 30
0.0
 11
-5.7223002556240097
 21
-100.75912053230519
 31
0.0
 12
-6.2894588124440993
 22
-100.75912053230519
 32
0.0
 13
-6.2894588124440993
 23
-100.75912053230519
 33
0.0
  0
SOLID
  5
99
100
AcDbEntity
  8
Dimension
370
              -2
390
0
 62
               0
100
AcDbTrace
 10
-6.0058795340340545
 20
-130.20078825730519
 30
0.0
 11
-6.2894588124440993
 21
-129.14245598230517
 31
0.0
 12
-5.7223002556240097
 22
-129.14245598230517
 32
0.0
 13
-5.7223002556240097
 23
-129.14245598230517
 33
0.0
  0
WIPEOUT
  5
9A
100
AcDbEntity
  8
Dimension
370
              -2
390
0
  6
Continuous
 62
               0
 92
        0
100
AcDbWipeout
 90
        0
 10
-10.938905930404946
 20
67.464817937499987
 30
0.0
 11
4.9389059304049496
 21
0.0
 31
0.0
 12
0.0
 22
4.9389059304049496
 32
0.0
 13
1.0
 23
1.0
340
0
 70
               7
280
               1
281
              50
282
              50
283
               0
360
0
 71
               2
 91
        5
 14
-0.5
 24
37.419305929167507
 14
0.5
 24
37.419305929167507
 14
0.5
 24
37.145496401499678
 14
-0.5
 24
37.145496401499678
 14
-0.5
 24
37.419305929167507
  0
MTEXT
  5
9B
100
AcDbEntity
  8
Dimension
390
0
 62
               0
100
AcDbMText
 10
-10.938905930404946
 20
-113.74004119270833
 30
0.0
 40
0.8421373697916665
 41
0.0
 71
               1
 72
               1
  1
30.50mm
  7
Helvetica
 73
               1
 44
0.9673603504928808
  0
WIPEOUT
  5
9C
100
AcDbEntity
  8
Dimension
370
              -2
390
0
  6
Continuous
 62
               0
 92
        0
100
AcDbWipeout
 90
        0
 10
-5.9999999999999964
 20
67.46482056249998
 30
0.0
 11
4.9271468623368264
 21
0.0
 31
0.0
 12
0.0
 22
4.9271468623368264
 32
0.0
 13
1.0
 23
1.0
340
0
 70
               7
280
               1
281
              50
282
              50
283
               0
360
0
 71
               2
 91
        5
 14
-0.5
 24
37.507417090368619
 14
0.5
 24
37.507417090368619
 14
0.5
 24
37.232954092251568
 14
-0.5
 24
37.232954092251568
 14
-0.5
 24
37.507417090368619
  0
MTEXT
  5
9D
100
AcDbEntity
  8
Dimension
390
0
 62
               0
100
AcDbMText
 10
-5.9999999999999964
 20
-113.74003856770834
 30
0.0
 40
0.8421373697916665
 41
0.0
 71
               1
 72
               1
  1
±0.13mm
  7
Helvetica
 73
               1
 44
0.9673603504928808
  0
POINT
  5
9E
100
AcDbEntity
  8
Defpoints
370
               0
390
0
 62
               0
100
AcDbPoint
 10
7.1000015999999952
 20
-130.20078825730519
 30
0.0
  0
POINT
  5
9F
100
AcDbEntity
  8
Defpoints
370
               0
390
0
 62
               0
100
AcDbPoint
 10
7.1000015999999952
 20
-99.700788257305192
 30
0.0
  0
POINT
  5
A0
100
AcDbEntity
  8
Defpoints
370
               0
390
0
 62
               0
100
AcDbPoint
 10
-6.0058795340340545
 20
-99.700788257305192
 30
0.0
  0
ENDBLK
  5
A1
100
AcDbEntity
  8
Dimension
390
0
100
AcDbBlockEnd
  0
BLOCK
  5
A2
100
AcDbEntity
  8
Dimension
390
0
100
AcDbBlockBegin
  2
*D5
 70
               1
 10
0.0
 20
0.0
 30
0.0
  3
*D5
  1

  0
LINE
  5
A3
100
AcDbEntity
  8
Dimension
370
              -2
390
0
  6
Continuous
 62
               0
100
AcDbLine
 10
10.235835462499995
 20
-103.90078825730519
 30
0.0
 11
-1.6583322750000029
 21
-103.90078825730519
 31
0.0
  0
LINE
  5
A4
100
AcDbEntity
  8
Dimension
370
              -2
390
0
  6
Continuous
 62
               0
100
AcDbLine
 10
10.235835462499995
 20
-126.00078825730517
 30
0.0
 11
-1.6583322750000029
 21
-126.00078825730517
 31
0.0
  0
LINE
  5
A5
100
AcDbEntity
  8
Dimension
370
              -2
390
0
  6
Continuous
 62
               0
100
AcDbLine
 10
-0.6000000000000014
 20
-103.90078825730519
 30
0.0
 11
-0.6000000000000014
 21
-126.00078825730517
 31
0.0
  0
SOLID
  5
A6
100
AcDbEntity
  8
Dimension
370
              -2
390
0
 62
               0
100
AcDbTrace
 10
-0.6000000000000014
 20
-103.90078825730519
 30
0.0
 11
-0.3164207215899602
 21
-104.95912053230519
 31
0.0
 12
-0.8835792784100427
 22
-104.95912053230519
 32
0.0
 13
-0.8835792784100427
 23
-104.95912053230519
 33
0.0
  0
SOLID
  5
A7
100
AcDbEntity
  8
Dimension
370
              -2
390
0
 62
               0
100
AcDbTrace
 10
-0.6000000000000014
 20
-126.00078825730517
 30
0.0
 11
-0.8835792784100427
 21
-124.94245598230518
 31
0.0
 12
-0.3164207215899602
 22
-124.94245598230518
 32
0.0
 13
-0.3164207215899602
 23
-124.94245598230518
 33
0.0
  0
WIPEOUT
  5
A8
100
AcDbEntity
  8
Dimension
370
              -2
390
0
  6
Continuous
 62
               0
 92
        0
100
AcDbWipeout
 90
        0
 10
-3.0694529652024762
 20
64.464819249999991
 30
0.0
 11
4.9389059304049496
 21
0.0
 31
0.0
 12
0.0
 22
4.9389059304049496
 32
0.0
 13
1.0
 23
1.0
340
0
 70
               7
280
               1
281
              50
282
              50
283
               0
360
0
 71
               2
 91
        5
 14
-0.5
 24
37.419305929167507
 14
0.5
 24
37.419305929167507
 14
0.5
 24
37.145496401499678
 14
-0.5
 24
37.145496401499678
 14
-0.5
 24
37.419305929167507
  0
MTEXT
  5
A9
100
AcDbEntity
  8
Dimension
390
0
 62
               0
100
AcDbMText
 10
-3.0694529652024762
 20
-116.74003988020834
 30
0.0
 40
0.8421373697916665
 41
0.0
 71
               1
 72
               1
  1
22.10mm
  7
Helvetica
 73
               1
 44
0.9673603504928808
  0
POINT
  5
AA
100
AcDbEntity
  8
Defpoints
370
               0
390
0
 62
               0
100
AcDbPoint
 10
10.765001599999994
 20
-126.00078825730517
 30
0.0
  0
POINT
  5
AB
100
AcDbEntity
  8
Defpoints
370
               0
390
0
 62
               0
100
AcDbPoint
 10
10.765001599999994
 20
-103.90078825730519
 30
0.0
  0
POINT
  5
AC
100
AcDbEntity
  8
Defpoints
370
               0
390
0
 62
               0
100
AcDbPoint
 10
-0.6000000000000014
 20
-103.90078825730519
 30
0.0
  0
ENDBLK
  5
AD
100
AcDbEntity
  8
Dimension
390
0
100
AcDbBlockEnd
  0
BLOCK
  5
AE
100
AcDbEntity
  8
Dimension
390
0
100
AcDbBlockBegin
  2
*D6
 70
               1
 10
0.0
 20
0.0
 30
0.0
  3
*D6
  1

  0
LINE
  5
AF
100
AcDbEntity
  8
Dimension
370
              -2
390
0
  6
Continuous
 62
               0
100
AcDbLine
 10
18.218835462499992
 20
-106.5497882573052
 30
0.0
 11
1.5416677249999999
 21
-106.5497882573052
 31
0.0
  0
LINE
  5
B0
100
AcDbEntity
  8
Dimension
370
              -2
390
0
  6
Continuous
 62
               0
100
AcDbLine
 10
18.218835462499992
 20
-124.14978825730518
 30
0.0
 11
1.5416677249999964
 21
-124.14978825730518
 31
0.0
  0
LINE
  5
B1
100
AcDbEntity
  8
Dimension
370
              -2
390
0
  6
Continuous
 62
               0
100
AcDbLine
 10
2.5999999999999979
 20
-106.5497882573052
 30
0.0
 11
2.5999999999999979
 21
-124.14978825730518
 31
0.0
  0
SOLID
  5
B2
100
AcDbEntity
  8
Dimension
370
              -2
390
0
 62
               0
100
AcDbTrace
 10
2.5999999999999979
 20
-106.5497882573052
 30
0.0
 11
2.8835792784100391
 21
-107.60812053230519
 31
0.0
 12
2.3164207215899566
 22
-107.60812053230519
 32
0.0
 13
2.3164207215899566
 23
-107.60812053230519
 33
0.0
  0
SOLID
  5
B3
100
AcDbEntity
  8
Dimension
370
              -2
390
0
 62
               0
100
AcDbTrace
 10
2.5999999999999979
 20
-124.14978825730518
 30
0.0
 11
2.3164207215899566
 21
-123.09145598230518
 31
0.0
 12
2.8835792784100391
 22
-123.09145598230518
 32
0.0
 13
2.8835792784100391
 23
-123.09145598230518
 33
0.0
  0
WIPEOUT
  5
B4
100
AcDbEntity
  8
Dimension
370
              -2
390
0
  6
Continuous
 62
               0
 92
        0
100
AcDbWipeout
 90
        0
 10
0.1305470347975231
 20
68.670194648944801
 30
0.0
 11
4.9389059304049496
 21
0.0
 31
0.0
 12
0.0
 22
4.9389059304049496
 32
0.0
 13
1.0
 23
1.0
340
0
 70
               7
280
               1
281
              50
282
              50
283
               0
360
0
 71
               2
 91
        5
 14
-0.5
 24
37.4193059291675
 14
0.5
 24
37.4193059291675
 14
0.5
 24
37.145496401499678
 14
-0.5
 24
37.145496401499678
 14
-0.5
 24
37.4193059291675
  0
MTEXT
  5
B5
100
AcDbEntity
  8
Dimension
390
0
 62
               0
100
AcDbMText
 10
0.1305470347975231
 20
-112.53466448126352
 30
0.0
 40
0.8421373697916665
 41
0.0
 71
               1
 72
               1
  1
17.60mm
  7
Helvetica
 73
               1
 44
0.9673603504928808
  0
POINT
  5
B6
100
AcDbEntity
  8
Defpoints
370
               0
390
0
 62
               0
100
AcDbPoint
 10
18.748001599999995
 20
-124.14978825730518
 30
0.0
  0
POINT
  5
B7
100
AcDbEntity
  8
Defpoints
370
               0
390
0
 62
               0
100
AcDbPoint
 10
18.748001599999995
 20
-106.5497882573052
 30
0.0
  0
POINT
  5
B8
100
AcDbEntity
  8
Defpoints
370
               0
390
0
 62
               0
100
AcDbPoint
 10
2.5999999999999979
 20
-106.5497882573052
 30
0.0
  0
ENDBLK
  5
B9
100
AcDbEntity
  8
Dimension
390
0
100
AcDbBlockEnd
  0
BLOCK
  5
BA
100
AcDbEntity
  8
Dimension
390
0
100
AcDbBlockBegin
  2
*D7
 70
               1
 10
0.0
 20
0.0
 30
0.0
  3
*D7
  1

  0
LINE
  5
BB
100
AcDbEntity
  8
Dimension
370
              -2
390
0
  6
Continuous
 62
               0
100
AcDbLine
 10
7.1000015999999952
 20
-130.72995439480519
 30
0.0
 11
7.1000015999999952
 21
-138.85833490000002
 31
0.0
  0
LINE
  5
BC
100
AcDbEntity
  8
Dimension
370
              -2
390
0
  6
Continuous
 62
               0
100
AcDbLine
 10
47.200001599999993
 20
-130.72995439480519
 30
0.0
 11
47.200001599999993
 21
-138.85833490000002
 31
0.0
  0
LINE
  5
BD
100
AcDbEntity
  8
Dimension
370
              -2
390
0
  6
Continuous
 62
               0
100
AcDbLine
 10
7.1000015999999952
 20
-137.80000262500002
 30
0.0
 11
47.200001599999993
 21
-137.80000262500002
 31
0.0
  0
SOLID
  5
BE
100
AcDbEntity
  8
Dimension
370
              -2
390
0
 62
               0
100
AcDbTrace
 10
7.1000015999999952
 20
-137.80000262500002
 30
0.0
 11
8.1583338749999967
 21
-137.51642334658996
 31
0.0
 12
8.1583338749999967
 22
-138.08358190341005
 32
0.0
 13
8.1583338749999967
 23
-138.08358190341005
 33
0.0
  0
SOLID
  5
BF
100
AcDbEntity
  8
Dimension
370
              -2
390
0
 62
               0
100
AcDbTrace
 10
47.200001599999993
 20
-137.80000262500002
 30
0.0
 11
46.141669324999995
 21
-138.08358190341005
 31
0.0
 12
46.141669324999995
 22
-137.51642334658996
 32
0.0
 13
46.141669324999995
 23
-137.51642334658996
 33
0.0
  0
WIPEOUT
  5
C0
100
AcDbEntity
  8
Dimension
370
              -2
390
0
  6
Continuous
 62
               0
 92
        0
100
AcDbWipeout
 90
        0
 10
21.272853137663176
 20
43.864815312499978
 30
0.0
 11
4.9389059304049496
 21
0.0
 31
0.0
 12
0.0
 22
4.9389059304049496
 32
0.0
 13
1.0
 23
1.0
340
0
 70
               7
280
               1
281
              50
282
              50
283
               0
360
0
 71
               2
 91
        5
 14
-0.5
 24
37.419305929167507
 14
0.5
 24
37.419305929167507
 14
0.5
 24
37.145496401499678
 14
-0.5
 24
37.145496401499678
 14
-0.5
 24
37.419305929167507
  0
MTEXT
  5
C1
100
AcDbEntity
  8
Dimension
390
0
 62
               0
100
AcDbMText
 10
21.272853137663176
 20
-137.34004381770833
 30
0.0
 40
0.8421373697916665
 41
0.0
 71
               1
 72
               1
  1
40.10mm
  7
Helvetica
 73
               1
 44
0.9673603504928808
  0
WIPEOUT
  5
C2
100
AcDbEntity
  8
Dimension
370
              -2
390
0
  6
Continuous
 62
               0
 92
        0
100
AcDbWipeout
 90
        0
 10
26.211759068068126
 20
43.864817937499978
 30
0.0
 11
4.9271468623368264
 21
0.0
 31
0.0
 12
0.0
 22
4.9271468623368264
 32
0.0
 13
1.0
 23
1.0
340
0
 70
               7
280
               1
281
              50
282
              50
283
               0
360
0
 71
               2
 91
        5
 14
-0.5
 24
37.507417090368619
 14
0.5
 24
37.507417090368619
 14
0.5
 24
37.232954092251568
 14
-0.5
 24
37.232954092251568
 14
-0.5
 24
37.507417090368619
  0
MTEXT
  5
C3
100
AcDbEntity
  8
Dimension
390
0
 62
               0
100
AcDbMText
 10
26.211759068068126
 20
-137.34004119270833
 30
0.0
 40
0.8421373697916665
 41
0.0
 71
               1
 72
               1
  1
±0.13mm
  7
Helvetica
 73
               1
 44
0.9673603504928808
  0
POINT
  5
C4
100
AcDbEntity
  8
Defpoints
370
               0
390
0
 62
               0
100
AcDbPoint
 10
47.200001599999993
 20
-130.20078825730519
 30
0.0
  0
POINT
  5
C5
100
AcDbEntity
  8
Defpoints
370
               0
390
0
 62
               0
100
AcDbPoint
 10
7.1000015999999952
 20
-130.20078825730519
 30
0.0
  0
POINT
  5
C6
100
AcDbEntity
  8
Defpoints
370
               0
390
0
 62
               0
100
AcDbPoint
 10
7.1000015999999952
 20
-137.80000262500002
 30
0.0
  0
ENDBLK
  5
C7
100
AcDbEntity
  8
Dimension
390
0
100
AcDbBlockEnd
  0
BLOCK
  5
C8
100
AcDbEntity
  8
Dimension
390
0
100
AcDbBlockBegin
  2
*D8
 70
               1
 10
0.0
 20
0.0
 30
0.0
  3
*D8
  1

  0
LINE
  5
C9
100
AcDbEntity
  8
Dimension
370
              -2
390
0
  6
Continuous
 62
               0
100
AcDbLine
 10
10.765001599999994
 20
-126.52995439480517
 30
0.0
 11
10.765001599999994
 21
-137.25833227500001
 31
0.0
  0
LINE
  5
CA
100
AcDbEntity
  8
Dimension
370
              -2
390
0
  6
Continuous
 62
               0
100
AcDbLine
 10
43.535001599999987
 20
-126.52995439480517
 30
0.0
 11
43.535001599999987
 21
-137.25833227500001
 31
0.0
  0
LINE
  5
CB
100
AcDbEntity
  8
Dimension
370
              -2
390
0
  6
Continuous
 62
               0
100
AcDbLine
 10
10.765001599999994
 20
-136.20000000000002
 30
0.0
 11
43.535001599999987
 21
-136.20000000000002
 31
0.0
  0
SOLID
  5
CC
100
AcDbEntity
  8
Dimension
370
              -2
390
0
 62
               0
100
AcDbTrace
 10
10.765001599999994
 20
-136.20000000000002
 30
0.0
 11
11.823333874999994
 21
-135.91642072158996
 31
0.0
 12
11.823333874999994
 22
-136.48357927841005
 32
0.0
 13
11.823333874999994
 23
-136.48357927841005
 33
0.0
  0
SOLID
  5
CD
100
AcDbEntity
  8
Dimension
370
              -2
390
0
 62
               0
100
AcDbTrace
 10
43.535001599999987
 20
-136.20000000000002
 30
0.0
 11
42.476669324999989
 21
-136.48357927841005
 31
0.0
 12
42.476669324999989
 22
-135.91642072158996
 32
0.0
 13
42.476669324999989
 23
-135.91642072158996
 33
0.0
  0
WIPEOUT
  5
CE
100
AcDbEntity
  8
Dimension
370
              -2
390
0
  6
Continuous
 62
               0
 92
        0
100
AcDbWipeout
 90
        0
 10
22.930547034797527
 20
45.464819249999977
 30
0.0
 11
4.9389059304049496
 21
0.0
 31
0.0
 12
0.0
 22
4.9389059304049496
 32
0.0
 13
1.0
 23
1.0
340
0
 70
               7
280
               1
281
              50
282
              50
283
               0
360
0
 71
               2
 91
        5
 14
-0.5
 24
37.4193059291675
 14
0.5
 24
37.4193059291675
 14
0.5
 24
37.145496401499678
 14
-0.5
 24
37.145496401499678
 14
-0.5
 24
37.4193059291675
  0
MTEXT
  5
CF
100
AcDbEntity
  8
Dimension
390
0
 62
               0
100
AcDbMText
 10
22.930547034797527
 20
-135.74003988020834
 30
0.0
 40
0.8421373697916665
 41
0.0
 71
               1
 72
               1
  1
32.77mm
  7
Helvetica
 73
               1
 44
0.9673603504928808
  0
POINT
  5
D0
100
AcDbEntity
  8
Defpoints
370
               0
390
0
 62
               0
100
AcDbPoint
 10
43.535001599999987
 20
-126.00078825730517
 30
0.0
  0
POINT
  5
D1
100
AcDbEntity
  8
Defpoints
370
               0
390
0
 62
               0
100
AcDbPoint
 10
10.765001599999994
 20
-126.00078825730517
 30
0.0
  0
POINT
  5
D2
100
AcDbEntity
  8
Defpoints
370
               0
390
0
 62
               0
100
AcDbPoint
 10
10.765001599999994
 20
-136.20000000000002
 30
0.0
  0
ENDBLK
  5
D3
100
AcDbEntity
  8
Dimension
390
0
100
AcDbBlockEnd
  0
BLOCK
  5
D4
100
AcDbEntity
  8
Dimension
390
0
100
AcDbBlockBegin
  2
*D9
 70
               1
 10
0.0
 20
0.0
 30
0.0
  3
*D9
  1

  0
LINE
  5
D5
100
AcDbEntity
  8
Dimension
370
              -2
390
0
  6
Continuous
 62
               0
100
AcDbLine
 10
18.748001599999995
 20
-124.67895439480517
 30
0.0
 11
18.748001599999995
 21
-135.25833227500001
 31
0.0
  0
LINE
  5
D6
100
AcDbEntity
  8
Dimension
370
              -2
390
0
  6
Continuous
 62
               0
100
AcDbLine
 10
36.348001599999989
 20
-124.67895439480517
 30
0.0
 11
36.348001599999989
 21
-135.25833227500001
 31
0.0
  0
LINE
  5
D7
100
AcDbEntity
  8
Dimension
370
              -2
390
0
  6
Continuous
 62
               0
100
AcDbLine
 10
18.748001599999995
 20
-134.20000000000002
 30
0.0
 11
36.348001599999989
 21
-134.20000000000002
 31
0.0
  0
SOLID
  5
D8
100
AcDbEntity
  8
Dimension
370
              -2
390
0
 62
               0
100
AcDbTrace
 10
18.748001599999995
 20
-134.20000000000002
 30
0.0
 11
19.806333874999993
 21
-133.91642072158996
 31
0.0
 12
19.806333874999993
 22
-134.48357927841005
 32
0.0
 13
19.806333874999993
 23
-134.48357927841005
 33
0.0
  0
SOLID
  5
D9
100
AcDbEntity
  8
Dimension
370
              -2
390
0
 62
               0
100
AcDbTrace
 10
36.348001599999989
 20
-134.20000000000002
 30
0.0
 11
35.289669324999991
 21
-134.48357927841005
 31
0.0
 12
35.289669324999991
 22
-133.91642072158996
 32
0.0
 13
35.289669324999991
 23
-133.91642072158996
 33
0.0
  0
WIPEOUT
  5
DA
100
AcDbEntity
  8
Dimension
370
              -2
390
0
  6
Continuous
 62
               0
 92
        0
100
AcDbWipeout
 90
        0
 10
24.930547034797527
 20
47.464819249999977
 30
0.0
 11
4.9389059304049496
 21
0.0
 31
0.0
 12
0.0
 22
4.9389059304049496
 32
0.0
 13
1.0
 23
1.0
340
0
 70
               7
280
               1
281
              50
282
              50
283
               0
360
0
 71
               2
 91
        5
 14
-0.5
 24
37.4193059291675
 14
0.5
 24
37.4193059291675
 14
0.5
 24
37.145496401499678
 14
-0.5
 24
37.145496401499678
 14
-0.5
 24
37.4193059291675
  0
MTEXT
  5
DB
100
AcDbEntity
  8
Dimension
390
0
 62
               0
100
AcDbMText
 10
24.930547034797527
 20
-133.74003988020834
 30
0.0
 40
0.8421373697916665
 41
0.0
 71
               1
 72
               1
  1
17.60mm
  7
Helvetica
 73
               1
 44
0.9673603504928808
  0
POINT
  5
DC
100
AcDbEntity
  8
Defpoints
370
               0
390
0
 62
               0
100
AcDbPoint
 10
36.348001599999989
 20
-124.14978825730518
 30
0.0
  0
POINT
  5
DD
100
AcDbEntity
  8
Defpoints
370
               0
390
0
 62
               0
100
AcDbPoint
 10
18.748001599999995
 20
-124.14978825730518
 30
0.0
  0
POINT
  5
DE
100
AcDbEntity
  8
Defpoints
370
               0
390
0
 62
               0
100
AcDbPoint
 10
18.748001599999995
 20
-134.20000000000002
 30
0.0
  0
ENDBLK
  5
DF
100
AcDbEntity
  8
Dimension
390
0
100
AcDbBlockEnd
  0
BLOCK
  5
E0
100
AcDbEntity
  8
Dimension
390
0
100
AcDbBlockBegin
  2
*D10
 70
               1
 10
0.0
 20
0.0
 30
0.0
  3
*D10
  1

  0
LINE
  5
E1
100
AcDbEntity
  8
Dimension
370
              -2
390
0
  6
Continuous
 62
               0
100
AcDbLine
 10
22.748001599999995
 20
-105.91478889072815
 30
0.0
 11
22.748001599999995
 21
-94.930789524151123
 31
0.0
  0
LINE
  5
E2
100
AcDbEntity
  8
Dimension
370
              -2
390
0
  6
Continuous
 62
               0
100
AcDbLine
 10
23.548001599999992
 20
-105.91478889072815
 30
0.0
 11
23.548001599999992
 21
-94.930789524151123
 31
0.0
  0
LINE
  5
E3
100
AcDbEntity
  8
Dimension
370
              -2
390
0
  6
Continuous
 62
               0
100
AcDbLine
 10
23.548001599999992
 20
-96.200788257305192
 30
0.0
 11
22.748001599999995
 21
-96.200788257305192
 31
0.0
  0
LINE
  5
E4
100
AcDbEntity
  8
Dimension
370
              -2
390
0
  6
Continuous
 62
               0
100
AcDbLine
 10
22.748001599999995
 20
-96.200788257305192
 30
0.0
 11
20.414675268839567
 21
-96.200788257305192
 31
0.0
  0
SOLID
  5
E5
100
AcDbEntity
  8
Dimension
370
              -2
390
0
 62
               0
100
AcDbTrace
 10
22.748001599999995
 20
-96.200788257305192
 30
0.0
 11
21.689669324999993
 21
-96.484367535715251
 31
0.0
 12
21.689669324999993
 22
-95.917208978895161
 32
0.0
 13
21.689669324999993
 23
-95.917208978895161
 33
0.0
  0
LINE
  5
E6
100
AcDbEntity
  8
Dimension
370
              -2
390
0
  6
Continuous
 62
               0
100
AcDbLine
 10
23.548001599999992
 20
-96.200788257305192
 30
0.0
 11
26.698051599999992
 21
-96.200788257305192
 31
0.0
  0
SOLID
  5
E7
100
AcDbEntity
  8
Dimension
370
              -2
390
0
 62
               0
100
AcDbTrace
 10
23.548001599999992
 20
-96.200788257305192
 30
0.0
 11
24.606333874999994
 21
-95.917208978895161
 31
0.0
 12
24.606333874999994
 22
-96.484367535715251
 32
0.0
 13
24.606333874999994
 23
-96.484367535715251
 33
0.0
  0
WIPEOUT
  5
E8
100
AcDbEntity
  8
Dimension
370
              -2
390
0
  6
Continuous
 62
               0
 92
        0
100
AcDbWipeout
 90
        0
 10
26.698051599999992
 20
85.464030992694788
 30
0.0
 11
6.5028929354640974
 21
0.0
 31
0.0
 12
0.0
 22
6.5028929354640974
 32
0.0
 13
1.0
 23
1.0
340
0
 70
               7
280
               1
281
              50
282
              50
283
               0
360
0
 71
               2
 91
        5
 14
-0.5
 24
28.539978638674409
 14
0.4999999999999999
 24
28.539978638674409
 14
0.4999999999999999
 24
28.332022039446851
 14
-0.5
 24
28.332022039446851
 14
-0.5
 24
28.539978638674409
  0
MTEXT
  5
E9
100
AcDbEntity
  8
Dimension
390
0
 62
               0
100
AcDbMText
 10
26.698051599999992
 20
-95.740828137513532
 30
0.0
 40
0.8421373697916665
 41
0.0
 71
               1
 72
               1
  1
0.80mm typ.
  7
Helvetica
 73
               1
 44
0.9673603504928808
  0
POINT
  5
EA
100
AcDbEntity
  8
Defpoints
370
               0
390
0
 62
               0
100
AcDbPoint
 10
23.548001599999992
 20
-106.5497882573052
 30
0.0
  0
POINT
  5
EB
100
AcDbEntity
  8
Defpoints
370
               0
390
0
 62
               0
100
AcDbPoint
 10
22.748001599999995
 20
-106.5497882573052
 30
0.0
  0
POINT
  5
EC
100
AcDbEntity
  8
Defpoints
370
               0
390
0
 62
               0
100
AcDbPoint
 10
22.748001599999995
 20
-96.200788257305192
 30
0.0
  0
ENDBLK
  5
ED
100
AcDbEntity
  8
Dimension
390
0
100
AcDbBlockEnd
  0
BLOCK
  5
EE
100
AcDbEntity
  8
Dimension
390
0
100
AcDbBlockBegin
  2
*D11
 70
               1
 10
0.0
 20
0.0
 30
0.0
  3
*D11
  1

  0
LINE
  5
EF
100
AcDbEntity
  8
Dimension
370
              -2
390
0
  6
Continuous
 62
               0
100
AcDbLine
 10
44.624951599999989
 20
-103.65373825730519
 30
0.0
 11
52.799998636251971
 21
-101.80078642600533
 31
0.0
  0
SOLID
  5
F0
100
AcDbEntity
  8
Dimension
370
              -2
390
0
 62
               0
100
AcDbTrace
 10
44.624951599999989
 20
-103.65373825730519
 30
0.0
 11
45.60119732831528
 21
-103.15631621376832
 31
0.0
 12
45.719116222825505
 22
-103.71108099535755
 32
0.0
 13
45.719116222825505
 23
-103.71108099535755
 33
0.0
  0
LINE
  5
F1
100
AcDbEntity
  8
Dimension
370
              -2
390
0
  6
Continuous
 62
               0
100
AcDbLine
 10
52.799998636251971
 20
-101.80078642600533
 30
0.0
 11
54.916663186251967
 21
-101.80078642600533
 31
0.0
  0
WIPEOUT
  5
F2
100
AcDbEntity
  8
Dimension
370
              -2
390
0
  6
Continuous
 62
               0
 92
        0
100
AcDbWipeout
 90
        0
 10
54.916663186251967
 20
79.864032823994663
 30
0.0
 11
7.8669717461479216
 21
0.0
 31
0.0
 12
0.0
 22
7.8669717461479216
 32
0.0
 13
1.0
 23
1.0
340
0
 70
               7
280
               1
281
              50
282
              50
283
               0
360
0
 71
               2
 91
        5
 14
-0.5
 24
23.678039134217514
 14
0.5000000000000004
 24
23.678039134217514
 14
0.5000000000000004
 24
23.506140779471014
 14
-0.5
 24
23.506140779471014
 14
-0.5
 24
23.678039134217514
  0
MTEXT
  5
F3
100
AcDbEntity
  8
Dimension
390
0
 62
               0
100
AcDbMText
 10
54.916663186251967
 20
-101.34082630621367
 30
0.0
 40
0.8421373697916665
 41
0.0
 71
               1
 72
               1
  1
Ø 2.24mm (x4)
  7
Helvetica
 73
               1
 44
0.9673603504928808
  0
POINT
  5
F4
100
AcDbEntity
  8
Defpoints
370
               0
390
0
 62
               0
100
AcDbPoint
 10
42.445051599999992
 20
-104.1478382573052
 30
0.0
  0
POINT
  5
F5
100
AcDbEntity
  8
Defpoints
370
               0
390
0
 62
               0
100
AcDbPoint
 10
44.624951599999989
 20
-103.65373825730519
 30
0.0
  0
ENDBLK
  5
F6
100
AcDbEntity
  8
Dimension
390
0
100
AcDbBlockEnd
  0
BLOCK
  5
F7
100
AcDbEntity
  8
Dimension
390
0
100
AcDbBlockBegin
  2
*D12
 70
               1
 10
0.0
 20
0.0
 30
0.0
  3
*D12
  1

  0
LINE
  5
F8
100
AcDbEntity
  8
Dimension
370
              -2
390
0
  6
Continuous
 62
               0
100
AcDbLine
 10
10.765001599999994
 20
-103.3716221198052
 30
0.0
 11
10.765001599999994
 21
-94.341667725000008
 31
0.0
  0
LINE
  5
F9
100
AcDbEntity
  8
Dimension
370
              -2
390
0
  6
Continuous
 62
               0
100
AcDbLine
 10
18.748001599999995
 20
-106.0206221198052
 30
0.0
 11
18.748001599999995
 21
-94.341667725000008
 31
0.0
  0
LINE
  5
FA
100
AcDbEntity
  8
Dimension
370
              -2
390
0
  6
Continuous
 62
               0
100
AcDbLine
 10
10.765001599999994
 20
-95.400000000000006
 30
0.0
 11
8.2250041399999922
 21
-95.400000000000006
 31
0.0
  0
SOLID
  5
FB
100
AcDbEntity
  8
Dimension
370
              -2
390
0
 62
               0
100
AcDbTrace
 10
10.765001599999994
 20
-95.400000000000006
 30
0.0
 11
9.7066693249999929
 21
-95.683579278410051
 31
0.0
 12
9.7066693249999929
 22
-95.116420721589961
 32
0.0
 13
9.7066693249999929
 23
-95.116420721589961
 33
0.0
  0
LINE
  5
FC
100
AcDbEntity
  8
Dimension
370
              -2
390
0
  6
Continuous
 62
               0
100
AcDbLine
 10
18.748001599999995
 20
-95.400000000000006
 30
0.0
 11
21.287999059999994
 21
-95.400000000000006
 31
0.0
  0
SOLID
  5
FD
100
AcDbEntity
  8
Dimension
370
              -2
390
0
 62
               0
100
AcDbTrace
 10
18.748001599999995
 20
-95.400000000000006
 30
0.0
 11
19.806333874999993
 21
-95.116420721589961
 31
0.0
 12
19.806333874999993
 22
-95.683579278410051
 32
0.0
 13
19.806333874999993
 23
-95.683579278410051
 33
0.0
  0
WIPEOUT
  5
FE
100
AcDbEntity
  8
Dimension
370
              -2
390
0
  6
Continuous
 62
               0
 92
        0
100
AcDbWipeout
 90
        0
 10
12.287069493753235
 20
86.264824999999988
 30
0.0
 11
4.9388642124935149
 21
0.0
 31
0.0
 12
0.0
 22
4.9388642124935149
 32
0.0
 13
1.0
 23
1.0
340
0
 70
               7
280
               1
281
              50
282
              50
283
               0
360
0
 71
               2
 91
        5
 14
-0.5
 24
37.419617781502112
 14
0.5
 24
37.419617781502112
 14
0.5
 24
37.145808269473186
 14
-0.5
 24
37.145808269473186
 14
-0.5
 24
37.419617781502112
  0
MTEXT
  5
FF
100
AcDbEntity
  8
Dimension
390
0
 62
               0
100
AcDbMText
 10
12.287069493753235
 20
-94.940043791666668
 30
0.0
 40
0.8421302083333332
 41
0.0
 71
               1
 72
               1
  1
7.983mm
  7
Helvetica
 73
               1
 44
0.9673603504928806
  0
POINT
  5
100
100
AcDbEntity
  8
Defpoints
370
               0
390
0
 62
               0
100
AcDbPoint
 10
18.748001599999995
 20
-106.5497882573052
 30
0.0
  0
POINT
  5
101
100
AcDbEntity
  8
Defpoints
370
               0
390
0
 62
               0
100
AcDbPoint
 10
10.765001599999994
 20
-103.90078825730519
 30
0.0
  0
POINT
  5
102
100
AcDbEntity
  8
Defpoints
370
               0
390
0
 62
               0
100
AcDbPoint
 10
10.765001599999994
 20
-95.400000000000006
 30
0.0
  0
ENDBLK
  5
103
100
AcDbEntity
  8
Dimension
390
0
100
AcDbBlockEnd
  0
BLOCK
  5
104
100
AcDbEntity
  8
Dimension
390
0
100
AcDbBlockBegin
  2
*D13
 70
               1
 10
0.0
 20
0.0
 30
0.0
  3
*D13
  1

  0
LINE
  5
105
100
AcDbEntity
  8
Dimension
370
              -2
390
0
  6
Continuous
 62
               0
100
AcDbLine
 10
10.235835462499995
 20
-103.90078825730519
 30
0.0
 11
3.1416693249999952
 21
-103.90078825730519
 31
0.0
  0
LINE
  5
106
100
AcDbEntity
  8
Dimension
370
              -2
390
0
  6
Continuous
 62
               0
100
AcDbLine
 10
18.218835462499992
 20
-106.5497882573052
 30
0.0
 11
3.1416693249999952
 21
-106.5497882573052
 31
0.0
  0
LINE
  5
107
100
AcDbEntity
  8
Dimension
370
              -2
390
0
  6
Continuous
 62
               0
100
AcDbLine
 10
4.2000015999999967
 20
-103.90078825730519
 30
0.0
 11
4.2000015999999967
 21
-101.36079079730519
 31
0.0
  0
SOLID
  5
108
100
AcDbEntity
  8
Dimension
370
              -2
390
0
 62
               0
100
AcDbTrace
 10
4.2000015999999967
 20
-103.90078825730519
 30
0.0
 11
3.9164223215899554
 21
-102.8424559823052
 31
0.0
 12
4.4835808784100379
 22
-102.8424559823052
 32
0.0
 13
4.4835808784100379
 23
-102.8424559823052
 33
0.0
  0
LINE
  5
109
100
AcDbEntity
  8
Dimension
370
              -2
390
0
  6
Continuous
 62
               0
100
AcDbLine
 10
4.2000015999999967
 20
-106.5497882573052
 30
0.0
 11
4.2000015999999967
 21
-109.0897857173052
 31
0.0
  0
SOLID
  5
10A
100
AcDbEntity
  8
Dimension
370
              -2
390
0
 62
               0
100
AcDbTrace
 10
4.2000015999999967
 20
-106.5497882573052
 30
0.0
 11
4.4835808784100379
 21
-107.60812053230519
 31
0.0
 12
3.9164223215899554
 22
-107.60812053230519
 32
0.0
 13
3.9164223215899554
 23
-107.60812053230519
 33
0.0
  0
WIPEOUT
  5
10B
100
AcDbEntity
  8
Dimension
370
              -2
390
0
  6
Continuous
 62
               0
 92
        0
100
AcDbWipeout
 90
        0
 10
1.7305694937532401
 20
76.439536742694798
 30
0.0
 11
4.9388642124935167
 21
0.0
 31
0.0
 12
0.0
 22
4.9388642124935167
 32
0.0
 13
1.0
 23
1.0
340
0
 70
               7
280
               1
281
              50
282
              50
283
               0
360
0
 71
               2
 91
        5
 14
-0.5
 24
37.419617781502097
 14
0.5
 24
37.419617781502097
 14
0.5
 24
37.145808269473164
 14
-0.5
 24
37.145808269473164
 14
-0.5
 24
37.419617781502097
  0
MTEXT
  5
10C
100
AcDbEntity
  8
Dimension
390
0
 62
               0
100
AcDbMText
 10
1.7305694937532401
 20
-104.76533204897186
 30
0.0
 40
0.8421302083333332
 41
0.0
 71
               1
 72
               1
  1
2.649mm
  7
Helvetica
 73
               1
 44
0.9673603504928806
  0
POINT
  5
10D
100
AcDbEntity
  8
Defpoints
370
               0
390
0
 62
               0
100
AcDbPoint
 10
18.748001599999995
 20
-106.5497882573052
 30
0.0
  0
POINT
  5
10E
100
AcDbEntity
  8
Defpoints
370
               0
390
0
 62
               0
100
AcDbPoint
 10
10.765001599999994
 20
-103.90078825730519
 30
0.0
  0
POINT
  5
10F
100
AcDbEntity
  8
Defpoints
370
               0
390
0
 62
               0
100
AcDbPoint
 10
4.2000015999999967
 20
-103.90078825730519
 30
0.0
  0
ENDBLK
  5
110
100
AcDbEntity
  8
Dimension
390
0
100
AcDbBlockEnd
  0
BLOCK
  5
111
100
AcDbEntity
  8
None
390
0
100
AcDbBlockBegin
  2
Group
 70
               0
 10
0.0
 20
0.0
 30
0.0
  3
Group
  1

  0
POLYLINE
  5
112
100
AcDbEntity
  8
None
370
               9
390
0
  6
STYLE_09
 62
               7
100
AcDb2dPolyline
 66
               1
 10
0.0
 20
0.0
 30
0.0
 70
               1
 75
               5
  0
VERTEX
  5
113
100
AcDbEntity
  8
None
370
               9
390
0
  6
STYLE_09
 62
               7
100
AcDbVertex
100
AcDb2dVertex
 10
-21.014409999999998
 20
57.025779142694915
 30
0.0
  0
VERTEX
  5
114
100
AcDbEntity
  8
None
370
               9
390
0
  6
STYLE_09
 62
               7
100
AcDbVertex
100
AcDb2dVertex
 10
21.58559
 20
57.025779142694915
 30
0.0
  0
VERTEX
  5
115
100
AcDbEntity
  8
None
370
               9
390
0
  6
STYLE_09
 62
               7
100
AcDbVertex
100
AcDb2dVertex
 10
21.58559
 20
24.025779142695008
 30
0.0
  0
VERTEX
  5
116
100
AcDbEntity
  8
None
370
               9
390
0
  6
STYLE_09
 62
               7
100
AcDbVertex
100
AcDb2dVertex
 10
-21.014409999999998
 20
24.025779142695008
 30
0.0
  0
SEQEND
  5
117
100
AcDbEntity
  8
None
370
               9
390
0
  6
STYLE_09
 62
               7
  0
ENDBLK
  5
118
100
AcDbEntity
  8
None
390
0
100
AcDbBlockEnd
  0
BLOCK
  5
119
100
AcDbEntity
  8
Dimension
390
0
100
AcDbBlockBegin
  2
*D15
 70
               1
 10
0.0
 20
0.0
 30
0.0
  3
*D15
  1

  0
LINE
  5
11A
100
AcDbEntity
  8
Dimension
370
              -2
390
0
  6
Continuous
 62
               0
100
AcDbLine
 10
5.8500015999999952
 20
-131.97995439480499
 30
0.0
 11
5.8500015999999952
 21
-141.058332275
 31
0.0
  0
LINE
  5
11B
100
AcDbEntity
  8
Dimension
370
              -2
390
0
  6
Continuous
 62
               0
100
AcDbLine
 10
48.450001599999993
 20
-131.97995439480499
 30
0.0
 11
48.450001599999993
 21
-141.058332275
 31
0.0
  0
LINE
  5
11C
100
AcDbEntity
  8
Dimension
370
              -2
390
0
  6
Continuous
 62
               0
100
AcDbLine
 10
5.8500015999999952
 20
-140.0
 30
0.0
 11
48.450001599999993
 21
-140.0
 31
0.0
  0
SOLID
  5
11D
100
AcDbEntity
  8
Dimension
370
              -2
390
0
 62
               0
100
AcDbTrace
 10
5.8500015999999952
 20
-140.0
 30
0.0
 11
6.9083338749999967
 21
-139.71642072158997
 31
0.0
 12
6.9083338749999967
 22
-140.28357927841006
 32
0.0
 13
6.9083338749999967
 23
-140.28357927841006
 33
0.0
  0
SOLID
  5
11E
100
AcDbEntity
  8
Dimension
370
              -2
390
0
 62
               0
100
AcDbTrace
 10
48.450001599999993
 20
-140.0
 30
0.0
 11
47.391669324999995
 21
-140.28357927841006
 31
0.0
 12
47.391669324999995
 22
-139.71642072158997
 32
0.0
 13
47.391669324999995
 23
-139.71642072158997
 33
0.0
  0
WIPEOUT
  5
11F
100
AcDbEntity
  8
Dimension
370
              -2
390
0
  6
Continuous
 62
               0
 92
        0
100
AcDbWipeout
 90
        0
 10
20.091070834034063
 20
41.66482226874998
 30
0.0
 11
12.217858331931877
 21
0.0
 31
0.0
 12
0.0
 22
12.217858331931877
 32
0.0
 13
1.0
 23
1.0
340
0
 70
               7
280
               1
281
              50
282
              50
283
               0
360
0
 71
               2
 91
        5
 14
-0.5
 24
15.424135969349418
 14
0.5000000000000002
 24
15.424135969349418
 14
0.5000000000000002
 24
15.313452621600518
 14
-0.5
 24
15.313452621600518
 14
-0.5
 24
15.424135969349418
  0
MTEXT
  5
120
100
AcDbEntity
  8
Dimension
390
0
 62
               0
100
AcDbMText
 10
20.091070834034063
 20
-139.54004193372396
 30
0.0
 40
0.8421336100260418
 41
0.0
 71
               1
 72
               1
  1
42.60mm backing plate
  7
Helvetica
 73
               1
 44
0.9673603504928806
  0
POINT
  5
121
100
AcDbEntity
  8
Defpoints
370
               0
390
0
 62
               0
100
AcDbPoint
 10
48.450001599999993
 20
-131.45078825730499
 30
0.0
  0
POINT
  5
122
100
AcDbEntity
  8
Defpoints
370
               0
390
0
 62
               0
100
AcDbPoint
 10
5.8500015999999952
 20
-131.45078825730499
 30
0.0
  0
POINT
  5
123
100
AcDbEntity
  8
Defpoints
370
               0
390
0
 62
               0
100
AcDbPoint
 10
5.8500015999999952
 20
-140.0
 30
0.0
  0
ENDBLK
  5
124
100
AcDbEntity
  8
Dimension
390
0
100
AcDbBlockEnd
  0
BLOCK
  5
125
100
AcDbEntity
  8
Dimension
390
0
100
AcDbBlockBegin
  2
*D16
 70
               1
 10
0.0
 20
0.0
 30
0.0
  3
*D16
  1

  0
LINE
  5
126
100
AcDbEntity
  8
Dimension
370
              -2
390
0
  6
Continuous
 62
               0
100
AcDbLine
 10
5.3208354624999963
 20
-98.450788257305078
 30
0.0
 11
-13.258332275000004
 21
-98.450788257305078
 31
0.0
  0
LINE
  5
127
100
AcDbEntity
  8
Dimension
370
              -2
390
0
  6
Continuous
 62
               0
100
AcDbLine
 10
5.3208354624999963
 20
-131.45078825730499
 30
0.0
 11
-13.258332274999997
 21
-131.45078825730499
 31
0.0
  0
LINE
  5
128
100
AcDbEntity
  8
Dimension
370
              -2
390
0
  6
Continuous
 62
               0
100
AcDbLine
 10
-12.199999999999999
 20
-98.450788257305078
 30
0.0
 11
-12.199999999999999
 21
-131.45078825730499
 31
0.0
  0
SOLID
  5
129
100
AcDbEntity
  8
Dimension
370
              -2
390
0
 62
               0
100
AcDbTrace
 10
-12.199999999999999
 20
-98.450788257305078
 30
0.0
 11
-11.916420721589954
 21
-99.509120532305076
 31
0.0
 12
-12.483579278410044
 22
-99.509120532305076
 32
0.0
 13
-12.483579278410044
 23
-99.509120532305076
 33
0.0
  0
SOLID
  5
12A
100
AcDbEntity
  8
Dimension
370
              -2
390
0
 62
               0
100
AcDbTrace
 10
-12.199999999999999
 20
-131.45078825730499
 30
0.0
 11
-12.483579278410044
 21
-130.39245598230499
 31
0.0
 12
-11.916420721589954
 22
-130.39245598230499
 32
0.0
 13
-11.916420721589954
 23
-130.39245598230499
 33
0.0
  0
WIPEOUT
  5
12B
100
AcDbEntity
  8
Dimension
370
              -2
390
0
  6
Continuous
 62
               0
 92
        0
100
AcDbWipeout
 90
        0
 10
-14.669441975000002
 20
70.864822268749975
 30
0.0
 11
4.9388839500000046
 21
0.0
 31
0.0
 12
0.0
 22
4.9388839500000046
 32
0.0
 13
1.0
 23
1.0
340
0
 70
               7
280
               1
281
              50
282
              50
283
               0
360
0
 71
               2
 91
        5
 14
-0.5
 24
37.419470237805413
 14
0.5
 24
37.419470237805413
 14
0.5
 24
37.145660713995888
 14
-0.5
 24
37.145660713995888
 14
-0.5
 24
37.419470237805413
  0
MTEXT
  5
12C
100
AcDbEntity
  8
Dimension
390
0
 62
               0
100
AcDbMText
 10
-14.669441975000002
 20
-110.34004193372397
 30
0.0
 40
0.8421336100260418
 41
0.0
 71
               1
 72
               1
  1
33.00mm
  7
Helvetica
 73
               1
 44
0.9673603504928806
  0
POINT
  5
12D
100
AcDbEntity
  8
Defpoints
370
               0
390
0
 62
               0
100
AcDbPoint
 10
5.8500015999999952
 20
-131.45078825730499
 30
0.0
  0
POINT
  5
12E
100
AcDbEntity
  8
Defpoints
370
               0
390
0
 62
               0
100
AcDbPoint
 10
5.8500015999999952
 20
-98.450788257305078
 30
0.0
  0
POINT
  5
12F
100
AcDbEntity
  8
Defpoints
370
               0
390
0
 62
               0
100
AcDbPoint
 10
-12.199999999999999
 20
-98.450788257305078
 30
0.0
  0
ENDBLK
  5
130
100
AcDbEntity
  8
Dimension
390
0
100
AcDbBlockEnd
  0
ENDSEC
  0
SECTION
  2
ENTITIES
  0
WIPEOUT
  5
131
100
AcDbEntity
  8
None
370
               9
390
0
  6
Continuous
 62
               7
 92
        0
100
AcDbWipeout
 90
        0
 10
54.96144350294
 20
27.437912320304502
 30
0.0
 11
11.853321838863753
 21
0.0
 31
0.0
 12
0.0
 22
11.853321838863753
 32
0.0
 13
1.0
 23
1.0
340
0
 70
               7
280
               1
281
              50
282
              50
283
               0
360
0
 71
               2
 91
        5
 14
-0.5
 24
15.883112133356112
 14
0.4999999999999997
 24
15.883112133356112
 14
0.4999999999999997
 24
15.677754996716233
 14
-0.5
 24
15.677754996716233
 14
-0.5
 24
15.883112133356112
  0
MTEXT
  5
132
100
AcDbEntity
  8
None
390
0
 62
               7
100
AcDbMText
 10
54.96144350294
 20
-152.8580600441486
 30
0.0
 40
1.5158404980468749
 41
0.0
 71
               1
 72
               1
  1
PAGE 2 of 4
  7
Arial
 73
               1
 44
0.9673603504928808
  0
MTEXT
  5
133
100
AcDbEntity
  8
None
390
0
 62
               7
100
AcDbMText
 10
29.064542733199993
 20
-144.18876764353283
 30
0.0
 40
0.6939780386601563
 41
38.070221929740001
 71
               1
 72
               1
  1
Recommended PCB Layout Tolerances:  ±0.025mm [±0.001"] unless stated otherwise.\P
  7
Helvetica
 73
               1
 44
0.9673603504928806
  0
MTEXT
  5
134
100
AcDbEntity
  8
None
390
0
 62
               7
100
AcDbMText
 10
-13.701014501200003
 20
-90.899052551356391
 30
0.0
 40
0.8165916313242188
 41
15.76917089748
 71
               1
 72
               1
  1
{\LRecommended PCB Layout Top View}\P
  7
Helvetica
 73
               1
 44
0.9673603504928809
  0
WIPEOUT
  5
135
100
AcDbEntity
  8
None
370
              15
390
0
  6
Continuous
 62
               1
 92
        0
100
AcDbWipeout
 90
        0
 10
-16.53991166230001
 20
40.480965628405016
 30
0.0
 11
23.801893295386506
 21
0.0
 31
0.0
 12
0.0
 22
23.801893295386506
 32
0.0
 13
1.0
 23
1.0
340
0
 70
               7
280
               1
281
              50
282
              50
283
               0
360
0
 71
               2
 91
        5
 14
-0.5
 24
8.1607762557839436
 14
0.5
 24
8.1607762557839436
 14
0.5
 24
7.9562409104404859
 14
-0.5
 24
7.9562409104404859
 14
-0.5
 24
8.1607762557839436
  0
MTEXT
  5
136
100
AcDbEntity
  8
None
390
0
 62
               1
100
AcDbMText
 10
-16.53991166230001
 20
-137.18626370507153
 30
0.0
 40
0.7579202490234375
 41
0.0
 71
               1
 72
               1
  1
{\LTarget PCB Recommendations}\PTotal thickness: 1.6mm min.\PPlating: Gold or Solder finish\PPCB Pad height: Same or higher than solder mask
  7
Arial
 73
               1
 44
0.9673603504928808
  0
WIPEOUT
  5
137
100
AcDbEntity
  8
None
370
              15
390
0
  6
Continuous
 62
               1
 92
        0
100
AcDbWipeout
 90
        0
 10
-16.598484937060004
 20
37.474098635275013
 30
0.0
 11
35.697548497023035
 21
0.0
 31
0.0
 12
0.0
 22
35.697548497023035
 32
0.0
 13
1.0
 23
1.0
340
0
 70
               7
280
               1
281
              50
282
              50
283
               0
360
0
 71
               2
 91
        5
 14
-0.5
 24
5.6079412082094704
 14
0.5
 24
5.6079412082094704
 14
0.5
 24
5.5738469309413405
 14
-0.5
 24
5.5738469309413405
 14
-0.5
 24
5.6079412082094704
  0
MTEXT
  5
138
100
AcDbEntity
  8
None
390
0
 62
               1
100
AcDbMText
 10
-16.598484937060004
 20
-143.84437704695154
 30
0.0
 40
0.7579202490234375
 41
0.0
 71
               1
 72
               1
  1
NOTE: Steel backing plate may be required based on end user's application
  7
Arial
 73
               1
 44
0.9673603504928808
  0
WIPEOUT
  5
139
100
AcDbEntity
  8
Dimension
370
               5
390
0
  6
Continuous
 62
               7
 92
        0
100
AcDbWipeout
 90
        0
 10
18.168960295459993
 20
32.837220254324521
 30
0.0
 11
14.178685821300002
 21
0.0
 31
0.0
 12
0.0
 22
14.178685821300002
 32
0.0
 13
1.0
 23
1.0
340
0
 70
               7
280
               1
281
              50
282
              50
283
               0
360
0
 71
               2
 91
        5
 14
-0.5
 24
13.200980673439359
 14
0.5000000000000002
 24
13.200980673439359
 14
0.5000000000000002
 24
13.360217180782534
 14
-0.5
 24
13.360217180782534
 14
-0.5
 24
13.200980673439359
  0
POLYLINE
  5
13A
100
AcDbEntity
  8
Dimension
370
               5
390
0
  6
Continuous
 62
               7
100
AcDb2dPolyline
 66
               1
 10
0.0
 20
0.0
 30
0.0
 70
               1
 75
               5
  0
VERTEX
  5
13B
100
AcDbEntity
  8
Dimension
370
               5
390
0
  6
Continuous
 62
               7
100
AcDbVertex
100
AcDb2dVertex
 10
18.168960295459993
 20
-147.24599433677545
 30
0.0
  0
VERTEX
  5
13C
100
AcDbEntity
  8
Dimension
370
               5
390
0
  6
Continuous
 62
               7
100
AcDbVertex
100
AcDb2dVertex
 10
32.347646116759996
 20
-147.24599433677545
 30
0.0
  0
VERTEX
  5
13D
100
AcDbEntity
  8
Dimension
370
               5
390
0
  6
Continuous
 62
               7
100
AcDbVertex
100
AcDb2dVertex
 10
32.347646116759996
 20
-149.50375874567547
 30
0.0
  0
VERTEX
  5
13E
100
AcDbEntity
  8
Dimension
370
               5
390
0
  6
Continuous
 62
               7
100
AcDbVertex
100
AcDb2dVertex
 10
18.168960295459993
 20
-149.50375874567547
 30
0.0
  0
SEQEND
  5
13F
100
AcDbEntity
  8
Dimension
370
               5
390
0
  6
Continuous
 62
               7
  0
WIPEOUT
  5
140
100
AcDbEntity
  8
Dimension
370
               5
390
0
  6
Continuous
 62
               7
 92
        0
100
AcDbWipeout
 90
        0
 10
32.347646116759996
 20
32.837220254324521
 30
0.0
 11
9.9089567576999986
 21
0.0
 31
0.0
 12
0.0
 22
9.9089567576999986
 32
0.0
 13
1.0
 23
1.0
340
0
 70
               7
280
               1
281
              50
282
              50
283
               0
360
0
 71
               2
 91
        5
 14
-0.5
 24
18.673781457988692
 14
0.4999999999999998
 24
18.673781457988692
 14
0.4999999999999998
 24
18.901632327066871
 14
-0.5
 24
18.901632327066871
 14
-0.5
 24
18.673781457988692
  0
POLYLINE
  5
141
100
AcDbEntity
  8
Dimension
370
               5
390
0
  6
Continuous
 62
               7
100
AcDb2dPolyline
 66
               1
 10
0.0
 20
0.0
 30
0.0
 70
               1
 75
               5
  0
VERTEX
  5
142
100
AcDbEntity
  8
Dimension
370
               5
390
0
  6
Continuous
 62
               7
100
AcDbVertex
100
AcDb2dVertex
 10
32.347646116759996
 20
-147.24599433677545
 30
0.0
  0
VERTEX
  5
143
100
AcDbEntity
  8
Dimension
370
               5
390
0
  6
Continuous
 62
               7
100
AcDbVertex
100
AcDb2dVertex
 10
42.256602874459993
 20
-147.24599433677545
 30
0.0
  0
VERTEX
  5
144
100
AcDbEntity
  8
Dimension
370
               5
390
0
  6
Continuous
 62
               7
100
AcDbVertex
100
AcDb2dVertex
 10
42.256602874459993
 20
-149.50375874567547
 30
0.0
  0
VERTEX
  5
145
100
AcDbEntity
  8
Dimension
370
               5
390
0
  6
Continuous
 62
               7
100
AcDbVertex
100
AcDb2dVertex
 10
32.347646116759996
 20
-149.50375874567547
 30
0.0
  0
SEQEND
  5
146
100
AcDbEntity
  8
Dimension
370
               5
390
0
  6
Continuous
 62
               7
  0
WIPEOUT
  5
147
100
AcDbEntity
  8
Dimension
370
               5
390
0
  6
Continuous
 62
               7
 92
        0
100
AcDbWipeout
 90
        0
 10
42.256602874459993
 20
32.837220254324521
 30
0.0
 11
9.9229234104000028
 21
0.0
 31
0.0
 12
0.0
 22
9.9229234104000028
 32
0.0
 13
1.0
 23
1.0
340
0
 70
               7
280
               1
281
              50
282
              50
283
               0
360
0
 71
               2
 91
        5
 14
-0.5
 24
18.648201607840551
 14
0.5
 24
18.648201607840551
 14
0.5
 24
18.87573177365174
 14
-0.5
 24
18.87573177365174
 14
-0.5
 24
18.648201607840551
  0
POLYLINE
  5
148
100
AcDbEntity
  8
Dimension
370
               5
390
0
  6
Continuous
 62
               7
100
AcDb2dPolyline
 66
               1
 10
0.0
 20
0.0
 30
0.0
 70
               1
 75
               5
  0
VERTEX
  5
149
100
AcDbEntity
  8
Dimension
370
               5
390
0
  6
Continuous
 62
               7
100
AcDbVertex
100
AcDb2dVertex
 10
42.256602874459993
 20
-147.24599433677545
 30
0.0
  0
VERTEX
  5
14A
100
AcDbEntity
  8
Dimension
370
               5
390
0
  6
Continuous
 62
               7
100
AcDbVertex
100
AcDb2dVertex
 10
52.179526284859996
 20
-147.24599433677545
 30
0.0
  0
VERTEX
  5
14B
100
AcDbEntity
  8
Dimension
370
               5
390
0
  6
Continuous
 62
               7
100
AcDbVertex
100
AcDb2dVertex
 10
52.179526284859996
 20
-149.50375874567547
 30
0.0
  0
VERTEX
  5
14C
100
AcDbEntity
  8
Dimension
370
               5
390
0
  6
Continuous
 62
               7
100
AcDbVertex
100
AcDb2dVertex
 10
42.256602874459993
 20
-149.50375874567547
 30
0.0
  0
SEQEND
  5
14D
100
AcDbEntity
  8
Dimension
370
               5
390
0
  6
Continuous
 62
               7
  0
WIPEOUT
  5
14E
100
AcDbEntity
  8
Dimension
370
               5
390
0
  6
Continuous
 62
               7
 92
        0
100
AcDbWipeout
 90
        0
 10
18.168960295459993
 20
30.57941584546451
 30
0.0
 11
18.164108502540003
 21
0.0
 31
0.0
 12
0.0
 22
18.164108502540003
 32
0.0
 13
1.0
 23
1.0
340
0
 70
               7
280
               1
281
              50
282
              50
283
               0
360
0
 71
               2
 91
        5
 14
-0.5
 24
10.414231384708906
 14
0.4999999999999998
 24
10.414231384708906
 14
0.4999999999999998
 24
10.538531699725429
 14
-0.5
 24
10.538531699725429
 14
-0.5
 24
10.414231384708906
  0
POLYLINE
  5
14F
100
AcDbEntity
  8
Dimension
370
               5
390
0
  6
Continuous
 62
               7
100
AcDb2dPolyline
 66
               1
 10
0.0
 20
0.0
 30
0.0
 70
               1
 75
               5
  0
VERTEX
  5
150
100
AcDbEntity
  8
Dimension
370
               5
390
0
  6
Continuous
 62
               7
100
AcDbVertex
100
AcDb2dVertex
 10
18.168960295459993
 20
-149.50375874567547
 30
0.0
  0
VERTEX
  5
151
100
AcDbEntity
  8
Dimension
370
               5
390
0
  6
Continuous
 62
               7
100
AcDbVertex
100
AcDb2dVertex
 10
36.333068797999992
 20
-149.50375874567547
 30
0.0
  0
VERTEX
  5
152
100
AcDbEntity
  8
Dimension
370
               5
390
0
  6
Continuous
 62
               7
100
AcDbVertex
100
AcDb2dVertex
 10
36.333068797999992
 20
-151.76156315453548
 30
0.0
  0
VERTEX
  5
153
100
AcDbEntity
  8
Dimension
370
               5
390
0
  6
Continuous
 62
               7
100
AcDbVertex
100
AcDb2dVertex
 10
18.168960295459993
 20
-151.76156315453548
 30
0.0
  0
SEQEND
  5
154
100
AcDbEntity
  8
Dimension
370
               5
390
0
  6
Continuous
 62
               7
  0
WIPEOUT
  5
155
100
AcDbEntity
  8
Dimension
370
               5
390
0
  6
Continuous
 62
               7
 92
        0
100
AcDbWipeout
 90
        0
 10
36.333068797999992
 20
30.57941584546451
 30
0.0
 11
15.846457486860002
 21
0.0
 31
0.0
 12
0.0
 22
15.846457486860002
 32
0.0
 13
1.0
 23
1.0
340
0
 70
               7
280
               1
281
              50
282
              50
283
               0
360
0
 71
               2
 91
        5
 14
-0.5
 24
11.864254423454975
 14
0.5000000000000002
 24
11.864254423454975
 14
0.5000000000000002
 24
12.00673449578232
 14
-0.5
 24
12.00673449578232
 14
-0.5
 24
11.864254423454975
  0
POLYLINE
  5
156
100
AcDbEntity
  8
Dimension
370
               5
390
0
  6
Continuous
 62
               7
100
AcDb2dPolyline
 66
               1
 10
0.0
 20
0.0
 30
0.0
 70
               1
 75
               5
  0
VERTEX
  5
157
100
AcDbEntity
  8
Dimension
370
               5
390
0
  6
Continuous
 62
               7
100
AcDbVertex
100
AcDb2dVertex
 10
36.333068797999992
 20
-149.50375874567547
 30
0.0
  0
VERTEX
  5
158
100
AcDbEntity
  8
Dimension
370
               5
390
0
  6
Continuous
 62
               7
100
AcDbVertex
100
AcDb2dVertex
 10
52.179526284859996
 20
-149.50375874567547
 30
0.0
  0
VERTEX
  5
159
100
AcDbEntity
  8
Dimension
370
               5
390
0
  6
Continuous
 62
               7
100
AcDbVertex
100
AcDb2dVertex
 10
52.179526284859996
 20
-151.76156315453548
 30
0.0
  0
VERTEX
  5
15A
100
AcDbEntity
  8
Dimension
370
               5
390
0
  6
Continuous
 62
               7
100
AcDbVertex
100
AcDb2dVertex
 10
36.333068797999992
 20
-151.76156315453548
 30
0.0
  0
SEQEND
  5
15B
100
AcDbEntity
  8
Dimension
370
               5
390
0
  6
Continuous
 62
               7
  0
WIPEOUT
  5
15C
100
AcDbEntity
  8
Dimension
370
               5
390
0
  6
Continuous
 62
               7
 92
        0
100
AcDbWipeout
 90
        0
 10
36.333068797999992
 20
28.321658103224493
 30
0.0
 11
15.846457486860002
 21
0.0
 31
0.0
 12
0.0
 22
15.846457486860002
 32
0.0
 13
1.0
 23
1.0
340
0
 70
               7
280
               1
281
              50
282
              50
283
               0
360
0
 71
               2
 91
        5
 14
-0.5
 24
11.86425736837942
 14
0.5000000000000002
 24
11.86425736837942
 14
0.5000000000000002
 24
12.00673449578232
 14
-0.5
 24
12.00673449578232
 14
-0.5
 24
11.86425736837942
  0
POLYLINE
  5
15D
100
AcDbEntity
  8
Dimension
370
               5
390
0
  6
Continuous
 62
               7
100
AcDb2dPolyline
 66
               1
 10
0.0
 20
0.0
 30
0.0
 70
               1
 75
               5
  0
VERTEX
  5
15E
100
AcDbEntity
  8
Dimension
370
               5
390
0
  6
Continuous
 62
               7
100
AcDbVertex
100
AcDb2dVertex
 10
36.333068797999992
 20
-151.76156315453548
 30
0.0
  0
VERTEX
  5
15F
100
AcDbEntity
  8
Dimension
370
               5
390
0
  6
Continuous
 62
               7
100
AcDbVertex
100
AcDb2dVertex
 10
52.179526284859996
 20
-151.76156315453548
 30
0.0
  0
VERTEX
  5
160
100
AcDbEntity
  8
Dimension
370
               5
390
0
  6
Continuous
 62
               7
100
AcDbVertex
100
AcDb2dVertex
 10
52.179526284859996
 20
-154.0193208967755
 30
0.0
  0
VERTEX
  5
161
100
AcDbEntity
  8
Dimension
370
               5
390
0
  6
Continuous
 62
               7
100
AcDbVertex
100
AcDb2dVertex
 10
36.333068797999992
 20
-154.0193208967755
 30
0.0
  0
SEQEND
  5
162
100
AcDbEntity
  8
Dimension
370
               5
390
0
  6
Continuous
 62
               7
  0
WIPEOUT
  5
163
100
AcDbEntity
  8
Dimension
370
               5
390
0
  6
Continuous
 62
               7
 92
        0
100
AcDbWipeout
 90
        0
 10
18.168960295459993
 20
28.321658103224493
 30
0.0
 11
18.164108502540003
 21
0.0
 31
0.0
 12
0.0
 22
18.164108502540003
 32
0.0
 13
1.0
 23
1.0
340
0
 70
               7
280
               1
281
              50
282
              50
283
               0
360
0
 71
               2
 91
        5
 14
-0.5
 24
10.414233953875458
 14
0.4999999999999998
 24
10.414233953875458
 14
0.4999999999999998
 24
10.538531699725429
 14
-0.5
 24
10.538531699725429
 14
-0.5
 24
10.414233953875458
  0
POLYLINE
  5
164
100
AcDbEntity
  8
Dimension
370
               5
390
0
  6
Continuous
 62
               7
100
AcDb2dPolyline
 66
               1
 10
0.0
 20
0.0
 30
0.0
 70
               1
 75
               5
  0
VERTEX
  5
165
100
AcDbEntity
  8
Dimension
370
               5
390
0
  6
Continuous
 62
               7
100
AcDbVertex
100
AcDb2dVertex
 10
18.168960295459993
 20
-151.76156315453548
 30
0.0
  0
VERTEX
  5
166
100
AcDbEntity
  8
Dimension
370
               5
390
0
  6
Continuous
 62
               7
100
AcDbVertex
100
AcDb2dVertex
 10
36.333068797999992
 20
-151.76156315453548
 30
0.0
  0
VERTEX
  5
167
100
AcDbEntity
  8
Dimension
370
               5
390
0
  6
Continuous
 62
               7
100
AcDbVertex
100
AcDb2dVertex
 10
36.333068797999992
 20
-154.0193208967755
 30
0.0
  0
VERTEX
  5
168
100
AcDbEntity
  8
Dimension
370
               5
390
0
  6
Continuous
 62
               7
100
AcDbVertex
100
AcDb2dVertex
 10
18.168960295459993
 20
-154.0193208967755
 30
0.0
  0
SEQEND
  5
169
100
AcDbEntity
  8
Dimension
370
               5
390
0
  6
Continuous
 62
               7
  0
MTEXT
  5
16A
100
AcDbEntity
  8
None
390
0
 62
               7
100
AcDbMText
 10
19.015626115459995
 20
-147.88525938153757
 30
0.0
 40
0.8421341405039061
 41
0.0
 71
               1
 72
               1
  1
Status: Released
  7
Arial
 73
               1
 44
0.9673603504928809
  0
MTEXT
  5
16B
100
AcDbEntity
  8
None
390
0
 62
               7
100
AcDbMText
 10
19.015626115459995
 20
-150.14493045519757
 30
0.0
 40
0.8421341405039061
 41
0.0
 71
               1
 72
               1
  1
Drawing: H. Hansen
  7
Arial
 73
               1
 44
0.9673603504928809
  0
WIPEOUT
  5
16C
100
AcDbEntity
  8
None
370
               5
390
0
  6
Continuous
 62
               7
 92
        0
100
AcDbWipeout
 90
        0
 10
33.194311936759995
 20
33.378264046613531
 30
0.0
 11
5.2563868622737893
 21
0.0
 31
0.0
 12
0.0
 22
5.2563868622737893
 32
0.0
 13
1.0
 23
1.0
340
0
 70
               7
280
               1
281
              50
282
              50
283
               0
360
0
 71
               2
 91
        5
 14
-0.5
 24
35.189413807933384
 14
0.4999999999999993
 24
35.189413807933384
 14
0.4999999999999993
 24
34.932143110440229
 14
-0.5
 24
34.932143110440229
 14
-0.5
 24
35.189413807933384
  0
MTEXT
  5
16D
100
AcDbEntity
  8
None
390
0
 62
               7
100
AcDbMText
 10
33.194311936759995
 20
-147.82659944019755
 30
0.0
 40
0.8421341405039061
 41
0.0
 71
               1
 72
               1
  1
Scale: 2:1
  7
Arial
 73
               1
 44
0.9673603504928809
  0
MTEXT
  5
16E
100
AcDbEntity
  8
None
390
0
 62
               7
100
AcDbMText
 10
43.103268694459999
 20
-147.88714604631755
 30
0.0
 40
0.8421341405039061
 41
0.0
 71
               1
 72
               1
  1
Rev: C
  7
Arial
 73
               1
 44
0.9673603504928809
  0
MTEXT
  5
16F
100
AcDbEntity
  8
None
390
0
 62
               7
100
AcDbMText
 10
37.179734617999998
 20
-150.33281693397757
 30
0.0
 40
0.8421341405039061
 41
0.0
 71
               1
 72
               1
  1
Date: 8/1/02
  7
Arial
 73
               1
 44
0.9673603504928809
  0
MTEXT
  5
170
100
AcDbEntity
  8
None
390
0
 62
               7
100
AcDbMText
 10
19.015626115459995
 20
-152.52247469570651
 30
0.0
 40
0.6737063575429687
 41
0.0
 71
               1
 72
               1
  1
File: SG-BGA-6055 Dwg.mcd
  7
Arial
 73
               1
 44
0.9673603504928809
  0
WIPEOUT
  5
171
100
AcDbEntity
  8
Dimension
370
               5
390
0
  6
Continuous
 62
               7
 92
        0
100
AcDbWipeout
 90
        0
 10
-15.57067263154001
 20
28.321658103224493
 30
0.0
 11
33.739632927000002
 21
0.0
 31
0.0
 12
0.0
 22
33.739632927000002
 32
0.0
 13
1.0
 23
1.0
340
0
 70
               7
280
               1
281
              50
282
              50
283
               0
360
0
 71
               2
 91
        5
 14
-0.5
 24
5.7705201990089208
 14
0.5
 24
5.7705201990089208
 14
0.5
 24
5.9043557437189067
 14
-0.5
 24
5.9043557437189067
 14
-0.5
 24
5.7705201990089208
  0
POLYLINE
  5
172
100
AcDbEntity
  8
Dimension
370
               5
390
0
  6
Continuous
 62
               7
100
AcDb2dPolyline
 66
               1
 10
0.0
 20
0.0
 30
0.0
 70
               1
 75
               5
  0
VERTEX
  5
173
100
AcDbEntity
  8
Dimension
370
               5
390
0
  6
Continuous
 62
               7
100
AcDbVertex
100
AcDb2dVertex
 10
-15.57067263154001
 20
-149.50375874567547
 30
0.0
  0
VERTEX
  5
174
100
AcDbEntity
  8
Dimension
370
               5
390
0
  6
Continuous
 62
               7
100
AcDbVertex
100
AcDb2dVertex
 10
18.168960295459993
 20
-149.50375874567547
 30
0.0
  0
VERTEX
  5
175
100
AcDbEntity
  8
Dimension
370
               5
390
0
  6
Continuous
 62
               7
100
AcDbVertex
100
AcDb2dVertex
 10
18.168960295459993
 20
-154.0193208967755
 30
0.0
  0
VERTEX
  5
176
100
AcDbEntity
  8
Dimension
370
               5
390
0
  6
Continuous
 62
               7
100
AcDbVertex
100
AcDb2dVertex
 10
-15.57067263154001
 20
-154.0193208967755
 30
0.0
  0
SEQEND
  5
177
100
AcDbEntity
  8
Dimension
370
               5
390
0
  6
Continuous
 62
               7
  0
WIPEOUT
  5
178
100
AcDbEntity
  8
Dimension
370
               5
390
0
  6
Continuous
 62
               7
 92
        0
100
AcDbWipeout
 90
        0
 10
-15.57067263154001
 20
32.837220254324521
 30
0.0
 11
33.739632927000002
 21
0.0
 31
0.0
 12
0.0
 22
33.739632927000002
 32
0.0
 13
1.0
 23
1.0
340
0
 70
               7
280
               1
281
              50
282
              50
283
               0
360
0
 71
               2
 91
        5
 14
-0.5
 24
5.8374384653423164
 14
0.5
 24
5.8374384653423164
 14
0.5
 24
5.9043557437189067
 14
-0.5
 24
5.9043557437189067
 14
-0.5
 24
5.8374384653423164
  0
POLYLINE
  5
179
100
AcDbEntity
  8
Dimension
370
               5
390
0
  6
Continuous
 62
               7
100
AcDb2dPolyline
 66
               1
 10
0.0
 20
0.0
 30
0.0
 70
               1
 75
               5
  0
VERTEX
  5
17A
100
AcDbEntity
  8
Dimension
370
               5
390
0
  6
Continuous
 62
               7
100
AcDbVertex
100
AcDb2dVertex
 10
-15.57067263154001
 20
-147.24599433677545
 30
0.0
  0
VERTEX
  5
17B
100
AcDbEntity
  8
Dimension
370
               5
390
0
  6
Continuous
 62
               7
100
AcDbVertex
100
AcDb2dVertex
 10
18.168960295459993
 20
-147.24599433677545
 30
0.0
  0
VERTEX
  5
17C
100
AcDbEntity
  8
Dimension
370
               5
390
0
  6
Continuous
 62
               7
100
AcDbVertex
100
AcDb2dVertex
 10
18.168960295459993
 20
-149.50375874567547
 30
0.0
  0
VERTEX
  5
17D
100
AcDbEntity
  8
Dimension
370
               5
390
0
  6
Continuous
 62
               7
100
AcDbVertex
100
AcDb2dVertex
 10
-15.57067263154001
 20
-149.50375874567547
 30
0.0
  0
SEQEND
  5
17E
100
AcDbEntity
  8
Dimension
370
               5
390
0
  6
Continuous
 62
               7
  0
MTEXT
  5
17F
100
AcDbEntity
  8
None
390
0
 62
               7
100
AcDbMText
 10
1.2991438319599951
 20
-147.84238559316137
 30
0.0
 40
0.9823410315468748
 41
0.0
 71
               2
 72
               1
  1
SG-BGA-6055 Drawing
  7
Arial (bold)
 73
               1
 44
0.9925958378970426
  0
INSERT
  5
180
100
AcDbEntity
  8
None
390
0
 62
               7
100
AcDbBlockReference
  2
IE i logo
 10
-11.960936241280013
 20
-151.72625652317546
 30
0.0
 41
0.6666660000000001
 42
0.6666660000000001
 43
0.6666660000000001
  0
MTEXT
  5
181
100
AcDbEntity
  8
None
390
0
 62
               7
100
AcDbMText
 10
37.179734617999998
 20
-152.52247469570651
 30
0.0
 40
0.6737063575429687
 41
0.0
 71
               1
 72
               1
  1
Modified: 1/17/07
  7
Arial
 73
               1
 44
0.9673603504928809
  0
WIPEOUT
  5
182
100
AcDbEntity
  8
None
370
              15
390
0
  6
Continuous
 62
             180
 92
        0
100
AcDbWipeout
 90
        0
 10
12.244286220139992
 20
53.870303239053996
 30
0.0
 11
5.3739793372737896
 21
0.0
 31
0.0
 12
0.0
 22
5.3739793372737896
 32
0.0
 13
1.0
 23
1.0
340
0
 70
               7
280
               1
281
              50
282
              50
283
               0
360
0
 71
               2
 91
        5
 14
-0.5
 24
34.430346128294062
 14
0.5
 24
34.430346128294062
 14
0.5
 24
34.178704983161367
 14
-0.5
 24
34.178704983161367
 14
-0.5
 24
34.430346128294062
  0
MTEXT
  5
183
100
AcDbEntity
  8
None
390
0
 62
             180
100
AcDbMText
 10
12.244286220139992
 20
-127.33456024775708
 30
0.0
 40
0.8421341405039061
 41
0.0
 71
               1
 72
               1
  1
A1 Corner
  7
Arial
 73
               1
 44
0.9673603504928809
  0
LINE
  5
184
100
AcDbEntity
  8
None
370
              15
390
0
  6
Continuous
 62
             180
100
AcDbLine
 10
15.192016605739994
 20
-127.11836144659499
 30
0.0
 11
18.621479842939991
 21
-124.18503104659501
 31
0.0
  0
SOLID
  5
185
100
AcDbEntity
  8
None
370
              15
390
0
 62
             180
100
AcDbTrace
 10
18.621479842939991
 20
-124.18503104659501
 30
0.0
 11
18.219187002777083
 21
-124.7595647644003
 31
0.0
 12
17.985817164695682
 22
-124.48144542146365
 32
0.0
 13
17.985817164695682
 23
-124.48144542146365
 33
0.0
  0
INSERT
  5
186
100
AcDbEntity
  8
None
390
0
 62
               7
100
AcDbBlockReference
  2
©2006_address
 10
3.1379325433919263
 20
-151.87646411568997
 30
0.0
 41
0.6666660000000001
 42
0.6666660000000001
 43
0.6666660000000001
  0
WIPEOUT
  5
187
100
AcDbEntity
  8
None
370
              15
390
0
  6
Continuous
 62
               1
 92
        0
100
AcDbWipeout
 90
        0
 10
52.049403644499911
 20
59.754265789728251
 30
0.0
 11
9.7593287859100908
 21
0.0
 31
0.0
 12
0.0
 22
9.7593287859100908
 32
0.0
 13
1.0
 23
1.0
340
0
 70
               7
280
               1
281
              50
282
              50
283
               0
360
0
 71
               2
 91
        5
 14
-0.5
 24
19.183762275050363
 14
0.5000000000000002
 24
19.183762275050363
 14
0.5000000000000002
 24
19.059052662027877
 14
-0.5
 24
19.059052662027877
 14
-0.5
 24
19.183762275050363
  0
MTEXT
  5
188
100
AcDbEntity
  8
None
390
0
 62
               1
100
AcDbMText
 10
52.049403644499911
 20
-121.5642098924983
 30
0.0
 40
0.7579202490234375
 41
9.7593287859100908
 71
               1
 72
               1
  1
Socket Body Size
  7
New Century Schlbk
 73
               1
 44
0.9673603504928808
  0
LINE
  5
189
100
AcDbEntity
  8
None
370
               5
390
0
  6
Continuous
 62
               1
100
AcDbLine
 10
47.153566141421621
 20
-121.97027597299159
 30
0.0
 11
51.265208696441647
 21
-121.97027597299159
 31
0.0
  0
SOLID
  5
18A
100
AcDbEntity
  8
None
370
               5
390
0
 62
               1
100
AcDbTrace
 10
47.153566141421621
 20
-121.97027597299159
 30
0.0
 11
47.831043491287346
 21
-121.78874646420469
 31
0.0
 12
47.831043491287346
 22
-122.1518054817785
 32
0.0
 13
47.831043491287346
 23
-122.1518054817785
 33
0.0
  0
WIPEOUT
  5
18B
100
AcDbEntity
  8
None
370
              15
390
0
  6
Continuous
 62
               7
 92
        0
100
AcDbWipeout
 90
        0
 10
42.417401599999991
 20
77.322590742694786
 30
0.0
 11
2.2352000000000061
 21
0.0
 31
0.0
 12
0.0
 22
2.2352000000000061
 32
0.0
 13
1.0
 23
1.0
340
0
 70
               7
280
               1
281
              50
282
              50
283
               0
360
0
 71
               2
 91
        9
 14
-0.0000000000000032
 24
82.077030690765696
 14
-0.353553390593275
 24
81.930584081358973
 14
-0.5
 24
81.577030690765696
 14
-0.353553390593275
 24
81.223477300172419
 14
-0.0000000000000032
 24
81.077030690765696
 14
0.3535533905932718
 24
81.223477300172419
 14
0.5
 24
81.577030690765696
 14
0.3535533905932718
 24
81.930584081358973
 14
-0.0000000000000032
 24
82.077030690765696
  0
CIRCLE
  5
18C
100
AcDbEntity
  8
None
370
              15
390
0
  6
Continuous
 62
               7
100
AcDbCircle
 10
43.535001599999987
 20
-103.90078825730519
 30
0.0
 40
1.117600000000003
  0
WIPEOUT
  5
18D
100
AcDbEntity
  8
None
370
              15
390
0
  6
Continuous
 62
               7
 92
        0
100
AcDbWipeout
 90
        0
 10
42.417401599999991
 20
55.222590742694805
 30
0.0
 11
2.2352000000000061
 21
0.0
 31
0.0
 12
0.0
 22
2.2352000000000061
 32
0.0
 13
1.0
 23
1.0
340
0
 70
               7
280
               1
281
              50
282
              50
283
               0
360
0
 71
               2
 91
        9
 14
-0.0000000000000032
 24
82.07703069076571
 14
-0.353553390593275
 24
81.930584081358973
 14
-0.5
 24
81.577030690765696
 14
-0.353553390593275
 24
81.223477300172419
 14
-0.0000000000000032
 24
81.077030690765696
 14
0.3535533905932718
 24
81.223477300172419
 14
0.5
 24
81.577030690765696
 14
0.3535533905932718
 24
81.930584081358973
 14
-0.0000000000000032
 24
82.07703069076571
  0
CIRCLE
  5
18E
100
AcDbEntity
  8
None
370
              15
390
0
  6
Continuous
 62
               7
100
AcDbCircle
 10
43.535001599999987
 20
-126.00078825730517
 30
0.0
 40
1.117600000000003
  0
WIPEOUT
  5
18F
100
AcDbEntity
  8
None
370
              15
390
0
  6
Continuous
 62
               7
 92
        0
100
AcDbWipeout
 90
        0
 10
9.6474015999999914
 20
55.222590742694805
 30
0.0
 11
2.2352000000000061
 21
0.0
 31
0.0
 12
0.0
 22
2.2352000000000061
 32
0.0
 13
1.0
 23
1.0
340
0
 70
               7
280
               1
281
              50
282
              50
283
               0
360
0
 71
               2
 91
        9
 14
0.0
 24
82.07703069076571
 14
-0.3535533905932734
 24
81.930584081358973
 14
-0.5
 24
81.577030690765696
 14
-0.3535533905932734
 24
81.223477300172419
 14
0.0
 24
81.077030690765696
 14
0.3535533905932734
 24
81.223477300172419
 14
0.5
 24
81.577030690765696
 14
0.3535533905932734
 24
81.930584081358973
 14
0.0
 24
82.07703069076571
  0
CIRCLE
  5
190
100
AcDbEntity
  8
None
370
              15
390
0
  6
Continuous
 62
               7
100
AcDbCircle
 10
10.765001599999994
 20
-126.00078825730517
 30
0.0
 40
1.117600000000003
  0
WIPEOUT
  5
191
100
AcDbEntity
  8
None
370
              15
390
0
  6
Continuous
 62
               7
 92
        0
100
AcDbWipeout
 90
        0
 10
9.6474015999999914
 20
77.322590742694786
 30
0.0
 11
2.2352000000000061
 21
0.0
 31
0.0
 12
0.0
 22
2.2352000000000061
 32
0.0
 13
1.0
 23
1.0
340
0
 70
               7
280
               1
281
              50
282
              50
283
               0
360
0
 71
               2
 91
        9
 14
0.0
 24
82.077030690765696
 14
-0.3535533905932734
 24
81.930584081358973
 14
-0.5
 24
81.577030690765696
 14
-0.3535533905932734
 24
81.223477300172419
 14
0.0
 24
81.077030690765696
 14
0.3535533905932734
 24
81.223477300172419
 14
0.5
 24
81.577030690765696
 14
0.3535533905932734
 24
81.930584081358973
 14
0.0
 24
82.077030690765696
  0
CIRCLE
  5
192
100
AcDbEntity
  8
None
370
              15
390
0
  6
Continuous
 62
               7
100
AcDbCircle
 10
10.765001599999994
 20
-103.90078825730519
 30
0.0
 40
1.117600000000003
  0
SOLID
  5
193
100
AcDbEntity
  8
None
370
              15
390
0
  6
Continuous
 62
               7
100
AcDbTrace
 10
18.468601599999992
 20
-106.82918825730519
 30
0.0
 11
18.468601599999992
 21
-106.2703882573052
 31
0.0
 12
19.027401599999994
 22
-106.82918825730519
 32
0.0
 13
19.027401599999994
 23
-106.2703882573052
 33
0.0
  0
DIMENSION
  5
194
100
AcDbEntity
  8
Dimension
370
              15
390
0
  6
Continuous
 62
               1
100
AcDbDimension
  2
*D4
 10
-6.0058795340340545
 20
-99.700788257305192
 30
0.0
 11
-6.0058795340340545
 21
-114.2
 31
0.0
 70
             128
 71
               5
 72
               1
 41
1.0
 42
0.0
  3
ASME
100
AcDbAlignedDimension
 13
7.1000015999999952
 23
-130.20078825730519
 33
0.0
 14
7.1000015999999952
 24
-99.700788257305192
 34
0.0
 50
90.0
100
AcDbRotatedDimension
1001
ACAD
1000
DSTYLE
1002
{
1070
             340
1005
33
1070
              71
1070
               1
1070
              47
1040
0.125
1070
              48
1040
0.125
1070
             147
1040
0.132291534375
1002
}
  0
DIMENSION
  5
195
100
AcDbEntity
  8
Dimension
370
              15
390
0
  6
Continuous
 62
               1
100
AcDbDimension
  2
*D5
 10
-0.6000000000000014
 20
-103.90078825730519
 30
0.0
 11
-0.6000000000000014
 21
-117.2
 31
0.0
 70
             128
 71
               5
 72
               1
 41
1.0
 42
0.0
  3
ASME
100
AcDbAlignedDimension
 13
10.765001599999994
 23
-126.00078825730517
 33
0.0
 14
10.765001599999994
 24
-103.90078825730519
 34
0.0
 50
90.0
100
AcDbRotatedDimension
1001
ACAD
1000
DSTYLE
1002
{
1070
             340
1005
33
1070
             147
1040
0.132291534375
1002
}
  0
DIMENSION
  5
196
100
AcDbEntity
  8
Dimension
370
              15
390
0
  6
Continuous
 62
               1
100
AcDbDimension
  2
*D6
 10
2.5999999999999979
 20
-106.5497882573052
 30
0.0
 11
2.5999999999999979
 21
-112.99462460105519
 31
0.0
 70
             128
 71
               5
 72
               1
 41
1.0
 42
0.0
  3
ASME
100
AcDbAlignedDimension
 13
18.748001599999995
 23
-124.14978825730518
 33
0.0
 14
18.748001599999995
 24
-106.5497882573052
 34
0.0
 50
90.0
100
AcDbRotatedDimension
1001
ACAD
1000
DSTYLE
1002
{
1070
             340
1005
33
1070
             147
1040
0.132291534375
1002
}
  0
DIMENSION
  5
197
100
AcDbEntity
  8
Dimension
370
              15
390
0
  6
Continuous
 62
               1
100
AcDbDimension
  2
*D7
 10
7.1000015999999952
 20
-137.80000262500002
 30
0.0
 11
26.205879534034064
 21
-137.80000262500002
 31
0.0
 70
             128
 71
               5
 72
               1
 41
1.0
 42
0.0
  3
ASME
100
AcDbAlignedDimension
 13
47.200001599999993
 23
-130.20078825730519
 33
0.0
 14
7.1000015999999952
 24
-130.20078825730519
 34
0.0
100
AcDbRotatedDimension
1001
ACAD
1000
DSTYLE
1002
{
1070
             340
1005
33
1070
              71
1070
               1
1070
              47
1040
0.125
1070
              48
1040
0.125
1070
             147
1040
0.132291534375
1002
}
  0
DIMENSION
  5
198
100
AcDbEntity
  8
Dimension
370
              15
390
0
  6
Continuous
 62
               1
100
AcDbDimension
  2
*D8
 10
10.765001599999994
 20
-136.20000000000002
 30
0.0
 11
25.400000000000002
 21
-136.20000000000002
 31
0.0
 70
             128
 71
               5
 72
               1
 41
1.0
 42
0.0
  3
ASME
100
AcDbAlignedDimension
 13
43.535001599999987
 23
-126.00078825730517
 33
0.0
 14
10.765001599999994
 24
-126.00078825730517
 34
0.0
100
AcDbRotatedDimension
1001
ACAD
1000
DSTYLE
1002
{
1070
             340
1005
33
1070
             147
1040
0.132291534375
1002
}
  0
DIMENSION
  5
199
100
AcDbEntity
  8
Dimension
370
              15
390
0
  6
Continuous
 62
               1
100
AcDbDimension
  2
*D9
 10
18.748001599999995
 20
-134.20000000000002
 30
0.0
 11
27.400000000000002
 21
-134.20000000000002
 31
0.0
 70
             128
 71
               5
 72
               1
 41
1.0
 42
0.0
  3
ASME
100
AcDbAlignedDimension
 13
36.348001599999989
 23
-124.14978825730518
 33
0.0
 14
18.748001599999995
 24
-124.14978825730518
 34
0.0
100
AcDbRotatedDimension
1001
ACAD
1000
DSTYLE
1002
{
1070
             340
1005
33
1070
             147
1040
0.132291534375
1002
}
  0
DIMENSION
  5
19A
100
AcDbEntity
  8
Dimension
370
              15
390
0
  6
Continuous
 62
               1
100
AcDbDimension
  2
*D10
 10
22.748001599999995
 20
-96.200788257305192
 30
0.0
 11
26.698051599999992
 21
-96.200788257305192
 31
0.0
 70
             128
 71
               5
 72
               1
 41
1.0
 42
0.0
  3
IE Standard
100
AcDbAlignedDimension
 13
23.548001599999992
 23
-106.5497882573052
 33
0.0
 14
22.748001599999995
 24
-106.5497882573052
 34
0.0
100
AcDbRotatedDimension
1001
ACAD
1000
DSTYLE
1002
{
1070
             340
1005
33
1070
               3
1000
<>mm typ.
1070
             174
1070
               0
1070
             147
1040
0.132291534375
1002
}
  0
LINE
  5
19B
100
AcDbEntity
  8
None
370
              15
390
0
  6
STYLE_10
 62
             180
100
AcDbLine
 10
7.1000015999999952
 20
-114.95078825730519
 30
0.0
 11
47.200001599999993
 21
-114.95078825730519
 31
0.0
  0
LINE
  5
19C
100
AcDbEntity
  8
None
370
              15
390
0
  6
STYLE_10
 62
             180
100
AcDbLine
 10
27.150001599999992
 20
-99.700788257305192
 30
0.0
 11
27.150001599999992
 21
-130.20078825730519
 31
0.0
  0
DIMENSION
  5
19D
100
AcDbEntity
  8
Dimension
370
              15
390
0
  6
Continuous
 62
               1
100
AcDbDimension
  2
*D11
 10
42.445051599999992
 20
-104.1478382573052
 30
0.0
 11
54.916657549179497
 21
-101.80076887552869
 31
0.0
 70
               3
 71
               5
 72
               1
 41
1.0
 42
0.0
  3
ASME
100
AcDbDiametricDimension
 15
44.624951599999989
 25
-103.65373825730519
 35
0.0
 40
8.3824100000000001
1001
ACAD
1000
DSTYLE
1002
{
1070
             289
1070
               0
1070
             342
1005
54
1070
             340
1005
33
1070
               3
1000
mm (x4)
1070
             174
1070
               0
1070
             147
1040
0.132291534375
1002
}
  0
POLYLINE
  5
19E
100
AcDbEntity
  8
None
370
              15
390
0
  6
STYLE_09
 62
               7
100
AcDb2dPolyline
 66
               1
 10
0.0
 20
0.0
 30
0.0
 70
               1
 75
               5
  0
VERTEX
  5
19F
100
AcDbEntity
  8
None
370
              15
390
0
  6
STYLE_09
 62
               7
100
AcDbVertex
100
AcDb2dVertex
 10
7.1000015999999952
 20
-99.700788257305192
 30
0.0
  0
VERTEX
  5
1A0
100
AcDbEntity
  8
None
370
              15
390
0
  6
STYLE_09
 62
               7
100
AcDbVertex
100
AcDb2dVertex
 10
47.200001599999993
 20
-99.700788257305192
 30
0.0
  0
VERTEX
  5
1A1
100
AcDbEntity
  8
None
370
              15
390
0
  6
STYLE_09
 62
               7
100
AcDbVertex
100
AcDb2dVertex
 10
47.200001599999993
 20
-130.20078825730519
 30
0.0
  0
VERTEX
  5
1A2
100
AcDbEntity
  8
None
370
              15
390
0
  6
STYLE_09
 62
               7
100
AcDbVertex
100
AcDb2dVertex
 10
7.1000015999999952
 20
-130.20078825730519
 30
0.0
  0
SEQEND
  5
1A3
100
AcDbEntity
  8
None
370
              15
390
0
  6
STYLE_09
 62
               7
  0
DIMENSION
  5
1A4
100
AcDbEntity
  8
Dimension
370
              15
390
0
  6
Continuous
 62
               1
100
AcDbDimension
  2
*D12
 10
10.765001599999994
 20
-95.400000000000006
 30
0.0
 11
14.756501599999993
 21
-95.400000000000006
 31
0.0
 70
             128
 71
               5
 72
               1
 41
1.0
 42
0.0
  3
ASME
100
AcDbAlignedDimension
 13
18.748001599999995
 23
-106.5497882573052
 33
0.0
 14
10.765001599999994
 24
-103.90078825730519
 34
0.0
100
AcDbRotatedDimension
1001
ACAD
1000
DSTYLE
1002
{
1070
             271
1070
               3
1070
             340
1005
33
1070
             140
1040
0.8421302083333332
1070
             147
1040
0.132291534375
1002
}
  0
DIMENSION
  5
1A5
100
AcDbEntity
  8
Dimension
370
              15
390
0
  6
Continuous
 62
               1
100
AcDbDimension
  2
*D13
 10
4.2000015999999967
 20
-103.90078825730519
 30
0.0
 11
4.2000015999999967
 21
-105.22528825730519
 31
0.0
 70
             128
 71
               5
 72
               1
 41
1.0
 42
0.0
  3
ASME
100
AcDbAlignedDimension
 13
18.748001599999995
 23
-106.5497882573052
 33
0.0
 14
10.765001599999994
 24
-103.90078825730519
 34
0.0
 50
90.0
100
AcDbRotatedDimension
1001
ACAD
1000
DSTYLE
1002
{
1070
             271
1070
               3
1070
             340
1005
33
1070
             140
1040
0.8421302083333332
1070
             147
1040
0.132291534375
1002
}
  0
LINE
  5
1A6
100
AcDbEntity
  8
None
370
              15
390
0
  6
Continuous
 62
               1
100
AcDbLine
 10
36.627401599999992
 20
-111.34978825730519
 30
0.0
 11
51.450001599999993
 21
-107.6007882573052
 31
0.0
  0
SOLID
  5
1A7
100
AcDbEntity
  8
None
370
              15
390
0
 62
               1
100
AcDbTrace
 10
36.627401599999992
 20
-111.34978825730519
 30
0.0
 11
37.240839014350485
 21
-111.00975434603093
 31
0.0
 12
37.328670940096494
 22
-111.36202895916875
 32
0.0
 13
37.328670940096494
 23
-111.36202895916875
 33
0.0
  0
LINE
  5
1A8
100
AcDbEntity
  8
None
370
              15
390
0
  6
Continuous
 62
               1
100
AcDbLine
 10
51.450001599999993
 20
-107.6007882573052
 30
0.0
 11
53.700001599999993
 21
-107.6007882573052
 31
0.0
  0
WIPEOUT
  5
1A9
100
AcDbEntity
  8
None
370
              15
390
0
  6
Continuous
 62
               1
 92
        0
100
AcDbWipeout
 90
        0
 10
54.550001599999987
 20
73.887882742694785
 30
0.0
 11
11.171240267030711
 21
0.0
 31
0.0
 12
0.0
 22
11.171240267030711
 32
0.0
 13
1.0
 23
1.0
340
0
 70
               7
280
               1
281
              50
282
              50
283
               0
360
0
 71
               2
 91
        5
 14
-0.5
 24
16.82235764708566
 14
0.5
 24
16.82235764708566
 14
0.5
 24
16.701305018400284
 14
-0.5
 24
16.701305018400284
 14
-0.5
 24
16.82235764708566
  0
MTEXT
  5
1AA
100
AcDbEntity
  8
None
390
0
 62
               1
100
AcDbMText
 10
54.550001599999987
 20
-107.31698604897187
 30
0.0
 40
0.8421302083333332
 41
0.0
 71
               1
 72
               1
  1
0.56mm Square Pad 
  7
Arial
 73
               1
 44
0.9673603504928806
  0
SOLID
  5
1AB
100
AcDbEntity
  8
None
370
              15
390
0
  6
Continuous
 62
               7
100
AcDbTrace
 10
19.268601599999993
 20
-106.82918825730519
 30
0.0
 11
19.268601599999993
 21
-106.2703882573052
 31
0.0
 12
19.827401599999995
 22
-106.82918825730519
 32
0.0
 13
19.827401599999995
 23
-106.2703882573052
 33
0.0
  0
SOLID
  5
1AC
100
AcDbEntity
  8
None
370
              15
390
0
  6
Continuous
 62
               7
100
AcDbTrace
 10
20.068601599999994
 20
-106.82918825730519
 30
0.0
 11
20.068601599999994
 21
-106.2703882573052
 31
0.0
 12
20.627401599999992
 22
-106.82918825730519
 32
0.0
 13
20.627401599999992
 23
-106.2703882573052
 33
0.0
  0
SOLID
  5
1AD
100
AcDbEntity
  8
None
370
              15
390
0
  6
Continuous
 62
               7
100
AcDbTrace
 10
20.868601599999995
 20
-106.82918825730519
 30
0.0
 11
20.868601599999995
 21
-106.2703882573052
 31
0.0
 12
21.427401599999992
 22
-106.82918825730519
 32
0.0
 13
21.427401599999992
 23
-106.2703882573052
 33
0.0
  0
SOLID
  5
1AE
100
AcDbEntity
  8
None
370
              15
390
0
  6
Continuous
 62
               7
100
AcDbTrace
 10
21.668601599999995
 20
-106.82918825730519
 30
0.0
 11
21.668601599999995
 21
-106.2703882573052
 31
0.0
 12
22.227401599999993
 22
-106.82918825730519
 32
0.0
 13
22.227401599999993
 23
-106.2703882573052
 33
0.0
  0
SOLID
  5
1AF
100
AcDbEntity
  8
None
370
              15
390
0
  6
Continuous
 62
               7
100
AcDbTrace
 10
22.468601599999992
 20
-106.82918825730519
 30
0.0
 11
22.468601599999992
 21
-106.2703882573052
 31
0.0
 12
23.027401599999994
 22
-106.82918825730519
 32
0.0
 13
23.027401599999994
 23
-106.2703882573052
 33
0.0
  0
SOLID
  5
1B0
100
AcDbEntity
  8
None
370
              15
390
0
  6
Continuous
 62
               7
100
AcDbTrace
 10
23.268601599999993
 20
-106.82918825730519
 30
0.0
 11
23.268601599999993
 21
-106.2703882573052
 31
0.0
 12
23.827401599999995
 22
-106.82918825730519
 32
0.0
 13
23.827401599999995
 23
-106.2703882573052
 33
0.0
  0
SOLID
  5
1B1
100
AcDbEntity
  8
None
370
              15
390
0
  6
Continuous
 62
               7
100
AcDbTrace
 10
24.068601599999994
 20
-106.82918825730519
 30
0.0
 11
24.068601599999994
 21
-106.2703882573052
 31
0.0
 12
24.627401599999992
 22
-106.82918825730519
 32
0.0
 13
24.627401599999992
 23
-106.2703882573052
 33
0.0
  0
SOLID
  5
1B2
100
AcDbEntity
  8
None
370
              15
390
0
  6
Continuous
 62
               7
100
AcDbTrace
 10
24.868601599999995
 20
-106.82918825730519
 30
0.0
 11
24.868601599999995
 21
-106.2703882573052
 31
0.0
 12
25.427401599999992
 22
-106.82918825730519
 32
0.0
 13
25.427401599999992
 23
-106.2703882573052
 33
0.0
  0
SOLID
  5
1B3
100
AcDbEntity
  8
None
370
              15
390
0
  6
Continuous
 62
               7
100
AcDbTrace
 10
25.668601599999995
 20
-106.82918825730519
 30
0.0
 11
25.668601599999995
 21
-106.2703882573052
 31
0.0
 12
26.227401599999993
 22
-106.82918825730519
 32
0.0
 13
26.227401599999993
 23
-106.2703882573052
 33
0.0
  0
SOLID
  5
1B4
100
AcDbEntity
  8
None
370
              15
390
0
  6
Continuous
 62
               7
100
AcDbTrace
 10
26.468601599999992
 20
-106.82918825730519
 30
0.0
 11
26.468601599999992
 21
-106.2703882573052
 31
0.0
 12
27.027401599999994
 22
-106.82918825730519
 32
0.0
 13
27.027401599999994
 23
-106.2703882573052
 33
0.0
  0
SOLID
  5
1B5
100
AcDbEntity
  8
None
370
              15
390
0
  6
Continuous
 62
               7
100
AcDbTrace
 10
27.268601599999993
 20
-106.82918825730519
 30
0.0
 11
27.268601599999993
 21
-106.2703882573052
 31
0.0
 12
27.827401599999995
 22
-106.82918825730519
 32
0.0
 13
27.827401599999995
 23
-106.2703882573052
 33
0.0
  0
SOLID
  5
1B6
100
AcDbEntity
  8
None
370
              15
390
0
  6
Continuous
 62
               7
100
AcDbTrace
 10
28.068601599999994
 20
-106.82918825730519
 30
0.0
 11
28.068601599999994
 21
-106.2703882573052
 31
0.0
 12
28.627401599999992
 22
-106.82918825730519
 32
0.0
 13
28.627401599999992
 23
-106.2703882573052
 33
0.0
  0
SOLID
  5
1B7
100
AcDbEntity
  8
None
370
              15
390
0
  6
Continuous
 62
               7
100
AcDbTrace
 10
28.868601599999995
 20
-106.82918825730519
 30
0.0
 11
28.868601599999995
 21
-106.2703882573052
 31
0.0
 12
29.427401599999992
 22
-106.82918825730519
 32
0.0
 13
29.427401599999992
 23
-106.2703882573052
 33
0.0
  0
SOLID
  5
1B8
100
AcDbEntity
  8
None
370
              15
390
0
  6
Continuous
 62
               7
100
AcDbTrace
 10
29.668601599999992
 20
-106.82918825730519
 30
0.0
 11
29.668601599999992
 21
-106.2703882573052
 31
0.0
 12
30.227401599999993
 22
-106.82918825730519
 32
0.0
 13
30.227401599999993
 23
-106.2703882573052
 33
0.0
  0
SOLID
  5
1B9
100
AcDbEntity
  8
None
370
              15
390
0
  6
Continuous
 62
               7
100
AcDbTrace
 10
30.468601599999992
 20
-106.82918825730519
 30
0.0
 11
30.468601599999992
 21
-106.2703882573052
 31
0.0
 12
31.027401599999994
 22
-106.82918825730519
 32
0.0
 13
31.027401599999994
 23
-106.2703882573052
 33
0.0
  0
SOLID
  5
1BA
100
AcDbEntity
  8
None
370
              15
390
0
  6
Continuous
 62
               7
100
AcDbTrace
 10
31.268601599999993
 20
-106.82918825730519
 30
0.0
 11
31.268601599999993
 21
-106.2703882573052
 31
0.0
 12
31.827401599999995
 22
-106.82918825730519
 32
0.0
 13
31.827401599999995
 23
-106.2703882573052
 33
0.0
  0
SOLID
  5
1BB
100
AcDbEntity
  8
None
370
              15
390
0
  6
Continuous
 62
               7
100
AcDbTrace
 10
32.068601599999994
 20
-106.82918825730519
 30
0.0
 11
32.068601599999994
 21
-106.2703882573052
 31
0.0
 12
32.627401599999992
 22
-106.82918825730519
 32
0.0
 13
32.627401599999992
 23
-106.2703882573052
 33
0.0
  0
SOLID
  5
1BC
100
AcDbEntity
  8
None
370
              15
390
0
  6
Continuous
 62
               7
100
AcDbTrace
 10
32.868601599999991
 20
-106.82918825730519
 30
0.0
 11
32.868601599999991
 21
-106.2703882573052
 31
0.0
 12
33.427401599999996
 22
-106.82918825730519
 32
0.0
 13
33.427401599999996
 23
-106.2703882573052
 33
0.0
  0
SOLID
  5
1BD
100
AcDbEntity
  8
None
370
              15
390
0
  6
Continuous
 62
               7
100
AcDbTrace
 10
33.668601599999995
 20
-106.82918825730519
 30
0.0
 11
33.668601599999995
 21
-106.2703882573052
 31
0.0
 12
34.227401599999993
 22
-106.82918825730519
 32
0.0
 13
34.227401599999993
 23
-106.2703882573052
 33
0.0
  0
SOLID
  5
1BE
100
AcDbEntity
  8
None
370
              15
390
0
  6
Continuous
 62
               7
100
AcDbTrace
 10
34.468601599999992
 20
-106.82918825730519
 30
0.0
 11
34.468601599999992
 21
-106.2703882573052
 31
0.0
 12
35.02740159999999
 22
-106.82918825730519
 32
0.0
 13
35.02740159999999
 23
-106.2703882573052
 33
0.0
  0
SOLID
  5
1BF
100
AcDbEntity
  8
None
370
              15
390
0
  6
Continuous
 62
               7
100
AcDbTrace
 10
35.268601599999997
 20
-106.82918825730519
 30
0.0
 11
35.268601599999997
 21
-106.2703882573052
 31
0.0
 12
35.827401599999995
 22
-106.82918825730519
 32
0.0
 13
35.827401599999995
 23
-106.2703882573052
 33
0.0
  0
SOLID
  5
1C0
100
AcDbEntity
  8
None
370
              15
390
0
  6
Continuous
 62
               7
100
AcDbTrace
 10
36.068601599999994
 20
-106.82918825730519
 30
0.0
 11
36.068601599999994
 21
-106.2703882573052
 31
0.0
 12
36.627401599999992
 22
-106.82918825730519
 32
0.0
 13
36.627401599999992
 23
-106.2703882573052
 33
0.0
  0
SOLID
  5
1C1
100
AcDbEntity
  8
None
370
              15
390
0
  6
Continuous
 62
               7
100
AcDbTrace
 10
18.468601599999992
 20
-107.6291882573052
 30
0.0
 11
18.468601599999992
 21
-107.0703882573052
 31
0.0
 12
19.027401599999994
 22
-107.6291882573052
 32
0.0
 13
19.027401599999994
 23
-107.0703882573052
 33
0.0
  0
SOLID
  5
1C2
100
AcDbEntity
  8
None
370
              15
390
0
  6
Continuous
 62
               7
100
AcDbTrace
 10
19.268601599999993
 20
-107.6291882573052
 30
0.0
 11
19.268601599999993
 21
-107.0703882573052
 31
0.0
 12
19.827401599999995
 22
-107.6291882573052
 32
0.0
 13
19.827401599999995
 23
-107.0703882573052
 33
0.0
  0
SOLID
  5
1C3
100
AcDbEntity
  8
None
370
              15
390
0
  6
Continuous
 62
               7
100
AcDbTrace
 10
20.068601599999994
 20
-107.6291882573052
 30
0.0
 11
20.068601599999994
 21
-107.0703882573052
 31
0.0
 12
20.627401599999992
 22
-107.6291882573052
 32
0.0
 13
20.627401599999992
 23
-107.0703882573052
 33
0.0
  0
SOLID
  5
1C4
100
AcDbEntity
  8
None
370
              15
390
0
  6
Continuous
 62
               7
100
AcDbTrace
 10
20.868601599999995
 20
-107.6291882573052
 30
0.0
 11
20.868601599999995
 21
-107.0703882573052
 31
0.0
 12
21.427401599999992
 22
-107.6291882573052
 32
0.0
 13
21.427401599999992
 23
-107.0703882573052
 33
0.0
  0
SOLID
  5
1C5
100
AcDbEntity
  8
None
370
              15
390
0
  6
Continuous
 62
               7
100
AcDbTrace
 10
21.668601599999995
 20
-107.6291882573052
 30
0.0
 11
21.668601599999995
 21
-107.0703882573052
 31
0.0
 12
22.227401599999993
 22
-107.6291882573052
 32
0.0
 13
22.227401599999993
 23
-107.0703882573052
 33
0.0
  0
SOLID
  5
1C6
100
AcDbEntity
  8
None
370
              15
390
0
  6
Continuous
 62
               7
100
AcDbTrace
 10
22.468601599999992
 20
-107.6291882573052
 30
0.0
 11
22.468601599999992
 21
-107.0703882573052
 31
0.0
 12
23.027401599999994
 22
-107.6291882573052
 32
0.0
 13
23.027401599999994
 23
-107.0703882573052
 33
0.0
  0
SOLID
  5
1C7
100
AcDbEntity
  8
None
370
              15
390
0
  6
Continuous
 62
               7
100
AcDbTrace
 10
23.268601599999993
 20
-107.6291882573052
 30
0.0
 11
23.268601599999993
 21
-107.0703882573052
 31
0.0
 12
23.827401599999995
 22
-107.6291882573052
 32
0.0
 13
23.827401599999995
 23
-107.0703882573052
 33
0.0
  0
SOLID
  5
1C8
100
AcDbEntity
  8
None
370
              15
390
0
  6
Continuous
 62
               7
100
AcDbTrace
 10
24.068601599999994
 20
-107.6291882573052
 30
0.0
 11
24.068601599999994
 21
-107.0703882573052
 31
0.0
 12
24.627401599999992
 22
-107.6291882573052
 32
0.0
 13
24.627401599999992
 23
-107.0703882573052
 33
0.0
  0
SOLID
  5
1C9
100
AcDbEntity
  8
None
370
              15
390
0
  6
Continuous
 62
               7
100
AcDbTrace
 10
24.868601599999995
 20
-107.6291882573052
 30
0.0
 11
24.868601599999995
 21
-107.0703882573052
 31
0.0
 12
25.427401599999992
 22
-107.6291882573052
 32
0.0
 13
25.427401599999992
 23
-107.0703882573052
 33
0.0
  0
SOLID
  5
1CA
100
AcDbEntity
  8
None
370
              15
390
0
  6
Continuous
 62
               7
100
AcDbTrace
 10
25.668601599999995
 20
-107.6291882573052
 30
0.0
 11
25.668601599999995
 21
-107.0703882573052
 31
0.0
 12
26.227401599999993
 22
-107.6291882573052
 32
0.0
 13
26.227401599999993
 23
-107.0703882573052
 33
0.0
  0
SOLID
  5
1CB
100
AcDbEntity
  8
None
370
              15
390
0
  6
Continuous
 62
               7
100
AcDbTrace
 10
26.468601599999992
 20
-107.6291882573052
 30
0.0
 11
26.468601599999992
 21
-107.0703882573052
 31
0.0
 12
27.027401599999994
 22
-107.6291882573052
 32
0.0
 13
27.027401599999994
 23
-107.0703882573052
 33
0.0
  0
SOLID
  5
1CC
100
AcDbEntity
  8
None
370
              15
390
0
  6
Continuous
 62
               7
100
AcDbTrace
 10
27.268601599999993
 20
-107.6291882573052
 30
0.0
 11
27.268601599999993
 21
-107.0703882573052
 31
0.0
 12
27.827401599999995
 22
-107.6291882573052
 32
0.0
 13
27.827401599999995
 23
-107.0703882573052
 33
0.0
  0
SOLID
  5
1CD
100
AcDbEntity
  8
None
370
              15
390
0
  6
Continuous
 62
               7
100
AcDbTrace
 10
28.068601599999994
 20
-107.6291882573052
 30
0.0
 11
28.068601599999994
 21
-107.0703882573052
 31
0.0
 12
28.627401599999992
 22
-107.6291882573052
 32
0.0
 13
28.627401599999992
 23
-107.0703882573052
 33
0.0
  0
SOLID
  5
1CE
100
AcDbEntity
  8
None
370
              15
390
0
  6
Continuous
 62
               7
100
AcDbTrace
 10
28.868601599999995
 20
-107.6291882573052
 30
0.0
 11
28.868601599999995
 21
-107.0703882573052
 31
0.0
 12
29.427401599999992
 22
-107.6291882573052
 32
0.0
 13
29.427401599999992
 23
-107.0703882573052
 33
0.0
  0
SOLID
  5
1CF
100
AcDbEntity
  8
None
370
              15
390
0
  6
Continuous
 62
               7
100
AcDbTrace
 10
29.668601599999992
 20
-107.6291882573052
 30
0.0
 11
29.668601599999992
 21
-107.0703882573052
 31
0.0
 12
30.227401599999993
 22
-107.6291882573052
 32
0.0
 13
30.227401599999993
 23
-107.0703882573052
 33
0.0
  0
SOLID
  5
1D0
100
AcDbEntity
  8
None
370
              15
390
0
  6
Continuous
 62
               7
100
AcDbTrace
 10
30.468601599999992
 20
-107.6291882573052
 30
0.0
 11
30.468601599999992
 21
-107.0703882573052
 31
0.0
 12
31.027401599999994
 22
-107.6291882573052
 32
0.0
 13
31.027401599999994
 23
-107.0703882573052
 33
0.0
  0
SOLID
  5
1D1
100
AcDbEntity
  8
None
370
              15
390
0
  6
Continuous
 62
               7
100
AcDbTrace
 10
31.268601599999993
 20
-107.6291882573052
 30
0.0
 11
31.268601599999993
 21
-107.0703882573052
 31
0.0
 12
31.827401599999995
 22
-107.6291882573052
 32
0.0
 13
31.827401599999995
 23
-107.0703882573052
 33
0.0
  0
SOLID
  5
1D2
100
AcDbEntity
  8
None
370
              15
390
0
  6
Continuous
 62
               7
100
AcDbTrace
 10
32.068601599999994
 20
-107.6291882573052
 30
0.0
 11
32.068601599999994
 21
-107.0703882573052
 31
0.0
 12
32.627401599999992
 22
-107.6291882573052
 32
0.0
 13
32.627401599999992
 23
-107.0703882573052
 33
0.0
  0
SOLID
  5
1D3
100
AcDbEntity
  8
None
370
              15
390
0
  6
Continuous
 62
               7
100
AcDbTrace
 10
32.868601599999991
 20
-107.6291882573052
 30
0.0
 11
32.868601599999991
 21
-107.0703882573052
 31
0.0
 12
33.427401599999996
 22
-107.6291882573052
 32
0.0
 13
33.427401599999996
 23
-107.0703882573052
 33
0.0
  0
SOLID
  5
1D4
100
AcDbEntity
  8
None
370
              15
390
0
  6
Continuous
 62
               7
100
AcDbTrace
 10
33.668601599999995
 20
-107.6291882573052
 30
0.0
 11
33.668601599999995
 21
-107.0703882573052
 31
0.0
 12
34.227401599999993
 22
-107.6291882573052
 32
0.0
 13
34.227401599999993
 23
-107.0703882573052
 33
0.0
  0
SOLID
  5
1D5
100
AcDbEntity
  8
None
370
              15
390
0
  6
Continuous
 62
               7
100
AcDbTrace
 10
34.468601599999992
 20
-107.6291882573052
 30
0.0
 11
34.468601599999992
 21
-107.0703882573052
 31
0.0
 12
35.02740159999999
 22
-107.6291882573052
 32
0.0
 13
35.02740159999999
 23
-107.0703882573052
 33
0.0
  0
SOLID
  5
1D6
100
AcDbEntity
  8
None
370
              15
390
0
  6
Continuous
 62
               7
100
AcDbTrace
 10
35.268601599999997
 20
-107.6291882573052
 30
0.0
 11
35.268601599999997
 21
-107.0703882573052
 31
0.0
 12
35.827401599999995
 22
-107.6291882573052
 32
0.0
 13
35.827401599999995
 23
-107.0703882573052
 33
0.0
  0
SOLID
  5
1D7
100
AcDbEntity
  8
None
370
              15
390
0
  6
Continuous
 62
               7
100
AcDbTrace
 10
36.068601599999994
 20
-107.6291882573052
 30
0.0
 11
36.068601599999994
 21
-107.0703882573052
 31
0.0
 12
36.627401599999992
 22
-107.6291882573052
 32
0.0
 13
36.627401599999992
 23
-107.0703882573052
 33
0.0
  0
SOLID
  5
1D8
100
AcDbEntity
  8
None
370
              15
390
0
  6
Continuous
 62
               7
100
AcDbTrace
 10
18.468601599999992
 20
-108.42918825730519
 30
0.0
 11
18.468601599999992
 21
-107.87038825730519
 31
0.0
 12
19.027401599999994
 22
-108.42918825730519
 32
0.0
 13
19.027401599999994
 23
-107.87038825730519
 33
0.0
  0
SOLID
  5
1D9
100
AcDbEntity
  8
None
370
              15
390
0
  6
Continuous
 62
               7
100
AcDbTrace
 10
19.268601599999993
 20
-108.42918825730519
 30
0.0
 11
19.268601599999993
 21
-107.87038825730519
 31
0.0
 12
19.827401599999995
 22
-108.42918825730519
 32
0.0
 13
19.827401599999995
 23
-107.87038825730519
 33
0.0
  0
SOLID
  5
1DA
100
AcDbEntity
  8
None
370
              15
390
0
  6
Continuous
 62
               7
100
AcDbTrace
 10
20.068601599999994
 20
-108.42918825730519
 30
0.0
 11
20.068601599999994
 21
-107.87038825730519
 31
0.0
 12
20.627401599999992
 22
-108.42918825730519
 32
0.0
 13
20.627401599999992
 23
-107.87038825730519
 33
0.0
  0
SOLID
  5
1DB
100
AcDbEntity
  8
None
370
              15
390
0
  6
Continuous
 62
               7
100
AcDbTrace
 10
20.868601599999995
 20
-108.42918825730519
 30
0.0
 11
20.868601599999995
 21
-107.87038825730519
 31
0.0
 12
21.427401599999992
 22
-108.42918825730519
 32
0.0
 13
21.427401599999992
 23
-107.87038825730519
 33
0.0
  0
SOLID
  5
1DC
100
AcDbEntity
  8
None
370
              15
390
0
  6
Continuous
 62
               7
100
AcDbTrace
 10
21.668601599999995
 20
-108.42918825730519
 30
0.0
 11
21.668601599999995
 21
-107.87038825730519
 31
0.0
 12
22.227401599999993
 22
-108.42918825730519
 32
0.0
 13
22.227401599999993
 23
-107.87038825730519
 33
0.0
  0
SOLID
  5
1DD
100
AcDbEntity
  8
None
370
              15
390
0
  6
Continuous
 62
               7
100
AcDbTrace
 10
22.468601599999992
 20
-108.42918825730519
 30
0.0
 11
22.468601599999992
 21
-107.87038825730519
 31
0.0
 12
23.027401599999994
 22
-108.42918825730519
 32
0.0
 13
23.027401599999994
 23
-107.87038825730519
 33
0.0
  0
SOLID
  5
1DE
100
AcDbEntity
  8
None
370
              15
390
0
  6
Continuous
 62
               7
100
AcDbTrace
 10
23.268601599999993
 20
-108.42918825730519
 30
0.0
 11
23.268601599999993
 21
-107.87038825730519
 31
0.0
 12
23.827401599999995
 22
-108.42918825730519
 32
0.0
 13
23.827401599999995
 23
-107.87038825730519
 33
0.0
  0
SOLID
  5
1DF
100
AcDbEntity
  8
None
370
              15
390
0
  6
Continuous
 62
               7
100
AcDbTrace
 10
24.068601599999994
 20
-108.42918825730519
 30
0.0
 11
24.068601599999994
 21
-107.87038825730519
 31
0.0
 12
24.627401599999992
 22
-108.42918825730519
 32
0.0
 13
24.627401599999992
 23
-107.87038825730519
 33
0.0
  0
SOLID
  5
1E0
100
AcDbEntity
  8
None
370
              15
390
0
  6
Continuous
 62
               7
100
AcDbTrace
 10
24.868601599999995
 20
-108.42918825730519
 30
0.0
 11
24.868601599999995
 21
-107.87038825730519
 31
0.0
 12
25.427401599999992
 22
-108.42918825730519
 32
0.0
 13
25.427401599999992
 23
-107.87038825730519
 33
0.0
  0
SOLID
  5
1E1
100
AcDbEntity
  8
None
370
              15
390
0
  6
Continuous
 62
               7
100
AcDbTrace
 10
25.668601599999995
 20
-108.42918825730519
 30
0.0
 11
25.668601599999995
 21
-107.87038825730519
 31
0.0
 12
26.227401599999993
 22
-108.42918825730519
 32
0.0
 13
26.227401599999993
 23
-107.87038825730519
 33
0.0
  0
SOLID
  5
1E2
100
AcDbEntity
  8
None
370
              15
390
0
  6
Continuous
 62
               7
100
AcDbTrace
 10
26.468601599999992
 20
-108.42918825730519
 30
0.0
 11
26.468601599999992
 21
-107.87038825730519
 31
0.0
 12
27.027401599999994
 22
-108.42918825730519
 32
0.0
 13
27.027401599999994
 23
-107.87038825730519
 33
0.0
  0
SOLID
  5
1E3
100
AcDbEntity
  8
None
370
              15
390
0
  6
Continuous
 62
               7
100
AcDbTrace
 10
27.268601599999993
 20
-108.42918825730519
 30
0.0
 11
27.268601599999993
 21
-107.87038825730519
 31
0.0
 12
27.827401599999995
 22
-108.42918825730519
 32
0.0
 13
27.827401599999995
 23
-107.87038825730519
 33
0.0
  0
SOLID
  5
1E4
100
AcDbEntity
  8
None
370
              15
390
0
  6
Continuous
 62
               7
100
AcDbTrace
 10
28.068601599999994
 20
-108.42918825730519
 30
0.0
 11
28.068601599999994
 21
-107.87038825730519
 31
0.0
 12
28.627401599999992
 22
-108.42918825730519
 32
0.0
 13
28.627401599999992
 23
-107.87038825730519
 33
0.0
  0
SOLID
  5
1E5
100
AcDbEntity
  8
None
370
              15
390
0
  6
Continuous
 62
               7
100
AcDbTrace
 10
28.868601599999995
 20
-108.42918825730519
 30
0.0
 11
28.868601599999995
 21
-107.87038825730519
 31
0.0
 12
29.427401599999992
 22
-108.42918825730519
 32
0.0
 13
29.427401599999992
 23
-107.87038825730519
 33
0.0
  0
SOLID
  5
1E6
100
AcDbEntity
  8
None
370
              15
390
0
  6
Continuous
 62
               7
100
AcDbTrace
 10
29.668601599999992
 20
-108.42918825730519
 30
0.0
 11
29.668601599999992
 21
-107.87038825730519
 31
0.0
 12
30.227401599999993
 22
-108.42918825730519
 32
0.0
 13
30.227401599999993
 23
-107.87038825730519
 33
0.0
  0
SOLID
  5
1E7
100
AcDbEntity
  8
None
370
              15
390
0
  6
Continuous
 62
               7
100
AcDbTrace
 10
30.468601599999992
 20
-108.42918825730519
 30
0.0
 11
30.468601599999992
 21
-107.87038825730519
 31
0.0
 12
31.027401599999994
 22
-108.42918825730519
 32
0.0
 13
31.027401599999994
 23
-107.87038825730519
 33
0.0
  0
SOLID
  5
1E8
100
AcDbEntity
  8
None
370
              15
390
0
  6
Continuous
 62
               7
100
AcDbTrace
 10
31.268601599999993
 20
-108.42918825730519
 30
0.0
 11
31.268601599999993
 21
-107.87038825730519
 31
0.0
 12
31.827401599999995
 22
-108.42918825730519
 32
0.0
 13
31.827401599999995
 23
-107.87038825730519
 33
0.0
  0
SOLID
  5
1E9
100
AcDbEntity
  8
None
370
              15
390
0
  6
Continuous
 62
               7
100
AcDbTrace
 10
32.068601599999994
 20
-108.42918825730519
 30
0.0
 11
32.068601599999994
 21
-107.87038825730519
 31
0.0
 12
32.627401599999992
 22
-108.42918825730519
 32
0.0
 13
32.627401599999992
 23
-107.87038825730519
 33
0.0
  0
SOLID
  5
1EA
100
AcDbEntity
  8
None
370
              15
390
0
  6
Continuous
 62
               7
100
AcDbTrace
 10
32.868601599999991
 20
-108.42918825730519
 30
0.0
 11
32.868601599999991
 21
-107.87038825730519
 31
0.0
 12
33.427401599999996
 22
-108.42918825730519
 32
0.0
 13
33.427401599999996
 23
-107.87038825730519
 33
0.0
  0
SOLID
  5
1EB
100
AcDbEntity
  8
None
370
              15
390
0
  6
Continuous
 62
               7
100
AcDbTrace
 10
33.668601599999995
 20
-108.42918825730519
 30
0.0
 11
33.668601599999995
 21
-107.87038825730519
 31
0.0
 12
34.227401599999993
 22
-108.42918825730519
 32
0.0
 13
34.227401599999993
 23
-107.87038825730519
 33
0.0
  0
SOLID
  5
1EC
100
AcDbEntity
  8
None
370
              15
390
0
  6
Continuous
 62
               7
100
AcDbTrace
 10
34.468601599999992
 20
-108.42918825730519
 30
0.0
 11
34.468601599999992
 21
-107.87038825730519
 31
0.0
 12
35.02740159999999
 22
-108.42918825730519
 32
0.0
 13
35.02740159999999
 23
-107.87038825730519
 33
0.0
  0
SOLID
  5
1ED
100
AcDbEntity
  8
None
370
              15
390
0
  6
Continuous
 62
               7
100
AcDbTrace
 10
35.268601599999997
 20
-108.42918825730519
 30
0.0
 11
35.268601599999997
 21
-107.87038825730519
 31
0.0
 12
35.827401599999995
 22
-108.42918825730519
 32
0.0
 13
35.827401599999995
 23
-107.87038825730519
 33
0.0
  0
SOLID
  5
1EE
100
AcDbEntity
  8
None
370
              15
390
0
  6
Continuous
 62
               7
100
AcDbTrace
 10
36.068601599999994
 20
-108.42918825730519
 30
0.0
 11
36.068601599999994
 21
-107.87038825730519
 31
0.0
 12
36.627401599999992
 22
-108.42918825730519
 32
0.0
 13
36.627401599999992
 23
-107.87038825730519
 33
0.0
  0
SOLID
  5
1EF
100
AcDbEntity
  8
None
370
              15
390
0
  6
Continuous
 62
               7
100
AcDbTrace
 10
18.468601599999992
 20
-109.2291882573052
 30
0.0
 11
18.468601599999992
 21
-108.67038825730519
 31
0.0
 12
19.027401599999994
 22
-109.2291882573052
 32
0.0
 13
19.027401599999994
 23
-108.67038825730519
 33
0.0
  0
SOLID
  5
1F0
100
AcDbEntity
  8
None
370
              15
390
0
  6
Continuous
 62
               7
100
AcDbTrace
 10
19.268601599999993
 20
-109.2291882573052
 30
0.0
 11
19.268601599999993
 21
-108.67038825730519
 31
0.0
 12
19.827401599999995
 22
-109.2291882573052
 32
0.0
 13
19.827401599999995
 23
-108.67038825730519
 33
0.0
  0
SOLID
  5
1F1
100
AcDbEntity
  8
None
370
              15
390
0
  6
Continuous
 62
               7
100
AcDbTrace
 10
20.068601599999994
 20
-109.2291882573052
 30
0.0
 11
20.068601599999994
 21
-108.67038825730519
 31
0.0
 12
20.627401599999992
 22
-109.2291882573052
 32
0.0
 13
20.627401599999992
 23
-108.67038825730519
 33
0.0
  0
SOLID
  5
1F2
100
AcDbEntity
  8
None
370
              15
390
0
  6
Continuous
 62
               7
100
AcDbTrace
 10
20.868601599999995
 20
-109.2291882573052
 30
0.0
 11
20.868601599999995
 21
-108.67038825730519
 31
0.0
 12
21.427401599999992
 22
-109.2291882573052
 32
0.0
 13
21.427401599999992
 23
-108.67038825730519
 33
0.0
  0
SOLID
  5
1F3
100
AcDbEntity
  8
None
370
              15
390
0
  6
Continuous
 62
               7
100
AcDbTrace
 10
21.668601599999995
 20
-109.2291882573052
 30
0.0
 11
21.668601599999995
 21
-108.67038825730519
 31
0.0
 12
22.227401599999993
 22
-109.2291882573052
 32
0.0
 13
22.227401599999993
 23
-108.67038825730519
 33
0.0
  0
SOLID
  5
1F4
100
AcDbEntity
  8
None
370
              15
390
0
  6
Continuous
 62
               7
100
AcDbTrace
 10
22.468601599999992
 20
-109.2291882573052
 30
0.0
 11
22.468601599999992
 21
-108.67038825730519
 31
0.0
 12
23.027401599999994
 22
-109.2291882573052
 32
0.0
 13
23.027401599999994
 23
-108.67038825730519
 33
0.0
  0
SOLID
  5
1F5
100
AcDbEntity
  8
None
370
              15
390
0
  6
Continuous
 62
               7
100
AcDbTrace
 10
23.268601599999993
 20
-109.2291882573052
 30
0.0
 11
23.268601599999993
 21
-108.67038825730519
 31
0.0
 12
23.827401599999995
 22
-109.2291882573052
 32
0.0
 13
23.827401599999995
 23
-108.67038825730519
 33
0.0
  0
SOLID
  5
1F6
100
AcDbEntity
  8
None
370
              15
390
0
  6
Continuous
 62
               7
100
AcDbTrace
 10
24.068601599999994
 20
-109.2291882573052
 30
0.0
 11
24.068601599999994
 21
-108.67038825730519
 31
0.0
 12
24.627401599999992
 22
-109.2291882573052
 32
0.0
 13
24.627401599999992
 23
-108.67038825730519
 33
0.0
  0
SOLID
  5
1F7
100
AcDbEntity
  8
None
370
              15
390
0
  6
Continuous
 62
               7
100
AcDbTrace
 10
24.868601599999995
 20
-109.2291882573052
 30
0.0
 11
24.868601599999995
 21
-108.67038825730519
 31
0.0
 12
25.427401599999992
 22
-109.2291882573052
 32
0.0
 13
25.427401599999992
 23
-108.67038825730519
 33
0.0
  0
SOLID
  5
1F8
100
AcDbEntity
  8
None
370
              15
390
0
  6
Continuous
 62
               7
100
AcDbTrace
 10
25.668601599999995
 20
-109.2291882573052
 30
0.0
 11
25.668601599999995
 21
-108.67038825730519
 31
0.0
 12
26.227401599999993
 22
-109.2291882573052
 32
0.0
 13
26.227401599999993
 23
-108.67038825730519
 33
0.0
  0
SOLID
  5
1F9
100
AcDbEntity
  8
None
370
              15
390
0
  6
Continuous
 62
               7
100
AcDbTrace
 10
26.468601599999992
 20
-109.2291882573052
 30
0.0
 11
26.468601599999992
 21
-108.67038825730519
 31
0.0
 12
27.027401599999994
 22
-109.2291882573052
 32
0.0
 13
27.027401599999994
 23
-108.67038825730519
 33
0.0
  0
SOLID
  5
1FA
100
AcDbEntity
  8
None
370
              15
390
0
  6
Continuous
 62
               7
100
AcDbTrace
 10
27.268601599999993
 20
-109.2291882573052
 30
0.0
 11
27.268601599999993
 21
-108.67038825730519
 31
0.0
 12
27.827401599999995
 22
-109.2291882573052
 32
0.0
 13
27.827401599999995
 23
-108.67038825730519
 33
0.0
  0
SOLID
  5
1FB
100
AcDbEntity
  8
None
370
              15
390
0
  6
Continuous
 62
               7
100
AcDbTrace
 10
28.068601599999994
 20
-109.2291882573052
 30
0.0
 11
28.068601599999994
 21
-108.67038825730519
 31
0.0
 12
28.627401599999992
 22
-109.2291882573052
 32
0.0
 13
28.627401599999992
 23
-108.67038825730519
 33
0.0
  0
SOLID
  5
1FC
100
AcDbEntity
  8
None
370
              15
390
0
  6
Continuous
 62
               7
100
AcDbTrace
 10
28.868601599999995
 20
-109.2291882573052
 30
0.0
 11
28.868601599999995
 21
-108.67038825730519
 31
0.0
 12
29.427401599999992
 22
-109.2291882573052
 32
0.0
 13
29.427401599999992
 23
-108.67038825730519
 33
0.0
  0
SOLID
  5
1FD
100
AcDbEntity
  8
None
370
              15
390
0
  6
Continuous
 62
               7
100
AcDbTrace
 10
29.668601599999992
 20
-109.2291882573052
 30
0.0
 11
29.668601599999992
 21
-108.67038825730519
 31
0.0
 12
30.227401599999993
 22
-109.2291882573052
 32
0.0
 13
30.227401599999993
 23
-108.67038825730519
 33
0.0
  0
SOLID
  5
1FE
100
AcDbEntity
  8
None
370
              15
390
0
  6
Continuous
 62
               7
100
AcDbTrace
 10
30.468601599999992
 20
-109.2291882573052
 30
0.0
 11
30.468601599999992
 21
-108.67038825730519
 31
0.0
 12
31.027401599999994
 22
-109.2291882573052
 32
0.0
 13
31.027401599999994
 23
-108.67038825730519
 33
0.0
  0
SOLID
  5
1FF
100
AcDbEntity
  8
None
370
              15
390
0
  6
Continuous
 62
               7
100
AcDbTrace
 10
31.268601599999993
 20
-109.2291882573052
 30
0.0
 11
31.268601599999993
 21
-108.67038825730519
 31
0.0
 12
31.827401599999995
 22
-109.2291882573052
 32
0.0
 13
31.827401599999995
 23
-108.67038825730519
 33
0.0
  0
SOLID
  5
200
100
AcDbEntity
  8
None
370
              15
390
0
  6
Continuous
 62
               7
100
AcDbTrace
 10
32.068601599999994
 20
-109.2291882573052
 30
0.0
 11
32.068601599999994
 21
-108.67038825730519
 31
0.0
 12
32.627401599999992
 22
-109.2291882573052
 32
0.0
 13
32.627401599999992
 23
-108.67038825730519
 33
0.0
  0
SOLID
  5
201
100
AcDbEntity
  8
None
370
              15
390
0
  6
Continuous
 62
               7
100
AcDbTrace
 10
32.868601599999991
 20
-109.2291882573052
 30
0.0
 11
32.868601599999991
 21
-108.67038825730519
 31
0.0
 12
33.427401599999996
 22
-109.2291882573052
 32
0.0
 13
33.427401599999996
 23
-108.67038825730519
 33
0.0
  0
SOLID
  5
202
100
AcDbEntity
  8
None
370
              15
390
0
  6
Continuous
 62
               7
100
AcDbTrace
 10
33.668601599999995
 20
-109.2291882573052
 30
0.0
 11
33.668601599999995
 21
-108.67038825730519
 31
0.0
 12
34.227401599999993
 22
-109.2291882573052
 32
0.0
 13
34.227401599999993
 23
-108.67038825730519
 33
0.0
  0
SOLID
  5
203
100
AcDbEntity
  8
None
370
              15
390
0
  6
Continuous
 62
               7
100
AcDbTrace
 10
34.468601599999992
 20
-109.2291882573052
 30
0.0
 11
34.468601599999992
 21
-108.67038825730519
 31
0.0
 12
35.02740159999999
 22
-109.2291882573052
 32
0.0
 13
35.02740159999999
 23
-108.67038825730519
 33
0.0
  0
SOLID
  5
204
100
AcDbEntity
  8
None
370
              15
390
0
  6
Continuous
 62
               7
100
AcDbTrace
 10
35.268601599999997
 20
-109.2291882573052
 30
0.0
 11
35.268601599999997
 21
-108.67038825730519
 31
0.0
 12
35.827401599999995
 22
-109.2291882573052
 32
0.0
 13
35.827401599999995
 23
-108.67038825730519
 33
0.0
  0
SOLID
  5
205
100
AcDbEntity
  8
None
370
              15
390
0
  6
Continuous
 62
               7
100
AcDbTrace
 10
36.068601599999994
 20
-109.2291882573052
 30
0.0
 11
36.068601599999994
 21
-108.67038825730519
 31
0.0
 12
36.627401599999992
 22
-109.2291882573052
 32
0.0
 13
36.627401599999992
 23
-108.67038825730519
 33
0.0
  0
SOLID
  5
206
100
AcDbEntity
  8
None
370
              15
390
0
  6
Continuous
 62
               7
100
AcDbTrace
 10
18.468601599999992
 20
-110.02918825730519
 30
0.0
 11
18.468601599999992
 21
-109.47038825730519
 31
0.0
 12
19.027401599999994
 22
-110.02918825730519
 32
0.0
 13
19.027401599999994
 23
-109.47038825730519
 33
0.0
  0
SOLID
  5
207
100
AcDbEntity
  8
None
370
              15
390
0
  6
Continuous
 62
               7
100
AcDbTrace
 10
19.268601599999993
 20
-110.02918825730519
 30
0.0
 11
19.268601599999993
 21
-109.47038825730519
 31
0.0
 12
19.827401599999995
 22
-110.02918825730519
 32
0.0
 13
19.827401599999995
 23
-109.47038825730519
 33
0.0
  0
SOLID
  5
208
100
AcDbEntity
  8
None
370
              15
390
0
  6
Continuous
 62
               7
100
AcDbTrace
 10
20.068601599999994
 20
-110.02918825730519
 30
0.0
 11
20.068601599999994
 21
-109.47038825730519
 31
0.0
 12
20.627401599999992
 22
-110.02918825730519
 32
0.0
 13
20.627401599999992
 23
-109.47038825730519
 33
0.0
  0
SOLID
  5
209
100
AcDbEntity
  8
None
370
              15
390
0
  6
Continuous
 62
               7
100
AcDbTrace
 10
20.868601599999995
 20
-110.02918825730519
 30
0.0
 11
20.868601599999995
 21
-109.47038825730519
 31
0.0
 12
21.427401599999992
 22
-110.02918825730519
 32
0.0
 13
21.427401599999992
 23
-109.47038825730519
 33
0.0
  0
SOLID
  5
20A
100
AcDbEntity
  8
None
370
              15
390
0
  6
Continuous
 62
               7
100
AcDbTrace
 10
21.668601599999995
 20
-110.02918825730519
 30
0.0
 11
21.668601599999995
 21
-109.47038825730519
 31
0.0
 12
22.227401599999993
 22
-110.02918825730519
 32
0.0
 13
22.227401599999993
 23
-109.47038825730519
 33
0.0
  0
SOLID
  5
20B
100
AcDbEntity
  8
None
370
              15
390
0
  6
Continuous
 62
               7
100
AcDbTrace
 10
22.468601599999992
 20
-110.02918825730519
 30
0.0
 11
22.468601599999992
 21
-109.47038825730519
 31
0.0
 12
23.027401599999994
 22
-110.02918825730519
 32
0.0
 13
23.027401599999994
 23
-109.47038825730519
 33
0.0
  0
SOLID
  5
20C
100
AcDbEntity
  8
None
370
              15
390
0
  6
Continuous
 62
               7
100
AcDbTrace
 10
23.268601599999993
 20
-110.02918825730519
 30
0.0
 11
23.268601599999993
 21
-109.47038825730519
 31
0.0
 12
23.827401599999995
 22
-110.02918825730519
 32
0.0
 13
23.827401599999995
 23
-109.47038825730519
 33
0.0
  0
SOLID
  5
20D
100
AcDbEntity
  8
None
370
              15
390
0
  6
Continuous
 62
               7
100
AcDbTrace
 10
24.068601599999994
 20
-110.02918825730519
 30
0.0
 11
24.068601599999994
 21
-109.47038825730519
 31
0.0
 12
24.627401599999992
 22
-110.02918825730519
 32
0.0
 13
24.627401599999992
 23
-109.47038825730519
 33
0.0
  0
SOLID
  5
20E
100
AcDbEntity
  8
None
370
              15
390
0
  6
Continuous
 62
               7
100
AcDbTrace
 10
24.868601599999995
 20
-110.02918825730519
 30
0.0
 11
24.868601599999995
 21
-109.47038825730519
 31
0.0
 12
25.427401599999992
 22
-110.02918825730519
 32
0.0
 13
25.427401599999992
 23
-109.47038825730519
 33
0.0
  0
SOLID
  5
20F
100
AcDbEntity
  8
None
370
              15
390
0
  6
Continuous
 62
               7
100
AcDbTrace
 10
25.668601599999995
 20
-110.02918825730519
 30
0.0
 11
25.668601599999995
 21
-109.47038825730519
 31
0.0
 12
26.227401599999993
 22
-110.02918825730519
 32
0.0
 13
26.227401599999993
 23
-109.47038825730519
 33
0.0
  0
SOLID
  5
210
100
AcDbEntity
  8
None
370
              15
390
0
  6
Continuous
 62
               7
100
AcDbTrace
 10
26.468601599999992
 20
-110.02918825730519
 30
0.0
 11
26.468601599999992
 21
-109.47038825730519
 31
0.0
 12
27.027401599999994
 22
-110.02918825730519
 32
0.0
 13
27.027401599999994
 23
-109.47038825730519
 33
0.0
  0
SOLID
  5
211
100
AcDbEntity
  8
None
370
              15
390
0
  6
Continuous
 62
               7
100
AcDbTrace
 10
27.268601599999993
 20
-110.02918825730519
 30
0.0
 11
27.268601599999993
 21
-109.47038825730519
 31
0.0
 12
27.827401599999995
 22
-110.02918825730519
 32
0.0
 13
27.827401599999995
 23
-109.47038825730519
 33
0.0
  0
SOLID
  5
212
100
AcDbEntity
  8
None
370
              15
390
0
  6
Continuous
 62
               7
100
AcDbTrace
 10
28.068601599999994
 20
-110.02918825730519
 30
0.0
 11
28.068601599999994
 21
-109.47038825730519
 31
0.0
 12
28.627401599999992
 22
-110.02918825730519
 32
0.0
 13
28.627401599999992
 23
-109.47038825730519
 33
0.0
  0
SOLID
  5
213
100
AcDbEntity
  8
None
370
              15
390
0
  6
Continuous
 62
               7
100
AcDbTrace
 10
28.868601599999995
 20
-110.02918825730519
 30
0.0
 11
28.868601599999995
 21
-109.47038825730519
 31
0.0
 12
29.427401599999992
 22
-110.02918825730519
 32
0.0
 13
29.427401599999992
 23
-109.47038825730519
 33
0.0
  0
SOLID
  5
214
100
AcDbEntity
  8
None
370
              15
390
0
  6
Continuous
 62
               7
100
AcDbTrace
 10
29.668601599999992
 20
-110.02918825730519
 30
0.0
 11
29.668601599999992
 21
-109.47038825730519
 31
0.0
 12
30.227401599999993
 22
-110.02918825730519
 32
0.0
 13
30.227401599999993
 23
-109.47038825730519
 33
0.0
  0
SOLID
  5
215
100
AcDbEntity
  8
None
370
              15
390
0
  6
Continuous
 62
               7
100
AcDbTrace
 10
30.468601599999992
 20
-110.02918825730519
 30
0.0
 11
30.468601599999992
 21
-109.47038825730519
 31
0.0
 12
31.027401599999994
 22
-110.02918825730519
 32
0.0
 13
31.027401599999994
 23
-109.47038825730519
 33
0.0
  0
SOLID
  5
216
100
AcDbEntity
  8
None
370
              15
390
0
  6
Continuous
 62
               7
100
AcDbTrace
 10
31.268601599999993
 20
-110.02918825730519
 30
0.0
 11
31.268601599999993
 21
-109.47038825730519
 31
0.0
 12
31.827401599999995
 22
-110.02918825730519
 32
0.0
 13
31.827401599999995
 23
-109.47038825730519
 33
0.0
  0
SOLID
  5
217
100
AcDbEntity
  8
None
370
              15
390
0
  6
Continuous
 62
               7
100
AcDbTrace
 10
32.068601599999994
 20
-110.02918825730519
 30
0.0
 11
32.068601599999994
 21
-109.47038825730519
 31
0.0
 12
32.627401599999992
 22
-110.02918825730519
 32
0.0
 13
32.627401599999992
 23
-109.47038825730519
 33
0.0
  0
SOLID
  5
218
100
AcDbEntity
  8
None
370
              15
390
0
  6
Continuous
 62
               7
100
AcDbTrace
 10
32.868601599999991
 20
-110.02918825730519
 30
0.0
 11
32.868601599999991
 21
-109.47038825730519
 31
0.0
 12
33.427401599999996
 22
-110.02918825730519
 32
0.0
 13
33.427401599999996
 23
-109.47038825730519
 33
0.0
  0
SOLID
  5
219
100
AcDbEntity
  8
None
370
              15
390
0
  6
Continuous
 62
               7
100
AcDbTrace
 10
33.668601599999995
 20
-110.02918825730519
 30
0.0
 11
33.668601599999995
 21
-109.47038825730519
 31
0.0
 12
34.227401599999993
 22
-110.02918825730519
 32
0.0
 13
34.227401599999993
 23
-109.47038825730519
 33
0.0
  0
SOLID
  5
21A
100
AcDbEntity
  8
None
370
              15
390
0
  6
Continuous
 62
               7
100
AcDbTrace
 10
34.468601599999992
 20
-110.02918825730519
 30
0.0
 11
34.468601599999992
 21
-109.47038825730519
 31
0.0
 12
35.02740159999999
 22
-110.02918825730519
 32
0.0
 13
35.02740159999999
 23
-109.47038825730519
 33
0.0
  0
SOLID
  5
21B
100
AcDbEntity
  8
None
370
              15
390
0
  6
Continuous
 62
               7
100
AcDbTrace
 10
35.268601599999997
 20
-110.02918825730519
 30
0.0
 11
35.268601599999997
 21
-109.47038825730519
 31
0.0
 12
35.827401599999995
 22
-110.02918825730519
 32
0.0
 13
35.827401599999995
 23
-109.47038825730519
 33
0.0
  0
SOLID
  5
21C
100
AcDbEntity
  8
None
370
              15
390
0
  6
Continuous
 62
               7
100
AcDbTrace
 10
36.068601599999994
 20
-110.02918825730519
 30
0.0
 11
36.068601599999994
 21
-109.47038825730519
 31
0.0
 12
36.627401599999992
 22
-110.02918825730519
 32
0.0
 13
36.627401599999992
 23
-109.47038825730519
 33
0.0
  0
SOLID
  5
21D
100
AcDbEntity
  8
None
370
              15
390
0
  6
Continuous
 62
               7
100
AcDbTrace
 10
18.468601599999992
 20
-110.82918825730519
 30
0.0
 11
18.468601599999992
 21
-110.2703882573052
 31
0.0
 12
19.027401599999994
 22
-110.82918825730519
 32
0.0
 13
19.027401599999994
 23
-110.2703882573052
 33
0.0
  0
SOLID
  5
21E
100
AcDbEntity
  8
None
370
              15
390
0
  6
Continuous
 62
               7
100
AcDbTrace
 10
19.268601599999993
 20
-110.82918825730519
 30
0.0
 11
19.268601599999993
 21
-110.2703882573052
 31
0.0
 12
19.827401599999995
 22
-110.82918825730519
 32
0.0
 13
19.827401599999995
 23
-110.2703882573052
 33
0.0
  0
SOLID
  5
21F
100
AcDbEntity
  8
None
370
              15
390
0
  6
Continuous
 62
               7
100
AcDbTrace
 10
20.068601599999994
 20
-110.82918825730519
 30
0.0
 11
20.068601599999994
 21
-110.2703882573052
 31
0.0
 12
20.627401599999992
 22
-110.82918825730519
 32
0.0
 13
20.627401599999992
 23
-110.2703882573052
 33
0.0
  0
SOLID
  5
220
100
AcDbEntity
  8
None
370
              15
390
0
  6
Continuous
 62
               7
100
AcDbTrace
 10
20.868601599999995
 20
-110.82918825730519
 30
0.0
 11
20.868601599999995
 21
-110.2703882573052
 31
0.0
 12
21.427401599999992
 22
-110.82918825730519
 32
0.0
 13
21.427401599999992
 23
-110.2703882573052
 33
0.0
  0
SOLID
  5
221
100
AcDbEntity
  8
None
370
              15
390
0
  6
Continuous
 62
               7
100
AcDbTrace
 10
21.668601599999995
 20
-110.82918825730519
 30
0.0
 11
21.668601599999995
 21
-110.2703882573052
 31
0.0
 12
22.227401599999993
 22
-110.82918825730519
 32
0.0
 13
22.227401599999993
 23
-110.2703882573052
 33
0.0
  0
SOLID
  5
222
100
AcDbEntity
  8
None
370
              15
390
0
  6
Continuous
 62
               7
100
AcDbTrace
 10
22.468601599999992
 20
-110.82918825730519
 30
0.0
 11
22.468601599999992
 21
-110.2703882573052
 31
0.0
 12
23.027401599999994
 22
-110.82918825730519
 32
0.0
 13
23.027401599999994
 23
-110.2703882573052
 33
0.0
  0
SOLID
  5
223
100
AcDbEntity
  8
None
370
              15
390
0
  6
Continuous
 62
               7
100
AcDbTrace
 10
23.268601599999993
 20
-110.82918825730519
 30
0.0
 11
23.268601599999993
 21
-110.2703882573052
 31
0.0
 12
23.827401599999995
 22
-110.82918825730519
 32
0.0
 13
23.827401599999995
 23
-110.2703882573052
 33
0.0
  0
SOLID
  5
224
100
AcDbEntity
  8
None
370
              15
390
0
  6
Continuous
 62
               7
100
AcDbTrace
 10
24.068601599999994
 20
-110.82918825730519
 30
0.0
 11
24.068601599999994
 21
-110.2703882573052
 31
0.0
 12
24.627401599999992
 22
-110.82918825730519
 32
0.0
 13
24.627401599999992
 23
-110.2703882573052
 33
0.0
  0
SOLID
  5
225
100
AcDbEntity
  8
None
370
              15
390
0
  6
Continuous
 62
               7
100
AcDbTrace
 10
24.868601599999995
 20
-110.82918825730519
 30
0.0
 11
24.868601599999995
 21
-110.2703882573052
 31
0.0
 12
25.427401599999992
 22
-110.82918825730519
 32
0.0
 13
25.427401599999992
 23
-110.2703882573052
 33
0.0
  0
SOLID
  5
226
100
AcDbEntity
  8
None
370
              15
390
0
  6
Continuous
 62
               7
100
AcDbTrace
 10
25.668601599999995
 20
-110.82918825730519
 30
0.0
 11
25.668601599999995
 21
-110.2703882573052
 31
0.0
 12
26.227401599999993
 22
-110.82918825730519
 32
0.0
 13
26.227401599999993
 23
-110.2703882573052
 33
0.0
  0
SOLID
  5
227
100
AcDbEntity
  8
None
370
              15
390
0
  6
Continuous
 62
               7
100
AcDbTrace
 10
26.468601599999992
 20
-110.82918825730519
 30
0.0
 11
26.468601599999992
 21
-110.2703882573052
 31
0.0
 12
27.027401599999994
 22
-110.82918825730519
 32
0.0
 13
27.027401599999994
 23
-110.2703882573052
 33
0.0
  0
SOLID
  5
228
100
AcDbEntity
  8
None
370
              15
390
0
  6
Continuous
 62
               7
100
AcDbTrace
 10
27.268601599999993
 20
-110.82918825730519
 30
0.0
 11
27.268601599999993
 21
-110.2703882573052
 31
0.0
 12
27.827401599999995
 22
-110.82918825730519
 32
0.0
 13
27.827401599999995
 23
-110.2703882573052
 33
0.0
  0
SOLID
  5
229
100
AcDbEntity
  8
None
370
              15
390
0
  6
Continuous
 62
               7
100
AcDbTrace
 10
28.068601599999994
 20
-110.82918825730519
 30
0.0
 11
28.068601599999994
 21
-110.2703882573052
 31
0.0
 12
28.627401599999992
 22
-110.82918825730519
 32
0.0
 13
28.627401599999992
 23
-110.2703882573052
 33
0.0
  0
SOLID
  5
22A
100
AcDbEntity
  8
None
370
              15
390
0
  6
Continuous
 62
               7
100
AcDbTrace
 10
28.868601599999995
 20
-110.82918825730519
 30
0.0
 11
28.868601599999995
 21
-110.2703882573052
 31
0.0
 12
29.427401599999992
 22
-110.82918825730519
 32
0.0
 13
29.427401599999992
 23
-110.2703882573052
 33
0.0
  0
SOLID
  5
22B
100
AcDbEntity
  8
None
370
              15
390
0
  6
Continuous
 62
               7
100
AcDbTrace
 10
29.668601599999992
 20
-110.82918825730519
 30
0.0
 11
29.668601599999992
 21
-110.2703882573052
 31
0.0
 12
30.227401599999993
 22
-110.82918825730519
 32
0.0
 13
30.227401599999993
 23
-110.2703882573052
 33
0.0
  0
SOLID
  5
22C
100
AcDbEntity
  8
None
370
              15
390
0
  6
Continuous
 62
               7
100
AcDbTrace
 10
30.468601599999992
 20
-110.82918825730519
 30
0.0
 11
30.468601599999992
 21
-110.2703882573052
 31
0.0
 12
31.027401599999994
 22
-110.82918825730519
 32
0.0
 13
31.027401599999994
 23
-110.2703882573052
 33
0.0
  0
SOLID
  5
22D
100
AcDbEntity
  8
None
370
              15
390
0
  6
Continuous
 62
               7
100
AcDbTrace
 10
31.268601599999993
 20
-110.82918825730519
 30
0.0
 11
31.268601599999993
 21
-110.2703882573052
 31
0.0
 12
31.827401599999995
 22
-110.82918825730519
 32
0.0
 13
31.827401599999995
 23
-110.2703882573052
 33
0.0
  0
SOLID
  5
22E
100
AcDbEntity
  8
None
370
              15
390
0
  6
Continuous
 62
               7
100
AcDbTrace
 10
32.068601599999994
 20
-110.82918825730519
 30
0.0
 11
32.068601599999994
 21
-110.2703882573052
 31
0.0
 12
32.627401599999992
 22
-110.82918825730519
 32
0.0
 13
32.627401599999992
 23
-110.2703882573052
 33
0.0
  0
SOLID
  5
22F
100
AcDbEntity
  8
None
370
              15
390
0
  6
Continuous
 62
               7
100
AcDbTrace
 10
32.868601599999991
 20
-110.82918825730519
 30
0.0
 11
32.868601599999991
 21
-110.2703882573052
 31
0.0
 12
33.427401599999996
 22
-110.82918825730519
 32
0.0
 13
33.427401599999996
 23
-110.2703882573052
 33
0.0
  0
SOLID
  5
230
100
AcDbEntity
  8
None
370
              15
390
0
  6
Continuous
 62
               7
100
AcDbTrace
 10
33.668601599999995
 20
-110.82918825730519
 30
0.0
 11
33.668601599999995
 21
-110.2703882573052
 31
0.0
 12
34.227401599999993
 22
-110.82918825730519
 32
0.0
 13
34.227401599999993
 23
-110.2703882573052
 33
0.0
  0
SOLID
  5
231
100
AcDbEntity
  8
None
370
              15
390
0
  6
Continuous
 62
               7
100
AcDbTrace
 10
34.468601599999992
 20
-110.82918825730519
 30
0.0
 11
34.468601599999992
 21
-110.2703882573052
 31
0.0
 12
35.02740159999999
 22
-110.82918825730519
 32
0.0
 13
35.02740159999999
 23
-110.2703882573052
 33
0.0
  0
SOLID
  5
232
100
AcDbEntity
  8
None
370
              15
390
0
  6
Continuous
 62
               7
100
AcDbTrace
 10
35.268601599999997
 20
-110.82918825730519
 30
0.0
 11
35.268601599999997
 21
-110.2703882573052
 31
0.0
 12
35.827401599999995
 22
-110.82918825730519
 32
0.0
 13
35.827401599999995
 23
-110.2703882573052
 33
0.0
  0
SOLID
  5
233
100
AcDbEntity
  8
None
370
              15
390
0
  6
Continuous
 62
               7
100
AcDbTrace
 10
36.068601599999994
 20
-110.82918825730519
 30
0.0
 11
36.068601599999994
 21
-110.2703882573052
 31
0.0
 12
36.627401599999992
 22
-110.82918825730519
 32
0.0
 13
36.627401599999992
 23
-110.2703882573052
 33
0.0
  0
SOLID
  5
234
100
AcDbEntity
  8
None
370
              15
390
0
  6
Continuous
 62
               7
100
AcDbTrace
 10
18.468601599999992
 20
-111.6291882573052
 30
0.0
 11
18.468601599999992
 21
-111.0703882573052
 31
0.0
 12
19.027401599999994
 22
-111.6291882573052
 32
0.0
 13
19.027401599999994
 23
-111.0703882573052
 33
0.0
  0
SOLID
  5
235
100
AcDbEntity
  8
None
370
              15
390
0
  6
Continuous
 62
               7
100
AcDbTrace
 10
19.268601599999993
 20
-111.6291882573052
 30
0.0
 11
19.268601599999993
 21
-111.0703882573052
 31
0.0
 12
19.827401599999995
 22
-111.6291882573052
 32
0.0
 13
19.827401599999995
 23
-111.0703882573052
 33
0.0
  0
SOLID
  5
236
100
AcDbEntity
  8
None
370
              15
390
0
  6
Continuous
 62
               7
100
AcDbTrace
 10
20.068601599999994
 20
-111.6291882573052
 30
0.0
 11
20.068601599999994
 21
-111.0703882573052
 31
0.0
 12
20.627401599999992
 22
-111.6291882573052
 32
0.0
 13
20.627401599999992
 23
-111.0703882573052
 33
0.0
  0
SOLID
  5
237
100
AcDbEntity
  8
None
370
              15
390
0
  6
Continuous
 62
               7
100
AcDbTrace
 10
20.868601599999995
 20
-111.6291882573052
 30
0.0
 11
20.868601599999995
 21
-111.0703882573052
 31
0.0
 12
21.427401599999992
 22
-111.6291882573052
 32
0.0
 13
21.427401599999992
 23
-111.0703882573052
 33
0.0
  0
SOLID
  5
238
100
AcDbEntity
  8
None
370
              15
390
0
  6
Continuous
 62
               7
100
AcDbTrace
 10
21.668601599999995
 20
-111.6291882573052
 30
0.0
 11
21.668601599999995
 21
-111.0703882573052
 31
0.0
 12
22.227401599999993
 22
-111.6291882573052
 32
0.0
 13
22.227401599999993
 23
-111.0703882573052
 33
0.0
  0
SOLID
  5
239
100
AcDbEntity
  8
None
370
              15
390
0
  6
Continuous
 62
               7
100
AcDbTrace
 10
22.468601599999992
 20
-111.6291882573052
 30
0.0
 11
22.468601599999992
 21
-111.0703882573052
 31
0.0
 12
23.027401599999994
 22
-111.6291882573052
 32
0.0
 13
23.027401599999994
 23
-111.0703882573052
 33
0.0
  0
SOLID
  5
23A
100
AcDbEntity
  8
None
370
              15
390
0
  6
Continuous
 62
               7
100
AcDbTrace
 10
23.268601599999993
 20
-111.6291882573052
 30
0.0
 11
23.268601599999993
 21
-111.0703882573052
 31
0.0
 12
23.827401599999995
 22
-111.6291882573052
 32
0.0
 13
23.827401599999995
 23
-111.0703882573052
 33
0.0
  0
SOLID
  5
23B
100
AcDbEntity
  8
None
370
              15
390
0
  6
Continuous
 62
               7
100
AcDbTrace
 10
24.068601599999994
 20
-111.6291882573052
 30
0.0
 11
24.068601599999994
 21
-111.0703882573052
 31
0.0
 12
24.627401599999992
 22
-111.6291882573052
 32
0.0
 13
24.627401599999992
 23
-111.0703882573052
 33
0.0
  0
SOLID
  5
23C
100
AcDbEntity
  8
None
370
              15
390
0
  6
Continuous
 62
               7
100
AcDbTrace
 10
24.868601599999995
 20
-111.6291882573052
 30
0.0
 11
24.868601599999995
 21
-111.0703882573052
 31
0.0
 12
25.427401599999992
 22
-111.6291882573052
 32
0.0
 13
25.427401599999992
 23
-111.0703882573052
 33
0.0
  0
SOLID
  5
23D
100
AcDbEntity
  8
None
370
              15
390
0
  6
Continuous
 62
               7
100
AcDbTrace
 10
25.668601599999995
 20
-111.6291882573052
 30
0.0
 11
25.668601599999995
 21
-111.0703882573052
 31
0.0
 12
26.227401599999993
 22
-111.6291882573052
 32
0.0
 13
26.227401599999993
 23
-111.0703882573052
 33
0.0
  0
SOLID
  5
23E
100
AcDbEntity
  8
None
370
              15
390
0
  6
Continuous
 62
               7
100
AcDbTrace
 10
26.468601599999992
 20
-111.6291882573052
 30
0.0
 11
26.468601599999992
 21
-111.0703882573052
 31
0.0
 12
27.027401599999994
 22
-111.6291882573052
 32
0.0
 13
27.027401599999994
 23
-111.0703882573052
 33
0.0
  0
SOLID
  5
23F
100
AcDbEntity
  8
None
370
              15
390
0
  6
Continuous
 62
               7
100
AcDbTrace
 10
27.268601599999993
 20
-111.6291882573052
 30
0.0
 11
27.268601599999993
 21
-111.0703882573052
 31
0.0
 12
27.827401599999995
 22
-111.6291882573052
 32
0.0
 13
27.827401599999995
 23
-111.0703882573052
 33
0.0
  0
SOLID
  5
240
100
AcDbEntity
  8
None
370
              15
390
0
  6
Continuous
 62
               7
100
AcDbTrace
 10
28.068601599999994
 20
-111.6291882573052
 30
0.0
 11
28.068601599999994
 21
-111.0703882573052
 31
0.0
 12
28.627401599999992
 22
-111.6291882573052
 32
0.0
 13
28.627401599999992
 23
-111.0703882573052
 33
0.0
  0
SOLID
  5
241
100
AcDbEntity
  8
None
370
              15
390
0
  6
Continuous
 62
               7
100
AcDbTrace
 10
28.868601599999995
 20
-111.6291882573052
 30
0.0
 11
28.868601599999995
 21
-111.0703882573052
 31
0.0
 12
29.427401599999992
 22
-111.6291882573052
 32
0.0
 13
29.427401599999992
 23
-111.0703882573052
 33
0.0
  0
SOLID
  5
242
100
AcDbEntity
  8
None
370
              15
390
0
  6
Continuous
 62
               7
100
AcDbTrace
 10
29.668601599999992
 20
-111.6291882573052
 30
0.0
 11
29.668601599999992
 21
-111.0703882573052
 31
0.0
 12
30.227401599999993
 22
-111.6291882573052
 32
0.0
 13
30.227401599999993
 23
-111.0703882573052
 33
0.0
  0
SOLID
  5
243
100
AcDbEntity
  8
None
370
              15
390
0
  6
Continuous
 62
               7
100
AcDbTrace
 10
30.468601599999992
 20
-111.6291882573052
 30
0.0
 11
30.468601599999992
 21
-111.0703882573052
 31
0.0
 12
31.027401599999994
 22
-111.6291882573052
 32
0.0
 13
31.027401599999994
 23
-111.0703882573052
 33
0.0
  0
SOLID
  5
244
100
AcDbEntity
  8
None
370
              15
390
0
  6
Continuous
 62
               7
100
AcDbTrace
 10
31.268601599999993
 20
-111.6291882573052
 30
0.0
 11
31.268601599999993
 21
-111.0703882573052
 31
0.0
 12
31.827401599999995
 22
-111.6291882573052
 32
0.0
 13
31.827401599999995
 23
-111.0703882573052
 33
0.0
  0
SOLID
  5
245
100
AcDbEntity
  8
None
370
              15
390
0
  6
Continuous
 62
               7
100
AcDbTrace
 10
32.068601599999994
 20
-111.6291882573052
 30
0.0
 11
32.068601599999994
 21
-111.0703882573052
 31
0.0
 12
32.627401599999992
 22
-111.6291882573052
 32
0.0
 13
32.627401599999992
 23
-111.0703882573052
 33
0.0
  0
SOLID
  5
246
100
AcDbEntity
  8
None
370
              15
390
0
  6
Continuous
 62
               7
100
AcDbTrace
 10
32.868601599999991
 20
-111.6291882573052
 30
0.0
 11
32.868601599999991
 21
-111.0703882573052
 31
0.0
 12
33.427401599999996
 22
-111.6291882573052
 32
0.0
 13
33.427401599999996
 23
-111.0703882573052
 33
0.0
  0
SOLID
  5
247
100
AcDbEntity
  8
None
370
              15
390
0
  6
Continuous
 62
               7
100
AcDbTrace
 10
33.668601599999995
 20
-111.6291882573052
 30
0.0
 11
33.668601599999995
 21
-111.0703882573052
 31
0.0
 12
34.227401599999993
 22
-111.6291882573052
 32
0.0
 13
34.227401599999993
 23
-111.0703882573052
 33
0.0
  0
SOLID
  5
248
100
AcDbEntity
  8
None
370
              15
390
0
  6
Continuous
 62
               7
100
AcDbTrace
 10
34.468601599999992
 20
-111.6291882573052
 30
0.0
 11
34.468601599999992
 21
-111.0703882573052
 31
0.0
 12
35.02740159999999
 22
-111.6291882573052
 32
0.0
 13
35.02740159999999
 23
-111.0703882573052
 33
0.0
  0
SOLID
  5
249
100
AcDbEntity
  8
None
370
              15
390
0
  6
Continuous
 62
               7
100
AcDbTrace
 10
35.268601599999997
 20
-111.6291882573052
 30
0.0
 11
35.268601599999997
 21
-111.0703882573052
 31
0.0
 12
35.827401599999995
 22
-111.6291882573052
 32
0.0
 13
35.827401599999995
 23
-111.0703882573052
 33
0.0
  0
SOLID
  5
24A
100
AcDbEntity
  8
None
370
              15
390
0
  6
Continuous
 62
               7
100
AcDbTrace
 10
36.068601599999994
 20
-111.6291882573052
 30
0.0
 11
36.068601599999994
 21
-111.0703882573052
 31
0.0
 12
36.627401599999992
 22
-111.6291882573052
 32
0.0
 13
36.627401599999992
 23
-111.0703882573052
 33
0.0
  0
SOLID
  5
24B
100
AcDbEntity
  8
None
370
              15
390
0
  6
Continuous
 62
               7
100
AcDbTrace
 10
18.468601599999992
 20
-112.42918825730519
 30
0.0
 11
18.468601599999992
 21
-111.87038825730519
 31
0.0
 12
19.027401599999994
 22
-112.42918825730519
 32
0.0
 13
19.027401599999994
 23
-111.87038825730519
 33
0.0
  0
SOLID
  5
24C
100
AcDbEntity
  8
None
370
              15
390
0
  6
Continuous
 62
               7
100
AcDbTrace
 10
19.268601599999993
 20
-112.42918825730519
 30
0.0
 11
19.268601599999993
 21
-111.87038825730519
 31
0.0
 12
19.827401599999995
 22
-112.42918825730519
 32
0.0
 13
19.827401599999995
 23
-111.87038825730519
 33
0.0
  0
SOLID
  5
24D
100
AcDbEntity
  8
None
370
              15
390
0
  6
Continuous
 62
               7
100
AcDbTrace
 10
20.068601599999994
 20
-112.42918825730519
 30
0.0
 11
20.068601599999994
 21
-111.87038825730519
 31
0.0
 12
20.627401599999992
 22
-112.42918825730519
 32
0.0
 13
20.627401599999992
 23
-111.87038825730519
 33
0.0
  0
SOLID
  5
24E
100
AcDbEntity
  8
None
370
              15
390
0
  6
Continuous
 62
               7
100
AcDbTrace
 10
20.868601599999995
 20
-112.42918825730519
 30
0.0
 11
20.868601599999995
 21
-111.87038825730519
 31
0.0
 12
21.427401599999992
 22
-112.42918825730519
 32
0.0
 13
21.427401599999992
 23
-111.87038825730519
 33
0.0
  0
SOLID
  5
24F
100
AcDbEntity
  8
None
370
              15
390
0
  6
Continuous
 62
               7
100
AcDbTrace
 10
21.668601599999995
 20
-112.42918825730519
 30
0.0
 11
21.668601599999995
 21
-111.87038825730519
 31
0.0
 12
22.227401599999993
 22
-112.42918825730519
 32
0.0
 13
22.227401599999993
 23
-111.87038825730519
 33
0.0
  0
SOLID
  5
250
100
AcDbEntity
  8
None
370
              15
390
0
  6
Continuous
 62
               7
100
AcDbTrace
 10
22.468601599999992
 20
-112.42918825730519
 30
0.0
 11
22.468601599999992
 21
-111.87038825730519
 31
0.0
 12
23.027401599999994
 22
-112.42918825730519
 32
0.0
 13
23.027401599999994
 23
-111.87038825730519
 33
0.0
  0
SOLID
  5
251
100
AcDbEntity
  8
None
370
              15
390
0
  6
Continuous
 62
               7
100
AcDbTrace
 10
23.268601599999993
 20
-112.42918825730519
 30
0.0
 11
23.268601599999993
 21
-111.87038825730519
 31
0.0
 12
23.827401599999995
 22
-112.42918825730519
 32
0.0
 13
23.827401599999995
 23
-111.87038825730519
 33
0.0
  0
SOLID
  5
252
100
AcDbEntity
  8
None
370
              15
390
0
  6
Continuous
 62
               7
100
AcDbTrace
 10
24.068601599999994
 20
-112.42918825730519
 30
0.0
 11
24.068601599999994
 21
-111.87038825730519
 31
0.0
 12
24.627401599999992
 22
-112.42918825730519
 32
0.0
 13
24.627401599999992
 23
-111.87038825730519
 33
0.0
  0
SOLID
  5
253
100
AcDbEntity
  8
None
370
              15
390
0
  6
Continuous
 62
               7
100
AcDbTrace
 10
24.868601599999995
 20
-112.42918825730519
 30
0.0
 11
24.868601599999995
 21
-111.87038825730519
 31
0.0
 12
25.427401599999992
 22
-112.42918825730519
 32
0.0
 13
25.427401599999992
 23
-111.87038825730519
 33
0.0
  0
SOLID
  5
254
100
AcDbEntity
  8
None
370
              15
390
0
  6
Continuous
 62
               7
100
AcDbTrace
 10
25.668601599999995
 20
-112.42918825730519
 30
0.0
 11
25.668601599999995
 21
-111.87038825730519
 31
0.0
 12
26.227401599999993
 22
-112.42918825730519
 32
0.0
 13
26.227401599999993
 23
-111.87038825730519
 33
0.0
  0
SOLID
  5
255
100
AcDbEntity
  8
None
370
              15
390
0
  6
Continuous
 62
               7
100
AcDbTrace
 10
26.468601599999992
 20
-112.42918825730519
 30
0.0
 11
26.468601599999992
 21
-111.87038825730519
 31
0.0
 12
27.027401599999994
 22
-112.42918825730519
 32
0.0
 13
27.027401599999994
 23
-111.87038825730519
 33
0.0
  0
SOLID
  5
256
100
AcDbEntity
  8
None
370
              15
390
0
  6
Continuous
 62
               7
100
AcDbTrace
 10
27.268601599999993
 20
-112.42918825730519
 30
0.0
 11
27.268601599999993
 21
-111.87038825730519
 31
0.0
 12
27.827401599999995
 22
-112.42918825730519
 32
0.0
 13
27.827401599999995
 23
-111.87038825730519
 33
0.0
  0
SOLID
  5
257
100
AcDbEntity
  8
None
370
              15
390
0
  6
Continuous
 62
               7
100
AcDbTrace
 10
28.068601599999994
 20
-112.42918825730519
 30
0.0
 11
28.068601599999994
 21
-111.87038825730519
 31
0.0
 12
28.627401599999992
 22
-112.42918825730519
 32
0.0
 13
28.627401599999992
 23
-111.87038825730519
 33
0.0
  0
SOLID
  5
258
100
AcDbEntity
  8
None
370
              15
390
0
  6
Continuous
 62
               7
100
AcDbTrace
 10
28.868601599999995
 20
-112.42918825730519
 30
0.0
 11
28.868601599999995
 21
-111.87038825730519
 31
0.0
 12
29.427401599999992
 22
-112.42918825730519
 32
0.0
 13
29.427401599999992
 23
-111.87038825730519
 33
0.0
  0
SOLID
  5
259
100
AcDbEntity
  8
None
370
              15
390
0
  6
Continuous
 62
               7
100
AcDbTrace
 10
29.668601599999992
 20
-112.42918825730519
 30
0.0
 11
29.668601599999992
 21
-111.87038825730519
 31
0.0
 12
30.227401599999993
 22
-112.42918825730519
 32
0.0
 13
30.227401599999993
 23
-111.87038825730519
 33
0.0
  0
SOLID
  5
25A
100
AcDbEntity
  8
None
370
              15
390
0
  6
Continuous
 62
               7
100
AcDbTrace
 10
30.468601599999992
 20
-112.42918825730519
 30
0.0
 11
30.468601599999992
 21
-111.87038825730519
 31
0.0
 12
31.027401599999994
 22
-112.42918825730519
 32
0.0
 13
31.027401599999994
 23
-111.87038825730519
 33
0.0
  0
SOLID
  5
25B
100
AcDbEntity
  8
None
370
              15
390
0
  6
Continuous
 62
               7
100
AcDbTrace
 10
31.268601599999993
 20
-112.42918825730519
 30
0.0
 11
31.268601599999993
 21
-111.87038825730519
 31
0.0
 12
31.827401599999995
 22
-112.42918825730519
 32
0.0
 13
31.827401599999995
 23
-111.87038825730519
 33
0.0
  0
SOLID
  5
25C
100
AcDbEntity
  8
None
370
              15
390
0
  6
Continuous
 62
               7
100
AcDbTrace
 10
32.068601599999994
 20
-112.42918825730519
 30
0.0
 11
32.068601599999994
 21
-111.87038825730519
 31
0.0
 12
32.627401599999992
 22
-112.42918825730519
 32
0.0
 13
32.627401599999992
 23
-111.87038825730519
 33
0.0
  0
SOLID
  5
25D
100
AcDbEntity
  8
None
370
              15
390
0
  6
Continuous
 62
               7
100
AcDbTrace
 10
32.868601599999991
 20
-112.42918825730519
 30
0.0
 11
32.868601599999991
 21
-111.87038825730519
 31
0.0
 12
33.427401599999996
 22
-112.42918825730519
 32
0.0
 13
33.427401599999996
 23
-111.87038825730519
 33
0.0
  0
SOLID
  5
25E
100
AcDbEntity
  8
None
370
              15
390
0
  6
Continuous
 62
               7
100
AcDbTrace
 10
33.668601599999995
 20
-112.42918825730519
 30
0.0
 11
33.668601599999995
 21
-111.87038825730519
 31
0.0
 12
34.227401599999993
 22
-112.42918825730519
 32
0.0
 13
34.227401599999993
 23
-111.87038825730519
 33
0.0
  0
SOLID
  5
25F
100
AcDbEntity
  8
None
370
              15
390
0
  6
Continuous
 62
               7
100
AcDbTrace
 10
34.468601599999992
 20
-112.42918825730519
 30
0.0
 11
34.468601599999992
 21
-111.87038825730519
 31
0.0
 12
35.02740159999999
 22
-112.42918825730519
 32
0.0
 13
35.02740159999999
 23
-111.87038825730519
 33
0.0
  0
SOLID
  5
260
100
AcDbEntity
  8
None
370
              15
390
0
  6
Continuous
 62
               7
100
AcDbTrace
 10
35.268601599999997
 20
-112.42918825730519
 30
0.0
 11
35.268601599999997
 21
-111.87038825730519
 31
0.0
 12
35.827401599999995
 22
-112.42918825730519
 32
0.0
 13
35.827401599999995
 23
-111.87038825730519
 33
0.0
  0
SOLID
  5
261
100
AcDbEntity
  8
None
370
              15
390
0
  6
Continuous
 62
               7
100
AcDbTrace
 10
36.068601599999994
 20
-112.42918825730519
 30
0.0
 11
36.068601599999994
 21
-111.87038825730519
 31
0.0
 12
36.627401599999992
 22
-112.42918825730519
 32
0.0
 13
36.627401599999992
 23
-111.87038825730519
 33
0.0
  0
SOLID
  5
262
100
AcDbEntity
  8
None
370
              15
390
0
  6
Continuous
 62
               7
100
AcDbTrace
 10
18.468601599999992
 20
-113.2291882573052
 30
0.0
 11
18.468601599999992
 21
-112.67038825730519
 31
0.0
 12
19.027401599999994
 22
-113.2291882573052
 32
0.0
 13
19.027401599999994
 23
-112.67038825730519
 33
0.0
  0
SOLID
  5
263
100
AcDbEntity
  8
None
370
              15
390
0
  6
Continuous
 62
               7
100
AcDbTrace
 10
19.268601599999993
 20
-113.2291882573052
 30
0.0
 11
19.268601599999993
 21
-112.67038825730519
 31
0.0
 12
19.827401599999995
 22
-113.2291882573052
 32
0.0
 13
19.827401599999995
 23
-112.67038825730519
 33
0.0
  0
SOLID
  5
264
100
AcDbEntity
  8
None
370
              15
390
0
  6
Continuous
 62
               7
100
AcDbTrace
 10
20.068601599999994
 20
-113.2291882573052
 30
0.0
 11
20.068601599999994
 21
-112.67038825730519
 31
0.0
 12
20.627401599999992
 22
-113.2291882573052
 32
0.0
 13
20.627401599999992
 23
-112.67038825730519
 33
0.0
  0
SOLID
  5
265
100
AcDbEntity
  8
None
370
              15
390
0
  6
Continuous
 62
               7
100
AcDbTrace
 10
20.868601599999995
 20
-113.2291882573052
 30
0.0
 11
20.868601599999995
 21
-112.67038825730519
 31
0.0
 12
21.427401599999992
 22
-113.2291882573052
 32
0.0
 13
21.427401599999992
 23
-112.67038825730519
 33
0.0
  0
SOLID
  5
266
100
AcDbEntity
  8
None
370
              15
390
0
  6
Continuous
 62
               7
100
AcDbTrace
 10
21.668601599999995
 20
-113.2291882573052
 30
0.0
 11
21.668601599999995
 21
-112.67038825730519
 31
0.0
 12
22.227401599999993
 22
-113.2291882573052
 32
0.0
 13
22.227401599999993
 23
-112.67038825730519
 33
0.0
  0
SOLID
  5
267
100
AcDbEntity
  8
None
370
              15
390
0
  6
Continuous
 62
               7
100
AcDbTrace
 10
22.468601599999992
 20
-113.2291882573052
 30
0.0
 11
22.468601599999992
 21
-112.67038825730519
 31
0.0
 12
23.027401599999994
 22
-113.2291882573052
 32
0.0
 13
23.027401599999994
 23
-112.67038825730519
 33
0.0
  0
SOLID
  5
268
100
AcDbEntity
  8
None
370
              15
390
0
  6
Continuous
 62
               7
100
AcDbTrace
 10
23.268601599999993
 20
-113.2291882573052
 30
0.0
 11
23.268601599999993
 21
-112.67038825730519
 31
0.0
 12
23.827401599999995
 22
-113.2291882573052
 32
0.0
 13
23.827401599999995
 23
-112.67038825730519
 33
0.0
  0
SOLID
  5
269
100
AcDbEntity
  8
None
370
              15
390
0
  6
Continuous
 62
               7
100
AcDbTrace
 10
24.068601599999994
 20
-113.2291882573052
 30
0.0
 11
24.068601599999994
 21
-112.67038825730519
 31
0.0
 12
24.627401599999992
 22
-113.2291882573052
 32
0.0
 13
24.627401599999992
 23
-112.67038825730519
 33
0.0
  0
SOLID
  5
26A
100
AcDbEntity
  8
None
370
              15
390
0
  6
Continuous
 62
               7
100
AcDbTrace
 10
24.868601599999995
 20
-113.2291882573052
 30
0.0
 11
24.868601599999995
 21
-112.67038825730519
 31
0.0
 12
25.427401599999992
 22
-113.2291882573052
 32
0.0
 13
25.427401599999992
 23
-112.67038825730519
 33
0.0
  0
SOLID
  5
26B
100
AcDbEntity
  8
None
370
              15
390
0
  6
Continuous
 62
               7
100
AcDbTrace
 10
25.668601599999995
 20
-113.2291882573052
 30
0.0
 11
25.668601599999995
 21
-112.67038825730519
 31
0.0
 12
26.227401599999993
 22
-113.2291882573052
 32
0.0
 13
26.227401599999993
 23
-112.67038825730519
 33
0.0
  0
SOLID
  5
26C
100
AcDbEntity
  8
None
370
              15
390
0
  6
Continuous
 62
               7
100
AcDbTrace
 10
26.468601599999992
 20
-113.2291882573052
 30
0.0
 11
26.468601599999992
 21
-112.67038825730519
 31
0.0
 12
27.027401599999994
 22
-113.2291882573052
 32
0.0
 13
27.027401599999994
 23
-112.67038825730519
 33
0.0
  0
SOLID
  5
26D
100
AcDbEntity
  8
None
370
              15
390
0
  6
Continuous
 62
               7
100
AcDbTrace
 10
27.268601599999993
 20
-113.2291882573052
 30
0.0
 11
27.268601599999993
 21
-112.67038825730519
 31
0.0
 12
27.827401599999995
 22
-113.2291882573052
 32
0.0
 13
27.827401599999995
 23
-112.67038825730519
 33
0.0
  0
SOLID
  5
26E
100
AcDbEntity
  8
None
370
              15
390
0
  6
Continuous
 62
               7
100
AcDbTrace
 10
28.068601599999994
 20
-113.2291882573052
 30
0.0
 11
28.068601599999994
 21
-112.67038825730519
 31
0.0
 12
28.627401599999992
 22
-113.2291882573052
 32
0.0
 13
28.627401599999992
 23
-112.67038825730519
 33
0.0
  0
SOLID
  5
26F
100
AcDbEntity
  8
None
370
              15
390
0
  6
Continuous
 62
               7
100
AcDbTrace
 10
28.868601599999995
 20
-113.2291882573052
 30
0.0
 11
28.868601599999995
 21
-112.67038825730519
 31
0.0
 12
29.427401599999992
 22
-113.2291882573052
 32
0.0
 13
29.427401599999992
 23
-112.67038825730519
 33
0.0
  0
SOLID
  5
270
100
AcDbEntity
  8
None
370
              15
390
0
  6
Continuous
 62
               7
100
AcDbTrace
 10
29.668601599999992
 20
-113.2291882573052
 30
0.0
 11
29.668601599999992
 21
-112.67038825730519
 31
0.0
 12
30.227401599999993
 22
-113.2291882573052
 32
0.0
 13
30.227401599999993
 23
-112.67038825730519
 33
0.0
  0
SOLID
  5
271
100
AcDbEntity
  8
None
370
              15
390
0
  6
Continuous
 62
               7
100
AcDbTrace
 10
30.468601599999992
 20
-113.2291882573052
 30
0.0
 11
30.468601599999992
 21
-112.67038825730519
 31
0.0
 12
31.027401599999994
 22
-113.2291882573052
 32
0.0
 13
31.027401599999994
 23
-112.67038825730519
 33
0.0
  0
SOLID
  5
272
100
AcDbEntity
  8
None
370
              15
390
0
  6
Continuous
 62
               7
100
AcDbTrace
 10
31.268601599999993
 20
-113.2291882573052
 30
0.0
 11
31.268601599999993
 21
-112.67038825730519
 31
0.0
 12
31.827401599999995
 22
-113.2291882573052
 32
0.0
 13
31.827401599999995
 23
-112.67038825730519
 33
0.0
  0
SOLID
  5
273
100
AcDbEntity
  8
None
370
              15
390
0
  6
Continuous
 62
               7
100
AcDbTrace
 10
32.068601599999994
 20
-113.2291882573052
 30
0.0
 11
32.068601599999994
 21
-112.67038825730519
 31
0.0
 12
32.627401599999992
 22
-113.2291882573052
 32
0.0
 13
32.627401599999992
 23
-112.67038825730519
 33
0.0
  0
SOLID
  5
274
100
AcDbEntity
  8
None
370
              15
390
0
  6
Continuous
 62
               7
100
AcDbTrace
 10
32.868601599999991
 20
-113.2291882573052
 30
0.0
 11
32.868601599999991
 21
-112.67038825730519
 31
0.0
 12
33.427401599999996
 22
-113.2291882573052
 32
0.0
 13
33.427401599999996
 23
-112.67038825730519
 33
0.0
  0
SOLID
  5
275
100
AcDbEntity
  8
None
370
              15
390
0
  6
Continuous
 62
               7
100
AcDbTrace
 10
33.668601599999995
 20
-113.2291882573052
 30
0.0
 11
33.668601599999995
 21
-112.67038825730519
 31
0.0
 12
34.227401599999993
 22
-113.2291882573052
 32
0.0
 13
34.227401599999993
 23
-112.67038825730519
 33
0.0
  0
SOLID
  5
276
100
AcDbEntity
  8
None
370
              15
390
0
  6
Continuous
 62
               7
100
AcDbTrace
 10
34.468601599999992
 20
-113.2291882573052
 30
0.0
 11
34.468601599999992
 21
-112.67038825730519
 31
0.0
 12
35.02740159999999
 22
-113.2291882573052
 32
0.0
 13
35.02740159999999
 23
-112.67038825730519
 33
0.0
  0
SOLID
  5
277
100
AcDbEntity
  8
None
370
              15
390
0
  6
Continuous
 62
               7
100
AcDbTrace
 10
35.268601599999997
 20
-113.2291882573052
 30
0.0
 11
35.268601599999997
 21
-112.67038825730519
 31
0.0
 12
35.827401599999995
 22
-113.2291882573052
 32
0.0
 13
35.827401599999995
 23
-112.67038825730519
 33
0.0
  0
SOLID
  5
278
100
AcDbEntity
  8
None
370
              15
390
0
  6
Continuous
 62
               7
100
AcDbTrace
 10
36.068601599999994
 20
-113.2291882573052
 30
0.0
 11
36.068601599999994
 21
-112.67038825730519
 31
0.0
 12
36.627401599999992
 22
-113.2291882573052
 32
0.0
 13
36.627401599999992
 23
-112.67038825730519
 33
0.0
  0
SOLID
  5
279
100
AcDbEntity
  8
None
370
              15
390
0
  6
Continuous
 62
               7
100
AcDbTrace
 10
18.468601599999992
 20
-114.02918825730519
 30
0.0
 11
18.468601599999992
 21
-113.47038825730519
 31
0.0
 12
19.027401599999994
 22
-114.02918825730519
 32
0.0
 13
19.027401599999994
 23
-113.47038825730519
 33
0.0
  0
SOLID
  5
27A
100
AcDbEntity
  8
None
370
              15
390
0
  6
Continuous
 62
               7
100
AcDbTrace
 10
19.268601599999993
 20
-114.02918825730519
 30
0.0
 11
19.268601599999993
 21
-113.47038825730519
 31
0.0
 12
19.827401599999995
 22
-114.02918825730519
 32
0.0
 13
19.827401599999995
 23
-113.47038825730519
 33
0.0
  0
SOLID
  5
27B
100
AcDbEntity
  8
None
370
              15
390
0
  6
Continuous
 62
               7
100
AcDbTrace
 10
20.068601599999994
 20
-114.02918825730519
 30
0.0
 11
20.068601599999994
 21
-113.47038825730519
 31
0.0
 12
20.627401599999992
 22
-114.02918825730519
 32
0.0
 13
20.627401599999992
 23
-113.47038825730519
 33
0.0
  0
SOLID
  5
27C
100
AcDbEntity
  8
None
370
              15
390
0
  6
Continuous
 62
               7
100
AcDbTrace
 10
20.868601599999995
 20
-114.02918825730519
 30
0.0
 11
20.868601599999995
 21
-113.47038825730519
 31
0.0
 12
21.427401599999992
 22
-114.02918825730519
 32
0.0
 13
21.427401599999992
 23
-113.47038825730519
 33
0.0
  0
SOLID
  5
27D
100
AcDbEntity
  8
None
370
              15
390
0
  6
Continuous
 62
               7
100
AcDbTrace
 10
21.668601599999995
 20
-114.02918825730519
 30
0.0
 11
21.668601599999995
 21
-113.47038825730519
 31
0.0
 12
22.227401599999993
 22
-114.02918825730519
 32
0.0
 13
22.227401599999993
 23
-113.47038825730519
 33
0.0
  0
SOLID
  5
27E
100
AcDbEntity
  8
None
370
              15
390
0
  6
Continuous
 62
               7
100
AcDbTrace
 10
22.468601599999992
 20
-114.02918825730519
 30
0.0
 11
22.468601599999992
 21
-113.47038825730519
 31
0.0
 12
23.027401599999994
 22
-114.02918825730519
 32
0.0
 13
23.027401599999994
 23
-113.47038825730519
 33
0.0
  0
SOLID
  5
27F
100
AcDbEntity
  8
None
370
              15
390
0
  6
Continuous
 62
               7
100
AcDbTrace
 10
23.268601599999993
 20
-114.02918825730519
 30
0.0
 11
23.268601599999993
 21
-113.47038825730519
 31
0.0
 12
23.827401599999995
 22
-114.02918825730519
 32
0.0
 13
23.827401599999995
 23
-113.47038825730519
 33
0.0
  0
SOLID
  5
280
100
AcDbEntity
  8
None
370
              15
390
0
  6
Continuous
 62
               7
100
AcDbTrace
 10
24.068601599999994
 20
-114.02918825730519
 30
0.0
 11
24.068601599999994
 21
-113.47038825730519
 31
0.0
 12
24.627401599999992
 22
-114.02918825730519
 32
0.0
 13
24.627401599999992
 23
-113.47038825730519
 33
0.0
  0
SOLID
  5
281
100
AcDbEntity
  8
None
370
              15
390
0
  6
Continuous
 62
               7
100
AcDbTrace
 10
24.868601599999995
 20
-114.02918825730519
 30
0.0
 11
24.868601599999995
 21
-113.47038825730519
 31
0.0
 12
25.427401599999992
 22
-114.02918825730519
 32
0.0
 13
25.427401599999992
 23
-113.47038825730519
 33
0.0
  0
SOLID
  5
282
100
AcDbEntity
  8
None
370
              15
390
0
  6
Continuous
 62
               7
100
AcDbTrace
 10
25.668601599999995
 20
-114.02918825730519
 30
0.0
 11
25.668601599999995
 21
-113.47038825730519
 31
0.0
 12
26.227401599999993
 22
-114.02918825730519
 32
0.0
 13
26.227401599999993
 23
-113.47038825730519
 33
0.0
  0
SOLID
  5
283
100
AcDbEntity
  8
None
370
              15
390
0
  6
Continuous
 62
               7
100
AcDbTrace
 10
26.468601599999992
 20
-114.02918825730519
 30
0.0
 11
26.468601599999992
 21
-113.47038825730519
 31
0.0
 12
27.027401599999994
 22
-114.02918825730519
 32
0.0
 13
27.027401599999994
 23
-113.47038825730519
 33
0.0
  0
SOLID
  5
284
100
AcDbEntity
  8
None
370
              15
390
0
  6
Continuous
 62
               7
100
AcDbTrace
 10
27.268601599999993
 20
-114.02918825730519
 30
0.0
 11
27.268601599999993
 21
-113.47038825730519
 31
0.0
 12
27.827401599999995
 22
-114.02918825730519
 32
0.0
 13
27.827401599999995
 23
-113.47038825730519
 33
0.0
  0
SOLID
  5
285
100
AcDbEntity
  8
None
370
              15
390
0
  6
Continuous
 62
               7
100
AcDbTrace
 10
28.068601599999994
 20
-114.02918825730519
 30
0.0
 11
28.068601599999994
 21
-113.47038825730519
 31
0.0
 12
28.627401599999992
 22
-114.02918825730519
 32
0.0
 13
28.627401599999992
 23
-113.47038825730519
 33
0.0
  0
SOLID
  5
286
100
AcDbEntity
  8
None
370
              15
390
0
  6
Continuous
 62
               7
100
AcDbTrace
 10
28.868601599999995
 20
-114.02918825730519
 30
0.0
 11
28.868601599999995
 21
-113.47038825730519
 31
0.0
 12
29.427401599999992
 22
-114.02918825730519
 32
0.0
 13
29.427401599999992
 23
-113.47038825730519
 33
0.0
  0
SOLID
  5
287
100
AcDbEntity
  8
None
370
              15
390
0
  6
Continuous
 62
               7
100
AcDbTrace
 10
29.668601599999992
 20
-114.02918825730519
 30
0.0
 11
29.668601599999992
 21
-113.47038825730519
 31
0.0
 12
30.227401599999993
 22
-114.02918825730519
 32
0.0
 13
30.227401599999993
 23
-113.47038825730519
 33
0.0
  0
SOLID
  5
288
100
AcDbEntity
  8
None
370
              15
390
0
  6
Continuous
 62
               7
100
AcDbTrace
 10
30.468601599999992
 20
-114.02918825730519
 30
0.0
 11
30.468601599999992
 21
-113.47038825730519
 31
0.0
 12
31.027401599999994
 22
-114.02918825730519
 32
0.0
 13
31.027401599999994
 23
-113.47038825730519
 33
0.0
  0
SOLID
  5
289
100
AcDbEntity
  8
None
370
              15
390
0
  6
Continuous
 62
               7
100
AcDbTrace
 10
31.268601599999993
 20
-114.02918825730519
 30
0.0
 11
31.268601599999993
 21
-113.47038825730519
 31
0.0
 12
31.827401599999995
 22
-114.02918825730519
 32
0.0
 13
31.827401599999995
 23
-113.47038825730519
 33
0.0
  0
SOLID
  5
28A
100
AcDbEntity
  8
None
370
              15
390
0
  6
Continuous
 62
               7
100
AcDbTrace
 10
32.068601599999994
 20
-114.02918825730519
 30
0.0
 11
32.068601599999994
 21
-113.47038825730519
 31
0.0
 12
32.627401599999992
 22
-114.02918825730519
 32
0.0
 13
32.627401599999992
 23
-113.47038825730519
 33
0.0
  0
SOLID
  5
28B
100
AcDbEntity
  8
None
370
              15
390
0
  6
Continuous
 62
               7
100
AcDbTrace
 10
32.868601599999991
 20
-114.02918825730519
 30
0.0
 11
32.868601599999991
 21
-113.47038825730519
 31
0.0
 12
33.427401599999996
 22
-114.02918825730519
 32
0.0
 13
33.427401599999996
 23
-113.47038825730519
 33
0.0
  0
SOLID
  5
28C
100
AcDbEntity
  8
None
370
              15
390
0
  6
Continuous
 62
               7
100
AcDbTrace
 10
33.668601599999995
 20
-114.02918825730519
 30
0.0
 11
33.668601599999995
 21
-113.47038825730519
 31
0.0
 12
34.227401599999993
 22
-114.02918825730519
 32
0.0
 13
34.227401599999993
 23
-113.47038825730519
 33
0.0
  0
SOLID
  5
28D
100
AcDbEntity
  8
None
370
              15
390
0
  6
Continuous
 62
               7
100
AcDbTrace
 10
34.468601599999992
 20
-114.02918825730519
 30
0.0
 11
34.468601599999992
 21
-113.47038825730519
 31
0.0
 12
35.02740159999999
 22
-114.02918825730519
 32
0.0
 13
35.02740159999999
 23
-113.47038825730519
 33
0.0
  0
SOLID
  5
28E
100
AcDbEntity
  8
None
370
              15
390
0
  6
Continuous
 62
               7
100
AcDbTrace
 10
35.268601599999997
 20
-114.02918825730519
 30
0.0
 11
35.268601599999997
 21
-113.47038825730519
 31
0.0
 12
35.827401599999995
 22
-114.02918825730519
 32
0.0
 13
35.827401599999995
 23
-113.47038825730519
 33
0.0
  0
SOLID
  5
28F
100
AcDbEntity
  8
None
370
              15
390
0
  6
Continuous
 62
               7
100
AcDbTrace
 10
36.068601599999994
 20
-114.02918825730519
 30
0.0
 11
36.068601599999994
 21
-113.47038825730519
 31
0.0
 12
36.627401599999992
 22
-114.02918825730519
 32
0.0
 13
36.627401599999992
 23
-113.47038825730519
 33
0.0
  0
SOLID
  5
290
100
AcDbEntity
  8
None
370
              15
390
0
  6
Continuous
 62
               7
100
AcDbTrace
 10
18.468601599999992
 20
-114.82918825730519
 30
0.0
 11
18.468601599999992
 21
-114.2703882573052
 31
0.0
 12
19.027401599999994
 22
-114.82918825730519
 32
0.0
 13
19.027401599999994
 23
-114.2703882573052
 33
0.0
  0
SOLID
  5
291
100
AcDbEntity
  8
None
370
              15
390
0
  6
Continuous
 62
               7
100
AcDbTrace
 10
19.268601599999993
 20
-114.82918825730519
 30
0.0
 11
19.268601599999993
 21
-114.2703882573052
 31
0.0
 12
19.827401599999995
 22
-114.82918825730519
 32
0.0
 13
19.827401599999995
 23
-114.2703882573052
 33
0.0
  0
SOLID
  5
292
100
AcDbEntity
  8
None
370
              15
390
0
  6
Continuous
 62
               7
100
AcDbTrace
 10
20.068601599999994
 20
-114.82918825730519
 30
0.0
 11
20.068601599999994
 21
-114.2703882573052
 31
0.0
 12
20.627401599999992
 22
-114.82918825730519
 32
0.0
 13
20.627401599999992
 23
-114.2703882573052
 33
0.0
  0
SOLID
  5
293
100
AcDbEntity
  8
None
370
              15
390
0
  6
Continuous
 62
               7
100
AcDbTrace
 10
20.868601599999995
 20
-114.82918825730519
 30
0.0
 11
20.868601599999995
 21
-114.2703882573052
 31
0.0
 12
21.427401599999992
 22
-114.82918825730519
 32
0.0
 13
21.427401599999992
 23
-114.2703882573052
 33
0.0
  0
SOLID
  5
294
100
AcDbEntity
  8
None
370
              15
390
0
  6
Continuous
 62
               7
100
AcDbTrace
 10
21.668601599999995
 20
-114.82918825730519
 30
0.0
 11
21.668601599999995
 21
-114.2703882573052
 31
0.0
 12
22.227401599999993
 22
-114.82918825730519
 32
0.0
 13
22.227401599999993
 23
-114.2703882573052
 33
0.0
  0
SOLID
  5
295
100
AcDbEntity
  8
None
370
              15
390
0
  6
Continuous
 62
               7
100
AcDbTrace
 10
22.468601599999992
 20
-114.82918825730519
 30
0.0
 11
22.468601599999992
 21
-114.2703882573052
 31
0.0
 12
23.027401599999994
 22
-114.82918825730519
 32
0.0
 13
23.027401599999994
 23
-114.2703882573052
 33
0.0
  0
SOLID
  5
296
100
AcDbEntity
  8
None
370
              15
390
0
  6
Continuous
 62
               7
100
AcDbTrace
 10
23.268601599999993
 20
-114.82918825730519
 30
0.0
 11
23.268601599999993
 21
-114.2703882573052
 31
0.0
 12
23.827401599999995
 22
-114.82918825730519
 32
0.0
 13
23.827401599999995
 23
-114.2703882573052
 33
0.0
  0
SOLID
  5
297
100
AcDbEntity
  8
None
370
              15
390
0
  6
Continuous
 62
               7
100
AcDbTrace
 10
24.068601599999994
 20
-114.82918825730519
 30
0.0
 11
24.068601599999994
 21
-114.2703882573052
 31
0.0
 12
24.627401599999992
 22
-114.82918825730519
 32
0.0
 13
24.627401599999992
 23
-114.2703882573052
 33
0.0
  0
SOLID
  5
298
100
AcDbEntity
  8
None
370
              15
390
0
  6
Continuous
 62
               7
100
AcDbTrace
 10
24.868601599999995
 20
-114.82918825730519
 30
0.0
 11
24.868601599999995
 21
-114.2703882573052
 31
0.0
 12
25.427401599999992
 22
-114.82918825730519
 32
0.0
 13
25.427401599999992
 23
-114.2703882573052
 33
0.0
  0
SOLID
  5
299
100
AcDbEntity
  8
None
370
              15
390
0
  6
Continuous
 62
               7
100
AcDbTrace
 10
25.668601599999995
 20
-114.82918825730519
 30
0.0
 11
25.668601599999995
 21
-114.2703882573052
 31
0.0
 12
26.227401599999993
 22
-114.82918825730519
 32
0.0
 13
26.227401599999993
 23
-114.2703882573052
 33
0.0
  0
SOLID
  5
29A
100
AcDbEntity
  8
None
370
              15
390
0
  6
Continuous
 62
               7
100
AcDbTrace
 10
26.468601599999992
 20
-114.82918825730519
 30
0.0
 11
26.468601599999992
 21
-114.2703882573052
 31
0.0
 12
27.027401599999994
 22
-114.82918825730519
 32
0.0
 13
27.027401599999994
 23
-114.2703882573052
 33
0.0
  0
SOLID
  5
29B
100
AcDbEntity
  8
None
370
              15
390
0
  6
Continuous
 62
               7
100
AcDbTrace
 10
27.268601599999993
 20
-114.82918825730519
 30
0.0
 11
27.268601599999993
 21
-114.2703882573052
 31
0.0
 12
27.827401599999995
 22
-114.82918825730519
 32
0.0
 13
27.827401599999995
 23
-114.2703882573052
 33
0.0
  0
SOLID
  5
29C
100
AcDbEntity
  8
None
370
              15
390
0
  6
Continuous
 62
               7
100
AcDbTrace
 10
28.068601599999994
 20
-114.82918825730519
 30
0.0
 11
28.068601599999994
 21
-114.2703882573052
 31
0.0
 12
28.627401599999992
 22
-114.82918825730519
 32
0.0
 13
28.627401599999992
 23
-114.2703882573052
 33
0.0
  0
SOLID
  5
29D
100
AcDbEntity
  8
None
370
              15
390
0
  6
Continuous
 62
               7
100
AcDbTrace
 10
28.868601599999995
 20
-114.82918825730519
 30
0.0
 11
28.868601599999995
 21
-114.2703882573052
 31
0.0
 12
29.427401599999992
 22
-114.82918825730519
 32
0.0
 13
29.427401599999992
 23
-114.2703882573052
 33
0.0
  0
SOLID
  5
29E
100
AcDbEntity
  8
None
370
              15
390
0
  6
Continuous
 62
               7
100
AcDbTrace
 10
29.668601599999992
 20
-114.82918825730519
 30
0.0
 11
29.668601599999992
 21
-114.2703882573052
 31
0.0
 12
30.227401599999993
 22
-114.82918825730519
 32
0.0
 13
30.227401599999993
 23
-114.2703882573052
 33
0.0
  0
SOLID
  5
29F
100
AcDbEntity
  8
None
370
              15
390
0
  6
Continuous
 62
               7
100
AcDbTrace
 10
30.468601599999992
 20
-114.82918825730519
 30
0.0
 11
30.468601599999992
 21
-114.2703882573052
 31
0.0
 12
31.027401599999994
 22
-114.82918825730519
 32
0.0
 13
31.027401599999994
 23
-114.2703882573052
 33
0.0
  0
SOLID
  5
2A0
100
AcDbEntity
  8
None
370
              15
390
0
  6
Continuous
 62
               7
100
AcDbTrace
 10
31.268601599999993
 20
-114.82918825730519
 30
0.0
 11
31.268601599999993
 21
-114.2703882573052
 31
0.0
 12
31.827401599999995
 22
-114.82918825730519
 32
0.0
 13
31.827401599999995
 23
-114.2703882573052
 33
0.0
  0
SOLID
  5
2A1
100
AcDbEntity
  8
None
370
              15
390
0
  6
Continuous
 62
               7
100
AcDbTrace
 10
32.068601599999994
 20
-114.82918825730519
 30
0.0
 11
32.068601599999994
 21
-114.2703882573052
 31
0.0
 12
32.627401599999992
 22
-114.82918825730519
 32
0.0
 13
32.627401599999992
 23
-114.2703882573052
 33
0.0
  0
SOLID
  5
2A2
100
AcDbEntity
  8
None
370
              15
390
0
  6
Continuous
 62
               7
100
AcDbTrace
 10
32.868601599999991
 20
-114.82918825730519
 30
0.0
 11
32.868601599999991
 21
-114.2703882573052
 31
0.0
 12
33.427401599999996
 22
-114.82918825730519
 32
0.0
 13
33.427401599999996
 23
-114.2703882573052
 33
0.0
  0
SOLID
  5
2A3
100
AcDbEntity
  8
None
370
              15
390
0
  6
Continuous
 62
               7
100
AcDbTrace
 10
33.668601599999995
 20
-114.82918825730519
 30
0.0
 11
33.668601599999995
 21
-114.2703882573052
 31
0.0
 12
34.227401599999993
 22
-114.82918825730519
 32
0.0
 13
34.227401599999993
 23
-114.2703882573052
 33
0.0
  0
SOLID
  5
2A4
100
AcDbEntity
  8
None
370
              15
390
0
  6
Continuous
 62
               7
100
AcDbTrace
 10
34.468601599999992
 20
-114.82918825730519
 30
0.0
 11
34.468601599999992
 21
-114.2703882573052
 31
0.0
 12
35.02740159999999
 22
-114.82918825730519
 32
0.0
 13
35.02740159999999
 23
-114.2703882573052
 33
0.0
  0
SOLID
  5
2A5
100
AcDbEntity
  8
None
370
              15
390
0
  6
Continuous
 62
               7
100
AcDbTrace
 10
35.268601599999997
 20
-114.82918825730519
 30
0.0
 11
35.268601599999997
 21
-114.2703882573052
 31
0.0
 12
35.827401599999995
 22
-114.82918825730519
 32
0.0
 13
35.827401599999995
 23
-114.2703882573052
 33
0.0
  0
SOLID
  5
2A6
100
AcDbEntity
  8
None
370
              15
390
0
  6
Continuous
 62
               7
100
AcDbTrace
 10
36.068601599999994
 20
-114.82918825730519
 30
0.0
 11
36.068601599999994
 21
-114.2703882573052
 31
0.0
 12
36.627401599999992
 22
-114.82918825730519
 32
0.0
 13
36.627401599999992
 23
-114.2703882573052
 33
0.0
  0
SOLID
  5
2A7
100
AcDbEntity
  8
None
370
              15
390
0
  6
Continuous
 62
               7
100
AcDbTrace
 10
18.468601599999992
 20
-115.6291882573052
 30
0.0
 11
18.468601599999992
 21
-115.0703882573052
 31
0.0
 12
19.027401599999994
 22
-115.6291882573052
 32
0.0
 13
19.027401599999994
 23
-115.0703882573052
 33
0.0
  0
SOLID
  5
2A8
100
AcDbEntity
  8
None
370
              15
390
0
  6
Continuous
 62
               7
100
AcDbTrace
 10
19.268601599999993
 20
-115.6291882573052
 30
0.0
 11
19.268601599999993
 21
-115.0703882573052
 31
0.0
 12
19.827401599999995
 22
-115.6291882573052
 32
0.0
 13
19.827401599999995
 23
-115.0703882573052
 33
0.0
  0
SOLID
  5
2A9
100
AcDbEntity
  8
None
370
              15
390
0
  6
Continuous
 62
               7
100
AcDbTrace
 10
20.068601599999994
 20
-115.6291882573052
 30
0.0
 11
20.068601599999994
 21
-115.0703882573052
 31
0.0
 12
20.627401599999992
 22
-115.6291882573052
 32
0.0
 13
20.627401599999992
 23
-115.0703882573052
 33
0.0
  0
SOLID
  5
2AA
100
AcDbEntity
  8
None
370
              15
390
0
  6
Continuous
 62
               7
100
AcDbTrace
 10
20.868601599999995
 20
-115.6291882573052
 30
0.0
 11
20.868601599999995
 21
-115.0703882573052
 31
0.0
 12
21.427401599999992
 22
-115.6291882573052
 32
0.0
 13
21.427401599999992
 23
-115.0703882573052
 33
0.0
  0
SOLID
  5
2AB
100
AcDbEntity
  8
None
370
              15
390
0
  6
Continuous
 62
               7
100
AcDbTrace
 10
21.668601599999995
 20
-115.6291882573052
 30
0.0
 11
21.668601599999995
 21
-115.0703882573052
 31
0.0
 12
22.227401599999993
 22
-115.6291882573052
 32
0.0
 13
22.227401599999993
 23
-115.0703882573052
 33
0.0
  0
SOLID
  5
2AC
100
AcDbEntity
  8
None
370
              15
390
0
  6
Continuous
 62
               7
100
AcDbTrace
 10
22.468601599999992
 20
-115.6291882573052
 30
0.0
 11
22.468601599999992
 21
-115.0703882573052
 31
0.0
 12
23.027401599999994
 22
-115.6291882573052
 32
0.0
 13
23.027401599999994
 23
-115.0703882573052
 33
0.0
  0
SOLID
  5
2AD
100
AcDbEntity
  8
None
370
              15
390
0
  6
Continuous
 62
               7
100
AcDbTrace
 10
23.268601599999993
 20
-115.6291882573052
 30
0.0
 11
23.268601599999993
 21
-115.0703882573052
 31
0.0
 12
23.827401599999995
 22
-115.6291882573052
 32
0.0
 13
23.827401599999995
 23
-115.0703882573052
 33
0.0
  0
SOLID
  5
2AE
100
AcDbEntity
  8
None
370
              15
390
0
  6
Continuous
 62
               7
100
AcDbTrace
 10
24.068601599999994
 20
-115.6291882573052
 30
0.0
 11
24.068601599999994
 21
-115.0703882573052
 31
0.0
 12
24.627401599999992
 22
-115.6291882573052
 32
0.0
 13
24.627401599999992
 23
-115.0703882573052
 33
0.0
  0
SOLID
  5
2AF
100
AcDbEntity
  8
None
370
              15
390
0
  6
Continuous
 62
               7
100
AcDbTrace
 10
24.868601599999995
 20
-115.6291882573052
 30
0.0
 11
24.868601599999995
 21
-115.0703882573052
 31
0.0
 12
25.427401599999992
 22
-115.6291882573052
 32
0.0
 13
25.427401599999992
 23
-115.0703882573052
 33
0.0
  0
SOLID
  5
2B0
100
AcDbEntity
  8
None
370
              15
390
0
  6
Continuous
 62
               7
100
AcDbTrace
 10
25.668601599999995
 20
-115.6291882573052
 30
0.0
 11
25.668601599999995
 21
-115.0703882573052
 31
0.0
 12
26.227401599999993
 22
-115.6291882573052
 32
0.0
 13
26.227401599999993
 23
-115.0703882573052
 33
0.0
  0
SOLID
  5
2B1
100
AcDbEntity
  8
None
370
              15
390
0
  6
Continuous
 62
               7
100
AcDbTrace
 10
26.468601599999992
 20
-115.6291882573052
 30
0.0
 11
26.468601599999992
 21
-115.0703882573052
 31
0.0
 12
27.027401599999994
 22
-115.6291882573052
 32
0.0
 13
27.027401599999994
 23
-115.0703882573052
 33
0.0
  0
SOLID
  5
2B2
100
AcDbEntity
  8
None
370
              15
390
0
  6
Continuous
 62
               7
100
AcDbTrace
 10
27.268601599999993
 20
-115.6291882573052
 30
0.0
 11
27.268601599999993
 21
-115.0703882573052
 31
0.0
 12
27.827401599999995
 22
-115.6291882573052
 32
0.0
 13
27.827401599999995
 23
-115.0703882573052
 33
0.0
  0
SOLID
  5
2B3
100
AcDbEntity
  8
None
370
              15
390
0
  6
Continuous
 62
               7
100
AcDbTrace
 10
28.068601599999994
 20
-115.6291882573052
 30
0.0
 11
28.068601599999994
 21
-115.0703882573052
 31
0.0
 12
28.627401599999992
 22
-115.6291882573052
 32
0.0
 13
28.627401599999992
 23
-115.0703882573052
 33
0.0
  0
SOLID
  5
2B4
100
AcDbEntity
  8
None
370
              15
390
0
  6
Continuous
 62
               7
100
AcDbTrace
 10
28.868601599999995
 20
-115.6291882573052
 30
0.0
 11
28.868601599999995
 21
-115.0703882573052
 31
0.0
 12
29.427401599999992
 22
-115.6291882573052
 32
0.0
 13
29.427401599999992
 23
-115.0703882573052
 33
0.0
  0
SOLID
  5
2B5
100
AcDbEntity
  8
None
370
              15
390
0
  6
Continuous
 62
               7
100
AcDbTrace
 10
29.668601599999992
 20
-115.6291882573052
 30
0.0
 11
29.668601599999992
 21
-115.0703882573052
 31
0.0
 12
30.227401599999993
 22
-115.6291882573052
 32
0.0
 13
30.227401599999993
 23
-115.0703882573052
 33
0.0
  0
SOLID
  5
2B6
100
AcDbEntity
  8
None
370
              15
390
0
  6
Continuous
 62
               7
100
AcDbTrace
 10
30.468601599999992
 20
-115.6291882573052
 30
0.0
 11
30.468601599999992
 21
-115.0703882573052
 31
0.0
 12
31.027401599999994
 22
-115.6291882573052
 32
0.0
 13
31.027401599999994
 23
-115.0703882573052
 33
0.0
  0
SOLID
  5
2B7
100
AcDbEntity
  8
None
370
              15
390
0
  6
Continuous
 62
               7
100
AcDbTrace
 10
31.268601599999993
 20
-115.6291882573052
 30
0.0
 11
31.268601599999993
 21
-115.0703882573052
 31
0.0
 12
31.827401599999995
 22
-115.6291882573052
 32
0.0
 13
31.827401599999995
 23
-115.0703882573052
 33
0.0
  0
SOLID
  5
2B8
100
AcDbEntity
  8
None
370
              15
390
0
  6
Continuous
 62
               7
100
AcDbTrace
 10
32.068601599999994
 20
-115.6291882573052
 30
0.0
 11
32.068601599999994
 21
-115.0703882573052
 31
0.0
 12
32.627401599999992
 22
-115.6291882573052
 32
0.0
 13
32.627401599999992
 23
-115.0703882573052
 33
0.0
  0
SOLID
  5
2B9
100
AcDbEntity
  8
None
370
              15
390
0
  6
Continuous
 62
               7
100
AcDbTrace
 10
32.868601599999991
 20
-115.6291882573052
 30
0.0
 11
32.868601599999991
 21
-115.0703882573052
 31
0.0
 12
33.427401599999996
 22
-115.6291882573052
 32
0.0
 13
33.427401599999996
 23
-115.0703882573052
 33
0.0
  0
SOLID
  5
2BA
100
AcDbEntity
  8
None
370
              15
390
0
  6
Continuous
 62
               7
100
AcDbTrace
 10
33.668601599999995
 20
-115.6291882573052
 30
0.0
 11
33.668601599999995
 21
-115.0703882573052
 31
0.0
 12
34.227401599999993
 22
-115.6291882573052
 32
0.0
 13
34.227401599999993
 23
-115.0703882573052
 33
0.0
  0
SOLID
  5
2BB
100
AcDbEntity
  8
None
370
              15
390
0
  6
Continuous
 62
               7
100
AcDbTrace
 10
34.468601599999992
 20
-115.6291882573052
 30
0.0
 11
34.468601599999992
 21
-115.0703882573052
 31
0.0
 12
35.02740159999999
 22
-115.6291882573052
 32
0.0
 13
35.02740159999999
 23
-115.0703882573052
 33
0.0
  0
SOLID
  5
2BC
100
AcDbEntity
  8
None
370
              15
390
0
  6
Continuous
 62
               7
100
AcDbTrace
 10
35.268601599999997
 20
-115.6291882573052
 30
0.0
 11
35.268601599999997
 21
-115.0703882573052
 31
0.0
 12
35.827401599999995
 22
-115.6291882573052
 32
0.0
 13
35.827401599999995
 23
-115.0703882573052
 33
0.0
  0
SOLID
  5
2BD
100
AcDbEntity
  8
None
370
              15
390
0
  6
Continuous
 62
               7
100
AcDbTrace
 10
36.068601599999994
 20
-115.6291882573052
 30
0.0
 11
36.068601599999994
 21
-115.0703882573052
 31
0.0
 12
36.627401599999992
 22
-115.6291882573052
 32
0.0
 13
36.627401599999992
 23
-115.0703882573052
 33
0.0
  0
SOLID
  5
2BE
100
AcDbEntity
  8
None
370
              15
390
0
  6
Continuous
 62
               7
100
AcDbTrace
 10
18.468601599999992
 20
-116.42918825730519
 30
0.0
 11
18.468601599999992
 21
-115.87038825730519
 31
0.0
 12
19.027401599999994
 22
-116.42918825730519
 32
0.0
 13
19.027401599999994
 23
-115.87038825730519
 33
0.0
  0
SOLID
  5
2BF
100
AcDbEntity
  8
None
370
              15
390
0
  6
Continuous
 62
               7
100
AcDbTrace
 10
19.268601599999993
 20
-116.42918825730519
 30
0.0
 11
19.268601599999993
 21
-115.87038825730519
 31
0.0
 12
19.827401599999995
 22
-116.42918825730519
 32
0.0
 13
19.827401599999995
 23
-115.87038825730519
 33
0.0
  0
SOLID
  5
2C0
100
AcDbEntity
  8
None
370
              15
390
0
  6
Continuous
 62
               7
100
AcDbTrace
 10
20.068601599999994
 20
-116.42918825730519
 30
0.0
 11
20.068601599999994
 21
-115.87038825730519
 31
0.0
 12
20.627401599999992
 22
-116.42918825730519
 32
0.0
 13
20.627401599999992
 23
-115.87038825730519
 33
0.0
  0
SOLID
  5
2C1
100
AcDbEntity
  8
None
370
              15
390
0
  6
Continuous
 62
               7
100
AcDbTrace
 10
20.868601599999995
 20
-116.42918825730519
 30
0.0
 11
20.868601599999995
 21
-115.87038825730519
 31
0.0
 12
21.427401599999992
 22
-116.42918825730519
 32
0.0
 13
21.427401599999992
 23
-115.87038825730519
 33
0.0
  0
SOLID
  5
2C2
100
AcDbEntity
  8
None
370
              15
390
0
  6
Continuous
 62
               7
100
AcDbTrace
 10
21.668601599999995
 20
-116.42918825730519
 30
0.0
 11
21.668601599999995
 21
-115.87038825730519
 31
0.0
 12
22.227401599999993
 22
-116.42918825730519
 32
0.0
 13
22.227401599999993
 23
-115.87038825730519
 33
0.0
  0
SOLID
  5
2C3
100
AcDbEntity
  8
None
370
              15
390
0
  6
Continuous
 62
               7
100
AcDbTrace
 10
22.468601599999992
 20
-116.42918825730519
 30
0.0
 11
22.468601599999992
 21
-115.87038825730519
 31
0.0
 12
23.027401599999994
 22
-116.42918825730519
 32
0.0
 13
23.027401599999994
 23
-115.87038825730519
 33
0.0
  0
SOLID
  5
2C4
100
AcDbEntity
  8
None
370
              15
390
0
  6
Continuous
 62
               7
100
AcDbTrace
 10
23.268601599999993
 20
-116.42918825730519
 30
0.0
 11
23.268601599999993
 21
-115.87038825730519
 31
0.0
 12
23.827401599999995
 22
-116.42918825730519
 32
0.0
 13
23.827401599999995
 23
-115.87038825730519
 33
0.0
  0
SOLID
  5
2C5
100
AcDbEntity
  8
None
370
              15
390
0
  6
Continuous
 62
               7
100
AcDbTrace
 10
24.068601599999994
 20
-116.42918825730519
 30
0.0
 11
24.068601599999994
 21
-115.87038825730519
 31
0.0
 12
24.627401599999992
 22
-116.42918825730519
 32
0.0
 13
24.627401599999992
 23
-115.87038825730519
 33
0.0
  0
SOLID
  5
2C6
100
AcDbEntity
  8
None
370
              15
390
0
  6
Continuous
 62
               7
100
AcDbTrace
 10
24.868601599999995
 20
-116.42918825730519
 30
0.0
 11
24.868601599999995
 21
-115.87038825730519
 31
0.0
 12
25.427401599999992
 22
-116.42918825730519
 32
0.0
 13
25.427401599999992
 23
-115.87038825730519
 33
0.0
  0
SOLID
  5
2C7
100
AcDbEntity
  8
None
370
              15
390
0
  6
Continuous
 62
               7
100
AcDbTrace
 10
25.668601599999995
 20
-116.42918825730519
 30
0.0
 11
25.668601599999995
 21
-115.87038825730519
 31
0.0
 12
26.227401599999993
 22
-116.42918825730519
 32
0.0
 13
26.227401599999993
 23
-115.87038825730519
 33
0.0
  0
SOLID
  5
2C8
100
AcDbEntity
  8
None
370
              15
390
0
  6
Continuous
 62
               7
100
AcDbTrace
 10
26.468601599999992
 20
-116.42918825730519
 30
0.0
 11
26.468601599999992
 21
-115.87038825730519
 31
0.0
 12
27.027401599999994
 22
-116.42918825730519
 32
0.0
 13
27.027401599999994
 23
-115.87038825730519
 33
0.0
  0
SOLID
  5
2C9
100
AcDbEntity
  8
None
370
              15
390
0
  6
Continuous
 62
               7
100
AcDbTrace
 10
27.268601599999993
 20
-116.42918825730519
 30
0.0
 11
27.268601599999993
 21
-115.87038825730519
 31
0.0
 12
27.827401599999995
 22
-116.42918825730519
 32
0.0
 13
27.827401599999995
 23
-115.87038825730519
 33
0.0
  0
SOLID
  5
2CA
100
AcDbEntity
  8
None
370
              15
390
0
  6
Continuous
 62
               7
100
AcDbTrace
 10
28.068601599999994
 20
-116.42918825730519
 30
0.0
 11
28.068601599999994
 21
-115.87038825730519
 31
0.0
 12
28.627401599999992
 22
-116.42918825730519
 32
0.0
 13
28.627401599999992
 23
-115.87038825730519
 33
0.0
  0
SOLID
  5
2CB
100
AcDbEntity
  8
None
370
              15
390
0
  6
Continuous
 62
               7
100
AcDbTrace
 10
28.868601599999995
 20
-116.42918825730519
 30
0.0
 11
28.868601599999995
 21
-115.87038825730519
 31
0.0
 12
29.427401599999992
 22
-116.42918825730519
 32
0.0
 13
29.427401599999992
 23
-115.87038825730519
 33
0.0
  0
SOLID
  5
2CC
100
AcDbEntity
  8
None
370
              15
390
0
  6
Continuous
 62
               7
100
AcDbTrace
 10
29.668601599999992
 20
-116.42918825730519
 30
0.0
 11
29.668601599999992
 21
-115.87038825730519
 31
0.0
 12
30.227401599999993
 22
-116.42918825730519
 32
0.0
 13
30.227401599999993
 23
-115.87038825730519
 33
0.0
  0
SOLID
  5
2CD
100
AcDbEntity
  8
None
370
              15
390
0
  6
Continuous
 62
               7
100
AcDbTrace
 10
30.468601599999992
 20
-116.42918825730519
 30
0.0
 11
30.468601599999992
 21
-115.87038825730519
 31
0.0
 12
31.027401599999994
 22
-116.42918825730519
 32
0.0
 13
31.027401599999994
 23
-115.87038825730519
 33
0.0
  0
SOLID
  5
2CE
100
AcDbEntity
  8
None
370
              15
390
0
  6
Continuous
 62
               7
100
AcDbTrace
 10
31.268601599999993
 20
-116.42918825730519
 30
0.0
 11
31.268601599999993
 21
-115.87038825730519
 31
0.0
 12
31.827401599999995
 22
-116.42918825730519
 32
0.0
 13
31.827401599999995
 23
-115.87038825730519
 33
0.0
  0
SOLID
  5
2CF
100
AcDbEntity
  8
None
370
              15
390
0
  6
Continuous
 62
               7
100
AcDbTrace
 10
32.068601599999994
 20
-116.42918825730519
 30
0.0
 11
32.068601599999994
 21
-115.87038825730519
 31
0.0
 12
32.627401599999992
 22
-116.42918825730519
 32
0.0
 13
32.627401599999992
 23
-115.87038825730519
 33
0.0
  0
SOLID
  5
2D0
100
AcDbEntity
  8
None
370
              15
390
0
  6
Continuous
 62
               7
100
AcDbTrace
 10
32.868601599999991
 20
-116.42918825730519
 30
0.0
 11
32.868601599999991
 21
-115.87038825730519
 31
0.0
 12
33.427401599999996
 22
-116.42918825730519
 32
0.0
 13
33.427401599999996
 23
-115.87038825730519
 33
0.0
  0
SOLID
  5
2D1
100
AcDbEntity
  8
None
370
              15
390
0
  6
Continuous
 62
               7
100
AcDbTrace
 10
33.668601599999995
 20
-116.42918825730519
 30
0.0
 11
33.668601599999995
 21
-115.87038825730519
 31
0.0
 12
34.227401599999993
 22
-116.42918825730519
 32
0.0
 13
34.227401599999993
 23
-115.87038825730519
 33
0.0
  0
SOLID
  5
2D2
100
AcDbEntity
  8
None
370
              15
390
0
  6
Continuous
 62
               7
100
AcDbTrace
 10
34.468601599999992
 20
-116.42918825730519
 30
0.0
 11
34.468601599999992
 21
-115.87038825730519
 31
0.0
 12
35.02740159999999
 22
-116.42918825730519
 32
0.0
 13
35.02740159999999
 23
-115.87038825730519
 33
0.0
  0
SOLID
  5
2D3
100
AcDbEntity
  8
None
370
              15
390
0
  6
Continuous
 62
               7
100
AcDbTrace
 10
35.268601599999997
 20
-116.42918825730519
 30
0.0
 11
35.268601599999997
 21
-115.87038825730519
 31
0.0
 12
35.827401599999995
 22
-116.42918825730519
 32
0.0
 13
35.827401599999995
 23
-115.87038825730519
 33
0.0
  0
SOLID
  5
2D4
100
AcDbEntity
  8
None
370
              15
390
0
  6
Continuous
 62
               7
100
AcDbTrace
 10
36.068601599999994
 20
-116.42918825730519
 30
0.0
 11
36.068601599999994
 21
-115.87038825730519
 31
0.0
 12
36.627401599999992
 22
-116.42918825730519
 32
0.0
 13
36.627401599999992
 23
-115.87038825730519
 33
0.0
  0
SOLID
  5
2D5
100
AcDbEntity
  8
None
370
              15
390
0
  6
Continuous
 62
               7
100
AcDbTrace
 10
18.468601599999992
 20
-117.2291882573052
 30
0.0
 11
18.468601599999992
 21
-116.67038825730519
 31
0.0
 12
19.027401599999994
 22
-117.2291882573052
 32
0.0
 13
19.027401599999994
 23
-116.67038825730519
 33
0.0
  0
SOLID
  5
2D6
100
AcDbEntity
  8
None
370
              15
390
0
  6
Continuous
 62
               7
100
AcDbTrace
 10
19.268601599999993
 20
-117.2291882573052
 30
0.0
 11
19.268601599999993
 21
-116.67038825730519
 31
0.0
 12
19.827401599999995
 22
-117.2291882573052
 32
0.0
 13
19.827401599999995
 23
-116.67038825730519
 33
0.0
  0
SOLID
  5
2D7
100
AcDbEntity
  8
None
370
              15
390
0
  6
Continuous
 62
               7
100
AcDbTrace
 10
20.068601599999994
 20
-117.2291882573052
 30
0.0
 11
20.068601599999994
 21
-116.67038825730519
 31
0.0
 12
20.627401599999992
 22
-117.2291882573052
 32
0.0
 13
20.627401599999992
 23
-116.67038825730519
 33
0.0
  0
SOLID
  5
2D8
100
AcDbEntity
  8
None
370
              15
390
0
  6
Continuous
 62
               7
100
AcDbTrace
 10
20.868601599999995
 20
-117.2291882573052
 30
0.0
 11
20.868601599999995
 21
-116.67038825730519
 31
0.0
 12
21.427401599999992
 22
-117.2291882573052
 32
0.0
 13
21.427401599999992
 23
-116.67038825730519
 33
0.0
  0
SOLID
  5
2D9
100
AcDbEntity
  8
None
370
              15
390
0
  6
Continuous
 62
               7
100
AcDbTrace
 10
21.668601599999995
 20
-117.2291882573052
 30
0.0
 11
21.668601599999995
 21
-116.67038825730519
 31
0.0
 12
22.227401599999993
 22
-117.2291882573052
 32
0.0
 13
22.227401599999993
 23
-116.67038825730519
 33
0.0
  0
SOLID
  5
2DA
100
AcDbEntity
  8
None
370
              15
390
0
  6
Continuous
 62
               7
100
AcDbTrace
 10
22.468601599999992
 20
-117.2291882573052
 30
0.0
 11
22.468601599999992
 21
-116.67038825730519
 31
0.0
 12
23.027401599999994
 22
-117.2291882573052
 32
0.0
 13
23.027401599999994
 23
-116.67038825730519
 33
0.0
  0
SOLID
  5
2DB
100
AcDbEntity
  8
None
370
              15
390
0
  6
Continuous
 62
               7
100
AcDbTrace
 10
23.268601599999993
 20
-117.2291882573052
 30
0.0
 11
23.268601599999993
 21
-116.67038825730519
 31
0.0
 12
23.827401599999995
 22
-117.2291882573052
 32
0.0
 13
23.827401599999995
 23
-116.67038825730519
 33
0.0
  0
SOLID
  5
2DC
100
AcDbEntity
  8
None
370
              15
390
0
  6
Continuous
 62
               7
100
AcDbTrace
 10
24.068601599999994
 20
-117.2291882573052
 30
0.0
 11
24.068601599999994
 21
-116.67038825730519
 31
0.0
 12
24.627401599999992
 22
-117.2291882573052
 32
0.0
 13
24.627401599999992
 23
-116.67038825730519
 33
0.0
  0
SOLID
  5
2DD
100
AcDbEntity
  8
None
370
              15
390
0
  6
Continuous
 62
               7
100
AcDbTrace
 10
24.868601599999995
 20
-117.2291882573052
 30
0.0
 11
24.868601599999995
 21
-116.67038825730519
 31
0.0
 12
25.427401599999992
 22
-117.2291882573052
 32
0.0
 13
25.427401599999992
 23
-116.67038825730519
 33
0.0
  0
SOLID
  5
2DE
100
AcDbEntity
  8
None
370
              15
390
0
  6
Continuous
 62
               7
100
AcDbTrace
 10
25.668601599999995
 20
-117.2291882573052
 30
0.0
 11
25.668601599999995
 21
-116.67038825730519
 31
0.0
 12
26.227401599999993
 22
-117.2291882573052
 32
0.0
 13
26.227401599999993
 23
-116.67038825730519
 33
0.0
  0
SOLID
  5
2DF
100
AcDbEntity
  8
None
370
              15
390
0
  6
Continuous
 62
               7
100
AcDbTrace
 10
26.468601599999992
 20
-117.2291882573052
 30
0.0
 11
26.468601599999992
 21
-116.67038825730519
 31
0.0
 12
27.027401599999994
 22
-117.2291882573052
 32
0.0
 13
27.027401599999994
 23
-116.67038825730519
 33
0.0
  0
SOLID
  5
2E0
100
AcDbEntity
  8
None
370
              15
390
0
  6
Continuous
 62
               7
100
AcDbTrace
 10
27.268601599999993
 20
-117.2291882573052
 30
0.0
 11
27.268601599999993
 21
-116.67038825730519
 31
0.0
 12
27.827401599999995
 22
-117.2291882573052
 32
0.0
 13
27.827401599999995
 23
-116.67038825730519
 33
0.0
  0
SOLID
  5
2E1
100
AcDbEntity
  8
None
370
              15
390
0
  6
Continuous
 62
               7
100
AcDbTrace
 10
28.068601599999994
 20
-117.2291882573052
 30
0.0
 11
28.068601599999994
 21
-116.67038825730519
 31
0.0
 12
28.627401599999992
 22
-117.2291882573052
 32
0.0
 13
28.627401599999992
 23
-116.67038825730519
 33
0.0
  0
SOLID
  5
2E2
100
AcDbEntity
  8
None
370
              15
390
0
  6
Continuous
 62
               7
100
AcDbTrace
 10
28.868601599999995
 20
-117.2291882573052
 30
0.0
 11
28.868601599999995
 21
-116.67038825730519
 31
0.0
 12
29.427401599999992
 22
-117.2291882573052
 32
0.0
 13
29.427401599999992
 23
-116.67038825730519
 33
0.0
  0
SOLID
  5
2E3
100
AcDbEntity
  8
None
370
              15
390
0
  6
Continuous
 62
               7
100
AcDbTrace
 10
29.668601599999992
 20
-117.2291882573052
 30
0.0
 11
29.668601599999992
 21
-116.67038825730519
 31
0.0
 12
30.227401599999993
 22
-117.2291882573052
 32
0.0
 13
30.227401599999993
 23
-116.67038825730519
 33
0.0
  0
SOLID
  5
2E4
100
AcDbEntity
  8
None
370
              15
390
0
  6
Continuous
 62
               7
100
AcDbTrace
 10
30.468601599999992
 20
-117.2291882573052
 30
0.0
 11
30.468601599999992
 21
-116.67038825730519
 31
0.0
 12
31.027401599999994
 22
-117.2291882573052
 32
0.0
 13
31.027401599999994
 23
-116.67038825730519
 33
0.0
  0
SOLID
  5
2E5
100
AcDbEntity
  8
None
370
              15
390
0
  6
Continuous
 62
               7
100
AcDbTrace
 10
31.268601599999993
 20
-117.2291882573052
 30
0.0
 11
31.268601599999993
 21
-116.67038825730519
 31
0.0
 12
31.827401599999995
 22
-117.2291882573052
 32
0.0
 13
31.827401599999995
 23
-116.67038825730519
 33
0.0
  0
SOLID
  5
2E6
100
AcDbEntity
  8
None
370
              15
390
0
  6
Continuous
 62
               7
100
AcDbTrace
 10
32.068601599999994
 20
-117.2291882573052
 30
0.0
 11
32.068601599999994
 21
-116.67038825730519
 31
0.0
 12
32.627401599999992
 22
-117.2291882573052
 32
0.0
 13
32.627401599999992
 23
-116.67038825730519
 33
0.0
  0
SOLID
  5
2E7
100
AcDbEntity
  8
None
370
              15
390
0
  6
Continuous
 62
               7
100
AcDbTrace
 10
32.868601599999991
 20
-117.2291882573052
 30
0.0
 11
32.868601599999991
 21
-116.67038825730519
 31
0.0
 12
33.427401599999996
 22
-117.2291882573052
 32
0.0
 13
33.427401599999996
 23
-116.67038825730519
 33
0.0
  0
SOLID
  5
2E8
100
AcDbEntity
  8
None
370
              15
390
0
  6
Continuous
 62
               7
100
AcDbTrace
 10
33.668601599999995
 20
-117.2291882573052
 30
0.0
 11
33.668601599999995
 21
-116.67038825730519
 31
0.0
 12
34.227401599999993
 22
-117.2291882573052
 32
0.0
 13
34.227401599999993
 23
-116.67038825730519
 33
0.0
  0
SOLID
  5
2E9
100
AcDbEntity
  8
None
370
              15
390
0
  6
Continuous
 62
               7
100
AcDbTrace
 10
34.468601599999992
 20
-117.2291882573052
 30
0.0
 11
34.468601599999992
 21
-116.67038825730519
 31
0.0
 12
35.02740159999999
 22
-117.2291882573052
 32
0.0
 13
35.02740159999999
 23
-116.67038825730519
 33
0.0
  0
SOLID
  5
2EA
100
AcDbEntity
  8
None
370
              15
390
0
  6
Continuous
 62
               7
100
AcDbTrace
 10
35.268601599999997
 20
-117.2291882573052
 30
0.0
 11
35.268601599999997
 21
-116.67038825730519
 31
0.0
 12
35.827401599999995
 22
-117.2291882573052
 32
0.0
 13
35.827401599999995
 23
-116.67038825730519
 33
0.0
  0
SOLID
  5
2EB
100
AcDbEntity
  8
None
370
              15
390
0
  6
Continuous
 62
               7
100
AcDbTrace
 10
36.068601599999994
 20
-117.2291882573052
 30
0.0
 11
36.068601599999994
 21
-116.67038825730519
 31
0.0
 12
36.627401599999992
 22
-117.2291882573052
 32
0.0
 13
36.627401599999992
 23
-116.67038825730519
 33
0.0
  0
SOLID
  5
2EC
100
AcDbEntity
  8
None
370
              15
390
0
  6
Continuous
 62
               7
100
AcDbTrace
 10
18.468601599999992
 20
-118.02918825730518
 30
0.0
 11
18.468601599999992
 21
-117.47038825730519
 31
0.0
 12
19.027401599999994
 22
-118.02918825730518
 32
0.0
 13
19.027401599999994
 23
-117.47038825730519
 33
0.0
  0
SOLID
  5
2ED
100
AcDbEntity
  8
None
370
              15
390
0
  6
Continuous
 62
               7
100
AcDbTrace
 10
19.268601599999993
 20
-118.02918825730518
 30
0.0
 11
19.268601599999993
 21
-117.47038825730519
 31
0.0
 12
19.827401599999995
 22
-118.02918825730518
 32
0.0
 13
19.827401599999995
 23
-117.47038825730519
 33
0.0
  0
SOLID
  5
2EE
100
AcDbEntity
  8
None
370
              15
390
0
  6
Continuous
 62
               7
100
AcDbTrace
 10
20.068601599999994
 20
-118.02918825730518
 30
0.0
 11
20.068601599999994
 21
-117.47038825730519
 31
0.0
 12
20.627401599999992
 22
-118.02918825730518
 32
0.0
 13
20.627401599999992
 23
-117.47038825730519
 33
0.0
  0
SOLID
  5
2EF
100
AcDbEntity
  8
None
370
              15
390
0
  6
Continuous
 62
               7
100
AcDbTrace
 10
20.868601599999995
 20
-118.02918825730518
 30
0.0
 11
20.868601599999995
 21
-117.47038825730519
 31
0.0
 12
21.427401599999992
 22
-118.02918825730518
 32
0.0
 13
21.427401599999992
 23
-117.47038825730519
 33
0.0
  0
SOLID
  5
2F0
100
AcDbEntity
  8
None
370
              15
390
0
  6
Continuous
 62
               7
100
AcDbTrace
 10
21.668601599999995
 20
-118.02918825730518
 30
0.0
 11
21.668601599999995
 21
-117.47038825730519
 31
0.0
 12
22.227401599999993
 22
-118.02918825730518
 32
0.0
 13
22.227401599999993
 23
-117.47038825730519
 33
0.0
  0
SOLID
  5
2F1
100
AcDbEntity
  8
None
370
              15
390
0
  6
Continuous
 62
               7
100
AcDbTrace
 10
22.468601599999992
 20
-118.02918825730518
 30
0.0
 11
22.468601599999992
 21
-117.47038825730519
 31
0.0
 12
23.027401599999994
 22
-118.02918825730518
 32
0.0
 13
23.027401599999994
 23
-117.47038825730519
 33
0.0
  0
SOLID
  5
2F2
100
AcDbEntity
  8
None
370
              15
390
0
  6
Continuous
 62
               7
100
AcDbTrace
 10
23.268601599999993
 20
-118.02918825730518
 30
0.0
 11
23.268601599999993
 21
-117.47038825730519
 31
0.0
 12
23.827401599999995
 22
-118.02918825730518
 32
0.0
 13
23.827401599999995
 23
-117.47038825730519
 33
0.0
  0
SOLID
  5
2F3
100
AcDbEntity
  8
None
370
              15
390
0
  6
Continuous
 62
               7
100
AcDbTrace
 10
24.068601599999994
 20
-118.02918825730518
 30
0.0
 11
24.068601599999994
 21
-117.47038825730519
 31
0.0
 12
24.627401599999992
 22
-118.02918825730518
 32
0.0
 13
24.627401599999992
 23
-117.47038825730519
 33
0.0
  0
SOLID
  5
2F4
100
AcDbEntity
  8
None
370
              15
390
0
  6
Continuous
 62
               7
100
AcDbTrace
 10
24.868601599999995
 20
-118.02918825730518
 30
0.0
 11
24.868601599999995
 21
-117.47038825730519
 31
0.0
 12
25.427401599999992
 22
-118.02918825730518
 32
0.0
 13
25.427401599999992
 23
-117.47038825730519
 33
0.0
  0
SOLID
  5
2F5
100
AcDbEntity
  8
None
370
              15
390
0
  6
Continuous
 62
               7
100
AcDbTrace
 10
25.668601599999995
 20
-118.02918825730518
 30
0.0
 11
25.668601599999995
 21
-117.47038825730519
 31
0.0
 12
26.227401599999993
 22
-118.02918825730518
 32
0.0
 13
26.227401599999993
 23
-117.47038825730519
 33
0.0
  0
SOLID
  5
2F6
100
AcDbEntity
  8
None
370
              15
390
0
  6
Continuous
 62
               7
100
AcDbTrace
 10
26.468601599999992
 20
-118.02918825730518
 30
0.0
 11
26.468601599999992
 21
-117.47038825730519
 31
0.0
 12
27.027401599999994
 22
-118.02918825730518
 32
0.0
 13
27.027401599999994
 23
-117.47038825730519
 33
0.0
  0
SOLID
  5
2F7
100
AcDbEntity
  8
None
370
              15
390
0
  6
Continuous
 62
               7
100
AcDbTrace
 10
27.268601599999993
 20
-118.02918825730518
 30
0.0
 11
27.268601599999993
 21
-117.47038825730519
 31
0.0
 12
27.827401599999995
 22
-118.02918825730518
 32
0.0
 13
27.827401599999995
 23
-117.47038825730519
 33
0.0
  0
SOLID
  5
2F8
100
AcDbEntity
  8
None
370
              15
390
0
  6
Continuous
 62
               7
100
AcDbTrace
 10
28.068601599999994
 20
-118.02918825730518
 30
0.0
 11
28.068601599999994
 21
-117.47038825730519
 31
0.0
 12
28.627401599999992
 22
-118.02918825730518
 32
0.0
 13
28.627401599999992
 23
-117.47038825730519
 33
0.0
  0
SOLID
  5
2F9
100
AcDbEntity
  8
None
370
              15
390
0
  6
Continuous
 62
               7
100
AcDbTrace
 10
28.868601599999995
 20
-118.02918825730518
 30
0.0
 11
28.868601599999995
 21
-117.47038825730519
 31
0.0
 12
29.427401599999992
 22
-118.02918825730518
 32
0.0
 13
29.427401599999992
 23
-117.47038825730519
 33
0.0
  0
SOLID
  5
2FA
100
AcDbEntity
  8
None
370
              15
390
0
  6
Continuous
 62
               7
100
AcDbTrace
 10
29.668601599999992
 20
-118.02918825730518
 30
0.0
 11
29.668601599999992
 21
-117.47038825730519
 31
0.0
 12
30.227401599999993
 22
-118.02918825730518
 32
0.0
 13
30.227401599999993
 23
-117.47038825730519
 33
0.0
  0
SOLID
  5
2FB
100
AcDbEntity
  8
None
370
              15
390
0
  6
Continuous
 62
               7
100
AcDbTrace
 10
30.468601599999992
 20
-118.02918825730518
 30
0.0
 11
30.468601599999992
 21
-117.47038825730519
 31
0.0
 12
31.027401599999994
 22
-118.02918825730518
 32
0.0
 13
31.027401599999994
 23
-117.47038825730519
 33
0.0
  0
SOLID
  5
2FC
100
AcDbEntity
  8
None
370
              15
390
0
  6
Continuous
 62
               7
100
AcDbTrace
 10
31.268601599999993
 20
-118.02918825730518
 30
0.0
 11
31.268601599999993
 21
-117.47038825730519
 31
0.0
 12
31.827401599999995
 22
-118.02918825730518
 32
0.0
 13
31.827401599999995
 23
-117.47038825730519
 33
0.0
  0
SOLID
  5
2FD
100
AcDbEntity
  8
None
370
              15
390
0
  6
Continuous
 62
               7
100
AcDbTrace
 10
32.068601599999994
 20
-118.02918825730518
 30
0.0
 11
32.068601599999994
 21
-117.47038825730519
 31
0.0
 12
32.627401599999992
 22
-118.02918825730518
 32
0.0
 13
32.627401599999992
 23
-117.47038825730519
 33
0.0
  0
SOLID
  5
2FE
100
AcDbEntity
  8
None
370
              15
390
0
  6
Continuous
 62
               7
100
AcDbTrace
 10
32.868601599999991
 20
-118.02918825730518
 30
0.0
 11
32.868601599999991
 21
-117.47038825730519
 31
0.0
 12
33.427401599999996
 22
-118.02918825730518
 32
0.0
 13
33.427401599999996
 23
-117.47038825730519
 33
0.0
  0
SOLID
  5
2FF
100
AcDbEntity
  8
None
370
              15
390
0
  6
Continuous
 62
               7
100
AcDbTrace
 10
33.668601599999995
 20
-118.02918825730518
 30
0.0
 11
33.668601599999995
 21
-117.47038825730519
 31
0.0
 12
34.227401599999993
 22
-118.02918825730518
 32
0.0
 13
34.227401599999993
 23
-117.47038825730519
 33
0.0
  0
SOLID
  5
300
100
AcDbEntity
  8
None
370
              15
390
0
  6
Continuous
 62
               7
100
AcDbTrace
 10
34.468601599999992
 20
-118.02918825730518
 30
0.0
 11
34.468601599999992
 21
-117.47038825730519
 31
0.0
 12
35.02740159999999
 22
-118.02918825730518
 32
0.0
 13
35.02740159999999
 23
-117.47038825730519
 33
0.0
  0
SOLID
  5
301
100
AcDbEntity
  8
None
370
              15
390
0
  6
Continuous
 62
               7
100
AcDbTrace
 10
35.268601599999997
 20
-118.02918825730518
 30
0.0
 11
35.268601599999997
 21
-117.47038825730519
 31
0.0
 12
35.827401599999995
 22
-118.02918825730518
 32
0.0
 13
35.827401599999995
 23
-117.47038825730519
 33
0.0
  0
SOLID
  5
302
100
AcDbEntity
  8
None
370
              15
390
0
  6
Continuous
 62
               7
100
AcDbTrace
 10
36.068601599999994
 20
-118.02918825730518
 30
0.0
 11
36.068601599999994
 21
-117.47038825730519
 31
0.0
 12
36.627401599999992
 22
-118.02918825730518
 32
0.0
 13
36.627401599999992
 23
-117.47038825730519
 33
0.0
  0
SOLID
  5
303
100
AcDbEntity
  8
None
370
              15
390
0
  6
Continuous
 62
               7
100
AcDbTrace
 10
18.468601599999992
 20
-118.82918825730519
 30
0.0
 11
18.468601599999992
 21
-118.2703882573052
 31
0.0
 12
19.027401599999994
 22
-118.82918825730519
 32
0.0
 13
19.027401599999994
 23
-118.2703882573052
 33
0.0
  0
SOLID
  5
304
100
AcDbEntity
  8
None
370
              15
390
0
  6
Continuous
 62
               7
100
AcDbTrace
 10
19.268601599999993
 20
-118.82918825730519
 30
0.0
 11
19.268601599999993
 21
-118.2703882573052
 31
0.0
 12
19.827401599999995
 22
-118.82918825730519
 32
0.0
 13
19.827401599999995
 23
-118.2703882573052
 33
0.0
  0
SOLID
  5
305
100
AcDbEntity
  8
None
370
              15
390
0
  6
Continuous
 62
               7
100
AcDbTrace
 10
20.068601599999994
 20
-118.82918825730519
 30
0.0
 11
20.068601599999994
 21
-118.2703882573052
 31
0.0
 12
20.627401599999992
 22
-118.82918825730519
 32
0.0
 13
20.627401599999992
 23
-118.2703882573052
 33
0.0
  0
SOLID
  5
306
100
AcDbEntity
  8
None
370
              15
390
0
  6
Continuous
 62
               7
100
AcDbTrace
 10
20.868601599999995
 20
-118.82918825730519
 30
0.0
 11
20.868601599999995
 21
-118.2703882573052
 31
0.0
 12
21.427401599999992
 22
-118.82918825730519
 32
0.0
 13
21.427401599999992
 23
-118.2703882573052
 33
0.0
  0
SOLID
  5
307
100
AcDbEntity
  8
None
370
              15
390
0
  6
Continuous
 62
               7
100
AcDbTrace
 10
21.668601599999995
 20
-118.82918825730519
 30
0.0
 11
21.668601599999995
 21
-118.2703882573052
 31
0.0
 12
22.227401599999993
 22
-118.82918825730519
 32
0.0
 13
22.227401599999993
 23
-118.2703882573052
 33
0.0
  0
SOLID
  5
308
100
AcDbEntity
  8
None
370
              15
390
0
  6
Continuous
 62
               7
100
AcDbTrace
 10
22.468601599999992
 20
-118.82918825730519
 30
0.0
 11
22.468601599999992
 21
-118.2703882573052
 31
0.0
 12
23.027401599999994
 22
-118.82918825730519
 32
0.0
 13
23.027401599999994
 23
-118.2703882573052
 33
0.0
  0
SOLID
  5
309
100
AcDbEntity
  8
None
370
              15
390
0
  6
Continuous
 62
               7
100
AcDbTrace
 10
23.268601599999993
 20
-118.82918825730519
 30
0.0
 11
23.268601599999993
 21
-118.2703882573052
 31
0.0
 12
23.827401599999995
 22
-118.82918825730519
 32
0.0
 13
23.827401599999995
 23
-118.2703882573052
 33
0.0
  0
SOLID
  5
30A
100
AcDbEntity
  8
None
370
              15
390
0
  6
Continuous
 62
               7
100
AcDbTrace
 10
24.068601599999994
 20
-118.82918825730519
 30
0.0
 11
24.068601599999994
 21
-118.2703882573052
 31
0.0
 12
24.627401599999992
 22
-118.82918825730519
 32
0.0
 13
24.627401599999992
 23
-118.2703882573052
 33
0.0
  0
SOLID
  5
30B
100
AcDbEntity
  8
None
370
              15
390
0
  6
Continuous
 62
               7
100
AcDbTrace
 10
24.868601599999995
 20
-118.82918825730519
 30
0.0
 11
24.868601599999995
 21
-118.2703882573052
 31
0.0
 12
25.427401599999992
 22
-118.82918825730519
 32
0.0
 13
25.427401599999992
 23
-118.2703882573052
 33
0.0
  0
SOLID
  5
30C
100
AcDbEntity
  8
None
370
              15
390
0
  6
Continuous
 62
               7
100
AcDbTrace
 10
25.668601599999995
 20
-118.82918825730519
 30
0.0
 11
25.668601599999995
 21
-118.2703882573052
 31
0.0
 12
26.227401599999993
 22
-118.82918825730519
 32
0.0
 13
26.227401599999993
 23
-118.2703882573052
 33
0.0
  0
SOLID
  5
30D
100
AcDbEntity
  8
None
370
              15
390
0
  6
Continuous
 62
               7
100
AcDbTrace
 10
26.468601599999992
 20
-118.82918825730519
 30
0.0
 11
26.468601599999992
 21
-118.2703882573052
 31
0.0
 12
27.027401599999994
 22
-118.82918825730519
 32
0.0
 13
27.027401599999994
 23
-118.2703882573052
 33
0.0
  0
SOLID
  5
30E
100
AcDbEntity
  8
None
370
              15
390
0
  6
Continuous
 62
               7
100
AcDbTrace
 10
27.268601599999993
 20
-118.82918825730519
 30
0.0
 11
27.268601599999993
 21
-118.2703882573052
 31
0.0
 12
27.827401599999995
 22
-118.82918825730519
 32
0.0
 13
27.827401599999995
 23
-118.2703882573052
 33
0.0
  0
SOLID
  5
30F
100
AcDbEntity
  8
None
370
              15
390
0
  6
Continuous
 62
               7
100
AcDbTrace
 10
28.068601599999994
 20
-118.82918825730519
 30
0.0
 11
28.068601599999994
 21
-118.2703882573052
 31
0.0
 12
28.627401599999992
 22
-118.82918825730519
 32
0.0
 13
28.627401599999992
 23
-118.2703882573052
 33
0.0
  0
SOLID
  5
310
100
AcDbEntity
  8
None
370
              15
390
0
  6
Continuous
 62
               7
100
AcDbTrace
 10
28.868601599999995
 20
-118.82918825730519
 30
0.0
 11
28.868601599999995
 21
-118.2703882573052
 31
0.0
 12
29.427401599999992
 22
-118.82918825730519
 32
0.0
 13
29.427401599999992
 23
-118.2703882573052
 33
0.0
  0
SOLID
  5
311
100
AcDbEntity
  8
None
370
              15
390
0
  6
Continuous
 62
               7
100
AcDbTrace
 10
29.668601599999992
 20
-118.82918825730519
 30
0.0
 11
29.668601599999992
 21
-118.2703882573052
 31
0.0
 12
30.227401599999993
 22
-118.82918825730519
 32
0.0
 13
30.227401599999993
 23
-118.2703882573052
 33
0.0
  0
SOLID
  5
312
100
AcDbEntity
  8
None
370
              15
390
0
  6
Continuous
 62
               7
100
AcDbTrace
 10
30.468601599999992
 20
-118.82918825730519
 30
0.0
 11
30.468601599999992
 21
-118.2703882573052
 31
0.0
 12
31.027401599999994
 22
-118.82918825730519
 32
0.0
 13
31.027401599999994
 23
-118.2703882573052
 33
0.0
  0
SOLID
  5
313
100
AcDbEntity
  8
None
370
              15
390
0
  6
Continuous
 62
               7
100
AcDbTrace
 10
31.268601599999993
 20
-118.82918825730519
 30
0.0
 11
31.268601599999993
 21
-118.2703882573052
 31
0.0
 12
31.827401599999995
 22
-118.82918825730519
 32
0.0
 13
31.827401599999995
 23
-118.2703882573052
 33
0.0
  0
SOLID
  5
314
100
AcDbEntity
  8
None
370
              15
390
0
  6
Continuous
 62
               7
100
AcDbTrace
 10
32.068601599999994
 20
-118.82918825730519
 30
0.0
 11
32.068601599999994
 21
-118.2703882573052
 31
0.0
 12
32.627401599999992
 22
-118.82918825730519
 32
0.0
 13
32.627401599999992
 23
-118.2703882573052
 33
0.0
  0
SOLID
  5
315
100
AcDbEntity
  8
None
370
              15
390
0
  6
Continuous
 62
               7
100
AcDbTrace
 10
32.868601599999991
 20
-118.82918825730519
 30
0.0
 11
32.868601599999991
 21
-118.2703882573052
 31
0.0
 12
33.427401599999996
 22
-118.82918825730519
 32
0.0
 13
33.427401599999996
 23
-118.2703882573052
 33
0.0
  0
SOLID
  5
316
100
AcDbEntity
  8
None
370
              15
390
0
  6
Continuous
 62
               7
100
AcDbTrace
 10
33.668601599999995
 20
-118.82918825730519
 30
0.0
 11
33.668601599999995
 21
-118.2703882573052
 31
0.0
 12
34.227401599999993
 22
-118.82918825730519
 32
0.0
 13
34.227401599999993
 23
-118.2703882573052
 33
0.0
  0
SOLID
  5
317
100
AcDbEntity
  8
None
370
              15
390
0
  6
Continuous
 62
               7
100
AcDbTrace
 10
34.468601599999992
 20
-118.82918825730519
 30
0.0
 11
34.468601599999992
 21
-118.2703882573052
 31
0.0
 12
35.02740159999999
 22
-118.82918825730519
 32
0.0
 13
35.02740159999999
 23
-118.2703882573052
 33
0.0
  0
SOLID
  5
318
100
AcDbEntity
  8
None
370
              15
390
0
  6
Continuous
 62
               7
100
AcDbTrace
 10
35.268601599999997
 20
-118.82918825730519
 30
0.0
 11
35.268601599999997
 21
-118.2703882573052
 31
0.0
 12
35.827401599999995
 22
-118.82918825730519
 32
0.0
 13
35.827401599999995
 23
-118.2703882573052
 33
0.0
  0
SOLID
  5
319
100
AcDbEntity
  8
None
370
              15
390
0
  6
Continuous
 62
               7
100
AcDbTrace
 10
36.068601599999994
 20
-118.82918825730519
 30
0.0
 11
36.068601599999994
 21
-118.2703882573052
 31
0.0
 12
36.627401599999992
 22
-118.82918825730519
 32
0.0
 13
36.627401599999992
 23
-118.2703882573052
 33
0.0
  0
SOLID
  5
31A
100
AcDbEntity
  8
None
370
              15
390
0
  6
Continuous
 62
               7
100
AcDbTrace
 10
18.468601599999992
 20
-119.62918825730519
 30
0.0
 11
18.468601599999992
 21
-119.07038825730518
 31
0.0
 12
19.027401599999994
 22
-119.62918825730519
 32
0.0
 13
19.027401599999994
 23
-119.07038825730518
 33
0.0
  0
SOLID
  5
31B
100
AcDbEntity
  8
None
370
              15
390
0
  6
Continuous
 62
               7
100
AcDbTrace
 10
19.268601599999993
 20
-119.62918825730519
 30
0.0
 11
19.268601599999993
 21
-119.07038825730518
 31
0.0
 12
19.827401599999995
 22
-119.62918825730519
 32
0.0
 13
19.827401599999995
 23
-119.07038825730518
 33
0.0
  0
SOLID
  5
31C
100
AcDbEntity
  8
None
370
              15
390
0
  6
Continuous
 62
               7
100
AcDbTrace
 10
20.068601599999994
 20
-119.62918825730519
 30
0.0
 11
20.068601599999994
 21
-119.07038825730518
 31
0.0
 12
20.627401599999992
 22
-119.62918825730519
 32
0.0
 13
20.627401599999992
 23
-119.07038825730518
 33
0.0
  0
SOLID
  5
31D
100
AcDbEntity
  8
None
370
              15
390
0
  6
Continuous
 62
               7
100
AcDbTrace
 10
20.868601599999995
 20
-119.62918825730519
 30
0.0
 11
20.868601599999995
 21
-119.07038825730518
 31
0.0
 12
21.427401599999992
 22
-119.62918825730519
 32
0.0
 13
21.427401599999992
 23
-119.07038825730518
 33
0.0
  0
SOLID
  5
31E
100
AcDbEntity
  8
None
370
              15
390
0
  6
Continuous
 62
               7
100
AcDbTrace
 10
21.668601599999995
 20
-119.62918825730519
 30
0.0
 11
21.668601599999995
 21
-119.07038825730518
 31
0.0
 12
22.227401599999993
 22
-119.62918825730519
 32
0.0
 13
22.227401599999993
 23
-119.07038825730518
 33
0.0
  0
SOLID
  5
31F
100
AcDbEntity
  8
None
370
              15
390
0
  6
Continuous
 62
               7
100
AcDbTrace
 10
22.468601599999992
 20
-119.62918825730519
 30
0.0
 11
22.468601599999992
 21
-119.07038825730518
 31
0.0
 12
23.027401599999994
 22
-119.62918825730519
 32
0.0
 13
23.027401599999994
 23
-119.07038825730518
 33
0.0
  0
SOLID
  5
320
100
AcDbEntity
  8
None
370
              15
390
0
  6
Continuous
 62
               7
100
AcDbTrace
 10
23.268601599999993
 20
-119.62918825730519
 30
0.0
 11
23.268601599999993
 21
-119.07038825730518
 31
0.0
 12
23.827401599999995
 22
-119.62918825730519
 32
0.0
 13
23.827401599999995
 23
-119.07038825730518
 33
0.0
  0
SOLID
  5
321
100
AcDbEntity
  8
None
370
              15
390
0
  6
Continuous
 62
               7
100
AcDbTrace
 10
24.068601599999994
 20
-119.62918825730519
 30
0.0
 11
24.068601599999994
 21
-119.07038825730518
 31
0.0
 12
24.627401599999992
 22
-119.62918825730519
 32
0.0
 13
24.627401599999992
 23
-119.07038825730518
 33
0.0
  0
SOLID
  5
322
100
AcDbEntity
  8
None
370
              15
390
0
  6
Continuous
 62
               7
100
AcDbTrace
 10
24.868601599999995
 20
-119.62918825730519
 30
0.0
 11
24.868601599999995
 21
-119.07038825730518
 31
0.0
 12
25.427401599999992
 22
-119.62918825730519
 32
0.0
 13
25.427401599999992
 23
-119.07038825730518
 33
0.0
  0
SOLID
  5
323
100
AcDbEntity
  8
None
370
              15
390
0
  6
Continuous
 62
               7
100
AcDbTrace
 10
25.668601599999995
 20
-119.62918825730519
 30
0.0
 11
25.668601599999995
 21
-119.07038825730518
 31
0.0
 12
26.227401599999993
 22
-119.62918825730519
 32
0.0
 13
26.227401599999993
 23
-119.07038825730518
 33
0.0
  0
SOLID
  5
324
100
AcDbEntity
  8
None
370
              15
390
0
  6
Continuous
 62
               7
100
AcDbTrace
 10
26.468601599999992
 20
-119.62918825730519
 30
0.0
 11
26.468601599999992
 21
-119.07038825730518
 31
0.0
 12
27.027401599999994
 22
-119.62918825730519
 32
0.0
 13
27.027401599999994
 23
-119.07038825730518
 33
0.0
  0
SOLID
  5
325
100
AcDbEntity
  8
None
370
              15
390
0
  6
Continuous
 62
               7
100
AcDbTrace
 10
27.268601599999993
 20
-119.62918825730519
 30
0.0
 11
27.268601599999993
 21
-119.07038825730518
 31
0.0
 12
27.827401599999995
 22
-119.62918825730519
 32
0.0
 13
27.827401599999995
 23
-119.07038825730518
 33
0.0
  0
SOLID
  5
326
100
AcDbEntity
  8
None
370
              15
390
0
  6
Continuous
 62
               7
100
AcDbTrace
 10
28.068601599999994
 20
-119.62918825730519
 30
0.0
 11
28.068601599999994
 21
-119.07038825730518
 31
0.0
 12
28.627401599999992
 22
-119.62918825730519
 32
0.0
 13
28.627401599999992
 23
-119.07038825730518
 33
0.0
  0
SOLID
  5
327
100
AcDbEntity
  8
None
370
              15
390
0
  6
Continuous
 62
               7
100
AcDbTrace
 10
28.868601599999995
 20
-119.62918825730519
 30
0.0
 11
28.868601599999995
 21
-119.07038825730518
 31
0.0
 12
29.427401599999992
 22
-119.62918825730519
 32
0.0
 13
29.427401599999992
 23
-119.07038825730518
 33
0.0
  0
SOLID
  5
328
100
AcDbEntity
  8
None
370
              15
390
0
  6
Continuous
 62
               7
100
AcDbTrace
 10
29.668601599999992
 20
-119.62918825730519
 30
0.0
 11
29.668601599999992
 21
-119.07038825730518
 31
0.0
 12
30.227401599999993
 22
-119.62918825730519
 32
0.0
 13
30.227401599999993
 23
-119.07038825730518
 33
0.0
  0
SOLID
  5
329
100
AcDbEntity
  8
None
370
              15
390
0
  6
Continuous
 62
               7
100
AcDbTrace
 10
30.468601599999992
 20
-119.62918825730519
 30
0.0
 11
30.468601599999992
 21
-119.07038825730518
 31
0.0
 12
31.027401599999994
 22
-119.62918825730519
 32
0.0
 13
31.027401599999994
 23
-119.07038825730518
 33
0.0
  0
SOLID
  5
32A
100
AcDbEntity
  8
None
370
              15
390
0
  6
Continuous
 62
               7
100
AcDbTrace
 10
31.268601599999993
 20
-119.62918825730519
 30
0.0
 11
31.268601599999993
 21
-119.07038825730518
 31
0.0
 12
31.827401599999995
 22
-119.62918825730519
 32
0.0
 13
31.827401599999995
 23
-119.07038825730518
 33
0.0
  0
SOLID
  5
32B
100
AcDbEntity
  8
None
370
              15
390
0
  6
Continuous
 62
               7
100
AcDbTrace
 10
32.068601599999994
 20
-119.62918825730519
 30
0.0
 11
32.068601599999994
 21
-119.07038825730518
 31
0.0
 12
32.627401599999992
 22
-119.62918825730519
 32
0.0
 13
32.627401599999992
 23
-119.07038825730518
 33
0.0
  0
SOLID
  5
32C
100
AcDbEntity
  8
None
370
              15
390
0
  6
Continuous
 62
               7
100
AcDbTrace
 10
32.868601599999991
 20
-119.62918825730519
 30
0.0
 11
32.868601599999991
 21
-119.07038825730518
 31
0.0
 12
33.427401599999996
 22
-119.62918825730519
 32
0.0
 13
33.427401599999996
 23
-119.07038825730518
 33
0.0
  0
SOLID
  5
32D
100
AcDbEntity
  8
None
370
              15
390
0
  6
Continuous
 62
               7
100
AcDbTrace
 10
33.668601599999995
 20
-119.62918825730519
 30
0.0
 11
33.668601599999995
 21
-119.07038825730518
 31
0.0
 12
34.227401599999993
 22
-119.62918825730519
 32
0.0
 13
34.227401599999993
 23
-119.07038825730518
 33
0.0
  0
SOLID
  5
32E
100
AcDbEntity
  8
None
370
              15
390
0
  6
Continuous
 62
               7
100
AcDbTrace
 10
34.468601599999992
 20
-119.62918825730519
 30
0.0
 11
34.468601599999992
 21
-119.07038825730518
 31
0.0
 12
35.02740159999999
 22
-119.62918825730519
 32
0.0
 13
35.02740159999999
 23
-119.07038825730518
 33
0.0
  0
SOLID
  5
32F
100
AcDbEntity
  8
None
370
              15
390
0
  6
Continuous
 62
               7
100
AcDbTrace
 10
35.268601599999997
 20
-119.62918825730519
 30
0.0
 11
35.268601599999997
 21
-119.07038825730518
 31
0.0
 12
35.827401599999995
 22
-119.62918825730519
 32
0.0
 13
35.827401599999995
 23
-119.07038825730518
 33
0.0
  0
SOLID
  5
330
100
AcDbEntity
  8
None
370
              15
390
0
  6
Continuous
 62
               7
100
AcDbTrace
 10
36.068601599999994
 20
-119.62918825730519
 30
0.0
 11
36.068601599999994
 21
-119.07038825730518
 31
0.0
 12
36.627401599999992
 22
-119.62918825730519
 32
0.0
 13
36.627401599999992
 23
-119.07038825730518
 33
0.0
  0
SOLID
  5
331
100
AcDbEntity
  8
None
370
              15
390
0
  6
Continuous
 62
               7
100
AcDbTrace
 10
18.468601599999992
 20
-120.42918825730519
 30
0.0
 11
18.468601599999992
 21
-119.87038825730519
 31
0.0
 12
19.027401599999994
 22
-120.42918825730519
 32
0.0
 13
19.027401599999994
 23
-119.87038825730519
 33
0.0
  0
SOLID
  5
332
100
AcDbEntity
  8
None
370
              15
390
0
  6
Continuous
 62
               7
100
AcDbTrace
 10
19.268601599999993
 20
-120.42918825730519
 30
0.0
 11
19.268601599999993
 21
-119.87038825730519
 31
0.0
 12
19.827401599999995
 22
-120.42918825730519
 32
0.0
 13
19.827401599999995
 23
-119.87038825730519
 33
0.0
  0
SOLID
  5
333
100
AcDbEntity
  8
None
370
              15
390
0
  6
Continuous
 62
               7
100
AcDbTrace
 10
20.068601599999994
 20
-120.42918825730519
 30
0.0
 11
20.068601599999994
 21
-119.87038825730519
 31
0.0
 12
20.627401599999992
 22
-120.42918825730519
 32
0.0
 13
20.627401599999992
 23
-119.87038825730519
 33
0.0
  0
SOLID
  5
334
100
AcDbEntity
  8
None
370
              15
390
0
  6
Continuous
 62
               7
100
AcDbTrace
 10
20.868601599999995
 20
-120.42918825730519
 30
0.0
 11
20.868601599999995
 21
-119.87038825730519
 31
0.0
 12
21.427401599999992
 22
-120.42918825730519
 32
0.0
 13
21.427401599999992
 23
-119.87038825730519
 33
0.0
  0
SOLID
  5
335
100
AcDbEntity
  8
None
370
              15
390
0
  6
Continuous
 62
               7
100
AcDbTrace
 10
21.668601599999995
 20
-120.42918825730519
 30
0.0
 11
21.668601599999995
 21
-119.87038825730519
 31
0.0
 12
22.227401599999993
 22
-120.42918825730519
 32
0.0
 13
22.227401599999993
 23
-119.87038825730519
 33
0.0
  0
SOLID
  5
336
100
AcDbEntity
  8
None
370
              15
390
0
  6
Continuous
 62
               7
100
AcDbTrace
 10
22.468601599999992
 20
-120.42918825730519
 30
0.0
 11
22.468601599999992
 21
-119.87038825730519
 31
0.0
 12
23.027401599999994
 22
-120.42918825730519
 32
0.0
 13
23.027401599999994
 23
-119.87038825730519
 33
0.0
  0
SOLID
  5
337
100
AcDbEntity
  8
None
370
              15
390
0
  6
Continuous
 62
               7
100
AcDbTrace
 10
23.268601599999993
 20
-120.42918825730519
 30
0.0
 11
23.268601599999993
 21
-119.87038825730519
 31
0.0
 12
23.827401599999995
 22
-120.42918825730519
 32
0.0
 13
23.827401599999995
 23
-119.87038825730519
 33
0.0
  0
SOLID
  5
338
100
AcDbEntity
  8
None
370
              15
390
0
  6
Continuous
 62
               7
100
AcDbTrace
 10
24.068601599999994
 20
-120.42918825730519
 30
0.0
 11
24.068601599999994
 21
-119.87038825730519
 31
0.0
 12
24.627401599999992
 22
-120.42918825730519
 32
0.0
 13
24.627401599999992
 23
-119.87038825730519
 33
0.0
  0
SOLID
  5
339
100
AcDbEntity
  8
None
370
              15
390
0
  6
Continuous
 62
               7
100
AcDbTrace
 10
24.868601599999995
 20
-120.42918825730519
 30
0.0
 11
24.868601599999995
 21
-119.87038825730519
 31
0.0
 12
25.427401599999992
 22
-120.42918825730519
 32
0.0
 13
25.427401599999992
 23
-119.87038825730519
 33
0.0
  0
SOLID
  5
33A
100
AcDbEntity
  8
None
370
              15
390
0
  6
Continuous
 62
               7
100
AcDbTrace
 10
25.668601599999995
 20
-120.42918825730519
 30
0.0
 11
25.668601599999995
 21
-119.87038825730519
 31
0.0
 12
26.227401599999993
 22
-120.42918825730519
 32
0.0
 13
26.227401599999993
 23
-119.87038825730519
 33
0.0
  0
SOLID
  5
33B
100
AcDbEntity
  8
None
370
              15
390
0
  6
Continuous
 62
               7
100
AcDbTrace
 10
26.468601599999992
 20
-120.42918825730519
 30
0.0
 11
26.468601599999992
 21
-119.87038825730519
 31
0.0
 12
27.027401599999994
 22
-120.42918825730519
 32
0.0
 13
27.027401599999994
 23
-119.87038825730519
 33
0.0
  0
SOLID
  5
33C
100
AcDbEntity
  8
None
370
              15
390
0
  6
Continuous
 62
               7
100
AcDbTrace
 10
27.268601599999993
 20
-120.42918825730519
 30
0.0
 11
27.268601599999993
 21
-119.87038825730519
 31
0.0
 12
27.827401599999995
 22
-120.42918825730519
 32
0.0
 13
27.827401599999995
 23
-119.87038825730519
 33
0.0
  0
SOLID
  5
33D
100
AcDbEntity
  8
None
370
              15
390
0
  6
Continuous
 62
               7
100
AcDbTrace
 10
28.068601599999994
 20
-120.42918825730519
 30
0.0
 11
28.068601599999994
 21
-119.87038825730519
 31
0.0
 12
28.627401599999992
 22
-120.42918825730519
 32
0.0
 13
28.627401599999992
 23
-119.87038825730519
 33
0.0
  0
SOLID
  5
33E
100
AcDbEntity
  8
None
370
              15
390
0
  6
Continuous
 62
               7
100
AcDbTrace
 10
28.868601599999995
 20
-120.42918825730519
 30
0.0
 11
28.868601599999995
 21
-119.87038825730519
 31
0.0
 12
29.427401599999992
 22
-120.42918825730519
 32
0.0
 13
29.427401599999992
 23
-119.87038825730519
 33
0.0
  0
SOLID
  5
33F
100
AcDbEntity
  8
None
370
              15
390
0
  6
Continuous
 62
               7
100
AcDbTrace
 10
29.668601599999992
 20
-120.42918825730519
 30
0.0
 11
29.668601599999992
 21
-119.87038825730519
 31
0.0
 12
30.227401599999993
 22
-120.42918825730519
 32
0.0
 13
30.227401599999993
 23
-119.87038825730519
 33
0.0
  0
SOLID
  5
340
100
AcDbEntity
  8
None
370
              15
390
0
  6
Continuous
 62
               7
100
AcDbTrace
 10
30.468601599999992
 20
-120.42918825730519
 30
0.0
 11
30.468601599999992
 21
-119.87038825730519
 31
0.0
 12
31.027401599999994
 22
-120.42918825730519
 32
0.0
 13
31.027401599999994
 23
-119.87038825730519
 33
0.0
  0
SOLID
  5
341
100
AcDbEntity
  8
None
370
              15
390
0
  6
Continuous
 62
               7
100
AcDbTrace
 10
31.268601599999993
 20
-120.42918825730519
 30
0.0
 11
31.268601599999993
 21
-119.87038825730519
 31
0.0
 12
31.827401599999995
 22
-120.42918825730519
 32
0.0
 13
31.827401599999995
 23
-119.87038825730519
 33
0.0
  0
SOLID
  5
342
100
AcDbEntity
  8
None
370
              15
390
0
  6
Continuous
 62
               7
100
AcDbTrace
 10
32.068601599999994
 20
-120.42918825730519
 30
0.0
 11
32.068601599999994
 21
-119.87038825730519
 31
0.0
 12
32.627401599999992
 22
-120.42918825730519
 32
0.0
 13
32.627401599999992
 23
-119.87038825730519
 33
0.0
  0
SOLID
  5
343
100
AcDbEntity
  8
None
370
              15
390
0
  6
Continuous
 62
               7
100
AcDbTrace
 10
32.868601599999991
 20
-120.42918825730519
 30
0.0
 11
32.868601599999991
 21
-119.87038825730519
 31
0.0
 12
33.427401599999996
 22
-120.42918825730519
 32
0.0
 13
33.427401599999996
 23
-119.87038825730519
 33
0.0
  0
SOLID
  5
344
100
AcDbEntity
  8
None
370
              15
390
0
  6
Continuous
 62
               7
100
AcDbTrace
 10
33.668601599999995
 20
-120.42918825730519
 30
0.0
 11
33.668601599999995
 21
-119.87038825730519
 31
0.0
 12
34.227401599999993
 22
-120.42918825730519
 32
0.0
 13
34.227401599999993
 23
-119.87038825730519
 33
0.0
  0
SOLID
  5
345
100
AcDbEntity
  8
None
370
              15
390
0
  6
Continuous
 62
               7
100
AcDbTrace
 10
34.468601599999992
 20
-120.42918825730519
 30
0.0
 11
34.468601599999992
 21
-119.87038825730519
 31
0.0
 12
35.02740159999999
 22
-120.42918825730519
 32
0.0
 13
35.02740159999999
 23
-119.87038825730519
 33
0.0
  0
SOLID
  5
346
100
AcDbEntity
  8
None
370
              15
390
0
  6
Continuous
 62
               7
100
AcDbTrace
 10
35.268601599999997
 20
-120.42918825730519
 30
0.0
 11
35.268601599999997
 21
-119.87038825730519
 31
0.0
 12
35.827401599999995
 22
-120.42918825730519
 32
0.0
 13
35.827401599999995
 23
-119.87038825730519
 33
0.0
  0
SOLID
  5
347
100
AcDbEntity
  8
None
370
              15
390
0
  6
Continuous
 62
               7
100
AcDbTrace
 10
36.068601599999994
 20
-120.42918825730519
 30
0.0
 11
36.068601599999994
 21
-119.87038825730519
 31
0.0
 12
36.627401599999992
 22
-120.42918825730519
 32
0.0
 13
36.627401599999992
 23
-119.87038825730519
 33
0.0
  0
SOLID
  5
348
100
AcDbEntity
  8
None
370
              15
390
0
  6
Continuous
 62
               7
100
AcDbTrace
 10
18.468601599999992
 20
-121.22918825730518
 30
0.0
 11
18.468601599999992
 21
-120.67038825730518
 31
0.0
 12
19.027401599999994
 22
-121.22918825730518
 32
0.0
 13
19.027401599999994
 23
-120.67038825730518
 33
0.0
  0
SOLID
  5
349
100
AcDbEntity
  8
None
370
              15
390
0
  6
Continuous
 62
               7
100
AcDbTrace
 10
19.268601599999993
 20
-121.22918825730518
 30
0.0
 11
19.268601599999993
 21
-120.67038825730518
 31
0.0
 12
19.827401599999995
 22
-121.22918825730518
 32
0.0
 13
19.827401599999995
 23
-120.67038825730518
 33
0.0
  0
SOLID
  5
34A
100
AcDbEntity
  8
None
370
              15
390
0
  6
Continuous
 62
               7
100
AcDbTrace
 10
20.068601599999994
 20
-121.22918825730518
 30
0.0
 11
20.068601599999994
 21
-120.67038825730518
 31
0.0
 12
20.627401599999992
 22
-121.22918825730518
 32
0.0
 13
20.627401599999992
 23
-120.67038825730518
 33
0.0
  0
SOLID
  5
34B
100
AcDbEntity
  8
None
370
              15
390
0
  6
Continuous
 62
               7
100
AcDbTrace
 10
20.868601599999995
 20
-121.22918825730518
 30
0.0
 11
20.868601599999995
 21
-120.67038825730518
 31
0.0
 12
21.427401599999992
 22
-121.22918825730518
 32
0.0
 13
21.427401599999992
 23
-120.67038825730518
 33
0.0
  0
SOLID
  5
34C
100
AcDbEntity
  8
None
370
              15
390
0
  6
Continuous
 62
               7
100
AcDbTrace
 10
21.668601599999995
 20
-121.22918825730518
 30
0.0
 11
21.668601599999995
 21
-120.67038825730518
 31
0.0
 12
22.227401599999993
 22
-121.22918825730518
 32
0.0
 13
22.227401599999993
 23
-120.67038825730518
 33
0.0
  0
SOLID
  5
34D
100
AcDbEntity
  8
None
370
              15
390
0
  6
Continuous
 62
               7
100
AcDbTrace
 10
22.468601599999992
 20
-121.22918825730518
 30
0.0
 11
22.468601599999992
 21
-120.67038825730518
 31
0.0
 12
23.027401599999994
 22
-121.22918825730518
 32
0.0
 13
23.027401599999994
 23
-120.67038825730518
 33
0.0
  0
SOLID
  5
34E
100
AcDbEntity
  8
None
370
              15
390
0
  6
Continuous
 62
               7
100
AcDbTrace
 10
23.268601599999993
 20
-121.22918825730518
 30
0.0
 11
23.268601599999993
 21
-120.67038825730518
 31
0.0
 12
23.827401599999995
 22
-121.22918825730518
 32
0.0
 13
23.827401599999995
 23
-120.67038825730518
 33
0.0
  0
SOLID
  5
34F
100
AcDbEntity
  8
None
370
              15
390
0
  6
Continuous
 62
               7
100
AcDbTrace
 10
24.068601599999994
 20
-121.22918825730518
 30
0.0
 11
24.068601599999994
 21
-120.67038825730518
 31
0.0
 12
24.627401599999992
 22
-121.22918825730518
 32
0.0
 13
24.627401599999992
 23
-120.67038825730518
 33
0.0
  0
SOLID
  5
350
100
AcDbEntity
  8
None
370
              15
390
0
  6
Continuous
 62
               7
100
AcDbTrace
 10
24.868601599999995
 20
-121.22918825730518
 30
0.0
 11
24.868601599999995
 21
-120.67038825730518
 31
0.0
 12
25.427401599999992
 22
-121.22918825730518
 32
0.0
 13
25.427401599999992
 23
-120.67038825730518
 33
0.0
  0
SOLID
  5
351
100
AcDbEntity
  8
None
370
              15
390
0
  6
Continuous
 62
               7
100
AcDbTrace
 10
25.668601599999995
 20
-121.22918825730518
 30
0.0
 11
25.668601599999995
 21
-120.67038825730518
 31
0.0
 12
26.227401599999993
 22
-121.22918825730518
 32
0.0
 13
26.227401599999993
 23
-120.67038825730518
 33
0.0
  0
SOLID
  5
352
100
AcDbEntity
  8
None
370
              15
390
0
  6
Continuous
 62
               7
100
AcDbTrace
 10
26.468601599999992
 20
-121.22918825730518
 30
0.0
 11
26.468601599999992
 21
-120.67038825730518
 31
0.0
 12
27.027401599999994
 22
-121.22918825730518
 32
0.0
 13
27.027401599999994
 23
-120.67038825730518
 33
0.0
  0
SOLID
  5
353
100
AcDbEntity
  8
None
370
              15
390
0
  6
Continuous
 62
               7
100
AcDbTrace
 10
27.268601599999993
 20
-121.22918825730518
 30
0.0
 11
27.268601599999993
 21
-120.67038825730518
 31
0.0
 12
27.827401599999995
 22
-121.22918825730518
 32
0.0
 13
27.827401599999995
 23
-120.67038825730518
 33
0.0
  0
SOLID
  5
354
100
AcDbEntity
  8
None
370
              15
390
0
  6
Continuous
 62
               7
100
AcDbTrace
 10
28.068601599999994
 20
-121.22918825730518
 30
0.0
 11
28.068601599999994
 21
-120.67038825730518
 31
0.0
 12
28.627401599999992
 22
-121.22918825730518
 32
0.0
 13
28.627401599999992
 23
-120.67038825730518
 33
0.0
  0
SOLID
  5
355
100
AcDbEntity
  8
None
370
              15
390
0
  6
Continuous
 62
               7
100
AcDbTrace
 10
28.868601599999995
 20
-121.22918825730518
 30
0.0
 11
28.868601599999995
 21
-120.67038825730518
 31
0.0
 12
29.427401599999992
 22
-121.22918825730518
 32
0.0
 13
29.427401599999992
 23
-120.67038825730518
 33
0.0
  0
SOLID
  5
356
100
AcDbEntity
  8
None
370
              15
390
0
  6
Continuous
 62
               7
100
AcDbTrace
 10
29.668601599999992
 20
-121.22918825730518
 30
0.0
 11
29.668601599999992
 21
-120.67038825730518
 31
0.0
 12
30.227401599999993
 22
-121.22918825730518
 32
0.0
 13
30.227401599999993
 23
-120.67038825730518
 33
0.0
  0
SOLID
  5
357
100
AcDbEntity
  8
None
370
              15
390
0
  6
Continuous
 62
               7
100
AcDbTrace
 10
30.468601599999992
 20
-121.22918825730518
 30
0.0
 11
30.468601599999992
 21
-120.67038825730518
 31
0.0
 12
31.027401599999994
 22
-121.22918825730518
 32
0.0
 13
31.027401599999994
 23
-120.67038825730518
 33
0.0
  0
SOLID
  5
358
100
AcDbEntity
  8
None
370
              15
390
0
  6
Continuous
 62
               7
100
AcDbTrace
 10
31.268601599999993
 20
-121.22918825730518
 30
0.0
 11
31.268601599999993
 21
-120.67038825730518
 31
0.0
 12
31.827401599999995
 22
-121.22918825730518
 32
0.0
 13
31.827401599999995
 23
-120.67038825730518
 33
0.0
  0
SOLID
  5
359
100
AcDbEntity
  8
None
370
              15
390
0
  6
Continuous
 62
               7
100
AcDbTrace
 10
32.068601599999994
 20
-121.22918825730518
 30
0.0
 11
32.068601599999994
 21
-120.67038825730518
 31
0.0
 12
32.627401599999992
 22
-121.22918825730518
 32
0.0
 13
32.627401599999992
 23
-120.67038825730518
 33
0.0
  0
SOLID
  5
35A
100
AcDbEntity
  8
None
370
              15
390
0
  6
Continuous
 62
               7
100
AcDbTrace
 10
32.868601599999991
 20
-121.22918825730518
 30
0.0
 11
32.868601599999991
 21
-120.67038825730518
 31
0.0
 12
33.427401599999996
 22
-121.22918825730518
 32
0.0
 13
33.427401599999996
 23
-120.67038825730518
 33
0.0
  0
SOLID
  5
35B
100
AcDbEntity
  8
None
370
              15
390
0
  6
Continuous
 62
               7
100
AcDbTrace
 10
33.668601599999995
 20
-121.22918825730518
 30
0.0
 11
33.668601599999995
 21
-120.67038825730518
 31
0.0
 12
34.227401599999993
 22
-121.22918825730518
 32
0.0
 13
34.227401599999993
 23
-120.67038825730518
 33
0.0
  0
SOLID
  5
35C
100
AcDbEntity
  8
None
370
              15
390
0
  6
Continuous
 62
               7
100
AcDbTrace
 10
34.468601599999992
 20
-121.22918825730518
 30
0.0
 11
34.468601599999992
 21
-120.67038825730518
 31
0.0
 12
35.02740159999999
 22
-121.22918825730518
 32
0.0
 13
35.02740159999999
 23
-120.67038825730518
 33
0.0
  0
SOLID
  5
35D
100
AcDbEntity
  8
None
370
              15
390
0
  6
Continuous
 62
               7
100
AcDbTrace
 10
35.268601599999997
 20
-121.22918825730518
 30
0.0
 11
35.268601599999997
 21
-120.67038825730518
 31
0.0
 12
35.827401599999995
 22
-121.22918825730518
 32
0.0
 13
35.827401599999995
 23
-120.67038825730518
 33
0.0
  0
SOLID
  5
35E
100
AcDbEntity
  8
None
370
              15
390
0
  6
Continuous
 62
               7
100
AcDbTrace
 10
36.068601599999994
 20
-121.22918825730518
 30
0.0
 11
36.068601599999994
 21
-120.67038825730518
 31
0.0
 12
36.627401599999992
 22
-121.22918825730518
 32
0.0
 13
36.627401599999992
 23
-120.67038825730518
 33
0.0
  0
SOLID
  5
35F
100
AcDbEntity
  8
None
370
              15
390
0
  6
Continuous
 62
               7
100
AcDbTrace
 10
18.468601599999992
 20
-122.02918825730518
 30
0.0
 11
18.468601599999992
 21
-121.47038825730519
 31
0.0
 12
19.027401599999994
 22
-122.02918825730518
 32
0.0
 13
19.027401599999994
 23
-121.47038825730519
 33
0.0
  0
SOLID
  5
360
100
AcDbEntity
  8
None
370
              15
390
0
  6
Continuous
 62
               7
100
AcDbTrace
 10
19.268601599999993
 20
-122.02918825730518
 30
0.0
 11
19.268601599999993
 21
-121.47038825730519
 31
0.0
 12
19.827401599999995
 22
-122.02918825730518
 32
0.0
 13
19.827401599999995
 23
-121.47038825730519
 33
0.0
  0
SOLID
  5
361
100
AcDbEntity
  8
None
370
              15
390
0
  6
Continuous
 62
               7
100
AcDbTrace
 10
20.068601599999994
 20
-122.02918825730518
 30
0.0
 11
20.068601599999994
 21
-121.47038825730519
 31
0.0
 12
20.627401599999992
 22
-122.02918825730518
 32
0.0
 13
20.627401599999992
 23
-121.47038825730519
 33
0.0
  0
SOLID
  5
362
100
AcDbEntity
  8
None
370
              15
390
0
  6
Continuous
 62
               7
100
AcDbTrace
 10
20.868601599999995
 20
-122.02918825730518
 30
0.0
 11
20.868601599999995
 21
-121.47038825730519
 31
0.0
 12
21.427401599999992
 22
-122.02918825730518
 32
0.0
 13
21.427401599999992
 23
-121.47038825730519
 33
0.0
  0
SOLID
  5
363
100
AcDbEntity
  8
None
370
              15
390
0
  6
Continuous
 62
               7
100
AcDbTrace
 10
21.668601599999995
 20
-122.02918825730518
 30
0.0
 11
21.668601599999995
 21
-121.47038825730519
 31
0.0
 12
22.227401599999993
 22
-122.02918825730518
 32
0.0
 13
22.227401599999993
 23
-121.47038825730519
 33
0.0
  0
SOLID
  5
364
100
AcDbEntity
  8
None
370
              15
390
0
  6
Continuous
 62
               7
100
AcDbTrace
 10
22.468601599999992
 20
-122.02918825730518
 30
0.0
 11
22.468601599999992
 21
-121.47038825730519
 31
0.0
 12
23.027401599999994
 22
-122.02918825730518
 32
0.0
 13
23.027401599999994
 23
-121.47038825730519
 33
0.0
  0
SOLID
  5
365
100
AcDbEntity
  8
None
370
              15
390
0
  6
Continuous
 62
               7
100
AcDbTrace
 10
23.268601599999993
 20
-122.02918825730518
 30
0.0
 11
23.268601599999993
 21
-121.47038825730519
 31
0.0
 12
23.827401599999995
 22
-122.02918825730518
 32
0.0
 13
23.827401599999995
 23
-121.47038825730519
 33
0.0
  0
SOLID
  5
366
100
AcDbEntity
  8
None
370
              15
390
0
  6
Continuous
 62
               7
100
AcDbTrace
 10
24.068601599999994
 20
-122.02918825730518
 30
0.0
 11
24.068601599999994
 21
-121.47038825730519
 31
0.0
 12
24.627401599999992
 22
-122.02918825730518
 32
0.0
 13
24.627401599999992
 23
-121.47038825730519
 33
0.0
  0
SOLID
  5
367
100
AcDbEntity
  8
None
370
              15
390
0
  6
Continuous
 62
               7
100
AcDbTrace
 10
24.868601599999995
 20
-122.02918825730518
 30
0.0
 11
24.868601599999995
 21
-121.47038825730519
 31
0.0
 12
25.427401599999992
 22
-122.02918825730518
 32
0.0
 13
25.427401599999992
 23
-121.47038825730519
 33
0.0
  0
SOLID
  5
368
100
AcDbEntity
  8
None
370
              15
390
0
  6
Continuous
 62
               7
100
AcDbTrace
 10
25.668601599999995
 20
-122.02918825730518
 30
0.0
 11
25.668601599999995
 21
-121.47038825730519
 31
0.0
 12
26.227401599999993
 22
-122.02918825730518
 32
0.0
 13
26.227401599999993
 23
-121.47038825730519
 33
0.0
  0
SOLID
  5
369
100
AcDbEntity
  8
None
370
              15
390
0
  6
Continuous
 62
               7
100
AcDbTrace
 10
26.468601599999992
 20
-122.02918825730518
 30
0.0
 11
26.468601599999992
 21
-121.47038825730519
 31
0.0
 12
27.027401599999994
 22
-122.02918825730518
 32
0.0
 13
27.027401599999994
 23
-121.47038825730519
 33
0.0
  0
SOLID
  5
36A
100
AcDbEntity
  8
None
370
              15
390
0
  6
Continuous
 62
               7
100
AcDbTrace
 10
27.268601599999993
 20
-122.02918825730518
 30
0.0
 11
27.268601599999993
 21
-121.47038825730519
 31
0.0
 12
27.827401599999995
 22
-122.02918825730518
 32
0.0
 13
27.827401599999995
 23
-121.47038825730519
 33
0.0
  0
SOLID
  5
36B
100
AcDbEntity
  8
None
370
              15
390
0
  6
Continuous
 62
               7
100
AcDbTrace
 10
28.068601599999994
 20
-122.02918825730518
 30
0.0
 11
28.068601599999994
 21
-121.47038825730519
 31
0.0
 12
28.627401599999992
 22
-122.02918825730518
 32
0.0
 13
28.627401599999992
 23
-121.47038825730519
 33
0.0
  0
SOLID
  5
36C
100
AcDbEntity
  8
None
370
              15
390
0
  6
Continuous
 62
               7
100
AcDbTrace
 10
28.868601599999995
 20
-122.02918825730518
 30
0.0
 11
28.868601599999995
 21
-121.47038825730519
 31
0.0
 12
29.427401599999992
 22
-122.02918825730518
 32
0.0
 13
29.427401599999992
 23
-121.47038825730519
 33
0.0
  0
SOLID
  5
36D
100
AcDbEntity
  8
None
370
              15
390
0
  6
Continuous
 62
               7
100
AcDbTrace
 10
29.668601599999992
 20
-122.02918825730518
 30
0.0
 11
29.668601599999992
 21
-121.47038825730519
 31
0.0
 12
30.227401599999993
 22
-122.02918825730518
 32
0.0
 13
30.227401599999993
 23
-121.47038825730519
 33
0.0
  0
SOLID
  5
36E
100
AcDbEntity
  8
None
370
              15
390
0
  6
Continuous
 62
               7
100
AcDbTrace
 10
30.468601599999992
 20
-122.02918825730518
 30
0.0
 11
30.468601599999992
 21
-121.47038825730519
 31
0.0
 12
31.027401599999994
 22
-122.02918825730518
 32
0.0
 13
31.027401599999994
 23
-121.47038825730519
 33
0.0
  0
SOLID
  5
36F
100
AcDbEntity
  8
None
370
              15
390
0
  6
Continuous
 62
               7
100
AcDbTrace
 10
31.268601599999993
 20
-122.02918825730518
 30
0.0
 11
31.268601599999993
 21
-121.47038825730519
 31
0.0
 12
31.827401599999995
 22
-122.02918825730518
 32
0.0
 13
31.827401599999995
 23
-121.47038825730519
 33
0.0
  0
SOLID
  5
370
100
AcDbEntity
  8
None
370
              15
390
0
  6
Continuous
 62
               7
100
AcDbTrace
 10
32.068601599999994
 20
-122.02918825730518
 30
0.0
 11
32.068601599999994
 21
-121.47038825730519
 31
0.0
 12
32.627401599999992
 22
-122.02918825730518
 32
0.0
 13
32.627401599999992
 23
-121.47038825730519
 33
0.0
  0
SOLID
  5
371
100
AcDbEntity
  8
None
370
              15
390
0
  6
Continuous
 62
               7
100
AcDbTrace
 10
32.868601599999991
 20
-122.02918825730518
 30
0.0
 11
32.868601599999991
 21
-121.47038825730519
 31
0.0
 12
33.427401599999996
 22
-122.02918825730518
 32
0.0
 13
33.427401599999996
 23
-121.47038825730519
 33
0.0
  0
SOLID
  5
372
100
AcDbEntity
  8
None
370
              15
390
0
  6
Continuous
 62
               7
100
AcDbTrace
 10
33.668601599999995
 20
-122.02918825730518
 30
0.0
 11
33.668601599999995
 21
-121.47038825730519
 31
0.0
 12
34.227401599999993
 22
-122.02918825730518
 32
0.0
 13
34.227401599999993
 23
-121.47038825730519
 33
0.0
  0
SOLID
  5
373
100
AcDbEntity
  8
None
370
              15
390
0
  6
Continuous
 62
               7
100
AcDbTrace
 10
34.468601599999992
 20
-122.02918825730518
 30
0.0
 11
34.468601599999992
 21
-121.47038825730519
 31
0.0
 12
35.02740159999999
 22
-122.02918825730518
 32
0.0
 13
35.02740159999999
 23
-121.47038825730519
 33
0.0
  0
SOLID
  5
374
100
AcDbEntity
  8
None
370
              15
390
0
  6
Continuous
 62
               7
100
AcDbTrace
 10
35.268601599999997
 20
-122.02918825730518
 30
0.0
 11
35.268601599999997
 21
-121.47038825730519
 31
0.0
 12
35.827401599999995
 22
-122.02918825730518
 32
0.0
 13
35.827401599999995
 23
-121.47038825730519
 33
0.0
  0
SOLID
  5
375
100
AcDbEntity
  8
None
370
              15
390
0
  6
Continuous
 62
               7
100
AcDbTrace
 10
36.068601599999994
 20
-122.02918825730518
 30
0.0
 11
36.068601599999994
 21
-121.47038825730519
 31
0.0
 12
36.627401599999992
 22
-122.02918825730518
 32
0.0
 13
36.627401599999992
 23
-121.47038825730519
 33
0.0
  0
SOLID
  5
376
100
AcDbEntity
  8
None
370
              15
390
0
  6
Continuous
 62
               7
100
AcDbTrace
 10
18.468601599999992
 20
-122.82918825730519
 30
0.0
 11
18.468601599999992
 21
-122.27038825730517
 31
0.0
 12
19.027401599999994
 22
-122.82918825730519
 32
0.0
 13
19.027401599999994
 23
-122.27038825730517
 33
0.0
  0
SOLID
  5
377
100
AcDbEntity
  8
None
370
              15
390
0
  6
Continuous
 62
               7
100
AcDbTrace
 10
19.268601599999993
 20
-122.82918825730519
 30
0.0
 11
19.268601599999993
 21
-122.27038825730517
 31
0.0
 12
19.827401599999995
 22
-122.82918825730519
 32
0.0
 13
19.827401599999995
 23
-122.27038825730517
 33
0.0
  0
SOLID
  5
378
100
AcDbEntity
  8
None
370
              15
390
0
  6
Continuous
 62
               7
100
AcDbTrace
 10
20.068601599999994
 20
-122.82918825730519
 30
0.0
 11
20.068601599999994
 21
-122.27038825730517
 31
0.0
 12
20.627401599999992
 22
-122.82918825730519
 32
0.0
 13
20.627401599999992
 23
-122.27038825730517
 33
0.0
  0
SOLID
  5
379
100
AcDbEntity
  8
None
370
              15
390
0
  6
Continuous
 62
               7
100
AcDbTrace
 10
20.868601599999995
 20
-122.82918825730519
 30
0.0
 11
20.868601599999995
 21
-122.27038825730517
 31
0.0
 12
21.427401599999992
 22
-122.82918825730519
 32
0.0
 13
21.427401599999992
 23
-122.27038825730517
 33
0.0
  0
SOLID
  5
37A
100
AcDbEntity
  8
None
370
              15
390
0
  6
Continuous
 62
               7
100
AcDbTrace
 10
21.668601599999995
 20
-122.82918825730519
 30
0.0
 11
21.668601599999995
 21
-122.27038825730517
 31
0.0
 12
22.227401599999993
 22
-122.82918825730519
 32
0.0
 13
22.227401599999993
 23
-122.27038825730517
 33
0.0
  0
SOLID
  5
37B
100
AcDbEntity
  8
None
370
              15
390
0
  6
Continuous
 62
               7
100
AcDbTrace
 10
22.468601599999992
 20
-122.82918825730519
 30
0.0
 11
22.468601599999992
 21
-122.27038825730517
 31
0.0
 12
23.027401599999994
 22
-122.82918825730519
 32
0.0
 13
23.027401599999994
 23
-122.27038825730517
 33
0.0
  0
SOLID
  5
37C
100
AcDbEntity
  8
None
370
              15
390
0
  6
Continuous
 62
               7
100
AcDbTrace
 10
23.268601599999993
 20
-122.82918825730519
 30
0.0
 11
23.268601599999993
 21
-122.27038825730517
 31
0.0
 12
23.827401599999995
 22
-122.82918825730519
 32
0.0
 13
23.827401599999995
 23
-122.27038825730517
 33
0.0
  0
SOLID
  5
37D
100
AcDbEntity
  8
None
370
              15
390
0
  6
Continuous
 62
               7
100
AcDbTrace
 10
24.068601599999994
 20
-122.82918825730519
 30
0.0
 11
24.068601599999994
 21
-122.27038825730517
 31
0.0
 12
24.627401599999992
 22
-122.82918825730519
 32
0.0
 13
24.627401599999992
 23
-122.27038825730517
 33
0.0
  0
SOLID
  5
37E
100
AcDbEntity
  8
None
370
              15
390
0
  6
Continuous
 62
               7
100
AcDbTrace
 10
24.868601599999995
 20
-122.82918825730519
 30
0.0
 11
24.868601599999995
 21
-122.27038825730517
 31
0.0
 12
25.427401599999992
 22
-122.82918825730519
 32
0.0
 13
25.427401599999992
 23
-122.27038825730517
 33
0.0
  0
SOLID
  5
37F
100
AcDbEntity
  8
None
370
              15
390
0
  6
Continuous
 62
               7
100
AcDbTrace
 10
25.668601599999995
 20
-122.82918825730519
 30
0.0
 11
25.668601599999995
 21
-122.27038825730517
 31
0.0
 12
26.227401599999993
 22
-122.82918825730519
 32
0.0
 13
26.227401599999993
 23
-122.27038825730517
 33
0.0
  0
SOLID
  5
380
100
AcDbEntity
  8
None
370
              15
390
0
  6
Continuous
 62
               7
100
AcDbTrace
 10
26.468601599999992
 20
-122.82918825730519
 30
0.0
 11
26.468601599999992
 21
-122.27038825730517
 31
0.0
 12
27.027401599999994
 22
-122.82918825730519
 32
0.0
 13
27.027401599999994
 23
-122.27038825730517
 33
0.0
  0
SOLID
  5
381
100
AcDbEntity
  8
None
370
              15
390
0
  6
Continuous
 62
               7
100
AcDbTrace
 10
27.268601599999993
 20
-122.82918825730519
 30
0.0
 11
27.268601599999993
 21
-122.27038825730517
 31
0.0
 12
27.827401599999995
 22
-122.82918825730519
 32
0.0
 13
27.827401599999995
 23
-122.27038825730517
 33
0.0
  0
SOLID
  5
382
100
AcDbEntity
  8
None
370
              15
390
0
  6
Continuous
 62
               7
100
AcDbTrace
 10
28.068601599999994
 20
-122.82918825730519
 30
0.0
 11
28.068601599999994
 21
-122.27038825730517
 31
0.0
 12
28.627401599999992
 22
-122.82918825730519
 32
0.0
 13
28.627401599999992
 23
-122.27038825730517
 33
0.0
  0
SOLID
  5
383
100
AcDbEntity
  8
None
370
              15
390
0
  6
Continuous
 62
               7
100
AcDbTrace
 10
28.868601599999995
 20
-122.82918825730519
 30
0.0
 11
28.868601599999995
 21
-122.27038825730517
 31
0.0
 12
29.427401599999992
 22
-122.82918825730519
 32
0.0
 13
29.427401599999992
 23
-122.27038825730517
 33
0.0
  0
SOLID
  5
384
100
AcDbEntity
  8
None
370
              15
390
0
  6
Continuous
 62
               7
100
AcDbTrace
 10
29.668601599999992
 20
-122.82918825730519
 30
0.0
 11
29.668601599999992
 21
-122.27038825730517
 31
0.0
 12
30.227401599999993
 22
-122.82918825730519
 32
0.0
 13
30.227401599999993
 23
-122.27038825730517
 33
0.0
  0
SOLID
  5
385
100
AcDbEntity
  8
None
370
              15
390
0
  6
Continuous
 62
               7
100
AcDbTrace
 10
30.468601599999992
 20
-122.82918825730519
 30
0.0
 11
30.468601599999992
 21
-122.27038825730517
 31
0.0
 12
31.027401599999994
 22
-122.82918825730519
 32
0.0
 13
31.027401599999994
 23
-122.27038825730517
 33
0.0
  0
SOLID
  5
386
100
AcDbEntity
  8
None
370
              15
390
0
  6
Continuous
 62
               7
100
AcDbTrace
 10
31.268601599999993
 20
-122.82918825730519
 30
0.0
 11
31.268601599999993
 21
-122.27038825730517
 31
0.0
 12
31.827401599999995
 22
-122.82918825730519
 32
0.0
 13
31.827401599999995
 23
-122.27038825730517
 33
0.0
  0
SOLID
  5
387
100
AcDbEntity
  8
None
370
              15
390
0
  6
Continuous
 62
               7
100
AcDbTrace
 10
32.068601599999994
 20
-122.82918825730519
 30
0.0
 11
32.068601599999994
 21
-122.27038825730517
 31
0.0
 12
32.627401599999992
 22
-122.82918825730519
 32
0.0
 13
32.627401599999992
 23
-122.27038825730517
 33
0.0
  0
SOLID
  5
388
100
AcDbEntity
  8
None
370
              15
390
0
  6
Continuous
 62
               7
100
AcDbTrace
 10
32.868601599999991
 20
-122.82918825730519
 30
0.0
 11
32.868601599999991
 21
-122.27038825730517
 31
0.0
 12
33.427401599999996
 22
-122.82918825730519
 32
0.0
 13
33.427401599999996
 23
-122.27038825730517
 33
0.0
  0
SOLID
  5
389
100
AcDbEntity
  8
None
370
              15
390
0
  6
Continuous
 62
               7
100
AcDbTrace
 10
33.668601599999995
 20
-122.82918825730519
 30
0.0
 11
33.668601599999995
 21
-122.27038825730517
 31
0.0
 12
34.227401599999993
 22
-122.82918825730519
 32
0.0
 13
34.227401599999993
 23
-122.27038825730517
 33
0.0
  0
SOLID
  5
38A
100
AcDbEntity
  8
None
370
              15
390
0
  6
Continuous
 62
               7
100
AcDbTrace
 10
34.468601599999992
 20
-122.82918825730519
 30
0.0
 11
34.468601599999992
 21
-122.27038825730517
 31
0.0
 12
35.02740159999999
 22
-122.82918825730519
 32
0.0
 13
35.02740159999999
 23
-122.27038825730517
 33
0.0
  0
SOLID
  5
38B
100
AcDbEntity
  8
None
370
              15
390
0
  6
Continuous
 62
               7
100
AcDbTrace
 10
35.268601599999997
 20
-122.82918825730519
 30
0.0
 11
35.268601599999997
 21
-122.27038825730517
 31
0.0
 12
35.827401599999995
 22
-122.82918825730519
 32
0.0
 13
35.827401599999995
 23
-122.27038825730517
 33
0.0
  0
SOLID
  5
38C
100
AcDbEntity
  8
None
370
              15
390
0
  6
Continuous
 62
               7
100
AcDbTrace
 10
36.068601599999994
 20
-122.82918825730519
 30
0.0
 11
36.068601599999994
 21
-122.27038825730517
 31
0.0
 12
36.627401599999992
 22
-122.82918825730519
 32
0.0
 13
36.627401599999992
 23
-122.27038825730517
 33
0.0
  0
SOLID
  5
38D
100
AcDbEntity
  8
None
370
              15
390
0
  6
Continuous
 62
               7
100
AcDbTrace
 10
18.468601599999992
 20
-123.62918825730517
 30
0.0
 11
18.468601599999992
 21
-123.07038825730518
 31
0.0
 12
19.027401599999994
 22
-123.62918825730517
 32
0.0
 13
19.027401599999994
 23
-123.07038825730518
 33
0.0
  0
SOLID
  5
38E
100
AcDbEntity
  8
None
370
              15
390
0
  6
Continuous
 62
               7
100
AcDbTrace
 10
19.268601599999993
 20
-123.62918825730517
 30
0.0
 11
19.268601599999993
 21
-123.07038825730518
 31
0.0
 12
19.827401599999995
 22
-123.62918825730517
 32
0.0
 13
19.827401599999995
 23
-123.07038825730518
 33
0.0
  0
SOLID
  5
38F
100
AcDbEntity
  8
None
370
              15
390
0
  6
Continuous
 62
               7
100
AcDbTrace
 10
20.068601599999994
 20
-123.62918825730517
 30
0.0
 11
20.068601599999994
 21
-123.07038825730518
 31
0.0
 12
20.627401599999992
 22
-123.62918825730517
 32
0.0
 13
20.627401599999992
 23
-123.07038825730518
 33
0.0
  0
SOLID
  5
390
100
AcDbEntity
  8
None
370
              15
390
0
  6
Continuous
 62
               7
100
AcDbTrace
 10
20.868601599999995
 20
-123.62918825730517
 30
0.0
 11
20.868601599999995
 21
-123.07038825730518
 31
0.0
 12
21.427401599999992
 22
-123.62918825730517
 32
0.0
 13
21.427401599999992
 23
-123.07038825730518
 33
0.0
  0
SOLID
  5
391
100
AcDbEntity
  8
None
370
              15
390
0
  6
Continuous
 62
               7
100
AcDbTrace
 10
21.668601599999995
 20
-123.62918825730517
 30
0.0
 11
21.668601599999995
 21
-123.07038825730518
 31
0.0
 12
22.227401599999993
 22
-123.62918825730517
 32
0.0
 13
22.227401599999993
 23
-123.07038825730518
 33
0.0
  0
SOLID
  5
392
100
AcDbEntity
  8
None
370
              15
390
0
  6
Continuous
 62
               7
100
AcDbTrace
 10
22.468601599999992
 20
-123.62918825730517
 30
0.0
 11
22.468601599999992
 21
-123.07038825730518
 31
0.0
 12
23.027401599999994
 22
-123.62918825730517
 32
0.0
 13
23.027401599999994
 23
-123.07038825730518
 33
0.0
  0
SOLID
  5
393
100
AcDbEntity
  8
None
370
              15
390
0
  6
Continuous
 62
               7
100
AcDbTrace
 10
23.268601599999993
 20
-123.62918825730517
 30
0.0
 11
23.268601599999993
 21
-123.07038825730518
 31
0.0
 12
23.827401599999995
 22
-123.62918825730517
 32
0.0
 13
23.827401599999995
 23
-123.07038825730518
 33
0.0
  0
SOLID
  5
394
100
AcDbEntity
  8
None
370
              15
390
0
  6
Continuous
 62
               7
100
AcDbTrace
 10
24.068601599999994
 20
-123.62918825730517
 30
0.0
 11
24.068601599999994
 21
-123.07038825730518
 31
0.0
 12
24.627401599999992
 22
-123.62918825730517
 32
0.0
 13
24.627401599999992
 23
-123.07038825730518
 33
0.0
  0
SOLID
  5
395
100
AcDbEntity
  8
None
370
              15
390
0
  6
Continuous
 62
               7
100
AcDbTrace
 10
24.868601599999995
 20
-123.62918825730517
 30
0.0
 11
24.868601599999995
 21
-123.07038825730518
 31
0.0
 12
25.427401599999992
 22
-123.62918825730517
 32
0.0
 13
25.427401599999992
 23
-123.07038825730518
 33
0.0
  0
SOLID
  5
396
100
AcDbEntity
  8
None
370
              15
390
0
  6
Continuous
 62
               7
100
AcDbTrace
 10
25.668601599999995
 20
-123.62918825730517
 30
0.0
 11
25.668601599999995
 21
-123.07038825730518
 31
0.0
 12
26.227401599999993
 22
-123.62918825730517
 32
0.0
 13
26.227401599999993
 23
-123.07038825730518
 33
0.0
  0
SOLID
  5
397
100
AcDbEntity
  8
None
370
              15
390
0
  6
Continuous
 62
               7
100
AcDbTrace
 10
26.468601599999992
 20
-123.62918825730517
 30
0.0
 11
26.468601599999992
 21
-123.07038825730518
 31
0.0
 12
27.027401599999994
 22
-123.62918825730517
 32
0.0
 13
27.027401599999994
 23
-123.07038825730518
 33
0.0
  0
SOLID
  5
398
100
AcDbEntity
  8
None
370
              15
390
0
  6
Continuous
 62
               7
100
AcDbTrace
 10
27.268601599999993
 20
-123.62918825730517
 30
0.0
 11
27.268601599999993
 21
-123.07038825730518
 31
0.0
 12
27.827401599999995
 22
-123.62918825730517
 32
0.0
 13
27.827401599999995
 23
-123.07038825730518
 33
0.0
  0
SOLID
  5
399
100
AcDbEntity
  8
None
370
              15
390
0
  6
Continuous
 62
               7
100
AcDbTrace
 10
28.068601599999994
 20
-123.62918825730517
 30
0.0
 11
28.068601599999994
 21
-123.07038825730518
 31
0.0
 12
28.627401599999992
 22
-123.62918825730517
 32
0.0
 13
28.627401599999992
 23
-123.07038825730518
 33
0.0
  0
SOLID
  5
39A
100
AcDbEntity
  8
None
370
              15
390
0
  6
Continuous
 62
               7
100
AcDbTrace
 10
28.868601599999995
 20
-123.62918825730517
 30
0.0
 11
28.868601599999995
 21
-123.07038825730518
 31
0.0
 12
29.427401599999992
 22
-123.62918825730517
 32
0.0
 13
29.427401599999992
 23
-123.07038825730518
 33
0.0
  0
SOLID
  5
39B
100
AcDbEntity
  8
None
370
              15
390
0
  6
Continuous
 62
               7
100
AcDbTrace
 10
29.668601599999992
 20
-123.62918825730517
 30
0.0
 11
29.668601599999992
 21
-123.07038825730518
 31
0.0
 12
30.227401599999993
 22
-123.62918825730517
 32
0.0
 13
30.227401599999993
 23
-123.07038825730518
 33
0.0
  0
SOLID
  5
39C
100
AcDbEntity
  8
None
370
              15
390
0
  6
Continuous
 62
               7
100
AcDbTrace
 10
30.468601599999992
 20
-123.62918825730517
 30
0.0
 11
30.468601599999992
 21
-123.07038825730518
 31
0.0
 12
31.027401599999994
 22
-123.62918825730517
 32
0.0
 13
31.027401599999994
 23
-123.07038825730518
 33
0.0
  0
SOLID
  5
39D
100
AcDbEntity
  8
None
370
              15
390
0
  6
Continuous
 62
               7
100
AcDbTrace
 10
31.268601599999993
 20
-123.62918825730517
 30
0.0
 11
31.268601599999993
 21
-123.07038825730518
 31
0.0
 12
31.827401599999995
 22
-123.62918825730517
 32
0.0
 13
31.827401599999995
 23
-123.07038825730518
 33
0.0
  0
SOLID
  5
39E
100
AcDbEntity
  8
None
370
              15
390
0
  6
Continuous
 62
               7
100
AcDbTrace
 10
32.068601599999994
 20
-123.62918825730517
 30
0.0
 11
32.068601599999994
 21
-123.07038825730518
 31
0.0
 12
32.627401599999992
 22
-123.62918825730517
 32
0.0
 13
32.627401599999992
 23
-123.07038825730518
 33
0.0
  0
SOLID
  5
39F
100
AcDbEntity
  8
None
370
              15
390
0
  6
Continuous
 62
               7
100
AcDbTrace
 10
32.868601599999991
 20
-123.62918825730517
 30
0.0
 11
32.868601599999991
 21
-123.07038825730518
 31
0.0
 12
33.427401599999996
 22
-123.62918825730517
 32
0.0
 13
33.427401599999996
 23
-123.07038825730518
 33
0.0
  0
SOLID
  5
3A0
100
AcDbEntity
  8
None
370
              15
390
0
  6
Continuous
 62
               7
100
AcDbTrace
 10
33.668601599999995
 20
-123.62918825730517
 30
0.0
 11
33.668601599999995
 21
-123.07038825730518
 31
0.0
 12
34.227401599999993
 22
-123.62918825730517
 32
0.0
 13
34.227401599999993
 23
-123.07038825730518
 33
0.0
  0
SOLID
  5
3A1
100
AcDbEntity
  8
None
370
              15
390
0
  6
Continuous
 62
               7
100
AcDbTrace
 10
34.468601599999992
 20
-123.62918825730517
 30
0.0
 11
34.468601599999992
 21
-123.07038825730518
 31
0.0
 12
35.02740159999999
 22
-123.62918825730517
 32
0.0
 13
35.02740159999999
 23
-123.07038825730518
 33
0.0
  0
SOLID
  5
3A2
100
AcDbEntity
  8
None
370
              15
390
0
  6
Continuous
 62
               7
100
AcDbTrace
 10
35.268601599999997
 20
-123.62918825730517
 30
0.0
 11
35.268601599999997
 21
-123.07038825730518
 31
0.0
 12
35.827401599999995
 22
-123.62918825730517
 32
0.0
 13
35.827401599999995
 23
-123.07038825730518
 33
0.0
  0
SOLID
  5
3A3
100
AcDbEntity
  8
None
370
              15
390
0
  6
Continuous
 62
               7
100
AcDbTrace
 10
36.068601599999994
 20
-123.62918825730517
 30
0.0
 11
36.068601599999994
 21
-123.07038825730518
 31
0.0
 12
36.627401599999992
 22
-123.62918825730517
 32
0.0
 13
36.627401599999992
 23
-123.07038825730518
 33
0.0
  0
SOLID
  5
3A4
100
AcDbEntity
  8
None
370
              15
390
0
  6
Continuous
 62
               7
100
AcDbTrace
 10
19.268601599999993
 20
-124.42918825730519
 30
0.0
 11
19.268601599999993
 21
-123.87038825730518
 31
0.0
 12
19.827401599999995
 22
-124.42918825730519
 32
0.0
 13
19.827401599999995
 23
-123.87038825730518
 33
0.0
  0
SOLID
  5
3A5
100
AcDbEntity
  8
None
370
              15
390
0
  6
Continuous
 62
               7
100
AcDbTrace
 10
20.068601599999994
 20
-124.42918825730519
 30
0.0
 11
20.068601599999994
 21
-123.87038825730518
 31
0.0
 12
20.627401599999992
 22
-124.42918825730519
 32
0.0
 13
20.627401599999992
 23
-123.87038825730518
 33
0.0
  0
SOLID
  5
3A6
100
AcDbEntity
  8
None
370
              15
390
0
  6
Continuous
 62
               7
100
AcDbTrace
 10
20.868601599999995
 20
-124.42918825730519
 30
0.0
 11
20.868601599999995
 21
-123.87038825730518
 31
0.0
 12
21.427401599999992
 22
-124.42918825730519
 32
0.0
 13
21.427401599999992
 23
-123.87038825730518
 33
0.0
  0
SOLID
  5
3A7
100
AcDbEntity
  8
None
370
              15
390
0
  6
Continuous
 62
               7
100
AcDbTrace
 10
21.668601599999995
 20
-124.42918825730519
 30
0.0
 11
21.668601599999995
 21
-123.87038825730518
 31
0.0
 12
22.227401599999993
 22
-124.42918825730519
 32
0.0
 13
22.227401599999993
 23
-123.87038825730518
 33
0.0
  0
SOLID
  5
3A8
100
AcDbEntity
  8
None
370
              15
390
0
  6
Continuous
 62
               7
100
AcDbTrace
 10
22.468601599999992
 20
-124.42918825730519
 30
0.0
 11
22.468601599999992
 21
-123.87038825730518
 31
0.0
 12
23.027401599999994
 22
-124.42918825730519
 32
0.0
 13
23.027401599999994
 23
-123.87038825730518
 33
0.0
  0
SOLID
  5
3A9
100
AcDbEntity
  8
None
370
              15
390
0
  6
Continuous
 62
               7
100
AcDbTrace
 10
23.268601599999993
 20
-124.42918825730519
 30
0.0
 11
23.268601599999993
 21
-123.87038825730518
 31
0.0
 12
23.827401599999995
 22
-124.42918825730519
 32
0.0
 13
23.827401599999995
 23
-123.87038825730518
 33
0.0
  0
SOLID
  5
3AA
100
AcDbEntity
  8
None
370
              15
390
0
  6
Continuous
 62
               7
100
AcDbTrace
 10
24.068601599999994
 20
-124.42918825730519
 30
0.0
 11
24.068601599999994
 21
-123.87038825730518
 31
0.0
 12
24.627401599999992
 22
-124.42918825730519
 32
0.0
 13
24.627401599999992
 23
-123.87038825730518
 33
0.0
  0
SOLID
  5
3AB
100
AcDbEntity
  8
None
370
              15
390
0
  6
Continuous
 62
               7
100
AcDbTrace
 10
24.868601599999995
 20
-124.42918825730519
 30
0.0
 11
24.868601599999995
 21
-123.87038825730518
 31
0.0
 12
25.427401599999992
 22
-124.42918825730519
 32
0.0
 13
25.427401599999992
 23
-123.87038825730518
 33
0.0
  0
SOLID
  5
3AC
100
AcDbEntity
  8
None
370
              15
390
0
  6
Continuous
 62
               7
100
AcDbTrace
 10
25.668601599999995
 20
-124.42918825730519
 30
0.0
 11
25.668601599999995
 21
-123.87038825730518
 31
0.0
 12
26.227401599999993
 22
-124.42918825730519
 32
0.0
 13
26.227401599999993
 23
-123.87038825730518
 33
0.0
  0
SOLID
  5
3AD
100
AcDbEntity
  8
None
370
              15
390
0
  6
Continuous
 62
               7
100
AcDbTrace
 10
26.468601599999992
 20
-124.42918825730519
 30
0.0
 11
26.468601599999992
 21
-123.87038825730518
 31
0.0
 12
27.027401599999994
 22
-124.42918825730519
 32
0.0
 13
27.027401599999994
 23
-123.87038825730518
 33
0.0
  0
SOLID
  5
3AE
100
AcDbEntity
  8
None
370
              15
390
0
  6
Continuous
 62
               7
100
AcDbTrace
 10
27.268601599999993
 20
-124.42918825730519
 30
0.0
 11
27.268601599999993
 21
-123.87038825730518
 31
0.0
 12
27.827401599999995
 22
-124.42918825730519
 32
0.0
 13
27.827401599999995
 23
-123.87038825730518
 33
0.0
  0
SOLID
  5
3AF
100
AcDbEntity
  8
None
370
              15
390
0
  6
Continuous
 62
               7
100
AcDbTrace
 10
28.068601599999994
 20
-124.42918825730519
 30
0.0
 11
28.068601599999994
 21
-123.87038825730518
 31
0.0
 12
28.627401599999992
 22
-124.42918825730519
 32
0.0
 13
28.627401599999992
 23
-123.87038825730518
 33
0.0
  0
SOLID
  5
3B0
100
AcDbEntity
  8
None
370
              15
390
0
  6
Continuous
 62
               7
100
AcDbTrace
 10
28.868601599999995
 20
-124.42918825730519
 30
0.0
 11
28.868601599999995
 21
-123.87038825730518
 31
0.0
 12
29.427401599999992
 22
-124.42918825730519
 32
0.0
 13
29.427401599999992
 23
-123.87038825730518
 33
0.0
  0
SOLID
  5
3B1
100
AcDbEntity
  8
None
370
              15
390
0
  6
Continuous
 62
               7
100
AcDbTrace
 10
29.668601599999992
 20
-124.42918825730519
 30
0.0
 11
29.668601599999992
 21
-123.87038825730518
 31
0.0
 12
30.227401599999993
 22
-124.42918825730519
 32
0.0
 13
30.227401599999993
 23
-123.87038825730518
 33
0.0
  0
SOLID
  5
3B2
100
AcDbEntity
  8
None
370
              15
390
0
  6
Continuous
 62
               7
100
AcDbTrace
 10
30.468601599999992
 20
-124.42918825730519
 30
0.0
 11
30.468601599999992
 21
-123.87038825730518
 31
0.0
 12
31.027401599999994
 22
-124.42918825730519
 32
0.0
 13
31.027401599999994
 23
-123.87038825730518
 33
0.0
  0
SOLID
  5
3B3
100
AcDbEntity
  8
None
370
              15
390
0
  6
Continuous
 62
               7
100
AcDbTrace
 10
31.268601599999993
 20
-124.42918825730519
 30
0.0
 11
31.268601599999993
 21
-123.87038825730518
 31
0.0
 12
31.827401599999995
 22
-124.42918825730519
 32
0.0
 13
31.827401599999995
 23
-123.87038825730518
 33
0.0
  0
SOLID
  5
3B4
100
AcDbEntity
  8
None
370
              15
390
0
  6
Continuous
 62
               7
100
AcDbTrace
 10
32.068601599999994
 20
-124.42918825730519
 30
0.0
 11
32.068601599999994
 21
-123.87038825730518
 31
0.0
 12
32.627401599999992
 22
-124.42918825730519
 32
0.0
 13
32.627401599999992
 23
-123.87038825730518
 33
0.0
  0
SOLID
  5
3B5
100
AcDbEntity
  8
None
370
              15
390
0
  6
Continuous
 62
               7
100
AcDbTrace
 10
32.868601599999991
 20
-124.42918825730519
 30
0.0
 11
32.868601599999991
 21
-123.87038825730518
 31
0.0
 12
33.427401599999996
 22
-124.42918825730519
 32
0.0
 13
33.427401599999996
 23
-123.87038825730518
 33
0.0
  0
SOLID
  5
3B6
100
AcDbEntity
  8
None
370
              15
390
0
  6
Continuous
 62
               7
100
AcDbTrace
 10
33.668601599999995
 20
-124.42918825730519
 30
0.0
 11
33.668601599999995
 21
-123.87038825730518
 31
0.0
 12
34.227401599999993
 22
-124.42918825730519
 32
0.0
 13
34.227401599999993
 23
-123.87038825730518
 33
0.0
  0
SOLID
  5
3B7
100
AcDbEntity
  8
None
370
              15
390
0
  6
Continuous
 62
               7
100
AcDbTrace
 10
34.468601599999992
 20
-124.42918825730519
 30
0.0
 11
34.468601599999992
 21
-123.87038825730518
 31
0.0
 12
35.02740159999999
 22
-124.42918825730519
 32
0.0
 13
35.02740159999999
 23
-123.87038825730518
 33
0.0
  0
SOLID
  5
3B8
100
AcDbEntity
  8
None
370
              15
390
0
  6
Continuous
 62
               7
100
AcDbTrace
 10
35.268601599999997
 20
-124.42918825730519
 30
0.0
 11
35.268601599999997
 21
-123.87038825730518
 31
0.0
 12
35.827401599999995
 22
-124.42918825730519
 32
0.0
 13
35.827401599999995
 23
-123.87038825730518
 33
0.0
  0
SOLID
  5
3B9
100
AcDbEntity
  8
None
370
              15
390
0
  6
Continuous
 62
               7
100
AcDbTrace
 10
36.068601599999994
 20
-124.42918825730519
 30
0.0
 11
36.068601599999994
 21
-123.87038825730518
 31
0.0
 12
36.627401599999992
 22
-124.42918825730519
 32
0.0
 13
36.627401599999992
 23
-123.87038825730518
 33
0.0
  0
INSERT
  5
3BA
100
AcDbEntity
  8
None
390
0
 62
               7
100
AcDbBlockReference
  2
Group
 10
26.864411599999993
 20
-155.47656739999999
 30
0.0
  0
DIMENSION
  5
3BB
100
AcDbEntity
  8
Dimension
370
              15
390
0
  6
Continuous
 62
               1
100
AcDbDimension
  2
*D15
 10
5.8500015999999952
 20
-140.0
 30
0.0
 11
26.200000000000003
 21
-140.0
 31
0.0
 70
             128
 71
               5
 72
               1
 41
1.0
 42
0.0
  3
ASME
100
AcDbAlignedDimension
 13
48.450001599999993
 23
-131.45078825730499
 33
0.0
 14
5.8500015999999952
 24
-131.45078825730499
 34
0.0
100
AcDbRotatedDimension
1001
ACAD
1000
DSTYLE
1002
{
1070
             340
1005
33
1070
             140
1040
0.8421336100260418
1070
               3
1000
<>mm backing plate
1070
             147
1040
0.132291534375
1002
}
  0
DIMENSION
  5
3BC
100
AcDbEntity
  8
Dimension
370
              15
390
0
  6
Continuous
 62
               1
100
AcDbDimension
  2
*D16
 10
-12.199999999999999
 20
-98.450788257305078
 30
0.0
 11
-12.199999999999999
 21
-110.80000000000001
 31
0.0
 70
             128
 71
               5
 72
               1
 41
1.0
 42
0.0
  3
ASME
100
AcDbAlignedDimension
 13
5.8500015999999952
 23
-131.45078825730499
 33
0.0
 14
5.8500015999999952
 24
-98.450788257305078
 34
0.0
 50
90.0
100
AcDbRotatedDimension
1001
ACAD
1000
DSTYLE
1002
{
1070
             340
1005
33
1070
             140
1040
0.8421336100260418
1070
             147
1040
0.132291534375
1002
}
  0
WIPEOUT
  5
3BD
100
AcDbEntity
  8
None
370
              15
390
0
  6
Continuous
 62
               1
 92
        0
100
AcDbWipeout
 90
        0
 10
55.002296163167379
 20
78.633815639775406
 30
0.0
 11
9.0000000000000036
 21
0.0
 31
0.0
 12
0.0
 22
9.0000000000000036
 32
0.0
 13
1.0
 23
1.0
340
0
 70
               7
280
               1
281
              50
282
              50
283
               0
360
0
 71
               2
 91
        5
 14
-0.5
 24
20.760108777777766
 14
0.5000000000000004
 24
20.760108777777766
 14
0.5000000000000004
 24
20.624877431527768
 14
-0.5
 24
20.624877431527768
 14
-0.5
 24
20.760108777777766
  0
MTEXT
  5
3BE
100
AcDbEntity
  8
None
390
0
 62
               1
100
AcDbMText
 10
55.002296163167379
 20
-102.68466004245114
 30
0.0
 40
0.7579202490234376
 41
9.0000000000000036
 71
               1
 72
               1
  1
Mounting Hole
  7
Arial
 73
               1
 44
0.9673603504928806
  0
ENDSEC
  0
SECTION
  2
OBJECTS
  0
DICTIONARY
  5
19
100
AcDbDictionary
280
               0
281
               1
  3
ACAD_GROUP
350
1A
  3
ACAD_MLINESTYLE
350
1B
  3
ACAD_LAYOUT
350
1E
  3
ACAD_PLOTSETTINGS
350
22
  3
ACAD_PLOTSTYLENAME
350
1F
  3
ACAD_WIPEOUT_VARS
350
23
  0
DICTIONARY
  5
1A
102
{ACAD_REACTORS
330
19
102
}
100
AcDbDictionary
280
               0
281
               1
  0
DICTIONARY
  5
1B
102
{ACAD_REACTORS
330
19
102
}
100
AcDbDictionary
280
               0
281
               1
  3
Standard
350
1C
  0
MLINESTYLE
  5
1C
102
{ACAD_REACTORS
330
1B
102
}
100
AcDbMlineStyle
  2
Standard
 70
               0
  3

 62
               0
 51
90.0
 52
90.0
 71
               2
 49
0.5
 62
             256
  6
ByLayer
 49
-0.5
 62
             256
  6
ByLayer
  0
ACDBDICTIONARYWDFLT
  5
1F
102
{ACAD_REACTORS
330
19
102
}
100
AcDbDictionary
281
               1
  3
Normal
350
1D
100
AcDbDictionaryWithDefault
340
1D
  0
ACDBPLACEHOLDER
  5
1D
102
{ACAD_REACTORS
330
1F
102
}
  0
LAYOUT
  5
20
102
{ACAD_REACTORS
330
1E
102
}
100
AcDbPlotSettings
  1

  2

  4

  6

 40
0.0
 41
0.0
 42
0.0
 43
0.0
 44
0.0
 45
0.0
 46
0.0
 47
0.0
 48
0.0
 49
0.0
140
0.0
141
0.0
142
1.0
143
1.0
 70
            1024
 72
               0
 73
               0
 74
               0
  7

 75
               0
147
1.0
148
0.0
149
0.0
100
AcDbLayout
  1
Model
 70
               0
 71
               0
 10
0.0
 20
0.0
 11
0.0
 21
0.0
 12
0.0
 22
0.0
 32
0.0
 14
0.0
 24
0.0
 34
0.0
 15
0.0
 25
0.0
 35
0.0
146
0.0
 13
0.0
 23
0.0
 33
0.0
 16
0.0
 26
0.0
 36
0.0
 17
0.0
 27
0.0
 37
0.0
 76
               0
330
A
331
0
345
0
346
0
  0
LAYOUT
  5
21
102
{ACAD_REACTORS
330
1E
102
}
100
AcDbPlotSettings
  1

  2

  4

  6

 40
0.0
 41
0.0
 42
0.0
 43
0.0
 44
0.0
 45
0.0
 46
0.0
 47
0.0
 48
0.0
 49
0.0
140
0.0
141
0.0
142
1.0
143
1.0
 70
               0
 72
               0
 73
               0
 74
               0
  7

 75
               0
147
1.0
148
0.0
149
0.0
100
AcDbLayout
  1
Layout1
 70
               0
 71
               0
 10
0.0
 20
0.0
 11
0.0
 21
0.0
 12
0.0
 22
0.0
 32
0.0
 14
0.0
 24
0.0
 34
0.0
 15
0.0
 25
0.0
 35
0.0
146
0.0
 13
0.0
 23
0.0
 33
0.0
 16
0.0
 26
0.0
 36
0.0
 17
0.0
 27
0.0
 37
0.0
 76
               0
330
B
331
0
345
0
346
0
  0
DICTIONARY
  5
1E
102
{ACAD_REACTORS
330
19
102
}
100
AcDbDictionary
280
               0
281
               1
  3
Layout1
350
21
  3
Model
350
20
  0
DICTIONARY
  5
22
102
{ACAD_REACTORS
330
19
102
}
100
AcDbDictionary
280
               0
281
               1
  0
WIPEOUTVARIABLES
  5
23
100
AcDbWipeoutVariables
 70
               0
  0
ENDSEC
  0
EOF
