  0
SECTION
  2
HEADER
  9
$ACADVER
  1
AC1015
  9
$ACADMAINTVER
 70
               6
  9
$DWGCODEPAGE
  3
ANSI_1252
  9
$INSBASE
 10
0.0
 20
0.0
 30
0.0
  9
$EXTMIN
 10
-16.81815148406001
 20
2.5484806493199978
 30
-1.3546653120000003
  9
$EXTMAX
 10
68.623223074479995
 20
64.848671682399996
 30
1.3546653120000003
  9
$LIMMIN
 10
0.0
 20
0.0
  9
$LIMMAX
 10
0.0
 20
0.0
  9
$ORTHOMODE
 70
               0
  9
$REGENMODE
 70
               1
  9
$FILLMODE
 70
               1
  9
$QTEXTMODE
 70
               0
  9
$MIRRTEXT
 70
               1
  9
$LTSCALE
 40
8.4666582000000012
  9
$ATTMODE
 70
               1
  9
$TEXTSIZE
 40
0.2
  9
$TRACEWID
 40
1.0
  9
$TEXTSTYLE
  7
Standard
  9
$CLAYER
  8
None
  9
$CELTYPE
  6
Continuous
  9
$CECOLOR
 62
             256
  9
$CELTSCALE
 40
1.0
  9
$DISPSILH
 70
               0
  9
$DIMSCALE
 40
1.0
  9
$DIMASZ
 40
1.0583322750000002
  9
$DIMEXO
 40
0.634999366577038
  9
$DIMDLI
 40
6.9999859934672708
  9
$DIMRND
 40
0.0
  9
$DIMDLE
 40
0.0
  9
$DIMEXE
 40
1.2699987331540761
  9
$DIMTP
 40
0.0
  9
$DIMTM
 40
0.0
  9
$DIMTXT
 40
0.8421302083333332
  9
$DIMCEN
 40
0.0
  9
$DIMTSZ
 40
0.0
  9
$DIMTOL
 70
               0
  9
$DIMLIM
 70
               0
  9
$DIMTIH
 70
               1
  9
$DIMTOH
 70
               1
  9
$DIMSE1
 70
               0
  9
$DIMSE2
 70
               0
  9
$DIMTAD
 70
               0
  9
$DIMZIN
 70
              11
  9
$DIMBLK
  1
VW_FILLEDARROW
  9
$DIMASO
 70
               1
  9
$DIMSHO
 70
               1
  9
$DIMPOST
  1
<>mm
  9
$DIMAPOST
  1
[]"
  9
$DIMALT
 70
               0
  9
$DIMALTD
 70
               3
  9
$DIMALTF
 40
0.0393700787401575
  9
$DIMLFAC
 40
1.0
  9
$DIMTOFL
 70
               1
  9
$DIMTVP
 40
0.0
  9
$DIMTIX
 70
               1
  9
$DIMSOXD
 70
               0
  9
$DIMSAH
 70
               0
  9
$DIMBLK1
  1

  9
$DIMBLK2
  1

  9
$DIMSTYLE
  2
IE Standard
  9
$DIMCLRD
 70
               0
  9
$DIMCLRE
 70
               0
  9
$DIMCLRT
 70
               0
  9
$DIMTFAC
 40
1.0
  9
$DIMGAP
 40
0.0
  9
$DIMJUST
 70
               0
  9
$DIMSD1
 70
               0
  9
$DIMSD2
 70
               0
  9
$DIMTOLJ
 70
               1
  9
$DIMTZIN
 70
              11
  9
$DIMALTZ
 70
               3
  9
$DIMALTTZ
 70
               3
  9
$DIMUPT
 70
               0
  9
$DIMDEC
 70
               2
  9
$DIMTDEC
 70
               2
  9
$DIMALTU
 70
               2
  9
$DIMALTTD
 70
               2
  9
$DIMTXSTY
  7
Helvetica
  9
$DIMAUNIT
 70
               0
  9
$DIMADEC
 70
               0
  9
$DIMALTRND
 40
0.0
  9
$DIMAZIN
 70
               0
  9
$DIMDSEP
 70
              46
  9
$DIMATFIT
 70
               0
  9
$DIMFRAC
 70
               2
  9
$DIMLDRBLK
  1

  9
$DIMLUNIT
 70
               2
  9
$DIMLWD
 70
              -2
  9
$DIMLWE
 70
              -2
  9
$DIMTMOVE
 70
               0
  9
$LUNITS
 70
               2
  9
$LUPREC
 70
               4
  9
$SKETCHINC
 40
0.1
  9
$FILLETRAD
 40
0.0
  9
$AUNITS
 70
               0
  9
$AUPREC
 70
               0
  9
$MENU
  1
acad
  9
$ELEVATION
 40
0.0
  9
$PELEVATION
 40
0.0
  9
$THICKNESS
 40
0.0
  9
$LIMCHECK
 70
               0
  9
$CHAMFERA
 40
0.0
  9
$CHAMFERB
 40
0.0
  9
$CHAMFERC
 40
0.0
  9
$CHAMFERD
 40
0.0
  9
$SKPOLY
 70
               0
  9
$TDCREATE
 40
2454638.410358796
  9
$TDUCREATE
 40
0.000000000
  9
$TDUPDATE
 40
2454638.410358796
  9
$TDUUPDATE
 40
0.000000000
  9
$TDINDWG
 40
0.0000000000
  9
$TDUSRTIMER
 40
0.0000000000
  9
$USRTIMER
 70
               1
  9
$ANGBASE
 50
0.0
  9
$ANGDIR
 70
               0
  9
$PDMODE
 70
               1
  9
$PDSIZE
 40
-2.0
  9
$PLINEWID
 40
0.0
  9
$SPLFRAME
 70
               0
  9
$SPLINETYPE
 70
               6
  9
$SPLINESEGS
 70
               8
  9
$HANDSEED
  5
3A1
  9
$SURFTAB1
 70
               6
  9
$SURFTAB2
 70
               6
  9
$SURFTYPE
 70
               6
  9
$SURFU
 70
               6
  9
$SURFV
 70
               6
  9
$UCSBASE
  2

  9
$UCSNAME
  2

  9
$UCSORG
 10
0.0
 20
0.0
 30
0.0
  9
$UCSXDIR
 10
1.0
 20
0.0
 30
0.0
  9
$UCSYDIR
 10
0.0
 20
1.0
 30
0.0
  9
$UCSORTHOREF
  2

  9
$UCSORTHOVIEW
 70
               0
  9
$UCSORGTOP
 10
0.0
 20
0.0
 30
0.0
  9
$UCSORGBOTTOM
 10
0.0
 20
0.0
 30
0.0
  9
$UCSORGLEFT
 10
0.0
 20
0.0
 30
0.0
  9
$UCSORGRIGHT
 10
0.0
 20
0.0
 30
0.0
  9
$UCSORGFRONT
 10
0.0
 20
0.0
 30
0.0
  9
$UCSORGBACK
 10
0.0
 20
0.0
 30
0.0
  9
$PUCSBASE
  2

  9
$PUCSNAME
  2

  9
$PUCSORG
 10
0.0
 20
0.0
 30
0.0
  9
$PUCSXDIR
 10
1.0
 20
0.0
 30
0.0
  9
$PUCSYDIR
 10
0.0
 20
1.0
 30
0.0
  9
$PUCSORTHOREF
  2

  9
$PUCSORTHOVIEW
 70
               0
  9
$PUCSORGTOP
 10
0.0
 20
0.0
 30
0.0
  9
$PUCSORGBOTTOM
 10
0.0
 20
0.0
 30
0.0
  9
$PUCSORGLEFT
 10
0.0
 20
0.0
 30
0.0
  9
$PUCSORGRIGHT
 10
0.0
 20
0.0
 30
0.0
  9
$PUCSORGFRONT
 10
0.0
 20
0.0
 30
0.0
  9
$PUCSORGBACK
 10
0.0
 20
0.0
 30
0.0
  9
$USERI1
 70
               0
  9
$USERI2
 70
               0
  9
$USERI3
 70
               0
  9
$USERI4
 70
               0
  9
$USERI5
 70
               0
  9
$USERR1
 40
0.0
  9
$USERR2
 40
0.0
  9
$USERR3
 40
0.0
  9
$USERR4
 40
0.0
  9
$USERR5
 40
0.0
  9
$WORLDVIEW
 70
               1
  9
$SHADEDGE
 70
               3
  9
$SHADEDIF
 70
              70
  9
$TILEMODE
 70
               1
  9
$MAXACTVP
 70
              64
  9
$PINSBASE
 10
0.0
 20
0.0
 30
0.0
  9
$PLIMCHECK
 70
               0
  9
$PEXTMIN
 10
1.0000000000000000E+20
 20
1.0000000000000000E+20
 30
1.0000000000000000E+20
  9
$PEXTMAX
 10
-1.0000000000000000E+20
 20
-1.0000000000000000E+20
 30
-1.0000000000000000E+20
  9
$PLIMMIN
 10
0.0
 20
0.0
  9
$PLIMMAX
 10
12.0
 20
9.0
  9
$UNITMODE
 70
               0
  9
$VISRETAIN
 70
               0
  9
$PLINEGEN
 70
               1
  9
$PSLTSCALE
 70
               0
  9
$TREEDEPTH
 70
            3020
  9
$CMLSTYLE
  2
Standard
  9
$CMLJUST
 70
               0
  9
$CMLSCALE
 40
1.0
  9
$PROXYGRAPHICS
 70
               0
  9
$MEASUREMENT
 70
               1
  9
$CELWEIGHT
370
               0
  9
$ENDCAPS
280
               0
  9
$JOINSTYLE
280
               0
  9
$LWDISPLAY
290
               1
  9
$INSUNITS
 70
               4
  9
$HYPERLINKBASE
  1

  9
$STYLESHEET
  1

  9
$XEDIT
290
               1
  9
$CEPSNTYPE
380
               0
  9
$PSTYLEMODE
290
               1
  9
$FINGERPRINTGUID
  2

  9
$VERSIONGUID
  2

  9
$EXTNAMES
290
               1
  9
$PSVPSCALE
 40
0.0
  0
ENDSEC
  0
SECTION
  2
CLASSES
  0
CLASS
  1
LWPOLYLINE
  2
AcDbPolyline
  3
AutoCAD 2000
 90
        0
280
               0
281
               1
  0
CLASS
  1
IMAGE
  2
AcDbRasterImage
  3
ISM
 90
      127
280
               0
281
               1
  0
CLASS
  1
OLE2FRAME
  2
AcDbOle2Frame
  3
AutoCAD 2000
 90
        0
280
               0
281
               1
  0
CLASS
  1
HATCH
  2
AcDbHatch
  3
AutoCAD 2000
 90
        0
280
               0
281
               1
  0
CLASS
  1
DICTIONARYVAR
  2
AcDbDictionaryVar
  3
AutoCAD 2000
 90
        0
280
               0
281
               0
  0
CLASS
  1
RASTERVARIABLES
  2
AcDbRasterVariables
  3
ISM
 90
        0
280
               0
281
               0
  0
CLASS
  1
IMAGEDEF
  2
AcDbRasterImageDef
  3
ISM
 90
        0
280
               0
281
               0
  0
CLASS
  1
IMAGEDEF_REACTOR
  2
AcDbRasterImageDefReactor
  3
ISM
 90
        1
280
               0
281
               0
  0
CLASS
  1
IDBUFFER
  2
AcDbIdBuffer
  3
AutoCAD 2000
 90
        0
280
               0
281
               0
  0
CLASS
  1
SPATIAL_FILTER
  2
AcDbSpatialFilter
  3
AutoCAD 2000
 90
        0
280
               0
281
               0
  0
CLASS
  1
XRECORD
  2
AcDbXrecord
  3
AutoCAD 2000
 90
        0
280
               0
281
               0
  0
CLASS
  1
SORTENTSTABLE
  2
AcDbSortentsTable
  3
AutoCAD 2000
 90
        0
280
               0
281
               0
  0
CLASS
  1
LAYER_INDEX
  2
AcDbLayerIndex
  3
AutoCAD 2000
 90
        0
280
               0
281
               0
  0
CLASS
  1
SPATIAL_INDEX
  2
AcDbSpatialIndex
  3
AutoCAD 2000
 90
        0
280
               0
281
               0
  0
CLASS
  1
OBJECT_PTR
  2
CAseDLPNTableRecord
  3
"ASE-LPNTableRecord"
 90
        1
280
               0
281
               0
  0
CLASS
  1
LAYOUT
  2
AcDbLayout
  3
AutoCAD 2000
 90
        0
280
               0
281
               0
  0
CLASS
  1
PLOTSETTINGS
  2
AcDbPlotSettings
  3
AutoCAD 2000
 90
        0
280
               0
281
               0
  0
CLASS
  1
ACDBDICTIONARYWDFLT
  2
AcDbDictionaryWithDefault
  3
AutoCAD 2000
 90
        0
280
               0
281
               0
  0
CLASS
  1
ACDBPLACEHOLDER
  2
AcDbPlaceHolder
  3
AutoCAD 2000
 90
        0
280
               0
281
               0
  0
CLASS
  1
VBA_PROJECT
  2
AcDbVbaProject
  3
acadvba
 90
        0
280
               0
281
               0
  0
CLASS
  1
WIPEOUT
  2
AcDbWipeout
  3
WipeOut|AutoCAD Express Tool|expresstools@autodesk.com
 90
      127
280
               0
281
               1
  0
CLASS
  1
WIPEOUTVARIABLES
  2
AcDbWipeoutVariables
  3
WipeOut|AutoCAD Express Tool|expresstools@autodesk.com
 90
        0
280
               0
281
               0
  0
CLASS
  1
RTEXT
  2
RText
  3
RText|AutoCAD Express Tool|expresstools@autodesk.com
 90
        0
280
               0
281
               1
  0
CLASS
  1
ARCALIGNEDTEXT
  2
AcDbArcAlignedText
  3
ATEXT|AutoCAD Express Tool|expresstools@autodesk.com
 90
        0
280
               0
281
               1
  0
ENDSEC
  0
SECTION
  2
TABLES
  0
TABLE
  2
VPORT
  5
7
100
AcDbSymbolTable
 70
               1
  0
VPORT
  5
15
100
AcDbSymbolTableRecord
100
AcDbViewportTableRecord
  2
*ACTIVE
 70
               0
 10
0.0
 20
0.0
 11
1.0
 21
1.0
 12
25.902535795209992
 22
33.698576165859997
 13
0.0
 23
0.0
 14
1.0
 24
1.0
 15
0.0
 25
0.0
 16
0.0
 26
0.0
 36
1.0
 17
0.0
 27
0.0
 37
0.0
 40
62.300191033079997
 41
0.688564
 42
50.0
 43
0.0
 44
0.0
 50
0.0
 51
0.0
 71
               0
 72
            2000
 73
               1
 74
               1
 75
               0
 76
               0
 77
               0
 78
               0
281
               0
 65
               0
110
0.0
120
0.0
130
0.0
111
1.0
121
0.0
131
0.0
112
0.0
122
1.0
132
0.0
345
0
346
0
 79
               0
146
0.0
  0
ENDTAB
  0
TABLE
  2
LTYPE
  5
4
100
AcDbSymbolTable
 70
              21
  0
LTYPE
  5
11
100
AcDbSymbolTableRecord
100
AcDbLinetypeTableRecord
  2
ByBlock
 70
              64
  3

 72
              65
 73
               0
 40
0.0
  0
LTYPE
  5
12
100
AcDbSymbolTableRecord
100
AcDbLinetypeTableRecord
  2
ByLayer
 70
              64
  3

 72
              65
 73
               0
 40
0.0
  0
LTYPE
  5
13
100
AcDbSymbolTableRecord
100
AcDbLinetypeTableRecord
  2
Continuous
 70
              64
  3
Solid line
 72
              65
 73
               0
 40
0.0
  0
LTYPE
  5
34
100
AcDbSymbolTableRecord
100
AcDbLinetypeTableRecord
  2
STYLE_01
 70
               0
  3

 72
              65
 73
               2
 40
1.5
 49
1.0
 74
               0
 49
-0.5
 74
               0
  0
LTYPE
  5
35
100
AcDbSymbolTableRecord
100
AcDbLinetypeTableRecord
  2
STYLE_02
 70
               0
  3

 72
              65
 73
               2
 40
0.75
 49
0.5
 74
               0
 49
-0.25
 74
               0
  0
LTYPE
  5
36
100
AcDbSymbolTableRecord
100
AcDbLinetypeTableRecord
  2
STYLE_03
 70
               0
  3

 72
              65
 73
               4
 40
4.0
 49
0.25
 74
               0
 49
-0.5
 74
               0
 49
0.5
 74
               0
 49
-0.5
 74
               0
  0
LTYPE
  5
37
100
AcDbSymbolTableRecord
100
AcDbLinetypeTableRecord
  2
STYLE_04
 70
               0
  3

 72
              65
 73
               4
 40
5.0
 49
2.5
 74
               0
 49
-0.5
 74
               0
 49
0.5
 74
               0
 49
-0.5
 74
               0
  0
LTYPE
  5
38
100
AcDbSymbolTableRecord
100
AcDbLinetypeTableRecord
  2
STYLE_05
 70
               0
  3

 72
              65
 73
               2
 40
0.5
 49
0.0001
 74
               0
 49
-0.4999
 74
               0
  0
LTYPE
  5
39
100
AcDbSymbolTableRecord
100
AcDbLinetypeTableRecord
  2
STYLE_06
 70
               0
  3

 72
              65
 73
               4
 40
2.0
 49
1.0
 74
               0
 49
-0.5
 74
               0
 49
0.0001
 74
               0
 49
-0.4999
 74
               0
  0
LTYPE
  5
3A
100
AcDbSymbolTableRecord
100
AcDbLinetypeTableRecord
  2
STYLE_07
 70
               0
  3

 72
              65
 73
               6
 40
3.5
 49
1.0
 74
               0
 49
-0.5
 74
               0
 49
1.0
 74
               0
 49
-0.5
 74
               0
 49
0.0001000000000002
 74
               0
 49
-0.4998999999999998
 74
               0
  0
LTYPE
  5
3B
100
AcDbSymbolTableRecord
100
AcDbLinetypeTableRecord
  2
STYLE_08
 70
               0
  3

 72
              65
 73
               6
 40
2.5
 49
1.0
 74
               0
 49
-0.5
 74
               0
 49
0.0001
 74
               0
 49
-0.4999
 74
               0
 49
0.0001000000000002
 74
               0
 49
-0.4998999999999998
 74
               0
  0
LTYPE
  5
3C
100
AcDbSymbolTableRecord
100
AcDbLinetypeTableRecord
  2
STYLE_09
 70
               0
  3

 72
              65
 73
               2
 40
0.09722900390625
 49
0.0555572509765625
 74
               0
 49
-0.0416717529296875
 74
               0
  0
LTYPE
  5
3D
100
AcDbSymbolTableRecord
100
AcDbLinetypeTableRecord
  2
STYLE_10
 70
               0
  3

 72
              65
 73
               4
 40
0.59722900390625
 49
0.3055572509765625
 74
               0
 49
-0.15277099609375
 74
               0
 49
0.013885498046875
 74
               0
 49
-0.1250152587890625
 74
               0
  0
LTYPE
  5
3E
100
AcDbSymbolTableRecord
100
AcDbLinetypeTableRecord
  2
STYLE_11
 70
               0
  3

 72
              65
 73
               4
 40
0.4305572509765625
 49
0.236114501953125
 74
               0
 49
-0.0833282470703125
 74
               0
 49
0.013885498046875
 74
               0
 49
-0.09722900390625
 74
               0
  0
LTYPE
  5
3F
100
AcDbSymbolTableRecord
100
AcDbLinetypeTableRecord
  2
STYLE_12
 70
               0
  3

 72
              65
 73
               2
 40
0.0833282470703125
 49
0.0555572509765625
 74
               0
 49
-0.02777099609375
 74
               0
  0
LTYPE
  5
40
100
AcDbSymbolTableRecord
100
AcDbLinetypeTableRecord
  2
STYLE_13
 70
               0
  3

 72
              65
 73
               4
 40
0.068511962890625
 49
0.0428314208984375
 74
               0
 49
-0.0085601806640625
 74
               0
 49
0.0085601806640625
 74
               0
 49
-0.0085601806640625
 74
               0
  0
LTYPE
  5
41
100
AcDbSymbolTableRecord
100
AcDbLinetypeTableRecord
  2
STYLE_14
 70
               0
  3

 72
              65
 73
               2
 40
0.02569580078125
 49
0.0171356201171875
 74
               0
 49
-0.0085601806640625
 74
               0
  0
LTYPE
  5
42
100
AcDbSymbolTableRecord
100
AcDbLinetypeTableRecord
  2
STYLE_15
 70
               0
  3

 72
              65
 73
               6
 40
0.08563232421875
 49
0.0428314208984375
 74
               0
 49
-0.0085601806640625
 74
               0
 49
0.0085601806640625
 74
               0
 49
-0.0085601806640625
 74
               0
 49
0.0085601806640625
 74
               0
 49
-0.0085601806640625
 74
               0
  0
LTYPE
  5
43
100
AcDbSymbolTableRecord
100
AcDbLinetypeTableRecord
  2
STYLE_16
 70
               0
  3

 72
              65
 73
               2
 40
0.375
 49
0.25
 74
               0
 49
-0.125
 74
               0
  0
LTYPE
  5
44
100
AcDbSymbolTableRecord
100
AcDbLinetypeTableRecord
  2
STYLE_17
 70
               0
  3

 72
              65
 73
               4
 40
0.2083282470703125
 49
0.111114501953125
 74
               0
 49
-0.041656494140625
 74
               0
 49
0.013885498046875
 74
               0
 49
-0.0416717529296875
 74
               0
  0
LTYPE
  5
45
100
AcDbSymbolTableRecord
100
AcDbLinetypeTableRecord
  2
STYLE_18
 70
               0
  3

 72
              65
 73
               2
 40
0.0694427490234375
 49
0.0416717529296875
 74
               0
 49
-0.02777099609375
 74
               0
  0
ENDTAB
  0
TABLE
  2
LAYER
  5
2
100
AcDbSymbolTable
 70
               5
  0
LAYER
  5
14
100
AcDbSymbolTableRecord
100
AcDbLayerTableRecord
  2
0
 70
               0
 62
               7
  6
Continuous
290
               1
370
              -3
390
1D
  0
LAYER
  5
46
100
AcDbSymbolTableRecord
100
AcDbLayerTableRecord
  2
Defpoints
 70
               0
 62
               7
  6
Continuous
290
               0
370
              -3
390
1D
  0
LAYER
  5
47
100
AcDbSymbolTableRecord
100
AcDbLayerTableRecord
  2
None
 70
               0
 62
               7
  6
Continuous
290
               1
370
               5
390
1D
  0
LAYER
  5
48
100
AcDbSymbolTableRecord
100
AcDbLayerTableRecord
  2
Dimension
 70
               0
 62
               7
  6
Continuous
290
               1
370
               5
390
1D
  0
LAYER
  5
49
100
AcDbSymbolTableRecord
100
AcDbLayerTableRecord
  2
Solid Lines
 70
               0
 62
               7
  6
Continuous
290
               1
370
              25
390
1D
  0
ENDTAB
  0
TABLE
  2
STYLE
  5
3
100
AcDbSymbolTable
 70
               4
  0
STYLE
  5
17
100
AcDbSymbolTableRecord
100
AcDbTextStyleTableRecord
  2
Standard
 70
               0
 40
0.0
 41
1.0
 50
0.0
 71
               0
 42
0.0
  3
txt
  4

  0
STYLE
  5
31
100
AcDbSymbolTableRecord
100
AcDbTextStyleTableRecord
  2
Arial
 70
               0
 40
0.0
 41
1.0
 50
0.0
 71
               0
 42
0.0
  3
Arial
  4

1001
ACAD
1000
Arial
1071
        0
  0
STYLE
  5
32
100
AcDbSymbolTableRecord
100
AcDbTextStyleTableRecord
  2
Arial (bold)
 70
               0
 40
0.0
 41
1.0
 50
0.0
 71
               0
 42
0.0
  3
Arial
  4

1001
ACAD
1000
Arial
1071
 33554432
  0
STYLE
  5
33
100
AcDbSymbolTableRecord
100
AcDbTextStyleTableRecord
  2
Helvetica
 70
               0
 40
0.0
 41
1.0
 50
0.0
 71
               0
 42
0.0
  3
Helvetica
  4

1001
ACAD
1000
Helvetica
1071
        0
  0
ENDTAB
  0
TABLE
  2
VIEW
  5
5
100
AcDbSymbolTable
 70
               0
  0
ENDTAB
  0
TABLE
  2
UCS
  5
6
100
AcDbSymbolTable
 70
               0
  0
ENDTAB
  0
TABLE
  2
APPID
  5
8
100
AcDbSymbolTable
 70
               1
  0
APPID
  5
16
100
AcDbSymbolTableRecord
100
AcDbRegAppTableRecord
  2
ACAD
 70
               0
  0
ENDTAB
  0
TABLE
  2
DIMSTYLE
  5
9
100
AcDbSymbolTable
 70
               2
100
AcDbDimStyleTable
 71
               0
  0
DIMSTYLE
105
18
100
AcDbSymbolTableRecord
100
AcDbDimStyleTableRecord
  2
Standard
 70
               0
  3

  4

 40
1.0
 41
0.18
 42
0.0625
 43
0.38
 44
0.18
 45
0.0
 46
0.0
 47
0.0
 48
0.0
 71
               0
 72
               0
 73
               1
 74
               1
 75
               0
 76
               0
 77
               0
 78
               0
 79
               0
140
0.18
141
0.09
142
0.0
143
25.399999999999999
144
1.0
145
0.0
146
1.0
147
0.09
148
0.0
170
               0
171
               2
172
               0
173
               0
174
               0
175
               0
176
               0
177
               0
178
               0
179
               0
271
               4
272
               4
273
               2
274
               2
275
               0
276
               0
277
               2
278
              46
279
               0
280
               0
281
               0
282
               0
283
               1
284
               0
285
               0
286
               0
288
               0
289
               3
340
17
341
0
342
0
343
0
344
0
371
              -2
372
              -2
  0
DIMSTYLE
105
52
100
AcDbSymbolTableRecord
100
AcDbDimStyleTableRecord
  2
IE Standard
 70
               0
  3
<>mm
  4
[]"
 40
1.0
 41
1.0583322750000002
 42
0.634999366577038
 43
6.9999859934672708
 44
1.2699987331540761
 45
0.0
 46
0.0
 47
0.0
 48
0.0
 71
               0
 72
               0
 73
               1
 74
               1
 75
               0
 76
               0
 77
               0
 78
              11
 79
               0
140
0.8421302083333332
141
0.0
142
0.0
143
0.0393700787401575
144
1.0
145
0.0
146
1.0
147
0.0
148
0.0
170
               0
171
               3
172
               1
173
               0
174
               1
175
               0
176
               0
177
               0
178
               0
179
               0
271
               2
272
               2
273
               2
274
               2
275
               0
276
               2
277
               2
278
              46
279
               0
280
               0
281
               0
282
               0
283
               1
284
              11
285
               3
286
               3
288
               0
289
               0
340
33
341
4E
342
4A
343
0
344
0
371
              -2
372
              -2
  0
ENDTAB
  0
TABLE
  2
BLOCK_RECORD
  5
1
100
AcDbSymbolTable
 70
              15
  0
BLOCK_RECORD
  5
A
100
AcDbSymbolTableRecord
100
AcDbBlockTableRecord
  2
*MODEL_SPACE
340
20
  0
BLOCK_RECORD
  5
B
100
AcDbSymbolTableRecord
100
AcDbBlockTableRecord
  2
*PAPER_SPACE
340
21
  0
BLOCK_RECORD
  5
4A
100
AcDbSymbolTableRecord
100
AcDbBlockTableRecord
  2
VW_FILLEDARROW
340
0
  0
BLOCK_RECORD
  5
4E
100
AcDbSymbolTableRecord
100
AcDbBlockTableRecord
  2
VW_FILLEDARROW-1
340
0
  0
BLOCK_RECORD
  5
24
100
AcDbSymbolTableRecord
100
AcDbBlockTableRecord
  2
IE i logo
340
0
102
{BLKREFS
331
38F
102
}
  0
BLOCK_RECORD
  5
25
100
AcDbSymbolTableRecord
100
AcDbBlockTableRecord
  2
pad
340
0
102
{BLKREFS
331
8A
331
8B
331
8C
331
8D
331
8E
331
8F
331
90
331
91
331
92
331
93
331
94
331
95
331
96
331
97
331
98
331
99
331
9A
331
9B
331
9C
331
9D
331
9E
331
9F
331
A0
331
A1
331
A2
331
A3
331
A4
331
A5
331
A6
331
A7
331
A8
331
A9
331
AA
331
AB
331
AC
331
AD
331
AE
331
AF
331
B0
331
B1
331
B2
331
B3
331
B4
331
B5
331
B6
331
B7
331
B8
331
B9
331
BA
331
BB
331
BC
331
BD
331
BE
331
BF
331
C0
331
C1
331
C2
331
C3
331
C4
331
C5
331
C6
331
C7
331
C8
331
C9
331
CA
331
CB
331
CC
331
CD
331
CE
331
CF
331
D0
331
D1
331
D2
331
D3
331
D4
331
D5
331
D6
331
D7
331
D8
331
D9
331
DA
331
DB
331
DC
331
DD
331
DE
331
DF
331
E0
331
E1
331
E2
331
E3
331
E4
331
E5
331
E6
331
E7
331
E8
331
E9
331
EA
331
EB
331
EC
331
ED
331
EE
331
EF
331
F0
331
F1
331
F2
331
F3
331
F4
331
F5
331
F6
331
F7
331
F8
331
F9
331
FA
331
FB
331
FC
331
FD
331
FE
331
FF
331
100
331
101
331
102
331
103
331
104
331
105
331
106
331
107
331
108
331
109
331
10A
331
10B
331
10C
331
10D
331
10E
331
10F
331
110
331
111
331
112
331
113
331
114
331
115
331
116
331
117
331
118
331
119
331
11A
331
11B
331
11C
331
11D
331
11E
331
11F
331
120
331
121
331
122
331
123
331
124
331
125
331
126
331
127
331
128
331
129
331
12A
331
12B
331
12C
331
12D
331
12E
331
12F
331
130
331
131
331
132
331
133
331
134
331
135
331
136
331
137
331
138
331
139
331
13A
331
13B
331
13C
331
13D
331
13E
331
13F
331
140
331
141
331
142
331
143
331
144
331
145
331
146
331
147
331
148
331
149
331
14A
331
14B
331
14C
331
14D
331
14E
331
14F
331
150
331
151
331
152
331
153
331
154
331
155
331
156
331
157
331
158
331
159
331
15A
331
15B
331
15C
331
15D
331
15E
331
15F
331
160
331
161
331
162
331
163
331
164
331
165
331
166
331
167
331
168
331
169
331
16A
331
16B
331
16C
331
16D
331
16E
331
16F
331
170
331
171
331
172
331
173
331
174
331
175
331
176
331
177
331
178
331
179
331
17A
331
17B
331
17C
331
17D
331
17E
331
17F
331
180
331
181
331
182
331
183
331
184
331
185
331
186
331
187
331
188
331
189
331
18A
331
18B
331
18C
331
18D
331
18E
331
18F
331
190
331
191
331
192
331
193
331
194
331
195
331
196
331
197
331
198
331
199
331
19A
331
19B
331
19C
331
19D
331
19E
331
19F
331
1A0
331
1A1
331
1A2
331
1A3
331
1A4
331
1A5
331
1A6
331
1A7
331
1A8
331
1A9
331
1AA
331
1AB
331
1AC
331
1AD
331
1AE
331
1AF
331
1B0
331
1B1
331
1B2
331
1B3
331
1B4
331
1B5
331
1B6
331
1B7
331
1B8
331
1B9
331
1BA
331
1BB
331
1BC
331
1BD
331
1BE
331
1BF
331
1C0
331
1C1
331
1C2
331
1C3
331
1C4
331
1C5
331
1C6
331
1C7
331
1C8
331
1C9
331
1CA
331
1CB
331
1CC
331
1CD
331
1CE
331
1CF
331
1D0
331
1D1
331
1D2
331
1D3
331
1D4
331
1D5
331
1D6
331
1D7
331
1D8
331
1D9
331
1DA
331
1DB
331
1DC
331
1DD
331
1DE
331
1DF
331
1E0
331
1E1
331
1E2
331
1E3
331
1E4
331
1E5
331
1E6
331
1E7
331
1E8
331
1E9
331
1EA
331
1EB
331
1EC
331
1ED
331
1EE
331
1EF
331
1F0
331
1F1
331
1F2
331
1F3
331
1F4
331
1F5
331
1F6
331
1F7
331
1F8
331
1F9
331
1FA
331
1FB
331
1FC
331
1FD
331
1FE
331
1FF
331
200
331
201
331
202
331
203
331
204
331
205
331
206
331
207
331
208
331
209
331
20A
331
20B
331
20C
331
20D
331
20E
331
20F
331
210
331
211
331
212
331
213
331
214
331
215
331
216
331
217
331
218
331
219
331
21A
331
21B
331
21C
331
21D
331
21E
331
21F
331
220
331
221
331
222
331
223
331
224
331
225
331
226
331
227
331
228
331
229
331
22A
331
22B
331
22C
331
22D
331
22E
331
22F
331
230
331
231
331
232
331
233
331
234
331
235
331
236
331
237
331
238
331
239
331
23A
331
23B
331
23C
331
23D
331
23E
331
23F
331
240
331
241
331
242
331
243
331
244
331
245
331
246
331
247
331
248
331
249
331
24A
331
24B
331
24C
331
24D
331
24E
331
24F
331
250
331
251
331
252
331
253
331
254
331
255
331
256
331
257
331
258
331
259
331
25A
331
25B
331
25C
331
25D
331
25E
331
25F
331
260
331
261
331
262
331
263
331
264
331
265
331
266
331
267
331
268
331
269
331
26A
331
26B
331
26C
331
26D
331
26E
331
26F
331
270
331
271
331
272
331
273
331
274
331
275
331
276
331
277
331
278
331
279
331
27A
331
27B
331
27C
331
27D
331
27E
331
27F
331
280
331
281
331
282
331
283
331
284
331
285
331
286
331
287
331
288
331
289
331
28A
331
28B
331
28C
331
28D
331
28E
331
28F
331
290
331
291
331
292
331
293
331
294
331
295
331
296
331
297
331
298
331
299
331
29A
331
29B
331
29C
331
29D
331
29E
331
29F
331
2A0
331
2A1
331
2A2
331
2A3
331
2A4
331
2A5
331
2A6
331
2A7
331
2A8
331
2A9
331
2AA
331
2AB
331
2AC
331
2AD
331
2AE
331
2AF
331
2B0
331
2B1
331
2B2
331
2B3
331
2B4
331
2B5
331
2B6
331
2B7
331
2B8
331
2B9
331
2BA
331
2BB
331
2BC
331
2BD
331
2BE
331
2BF
331
2C0
331
2C1
331
2C2
331
2C3
331
2C4
331
2C5
331
2C6
331
2C7
331
2C8
331
2C9
102
}
  0
BLOCK_RECORD
  5
26
100
AcDbSymbolTableRecord
100
AcDbBlockTableRecord
  2
Group
340
0
102
{BLKREFS
331
393
102
}
  0
BLOCK_RECORD
  5
27
100
AcDbSymbolTableRecord
100
AcDbBlockTableRecord
  2
*D5
340
0
  0
BLOCK_RECORD
  5
28
100
AcDbSymbolTableRecord
100
AcDbBlockTableRecord
  2
*D6
340
0
  0
BLOCK_RECORD
  5
29
100
AcDbSymbolTableRecord
100
AcDbBlockTableRecord
  2
*D7
340
0
  0
BLOCK_RECORD
  5
2A
100
AcDbSymbolTableRecord
100
AcDbBlockTableRecord
  2
*D8
340
0
  0
BLOCK_RECORD
  5
2B
100
AcDbSymbolTableRecord
100
AcDbBlockTableRecord
  2
Group-1
340
0
102
{BLKREFS
331
309
102
}
  0
BLOCK_RECORD
  5
2C
100
AcDbSymbolTableRecord
100
AcDbBlockTableRecord
  2
Group-2
340
0
102
{BLKREFS
331
398
102
}
  0
BLOCK_RECORD
  5
2D
100
AcDbSymbolTableRecord
100
AcDbBlockTableRecord
  2
*D11
340
0
  0
BLOCK_RECORD
  5
2E
100
AcDbSymbolTableRecord
100
AcDbBlockTableRecord
  2
*D12
340
0
  0
BLOCK_RECORD
  5
2F
100
AcDbSymbolTableRecord
100
AcDbBlockTableRecord
  2
*D13
340
0
  0
BLOCK_RECORD
  5
30
100
AcDbSymbolTableRecord
100
AcDbBlockTableRecord
  2
*D14
340
0
  0
ENDTAB
  0
ENDSEC
  0
SECTION
  2
BLOCKS
  0
BLOCK
  5
D
100
AcDbEntity
  8
0
390
0
100
AcDbBlockBegin
  2
*MODEL_SPACE
 70
               0
 10
0.0
 20
0.0
 30
0.0
  3
*MODEL_SPACE
  1

  0
ENDBLK
  5
E
100
AcDbEntity
  8
0
390
0
100
AcDbBlockEnd
  0
BLOCK
  5
F
100
AcDbEntity
 67
               1
  8
0
390
0
100
AcDbBlockBegin
  2
*PAPER_SPACE
 70
               0
 10
0.0
 20
0.0
 30
0.0
  3
*PAPER_SPACE
  1

  0
ENDBLK
  5
10
100
AcDbEntity
 67
               1
  8
0
390
0
100
AcDbBlockEnd
  0
BLOCK
  5
4B
100
AcDbEntity
  8
0
370
              -2
390
0
  6
ByBlock
 62
               0
100
AcDbBlockBegin
  2
VW_FILLEDARROW
 70
               0
 10
0.0
 20
0.0
 30
0.0
  3
VW_FILLEDARROW
  1

  0
SOLID
  5
4C
100
AcDbEntity
  8
0
370
              -2
390
0
 62
               0
100
AcDbTrace
 10
0.0
 20
0.0
 30
0.0
 11
-0.9999379649047853
 21
-0.2679325701774575
 31
0.0
 12
-0.9999379649047852
 22
0.2679325701774578
 32
0.0
 13
-0.9999379649047852
 23
0.2679325701774578
 33
0.0
  0
ENDBLK
  5
4D
100
AcDbEntity
  8
0
390
0
100
AcDbBlockEnd
  0
BLOCK
  5
4F
100
AcDbEntity
  8
0
370
              -2
390
0
  6
ByBlock
 62
               0
100
AcDbBlockBegin
  2
VW_FILLEDARROW-1
 70
               0
 10
0.0
 20
0.0
 30
0.0
  3
VW_FILLEDARROW
  1

  0
SOLID
  5
50
100
AcDbEntity
  8
0
370
              -2
390
0
 62
               0
100
AcDbTrace
 10
0.0
 20
0.0
 30
0.0
 11
-0.6661085461303712
 21
-0.1784832470071022
 31
0.0
 12
-0.6661085461303712
 22
0.1784832470071024
 32
0.0
 13
-0.6661085461303712
 23
0.1784832470071024
 33
0.0
  0
ENDBLK
  5
51
100
AcDbEntity
  8
0
390
0
100
AcDbBlockEnd
  0
BLOCK
  5
53
100
AcDbEntity
  8
None
390
0
100
AcDbBlockBegin
  2
IE i logo
 70
               0
 10
0.0
 20
0.0
 30
0.0
  3
IE i logo
  1

  0
CIRCLE
  5
54
102
{ACAD_REACTORS
330
55
102
}
100
AcDbEntity
  8
None
370
               5
390
0
  6
Continuous
 62
               7
100
AcDbCircle
 10
0.0
 20
0.0
 30
0.0
 40
2.6707900018721049
  0
HATCH
  5
55
100
AcDbEntity
  8
None
370
               0
390
0
  6
Continuous
 62
               7
100
AcDbHatch
 10
0.0
 20
0.0
 30
0.0
210
0.0
220
0.0
230
1.0
  2
SOLID
 70
               1
 71
               1
 91
        1
 92
        1
 93
        1
 72
               2
 10
0.0
 20
0.0
 40
2.6707900018721049
 50
0.0
 51
360.0
 73
               0
 97
        1
330
54
 75
               0
 76
               1
 98
        1
 10
0.0
 20
0.0
  0
WIPEOUT
  5
56
100
AcDbEntity
  8
None
370
               5
390
0
  6
Continuous
 62
               7
 92
        0
100
AcDbWipeout
 90
        0
 10
-1.01559
 20
0.73569
 30
0.0
 11
0.6889700000000001
 21
0.0
 31
0.0
 12
0.0
 22
0.6889700000000001
 32
0.0
 13
1.0
 23
1.0
340
0
 70
               7
280
               1
281
              50
282
              50
283
               0
360
0
 71
               2
 91
       97
 14
-0.384131384530531
 24
0.0667881039813055
 14
-0.3634758906411018
 24
0.0346239223043094
 14
-0.3415474367534144
 24
0.00272054661306
 14
-0.3183460228674687
 24
-0.0289220230924422
 14
-0.2938716489832648
 24
-0.0603037868121978
 14
-0.2681243151008025
 24
-0.0914247445462067
 14
-0.2411040212200821
 24
-0.1222848962944686
 14
-0.2128107673411033
 24
-0.1528842420569836
 14
-0.1832445534638663
 24
-0.1832227818337517
 14
-0.1529111164129063
 24
-0.2127940984367968
 14
-0.1223161930127582
 24
-0.2410917746781425
 14
-0.0914597832634222
 24
-0.2681158105577891
 14
-0.0603418871648982
 24
-0.2938662060757359
 14
-0.0289625047171866
 24
-0.3183429612319839
 14
0.0026783640797133
 24
-0.3415460760265321
 14
0.0345807192258009
 24
-0.3634755504593811
 14
0.0667445607210765
 24
-0.384131384530531
 14
0.0986291130237893
 24
-0.4031788394269708
 14
0.1296936005921883
 24
-0.4202831763356896
 14
0.1599380234262741
 24
-0.4354443952566872
 14
0.1893623815260462
 24
-0.4486624961899646
 14
0.2179666748915049
 24
-0.4599374791355209
 14
0.2457509035226498
 24
-0.4692693440933564
 14
0.2727150674194813
 24
-0.4766580910634712
 14
0.2988591665819992
 24
-0.4821037200458653
 14
0.3237520773763735
 24
-0.485530597304672
 14
0.3469626761687736
 24
-0.4868630891040248
 14
0.3684909629591999
 24
-0.4861011954439233
 14
0.3883369377476522
 24
-0.483244916324368
 14
0.4065006005341306
 24
-0.4782942517453585
 14
0.4229819513186351
 24
-0.4712492017068954
 14
0.4377809901011655
 24
-0.4621097662089782
 14
0.450897716881722
 24
-0.4508759452516074
 14
0.462126435113285
 24
-0.4377544559269632
 14
0.4712614482488352
 24
-0.4229520153272275
 14
0.4783027562883724
 24
-0.4064686234523998
 14
0.4832503592318967
 24
-0.3883042803024801
 14
0.4861042570794083
 24
-0.3684589858774687
 14
0.486864449830907
 24
-0.3469327401773656
 14
0.4855309374863926
 24
-0.3237255432021711
 14
0.4821037200458654
 24
-0.2988373949518843
 14
0.4766580910634716
 24
-0.2726983985151745
 14
0.4692693440933567
 24
-0.24573865698071
 14
0.4599374791355212
 24
-0.217958170348491
 14
0.4486624961899646
 24
-0.1893569386185173
 14
0.4354443952566874
 24
-0.1599349617907888
 14
0.4202831763356894
 24
-0.1296922398653057
 14
0.4031788394269706
 24
-0.0986287728420684
 14
0.384131384530531
 24
-0.0667445607210762
 14
0.363475890641102
 24
-0.0345803790440801
 14
0.3415474367534145
 24
-0.0026770033528307
 14
0.3183460228674687
 24
0.0289655663526718
 14
0.2938716489832648
 24
0.0603473300724272
 14
0.2681243151008025
 24
0.0914682878064358
 14
0.2411040212200821
 24
0.1223284395546979
 14
0.2128107673411033
 24
0.1529277853172129
 14
0.1832445534638663
 24
0.1832663250939811
 14
0.1529111164129063
 24
0.2128376416970262
 14
0.1223161930127581
 24
0.2411353179383721
 14
0.0914597832634222
 24
0.2681593538180184
 14
0.0603418871648983
 24
0.2939097493359655
 14
0.0289625047171866
 24
0.3183865044922132
 14
-0.0026783640797133
 24
0.3415896192867617
 14
-0.0345807192258009
 24
0.3635190937196106
 14
-0.0667445607210765
 24
0.3841749277907604
 14
-0.0986291130237892
 24
0.4032220425054794
 14
-0.1296936005921883
 24
0.4203253588690366
 14
-0.159938023426274
 24
0.4354848768814319
 14
-0.1893623815260462
 24
0.4487005965426653
 14
-0.2179666748915049
 24
0.4599725178527369
 14
-0.2457509035226499
 24
0.4693006408116466
 14
-0.2727150674194813
 24
0.4766849654193943
 14
-0.2988591665819992
 24
0.4821254916759801
 14
-0.3237520773763735
 24
0.4855476063906992
 14
-0.3469626761687736
 24
0.4868766963728464
 14
-0.3684909629591999
 24
0.486112761622422
 14
-0.3883369377476522
 24
0.4832558021394255
 14
-0.4065006005341306
 24
0.4783058179238573
 14
-0.4229819513186351
 24
0.4712628089757174
 14
-0.4377809901011655
 24
0.4621267752950057
 14
-0.450897716881722
 24
0.450897716881722
 14
-0.462126435113285
 24
0.437781330282886
 14
-0.4712614482488352
 24
0.4229833120455172
 14
-0.4783027562883724
 24
0.4065036621696155
 14
-0.4832503592318967
 24
0.388342380655181
 14
-0.4861042570794085
 24
0.3684994675022135
 14
-0.486864449830907
 24
0.3469749227107132
 14
-0.4855309374863926
 24
0.32376874628068
 14
-0.4821037200458657
 24
0.2988809382121138
 14
-0.4766580910634715
 24
0.2727419417754038
 14
-0.4692693440933567
 24
0.2457822002409394
 14
-0.4599374791355211
 24
0.2180017136087203
 14
-0.4486624961899646
 24
0.1894004818787466
 14
-0.4354443952566874
 24
0.1599785050510182
 14
-0.4202831763356894
 24
0.1297357831255353
 14
-0.4031788394269706
 24
0.0986723161022978
 14
-0.384131384530531
 24
0.0667881039813055
  0
SPLINE
  5
57
100
AcDbEntity
  8
None
370
               5
390
0
  6
Continuous
 62
               7
100
AcDbSpline
210
0.0
220
0.0
230
1.0
 70
               9
 71
               2
 72
              17
 73
              14
 74
               0
 42
0.000001
 43
0.000001
 40
0.0
 40
0.0
 40
0.0
 40
1.0
 40
2.0
 40
3.0
 40
4.0
 40
5.0
 40
6.0
 40
7.0
 40
8.0
 40
9.0
 40
10.0
 40
11.0
 40
12.0
 40
12.0
 40
12.0
 10
-0.9357599999999999
 20
1.03416
 30
0.0
 10
-0.8805899999999999
 20
1.1231599999999999
 30
0.0
 10
-0.71412
 20
1.2896599999999998
 30
0.0
 10
-0.5361199999999999
 20
1.3999999999999999
 30
0.0
 10
-0.39428
 20
1.4246599999999998
 30
0.0
 10
-0.32662
 20
1.3569699999999998
 30
0.0
 10
-0.35128
 20
1.2151599999999998
 30
0.0
 10
-0.46162
 20
1.0371599999999999
 30
0.0
 10
-0.6280899999999999
 20
0.8706599999999999
 30
0.0
 10
-0.80609
 20
0.7603199999999999
 30
0.0
 10
-0.9479299999999999
 20
0.73569
 30
0.0
 10
-1.01559
 20
0.8033499999999999
 30
0.0
 10
-0.9909299999999999
 20
0.9451599999999999
 30
0.0
 10
-0.9357599999999999
 20
1.03416
 30
0.0
  0
WIPEOUT
  5
58
100
AcDbEntity
  8
None
370
               5
390
0
  6
Continuous
 62
               7
 92
        0
100
AcDbWipeout
 90
        0
 10
-1.7197799999999999
 20
-1.8961899999999998
 30
0.0
 11
1.8520599999999998
 21
0.0
 31
0.0
 12
0.0
 22
1.8520599999999998
 32
0.0
 13
1.0
 23
1.0
340
0
 70
               7
280
               1
281
              50
282
              50
283
               0
360
0
 71
               2
 91
       36
 14
-0.4523827521786551
 24
0.3095202099284041
 14
-0.2500026996965541
 24
0.1190404198568081
 14
-0.2142911136788225
 24
0.1190404198568081
 14
-0.0714231720354632
 24
0.3690377201602539
 14
0.0
 24
0.4523827521786551
 14
0.0714231720354633
 24
0.5
 14
0.2142857142857143
 24
0.5
 14
0.3690539183395787
 24
0.4047493061779856
 14
0.4761940757858817
 24
0.3095202099284041
 14
0.5
 24
0.2380916384998327
 14
0.5
 24
0.1071347580531948
 14
0.4880997375894949
 24
0.0714231720354632
 14
0.4642884139822685
 24
0.0714231720354632
 14
0.4285768279645368
 24
0.0829562757146097
 14
0.3214258717320173
 24
0.1666522682850447
 14
0.274726520739069
 24
0.1785579300886581
 14
0.2142857142857143
 24
0.1666522682850447
 14
0.190479790071596
 24
0.1070915629083291
 14
0.1428625422502512
 24
0.0238059242141183
 14
0.1190404198568082
 24
-0.0833450320184012
 14
0.1071347580531948
 24
-0.2142911136788225
 14
0.0714231720354633
 24
-0.2857304838936103
 14
0.0238059242141184
 24
-0.3452533935185685
 14
-0.0238059242141183
 24
-0.3866289429068173
 14
-0.0714231720354632
 24
-0.3866289429068173
 14
-0.1309622798397461
 24
-0.3571536559290736
 14
-0.1785741282679827
 24
-0.2976361456972236
 14
-0.2619029621070591
 24
-0.178579527661091
 14
-0.342424111529864
 24
-0.1071563556256276
 14
-0.4727114672310832
 24
0.0238059242141183
 14
-0.5
 24
0.0714231720354632
 14
-0.5
 24
0.1547520058745397
 14
-0.5
 24
0.2380916384998327
 14
-0.5
 24
0.2857088863211775
 14
-0.4880997375894949
 24
0.3214204723389091
 14
-0.4523827521786551
 24
0.3095202099284041
  0
POLYLINE
  5
59
100
AcDbEntity
  8
None
370
               5
390
0
  6
Continuous
 62
               7
100
AcDb2dPolyline
 66
               1
 10
0.0
 20
0.0
 30
0.0
 70
               1
 75
               5
  0
VERTEX
  5
5A
100
AcDbEntity
  8
None
370
               5
390
0
  6
Continuous
 62
               7
100
AcDbVertex
100
AcDb2dVertex
 10
-1.6315899999999999
 20
-1.5434099999999999
 30
0.0
  0
VERTEX
  5
5B
100
AcDbEntity
  8
None
370
               5
390
0
  6
Continuous
 62
               7
100
AcDbVertex
100
AcDb2dVertex
 10
-1.2567699999999999
 20
-1.1906299999999999
 30
0.0
  0
VERTEX
  5
5C
100
AcDbEntity
  8
None
370
               5
390
0
  6
Continuous
 62
               7
100
AcDbVertex
100
AcDb2dVertex
 10
-1.1906299999999999
 20
-1.1906299999999999
 30
0.0
  0
VERTEX
  5
5D
100
AcDbEntity
  8
None
370
               5
390
0
  6
Continuous
 62
               7
100
AcDbVertex
100
AcDb2dVertex
 10
-0.9260299999999999
 20
-1.6536399999999998
 30
0.0
  0
VERTEX
  5
5E
100
AcDbEntity
  8
None
370
               5
390
0
  6
Continuous
 62
               7
100
AcDbVertex
100
AcDb2dVertex
 10
-0.79375
 20
-1.8079999999999998
 30
0.0
  0
VERTEX
  5
5F
100
AcDbEntity
  8
None
370
               5
390
0
  6
Continuous
 62
               7
100
AcDbVertex
100
AcDb2dVertex
 10
-0.6614699999999999
 20
-1.8961899999999998
 30
0.0
  0
VERTEX
  5
60
100
AcDbEntity
  8
None
370
               5
390
0
  6
Continuous
 62
               7
100
AcDbVertex
100
AcDb2dVertex
 10
-0.39688
 20
-1.8961899999999998
 30
0.0
  0
VERTEX
  5
61
100
AcDbEntity
  8
None
370
               5
390
0
  6
Continuous
 62
               7
100
AcDbVertex
100
AcDb2dVertex
 10
-0.11024
 20
-1.7197799999999999
 30
0.0
  0
VERTEX
  5
62
100
AcDbEntity
  8
None
370
               5
390
0
  6
Continuous
 62
               7
100
AcDbVertex
100
AcDb2dVertex
 10
0.08819
 20
-1.5434099999999999
 30
0.0
  0
VERTEX
  5
63
100
AcDbEntity
  8
None
370
               5
390
0
  6
Continuous
 62
               7
100
AcDbVertex
100
AcDb2dVertex
 10
0.13228
 20
-1.4111199999999999
 30
0.0
  0
VERTEX
  5
64
100
AcDbEntity
  8
None
370
               5
390
0
  6
Continuous
 62
               7
100
AcDbVertex
100
AcDb2dVertex
 10
0.13228
 20
-1.16858
 30
0.0
  0
VERTEX
  5
65
100
AcDbEntity
  8
None
370
               5
390
0
  6
Continuous
 62
               7
100
AcDbVertex
100
AcDb2dVertex
 10
0.11024
 20
-1.1024399999999999
 30
0.0
  0
VERTEX
  5
66
100
AcDbEntity
  8
None
370
               5
390
0
  6
Continuous
 62
               7
100
AcDbVertex
100
AcDb2dVertex
 10
0.06614
 20
-1.1024399999999999
 30
0.0
  0
VERTEX
  5
67
100
AcDbEntity
  8
None
370
               5
390
0
  6
Continuous
 62
               7
100
AcDbVertex
100
AcDb2dVertex
 10
0.0
 20
-1.1237999999999999
 30
0.0
  0
VERTEX
  5
68
100
AcDbEntity
  8
None
370
               5
390
0
  6
Continuous
 62
               7
100
AcDbVertex
100
AcDb2dVertex
 10
-0.19845
 20
-1.2788099999999998
 30
0.0
  0
VERTEX
  5
69
100
AcDbEntity
  8
None
370
               5
390
0
  6
Continuous
 62
               7
100
AcDbVertex
100
AcDb2dVertex
 10
-0.28494
 20
-1.3008599999999999
 30
0.0
  0
VERTEX
  5
6A
100
AcDbEntity
  8
None
370
               5
390
0
  6
Continuous
 62
               7
100
AcDbVertex
100
AcDb2dVertex
 10
-0.39688
 20
-1.2788099999999998
 30
0.0
  0
VERTEX
  5
6B
100
AcDbEntity
  8
None
370
               5
390
0
  6
Continuous
 62
               7
100
AcDbVertex
100
AcDb2dVertex
 10
-0.44097
 20
-1.1684999999999999
 30
0.0
  0
VERTEX
  5
6C
100
AcDbEntity
  8
None
370
               5
390
0
  6
Continuous
 62
               7
100
AcDbVertex
100
AcDb2dVertex
 10
-0.52916
 20
-1.0142499999999999
 30
0.0
  0
VERTEX
  5
6D
100
AcDbEntity
  8
None
370
               5
390
0
  6
Continuous
 62
               7
100
AcDbVertex
100
AcDb2dVertex
 10
-0.5732799999999999
 20
-0.8158
 30
0.0
  0
VERTEX
  5
6E
100
AcDbEntity
  8
None
370
               5
390
0
  6
Continuous
 62
               7
100
AcDbVertex
100
AcDb2dVertex
 10
-0.5953299999999999
 20
-0.5732799999999999
 30
0.0
  0
VERTEX
  5
6F
100
AcDbEntity
  8
None
370
               5
390
0
  6
Continuous
 62
               7
100
AcDbVertex
100
AcDb2dVertex
 10
-0.6614699999999999
 20
-0.44097
 30
0.0
  0
VERTEX
  5
70
100
AcDbEntity
  8
None
370
               5
390
0
  6
Continuous
 62
               7
100
AcDbVertex
100
AcDb2dVertex
 10
-0.7496599999999999
 20
-0.33073
 30
0.0
  0
VERTEX
  5
71
100
AcDbEntity
  8
None
370
               5
390
0
  6
Continuous
 62
               7
100
AcDbVertex
100
AcDb2dVertex
 10
-0.8378399999999999
 20
-0.2541
 30
0.0
  0
VERTEX
  5
72
100
AcDbEntity
  8
None
370
               5
390
0
  6
Continuous
 62
               7
100
AcDbVertex
100
AcDb2dVertex
 10
-0.9260299999999999
 20
-0.2541
 30
0.0
  0
VERTEX
  5
73
100
AcDbEntity
  8
None
370
               5
390
0
  6
Continuous
 62
               7
100
AcDbVertex
100
AcDb2dVertex
 10
-1.0363
 20
-0.30869
 30
0.0
  0
VERTEX
  5
74
100
AcDbEntity
  8
None
370
               5
390
0
  6
Continuous
 62
               7
100
AcDbVertex
100
AcDb2dVertex
 10
-1.1244799999999999
 20
-0.41892
 30
0.0
  0
VERTEX
  5
75
100
AcDbEntity
  8
None
370
               5
390
0
  6
Continuous
 62
               7
100
AcDbVertex
100
AcDb2dVertex
 10
-1.2788099999999998
 20
-0.63942
 30
0.0
  0
VERTEX
  5
76
100
AcDbEntity
  8
None
370
               5
390
0
  6
Continuous
 62
               7
100
AcDbVertex
100
AcDb2dVertex
 10
-1.4279399999999998
 20
-0.7716999999999999
 30
0.0
  0
VERTEX
  5
77
100
AcDbEntity
  8
None
370
               5
390
0
  6
Continuous
 62
               7
100
AcDbVertex
100
AcDb2dVertex
 10
-1.6692399999999998
 20
-1.0142499999999999
 30
0.0
  0
VERTEX
  5
78
100
AcDbEntity
  8
None
370
               5
390
0
  6
Continuous
 62
               7
100
AcDbVertex
100
AcDb2dVertex
 10
-1.7197799999999999
 20
-1.1024399999999999
 30
0.0
  0
VERTEX
  5
79
100
AcDbEntity
  8
None
370
               5
390
0
  6
Continuous
 62
               7
100
AcDbVertex
100
AcDb2dVertex
 10
-1.7197799999999999
 20
-1.2567699999999999
 30
0.0
  0
VERTEX
  5
7A
100
AcDbEntity
  8
None
370
               5
390
0
  6
Continuous
 62
               7
100
AcDbVertex
100
AcDb2dVertex
 10
-1.7197799999999999
 20
-1.4111199999999999
 30
0.0
  0
VERTEX
  5
7B
100
AcDbEntity
  8
None
370
               5
390
0
  6
Continuous
 62
               7
100
AcDbVertex
100
AcDb2dVertex
 10
-1.7197799999999999
 20
-1.4993099999999999
 30
0.0
  0
VERTEX
  5
7C
100
AcDbEntity
  8
None
370
               5
390
0
  6
Continuous
 62
               7
100
AcDbVertex
100
AcDb2dVertex
 10
-1.6977399999999998
 20
-1.5654499999999998
 30
0.0
  0
SEQEND
  5
7D
100
AcDbEntity
  8
None
370
               5
390
0
  6
Continuous
 62
               7
  0
POLYLINE
  5
7E
100
AcDbEntity
  8
None
370
               5
390
0
  6
Continuous
 62
               7
100
AcDb2dPolyline
 66
               1
 10
0.0
 20
0.0
 30
0.0
 75
               5
  0
VERTEX
  5
7F
100
AcDbEntity
  8
None
370
               5
390
0
  6
Continuous
 62
               7
100
AcDbVertex
100
AcDb2dVertex
 10
-1.7197799999999999
 20
-1.1410199999999999
 30
0.0
  0
VERTEX
  5
80
100
AcDbEntity
  8
None
370
               5
390
0
  6
Continuous
 62
               7
100
AcDbVertex
100
AcDb2dVertex
 10
-1.7197799999999999
 20
-1.45522
 30
0.0
  0
VERTEX
  5
81
100
AcDbEntity
  8
None
370
               5
390
0
  6
Continuous
 62
               7
100
AcDbVertex
100
AcDb2dVertex
 10
-1.7197799999999999
 20
-1.4772599999999998
 30
0.0
  0
VERTEX
  5
82
100
AcDbEntity
  8
None
370
               5
390
0
  6
Continuous
 62
               7
100
AcDbVertex
100
AcDb2dVertex
 10
-1.71427
 20
-1.5158499999999999
 30
0.0
  0
SEQEND
  5
83
100
AcDbEntity
  8
None
370
               5
390
0
  6
Continuous
 62
               7
  0
ENDBLK
  5
84
100
AcDbEntity
  8
None
390
0
100
AcDbBlockEnd
  0
BLOCK
  5
85
100
AcDbEntity
  8
None
390
0
100
AcDbBlockBegin
  2
pad
 70
               0
 10
0.0
 20
0.0
 30
0.0
  3
pad
  1

  0
CIRCLE
  5
86
102
{ACAD_REACTORS
330
87
102
}
100
AcDbEntity
  8
None
370
               9
390
0
  6
Continuous
 62
               7
100
AcDbCircle
 10
0.0
 20
0.0
 30
0.0
 40
0.255
  0
HATCH
  5
87
100
AcDbEntity
  8
None
370
               0
390
0
  6
Continuous
 62
               7
100
AcDbHatch
 10
0.0
 20
0.0
 30
0.0
210
0.0
220
0.0
230
1.0
  2
SOLID
 70
               1
 71
               1
 91
        1
 92
        1
 93
        1
 72
               2
 10
0.0
 20
0.0
 40
0.255
 50
0.0
 51
360.0
 73
               0
 97
        1
330
86
 75
               0
 76
               1
 98
        1
 10
0.0
 20
0.0
  0
ENDBLK
  5
88
100
AcDbEntity
  8
None
390
0
100
AcDbBlockEnd
  0
BLOCK
  5
89
100
AcDbEntity
  8
None
390
0
100
AcDbBlockBegin
  2
Group
 70
               0
 10
0.0
 20
0.0
 30
0.0
  3
Group
  1

  0
INSERT
  5
8A
100
AcDbEntity
  8
None
390
0
 62
               7
100
AcDbBlockReference
  2
pad
 10
-13.971909999999999
 20
55.051039999999993
 30
0.0
  0
INSERT
  5
8B
100
AcDbEntity
  8
None
390
0
 62
               7
100
AcDbBlockReference
  2
pad
 10
-12.971909999999999
 20
55.051039999999993
 30
0.0
  0
INSERT
  5
8C
100
AcDbEntity
  8
None
390
0
 62
               7
100
AcDbBlockReference
  2
pad
 10
-11.971909999999999
 20
55.051039999999993
 30
0.0
  0
INSERT
  5
8D
100
AcDbEntity
  8
None
390
0
 62
               7
100
AcDbBlockReference
  2
pad
 10
-10.971909999999999
 20
55.051039999999993
 30
0.0
  0
INSERT
  5
8E
100
AcDbEntity
  8
None
390
0
 62
               7
100
AcDbBlockReference
  2
pad
 10
-9.9719099999999994
 20
55.051039999999993
 30
0.0
  0
INSERT
  5
8F
100
AcDbEntity
  8
None
390
0
 62
               7
100
AcDbBlockReference
  2
pad
 10
-8.9719099999999994
 20
55.051039999999993
 30
0.0
  0
INSERT
  5
90
100
AcDbEntity
  8
None
390
0
 62
               7
100
AcDbBlockReference
  2
pad
 10
-7.9719099999999994
 20
55.051039999999993
 30
0.0
  0
INSERT
  5
91
100
AcDbEntity
  8
None
390
0
 62
               7
100
AcDbBlockReference
  2
pad
 10
-6.9719099999999994
 20
55.051039999999993
 30
0.0
  0
INSERT
  5
92
100
AcDbEntity
  8
None
390
0
 62
               7
100
AcDbBlockReference
  2
pad
 10
-5.9719099999999994
 20
55.051039999999993
 30
0.0
  0
INSERT
  5
93
100
AcDbEntity
  8
None
390
0
 62
               7
100
AcDbBlockReference
  2
pad
 10
-4.9719099999999994
 20
55.051039999999993
 30
0.0
  0
INSERT
  5
94
100
AcDbEntity
  8
None
390
0
 62
               7
100
AcDbBlockReference
  2
pad
 10
-3.9719099999999998
 20
55.051039999999993
 30
0.0
  0
INSERT
  5
95
100
AcDbEntity
  8
None
390
0
 62
               7
100
AcDbBlockReference
  2
pad
 10
-2.9719099999999998
 20
55.051039999999993
 30
0.0
  0
INSERT
  5
96
100
AcDbEntity
  8
None
390
0
 62
               7
100
AcDbBlockReference
  2
pad
 10
-1.9719099999999998
 20
55.051039999999993
 30
0.0
  0
INSERT
  5
97
100
AcDbEntity
  8
None
390
0
 62
               7
100
AcDbBlockReference
  2
pad
 10
-0.9719099999999999
 20
55.051039999999993
 30
0.0
  0
INSERT
  5
98
100
AcDbEntity
  8
None
390
0
 62
               7
100
AcDbBlockReference
  2
pad
 10
0.02809
 20
55.051039999999993
 30
0.0
  0
INSERT
  5
99
100
AcDbEntity
  8
None
390
0
 62
               7
100
AcDbBlockReference
  2
pad
 10
1.0280899999999999
 20
55.051039999999993
 30
0.0
  0
INSERT
  5
9A
100
AcDbEntity
  8
None
390
0
 62
               7
100
AcDbBlockReference
  2
pad
 10
2.0280899999999997
 20
55.051039999999993
 30
0.0
  0
INSERT
  5
9B
100
AcDbEntity
  8
None
390
0
 62
               7
100
AcDbBlockReference
  2
pad
 10
3.0280899999999997
 20
55.051039999999993
 30
0.0
  0
INSERT
  5
9C
100
AcDbEntity
  8
None
390
0
 62
               7
100
AcDbBlockReference
  2
pad
 10
4.0280899999999997
 20
55.051039999999993
 30
0.0
  0
INSERT
  5
9D
100
AcDbEntity
  8
None
390
0
 62
               7
100
AcDbBlockReference
  2
pad
 10
5.0280899999999997
 20
55.051039999999993
 30
0.0
  0
INSERT
  5
9E
100
AcDbEntity
  8
None
390
0
 62
               7
100
AcDbBlockReference
  2
pad
 10
6.0280899999999997
 20
55.051039999999993
 30
0.0
  0
INSERT
  5
9F
100
AcDbEntity
  8
None
390
0
 62
               7
100
AcDbBlockReference
  2
pad
 10
7.0280899999999997
 20
55.051039999999993
 30
0.0
  0
INSERT
  5
A0
100
AcDbEntity
  8
None
390
0
 62
               7
100
AcDbBlockReference
  2
pad
 10
8.0280899999999988
 20
55.051039999999993
 30
0.0
  0
INSERT
  5
A1
100
AcDbEntity
  8
None
390
0
 62
               7
100
AcDbBlockReference
  2
pad
 10
9.0280899999999988
 20
55.051039999999993
 30
0.0
  0
INSERT
  5
A2
100
AcDbEntity
  8
None
390
0
 62
               7
100
AcDbBlockReference
  2
pad
 10
-13.971909999999999
 20
54.051039999999993
 30
0.0
  0
INSERT
  5
A3
100
AcDbEntity
  8
None
390
0
 62
               7
100
AcDbBlockReference
  2
pad
 10
-12.971909999999999
 20
54.051039999999993
 30
0.0
  0
INSERT
  5
A4
100
AcDbEntity
  8
None
390
0
 62
               7
100
AcDbBlockReference
  2
pad
 10
-11.971909999999999
 20
54.051039999999993
 30
0.0
  0
INSERT
  5
A5
100
AcDbEntity
  8
None
390
0
 62
               7
100
AcDbBlockReference
  2
pad
 10
-10.971909999999999
 20
54.051039999999993
 30
0.0
  0
INSERT
  5
A6
100
AcDbEntity
  8
None
390
0
 62
               7
100
AcDbBlockReference
  2
pad
 10
-9.9719099999999994
 20
54.051039999999993
 30
0.0
  0
INSERT
  5
A7
100
AcDbEntity
  8
None
390
0
 62
               7
100
AcDbBlockReference
  2
pad
 10
-8.9719099999999994
 20
54.051039999999993
 30
0.0
  0
INSERT
  5
A8
100
AcDbEntity
  8
None
390
0
 62
               7
100
AcDbBlockReference
  2
pad
 10
-7.9719099999999994
 20
54.051039999999993
 30
0.0
  0
INSERT
  5
A9
100
AcDbEntity
  8
None
390
0
 62
               7
100
AcDbBlockReference
  2
pad
 10
-6.9719099999999994
 20
54.051039999999993
 30
0.0
  0
INSERT
  5
AA
100
AcDbEntity
  8
None
390
0
 62
               7
100
AcDbBlockReference
  2
pad
 10
-5.9719099999999994
 20
54.051039999999993
 30
0.0
  0
INSERT
  5
AB
100
AcDbEntity
  8
None
390
0
 62
               7
100
AcDbBlockReference
  2
pad
 10
-4.9719099999999994
 20
54.051039999999993
 30
0.0
  0
INSERT
  5
AC
100
AcDbEntity
  8
None
390
0
 62
               7
100
AcDbBlockReference
  2
pad
 10
-3.9719099999999998
 20
54.051039999999993
 30
0.0
  0
INSERT
  5
AD
100
AcDbEntity
  8
None
390
0
 62
               7
100
AcDbBlockReference
  2
pad
 10
-2.9719099999999998
 20
54.051039999999993
 30
0.0
  0
INSERT
  5
AE
100
AcDbEntity
  8
None
390
0
 62
               7
100
AcDbBlockReference
  2
pad
 10
-1.9719099999999998
 20
54.051039999999993
 30
0.0
  0
INSERT
  5
AF
100
AcDbEntity
  8
None
390
0
 62
               7
100
AcDbBlockReference
  2
pad
 10
-0.9719099999999999
 20
54.051039999999993
 30
0.0
  0
INSERT
  5
B0
100
AcDbEntity
  8
None
390
0
 62
               7
100
AcDbBlockReference
  2
pad
 10
0.02809
 20
54.051039999999993
 30
0.0
  0
INSERT
  5
B1
100
AcDbEntity
  8
None
390
0
 62
               7
100
AcDbBlockReference
  2
pad
 10
1.0280899999999999
 20
54.051039999999993
 30
0.0
  0
INSERT
  5
B2
100
AcDbEntity
  8
None
390
0
 62
               7
100
AcDbBlockReference
  2
pad
 10
2.0280899999999997
 20
54.051039999999993
 30
0.0
  0
INSERT
  5
B3
100
AcDbEntity
  8
None
390
0
 62
               7
100
AcDbBlockReference
  2
pad
 10
3.0280899999999997
 20
54.051039999999993
 30
0.0
  0
INSERT
  5
B4
100
AcDbEntity
  8
None
390
0
 62
               7
100
AcDbBlockReference
  2
pad
 10
4.0280899999999997
 20
54.051039999999993
 30
0.0
  0
INSERT
  5
B5
100
AcDbEntity
  8
None
390
0
 62
               7
100
AcDbBlockReference
  2
pad
 10
5.0280899999999997
 20
54.051039999999993
 30
0.0
  0
INSERT
  5
B6
100
AcDbEntity
  8
None
390
0
 62
               7
100
AcDbBlockReference
  2
pad
 10
6.0280899999999997
 20
54.051039999999993
 30
0.0
  0
INSERT
  5
B7
100
AcDbEntity
  8
None
390
0
 62
               7
100
AcDbBlockReference
  2
pad
 10
7.0280899999999997
 20
54.051039999999993
 30
0.0
  0
INSERT
  5
B8
100
AcDbEntity
  8
None
390
0
 62
               7
100
AcDbBlockReference
  2
pad
 10
8.0280899999999988
 20
54.051039999999993
 30
0.0
  0
INSERT
  5
B9
100
AcDbEntity
  8
None
390
0
 62
               7
100
AcDbBlockReference
  2
pad
 10
9.0280899999999988
 20
54.051039999999993
 30
0.0
  0
INSERT
  5
BA
100
AcDbEntity
  8
None
390
0
 62
               7
100
AcDbBlockReference
  2
pad
 10
-13.971909999999999
 20
53.051039999999993
 30
0.0
  0
INSERT
  5
BB
100
AcDbEntity
  8
None
390
0
 62
               7
100
AcDbBlockReference
  2
pad
 10
-12.971909999999999
 20
53.051039999999993
 30
0.0
  0
INSERT
  5
BC
100
AcDbEntity
  8
None
390
0
 62
               7
100
AcDbBlockReference
  2
pad
 10
-11.971909999999999
 20
53.051039999999993
 30
0.0
  0
INSERT
  5
BD
100
AcDbEntity
  8
None
390
0
 62
               7
100
AcDbBlockReference
  2
pad
 10
-10.971909999999999
 20
53.051039999999993
 30
0.0
  0
INSERT
  5
BE
100
AcDbEntity
  8
None
390
0
 62
               7
100
AcDbBlockReference
  2
pad
 10
-9.9719099999999994
 20
53.051039999999993
 30
0.0
  0
INSERT
  5
BF
100
AcDbEntity
  8
None
390
0
 62
               7
100
AcDbBlockReference
  2
pad
 10
-8.9719099999999994
 20
53.051039999999993
 30
0.0
  0
INSERT
  5
C0
100
AcDbEntity
  8
None
390
0
 62
               7
100
AcDbBlockReference
  2
pad
 10
-7.9719099999999994
 20
53.051039999999993
 30
0.0
  0
INSERT
  5
C1
100
AcDbEntity
  8
None
390
0
 62
               7
100
AcDbBlockReference
  2
pad
 10
-6.9719099999999994
 20
53.051039999999993
 30
0.0
  0
INSERT
  5
C2
100
AcDbEntity
  8
None
390
0
 62
               7
100
AcDbBlockReference
  2
pad
 10
-5.9719099999999994
 20
53.051039999999993
 30
0.0
  0
INSERT
  5
C3
100
AcDbEntity
  8
None
390
0
 62
               7
100
AcDbBlockReference
  2
pad
 10
-4.9719099999999994
 20
53.051039999999993
 30
0.0
  0
INSERT
  5
C4
100
AcDbEntity
  8
None
390
0
 62
               7
100
AcDbBlockReference
  2
pad
 10
-3.9719099999999998
 20
53.051039999999993
 30
0.0
  0
INSERT
  5
C5
100
AcDbEntity
  8
None
390
0
 62
               7
100
AcDbBlockReference
  2
pad
 10
-2.9719099999999998
 20
53.051039999999993
 30
0.0
  0
INSERT
  5
C6
100
AcDbEntity
  8
None
390
0
 62
               7
100
AcDbBlockReference
  2
pad
 10
-1.9719099999999998
 20
53.051039999999993
 30
0.0
  0
INSERT
  5
C7
100
AcDbEntity
  8
None
390
0
 62
               7
100
AcDbBlockReference
  2
pad
 10
-0.9719099999999999
 20
53.051039999999993
 30
0.0
  0
INSERT
  5
C8
100
AcDbEntity
  8
None
390
0
 62
               7
100
AcDbBlockReference
  2
pad
 10
0.02809
 20
53.051039999999993
 30
0.0
  0
INSERT
  5
C9
100
AcDbEntity
  8
None
390
0
 62
               7
100
AcDbBlockReference
  2
pad
 10
1.0280899999999999
 20
53.051039999999993
 30
0.0
  0
INSERT
  5
CA
100
AcDbEntity
  8
None
390
0
 62
               7
100
AcDbBlockReference
  2
pad
 10
2.0280899999999997
 20
53.051039999999993
 30
0.0
  0
INSERT
  5
CB
100
AcDbEntity
  8
None
390
0
 62
               7
100
AcDbBlockReference
  2
pad
 10
3.0280899999999997
 20
53.051039999999993
 30
0.0
  0
INSERT
  5
CC
100
AcDbEntity
  8
None
390
0
 62
               7
100
AcDbBlockReference
  2
pad
 10
4.0280899999999997
 20
53.051039999999993
 30
0.0
  0
INSERT
  5
CD
100
AcDbEntity
  8
None
390
0
 62
               7
100
AcDbBlockReference
  2
pad
 10
5.0280899999999997
 20
53.051039999999993
 30
0.0
  0
INSERT
  5
CE
100
AcDbEntity
  8
None
390
0
 62
               7
100
AcDbBlockReference
  2
pad
 10
6.0280899999999997
 20
53.051039999999993
 30
0.0
  0
INSERT
  5
CF
100
AcDbEntity
  8
None
390
0
 62
               7
100
AcDbBlockReference
  2
pad
 10
7.0280899999999997
 20
53.051039999999993
 30
0.0
  0
INSERT
  5
D0
100
AcDbEntity
  8
None
390
0
 62
               7
100
AcDbBlockReference
  2
pad
 10
8.0280899999999988
 20
53.051039999999993
 30
0.0
  0
INSERT
  5
D1
100
AcDbEntity
  8
None
390
0
 62
               7
100
AcDbBlockReference
  2
pad
 10
9.0280899999999988
 20
53.051039999999993
 30
0.0
  0
INSERT
  5
D2
100
AcDbEntity
  8
None
390
0
 62
               7
100
AcDbBlockReference
  2
pad
 10
-13.971909999999999
 20
52.051039999999993
 30
0.0
  0
INSERT
  5
D3
100
AcDbEntity
  8
None
390
0
 62
               7
100
AcDbBlockReference
  2
pad
 10
-12.971909999999999
 20
52.051039999999993
 30
0.0
  0
INSERT
  5
D4
100
AcDbEntity
  8
None
390
0
 62
               7
100
AcDbBlockReference
  2
pad
 10
-11.971909999999999
 20
52.051039999999993
 30
0.0
  0
INSERT
  5
D5
100
AcDbEntity
  8
None
390
0
 62
               7
100
AcDbBlockReference
  2
pad
 10
-10.971909999999999
 20
52.051039999999993
 30
0.0
  0
INSERT
  5
D6
100
AcDbEntity
  8
None
390
0
 62
               7
100
AcDbBlockReference
  2
pad
 10
-9.9719099999999994
 20
52.051039999999993
 30
0.0
  0
INSERT
  5
D7
100
AcDbEntity
  8
None
390
0
 62
               7
100
AcDbBlockReference
  2
pad
 10
-8.9719099999999994
 20
52.051039999999993
 30
0.0
  0
INSERT
  5
D8
100
AcDbEntity
  8
None
390
0
 62
               7
100
AcDbBlockReference
  2
pad
 10
-7.9719099999999994
 20
52.051039999999993
 30
0.0
  0
INSERT
  5
D9
100
AcDbEntity
  8
None
390
0
 62
               7
100
AcDbBlockReference
  2
pad
 10
-6.9719099999999994
 20
52.051039999999993
 30
0.0
  0
INSERT
  5
DA
100
AcDbEntity
  8
None
390
0
 62
               7
100
AcDbBlockReference
  2
pad
 10
-5.9719099999999994
 20
52.051039999999993
 30
0.0
  0
INSERT
  5
DB
100
AcDbEntity
  8
None
390
0
 62
               7
100
AcDbBlockReference
  2
pad
 10
-4.9719099999999994
 20
52.051039999999993
 30
0.0
  0
INSERT
  5
DC
100
AcDbEntity
  8
None
390
0
 62
               7
100
AcDbBlockReference
  2
pad
 10
-3.9719099999999998
 20
52.051039999999993
 30
0.0
  0
INSERT
  5
DD
100
AcDbEntity
  8
None
390
0
 62
               7
100
AcDbBlockReference
  2
pad
 10
-2.9719099999999998
 20
52.051039999999993
 30
0.0
  0
INSERT
  5
DE
100
AcDbEntity
  8
None
390
0
 62
               7
100
AcDbBlockReference
  2
pad
 10
-1.9719099999999998
 20
52.051039999999993
 30
0.0
  0
INSERT
  5
DF
100
AcDbEntity
  8
None
390
0
 62
               7
100
AcDbBlockReference
  2
pad
 10
-0.9719099999999999
 20
52.051039999999993
 30
0.0
  0
INSERT
  5
E0
100
AcDbEntity
  8
None
390
0
 62
               7
100
AcDbBlockReference
  2
pad
 10
0.02809
 20
52.051039999999993
 30
0.0
  0
INSERT
  5
E1
100
AcDbEntity
  8
None
390
0
 62
               7
100
AcDbBlockReference
  2
pad
 10
1.0280899999999999
 20
52.051039999999993
 30
0.0
  0
INSERT
  5
E2
100
AcDbEntity
  8
None
390
0
 62
               7
100
AcDbBlockReference
  2
pad
 10
2.0280899999999997
 20
52.051039999999993
 30
0.0
  0
INSERT
  5
E3
100
AcDbEntity
  8
None
390
0
 62
               7
100
AcDbBlockReference
  2
pad
 10
3.0280899999999997
 20
52.051039999999993
 30
0.0
  0
INSERT
  5
E4
100
AcDbEntity
  8
None
390
0
 62
               7
100
AcDbBlockReference
  2
pad
 10
4.0280899999999997
 20
52.051039999999993
 30
0.0
  0
INSERT
  5
E5
100
AcDbEntity
  8
None
390
0
 62
               7
100
AcDbBlockReference
  2
pad
 10
5.0280899999999997
 20
52.051039999999993
 30
0.0
  0
INSERT
  5
E6
100
AcDbEntity
  8
None
390
0
 62
               7
100
AcDbBlockReference
  2
pad
 10
6.0280899999999997
 20
52.051039999999993
 30
0.0
  0
INSERT
  5
E7
100
AcDbEntity
  8
None
390
0
 62
               7
100
AcDbBlockReference
  2
pad
 10
7.0280899999999997
 20
52.051039999999993
 30
0.0
  0
INSERT
  5
E8
100
AcDbEntity
  8
None
390
0
 62
               7
100
AcDbBlockReference
  2
pad
 10
8.0280899999999988
 20
52.051039999999993
 30
0.0
  0
INSERT
  5
E9
100
AcDbEntity
  8
None
390
0
 62
               7
100
AcDbBlockReference
  2
pad
 10
9.0280899999999988
 20
52.051039999999993
 30
0.0
  0
INSERT
  5
EA
100
AcDbEntity
  8
None
390
0
 62
               7
100
AcDbBlockReference
  2
pad
 10
-13.971909999999999
 20
51.051039999999993
 30
0.0
  0
INSERT
  5
EB
100
AcDbEntity
  8
None
390
0
 62
               7
100
AcDbBlockReference
  2
pad
 10
-12.971909999999999
 20
51.051039999999993
 30
0.0
  0
INSERT
  5
EC
100
AcDbEntity
  8
None
390
0
 62
               7
100
AcDbBlockReference
  2
pad
 10
-11.971909999999999
 20
51.051039999999993
 30
0.0
  0
INSERT
  5
ED
100
AcDbEntity
  8
None
390
0
 62
               7
100
AcDbBlockReference
  2
pad
 10
-10.971909999999999
 20
51.051039999999993
 30
0.0
  0
INSERT
  5
EE
100
AcDbEntity
  8
None
390
0
 62
               7
100
AcDbBlockReference
  2
pad
 10
-9.9719099999999994
 20
51.051039999999993
 30
0.0
  0
INSERT
  5
EF
100
AcDbEntity
  8
None
390
0
 62
               7
100
AcDbBlockReference
  2
pad
 10
-8.9719099999999994
 20
51.051039999999993
 30
0.0
  0
INSERT
  5
F0
100
AcDbEntity
  8
None
390
0
 62
               7
100
AcDbBlockReference
  2
pad
 10
-7.9719099999999994
 20
51.051039999999993
 30
0.0
  0
INSERT
  5
F1
100
AcDbEntity
  8
None
390
0
 62
               7
100
AcDbBlockReference
  2
pad
 10
-6.9719099999999994
 20
51.051039999999993
 30
0.0
  0
INSERT
  5
F2
100
AcDbEntity
  8
None
390
0
 62
               7
100
AcDbBlockReference
  2
pad
 10
-5.9719099999999994
 20
51.051039999999993
 30
0.0
  0
INSERT
  5
F3
100
AcDbEntity
  8
None
390
0
 62
               7
100
AcDbBlockReference
  2
pad
 10
-4.9719099999999994
 20
51.051039999999993
 30
0.0
  0
INSERT
  5
F4
100
AcDbEntity
  8
None
390
0
 62
               7
100
AcDbBlockReference
  2
pad
 10
-3.9719099999999998
 20
51.051039999999993
 30
0.0
  0
INSERT
  5
F5
100
AcDbEntity
  8
None
390
0
 62
               7
100
AcDbBlockReference
  2
pad
 10
-2.9719099999999998
 20
51.051039999999993
 30
0.0
  0
INSERT
  5
F6
100
AcDbEntity
  8
None
390
0
 62
               7
100
AcDbBlockReference
  2
pad
 10
-1.9719099999999998
 20
51.051039999999993
 30
0.0
  0
INSERT
  5
F7
100
AcDbEntity
  8
None
390
0
 62
               7
100
AcDbBlockReference
  2
pad
 10
-0.9719099999999999
 20
51.051039999999993
 30
0.0
  0
INSERT
  5
F8
100
AcDbEntity
  8
None
390
0
 62
               7
100
AcDbBlockReference
  2
pad
 10
0.02809
 20
51.051039999999993
 30
0.0
  0
INSERT
  5
F9
100
AcDbEntity
  8
None
390
0
 62
               7
100
AcDbBlockReference
  2
pad
 10
1.0280899999999999
 20
51.051039999999993
 30
0.0
  0
INSERT
  5
FA
100
AcDbEntity
  8
None
390
0
 62
               7
100
AcDbBlockReference
  2
pad
 10
2.0280899999999997
 20
51.051039999999993
 30
0.0
  0
INSERT
  5
FB
100
AcDbEntity
  8
None
390
0
 62
               7
100
AcDbBlockReference
  2
pad
 10
3.0280899999999997
 20
51.051039999999993
 30
0.0
  0
INSERT
  5
FC
100
AcDbEntity
  8
None
390
0
 62
               7
100
AcDbBlockReference
  2
pad
 10
4.0280899999999997
 20
51.051039999999993
 30
0.0
  0
INSERT
  5
FD
100
AcDbEntity
  8
None
390
0
 62
               7
100
AcDbBlockReference
  2
pad
 10
5.0280899999999997
 20
51.051039999999993
 30
0.0
  0
INSERT
  5
FE
100
AcDbEntity
  8
None
390
0
 62
               7
100
AcDbBlockReference
  2
pad
 10
6.0280899999999997
 20
51.051039999999993
 30
0.0
  0
INSERT
  5
FF
100
AcDbEntity
  8
None
390
0
 62
               7
100
AcDbBlockReference
  2
pad
 10
7.0280899999999997
 20
51.051039999999993
 30
0.0
  0
INSERT
  5
100
100
AcDbEntity
  8
None
390
0
 62
               7
100
AcDbBlockReference
  2
pad
 10
8.0280899999999988
 20
51.051039999999993
 30
0.0
  0
INSERT
  5
101
100
AcDbEntity
  8
None
390
0
 62
               7
100
AcDbBlockReference
  2
pad
 10
9.0280899999999988
 20
51.051039999999993
 30
0.0
  0
INSERT
  5
102
100
AcDbEntity
  8
None
390
0
 62
               7
100
AcDbBlockReference
  2
pad
 10
-13.971909999999999
 20
50.051039999999993
 30
0.0
  0
INSERT
  5
103
100
AcDbEntity
  8
None
390
0
 62
               7
100
AcDbBlockReference
  2
pad
 10
-12.971909999999999
 20
50.051039999999993
 30
0.0
  0
INSERT
  5
104
100
AcDbEntity
  8
None
390
0
 62
               7
100
AcDbBlockReference
  2
pad
 10
-11.971909999999999
 20
50.051039999999993
 30
0.0
  0
INSERT
  5
105
100
AcDbEntity
  8
None
390
0
 62
               7
100
AcDbBlockReference
  2
pad
 10
-10.971909999999999
 20
50.051039999999993
 30
0.0
  0
INSERT
  5
106
100
AcDbEntity
  8
None
390
0
 62
               7
100
AcDbBlockReference
  2
pad
 10
-9.9719099999999994
 20
50.051039999999993
 30
0.0
  0
INSERT
  5
107
100
AcDbEntity
  8
None
390
0
 62
               7
100
AcDbBlockReference
  2
pad
 10
-8.9719099999999994
 20
50.051039999999993
 30
0.0
  0
INSERT
  5
108
100
AcDbEntity
  8
None
390
0
 62
               7
100
AcDbBlockReference
  2
pad
 10
-7.9719099999999994
 20
50.051039999999993
 30
0.0
  0
INSERT
  5
109
100
AcDbEntity
  8
None
390
0
 62
               7
100
AcDbBlockReference
  2
pad
 10
-6.9719099999999994
 20
50.051039999999993
 30
0.0
  0
INSERT
  5
10A
100
AcDbEntity
  8
None
390
0
 62
               7
100
AcDbBlockReference
  2
pad
 10
-5.9719099999999994
 20
50.051039999999993
 30
0.0
  0
INSERT
  5
10B
100
AcDbEntity
  8
None
390
0
 62
               7
100
AcDbBlockReference
  2
pad
 10
-4.9719099999999994
 20
50.051039999999993
 30
0.0
  0
INSERT
  5
10C
100
AcDbEntity
  8
None
390
0
 62
               7
100
AcDbBlockReference
  2
pad
 10
-3.9719099999999998
 20
50.051039999999993
 30
0.0
  0
INSERT
  5
10D
100
AcDbEntity
  8
None
390
0
 62
               7
100
AcDbBlockReference
  2
pad
 10
-2.9719099999999998
 20
50.051039999999993
 30
0.0
  0
INSERT
  5
10E
100
AcDbEntity
  8
None
390
0
 62
               7
100
AcDbBlockReference
  2
pad
 10
-1.9719099999999998
 20
50.051039999999993
 30
0.0
  0
INSERT
  5
10F
100
AcDbEntity
  8
None
390
0
 62
               7
100
AcDbBlockReference
  2
pad
 10
-0.9719099999999999
 20
50.051039999999993
 30
0.0
  0
INSERT
  5
110
100
AcDbEntity
  8
None
390
0
 62
               7
100
AcDbBlockReference
  2
pad
 10
0.02809
 20
50.051039999999993
 30
0.0
  0
INSERT
  5
111
100
AcDbEntity
  8
None
390
0
 62
               7
100
AcDbBlockReference
  2
pad
 10
1.0280899999999999
 20
50.051039999999993
 30
0.0
  0
INSERT
  5
112
100
AcDbEntity
  8
None
390
0
 62
               7
100
AcDbBlockReference
  2
pad
 10
2.0280899999999997
 20
50.051039999999993
 30
0.0
  0
INSERT
  5
113
100
AcDbEntity
  8
None
390
0
 62
               7
100
AcDbBlockReference
  2
pad
 10
3.0280899999999997
 20
50.051039999999993
 30
0.0
  0
INSERT
  5
114
100
AcDbEntity
  8
None
390
0
 62
               7
100
AcDbBlockReference
  2
pad
 10
4.0280899999999997
 20
50.051039999999993
 30
0.0
  0
INSERT
  5
115
100
AcDbEntity
  8
None
390
0
 62
               7
100
AcDbBlockReference
  2
pad
 10
5.0280899999999997
 20
50.051039999999993
 30
0.0
  0
INSERT
  5
116
100
AcDbEntity
  8
None
390
0
 62
               7
100
AcDbBlockReference
  2
pad
 10
6.0280899999999997
 20
50.051039999999993
 30
0.0
  0
INSERT
  5
117
100
AcDbEntity
  8
None
390
0
 62
               7
100
AcDbBlockReference
  2
pad
 10
7.0280899999999997
 20
50.051039999999993
 30
0.0
  0
INSERT
  5
118
100
AcDbEntity
  8
None
390
0
 62
               7
100
AcDbBlockReference
  2
pad
 10
8.0280899999999988
 20
50.051039999999993
 30
0.0
  0
INSERT
  5
119
100
AcDbEntity
  8
None
390
0
 62
               7
100
AcDbBlockReference
  2
pad
 10
9.0280899999999988
 20
50.051039999999993
 30
0.0
  0
INSERT
  5
11A
100
AcDbEntity
  8
None
390
0
 62
               7
100
AcDbBlockReference
  2
pad
 10
-13.971909999999999
 20
49.051039999999993
 30
0.0
  0
INSERT
  5
11B
100
AcDbEntity
  8
None
390
0
 62
               7
100
AcDbBlockReference
  2
pad
 10
-12.971909999999999
 20
49.051039999999993
 30
0.0
  0
INSERT
  5
11C
100
AcDbEntity
  8
None
390
0
 62
               7
100
AcDbBlockReference
  2
pad
 10
-11.971909999999999
 20
49.051039999999993
 30
0.0
  0
INSERT
  5
11D
100
AcDbEntity
  8
None
390
0
 62
               7
100
AcDbBlockReference
  2
pad
 10
-10.971909999999999
 20
49.051039999999993
 30
0.0
  0
INSERT
  5
11E
100
AcDbEntity
  8
None
390
0
 62
               7
100
AcDbBlockReference
  2
pad
 10
-9.9719099999999994
 20
49.051039999999993
 30
0.0
  0
INSERT
  5
11F
100
AcDbEntity
  8
None
390
0
 62
               7
100
AcDbBlockReference
  2
pad
 10
-8.9719099999999994
 20
49.051039999999993
 30
0.0
  0
INSERT
  5
120
100
AcDbEntity
  8
None
390
0
 62
               7
100
AcDbBlockReference
  2
pad
 10
-7.9719099999999994
 20
49.051039999999993
 30
0.0
  0
INSERT
  5
121
100
AcDbEntity
  8
None
390
0
 62
               7
100
AcDbBlockReference
  2
pad
 10
-6.9719099999999994
 20
49.051039999999993
 30
0.0
  0
INSERT
  5
122
100
AcDbEntity
  8
None
390
0
 62
               7
100
AcDbBlockReference
  2
pad
 10
-5.9719099999999994
 20
49.051039999999993
 30
0.0
  0
INSERT
  5
123
100
AcDbEntity
  8
None
390
0
 62
               7
100
AcDbBlockReference
  2
pad
 10
-4.9719099999999994
 20
49.051039999999993
 30
0.0
  0
INSERT
  5
124
100
AcDbEntity
  8
None
390
0
 62
               7
100
AcDbBlockReference
  2
pad
 10
-3.9719099999999998
 20
49.051039999999993
 30
0.0
  0
INSERT
  5
125
100
AcDbEntity
  8
None
390
0
 62
               7
100
AcDbBlockReference
  2
pad
 10
-2.9719099999999998
 20
49.051039999999993
 30
0.0
  0
INSERT
  5
126
100
AcDbEntity
  8
None
390
0
 62
               7
100
AcDbBlockReference
  2
pad
 10
-1.9719099999999998
 20
49.051039999999993
 30
0.0
  0
INSERT
  5
127
100
AcDbEntity
  8
None
390
0
 62
               7
100
AcDbBlockReference
  2
pad
 10
-0.9719099999999999
 20
49.051039999999993
 30
0.0
  0
INSERT
  5
128
100
AcDbEntity
  8
None
390
0
 62
               7
100
AcDbBlockReference
  2
pad
 10
0.02809
 20
49.051039999999993
 30
0.0
  0
INSERT
  5
129
100
AcDbEntity
  8
None
390
0
 62
               7
100
AcDbBlockReference
  2
pad
 10
1.0280899999999999
 20
49.051039999999993
 30
0.0
  0
INSERT
  5
12A
100
AcDbEntity
  8
None
390
0
 62
               7
100
AcDbBlockReference
  2
pad
 10
2.0280899999999997
 20
49.051039999999993
 30
0.0
  0
INSERT
  5
12B
100
AcDbEntity
  8
None
390
0
 62
               7
100
AcDbBlockReference
  2
pad
 10
3.0280899999999997
 20
49.051039999999993
 30
0.0
  0
INSERT
  5
12C
100
AcDbEntity
  8
None
390
0
 62
               7
100
AcDbBlockReference
  2
pad
 10
4.0280899999999997
 20
49.051039999999993
 30
0.0
  0
INSERT
  5
12D
100
AcDbEntity
  8
None
390
0
 62
               7
100
AcDbBlockReference
  2
pad
 10
5.0280899999999997
 20
49.051039999999993
 30
0.0
  0
INSERT
  5
12E
100
AcDbEntity
  8
None
390
0
 62
               7
100
AcDbBlockReference
  2
pad
 10
6.0280899999999997
 20
49.051039999999993
 30
0.0
  0
INSERT
  5
12F
100
AcDbEntity
  8
None
390
0
 62
               7
100
AcDbBlockReference
  2
pad
 10
7.0280899999999997
 20
49.051039999999993
 30
0.0
  0
INSERT
  5
130
100
AcDbEntity
  8
None
390
0
 62
               7
100
AcDbBlockReference
  2
pad
 10
8.0280899999999988
 20
49.051039999999993
 30
0.0
  0
INSERT
  5
131
100
AcDbEntity
  8
None
390
0
 62
               7
100
AcDbBlockReference
  2
pad
 10
9.0280899999999988
 20
49.051039999999993
 30
0.0
  0
INSERT
  5
132
100
AcDbEntity
  8
None
390
0
 62
               7
100
AcDbBlockReference
  2
pad
 10
-13.971909999999999
 20
48.051039999999993
 30
0.0
  0
INSERT
  5
133
100
AcDbEntity
  8
None
390
0
 62
               7
100
AcDbBlockReference
  2
pad
 10
-12.971909999999999
 20
48.051039999999993
 30
0.0
  0
INSERT
  5
134
100
AcDbEntity
  8
None
390
0
 62
               7
100
AcDbBlockReference
  2
pad
 10
-11.971909999999999
 20
48.051039999999993
 30
0.0
  0
INSERT
  5
135
100
AcDbEntity
  8
None
390
0
 62
               7
100
AcDbBlockReference
  2
pad
 10
-10.971909999999999
 20
48.051039999999993
 30
0.0
  0
INSERT
  5
136
100
AcDbEntity
  8
None
390
0
 62
               7
100
AcDbBlockReference
  2
pad
 10
-9.9719099999999994
 20
48.051039999999993
 30
0.0
  0
INSERT
  5
137
100
AcDbEntity
  8
None
390
0
 62
               7
100
AcDbBlockReference
  2
pad
 10
-8.9719099999999994
 20
48.051039999999993
 30
0.0
  0
INSERT
  5
138
100
AcDbEntity
  8
None
390
0
 62
               7
100
AcDbBlockReference
  2
pad
 10
-7.9719099999999994
 20
48.051039999999993
 30
0.0
  0
INSERT
  5
139
100
AcDbEntity
  8
None
390
0
 62
               7
100
AcDbBlockReference
  2
pad
 10
-6.9719099999999994
 20
48.051039999999993
 30
0.0
  0
INSERT
  5
13A
100
AcDbEntity
  8
None
390
0
 62
               7
100
AcDbBlockReference
  2
pad
 10
-5.9719099999999994
 20
48.051039999999993
 30
0.0
  0
INSERT
  5
13B
100
AcDbEntity
  8
None
390
0
 62
               7
100
AcDbBlockReference
  2
pad
 10
-4.9719099999999994
 20
48.051039999999993
 30
0.0
  0
INSERT
  5
13C
100
AcDbEntity
  8
None
390
0
 62
               7
100
AcDbBlockReference
  2
pad
 10
-3.9719099999999998
 20
48.051039999999993
 30
0.0
  0
INSERT
  5
13D
100
AcDbEntity
  8
None
390
0
 62
               7
100
AcDbBlockReference
  2
pad
 10
-2.9719099999999998
 20
48.051039999999993
 30
0.0
  0
INSERT
  5
13E
100
AcDbEntity
  8
None
390
0
 62
               7
100
AcDbBlockReference
  2
pad
 10
-1.9719099999999998
 20
48.051039999999993
 30
0.0
  0
INSERT
  5
13F
100
AcDbEntity
  8
None
390
0
 62
               7
100
AcDbBlockReference
  2
pad
 10
-0.9719099999999999
 20
48.051039999999993
 30
0.0
  0
INSERT
  5
140
100
AcDbEntity
  8
None
390
0
 62
               7
100
AcDbBlockReference
  2
pad
 10
0.02809
 20
48.051039999999993
 30
0.0
  0
INSERT
  5
141
100
AcDbEntity
  8
None
390
0
 62
               7
100
AcDbBlockReference
  2
pad
 10
1.0280899999999999
 20
48.051039999999993
 30
0.0
  0
INSERT
  5
142
100
AcDbEntity
  8
None
390
0
 62
               7
100
AcDbBlockReference
  2
pad
 10
2.0280899999999997
 20
48.051039999999993
 30
0.0
  0
INSERT
  5
143
100
AcDbEntity
  8
None
390
0
 62
               7
100
AcDbBlockReference
  2
pad
 10
3.0280899999999997
 20
48.051039999999993
 30
0.0
  0
INSERT
  5
144
100
AcDbEntity
  8
None
390
0
 62
               7
100
AcDbBlockReference
  2
pad
 10
4.0280899999999997
 20
48.051039999999993
 30
0.0
  0
INSERT
  5
145
100
AcDbEntity
  8
None
390
0
 62
               7
100
AcDbBlockReference
  2
pad
 10
5.0280899999999997
 20
48.051039999999993
 30
0.0
  0
INSERT
  5
146
100
AcDbEntity
  8
None
390
0
 62
               7
100
AcDbBlockReference
  2
pad
 10
6.0280899999999997
 20
48.051039999999993
 30
0.0
  0
INSERT
  5
147
100
AcDbEntity
  8
None
390
0
 62
               7
100
AcDbBlockReference
  2
pad
 10
7.0280899999999997
 20
48.051039999999993
 30
0.0
  0
INSERT
  5
148
100
AcDbEntity
  8
None
390
0
 62
               7
100
AcDbBlockReference
  2
pad
 10
8.0280899999999988
 20
48.051039999999993
 30
0.0
  0
INSERT
  5
149
100
AcDbEntity
  8
None
390
0
 62
               7
100
AcDbBlockReference
  2
pad
 10
9.0280899999999988
 20
48.051039999999993
 30
0.0
  0
INSERT
  5
14A
100
AcDbEntity
  8
None
390
0
 62
               7
100
AcDbBlockReference
  2
pad
 10
-13.971909999999999
 20
47.051039999999993
 30
0.0
  0
INSERT
  5
14B
100
AcDbEntity
  8
None
390
0
 62
               7
100
AcDbBlockReference
  2
pad
 10
-12.971909999999999
 20
47.051039999999993
 30
0.0
  0
INSERT
  5
14C
100
AcDbEntity
  8
None
390
0
 62
               7
100
AcDbBlockReference
  2
pad
 10
-11.971909999999999
 20
47.051039999999993
 30
0.0
  0
INSERT
  5
14D
100
AcDbEntity
  8
None
390
0
 62
               7
100
AcDbBlockReference
  2
pad
 10
-10.971909999999999
 20
47.051039999999993
 30
0.0
  0
INSERT
  5
14E
100
AcDbEntity
  8
None
390
0
 62
               7
100
AcDbBlockReference
  2
pad
 10
-9.9719099999999994
 20
47.051039999999993
 30
0.0
  0
INSERT
  5
14F
100
AcDbEntity
  8
None
390
0
 62
               7
100
AcDbBlockReference
  2
pad
 10
-8.9719099999999994
 20
47.051039999999993
 30
0.0
  0
INSERT
  5
150
100
AcDbEntity
  8
None
390
0
 62
               7
100
AcDbBlockReference
  2
pad
 10
-7.9719099999999994
 20
47.051039999999993
 30
0.0
  0
INSERT
  5
151
100
AcDbEntity
  8
None
390
0
 62
               7
100
AcDbBlockReference
  2
pad
 10
-6.9719099999999994
 20
47.051039999999993
 30
0.0
  0
INSERT
  5
152
100
AcDbEntity
  8
None
390
0
 62
               7
100
AcDbBlockReference
  2
pad
 10
-5.9719099999999994
 20
47.051039999999993
 30
0.0
  0
INSERT
  5
153
100
AcDbEntity
  8
None
390
0
 62
               7
100
AcDbBlockReference
  2
pad
 10
-4.9719099999999994
 20
47.051039999999993
 30
0.0
  0
INSERT
  5
154
100
AcDbEntity
  8
None
390
0
 62
               7
100
AcDbBlockReference
  2
pad
 10
-3.9719099999999998
 20
47.051039999999993
 30
0.0
  0
INSERT
  5
155
100
AcDbEntity
  8
None
390
0
 62
               7
100
AcDbBlockReference
  2
pad
 10
-2.9719099999999998
 20
47.051039999999993
 30
0.0
  0
INSERT
  5
156
100
AcDbEntity
  8
None
390
0
 62
               7
100
AcDbBlockReference
  2
pad
 10
-1.9719099999999998
 20
47.051039999999993
 30
0.0
  0
INSERT
  5
157
100
AcDbEntity
  8
None
390
0
 62
               7
100
AcDbBlockReference
  2
pad
 10
-0.9719099999999999
 20
47.051039999999993
 30
0.0
  0
INSERT
  5
158
100
AcDbEntity
  8
None
390
0
 62
               7
100
AcDbBlockReference
  2
pad
 10
0.02809
 20
47.051039999999993
 30
0.0
  0
INSERT
  5
159
100
AcDbEntity
  8
None
390
0
 62
               7
100
AcDbBlockReference
  2
pad
 10
1.0280899999999999
 20
47.051039999999993
 30
0.0
  0
INSERT
  5
15A
100
AcDbEntity
  8
None
390
0
 62
               7
100
AcDbBlockReference
  2
pad
 10
2.0280899999999997
 20
47.051039999999993
 30
0.0
  0
INSERT
  5
15B
100
AcDbEntity
  8
None
390
0
 62
               7
100
AcDbBlockReference
  2
pad
 10
3.0280899999999997
 20
47.051039999999993
 30
0.0
  0
INSERT
  5
15C
100
AcDbEntity
  8
None
390
0
 62
               7
100
AcDbBlockReference
  2
pad
 10
4.0280899999999997
 20
47.051039999999993
 30
0.0
  0
INSERT
  5
15D
100
AcDbEntity
  8
None
390
0
 62
               7
100
AcDbBlockReference
  2
pad
 10
5.0280899999999997
 20
47.051039999999993
 30
0.0
  0
INSERT
  5
15E
100
AcDbEntity
  8
None
390
0
 62
               7
100
AcDbBlockReference
  2
pad
 10
6.0280899999999997
 20
47.051039999999993
 30
0.0
  0
INSERT
  5
15F
100
AcDbEntity
  8
None
390
0
 62
               7
100
AcDbBlockReference
  2
pad
 10
7.0280899999999997
 20
47.051039999999993
 30
0.0
  0
INSERT
  5
160
100
AcDbEntity
  8
None
390
0
 62
               7
100
AcDbBlockReference
  2
pad
 10
8.0280899999999988
 20
47.051039999999993
 30
0.0
  0
INSERT
  5
161
100
AcDbEntity
  8
None
390
0
 62
               7
100
AcDbBlockReference
  2
pad
 10
9.0280899999999988
 20
47.051039999999993
 30
0.0
  0
INSERT
  5
162
100
AcDbEntity
  8
None
390
0
 62
               7
100
AcDbBlockReference
  2
pad
 10
-13.971909999999999
 20
46.051039999999993
 30
0.0
  0
INSERT
  5
163
100
AcDbEntity
  8
None
390
0
 62
               7
100
AcDbBlockReference
  2
pad
 10
-12.971909999999999
 20
46.051039999999993
 30
0.0
  0
INSERT
  5
164
100
AcDbEntity
  8
None
390
0
 62
               7
100
AcDbBlockReference
  2
pad
 10
-11.971909999999999
 20
46.051039999999993
 30
0.0
  0
INSERT
  5
165
100
AcDbEntity
  8
None
390
0
 62
               7
100
AcDbBlockReference
  2
pad
 10
-10.971909999999999
 20
46.051039999999993
 30
0.0
  0
INSERT
  5
166
100
AcDbEntity
  8
None
390
0
 62
               7
100
AcDbBlockReference
  2
pad
 10
-9.9719099999999994
 20
46.051039999999993
 30
0.0
  0
INSERT
  5
167
100
AcDbEntity
  8
None
390
0
 62
               7
100
AcDbBlockReference
  2
pad
 10
-8.9719099999999994
 20
46.051039999999993
 30
0.0
  0
INSERT
  5
168
100
AcDbEntity
  8
None
390
0
 62
               7
100
AcDbBlockReference
  2
pad
 10
-7.9719099999999994
 20
46.051039999999993
 30
0.0
  0
INSERT
  5
169
100
AcDbEntity
  8
None
390
0
 62
               7
100
AcDbBlockReference
  2
pad
 10
-6.9719099999999994
 20
46.051039999999993
 30
0.0
  0
INSERT
  5
16A
100
AcDbEntity
  8
None
390
0
 62
               7
100
AcDbBlockReference
  2
pad
 10
-5.9719099999999994
 20
46.051039999999993
 30
0.0
  0
INSERT
  5
16B
100
AcDbEntity
  8
None
390
0
 62
               7
100
AcDbBlockReference
  2
pad
 10
-4.9719099999999994
 20
46.051039999999993
 30
0.0
  0
INSERT
  5
16C
100
AcDbEntity
  8
None
390
0
 62
               7
100
AcDbBlockReference
  2
pad
 10
-3.9719099999999998
 20
46.051039999999993
 30
0.0
  0
INSERT
  5
16D
100
AcDbEntity
  8
None
390
0
 62
               7
100
AcDbBlockReference
  2
pad
 10
-2.9719099999999998
 20
46.051039999999993
 30
0.0
  0
INSERT
  5
16E
100
AcDbEntity
  8
None
390
0
 62
               7
100
AcDbBlockReference
  2
pad
 10
-1.9719099999999998
 20
46.051039999999993
 30
0.0
  0
INSERT
  5
16F
100
AcDbEntity
  8
None
390
0
 62
               7
100
AcDbBlockReference
  2
pad
 10
-0.9719099999999999
 20
46.051039999999993
 30
0.0
  0
INSERT
  5
170
100
AcDbEntity
  8
None
390
0
 62
               7
100
AcDbBlockReference
  2
pad
 10
0.02809
 20
46.051039999999993
 30
0.0
  0
INSERT
  5
171
100
AcDbEntity
  8
None
390
0
 62
               7
100
AcDbBlockReference
  2
pad
 10
1.0280899999999999
 20
46.051039999999993
 30
0.0
  0
INSERT
  5
172
100
AcDbEntity
  8
None
390
0
 62
               7
100
AcDbBlockReference
  2
pad
 10
2.0280899999999997
 20
46.051039999999993
 30
0.0
  0
INSERT
  5
173
100
AcDbEntity
  8
None
390
0
 62
               7
100
AcDbBlockReference
  2
pad
 10
3.0280899999999997
 20
46.051039999999993
 30
0.0
  0
INSERT
  5
174
100
AcDbEntity
  8
None
390
0
 62
               7
100
AcDbBlockReference
  2
pad
 10
4.0280899999999997
 20
46.051039999999993
 30
0.0
  0
INSERT
  5
175
100
AcDbEntity
  8
None
390
0
 62
               7
100
AcDbBlockReference
  2
pad
 10
5.0280899999999997
 20
46.051039999999993
 30
0.0
  0
INSERT
  5
176
100
AcDbEntity
  8
None
390
0
 62
               7
100
AcDbBlockReference
  2
pad
 10
6.0280899999999997
 20
46.051039999999993
 30
0.0
  0
INSERT
  5
177
100
AcDbEntity
  8
None
390
0
 62
               7
100
AcDbBlockReference
  2
pad
 10
7.0280899999999997
 20
46.051039999999993
 30
0.0
  0
INSERT
  5
178
100
AcDbEntity
  8
None
390
0
 62
               7
100
AcDbBlockReference
  2
pad
 10
8.0280899999999988
 20
46.051039999999993
 30
0.0
  0
INSERT
  5
179
100
AcDbEntity
  8
None
390
0
 62
               7
100
AcDbBlockReference
  2
pad
 10
9.0280899999999988
 20
46.051039999999993
 30
0.0
  0
INSERT
  5
17A
100
AcDbEntity
  8
None
390
0
 62
               7
100
AcDbBlockReference
  2
pad
 10
-13.971909999999999
 20
45.051039999999993
 30
0.0
  0
INSERT
  5
17B
100
AcDbEntity
  8
None
390
0
 62
               7
100
AcDbBlockReference
  2
pad
 10
-12.971909999999999
 20
45.051039999999993
 30
0.0
  0
INSERT
  5
17C
100
AcDbEntity
  8
None
390
0
 62
               7
100
AcDbBlockReference
  2
pad
 10
-11.971909999999999
 20
45.051039999999993
 30
0.0
  0
INSERT
  5
17D
100
AcDbEntity
  8
None
390
0
 62
               7
100
AcDbBlockReference
  2
pad
 10
-10.971909999999999
 20
45.051039999999993
 30
0.0
  0
INSERT
  5
17E
100
AcDbEntity
  8
None
390
0
 62
               7
100
AcDbBlockReference
  2
pad
 10
-9.9719099999999994
 20
45.051039999999993
 30
0.0
  0
INSERT
  5
17F
100
AcDbEntity
  8
None
390
0
 62
               7
100
AcDbBlockReference
  2
pad
 10
-8.9719099999999994
 20
45.051039999999993
 30
0.0
  0
INSERT
  5
180
100
AcDbEntity
  8
None
390
0
 62
               7
100
AcDbBlockReference
  2
pad
 10
-7.9719099999999994
 20
45.051039999999993
 30
0.0
  0
INSERT
  5
181
100
AcDbEntity
  8
None
390
0
 62
               7
100
AcDbBlockReference
  2
pad
 10
-6.9719099999999994
 20
45.051039999999993
 30
0.0
  0
INSERT
  5
182
100
AcDbEntity
  8
None
390
0
 62
               7
100
AcDbBlockReference
  2
pad
 10
-5.9719099999999994
 20
45.051039999999993
 30
0.0
  0
INSERT
  5
183
100
AcDbEntity
  8
None
390
0
 62
               7
100
AcDbBlockReference
  2
pad
 10
-4.9719099999999994
 20
45.051039999999993
 30
0.0
  0
INSERT
  5
184
100
AcDbEntity
  8
None
390
0
 62
               7
100
AcDbBlockReference
  2
pad
 10
-3.9719099999999998
 20
45.051039999999993
 30
0.0
  0
INSERT
  5
185
100
AcDbEntity
  8
None
390
0
 62
               7
100
AcDbBlockReference
  2
pad
 10
-2.9719099999999998
 20
45.051039999999993
 30
0.0
  0
INSERT
  5
186
100
AcDbEntity
  8
None
390
0
 62
               7
100
AcDbBlockReference
  2
pad
 10
-1.9719099999999998
 20
45.051039999999993
 30
0.0
  0
INSERT
  5
187
100
AcDbEntity
  8
None
390
0
 62
               7
100
AcDbBlockReference
  2
pad
 10
-0.9719099999999999
 20
45.051039999999993
 30
0.0
  0
INSERT
  5
188
100
AcDbEntity
  8
None
390
0
 62
               7
100
AcDbBlockReference
  2
pad
 10
0.02809
 20
45.051039999999993
 30
0.0
  0
INSERT
  5
189
100
AcDbEntity
  8
None
390
0
 62
               7
100
AcDbBlockReference
  2
pad
 10
1.0280899999999999
 20
45.051039999999993
 30
0.0
  0
INSERT
  5
18A
100
AcDbEntity
  8
None
390
0
 62
               7
100
AcDbBlockReference
  2
pad
 10
2.0280899999999997
 20
45.051039999999993
 30
0.0
  0
INSERT
  5
18B
100
AcDbEntity
  8
None
390
0
 62
               7
100
AcDbBlockReference
  2
pad
 10
3.0280899999999997
 20
45.051039999999993
 30
0.0
  0
INSERT
  5
18C
100
AcDbEntity
  8
None
390
0
 62
               7
100
AcDbBlockReference
  2
pad
 10
4.0280899999999997
 20
45.051039999999993
 30
0.0
  0
INSERT
  5
18D
100
AcDbEntity
  8
None
390
0
 62
               7
100
AcDbBlockReference
  2
pad
 10
5.0280899999999997
 20
45.051039999999993
 30
0.0
  0
INSERT
  5
18E
100
AcDbEntity
  8
None
390
0
 62
               7
100
AcDbBlockReference
  2
pad
 10
6.0280899999999997
 20
45.051039999999993
 30
0.0
  0
INSERT
  5
18F
100
AcDbEntity
  8
None
390
0
 62
               7
100
AcDbBlockReference
  2
pad
 10
7.0280899999999997
 20
45.051039999999993
 30
0.0
  0
INSERT
  5
190
100
AcDbEntity
  8
None
390
0
 62
               7
100
AcDbBlockReference
  2
pad
 10
8.0280899999999988
 20
45.051039999999993
 30
0.0
  0
INSERT
  5
191
100
AcDbEntity
  8
None
390
0
 62
               7
100
AcDbBlockReference
  2
pad
 10
9.0280899999999988
 20
45.051039999999993
 30
0.0
  0
INSERT
  5
192
100
AcDbEntity
  8
None
390
0
 62
               7
100
AcDbBlockReference
  2
pad
 10
-13.971909999999999
 20
44.051039999999993
 30
0.0
  0
INSERT
  5
193
100
AcDbEntity
  8
None
390
0
 62
               7
100
AcDbBlockReference
  2
pad
 10
-12.971909999999999
 20
44.051039999999993
 30
0.0
  0
INSERT
  5
194
100
AcDbEntity
  8
None
390
0
 62
               7
100
AcDbBlockReference
  2
pad
 10
-11.971909999999999
 20
44.051039999999993
 30
0.0
  0
INSERT
  5
195
100
AcDbEntity
  8
None
390
0
 62
               7
100
AcDbBlockReference
  2
pad
 10
-10.971909999999999
 20
44.051039999999993
 30
0.0
  0
INSERT
  5
196
100
AcDbEntity
  8
None
390
0
 62
               7
100
AcDbBlockReference
  2
pad
 10
-9.9719099999999994
 20
44.051039999999993
 30
0.0
  0
INSERT
  5
197
100
AcDbEntity
  8
None
390
0
 62
               7
100
AcDbBlockReference
  2
pad
 10
-8.9719099999999994
 20
44.051039999999993
 30
0.0
  0
INSERT
  5
198
100
AcDbEntity
  8
None
390
0
 62
               7
100
AcDbBlockReference
  2
pad
 10
-7.9719099999999994
 20
44.051039999999993
 30
0.0
  0
INSERT
  5
199
100
AcDbEntity
  8
None
390
0
 62
               7
100
AcDbBlockReference
  2
pad
 10
-6.9719099999999994
 20
44.051039999999993
 30
0.0
  0
INSERT
  5
19A
100
AcDbEntity
  8
None
390
0
 62
               7
100
AcDbBlockReference
  2
pad
 10
-5.9719099999999994
 20
44.051039999999993
 30
0.0
  0
INSERT
  5
19B
100
AcDbEntity
  8
None
390
0
 62
               7
100
AcDbBlockReference
  2
pad
 10
-4.9719099999999994
 20
44.051039999999993
 30
0.0
  0
INSERT
  5
19C
100
AcDbEntity
  8
None
390
0
 62
               7
100
AcDbBlockReference
  2
pad
 10
-3.9719099999999998
 20
44.051039999999993
 30
0.0
  0
INSERT
  5
19D
100
AcDbEntity
  8
None
390
0
 62
               7
100
AcDbBlockReference
  2
pad
 10
-2.9719099999999998
 20
44.051039999999993
 30
0.0
  0
INSERT
  5
19E
100
AcDbEntity
  8
None
390
0
 62
               7
100
AcDbBlockReference
  2
pad
 10
-1.9719099999999998
 20
44.051039999999993
 30
0.0
  0
INSERT
  5
19F
100
AcDbEntity
  8
None
390
0
 62
               7
100
AcDbBlockReference
  2
pad
 10
-0.9719099999999999
 20
44.051039999999993
 30
0.0
  0
INSERT
  5
1A0
100
AcDbEntity
  8
None
390
0
 62
               7
100
AcDbBlockReference
  2
pad
 10
0.02809
 20
44.051039999999993
 30
0.0
  0
INSERT
  5
1A1
100
AcDbEntity
  8
None
390
0
 62
               7
100
AcDbBlockReference
  2
pad
 10
1.0280899999999999
 20
44.051039999999993
 30
0.0
  0
INSERT
  5
1A2
100
AcDbEntity
  8
None
390
0
 62
               7
100
AcDbBlockReference
  2
pad
 10
2.0280899999999997
 20
44.051039999999993
 30
0.0
  0
INSERT
  5
1A3
100
AcDbEntity
  8
None
390
0
 62
               7
100
AcDbBlockReference
  2
pad
 10
3.0280899999999997
 20
44.051039999999993
 30
0.0
  0
INSERT
  5
1A4
100
AcDbEntity
  8
None
390
0
 62
               7
100
AcDbBlockReference
  2
pad
 10
4.0280899999999997
 20
44.051039999999993
 30
0.0
  0
INSERT
  5
1A5
100
AcDbEntity
  8
None
390
0
 62
               7
100
AcDbBlockReference
  2
pad
 10
5.0280899999999997
 20
44.051039999999993
 30
0.0
  0
INSERT
  5
1A6
100
AcDbEntity
  8
None
390
0
 62
               7
100
AcDbBlockReference
  2
pad
 10
6.0280899999999997
 20
44.051039999999993
 30
0.0
  0
INSERT
  5
1A7
100
AcDbEntity
  8
None
390
0
 62
               7
100
AcDbBlockReference
  2
pad
 10
7.0280899999999997
 20
44.051039999999993
 30
0.0
  0
INSERT
  5
1A8
100
AcDbEntity
  8
None
390
0
 62
               7
100
AcDbBlockReference
  2
pad
 10
8.0280899999999988
 20
44.051039999999993
 30
0.0
  0
INSERT
  5
1A9
100
AcDbEntity
  8
None
390
0
 62
               7
100
AcDbBlockReference
  2
pad
 10
9.0280899999999988
 20
44.051039999999993
 30
0.0
  0
INSERT
  5
1AA
100
AcDbEntity
  8
None
390
0
 62
               7
100
AcDbBlockReference
  2
pad
 10
-13.971909999999999
 20
43.051039999999993
 30
0.0
  0
INSERT
  5
1AB
100
AcDbEntity
  8
None
390
0
 62
               7
100
AcDbBlockReference
  2
pad
 10
-12.971909999999999
 20
43.051039999999993
 30
0.0
  0
INSERT
  5
1AC
100
AcDbEntity
  8
None
390
0
 62
               7
100
AcDbBlockReference
  2
pad
 10
-11.971909999999999
 20
43.051039999999993
 30
0.0
  0
INSERT
  5
1AD
100
AcDbEntity
  8
None
390
0
 62
               7
100
AcDbBlockReference
  2
pad
 10
-10.971909999999999
 20
43.051039999999993
 30
0.0
  0
INSERT
  5
1AE
100
AcDbEntity
  8
None
390
0
 62
               7
100
AcDbBlockReference
  2
pad
 10
-9.9719099999999994
 20
43.051039999999993
 30
0.0
  0
INSERT
  5
1AF
100
AcDbEntity
  8
None
390
0
 62
               7
100
AcDbBlockReference
  2
pad
 10
-8.9719099999999994
 20
43.051039999999993
 30
0.0
  0
INSERT
  5
1B0
100
AcDbEntity
  8
None
390
0
 62
               7
100
AcDbBlockReference
  2
pad
 10
-7.9719099999999994
 20
43.051039999999993
 30
0.0
  0
INSERT
  5
1B1
100
AcDbEntity
  8
None
390
0
 62
               7
100
AcDbBlockReference
  2
pad
 10
-6.9719099999999994
 20
43.051039999999993
 30
0.0
  0
INSERT
  5
1B2
100
AcDbEntity
  8
None
390
0
 62
               7
100
AcDbBlockReference
  2
pad
 10
-5.9719099999999994
 20
43.051039999999993
 30
0.0
  0
INSERT
  5
1B3
100
AcDbEntity
  8
None
390
0
 62
               7
100
AcDbBlockReference
  2
pad
 10
-4.9719099999999994
 20
43.051039999999993
 30
0.0
  0
INSERT
  5
1B4
100
AcDbEntity
  8
None
390
0
 62
               7
100
AcDbBlockReference
  2
pad
 10
-3.9719099999999998
 20
43.051039999999993
 30
0.0
  0
INSERT
  5
1B5
100
AcDbEntity
  8
None
390
0
 62
               7
100
AcDbBlockReference
  2
pad
 10
-2.9719099999999998
 20
43.051039999999993
 30
0.0
  0
INSERT
  5
1B6
100
AcDbEntity
  8
None
390
0
 62
               7
100
AcDbBlockReference
  2
pad
 10
-1.9719099999999998
 20
43.051039999999993
 30
0.0
  0
INSERT
  5
1B7
100
AcDbEntity
  8
None
390
0
 62
               7
100
AcDbBlockReference
  2
pad
 10
-0.9719099999999999
 20
43.051039999999993
 30
0.0
  0
INSERT
  5
1B8
100
AcDbEntity
  8
None
390
0
 62
               7
100
AcDbBlockReference
  2
pad
 10
0.02809
 20
43.051039999999993
 30
0.0
  0
INSERT
  5
1B9
100
AcDbEntity
  8
None
390
0
 62
               7
100
AcDbBlockReference
  2
pad
 10
1.0280899999999999
 20
43.051039999999993
 30
0.0
  0
INSERT
  5
1BA
100
AcDbEntity
  8
None
390
0
 62
               7
100
AcDbBlockReference
  2
pad
 10
2.0280899999999997
 20
43.051039999999993
 30
0.0
  0
INSERT
  5
1BB
100
AcDbEntity
  8
None
390
0
 62
               7
100
AcDbBlockReference
  2
pad
 10
3.0280899999999997
 20
43.051039999999993
 30
0.0
  0
INSERT
  5
1BC
100
AcDbEntity
  8
None
390
0
 62
               7
100
AcDbBlockReference
  2
pad
 10
4.0280899999999997
 20
43.051039999999993
 30
0.0
  0
INSERT
  5
1BD
100
AcDbEntity
  8
None
390
0
 62
               7
100
AcDbBlockReference
  2
pad
 10
5.0280899999999997
 20
43.051039999999993
 30
0.0
  0
INSERT
  5
1BE
100
AcDbEntity
  8
None
390
0
 62
               7
100
AcDbBlockReference
  2
pad
 10
6.0280899999999997
 20
43.051039999999993
 30
0.0
  0
INSERT
  5
1BF
100
AcDbEntity
  8
None
390
0
 62
               7
100
AcDbBlockReference
  2
pad
 10
7.0280899999999997
 20
43.051039999999993
 30
0.0
  0
INSERT
  5
1C0
100
AcDbEntity
  8
None
390
0
 62
               7
100
AcDbBlockReference
  2
pad
 10
8.0280899999999988
 20
43.051039999999993
 30
0.0
  0
INSERT
  5
1C1
100
AcDbEntity
  8
None
390
0
 62
               7
100
AcDbBlockReference
  2
pad
 10
9.0280899999999988
 20
43.051039999999993
 30
0.0
  0
INSERT
  5
1C2
100
AcDbEntity
  8
None
390
0
 62
               7
100
AcDbBlockReference
  2
pad
 10
-13.971909999999999
 20
42.051039999999993
 30
0.0
  0
INSERT
  5
1C3
100
AcDbEntity
  8
None
390
0
 62
               7
100
AcDbBlockReference
  2
pad
 10
-12.971909999999999
 20
42.051039999999993
 30
0.0
  0
INSERT
  5
1C4
100
AcDbEntity
  8
None
390
0
 62
               7
100
AcDbBlockReference
  2
pad
 10
-11.971909999999999
 20
42.051039999999993
 30
0.0
  0
INSERT
  5
1C5
100
AcDbEntity
  8
None
390
0
 62
               7
100
AcDbBlockReference
  2
pad
 10
-10.971909999999999
 20
42.051039999999993
 30
0.0
  0
INSERT
  5
1C6
100
AcDbEntity
  8
None
390
0
 62
               7
100
AcDbBlockReference
  2
pad
 10
-9.9719099999999994
 20
42.051039999999993
 30
0.0
  0
INSERT
  5
1C7
100
AcDbEntity
  8
None
390
0
 62
               7
100
AcDbBlockReference
  2
pad
 10
-8.9719099999999994
 20
42.051039999999993
 30
0.0
  0
INSERT
  5
1C8
100
AcDbEntity
  8
None
390
0
 62
               7
100
AcDbBlockReference
  2
pad
 10
-7.9719099999999994
 20
42.051039999999993
 30
0.0
  0
INSERT
  5
1C9
100
AcDbEntity
  8
None
390
0
 62
               7
100
AcDbBlockReference
  2
pad
 10
-6.9719099999999994
 20
42.051039999999993
 30
0.0
  0
INSERT
  5
1CA
100
AcDbEntity
  8
None
390
0
 62
               7
100
AcDbBlockReference
  2
pad
 10
-5.9719099999999994
 20
42.051039999999993
 30
0.0
  0
INSERT
  5
1CB
100
AcDbEntity
  8
None
390
0
 62
               7
100
AcDbBlockReference
  2
pad
 10
-4.9719099999999994
 20
42.051039999999993
 30
0.0
  0
INSERT
  5
1CC
100
AcDbEntity
  8
None
390
0
 62
               7
100
AcDbBlockReference
  2
pad
 10
-3.9719099999999998
 20
42.051039999999993
 30
0.0
  0
INSERT
  5
1CD
100
AcDbEntity
  8
None
390
0
 62
               7
100
AcDbBlockReference
  2
pad
 10
-2.9719099999999998
 20
42.051039999999993
 30
0.0
  0
INSERT
  5
1CE
100
AcDbEntity
  8
None
390
0
 62
               7
100
AcDbBlockReference
  2
pad
 10
-1.9719099999999998
 20
42.051039999999993
 30
0.0
  0
INSERT
  5
1CF
100
AcDbEntity
  8
None
390
0
 62
               7
100
AcDbBlockReference
  2
pad
 10
-0.9719099999999999
 20
42.051039999999993
 30
0.0
  0
INSERT
  5
1D0
100
AcDbEntity
  8
None
390
0
 62
               7
100
AcDbBlockReference
  2
pad
 10
0.02809
 20
42.051039999999993
 30
0.0
  0
INSERT
  5
1D1
100
AcDbEntity
  8
None
390
0
 62
               7
100
AcDbBlockReference
  2
pad
 10
1.0280899999999999
 20
42.051039999999993
 30
0.0
  0
INSERT
  5
1D2
100
AcDbEntity
  8
None
390
0
 62
               7
100
AcDbBlockReference
  2
pad
 10
2.0280899999999997
 20
42.051039999999993
 30
0.0
  0
INSERT
  5
1D3
100
AcDbEntity
  8
None
390
0
 62
               7
100
AcDbBlockReference
  2
pad
 10
3.0280899999999997
 20
42.051039999999993
 30
0.0
  0
INSERT
  5
1D4
100
AcDbEntity
  8
None
390
0
 62
               7
100
AcDbBlockReference
  2
pad
 10
4.0280899999999997
 20
42.051039999999993
 30
0.0
  0
INSERT
  5
1D5
100
AcDbEntity
  8
None
390
0
 62
               7
100
AcDbBlockReference
  2
pad
 10
5.0280899999999997
 20
42.051039999999993
 30
0.0
  0
INSERT
  5
1D6
100
AcDbEntity
  8
None
390
0
 62
               7
100
AcDbBlockReference
  2
pad
 10
6.0280899999999997
 20
42.051039999999993
 30
0.0
  0
INSERT
  5
1D7
100
AcDbEntity
  8
None
390
0
 62
               7
100
AcDbBlockReference
  2
pad
 10
7.0280899999999997
 20
42.051039999999993
 30
0.0
  0
INSERT
  5
1D8
100
AcDbEntity
  8
None
390
0
 62
               7
100
AcDbBlockReference
  2
pad
 10
8.0280899999999988
 20
42.051039999999993
 30
0.0
  0
INSERT
  5
1D9
100
AcDbEntity
  8
None
390
0
 62
               7
100
AcDbBlockReference
  2
pad
 10
9.0280899999999988
 20
42.051039999999993
 30
0.0
  0
INSERT
  5
1DA
100
AcDbEntity
  8
None
390
0
 62
               7
100
AcDbBlockReference
  2
pad
 10
-13.971909999999999
 20
41.051039999999993
 30
0.0
  0
INSERT
  5
1DB
100
AcDbEntity
  8
None
390
0
 62
               7
100
AcDbBlockReference
  2
pad
 10
-12.971909999999999
 20
41.051039999999993
 30
0.0
  0
INSERT
  5
1DC
100
AcDbEntity
  8
None
390
0
 62
               7
100
AcDbBlockReference
  2
pad
 10
-11.971909999999999
 20
41.051039999999993
 30
0.0
  0
INSERT
  5
1DD
100
AcDbEntity
  8
None
390
0
 62
               7
100
AcDbBlockReference
  2
pad
 10
-10.971909999999999
 20
41.051039999999993
 30
0.0
  0
INSERT
  5
1DE
100
AcDbEntity
  8
None
390
0
 62
               7
100
AcDbBlockReference
  2
pad
 10
-9.9719099999999994
 20
41.051039999999993
 30
0.0
  0
INSERT
  5
1DF
100
AcDbEntity
  8
None
390
0
 62
               7
100
AcDbBlockReference
  2
pad
 10
-8.9719099999999994
 20
41.051039999999993
 30
0.0
  0
INSERT
  5
1E0
100
AcDbEntity
  8
None
390
0
 62
               7
100
AcDbBlockReference
  2
pad
 10
-7.9719099999999994
 20
41.051039999999993
 30
0.0
  0
INSERT
  5
1E1
100
AcDbEntity
  8
None
390
0
 62
               7
100
AcDbBlockReference
  2
pad
 10
-6.9719099999999994
 20
41.051039999999993
 30
0.0
  0
INSERT
  5
1E2
100
AcDbEntity
  8
None
390
0
 62
               7
100
AcDbBlockReference
  2
pad
 10
-5.9719099999999994
 20
41.051039999999993
 30
0.0
  0
INSERT
  5
1E3
100
AcDbEntity
  8
None
390
0
 62
               7
100
AcDbBlockReference
  2
pad
 10
-4.9719099999999994
 20
41.051039999999993
 30
0.0
  0
INSERT
  5
1E4
100
AcDbEntity
  8
None
390
0
 62
               7
100
AcDbBlockReference
  2
pad
 10
-3.9719099999999998
 20
41.051039999999993
 30
0.0
  0
INSERT
  5
1E5
100
AcDbEntity
  8
None
390
0
 62
               7
100
AcDbBlockReference
  2
pad
 10
-2.9719099999999998
 20
41.051039999999993
 30
0.0
  0
INSERT
  5
1E6
100
AcDbEntity
  8
None
390
0
 62
               7
100
AcDbBlockReference
  2
pad
 10
-1.9719099999999998
 20
41.051039999999993
 30
0.0
  0
INSERT
  5
1E7
100
AcDbEntity
  8
None
390
0
 62
               7
100
AcDbBlockReference
  2
pad
 10
-0.9719099999999999
 20
41.051039999999993
 30
0.0
  0
INSERT
  5
1E8
100
AcDbEntity
  8
None
390
0
 62
               7
100
AcDbBlockReference
  2
pad
 10
0.02809
 20
41.051039999999993
 30
0.0
  0
INSERT
  5
1E9
100
AcDbEntity
  8
None
390
0
 62
               7
100
AcDbBlockReference
  2
pad
 10
1.0280899999999999
 20
41.051039999999993
 30
0.0
  0
INSERT
  5
1EA
100
AcDbEntity
  8
None
390
0
 62
               7
100
AcDbBlockReference
  2
pad
 10
2.0280899999999997
 20
41.051039999999993
 30
0.0
  0
INSERT
  5
1EB
100
AcDbEntity
  8
None
390
0
 62
               7
100
AcDbBlockReference
  2
pad
 10
3.0280899999999997
 20
41.051039999999993
 30
0.0
  0
INSERT
  5
1EC
100
AcDbEntity
  8
None
390
0
 62
               7
100
AcDbBlockReference
  2
pad
 10
4.0280899999999997
 20
41.051039999999993
 30
0.0
  0
INSERT
  5
1ED
100
AcDbEntity
  8
None
390
0
 62
               7
100
AcDbBlockReference
  2
pad
 10
5.0280899999999997
 20
41.051039999999993
 30
0.0
  0
INSERT
  5
1EE
100
AcDbEntity
  8
None
390
0
 62
               7
100
AcDbBlockReference
  2
pad
 10
6.0280899999999997
 20
41.051039999999993
 30
0.0
  0
INSERT
  5
1EF
100
AcDbEntity
  8
None
390
0
 62
               7
100
AcDbBlockReference
  2
pad
 10
7.0280899999999997
 20
41.051039999999993
 30
0.0
  0
INSERT
  5
1F0
100
AcDbEntity
  8
None
390
0
 62
               7
100
AcDbBlockReference
  2
pad
 10
8.0280899999999988
 20
41.051039999999993
 30
0.0
  0
INSERT
  5
1F1
100
AcDbEntity
  8
None
390
0
 62
               7
100
AcDbBlockReference
  2
pad
 10
9.0280899999999988
 20
41.051039999999993
 30
0.0
  0
INSERT
  5
1F2
100
AcDbEntity
  8
None
390
0
 62
               7
100
AcDbBlockReference
  2
pad
 10
-13.971909999999999
 20
40.051039999999993
 30
0.0
  0
INSERT
  5
1F3
100
AcDbEntity
  8
None
390
0
 62
               7
100
AcDbBlockReference
  2
pad
 10
-12.971909999999999
 20
40.051039999999993
 30
0.0
  0
INSERT
  5
1F4
100
AcDbEntity
  8
None
390
0
 62
               7
100
AcDbBlockReference
  2
pad
 10
-11.971909999999999
 20
40.051039999999993
 30
0.0
  0
INSERT
  5
1F5
100
AcDbEntity
  8
None
390
0
 62
               7
100
AcDbBlockReference
  2
pad
 10
-10.971909999999999
 20
40.051039999999993
 30
0.0
  0
INSERT
  5
1F6
100
AcDbEntity
  8
None
390
0
 62
               7
100
AcDbBlockReference
  2
pad
 10
-9.9719099999999994
 20
40.051039999999993
 30
0.0
  0
INSERT
  5
1F7
100
AcDbEntity
  8
None
390
0
 62
               7
100
AcDbBlockReference
  2
pad
 10
-8.9719099999999994
 20
40.051039999999993
 30
0.0
  0
INSERT
  5
1F8
100
AcDbEntity
  8
None
390
0
 62
               7
100
AcDbBlockReference
  2
pad
 10
-7.9719099999999994
 20
40.051039999999993
 30
0.0
  0
INSERT
  5
1F9
100
AcDbEntity
  8
None
390
0
 62
               7
100
AcDbBlockReference
  2
pad
 10
-6.9719099999999994
 20
40.051039999999993
 30
0.0
  0
INSERT
  5
1FA
100
AcDbEntity
  8
None
390
0
 62
               7
100
AcDbBlockReference
  2
pad
 10
-5.9719099999999994
 20
40.051039999999993
 30
0.0
  0
INSERT
  5
1FB
100
AcDbEntity
  8
None
390
0
 62
               7
100
AcDbBlockReference
  2
pad
 10
-4.9719099999999994
 20
40.051039999999993
 30
0.0
  0
INSERT
  5
1FC
100
AcDbEntity
  8
None
390
0
 62
               7
100
AcDbBlockReference
  2
pad
 10
-3.9719099999999998
 20
40.051039999999993
 30
0.0
  0
INSERT
  5
1FD
100
AcDbEntity
  8
None
390
0
 62
               7
100
AcDbBlockReference
  2
pad
 10
-2.9719099999999998
 20
40.051039999999993
 30
0.0
  0
INSERT
  5
1FE
100
AcDbEntity
  8
None
390
0
 62
               7
100
AcDbBlockReference
  2
pad
 10
-1.9719099999999998
 20
40.051039999999993
 30
0.0
  0
INSERT
  5
1FF
100
AcDbEntity
  8
None
390
0
 62
               7
100
AcDbBlockReference
  2
pad
 10
-0.9719099999999999
 20
40.051039999999993
 30
0.0
  0
INSERT
  5
200
100
AcDbEntity
  8
None
390
0
 62
               7
100
AcDbBlockReference
  2
pad
 10
0.02809
 20
40.051039999999993
 30
0.0
  0
INSERT
  5
201
100
AcDbEntity
  8
None
390
0
 62
               7
100
AcDbBlockReference
  2
pad
 10
1.0280899999999999
 20
40.051039999999993
 30
0.0
  0
INSERT
  5
202
100
AcDbEntity
  8
None
390
0
 62
               7
100
AcDbBlockReference
  2
pad
 10
2.0280899999999997
 20
40.051039999999993
 30
0.0
  0
INSERT
  5
203
100
AcDbEntity
  8
None
390
0
 62
               7
100
AcDbBlockReference
  2
pad
 10
3.0280899999999997
 20
40.051039999999993
 30
0.0
  0
INSERT
  5
204
100
AcDbEntity
  8
None
390
0
 62
               7
100
AcDbBlockReference
  2
pad
 10
4.0280899999999997
 20
40.051039999999993
 30
0.0
  0
INSERT
  5
205
100
AcDbEntity
  8
None
390
0
 62
               7
100
AcDbBlockReference
  2
pad
 10
5.0280899999999997
 20
40.051039999999993
 30
0.0
  0
INSERT
  5
206
100
AcDbEntity
  8
None
390
0
 62
               7
100
AcDbBlockReference
  2
pad
 10
6.0280899999999997
 20
40.051039999999993
 30
0.0
  0
INSERT
  5
207
100
AcDbEntity
  8
None
390
0
 62
               7
100
AcDbBlockReference
  2
pad
 10
7.0280899999999997
 20
40.051039999999993
 30
0.0
  0
INSERT
  5
208
100
AcDbEntity
  8
None
390
0
 62
               7
100
AcDbBlockReference
  2
pad
 10
8.0280899999999988
 20
40.051039999999993
 30
0.0
  0
INSERT
  5
209
100
AcDbEntity
  8
None
390
0
 62
               7
100
AcDbBlockReference
  2
pad
 10
9.0280899999999988
 20
40.051039999999993
 30
0.0
  0
INSERT
  5
20A
100
AcDbEntity
  8
None
390
0
 62
               7
100
AcDbBlockReference
  2
pad
 10
-13.971909999999999
 20
39.051039999999993
 30
0.0
  0
INSERT
  5
20B
100
AcDbEntity
  8
None
390
0
 62
               7
100
AcDbBlockReference
  2
pad
 10
-12.971909999999999
 20
39.051039999999993
 30
0.0
  0
INSERT
  5
20C
100
AcDbEntity
  8
None
390
0
 62
               7
100
AcDbBlockReference
  2
pad
 10
-11.971909999999999
 20
39.051039999999993
 30
0.0
  0
INSERT
  5
20D
100
AcDbEntity
  8
None
390
0
 62
               7
100
AcDbBlockReference
  2
pad
 10
-10.971909999999999
 20
39.051039999999993
 30
0.0
  0
INSERT
  5
20E
100
AcDbEntity
  8
None
390
0
 62
               7
100
AcDbBlockReference
  2
pad
 10
-9.9719099999999994
 20
39.051039999999993
 30
0.0
  0
INSERT
  5
20F
100
AcDbEntity
  8
None
390
0
 62
               7
100
AcDbBlockReference
  2
pad
 10
-8.9719099999999994
 20
39.051039999999993
 30
0.0
  0
INSERT
  5
210
100
AcDbEntity
  8
None
390
0
 62
               7
100
AcDbBlockReference
  2
pad
 10
-7.9719099999999994
 20
39.051039999999993
 30
0.0
  0
INSERT
  5
211
100
AcDbEntity
  8
None
390
0
 62
               7
100
AcDbBlockReference
  2
pad
 10
-6.9719099999999994
 20
39.051039999999993
 30
0.0
  0
INSERT
  5
212
100
AcDbEntity
  8
None
390
0
 62
               7
100
AcDbBlockReference
  2
pad
 10
-5.9719099999999994
 20
39.051039999999993
 30
0.0
  0
INSERT
  5
213
100
AcDbEntity
  8
None
390
0
 62
               7
100
AcDbBlockReference
  2
pad
 10
-4.9719099999999994
 20
39.051039999999993
 30
0.0
  0
INSERT
  5
214
100
AcDbEntity
  8
None
390
0
 62
               7
100
AcDbBlockReference
  2
pad
 10
-3.9719099999999998
 20
39.051039999999993
 30
0.0
  0
INSERT
  5
215
100
AcDbEntity
  8
None
390
0
 62
               7
100
AcDbBlockReference
  2
pad
 10
-2.9719099999999998
 20
39.051039999999993
 30
0.0
  0
INSERT
  5
216
100
AcDbEntity
  8
None
390
0
 62
               7
100
AcDbBlockReference
  2
pad
 10
-1.9719099999999998
 20
39.051039999999993
 30
0.0
  0
INSERT
  5
217
100
AcDbEntity
  8
None
390
0
 62
               7
100
AcDbBlockReference
  2
pad
 10
-0.9719099999999999
 20
39.051039999999993
 30
0.0
  0
INSERT
  5
218
100
AcDbEntity
  8
None
390
0
 62
               7
100
AcDbBlockReference
  2
pad
 10
0.02809
 20
39.051039999999993
 30
0.0
  0
INSERT
  5
219
100
AcDbEntity
  8
None
390
0
 62
               7
100
AcDbBlockReference
  2
pad
 10
1.0280899999999999
 20
39.051039999999993
 30
0.0
  0
INSERT
  5
21A
100
AcDbEntity
  8
None
390
0
 62
               7
100
AcDbBlockReference
  2
pad
 10
2.0280899999999997
 20
39.051039999999993
 30
0.0
  0
INSERT
  5
21B
100
AcDbEntity
  8
None
390
0
 62
               7
100
AcDbBlockReference
  2
pad
 10
3.0280899999999997
 20
39.051039999999993
 30
0.0
  0
INSERT
  5
21C
100
AcDbEntity
  8
None
390
0
 62
               7
100
AcDbBlockReference
  2
pad
 10
4.0280899999999997
 20
39.051039999999993
 30
0.0
  0
INSERT
  5
21D
100
AcDbEntity
  8
None
390
0
 62
               7
100
AcDbBlockReference
  2
pad
 10
5.0280899999999997
 20
39.051039999999993
 30
0.0
  0
INSERT
  5
21E
100
AcDbEntity
  8
None
390
0
 62
               7
100
AcDbBlockReference
  2
pad
 10
6.0280899999999997
 20
39.051039999999993
 30
0.0
  0
INSERT
  5
21F
100
AcDbEntity
  8
None
390
0
 62
               7
100
AcDbBlockReference
  2
pad
 10
7.0280899999999997
 20
39.051039999999993
 30
0.0
  0
INSERT
  5
220
100
AcDbEntity
  8
None
390
0
 62
               7
100
AcDbBlockReference
  2
pad
 10
8.0280899999999988
 20
39.051039999999993
 30
0.0
  0
INSERT
  5
221
100
AcDbEntity
  8
None
390
0
 62
               7
100
AcDbBlockReference
  2
pad
 10
9.0280899999999988
 20
39.051039999999993
 30
0.0
  0
INSERT
  5
222
100
AcDbEntity
  8
None
390
0
 62
               7
100
AcDbBlockReference
  2
pad
 10
-13.971909999999999
 20
38.051039999999993
 30
0.0
  0
INSERT
  5
223
100
AcDbEntity
  8
None
390
0
 62
               7
100
AcDbBlockReference
  2
pad
 10
-12.971909999999999
 20
38.051039999999993
 30
0.0
  0
INSERT
  5
224
100
AcDbEntity
  8
None
390
0
 62
               7
100
AcDbBlockReference
  2
pad
 10
-11.971909999999999
 20
38.051039999999993
 30
0.0
  0
INSERT
  5
225
100
AcDbEntity
  8
None
390
0
 62
               7
100
AcDbBlockReference
  2
pad
 10
-10.971909999999999
 20
38.051039999999993
 30
0.0
  0
INSERT
  5
226
100
AcDbEntity
  8
None
390
0
 62
               7
100
AcDbBlockReference
  2
pad
 10
-9.9719099999999994
 20
38.051039999999993
 30
0.0
  0
INSERT
  5
227
100
AcDbEntity
  8
None
390
0
 62
               7
100
AcDbBlockReference
  2
pad
 10
-8.9719099999999994
 20
38.051039999999993
 30
0.0
  0
INSERT
  5
228
100
AcDbEntity
  8
None
390
0
 62
               7
100
AcDbBlockReference
  2
pad
 10
-7.9719099999999994
 20
38.051039999999993
 30
0.0
  0
INSERT
  5
229
100
AcDbEntity
  8
None
390
0
 62
               7
100
AcDbBlockReference
  2
pad
 10
-6.9719099999999994
 20
38.051039999999993
 30
0.0
  0
INSERT
  5
22A
100
AcDbEntity
  8
None
390
0
 62
               7
100
AcDbBlockReference
  2
pad
 10
-5.9719099999999994
 20
38.051039999999993
 30
0.0
  0
INSERT
  5
22B
100
AcDbEntity
  8
None
390
0
 62
               7
100
AcDbBlockReference
  2
pad
 10
-4.9719099999999994
 20
38.051039999999993
 30
0.0
  0
INSERT
  5
22C
100
AcDbEntity
  8
None
390
0
 62
               7
100
AcDbBlockReference
  2
pad
 10
-3.9719099999999998
 20
38.051039999999993
 30
0.0
  0
INSERT
  5
22D
100
AcDbEntity
  8
None
390
0
 62
               7
100
AcDbBlockReference
  2
pad
 10
-2.9719099999999998
 20
38.051039999999993
 30
0.0
  0
INSERT
  5
22E
100
AcDbEntity
  8
None
390
0
 62
               7
100
AcDbBlockReference
  2
pad
 10
-1.9719099999999998
 20
38.051039999999993
 30
0.0
  0
INSERT
  5
22F
100
AcDbEntity
  8
None
390
0
 62
               7
100
AcDbBlockReference
  2
pad
 10
-0.9719099999999999
 20
38.051039999999993
 30
0.0
  0
INSERT
  5
230
100
AcDbEntity
  8
None
390
0
 62
               7
100
AcDbBlockReference
  2
pad
 10
0.02809
 20
38.051039999999993
 30
0.0
  0
INSERT
  5
231
100
AcDbEntity
  8
None
390
0
 62
               7
100
AcDbBlockReference
  2
pad
 10
1.0280899999999999
 20
38.051039999999993
 30
0.0
  0
INSERT
  5
232
100
AcDbEntity
  8
None
390
0
 62
               7
100
AcDbBlockReference
  2
pad
 10
2.0280899999999997
 20
38.051039999999993
 30
0.0
  0
INSERT
  5
233
100
AcDbEntity
  8
None
390
0
 62
               7
100
AcDbBlockReference
  2
pad
 10
3.0280899999999997
 20
38.051039999999993
 30
0.0
  0
INSERT
  5
234
100
AcDbEntity
  8
None
390
0
 62
               7
100
AcDbBlockReference
  2
pad
 10
4.0280899999999997
 20
38.051039999999993
 30
0.0
  0
INSERT
  5
235
100
AcDbEntity
  8
None
390
0
 62
               7
100
AcDbBlockReference
  2
pad
 10
5.0280899999999997
 20
38.051039999999993
 30
0.0
  0
INSERT
  5
236
100
AcDbEntity
  8
None
390
0
 62
               7
100
AcDbBlockReference
  2
pad
 10
6.0280899999999997
 20
38.051039999999993
 30
0.0
  0
INSERT
  5
237
100
AcDbEntity
  8
None
390
0
 62
               7
100
AcDbBlockReference
  2
pad
 10
7.0280899999999997
 20
38.051039999999993
 30
0.0
  0
INSERT
  5
238
100
AcDbEntity
  8
None
390
0
 62
               7
100
AcDbBlockReference
  2
pad
 10
8.0280899999999988
 20
38.051039999999993
 30
0.0
  0
INSERT
  5
239
100
AcDbEntity
  8
None
390
0
 62
               7
100
AcDbBlockReference
  2
pad
 10
9.0280899999999988
 20
38.051039999999993
 30
0.0
  0
INSERT
  5
23A
100
AcDbEntity
  8
None
390
0
 62
               7
100
AcDbBlockReference
  2
pad
 10
-13.971909999999999
 20
37.051039999999993
 30
0.0
  0
INSERT
  5
23B
100
AcDbEntity
  8
None
390
0
 62
               7
100
AcDbBlockReference
  2
pad
 10
-12.971909999999999
 20
37.051039999999993
 30
0.0
  0
INSERT
  5
23C
100
AcDbEntity
  8
None
390
0
 62
               7
100
AcDbBlockReference
  2
pad
 10
-11.971909999999999
 20
37.051039999999993
 30
0.0
  0
INSERT
  5
23D
100
AcDbEntity
  8
None
390
0
 62
               7
100
AcDbBlockReference
  2
pad
 10
-10.971909999999999
 20
37.051039999999993
 30
0.0
  0
INSERT
  5
23E
100
AcDbEntity
  8
None
390
0
 62
               7
100
AcDbBlockReference
  2
pad
 10
-9.9719099999999994
 20
37.051039999999993
 30
0.0
  0
INSERT
  5
23F
100
AcDbEntity
  8
None
390
0
 62
               7
100
AcDbBlockReference
  2
pad
 10
-8.9719099999999994
 20
37.051039999999993
 30
0.0
  0
INSERT
  5
240
100
AcDbEntity
  8
None
390
0
 62
               7
100
AcDbBlockReference
  2
pad
 10
-7.9719099999999994
 20
37.051039999999993
 30
0.0
  0
INSERT
  5
241
100
AcDbEntity
  8
None
390
0
 62
               7
100
AcDbBlockReference
  2
pad
 10
-6.9719099999999994
 20
37.051039999999993
 30
0.0
  0
INSERT
  5
242
100
AcDbEntity
  8
None
390
0
 62
               7
100
AcDbBlockReference
  2
pad
 10
-5.9719099999999994
 20
37.051039999999993
 30
0.0
  0
INSERT
  5
243
100
AcDbEntity
  8
None
390
0
 62
               7
100
AcDbBlockReference
  2
pad
 10
-4.9719099999999994
 20
37.051039999999993
 30
0.0
  0
INSERT
  5
244
100
AcDbEntity
  8
None
390
0
 62
               7
100
AcDbBlockReference
  2
pad
 10
-3.9719099999999998
 20
37.051039999999993
 30
0.0
  0
INSERT
  5
245
100
AcDbEntity
  8
None
390
0
 62
               7
100
AcDbBlockReference
  2
pad
 10
-2.9719099999999998
 20
37.051039999999993
 30
0.0
  0
INSERT
  5
246
100
AcDbEntity
  8
None
390
0
 62
               7
100
AcDbBlockReference
  2
pad
 10
-1.9719099999999998
 20
37.051039999999993
 30
0.0
  0
INSERT
  5
247
100
AcDbEntity
  8
None
390
0
 62
               7
100
AcDbBlockReference
  2
pad
 10
-0.9719099999999999
 20
37.051039999999993
 30
0.0
  0
INSERT
  5
248
100
AcDbEntity
  8
None
390
0
 62
               7
100
AcDbBlockReference
  2
pad
 10
0.02809
 20
37.051039999999993
 30
0.0
  0
INSERT
  5
249
100
AcDbEntity
  8
None
390
0
 62
               7
100
AcDbBlockReference
  2
pad
 10
1.0280899999999999
 20
37.051039999999993
 30
0.0
  0
INSERT
  5
24A
100
AcDbEntity
  8
None
390
0
 62
               7
100
AcDbBlockReference
  2
pad
 10
2.0280899999999997
 20
37.051039999999993
 30
0.0
  0
INSERT
  5
24B
100
AcDbEntity
  8
None
390
0
 62
               7
100
AcDbBlockReference
  2
pad
 10
3.0280899999999997
 20
37.051039999999993
 30
0.0
  0
INSERT
  5
24C
100
AcDbEntity
  8
None
390
0
 62
               7
100
AcDbBlockReference
  2
pad
 10
4.0280899999999997
 20
37.051039999999993
 30
0.0
  0
INSERT
  5
24D
100
AcDbEntity
  8
None
390
0
 62
               7
100
AcDbBlockReference
  2
pad
 10
5.0280899999999997
 20
37.051039999999993
 30
0.0
  0
INSERT
  5
24E
100
AcDbEntity
  8
None
390
0
 62
               7
100
AcDbBlockReference
  2
pad
 10
6.0280899999999997
 20
37.051039999999993
 30
0.0
  0
INSERT
  5
24F
100
AcDbEntity
  8
None
390
0
 62
               7
100
AcDbBlockReference
  2
pad
 10
7.0280899999999997
 20
37.051039999999993
 30
0.0
  0
INSERT
  5
250
100
AcDbEntity
  8
None
390
0
 62
               7
100
AcDbBlockReference
  2
pad
 10
8.0280899999999988
 20
37.051039999999993
 30
0.0
  0
INSERT
  5
251
100
AcDbEntity
  8
None
390
0
 62
               7
100
AcDbBlockReference
  2
pad
 10
9.0280899999999988
 20
37.051039999999993
 30
0.0
  0
INSERT
  5
252
100
AcDbEntity
  8
None
390
0
 62
               7
100
AcDbBlockReference
  2
pad
 10
-13.971909999999999
 20
36.051039999999993
 30
0.0
  0
INSERT
  5
253
100
AcDbEntity
  8
None
390
0
 62
               7
100
AcDbBlockReference
  2
pad
 10
-12.971909999999999
 20
36.051039999999993
 30
0.0
  0
INSERT
  5
254
100
AcDbEntity
  8
None
390
0
 62
               7
100
AcDbBlockReference
  2
pad
 10
-11.971909999999999
 20
36.051039999999993
 30
0.0
  0
INSERT
  5
255
100
AcDbEntity
  8
None
390
0
 62
               7
100
AcDbBlockReference
  2
pad
 10
-10.971909999999999
 20
36.051039999999993
 30
0.0
  0
INSERT
  5
256
100
AcDbEntity
  8
None
390
0
 62
               7
100
AcDbBlockReference
  2
pad
 10
-9.9719099999999994
 20
36.051039999999993
 30
0.0
  0
INSERT
  5
257
100
AcDbEntity
  8
None
390
0
 62
               7
100
AcDbBlockReference
  2
pad
 10
-8.9719099999999994
 20
36.051039999999993
 30
0.0
  0
INSERT
  5
258
100
AcDbEntity
  8
None
390
0
 62
               7
100
AcDbBlockReference
  2
pad
 10
-7.9719099999999994
 20
36.051039999999993
 30
0.0
  0
INSERT
  5
259
100
AcDbEntity
  8
None
390
0
 62
               7
100
AcDbBlockReference
  2
pad
 10
-6.9719099999999994
 20
36.051039999999993
 30
0.0
  0
INSERT
  5
25A
100
AcDbEntity
  8
None
390
0
 62
               7
100
AcDbBlockReference
  2
pad
 10
-5.9719099999999994
 20
36.051039999999993
 30
0.0
  0
INSERT
  5
25B
100
AcDbEntity
  8
None
390
0
 62
               7
100
AcDbBlockReference
  2
pad
 10
-4.9719099999999994
 20
36.051039999999993
 30
0.0
  0
INSERT
  5
25C
100
AcDbEntity
  8
None
390
0
 62
               7
100
AcDbBlockReference
  2
pad
 10
-3.9719099999999998
 20
36.051039999999993
 30
0.0
  0
INSERT
  5
25D
100
AcDbEntity
  8
None
390
0
 62
               7
100
AcDbBlockReference
  2
pad
 10
-2.9719099999999998
 20
36.051039999999993
 30
0.0
  0
INSERT
  5
25E
100
AcDbEntity
  8
None
390
0
 62
               7
100
AcDbBlockReference
  2
pad
 10
-1.9719099999999998
 20
36.051039999999993
 30
0.0
  0
INSERT
  5
25F
100
AcDbEntity
  8
None
390
0
 62
               7
100
AcDbBlockReference
  2
pad
 10
-0.9719099999999999
 20
36.051039999999993
 30
0.0
  0
INSERT
  5
260
100
AcDbEntity
  8
None
390
0
 62
               7
100
AcDbBlockReference
  2
pad
 10
0.02809
 20
36.051039999999993
 30
0.0
  0
INSERT
  5
261
100
AcDbEntity
  8
None
390
0
 62
               7
100
AcDbBlockReference
  2
pad
 10
1.0280899999999999
 20
36.051039999999993
 30
0.0
  0
INSERT
  5
262
100
AcDbEntity
  8
None
390
0
 62
               7
100
AcDbBlockReference
  2
pad
 10
2.0280899999999997
 20
36.051039999999993
 30
0.0
  0
INSERT
  5
263
100
AcDbEntity
  8
None
390
0
 62
               7
100
AcDbBlockReference
  2
pad
 10
3.0280899999999997
 20
36.051039999999993
 30
0.0
  0
INSERT
  5
264
100
AcDbEntity
  8
None
390
0
 62
               7
100
AcDbBlockReference
  2
pad
 10
4.0280899999999997
 20
36.051039999999993
 30
0.0
  0
INSERT
  5
265
100
AcDbEntity
  8
None
390
0
 62
               7
100
AcDbBlockReference
  2
pad
 10
5.0280899999999997
 20
36.051039999999993
 30
0.0
  0
INSERT
  5
266
100
AcDbEntity
  8
None
390
0
 62
               7
100
AcDbBlockReference
  2
pad
 10
6.0280899999999997
 20
36.051039999999993
 30
0.0
  0
INSERT
  5
267
100
AcDbEntity
  8
None
390
0
 62
               7
100
AcDbBlockReference
  2
pad
 10
7.0280899999999997
 20
36.051039999999993
 30
0.0
  0
INSERT
  5
268
100
AcDbEntity
  8
None
390
0
 62
               7
100
AcDbBlockReference
  2
pad
 10
8.0280899999999988
 20
36.051039999999993
 30
0.0
  0
INSERT
  5
269
100
AcDbEntity
  8
None
390
0
 62
               7
100
AcDbBlockReference
  2
pad
 10
9.0280899999999988
 20
36.051039999999993
 30
0.0
  0
INSERT
  5
26A
100
AcDbEntity
  8
None
390
0
 62
               7
100
AcDbBlockReference
  2
pad
 10
-13.971909999999999
 20
35.05104
 30
0.0
  0
INSERT
  5
26B
100
AcDbEntity
  8
None
390
0
 62
               7
100
AcDbBlockReference
  2
pad
 10
-12.971909999999999
 20
35.05104
 30
0.0
  0
INSERT
  5
26C
100
AcDbEntity
  8
None
390
0
 62
               7
100
AcDbBlockReference
  2
pad
 10
-11.971909999999999
 20
35.05104
 30
0.0
  0
INSERT
  5
26D
100
AcDbEntity
  8
None
390
0
 62
               7
100
AcDbBlockReference
  2
pad
 10
-10.971909999999999
 20
35.05104
 30
0.0
  0
INSERT
  5
26E
100
AcDbEntity
  8
None
390
0
 62
               7
100
AcDbBlockReference
  2
pad
 10
-9.9719099999999994
 20
35.05104
 30
0.0
  0
INSERT
  5
26F
100
AcDbEntity
  8
None
390
0
 62
               7
100
AcDbBlockReference
  2
pad
 10
-8.9719099999999994
 20
35.05104
 30
0.0
  0
INSERT
  5
270
100
AcDbEntity
  8
None
390
0
 62
               7
100
AcDbBlockReference
  2
pad
 10
-7.9719099999999994
 20
35.05104
 30
0.0
  0
INSERT
  5
271
100
AcDbEntity
  8
None
390
0
 62
               7
100
AcDbBlockReference
  2
pad
 10
-6.9719099999999994
 20
35.05104
 30
0.0
  0
INSERT
  5
272
100
AcDbEntity
  8
None
390
0
 62
               7
100
AcDbBlockReference
  2
pad
 10
-5.9719099999999994
 20
35.05104
 30
0.0
  0
INSERT
  5
273
100
AcDbEntity
  8
None
390
0
 62
               7
100
AcDbBlockReference
  2
pad
 10
-4.9719099999999994
 20
35.05104
 30
0.0
  0
INSERT
  5
274
100
AcDbEntity
  8
None
390
0
 62
               7
100
AcDbBlockReference
  2
pad
 10
-3.9719099999999998
 20
35.05104
 30
0.0
  0
INSERT
  5
275
100
AcDbEntity
  8
None
390
0
 62
               7
100
AcDbBlockReference
  2
pad
 10
-2.9719099999999998
 20
35.05104
 30
0.0
  0
INSERT
  5
276
100
AcDbEntity
  8
None
390
0
 62
               7
100
AcDbBlockReference
  2
pad
 10
-1.9719099999999998
 20
35.05104
 30
0.0
  0
INSERT
  5
277
100
AcDbEntity
  8
None
390
0
 62
               7
100
AcDbBlockReference
  2
pad
 10
-0.9719099999999999
 20
35.05104
 30
0.0
  0
INSERT
  5
278
100
AcDbEntity
  8
None
390
0
 62
               7
100
AcDbBlockReference
  2
pad
 10
0.02809
 20
35.05104
 30
0.0
  0
INSERT
  5
279
100
AcDbEntity
  8
None
390
0
 62
               7
100
AcDbBlockReference
  2
pad
 10
1.0280899999999999
 20
35.05104
 30
0.0
  0
INSERT
  5
27A
100
AcDbEntity
  8
None
390
0
 62
               7
100
AcDbBlockReference
  2
pad
 10
2.0280899999999997
 20
35.05104
 30
0.0
  0
INSERT
  5
27B
100
AcDbEntity
  8
None
390
0
 62
               7
100
AcDbBlockReference
  2
pad
 10
3.0280899999999997
 20
35.05104
 30
0.0
  0
INSERT
  5
27C
100
AcDbEntity
  8
None
390
0
 62
               7
100
AcDbBlockReference
  2
pad
 10
4.0280899999999997
 20
35.05104
 30
0.0
  0
INSERT
  5
27D
100
AcDbEntity
  8
None
390
0
 62
               7
100
AcDbBlockReference
  2
pad
 10
5.0280899999999997
 20
35.05104
 30
0.0
  0
INSERT
  5
27E
100
AcDbEntity
  8
None
390
0
 62
               7
100
AcDbBlockReference
  2
pad
 10
6.0280899999999997
 20
35.05104
 30
0.0
  0
INSERT
  5
27F
100
AcDbEntity
  8
None
390
0
 62
               7
100
AcDbBlockReference
  2
pad
 10
7.0280899999999997
 20
35.05104
 30
0.0
  0
INSERT
  5
280
100
AcDbEntity
  8
None
390
0
 62
               7
100
AcDbBlockReference
  2
pad
 10
8.0280899999999988
 20
35.05104
 30
0.0
  0
INSERT
  5
281
100
AcDbEntity
  8
None
390
0
 62
               7
100
AcDbBlockReference
  2
pad
 10
9.0280899999999988
 20
35.05104
 30
0.0
  0
INSERT
  5
282
100
AcDbEntity
  8
None
390
0
 62
               7
100
AcDbBlockReference
  2
pad
 10
-13.971909999999999
 20
34.05104
 30
0.0
  0
INSERT
  5
283
100
AcDbEntity
  8
None
390
0
 62
               7
100
AcDbBlockReference
  2
pad
 10
-12.971909999999999
 20
34.05104
 30
0.0
  0
INSERT
  5
284
100
AcDbEntity
  8
None
390
0
 62
               7
100
AcDbBlockReference
  2
pad
 10
-11.971909999999999
 20
34.05104
 30
0.0
  0
INSERT
  5
285
100
AcDbEntity
  8
None
390
0
 62
               7
100
AcDbBlockReference
  2
pad
 10
-10.971909999999999
 20
34.05104
 30
0.0
  0
INSERT
  5
286
100
AcDbEntity
  8
None
390
0
 62
               7
100
AcDbBlockReference
  2
pad
 10
-9.9719099999999994
 20
34.05104
 30
0.0
  0
INSERT
  5
287
100
AcDbEntity
  8
None
390
0
 62
               7
100
AcDbBlockReference
  2
pad
 10
-8.9719099999999994
 20
34.05104
 30
0.0
  0
INSERT
  5
288
100
AcDbEntity
  8
None
390
0
 62
               7
100
AcDbBlockReference
  2
pad
 10
-7.9719099999999994
 20
34.05104
 30
0.0
  0
INSERT
  5
289
100
AcDbEntity
  8
None
390
0
 62
               7
100
AcDbBlockReference
  2
pad
 10
-6.9719099999999994
 20
34.05104
 30
0.0
  0
INSERT
  5
28A
100
AcDbEntity
  8
None
390
0
 62
               7
100
AcDbBlockReference
  2
pad
 10
-5.9719099999999994
 20
34.05104
 30
0.0
  0
INSERT
  5
28B
100
AcDbEntity
  8
None
390
0
 62
               7
100
AcDbBlockReference
  2
pad
 10
-4.9719099999999994
 20
34.05104
 30
0.0
  0
INSERT
  5
28C
100
AcDbEntity
  8
None
390
0
 62
               7
100
AcDbBlockReference
  2
pad
 10
-3.9719099999999998
 20
34.05104
 30
0.0
  0
INSERT
  5
28D
100
AcDbEntity
  8
None
390
0
 62
               7
100
AcDbBlockReference
  2
pad
 10
-2.9719099999999998
 20
34.05104
 30
0.0
  0
INSERT
  5
28E
100
AcDbEntity
  8
None
390
0
 62
               7
100
AcDbBlockReference
  2
pad
 10
-1.9719099999999998
 20
34.05104
 30
0.0
  0
INSERT
  5
28F
100
AcDbEntity
  8
None
390
0
 62
               7
100
AcDbBlockReference
  2
pad
 10
-0.9719099999999999
 20
34.05104
 30
0.0
  0
INSERT
  5
290
100
AcDbEntity
  8
None
390
0
 62
               7
100
AcDbBlockReference
  2
pad
 10
0.02809
 20
34.05104
 30
0.0
  0
INSERT
  5
291
100
AcDbEntity
  8
None
390
0
 62
               7
100
AcDbBlockReference
  2
pad
 10
1.0280899999999999
 20
34.05104
 30
0.0
  0
INSERT
  5
292
100
AcDbEntity
  8
None
390
0
 62
               7
100
AcDbBlockReference
  2
pad
 10
2.0280899999999997
 20
34.05104
 30
0.0
  0
INSERT
  5
293
100
AcDbEntity
  8
None
390
0
 62
               7
100
AcDbBlockReference
  2
pad
 10
3.0280899999999997
 20
34.05104
 30
0.0
  0
INSERT
  5
294
100
AcDbEntity
  8
None
390
0
 62
               7
100
AcDbBlockReference
  2
pad
 10
4.0280899999999997
 20
34.05104
 30
0.0
  0
INSERT
  5
295
100
AcDbEntity
  8
None
390
0
 62
               7
100
AcDbBlockReference
  2
pad
 10
5.0280899999999997
 20
34.05104
 30
0.0
  0
INSERT
  5
296
100
AcDbEntity
  8
None
390
0
 62
               7
100
AcDbBlockReference
  2
pad
 10
6.0280899999999997
 20
34.05104
 30
0.0
  0
INSERT
  5
297
100
AcDbEntity
  8
None
390
0
 62
               7
100
AcDbBlockReference
  2
pad
 10
7.0280899999999997
 20
34.05104
 30
0.0
  0
INSERT
  5
298
100
AcDbEntity
  8
None
390
0
 62
               7
100
AcDbBlockReference
  2
pad
 10
8.0280899999999988
 20
34.05104
 30
0.0
  0
INSERT
  5
299
100
AcDbEntity
  8
None
390
0
 62
               7
100
AcDbBlockReference
  2
pad
 10
9.0280899999999988
 20
34.05104
 30
0.0
  0
INSERT
  5
29A
100
AcDbEntity
  8
None
390
0
 62
               7
100
AcDbBlockReference
  2
pad
 10
-13.971909999999999
 20
33.05104
 30
0.0
  0
INSERT
  5
29B
100
AcDbEntity
  8
None
390
0
 62
               7
100
AcDbBlockReference
  2
pad
 10
-12.971909999999999
 20
33.05104
 30
0.0
  0
INSERT
  5
29C
100
AcDbEntity
  8
None
390
0
 62
               7
100
AcDbBlockReference
  2
pad
 10
-11.971909999999999
 20
33.05104
 30
0.0
  0
INSERT
  5
29D
100
AcDbEntity
  8
None
390
0
 62
               7
100
AcDbBlockReference
  2
pad
 10
-10.971909999999999
 20
33.05104
 30
0.0
  0
INSERT
  5
29E
100
AcDbEntity
  8
None
390
0
 62
               7
100
AcDbBlockReference
  2
pad
 10
-9.9719099999999994
 20
33.05104
 30
0.0
  0
INSERT
  5
29F
100
AcDbEntity
  8
None
390
0
 62
               7
100
AcDbBlockReference
  2
pad
 10
-8.9719099999999994
 20
33.05104
 30
0.0
  0
INSERT
  5
2A0
100
AcDbEntity
  8
None
390
0
 62
               7
100
AcDbBlockReference
  2
pad
 10
-7.9719099999999994
 20
33.05104
 30
0.0
  0
INSERT
  5
2A1
100
AcDbEntity
  8
None
390
0
 62
               7
100
AcDbBlockReference
  2
pad
 10
-6.9719099999999994
 20
33.05104
 30
0.0
  0
INSERT
  5
2A2
100
AcDbEntity
  8
None
390
0
 62
               7
100
AcDbBlockReference
  2
pad
 10
-5.9719099999999994
 20
33.05104
 30
0.0
  0
INSERT
  5
2A3
100
AcDbEntity
  8
None
390
0
 62
               7
100
AcDbBlockReference
  2
pad
 10
-4.9719099999999994
 20
33.05104
 30
0.0
  0
INSERT
  5
2A4
100
AcDbEntity
  8
None
390
0
 62
               7
100
AcDbBlockReference
  2
pad
 10
-3.9719099999999998
 20
33.05104
 30
0.0
  0
INSERT
  5
2A5
100
AcDbEntity
  8
None
390
0
 62
               7
100
AcDbBlockReference
  2
pad
 10
-2.9719099999999998
 20
33.05104
 30
0.0
  0
INSERT
  5
2A6
100
AcDbEntity
  8
None
390
0
 62
               7
100
AcDbBlockReference
  2
pad
 10
-1.9719099999999998
 20
33.05104
 30
0.0
  0
INSERT
  5
2A7
100
AcDbEntity
  8
None
390
0
 62
               7
100
AcDbBlockReference
  2
pad
 10
-0.9719099999999999
 20
33.05104
 30
0.0
  0
INSERT
  5
2A8
100
AcDbEntity
  8
None
390
0
 62
               7
100
AcDbBlockReference
  2
pad
 10
0.02809
 20
33.05104
 30
0.0
  0
INSERT
  5
2A9
100
AcDbEntity
  8
None
390
0
 62
               7
100
AcDbBlockReference
  2
pad
 10
1.0280899999999999
 20
33.05104
 30
0.0
  0
INSERT
  5
2AA
100
AcDbEntity
  8
None
390
0
 62
               7
100
AcDbBlockReference
  2
pad
 10
2.0280899999999997
 20
33.05104
 30
0.0
  0
INSERT
  5
2AB
100
AcDbEntity
  8
None
390
0
 62
               7
100
AcDbBlockReference
  2
pad
 10
3.0280899999999997
 20
33.05104
 30
0.0
  0
INSERT
  5
2AC
100
AcDbEntity
  8
None
390
0
 62
               7
100
AcDbBlockReference
  2
pad
 10
4.0280899999999997
 20
33.05104
 30
0.0
  0
INSERT
  5
2AD
100
AcDbEntity
  8
None
390
0
 62
               7
100
AcDbBlockReference
  2
pad
 10
5.0280899999999997
 20
33.05104
 30
0.0
  0
INSERT
  5
2AE
100
AcDbEntity
  8
None
390
0
 62
               7
100
AcDbBlockReference
  2
pad
 10
6.0280899999999997
 20
33.05104
 30
0.0
  0
INSERT
  5
2AF
100
AcDbEntity
  8
None
390
0
 62
               7
100
AcDbBlockReference
  2
pad
 10
7.0280899999999997
 20
33.05104
 30
0.0
  0
INSERT
  5
2B0
100
AcDbEntity
  8
None
390
0
 62
               7
100
AcDbBlockReference
  2
pad
 10
8.0280899999999988
 20
33.05104
 30
0.0
  0
INSERT
  5
2B1
100
AcDbEntity
  8
None
390
0
 62
               7
100
AcDbBlockReference
  2
pad
 10
9.0280899999999988
 20
33.05104
 30
0.0
  0
INSERT
  5
2B2
100
AcDbEntity
  8
None
390
0
 62
               7
100
AcDbBlockReference
  2
pad
 10
-13.971909999999999
 20
32.05104
 30
0.0
  0
INSERT
  5
2B3
100
AcDbEntity
  8
None
390
0
 62
               7
100
AcDbBlockReference
  2
pad
 10
-12.971909999999999
 20
32.05104
 30
0.0
  0
INSERT
  5
2B4
100
AcDbEntity
  8
None
390
0
 62
               7
100
AcDbBlockReference
  2
pad
 10
-11.971909999999999
 20
32.05104
 30
0.0
  0
INSERT
  5
2B5
100
AcDbEntity
  8
None
390
0
 62
               7
100
AcDbBlockReference
  2
pad
 10
-10.971909999999999
 20
32.05104
 30
0.0
  0
INSERT
  5
2B6
100
AcDbEntity
  8
None
390
0
 62
               7
100
AcDbBlockReference
  2
pad
 10
-9.9719099999999994
 20
32.05104
 30
0.0
  0
INSERT
  5
2B7
100
AcDbEntity
  8
None
390
0
 62
               7
100
AcDbBlockReference
  2
pad
 10
-8.9719099999999994
 20
32.05104
 30
0.0
  0
INSERT
  5
2B8
100
AcDbEntity
  8
None
390
0
 62
               7
100
AcDbBlockReference
  2
pad
 10
-7.9719099999999994
 20
32.05104
 30
0.0
  0
INSERT
  5
2B9
100
AcDbEntity
  8
None
390
0
 62
               7
100
AcDbBlockReference
  2
pad
 10
-6.9719099999999994
 20
32.05104
 30
0.0
  0
INSERT
  5
2BA
100
AcDbEntity
  8
None
390
0
 62
               7
100
AcDbBlockReference
  2
pad
 10
-5.9719099999999994
 20
32.05104
 30
0.0
  0
INSERT
  5
2BB
100
AcDbEntity
  8
None
390
0
 62
               7
100
AcDbBlockReference
  2
pad
 10
-4.9719099999999994
 20
32.05104
 30
0.0
  0
INSERT
  5
2BC
100
AcDbEntity
  8
None
390
0
 62
               7
100
AcDbBlockReference
  2
pad
 10
-3.9719099999999998
 20
32.05104
 30
0.0
  0
INSERT
  5
2BD
100
AcDbEntity
  8
None
390
0
 62
               7
100
AcDbBlockReference
  2
pad
 10
-2.9719099999999998
 20
32.05104
 30
0.0
  0
INSERT
  5
2BE
100
AcDbEntity
  8
None
390
0
 62
               7
100
AcDbBlockReference
  2
pad
 10
-1.9719099999999998
 20
32.05104
 30
0.0
  0
INSERT
  5
2BF
100
AcDbEntity
  8
None
390
0
 62
               7
100
AcDbBlockReference
  2
pad
 10
-0.9719099999999999
 20
32.05104
 30
0.0
  0
INSERT
  5
2C0
100
AcDbEntity
  8
None
390
0
 62
               7
100
AcDbBlockReference
  2
pad
 10
0.02809
 20
32.05104
 30
0.0
  0
INSERT
  5
2C1
100
AcDbEntity
  8
None
390
0
 62
               7
100
AcDbBlockReference
  2
pad
 10
1.0280899999999999
 20
32.05104
 30
0.0
  0
INSERT
  5
2C2
100
AcDbEntity
  8
None
390
0
 62
               7
100
AcDbBlockReference
  2
pad
 10
2.0280899999999997
 20
32.05104
 30
0.0
  0
INSERT
  5
2C3
100
AcDbEntity
  8
None
390
0
 62
               7
100
AcDbBlockReference
  2
pad
 10
3.0280899999999997
 20
32.05104
 30
0.0
  0
INSERT
  5
2C4
100
AcDbEntity
  8
None
390
0
 62
               7
100
AcDbBlockReference
  2
pad
 10
4.0280899999999997
 20
32.05104
 30
0.0
  0
INSERT
  5
2C5
100
AcDbEntity
  8
None
390
0
 62
               7
100
AcDbBlockReference
  2
pad
 10
5.0280899999999997
 20
32.05104
 30
0.0
  0
INSERT
  5
2C6
100
AcDbEntity
  8
None
390
0
 62
               7
100
AcDbBlockReference
  2
pad
 10
6.0280899999999997
 20
32.05104
 30
0.0
  0
INSERT
  5
2C7
100
AcDbEntity
  8
None
390
0
 62
               7
100
AcDbBlockReference
  2
pad
 10
7.0280899999999997
 20
32.05104
 30
0.0
  0
INSERT
  5
2C8
100
AcDbEntity
  8
None
390
0
 62
               7
100
AcDbBlockReference
  2
pad
 10
8.0280899999999988
 20
32.05104
 30
0.0
  0
INSERT
  5
2C9
100
AcDbEntity
  8
None
390
0
 62
               7
100
AcDbBlockReference
  2
pad
 10
9.0280899999999988
 20
32.05104
 30
0.0
  0
ENDBLK
  5
2CA
100
AcDbEntity
  8
None
390
0
100
AcDbBlockEnd
  0
BLOCK
  5
2CB
100
AcDbEntity
  8
Dimension
390
0
100
AcDbBlockBegin
  2
*D5
 70
               1
 10
0.0
 20
0.0
 30
0.0
  3
*D5
  1

  0
LINE
  5
2CC
100
AcDbEntity
  8
Dimension
370
              -2
390
0
  6
Continuous
 62
               0
100
AcDbLine
 10
12.792501599999996
 20
56.283841966577029
 30
0.0
 11
12.792501599999996
 21
64.469998733154071
 31
0.0
  0
LINE
  5
2CD
100
AcDbEntity
  8
Dimension
370
              -2
390
0
  6
Continuous
 62
               0
100
AcDbLine
 10
35.792501599999994
 20
56.028841966577033
 30
0.0
 11
35.792501599999994
 21
64.469998733154071
 31
0.0
  0
LINE
  5
2CE
100
AcDbEntity
  8
Dimension
370
              -2
390
0
  6
Continuous
 62
               0
100
AcDbLine
 10
12.792501599999996
 20
63.199999999999996
 30
0.0
 11
35.792501599999994
 21
63.199999999999996
 31
0.0
  0
SOLID
  5
2CF
100
AcDbEntity
  8
Dimension
370
              -2
390
0
 62
               0
100
AcDbTrace
 10
12.792501599999996
 20
63.199999999999996
 30
0.0
 11
13.850833874999996
 21
63.483579278410041
 31
0.0
 12
13.850833874999996
 22
62.916420721589951
 32
0.0
 13
13.850833874999996
 23
62.916420721589951
 33
0.0
  0
SOLID
  5
2D0
100
AcDbEntity
  8
Dimension
370
              -2
390
0
 62
               0
100
AcDbTrace
 10
35.792501599999994
 20
63.199999999999996
 30
0.0
 11
34.734169324999996
 21
62.916420721589951
 31
0.0
 12
34.734169324999996
 22
63.483579278410041
 32
0.0
 13
34.734169324999996
 23
63.483579278410041
 33
0.0
  0
WIPEOUT
  5
2D1
100
AcDbEntity
  8
Dimension
370
              -2
390
0
  6
Continuous
 62
               0
 92
        0
100
AcDbWipeout
 90
        0
 10
21.953711966550472
 20
88.690455
 30
0.0
 11
3.2925760668990618
 21
0.0
 31
0.0
 12
0.0
 22
3.2925760668990618
 32
0.0
 13
1.0
 23
1.0
340
0
 70
               7
280
               1
281
              50
282
              50
283
               0
360
0
 71
               2
 91
        5
 14
-0.5
 24
8.4471539816675012
 14
0.4999999999999992
 24
8.4471539816675012
 14
0.4999999999999992
 24
8.0364397042981714
 14
-0.5
 24
8.0364397042981714
 14
-0.5
 24
8.4471539816675012
  0
MTEXT
  5
2D2
100
AcDbEntity
  8
Dimension
390
0
 62
               0
100
AcDbMText
 10
21.953711966550472
 20
63.659956208333334
 30
0.0
 40
0.8421302083333332
 41
0.0
 71
               1
 72
               1
  1
23mm
  7
Helvetica
 73
               1
 44
0.9673603504928806
  0
POINT
  5
2D3
100
AcDbEntity
  8
Defpoints
370
               0
390
0
 62
               0
100
AcDbPoint
 10
35.792501599999994
 20
55.393842599999992
 30
0.0
  0
POINT
  5
2D4
100
AcDbEntity
  8
Defpoints
370
               0
390
0
 62
               0
100
AcDbPoint
 10
12.792501599999996
 20
55.648842599999988
 30
0.0
  0
POINT
  5
2D5
100
AcDbEntity
  8
Defpoints
370
               0
390
0
 62
               0
100
AcDbPoint
 10
12.792501599999996
 20
63.199999999999996
 30
0.0
  0
ENDBLK
  5
2D6
100
AcDbEntity
  8
Dimension
390
0
100
AcDbBlockEnd
  0
BLOCK
  5
2D7
100
AcDbEntity
  8
Dimension
390
0
100
AcDbBlockBegin
  2
*D6
 70
               1
 10
0.0
 20
0.0
 30
0.0
  3
*D6
  1

  0
LINE
  5
2D8
100
AcDbEntity
  8
Dimension
370
              -2
390
0
  6
Continuous
 62
               0
100
AcDbLine
 10
12.157502233422958
 20
55.648842599999988
 30
0.0
 11
-1.1699987331540775
 21
55.648842599999988
 31
0.0
  0
LINE
  5
2D9
100
AcDbEntity
  8
Dimension
370
              -2
390
0
  6
Continuous
 62
               0
100
AcDbLine
 10
12.157502233422958
 20
32.648842599999995
 30
0.0
 11
-1.1699987331540775
 21
32.648842599999995
 31
0.0
  0
LINE
  5
2DA
100
AcDbEntity
  8
Dimension
370
              -2
390
0
  6
Continuous
 62
               0
100
AcDbLine
 10
0.0999999999999979
 20
55.648842599999988
 30
0.0
 11
0.0999999999999979
 21
32.648842599999995
 31
0.0
  0
SOLID
  5
2DB
100
AcDbEntity
  8
Dimension
370
              -2
390
0
 62
               0
100
AcDbTrace
 10
0.0999999999999979
 20
55.648842599999988
 30
0.0
 11
0.3835792784100391
 21
54.59051032499999
 31
0.0
 12
-0.1835792784100434
 22
54.59051032499999
 32
0.0
 13
-0.1835792784100434
 23
54.59051032499999
 33
0.0
  0
SOLID
  5
2DC
100
AcDbEntity
  8
Dimension
370
              -2
390
0
 62
               0
100
AcDbTrace
 10
0.0999999999999979
 20
32.648842599999995
 30
0.0
 11
-0.1835792784100434
 21
33.707174874999993
 31
0.0
 12
0.3835792784100391
 22
33.707174874999993
 32
0.0
 13
0.3835792784100391
 23
33.707174874999993
 33
0.0
  0
WIPEOUT
  5
2DD
100
AcDbEntity
  8
Dimension
370
              -2
390
0
  6
Continuous
 62
               0
 92
        0
100
AcDbWipeout
 90
        0
 10
-1.5462880334495317
 20
69.639297599999992
 30
0.0
 11
3.2925760668990627
 21
0.0
 31
0.0
 12
0.0
 22
3.2925760668990627
 32
0.0
 13
1.0
 23
1.0
340
0
 70
               7
280
               1
281
              50
282
              50
283
               0
360
0
 71
               2
 91
        5
 14
-0.5
 24
8.4471539816674976
 14
0.5
 24
8.4471539816674976
 14
0.5
 24
8.0364397042981679
 14
-0.5
 24
8.0364397042981679
 14
-0.5
 24
8.4471539816674976
  0
MTEXT
  5
2DE
100
AcDbEntity
  8
Dimension
390
0
 62
               0
100
AcDbMText
 10
-1.5462880334495317
 20
44.608798808333333
 30
0.0
 40
0.8421302083333332
 41
0.0
 71
               1
 72
               1
  1
23mm
  7
Helvetica
 73
               1
 44
0.9673603504928806
  0
POINT
  5
2DF
100
AcDbEntity
  8
Defpoints
370
               0
390
0
 62
               0
100
AcDbPoint
 10
12.792501599999996
 20
32.648842599999995
 30
0.0
  0
POINT
  5
2E0
100
AcDbEntity
  8
Defpoints
370
               0
390
0
 62
               0
100
AcDbPoint
 10
12.792501599999996
 20
55.648842599999988
 30
0.0
  0
POINT
  5
2E1
100
AcDbEntity
  8
Defpoints
370
               0
390
0
 62
               0
100
AcDbPoint
 10
0.0999999999999979
 20
55.648842599999988
 30
0.0
  0
ENDBLK
  5
2E2
100
AcDbEntity
  8
Dimension
390
0
100
AcDbBlockEnd
  0
BLOCK
  5
2E3
100
AcDbEntity
  8
Dimension
390
0
100
AcDbBlockBegin
  2
*D7
 70
               1
 10
0.0
 20
0.0
 30
0.0
  3
*D7
  1

  0
LINE
  5
2E4
100
AcDbEntity
  8
Dimension
370
              -2
390
0
  6
Continuous
 62
               0
100
AcDbLine
 10
19.792501599999994
 20
31.99884323342296
 30
0.0
 11
19.792501599999994
 21
25.880001266845927
 31
0.0
  0
LINE
  5
2E5
100
AcDbEntity
  8
Dimension
370
              -2
390
0
  6
Continuous
 62
               0
100
AcDbLine
 10
20.792501599999994
 20
31.99884323342296
 30
0.0
 11
20.792501599999994
 21
25.880001266845927
 31
0.0
  0
LINE
  5
2E6
100
AcDbEntity
  8
Dimension
370
              -2
390
0
  6
Continuous
 62
               0
100
AcDbLine
 10
20.792501599999994
 20
27.150000000000002
 30
0.0
 11
19.792501599999994
 21
27.150000000000002
 31
0.0
  0
LINE
  5
2E7
100
AcDbEntity
  8
Dimension
370
              -2
390
0
  6
Continuous
 62
               0
100
AcDbLine
 10
19.792501599999994
 20
27.150000000000002
 30
0.0
 11
16.626403598696463
 21
27.150000000000002
 31
0.0
  0
SOLID
  5
2E8
100
AcDbEntity
  8
Dimension
370
              -2
390
0
 62
               0
100
AcDbTrace
 10
19.792501599999994
 20
27.150000000000002
 30
0.0
 11
18.734169324999996
 21
26.866420721589961
 31
0.0
 12
18.734169324999996
 22
27.433579278410047
 32
0.0
 13
18.734169324999996
 23
27.433579278410047
 33
0.0
  0
LINE
  5
2E9
100
AcDbEntity
  8
Dimension
370
              -2
390
0
  6
Continuous
 62
               0
100
AcDbLine
 10
20.792501599999994
 20
27.150000000000002
 30
0.0
 11
23.125827931160423
 21
27.150000000000002
 31
0.0
  0
SOLID
  5
2EA
100
AcDbEntity
  8
Dimension
370
              -2
390
0
 62
               0
100
AcDbTrace
 10
20.792501599999994
 20
27.150000000000002
 30
0.0
 11
21.850833874999996
 21
27.433579278410043
 31
0.0
 12
21.850833874999996
 22
26.866420721589961
 32
0.0
 13
21.850833874999996
 23
26.866420721589961
 33
0.0
  0
WIPEOUT
  5
2EB
100
AcDbEntity
  8
Dimension
370
              -2
390
0
  6
Continuous
 62
               0
 92
        0
100
AcDbWipeout
 90
        0
 10
11.769853759839192
 20
52.640455000000003
 30
0.0
 11
4.856549838857271
 21
0.0
 31
0.0
 12
0.0
 22
4.856549838857271
 32
0.0
 13
1.0
 23
1.0
340
0
 70
               7
280
               1
281
              50
282
              50
283
               0
360
0
 71
               2
 91
        5
 14
-0.5
 24
5.8879008490020794
 14
0.5
 24
5.8879008490020794
 14
0.5
 24
5.6094504995008387
 14
-0.5
 24
5.6094504995008387
 14
-0.5
 24
5.8879008490020794
  0
MTEXT
  5
2EC
100
AcDbEntity
  8
Dimension
390
0
 62
               0
100
AcDbMText
 10
11.769853759839192
 20
27.609956208333337
 30
0.0
 40
0.8421302083333332
 41
0.0
 71
               1
 72
               1
  1
1mm typ.
  7
Helvetica
 73
               1
 44
0.9673603504928806
  0
POINT
  5
2ED
100
AcDbEntity
  8
Defpoints
370
               0
390
0
 62
               0
100
AcDbPoint
 10
20.792501599999994
 20
32.633842599999994
 30
0.0
  0
POINT
  5
2EE
100
AcDbEntity
  8
Defpoints
370
               0
390
0
 62
               0
100
AcDbPoint
 10
19.792501599999994
 20
32.633842599999994
 30
0.0
  0
POINT
  5
2EF
100
AcDbEntity
  8
Defpoints
370
               0
390
0
 62
               0
100
AcDbPoint
 10
19.792501599999994
 20
27.150000000000002
 30
0.0
  0
ENDBLK
  5
2F0
100
AcDbEntity
  8
Dimension
390
0
100
AcDbBlockEnd
  0
BLOCK
  5
2F1
100
AcDbEntity
  8
Dimension
390
0
100
AcDbBlockBegin
  2
*D8
 70
               1
 10
0.0
 20
0.0
 30
0.0
  3
*D8
  1

  0
LINE
  5
2F2
100
AcDbEntity
  8
Dimension
370
              -2
390
0
  6
Continuous
 62
               0
100
AcDbLine
 10
36.030571599999995
 20
48.557482599999993
 30
0.0
 11
40.349997698338434
 21
46.899998203426691
 31
0.0
  0
SOLID
  5
2F3
100
AcDbEntity
  8
Dimension
370
              -2
390
0
 62
               0
100
AcDbTrace
 10
36.030571599999995
 20
48.557482599999993
 30
0.0
 11
36.756836926634939
 21
48.481149038244048
 31
0.0
 12
36.621369041875688
 22
48.128243133040527
 32
0.0
 13
36.621369041875688
 23
48.128243133040527
 33
0.0
  0
LINE
  5
2F4
100
AcDbEntity
  8
Dimension
370
              -2
390
0
  6
Continuous
 62
               0
100
AcDbLine
 10
40.349997698338434
 20
46.899998203426691
 30
0.0
 11
42.349991700981768
 21
46.899998203426691
 31
0.0
  0
WIPEOUT
  5
2F5
100
AcDbEntity
  8
Dimension
370
              -2
390
0
  6
Continuous
 62
               0
 92
        0
100
AcDbWipeout
 90
        0
 10
42.349991700981768
 20
72.390453203426688
 30
0.0
 11
8.4078278704433433
 21
0.0
 31
0.0
 12
0.0
 22
8.4078278704433433
 32
0.0
 13
1.0
 23
1.0
340
0
 70
               7
280
               1
281
              50
282
              50
283
               0
360
0
 71
               2
 91
        5
 14
-0.5
 24
3.6121722998142483
 14
0.4999999999999998
 24
3.6121722998142483
 14
0.4999999999999998
 24
3.4513331364967086
 14
-0.5
 24
3.4513331364967086
 14
-0.5
 24
3.6121722998142483
  0
MTEXT
  5
2F6
100
AcDbEntity
  8
Dimension
390
0
 62
               0
100
AcDbMText
 10
42.349991700981768
 20
47.359954411760029
 30
0.0
 40
0.8421302083333332
 41
0.0
 71
               1
 72
               1
  1
Ø 0.51mm x576
  7
Helvetica
 73
               1
 44
0.9673603504928806
  0
POINT
  5
2F7
100
AcDbEntity
  8
Defpoints
370
               0
390
0
 62
               0
100
AcDbPoint
 10
35.554431599999994
 20
48.740202599999989
 30
0.0
  0
POINT
  5
2F8
100
AcDbEntity
  8
Defpoints
370
               0
390
0
 62
               0
100
AcDbPoint
 10
36.030571599999995
 20
48.557482599999993
 30
0.0
  0
ENDBLK
  5
2F9
100
AcDbEntity
  8
Dimension
390
0
100
AcDbBlockEnd
  0
BLOCK
  5
2FA
100
AcDbEntity
  8
Dimension
390
0
100
AcDbBlockBegin
  2
Group-1
 70
               0
 10
0.0
 20
0.0
 30
0.0
  3
Group-1
  1

  0
LINE
  5
2FB
100
AcDbEntity
  8
None
370
               9
390
0
  6
Continuous
 62
             180
100
AcDbLine
 10
-3.9052422750000053
 20
43.551039999999993
 30
0.0
 11
-1.7885777249999952
 21
43.551039999999993
 31
0.0
  0
LINE
  5
2FC
100
AcDbEntity
  8
None
370
               9
390
0
  6
Continuous
 62
             180
100
AcDbLine
 10
-2.8469099999999932
 20
42.492707724999995
 30
0.0
 11
-2.8469099999999932
 21
44.609372274999991
 31
0.0
  0
LINE
  5
2FD
100
AcDbEntity
  8
None
370
               9
390
0
  6
Continuous
 62
             180
100
AcDbLine
 10
-18.967742275000006
 20
43.551039999999993
 30
0.0
 11
-4.4344084125000043
 21
43.551039999999993
 31
0.0
  0
LINE
  5
2FE
100
AcDbEntity
  8
None
370
               9
390
0
  6
Continuous
 62
             180
100
AcDbLine
 10
-1.2594115874999963
 20
43.551039999999993
 30
0.0
 11
13.273922275000004
 21
43.551039999999993
 31
0.0
  0
LINE
  5
2FF
100
AcDbEntity
  8
None
370
               9
390
0
  6
Continuous
 62
             180
100
AcDbLine
 10
-2.8469099999999932
 20
59.671872274999998
 30
0.0
 11
-2.8469099999999932
 21
45.138538412499997
 31
0.0
  0
LINE
  5
300
100
AcDbEntity
  8
None
370
               9
390
0
  6
Continuous
 62
             180
100
AcDbLine
 10
-2.8469099999999932
 20
41.963541587499989
 30
0.0
 11
-2.8469099999999932
 21
27.430207724999995
 31
0.0
  0
ENDBLK
  5
301
100
AcDbEntity
  8
Dimension
390
0
100
AcDbBlockEnd
  0
BLOCK
  5
302
100
AcDbEntity
  8
None
390
0
100
AcDbBlockBegin
  2
Group-2
 70
               0
 10
0.0
 20
0.0
 30
0.0
  3
Group-2
  1

  0
POLYLINE
  5
303
100
AcDbEntity
  8
None
370
               9
390
0
  6
STYLE_12
 62
               7
100
AcDb2dPolyline
 66
               1
 10
0.0
 20
0.0
 30
0.0
 70
               1
 75
               5
  0
VERTEX
  5
304
100
AcDbEntity
  8
None
370
               9
390
0
  6
STYLE_12
 62
               7
100
AcDbVertex
100
AcDb2dVertex
 10
-16.659410000000001
 20
57.363539999999993
 30
0.0
  0
VERTEX
  5
305
100
AcDbEntity
  8
None
370
               9
390
0
  6
STYLE_12
 62
               7
100
AcDbVertex
100
AcDb2dVertex
 10
10.965590000000006
 20
57.363539999999993
 30
0.0
  0
VERTEX
  5
306
100
AcDbEntity
  8
None
370
               9
390
0
  6
STYLE_12
 62
               7
100
AcDbVertex
100
AcDb2dVertex
 10
10.965590000000006
 20
29.738539999999993
 30
0.0
  0
VERTEX
  5
307
100
AcDbEntity
  8
None
370
               9
390
0
  6
STYLE_12
 62
               7
100
AcDbVertex
100
AcDb2dVertex
 10
-16.659410000000001
 20
29.738539999999993
 30
0.0
  0
SEQEND
  5
308
100
AcDbEntity
  8
None
370
               9
390
0
  6
STYLE_12
 62
               7
  0
INSERT
  5
309
100
AcDbEntity
  8
Dimension
390
0
 62
               7
100
AcDbBlockReference
  2
Group-1
 10
0.0
 20
0.0
 30
0.0
  0
ENDBLK
  5
30A
100
AcDbEntity
  8
None
390
0
100
AcDbBlockEnd
  0
BLOCK
  5
30B
100
AcDbEntity
  8
Dimension
390
0
100
AcDbBlockBegin
  2
*D11
 70
               1
 10
0.0
 20
0.0
 30
0.0
  3
*D11
  1

  0
LINE
  5
30C
100
AcDbEntity
  8
Dimension
370
              -2
390
0
  6
Continuous
 62
               0
100
AcDbLine
 10
12.792501599999996
 20
56.283841966577029
 30
0.0
 11
12.792501599999996
 21
61.393842001904076
 31
0.0
  0
LINE
  5
30D
100
AcDbEntity
  8
Dimension
370
              -2
390
0
  6
Continuous
 62
               0
100
AcDbLine
 10
10.105001599999994
 20
58.596341966577029
 30
0.0
 11
10.105001599999994
 21
61.393842001904076
 31
0.0
  0
LINE
  5
30E
100
AcDbEntity
  8
Dimension
370
              -2
390
0
  6
Continuous
 62
               0
100
AcDbLine
 10
10.105001599999994
 20
60.123843268750001
 30
0.0
 11
12.792501599999996
 21
60.123843268750001
 31
0.0
  0
LINE
  5
30F
100
AcDbEntity
  8
Dimension
370
              -2
390
0
  6
Continuous
 62
               0
100
AcDbLine
 10
12.792501599999996
 20
60.123843268750001
 30
0.0
 11
16.199999999999999
 21
60.123843268750001
 31
0.0
  0
SOLID
  5
310
100
AcDbEntity
  8
Dimension
370
              -2
390
0
 62
               0
100
AcDbTrace
 10
12.792501599999996
 20
60.123843268750001
 30
0.0
 11
13.850833874999996
 21
60.407422547160046
 31
0.0
 12
13.850833874999996
 22
59.840263990339956
 32
0.0
 13
13.850833874999996
 23
59.840263990339956
 33
0.0
  0
LINE
  5
311
100
AcDbEntity
  8
Dimension
370
              -2
390
0
  6
Continuous
 62
               0
100
AcDbLine
 10
10.105001599999994
 20
60.123843268750001
 30
0.0
 11
7.7716752688395694
 21
60.123843268750001
 31
0.0
  0
SOLID
  5
312
100
AcDbEntity
  8
Dimension
370
              -2
390
0
 62
               0
100
AcDbTrace
 10
10.105001599999994
 20
60.123843268750001
 30
0.0
 11
9.0466693249999928
 21
59.840263990339956
 31
0.0
 12
9.0466693249999928
 22
60.407422547160046
 32
0.0
 13
9.0466693249999928
 23
60.407422547160046
 33
0.0
  0
WIPEOUT
  5
313
100
AcDbEntity
  8
Dimension
370
              -2
390
0
  6
Continuous
 62
               0
 92
        0
100
AcDbWipeout
 90
        0
 10
16.199999999999999
 20
85.614295537499999
 30
0.0
 11
5.597402079147817
 21
0.0
 31
0.0
 12
0.0
 22
5.597402079147817
 32
0.0
 13
1.0
 23
1.0
340
0
 70
               7
280
               1
281
              50
282
              50
283
               0
360
0
 71
               2
 91
        5
 14
-0.5
 24
5.1747774467514702
 14
0.4999999999999999
 24
5.1747774467514702
 14
0.4999999999999999
 24
4.9331808197130416
 14
-0.5
 24
4.9331808197130416
 14
-0.5
 24
5.1747774467514702
  0
MTEXT
  5
314
100
AcDbEntity
  8
Dimension
390
0
 62
               0
100
AcDbMText
 10
16.199999999999999
 20
60.583801335026038
 30
0.0
 40
0.8421336100260418
 41
0.0
 71
               1
 72
               1
  1
2.6875mm
  7
Helvetica
 73
               1
 44
0.9673603504928806
  0
POINT
  5
315
100
AcDbEntity
  8
Defpoints
370
               0
390
0
 62
               0
100
AcDbPoint
 10
10.105001599999994
 20
57.961342599999988
 30
0.0
  0
POINT
  5
316
100
AcDbEntity
  8
Defpoints
370
               0
390
0
 62
               0
100
AcDbPoint
 10
12.792501599999996
 20
55.648842599999988
 30
0.0
  0
POINT
  5
317
100
AcDbEntity
  8
Defpoints
370
               0
390
0
 62
               0
100
AcDbPoint
 10
12.792501599999996
 20
60.123843268750001
 30
0.0
  0
ENDBLK
  5
318
100
AcDbEntity
  8
Dimension
390
0
100
AcDbBlockEnd
  0
BLOCK
  5
319
100
AcDbEntity
  8
Dimension
390
0
100
AcDbBlockBegin
  2
*D12
 70
               1
 10
0.0
 20
0.0
 30
0.0
  3
*D12
  1

  0
LINE
  5
31A
100
AcDbEntity
  8
Dimension
370
              -2
390
0
  6
Continuous
 62
               0
100
AcDbLine
 10
12.157502233422958
 20
55.648842599999988
 30
0.0
 11
5.7300012668459246
 21
55.648842599999988
 31
0.0
  0
LINE
  5
31B
100
AcDbEntity
  8
Dimension
370
              -2
390
0
  6
Continuous
 62
               0
100
AcDbLine
 10
9.5950022334229566
 20
57.961342599999988
 30
0.0
 11
5.7300012668459246
 21
57.961342599999988
 31
0.0
  0
LINE
  5
31C
100
AcDbEntity
  8
Dimension
370
              -2
390
0
  6
Continuous
 62
               0
100
AcDbLine
 10
7.0
 20
57.961342599999988
 30
0.0
 11
7.0
 21
55.648842599999988
 31
0.0
  0
LINE
  5
31D
100
AcDbEntity
  8
Dimension
370
              -2
390
0
  6
Continuous
 62
               0
100
AcDbLine
 10
7.0
 20
55.648842599999988
 30
0.0
 11
7.0
 21
53.315516268839559
 31
0.0
  0
SOLID
  5
31E
100
AcDbEntity
  8
Dimension
370
              -2
390
0
 62
               0
100
AcDbTrace
 10
7.0
 20
55.648842599999988
 30
0.0
 11
7.2835792784100413
 21
54.59051032499999
 31
0.0
 12
6.7164207215899587
 22
54.59051032499999
 32
0.0
 13
6.7164207215899587
 23
54.59051032499999
 33
0.0
  0
LINE
  5
31F
100
AcDbEntity
  8
Dimension
370
              -2
390
0
  6
Continuous
 62
               0
100
AcDbLine
 10
7.0
 20
57.961342599999988
 30
0.0
 11
7.0
 21
60.294668931160416
 31
0.0
  0
SOLID
  5
320
100
AcDbEntity
  8
Dimension
370
              -2
390
0
 62
               0
100
AcDbTrace
 10
7.0
 20
57.961342599999988
 30
0.0
 11
6.7164207215899587
 21
59.019674874999986
 31
0.0
 12
7.2835792784100413
 22
59.019674874999986
 32
0.0
 13
7.2835792784100413
 23
59.019674874999986
 33
0.0
  0
WIPEOUT
  5
321
100
AcDbEntity
  8
Dimension
370
              -2
390
0
  6
Continuous
 62
               0
 92
        0
100
AcDbWipeout
 90
        0
 10
4.2012989604260902
 20
82.295544868749985
 30
0.0
 11
5.5974020791478161
 21
0.0
 31
0.0
 12
0.0
 22
5.5974020791478161
 32
0.0
 13
1.0
 23
1.0
340
0
 70
               7
280
               1
281
              50
282
              50
283
               0
360
0
 71
               2
 91
        5
 14
-0.5
 24
5.1747774467514711
 14
0.5
 24
5.1747774467514711
 14
0.5
 24
4.9331808197130425
 14
-0.5
 24
4.9331808197130425
 14
-0.5
 24
5.1747774467514711
  0
MTEXT
  5
322
100
AcDbEntity
  8
Dimension
390
0
 62
               0
100
AcDbMText
 10
4.2012989604260902
 20
57.265050666276025
 30
0.0
 40
0.8421336100260418
 41
0.0
 71
               1
 72
               1
  1
2.3125mm
  7
Helvetica
 73
               1
 44
0.9673603504928806
  0
POINT
  5
323
100
AcDbEntity
  8
Defpoints
370
               0
390
0
 62
               0
100
AcDbPoint
 10
10.230001599999994
 20
57.961342599999988
 30
0.0
  0
POINT
  5
324
100
AcDbEntity
  8
Defpoints
370
               0
390
0
 62
               0
100
AcDbPoint
 10
12.792501599999996
 20
55.648842599999988
 30
0.0
  0
POINT
  5
325
100
AcDbEntity
  8
Defpoints
370
               0
390
0
 62
               0
100
AcDbPoint
 10
7.0
 20
55.648842599999988
 30
0.0
  0
ENDBLK
  5
326
100
AcDbEntity
  8
Dimension
390
0
100
AcDbBlockEnd
  0
BLOCK
  5
327
100
AcDbEntity
  8
Dimension
390
0
100
AcDbBlockBegin
  2
*D13
 70
               1
 10
0.0
 20
0.0
 30
0.0
  3
*D13
  1

  0
LINE
  5
328
100
AcDbEntity
  8
Dimension
370
              -2
390
0
  6
Continuous
 62
               0
100
AcDbLine
 10
35.792501599999994
 20
56.283841966577029
 30
0.0
 11
35.792501599999994
 21
62.06999873315408
 31
0.0
  0
LINE
  5
329
100
AcDbEntity
  8
Dimension
370
              -2
390
0
  6
Continuous
 62
               0
100
AcDbLine
 10
37.730001600000001
 20
58.596341966577029
 30
0.0
 11
37.730001600000001
 21
62.06999873315408
 31
0.0
  0
LINE
  5
32A
100
AcDbEntity
  8
Dimension
370
              -2
390
0
  6
Continuous
 62
               0
100
AcDbLine
 10
37.730001600000001
 20
60.800000000000004
 30
0.0
 11
35.792501599999994
 21
60.800000000000004
 31
0.0
  0
LINE
  5
32B
100
AcDbEntity
  8
Dimension
370
              -2
390
0
  6
Continuous
 62
               0
100
AcDbLine
 10
35.792501599999994
 20
60.800000000000004
 30
0.0
 11
32.818479488471858
 21
60.800000000000004
 31
0.0
  0
SOLID
  5
32C
100
AcDbEntity
  8
Dimension
370
              -2
390
0
 62
               0
100
AcDbTrace
 10
35.792501599999994
 20
60.800000000000004
 30
0.0
 11
34.734169324999996
 21
60.516420721589959
 31
0.0
 12
34.734169324999996
 22
61.083579278410049
 32
0.0
 13
34.734169324999996
 23
61.083579278410049
 33
0.0
  0
LINE
  5
32D
100
AcDbEntity
  8
Dimension
370
              -2
390
0
  6
Continuous
 62
               0
100
AcDbLine
 10
37.730001600000001
 20
60.800000000000004
 30
0.0
 11
40.06332793116043
 21
60.800000000000004
 31
0.0
  0
SOLID
  5
32E
100
AcDbEntity
  8
Dimension
370
              -2
390
0
 62
               0
100
AcDbTrace
 10
37.730001600000001
 20
60.800000000000004
 30
0.0
 11
38.788333874999999
 21
61.083579278410049
 31
0.0
 12
38.788333874999999
 22
60.516420721589959
 32
0.0
 13
38.788333874999999
 23
60.516420721589959
 33
0.0
  0
WIPEOUT
  5
32F
100
AcDbEntity
  8
Dimension
370
              -2
390
0
  6
Continuous
 62
               0
 92
        0
100
AcDbWipeout
 90
        0
 10
28.538113219039978
 20
86.290452268750002
 30
0.0
 11
4.2803662694318767
 21
0.0
 31
0.0
 12
0.0
 22
4.2803662694318767
 32
0.0
 13
1.0
 23
1.0
340
0
 70
               7
280
               1
281
              50
282
              50
283
               0
360
0
 71
               2
 91
        5
 14
-0.5
 24
6.6131705449760574
 14
0.5000000000000009
 24
6.6131705449760574
 14
0.5000000000000009
 24
6.2972364922858688
 14
-0.5
 24
6.2972364922858688
 14
-0.5
 24
6.6131705449760574
  0
MTEXT
  5
330
100
AcDbEntity
  8
Dimension
390
0
 62
               0
100
AcDbMText
 10
28.538113219039978
 20
61.259958066276042
 30
0.0
 40
0.8421336100260418
 41
0.0
 71
               1
 72
               1
  1
1.94mm
  7
Helvetica
 73
               1
 44
0.9673603504928806
  0
POINT
  5
331
100
AcDbEntity
  8
Defpoints
370
               0
390
0
 62
               0
100
AcDbPoint
 10
37.730001600000001
 20
57.961342599999988
 30
0.0
  0
POINT
  5
332
100
AcDbEntity
  8
Defpoints
370
               0
390
0
 62
               0
100
AcDbPoint
 10
35.792501599999994
 20
55.648842599999988
 30
0.0
  0
POINT
  5
333
100
AcDbEntity
  8
Defpoints
370
               0
390
0
 62
               0
100
AcDbPoint
 10
35.792501599999994
 20
60.800000000000004
 30
0.0
  0
ENDBLK
  5
334
100
AcDbEntity
  8
Dimension
390
0
100
AcDbBlockEnd
  0
BLOCK
  5
335
100
AcDbEntity
  8
Dimension
390
0
100
AcDbBlockBegin
  2
*D14
 70
               1
 10
0.0
 20
0.0
 30
0.0
  3
*D14
  1

  0
LINE
  5
336
100
AcDbEntity
  8
Dimension
370
              -2
390
0
  6
Continuous
 62
               0
100
AcDbLine
 10
12.157502233422958
 20
32.648842599999995
 30
0.0
 11
5.0300012668459253
 21
32.648842599999995
 31
0.0
  0
LINE
  5
337
100
AcDbEntity
  8
Dimension
370
              -2
390
0
  6
Continuous
 62
               0
100
AcDbLine
 10
9.5950022334229566
 20
30.336342599999991
 30
0.0
 11
5.0300012668459253
 21
30.336342599999991
 31
0.0
  0
LINE
  5
338
100
AcDbEntity
  8
Dimension
370
              -2
390
0
  6
Continuous
 62
               0
100
AcDbLine
 10
6.3000000000000007
 20
30.336342599999991
 30
0.0
 11
6.3000000000000007
 21
32.648842599999995
 31
0.0
  0
LINE
  5
339
100
AcDbEntity
  8
Dimension
370
              -2
390
0
  6
Continuous
 62
               0
100
AcDbLine
 10
6.3000000000000007
 20
32.648842599999995
 30
0.0
 11
6.3000000000000007
 21
34.982168931160423
 31
0.0
  0
SOLID
  5
33A
100
AcDbEntity
  8
Dimension
370
              -2
390
0
 62
               0
100
AcDbTrace
 10
6.3000000000000007
 20
32.648842599999995
 30
0.0
 11
6.0164207215899594
 21
33.707174874999993
 31
0.0
 12
6.583579278410042
 22
33.707174874999993
 32
0.0
 13
6.583579278410042
 23
33.707174874999993
 33
0.0
  0
LINE
  5
33B
100
AcDbEntity
  8
Dimension
370
              -2
390
0
  6
Continuous
 62
               0
100
AcDbLine
 10
6.3000000000000007
 20
30.336342599999991
 30
0.0
 11
6.3000000000000007
 21
28.003016268839566
 31
0.0
  0
SOLID
  5
33C
100
AcDbEntity
  8
Dimension
370
              -2
390
0
 62
               0
100
AcDbTrace
 10
6.3000000000000007
 20
30.336342599999991
 30
0.0
 11
6.583579278410042
 21
29.27801032499999
 31
0.0
 12
6.0164207215899594
 22
29.27801032499999
 32
0.0
 13
6.0164207215899594
 23
29.27801032499999
 33
0.0
  0
WIPEOUT
  5
33D
100
AcDbEntity
  8
Dimension
370
              -2
390
0
  6
Continuous
 62
               0
 92
        0
100
AcDbWipeout
 90
        0
 10
4.1598168652840606
 20
56.983044868749992
 30
0.0
 11
4.2803662694318767
 21
0.0
 31
0.0
 12
0.0
 22
4.2803662694318767
 32
0.0
 13
1.0
 23
1.0
340
0
 70
               7
280
               1
281
              50
282
              50
283
               0
360
0
 71
               2
 91
        5
 14
-0.5
 24
6.6131705449760574
 14
0.5
 24
6.6131705449760574
 14
0.5
 24
6.2972364922858688
 14
-0.5
 24
6.2972364922858688
 14
-0.5
 24
6.6131705449760574
  0
MTEXT
  5
33E
100
AcDbEntity
  8
Dimension
390
0
 62
               0
100
AcDbMText
 10
4.1598168652840606
 20
31.952550666276036
 30
0.0
 40
0.8421336100260418
 41
0.0
 71
               1
 72
               1
  1
2.31mm
  7
Helvetica
 73
               1
 44
0.9673603504928806
  0
POINT
  5
33F
100
AcDbEntity
  8
Defpoints
370
               0
390
0
 62
               0
100
AcDbPoint
 10
10.230001599999994
 20
30.336342599999991
 30
0.0
  0
POINT
  5
340
100
AcDbEntity
  8
Defpoints
370
               0
390
0
 62
               0
100
AcDbPoint
 10
12.792501599999996
 20
32.648842599999995
 30
0.0
  0
POINT
  5
341
100
AcDbEntity
  8
Defpoints
370
               0
390
0
 62
               0
100
AcDbPoint
 10
6.3000000000000007
 20
32.648842599999995
 30
0.0
  0
ENDBLK
  5
342
100
AcDbEntity
  8
Dimension
390
0
100
AcDbBlockEnd
  0
ENDSEC
  0
SECTION
  2
ENTITIES
  0
MTEXT
  5
343
100
AcDbEntity
  8
None
390
0
 62
               7
100
AcDbMText
 10
30.553001144739994
 20
14.178299085462154
 30
0.0
 40
0.6939780386601563
 41
38.070221929740001
 71
               1
 72
               1
  1
Recommended PCB Layout Tolerances:  ±0.025mm [±0.001"] unless stated otherwise.\P
  7
Helvetica
 73
               1
 44
0.9673603504928806
  0
MTEXT
  5
344
100
AcDbEntity
  8
None
390
0
 62
               7
100
AcDbMText
 10
-14.702686932860004
 20
64.639030339958211
 30
0.0
 40
0.8165916313242188
 41
15.76917089748
 71
               1
 72
               1
  1
{\LRecommended PCB Layout Top View}\P
  7
Helvetica
 73
               1
 44
0.9673603504928809
  0
WIPEOUT
  5
345
100
AcDbEntity
  8
None
370
              15
390
0
  6
Continuous
 62
              12
 92
        0
100
AcDbWipeout
 90
        0
 10
-15.051453250760005
 20
39.340332357400001
 30
0.0
 11
23.801893295386506
 21
0.0
 31
0.0
 12
0.0
 22
23.801893295386506
 32
0.0
 13
1.0
 23
1.0
340
0
 70
               7
280
               1
281
              50
282
              50
283
               0
360
0
 71
               2
 91
        5
 14
-0.5
 24
1.5993498994078696
 14
0.5
 24
1.5993498994078696
 14
0.5
 24
1.3948145540644123
 14
-0.5
 24
1.3948145540644123
 14
-0.5
 24
1.5993498994078696
  0
MTEXT
  5
346
100
AcDbEntity
  8
None
390
0
 62
              12
100
AcDbMText
 10
-15.051453250760005
 20
17.847473023923438
 30
0.0
 40
0.7579202490234375
 41
0.0
 71
               1
 72
               1
  1
{\LTarget PCB Recommendations}\PTotal thickness: 1.6mm min.\PPlating: Gold or Solder finish\PPCB Pad height: Same or higher than solder mask
  7
Arial
 73
               1
 44
0.9673603504928808
  0
WIPEOUT
  5
347
100
AcDbEntity
  8
Dimension
370
               5
390
0
  6
Continuous
 62
               7
 92
        0
100
AcDbWipeout
 90
        0
 10
16.921481442939996
 20
33.230651800419992
 30
0.0
 11
14.178685821300002
 21
0.0
 31
0.0
 12
0.0
 22
14.178685821300002
 32
0.0
 13
1.0
 23
1.0
340
0
 70
               7
280
               1
281
              50
282
              50
283
               0
360
0
 71
               2
 91
        5
 14
-0.5
 24
2.1862525125694523
 14
0.4999999999999999
 24
2.1862525125694523
 14
0.4999999999999999
 24
2.3454890199126264
 14
-0.5
 24
2.3454890199126264
 14
-0.5
 24
2.1862525125694523
  0
POLYLINE
  5
348
100
AcDbEntity
  8
Dimension
370
               5
390
0
  6
Continuous
 62
               7
100
AcDb2dPolyline
 66
               1
 10
0.0
 20
0.0
 30
0.0
 70
               1
 75
               5
  0
VERTEX
  5
349
100
AcDbEntity
  8
Dimension
370
               5
390
0
  6
Continuous
 62
               7
100
AcDbVertex
100
AcDb2dVertex
 10
16.921481442939996
 20
9.3218072093199993
 30
0.0
  0
VERTEX
  5
34A
100
AcDbEntity
  8
Dimension
370
               5
390
0
  6
Continuous
 62
               7
100
AcDbVertex
100
AcDb2dVertex
 10
31.100167264239996
 20
9.3218072093199993
 30
0.0
  0
VERTEX
  5
34B
100
AcDbEntity
  8
Dimension
370
               5
390
0
  6
Continuous
 62
               7
100
AcDbVertex
100
AcDb2dVertex
 10
31.100167264239996
 20
7.0640428004199975
 30
0.0
  0
VERTEX
  5
34C
100
AcDbEntity
  8
Dimension
370
               5
390
0
  6
Continuous
 62
               7
100
AcDbVertex
100
AcDb2dVertex
 10
16.921481442939996
 20
7.0640428004199975
 30
0.0
  0
SEQEND
  5
34D
100
AcDbEntity
  8
Dimension
370
               5
390
0
  6
Continuous
 62
               7
  0
WIPEOUT
  5
34E
100
AcDbEntity
  8
Dimension
370
               5
390
0
  6
Continuous
 62
               7
 92
        0
100
AcDbWipeout
 90
        0
 10
31.100167264239996
 20
33.230651800419992
 30
0.0
 11
9.9089567576999986
 21
0.0
 31
0.0
 12
0.0
 22
9.9089567576999986
 32
0.0
 13
1.0
 23
1.0
340
0
 70
               7
280
               1
281
              50
282
              50
283
               0
360
0
 71
               2
 91
        5
 14
-0.5
 24
2.9128518446223954
 14
0.5000000000000002
 24
2.9128518446223954
 14
0.5000000000000002
 24
3.1407027137005707
 14
-0.5
 24
3.1407027137005707
 14
-0.5
 24
2.9128518446223954
  0
POLYLINE
  5
34F
100
AcDbEntity
  8
Dimension
370
               5
390
0
  6
Continuous
 62
               7
100
AcDb2dPolyline
 66
               1
 10
0.0
 20
0.0
 30
0.0
 70
               1
 75
               5
  0
VERTEX
  5
350
100
AcDbEntity
  8
Dimension
370
               5
390
0
  6
Continuous
 62
               7
100
AcDbVertex
100
AcDb2dVertex
 10
31.100167264239996
 20
9.3218072093199993
 30
0.0
  0
VERTEX
  5
351
100
AcDbEntity
  8
Dimension
370
               5
390
0
  6
Continuous
 62
               7
100
AcDbVertex
100
AcDb2dVertex
 10
41.009124021939996
 20
9.3218072093199993
 30
0.0
  0
VERTEX
  5
352
100
AcDbEntity
  8
Dimension
370
               5
390
0
  6
Continuous
 62
               7
100
AcDbVertex
100
AcDb2dVertex
 10
41.009124021939996
 20
7.0640428004199975
 30
0.0
  0
VERTEX
  5
353
100
AcDbEntity
  8
Dimension
370
               5
390
0
  6
Continuous
 62
               7
100
AcDbVertex
100
AcDb2dVertex
 10
31.100167264239996
 20
7.0640428004199975
 30
0.0
  0
SEQEND
  5
354
100
AcDbEntity
  8
Dimension
370
               5
390
0
  6
Continuous
 62
               7
  0
WIPEOUT
  5
355
100
AcDbEntity
  8
Dimension
370
               5
390
0
  6
Continuous
 62
               7
 92
        0
100
AcDbWipeout
 90
        0
 10
41.009124021939996
 20
33.230651800419992
 30
0.0
 11
9.922923410400001
 21
0.0
 31
0.0
 12
0.0
 22
9.922923410400001
 32
0.0
 13
1.0
 23
1.0
340
0
 70
               7
280
               1
281
              50
282
              50
283
               0
360
0
 71
               2
 91
        5
 14
-0.5
 24
2.9094557220951289
 14
0.5000000000000002
 24
2.9094557220951289
 14
0.5000000000000002
 24
3.1369858879063139
 14
-0.5
 24
3.1369858879063139
 14
-0.5
 24
2.9094557220951289
  0
POLYLINE
  5
356
100
AcDbEntity
  8
Dimension
370
               5
390
0
  6
Continuous
 62
               7
100
AcDb2dPolyline
 66
               1
 10
0.0
 20
0.0
 30
0.0
 70
               1
 75
               5
  0
VERTEX
  5
357
100
AcDbEntity
  8
Dimension
370
               5
390
0
  6
Continuous
 62
               7
100
AcDbVertex
100
AcDb2dVertex
 10
41.009124021939996
 20
9.3218072093199993
 30
0.0
  0
VERTEX
  5
358
100
AcDbEntity
  8
Dimension
370
               5
390
0
  6
Continuous
 62
               7
100
AcDbVertex
100
AcDb2dVertex
 10
50.932047432339999
 20
9.3218072093199993
 30
0.0
  0
VERTEX
  5
359
100
AcDbEntity
  8
Dimension
370
               5
390
0
  6
Continuous
 62
               7
100
AcDbVertex
100
AcDb2dVertex
 10
50.932047432339999
 20
7.0640428004199975
 30
0.0
  0
VERTEX
  5
35A
100
AcDbEntity
  8
Dimension
370
               5
390
0
  6
Continuous
 62
               7
100
AcDbVertex
100
AcDb2dVertex
 10
41.009124021939996
 20
7.0640428004199975
 30
0.0
  0
SEQEND
  5
35B
100
AcDbEntity
  8
Dimension
370
               5
390
0
  6
Continuous
 62
               7
  0
WIPEOUT
  5
35C
100
AcDbEntity
  8
Dimension
370
               5
390
0
  6
Continuous
 62
               7
 92
        0
100
AcDbWipeout
 90
        0
 10
16.921481442939996
 20
30.972847391559995
 30
0.0
 11
18.164108502540003
 21
0.0
 31
0.0
 12
0.0
 22
18.164108502540003
 32
0.0
 13
1.0
 23
1.0
340
0
 70
               7
280
               1
281
              50
282
              50
283
               0
360
0
 71
               2
 91
        5
 14
-0.5
 24
1.8162663385211928
 14
0.4999999999999998
 24
1.8162663385211928
 14
0.4999999999999998
 24
1.9405666535377144
 14
-0.5
 24
1.9405666535377144
 14
-0.5
 24
1.8162663385211928
  0
POLYLINE
  5
35D
100
AcDbEntity
  8
Dimension
370
               5
390
0
  6
Continuous
 62
               7
100
AcDb2dPolyline
 66
               1
 10
0.0
 20
0.0
 30
0.0
 70
               1
 75
               5
  0
VERTEX
  5
35E
100
AcDbEntity
  8
Dimension
370
               5
390
0
  6
Continuous
 62
               7
100
AcDbVertex
100
AcDb2dVertex
 10
16.921481442939996
 20
7.0640428004199975
 30
0.0
  0
VERTEX
  5
35F
100
AcDbEntity
  8
Dimension
370
               5
390
0
  6
Continuous
 62
               7
100
AcDbVertex
100
AcDb2dVertex
 10
35.085589945479995
 20
7.0640428004199975
 30
0.0
  0
VERTEX
  5
360
100
AcDbEntity
  8
Dimension
370
               5
390
0
  6
Continuous
 62
               7
100
AcDbVertex
100
AcDb2dVertex
 10
35.085589945479995
 20
4.8062383915599982
 30
0.0
  0
VERTEX
  5
361
100
AcDbEntity
  8
Dimension
370
               5
390
0
  6
Continuous
 62
               7
100
AcDbVertex
100
AcDb2dVertex
 10
16.921481442939996
 20
4.8062383915599982
 30
0.0
  0
SEQEND
  5
362
100
AcDbEntity
  8
Dimension
370
               5
390
0
  6
Continuous
 62
               7
  0
WIPEOUT
  5
363
100
AcDbEntity
  8
Dimension
370
               5
390
0
  6
Continuous
 62
               7
 92
        0
100
AcDbWipeout
 90
        0
 10
35.085589945479995
 20
30.972847391559995
 30
0.0
 11
15.84645748686
 21
0.0
 31
0.0
 12
0.0
 22
15.84645748686
 32
0.0
 13
1.0
 23
1.0
340
0
 70
               7
280
               1
281
              50
282
              50
283
               0
360
0
 71
               2
 91
        5
 14
-0.5
 24
2.0087791458100561
 14
0.5000000000000002
 24
2.0087791458100561
 14
0.5000000000000002
 24
2.1512592181374002
 14
-0.5
 24
2.1512592181374002
 14
-0.5
 24
2.0087791458100561
  0
POLYLINE
  5
364
100
AcDbEntity
  8
Dimension
370
               5
390
0
  6
Continuous
 62
               7
100
AcDb2dPolyline
 66
               1
 10
0.0
 20
0.0
 30
0.0
 70
               1
 75
               5
  0
VERTEX
  5
365
100
AcDbEntity
  8
Dimension
370
               5
390
0
  6
Continuous
 62
               7
100
AcDbVertex
100
AcDb2dVertex
 10
35.085589945479995
 20
7.0640428004199975
 30
0.0
  0
VERTEX
  5
366
100
AcDbEntity
  8
Dimension
370
               5
390
0
  6
Continuous
 62
               7
100
AcDbVertex
100
AcDb2dVertex
 10
50.932047432339999
 20
7.0640428004199975
 30
0.0
  0
VERTEX
  5
367
100
AcDbEntity
  8
Dimension
370
               5
390
0
  6
Continuous
 62
               7
100
AcDbVertex
100
AcDb2dVertex
 10
50.932047432339999
 20
4.8062383915599982
 30
0.0
  0
VERTEX
  5
368
100
AcDbEntity
  8
Dimension
370
               5
390
0
  6
Continuous
 62
               7
100
AcDbVertex
100
AcDb2dVertex
 10
35.085589945479995
 20
4.8062383915599982
 30
0.0
  0
SEQEND
  5
369
100
AcDbEntity
  8
Dimension
370
               5
390
0
  6
Continuous
 62
               7
  0
WIPEOUT
  5
36A
100
AcDbEntity
  8
Dimension
370
               5
390
0
  6
Continuous
 62
               7
 92
        0
100
AcDbWipeout
 90
        0
 10
35.085589945479995
 20
28.715089649319996
 30
0.0
 11
15.84645748686
 21
0.0
 31
0.0
 12
0.0
 22
15.84645748686
 32
0.0
 13
1.0
 23
1.0
340
0
 70
               7
280
               1
281
              50
282
              50
283
               0
360
0
 71
               2
 91
        5
 14
-0.5
 24
2.0087820907345
 14
0.5000000000000002
 24
2.0087820907345
 14
0.5000000000000002
 24
2.1512592181374002
 14
-0.5
 24
2.1512592181374002
 14
-0.5
 24
2.0087820907345
  0
POLYLINE
  5
36B
100
AcDbEntity
  8
Dimension
370
               5
390
0
  6
Continuous
 62
               7
100
AcDb2dPolyline
 66
               1
 10
0.0
 20
0.0
 30
0.0
 70
               1
 75
               5
  0
VERTEX
  5
36C
100
AcDbEntity
  8
Dimension
370
               5
390
0
  6
Continuous
 62
               7
100
AcDbVertex
100
AcDb2dVertex
 10
35.085589945479995
 20
4.8062383915599982
 30
0.0
  0
VERTEX
  5
36D
100
AcDbEntity
  8
Dimension
370
               5
390
0
  6
Continuous
 62
               7
100
AcDbVertex
100
AcDb2dVertex
 10
50.932047432339999
 20
4.8062383915599982
 30
0.0
  0
VERTEX
  5
36E
100
AcDbEntity
  8
Dimension
370
               5
390
0
  6
Continuous
 62
               7
100
AcDbVertex
100
AcDb2dVertex
 10
50.932047432339999
 20
2.5484806493199978
 30
0.0
  0
VERTEX
  5
36F
100
AcDbEntity
  8
Dimension
370
               5
390
0
  6
Continuous
 62
               7
100
AcDbVertex
100
AcDb2dVertex
 10
35.085589945479995
 20
2.5484806493199978
 30
0.0
  0
SEQEND
  5
370
100
AcDbEntity
  8
Dimension
370
               5
390
0
  6
Continuous
 62
               7
  0
WIPEOUT
  5
371
100
AcDbEntity
  8
Dimension
370
               5
390
0
  6
Continuous
 62
               7
 92
        0
100
AcDbWipeout
 90
        0
 10
16.921481442939996
 20
28.715089649319996
 30
0.0
 11
18.164108502540003
 21
0.0
 31
0.0
 12
0.0
 22
18.164108502540003
 32
0.0
 13
1.0
 23
1.0
340
0
 70
               7
280
               1
281
              50
282
              50
283
               0
360
0
 71
               2
 91
        5
 14
-0.5
 24
1.8162689076877443
 14
0.4999999999999998
 24
1.8162689076877443
 14
0.4999999999999998
 24
1.9405666535377144
 14
-0.5
 24
1.9405666535377144
 14
-0.5
 24
1.8162689076877443
  0
POLYLINE
  5
372
100
AcDbEntity
  8
Dimension
370
               5
390
0
  6
Continuous
 62
               7
100
AcDb2dPolyline
 66
               1
 10
0.0
 20
0.0
 30
0.0
 70
               1
 75
               5
  0
VERTEX
  5
373
100
AcDbEntity
  8
Dimension
370
               5
390
0
  6
Continuous
 62
               7
100
AcDbVertex
100
AcDb2dVertex
 10
16.921481442939996
 20
4.8062383915599982
 30
0.0
  0
VERTEX
  5
374
100
AcDbEntity
  8
Dimension
370
               5
390
0
  6
Continuous
 62
               7
100
AcDbVertex
100
AcDb2dVertex
 10
35.085589945479995
 20
4.8062383915599982
 30
0.0
  0
VERTEX
  5
375
100
AcDbEntity
  8
Dimension
370
               5
390
0
  6
Continuous
 62
               7
100
AcDbVertex
100
AcDb2dVertex
 10
35.085589945479995
 20
2.5484806493199978
 30
0.0
  0
VERTEX
  5
376
100
AcDbEntity
  8
Dimension
370
               5
390
0
  6
Continuous
 62
               7
100
AcDbVertex
100
AcDb2dVertex
 10
16.921481442939996
 20
2.5484806493199978
 30
0.0
  0
SEQEND
  5
377
100
AcDbEntity
  8
Dimension
370
               5
390
0
  6
Continuous
 62
               7
  0
MTEXT
  5
378
100
AcDbEntity
  8
None
390
0
 62
               7
100
AcDbMText
 10
17.768147262939998
 20
8.6825421645579048
 30
0.0
 40
0.8421341405039061
 41
0.0
 71
               1
 72
               1
  1
Status: Released
  7
Arial
 73
               1
 44
0.9673603504928809
  0
MTEXT
  5
379
100
AcDbEntity
  8
None
390
0
 62
               7
100
AcDbMText
 10
17.768147262939998
 20
6.4228710908979041
 30
0.0
 40
0.8421341405039061
 41
0.0
 71
               1
 72
               1
  1
Drawing: H. Hansen
  7
Arial
 73
               1
 44
0.9673603504928809
  0
WIPEOUT
  5
37A
100
AcDbEntity
  8
None
370
               5
390
0
  6
Continuous
 62
               7
 92
        0
100
AcDbWipeout
 90
        0
 10
31.946833084239998
 20
33.771695592708994
 30
0.0
 11
5.2563868622737902
 21
0.0
 31
0.0
 12
0.0
 22
5.2563868622737902
 32
0.0
 13
1.0
 23
1.0
340
0
 70
               7
280
               1
281
              50
282
              50
283
               0
360
0
 71
               2
 91
        5
 14
-0.5
 24
5.4780599650690345
 14
0.4999999999999991
 24
5.4780599650690345
 14
0.4999999999999991
 24
5.2207892675758858
 14
-0.5
 24
5.2207892675758858
 14
-0.5
 24
5.4780599650690345
  0
MTEXT
  5
37B
100
AcDbEntity
  8
None
390
0
 62
               7
100
AcDbMText
 10
31.946833084239998
 20
8.7412021058979033
 30
0.0
 40
0.8421341405039061
 41
0.0
 71
               1
 72
               1
  1
Scale: 3:1
  7
Arial
 73
               1
 44
0.9673603504928809
  0
MTEXT
  5
37C
100
AcDbEntity
  8
None
390
0
 62
               7
100
AcDbMText
 10
41.855789841939995
 20
8.680655499777906
 30
0.0
 40
0.8421341405039061
 41
0.0
 71
               1
 72
               1
  1
Rev: B
  7
Arial
 73
               1
 44
0.9673603504928809
  0
MTEXT
  5
37D
100
AcDbEntity
  8
None
390
0
 62
               7
100
AcDbMText
 10
35.932255765479994
 20
6.2349846121179038
 30
0.0
 40
0.8421341405039061
 41
0.0
 71
               1
 72
               1
  1
Date: 7/12/05
  7
Arial
 73
               1
 44
0.9673603504928809
  0
MTEXT
  5
37E
100
AcDbEntity
  8
None
390
0
 62
               7
100
AcDbMText
 10
17.679827351259995
 20
3.9953069247144981
 30
0.0
 40
0.5894924660624999
 41
18.164108502540003
 71
               1
 72
               1
  1
File: SG-BGA-6147 Dwg
  7
Arial
 73
               1
 44
0.9673603504928806
  0
WIPEOUT
  5
37F
100
AcDbEntity
  8
Dimension
370
               5
390
0
  6
Continuous
 62
               7
 92
        0
100
AcDbWipeout
 90
        0
 10
-16.81815148406001
 20
28.715089649319996
 30
0.0
 11
33.739632927000002
 21
0.0
 31
0.0
 12
0.0
 22
33.739632927000002
 32
0.0
 13
1.0
 23
1.0
340
0
 70
               7
280
               1
281
              50
282
              50
283
               0
360
0
 71
               2
 91
        5
 14
-0.5
 24
1.1417096147947075
 14
0.5
 24
1.1417096147947075
 14
0.5
 24
1.2755451595046927
 14
-0.5
 24
1.2755451595046927
 14
-0.5
 24
1.1417096147947075
  0
POLYLINE
  5
380
100
AcDbEntity
  8
Dimension
370
               5
390
0
  6
Continuous
 62
               7
100
AcDb2dPolyline
 66
               1
 10
0.0
 20
0.0
 30
0.0
 70
               1
 75
               5
  0
VERTEX
  5
381
100
AcDbEntity
  8
Dimension
370
               5
390
0
  6
Continuous
 62
               7
100
AcDbVertex
100
AcDb2dVertex
 10
-16.81815148406001
 20
7.0640428004199975
 30
0.0
  0
VERTEX
  5
382
100
AcDbEntity
  8
Dimension
370
               5
390
0
  6
Continuous
 62
               7
100
AcDbVertex
100
AcDb2dVertex
 10
16.921481442939996
 20
7.0640428004199975
 30
0.0
  0
VERTEX
  5
383
100
AcDbEntity
  8
Dimension
370
               5
390
0
  6
Continuous
 62
               7
100
AcDbVertex
100
AcDb2dVertex
 10
16.921481442939996
 20
2.5484806493199978
 30
0.0
  0
VERTEX
  5
384
100
AcDbEntity
  8
Dimension
370
               5
390
0
  6
Continuous
 62
               7
100
AcDbVertex
100
AcDb2dVertex
 10
-16.81815148406001
 20
2.5484806493199978
 30
0.0
  0
SEQEND
  5
385
100
AcDbEntity
  8
Dimension
370
               5
390
0
  6
Continuous
 62
               7
  0
WIPEOUT
  5
386
100
AcDbEntity
  8
Dimension
370
               5
390
0
  6
Continuous
 62
               7
 92
        0
100
AcDbWipeout
 90
        0
 10
-16.81815148406001
 20
33.230651800419992
 30
0.0
 11
33.739632927000002
 21
0.0
 31
0.0
 12
0.0
 22
33.739632927000002
 32
0.0
 13
1.0
 23
1.0
340
0
 70
               7
280
               1
281
              50
282
              50
283
               0
360
0
 71
               2
 91
        5
 14
-0.5
 24
1.2086278811281033
 14
0.5
 24
1.2086278811281033
 14
0.5
 24
1.2755451595046927
 14
-0.5
 24
1.2755451595046927
 14
-0.5
 24
1.2086278811281033
  0
POLYLINE
  5
387
100
AcDbEntity
  8
Dimension
370
               5
390
0
  6
Continuous
 62
               7
100
AcDb2dPolyline
 66
               1
 10
0.0
 20
0.0
 30
0.0
 70
               1
 75
               5
  0
VERTEX
  5
388
100
AcDbEntity
  8
Dimension
370
               5
390
0
  6
Continuous
 62
               7
100
AcDbVertex
100
AcDb2dVertex
 10
-16.81815148406001
 20
9.3218072093199993
 30
0.0
  0
VERTEX
  5
389
100
AcDbEntity
  8
Dimension
370
               5
390
0
  6
Continuous
 62
               7
100
AcDbVertex
100
AcDb2dVertex
 10
16.921481442939996
 20
9.3218072093199993
 30
0.0
  0
VERTEX
  5
38A
100
AcDbEntity
  8
Dimension
370
               5
390
0
  6
Continuous
 62
               7
100
AcDbVertex
100
AcDb2dVertex
 10
16.921481442939996
 20
7.0640428004199975
 30
0.0
  0
VERTEX
  5
38B
100
AcDbEntity
  8
Dimension
370
               5
390
0
  6
Continuous
 62
               7
100
AcDbVertex
100
AcDb2dVertex
 10
-16.81815148406001
 20
7.0640428004199975
 30
0.0
  0
SEQEND
  5
38C
100
AcDbEntity
  8
Dimension
370
               5
390
0
  6
Continuous
 62
               7
  0
MTEXT
  5
38D
100
AcDbEntity
  8
None
390
0
 62
               7
100
AcDbMText
 10
0.9849973794399922
 20
8.7254159529340729
 30
0.0
 40
0.9823410315468748
 41
0.0
 71
               2
 72
               1
  1
SG-BGA-6147 Drawing
  7
Arial (bold)
 73
               1
 44
0.9925958378970426
  0
MTEXT
  5
38E
100
AcDbEntity
  8
None
390
0
 62
               7
100
AcDbMText
 10
1.3711503266199934
 20
6.7857222141575289
 30
0.0
 40
0.6698964655195312
 41
24.492162174480001
 71
               2
 72
               1
  1
© 2005 IRONWOOD ELECTRONICS, INC.\PPO BOX 21151 ST. PAUL, MN  55121\PTele: (651) 452-8100\Pwww.ironwoodelectronics.com
  7
Arial
 73
               1
 44
0.9673603504928805
  0
INSERT
  5
38F
100
AcDbEntity
  8
None
390
0
 62
               7
100
AcDbBlockReference
  2
IE i logo
 10
-13.208415093800006
 20
4.8415450229199983
 30
0.0
 41
0.6666660000000001
 42
0.6666660000000001
 43
0.6666660000000001
  0
MTEXT
  5
390
100
AcDbEntity
  8
None
390
0
 62
               7
100
AcDbMText
 10
35.932255765479994
 20
4.1817666653379035
 30
0.0
 40
0.8421341405039061
 41
0.0
 71
               1
 72
               1
  1
Modified: 05/28/08
  7
Arial
 73
               1
 44
0.9673603504928809
  0
WIPEOUT
  5
391
100
AcDbEntity
  8
None
370
               9
390
0
  6
Continuous
 62
               7
 92
        0
100
AcDbWipeout
 90
        0
 10
54.254777442939996
 20
29.501342729732794
 30
0.0
 11
10.141156849607661
 21
0.0
 31
0.0
 12
0.0
 22
10.141156849607661
 32
0.0
 13
1.0
 23
1.0
340
0
 70
               7
280
               1
281
              50
282
              50
283
               0
360
0
 71
               2
 91
        5
 14
-0.5
 24
3.0802390583291617
 14
0.4999999999999993
 24
3.0802390583291617
 14
0.4999999999999993
 24
2.8886806178557398
 14
-0.5
 24
2.8886806178557398
 14
-0.5
 24
3.0802390583291617
  0
MTEXT
  5
392
100
AcDbEntity
  8
None
390
0
 62
               7
100
AcDbMText
 10
54.254777442939996
 20
4.9252915836177982
 30
0.0
 40
1.1789849321249999
 41
0.0
 71
               1
 72
               1
  1
PAGE 2 OF 4
  7
Arial (bold)
 73
               1
 44
0.9925958378970426
  0
INSERT
  5
393
100
AcDbEntity
  8
None
390
0
 62
               7
100
AcDbBlockReference
  2
Group
 10
26.764411599999995
 20
0.5978025999999977
 30
0.0
  0
DIMENSION
  5
394
100
AcDbEntity
  8
Dimension
370
               9
390
0
  6
Continuous
 62
              12
100
AcDbDimension
  2
*D5
 10
12.792501599999996
 20
63.199999999999996
 30
0.0
 11
23.600000000000001
 21
63.199999999999996
 31
0.0
 70
             128
 71
               5
 72
               1
 41
1.0
 42
0.0
  3
IE Standard
100
AcDbAlignedDimension
 13
35.792501599999994
 23
55.393842599999992
 33
0.0
 14
12.792501599999996
 24
55.648842599999988
 34
0.0
100
AcDbRotatedDimension
1001
ACAD
1000
DSTYLE
1002
{
1070
             340
1005
31
1070
             147
1040
0.132291534375
1002
}
  0
DIMENSION
  5
395
100
AcDbEntity
  8
Dimension
370
               9
390
0
  6
Continuous
 62
              12
100
AcDbDimension
  2
*D6
 10
0.0999999999999979
 20
55.648842599999988
 30
0.0
 11
0.0999999999999979
 21
44.148842599999995
 31
0.0
 70
             128
 71
               5
 72
               1
 41
1.0
 42
0.0
  3
IE Standard
100
AcDbAlignedDimension
 13
12.792501599999996
 23
32.648842599999995
 33
0.0
 14
12.792501599999996
 24
55.648842599999988
 34
0.0
 50
90.0
100
AcDbRotatedDimension
1001
ACAD
1000
DSTYLE
1002
{
1070
             340
1005
31
1070
             147
1040
0.132291534375
1002
}
  0
DIMENSION
  5
396
100
AcDbEntity
  8
Dimension
370
               9
390
0
  6
Continuous
 62
              12
100
AcDbDimension
  2
*D7
 10
19.792501599999994
 20
27.150000000000002
 30
0.0
 11
16.626403598696463
 21
27.150000000000002
 31
0.0
 70
             128
 71
               5
 72
               1
 41
1.0
 42
0.0
  3
IE Standard
100
AcDbAlignedDimension
 13
20.792501599999994
 23
32.633842599999994
 33
0.0
 14
19.792501599999994
 24
32.633842599999994
 34
0.0
100
AcDbRotatedDimension
1001
ACAD
1000
DSTYLE
1002
{
1070
             340
1005
31
1070
               3
1000
<>mm typ.
1070
             174
1070
               0
1070
             147
1040
0.132291534375
1002
}
  0
DIMENSION
  5
397
100
AcDbEntity
  8
Dimension
370
               9
390
0
  6
Continuous
 62
              12
100
AcDbDimension
  2
*D8
 10
35.554431599999994
 20
48.740202599999989
 30
0.0
 11
42.349955021446192
 21
46.899905344143164
 31
0.0
 70
               3
 71
               5
 72
               1
 41
1.0
 42
0.0
  3
IE Standard
100
AcDbDiametricDimension
 15
36.030571599999995
 25
48.557482599999993
 35
0.0
 40
4.6265199999999993
1001
ACAD
1000
DSTYLE
1002
{
1070
             172
1070
               0
1070
             289
1070
               0
1070
             342
1005
4E
1070
             340
1005
31
1070
              75
1070
               1
1070
              76
1070
               1
1070
               3
1000
mm x576
1070
             174
1070
               0
1070
             147
1040
0.132291534375
1002
}
  0
INSERT
  5
398
100
AcDbEntity
  8
None
390
0
 62
               7
100
AcDbBlockReference
  2
Group-2
 10
26.764411599999995
 20
0.5978025999999977
 30
0.0
  0
DIMENSION
  5
399
100
AcDbEntity
  8
Dimension
370
               9
390
0
  6
Continuous
 62
              12
100
AcDbDimension
  2
*D11
 10
12.792501599999996
 20
60.123843268750001
 30
0.0
 11
16.199999999999999
 21
60.123843268750001
 31
0.0
 70
             128
 71
               5
 72
               1
 41
1.0
 42
0.0
  3
IE Standard
100
AcDbAlignedDimension
 13
10.105001599999994
 23
57.961342599999988
 33
0.0
 14
12.792501599999996
 24
55.648842599999988
 34
0.0
100
AcDbRotatedDimension
1001
ACAD
1000
DSTYLE
1002
{
1070
             271
1070
               4
1070
             340
1005
31
1070
             140
1040
0.8421336100260418
1070
             174
1070
               0
1070
             147
1040
0.132291534375
1002
}
  0
DIMENSION
  5
39A
100
AcDbEntity
  8
Dimension
370
               9
390
0
  6
Continuous
 62
              12
100
AcDbDimension
  2
*D12
 10
7.0
 20
55.648842599999988
 30
0.0
 11
7.0
 21
56.805092599999988
 31
0.0
 71
               5
 72
               1
 41
1.0
 42
0.0
  3
IE Standard
100
AcDbAlignedDimension
 13
10.230001599999994
 23
57.961342599999988
 33
0.0
 14
12.792501599999996
 24
55.648842599999988
 34
0.0
 50
90.0
100
AcDbRotatedDimension
1001
ACAD
1000
DSTYLE
1002
{
1070
             271
1070
               4
1070
             340
1005
31
1070
             140
1040
0.8421336100260418
1070
             147
1040
0.132291534375
1002
}
  0
DIMENSION
  5
39B
100
AcDbEntity
  8
Dimension
370
               9
390
0
  6
Continuous
 62
              12
100
AcDbDimension
  2
*D13
 10
35.792501599999994
 20
60.800000000000004
 30
0.0
 11
32.818479488471858
 21
60.800000000000004
 31
0.0
 70
             128
 71
               5
 72
               1
 41
1.0
 42
0.0
  3
IE Standard
100
AcDbAlignedDimension
 13
37.730001600000001
 23
57.961342599999988
 33
0.0
 14
35.792501599999994
 24
55.648842599999988
 34
0.0
100
AcDbRotatedDimension
1001
ACAD
1000
DSTYLE
1002
{
1070
             340
1005
31
1070
             140
1040
0.8421336100260418
1070
             174
1070
               0
1070
             147
1040
0.132291534375
1002
}
  0
DIMENSION
  5
39C
100
AcDbEntity
  8
Dimension
370
               9
390
0
  6
Continuous
 62
              12
100
AcDbDimension
  2
*D14
 10
6.3000000000000007
 20
32.648842599999995
 30
0.0
 11
6.3000000000000007
 21
31.492592599999995
 31
0.0
 71
               5
 72
               1
 41
1.0
 42
0.0
  3
IE Standard
100
AcDbAlignedDimension
 13
10.230001599999994
 23
30.336342599999991
 33
0.0
 14
12.792501599999996
 24
32.648842599999995
 34
0.0
 50
90.0
100
AcDbRotatedDimension
1001
ACAD
1000
DSTYLE
1002
{
1070
             340
1005
31
1070
             140
1040
0.8421336100260418
1070
             147
1040
0.132291534375
1002
}
  0
WIPEOUT
  5
39D
100
AcDbEntity
  8
None
370
               9
390
0
  6
Continuous
 62
              12
 92
        0
100
AcDbWipeout
 90
        0
 10
42.200000000000003
 20
60.914295537499996
 30
0.0
 11
7.2201781444318787
 21
0.0
 31
0.0
 12
0.0
 22
7.2201781444318787
 32
0.0
 13
1.0
 23
1.0
340
0
 70
               7
280
               1
281
              50
282
              50
283
               0
360
0
 71
               2
 91
        5
 14
-0.5
 24
4.1240946520383854
 14
0.4999999999999998
 24
4.1240946520383854
 14
0.4999999999999998
 24
3.9367982397548613
 14
-0.5
 24
3.9367982397548613
 14
-0.5
 24
4.1240946520383854
  0
MTEXT
  5
39E
100
AcDbEntity
  8
None
390
0
 62
              12
100
AcDbMText
 10
42.200000000000003
 20
35.883801335026035
 30
0.0
 40
0.8421336100260418
 41
0.0
 71
               1
 72
               1
  1
socket outline
  7
Arial
 73
               1
 44
0.9673603504928806
  0
LINE
  5
39F
100
AcDbEntity
  8
None
370
               9
390
0
  6
Continuous
 62
              12
100
AcDbLine
 10
42.200000000000003
 20
35.423843268749991
 30
0.0
 11
37.855001600000001
 21
35.423843268749991
 31
0.0
  0
SOLID
  5
3A0
100
AcDbEntity
  8
None
370
               9
390
0
 62
              12
100
AcDbTrace
 10
37.855001600000001
 20
35.423843268749991
 30
0.0
 11
38.53247894986572
 21
35.605372777536886
 31
0.0
 12
38.53247894986572
 22
35.242313759963096
 32
0.0
 13
38.53247894986572
 23
35.242313759963096
 33
0.0
  0
ENDSEC
  0
SECTION
  2
OBJECTS
  0
DICTIONARY
  5
19
100
AcDbDictionary
280
               0
281
               1
  3
ACAD_GROUP
350
1A
  3
ACAD_MLINESTYLE
350
1B
  3
ACAD_LAYOUT
350
1E
  3
ACAD_PLOTSETTINGS
350
22
  3
ACAD_PLOTSTYLENAME
350
1F
  3
ACAD_WIPEOUT_VARS
350
23
  0
DICTIONARY
  5
1A
102
{ACAD_REACTORS
330
19
102
}
100
AcDbDictionary
280
               0
281
               1
  0
DICTIONARY
  5
1B
102
{ACAD_REACTORS
330
19
102
}
100
AcDbDictionary
280
               0
281
               1
  3
Standard
350
1C
  0
MLINESTYLE
  5
1C
102
{ACAD_REACTORS
330
1B
102
}
100
AcDbMlineStyle
  2
Standard
 70
               0
  3

 62
               0
 51
90.0
 52
90.0
 71
               2
 49
0.5
 62
             256
  6
ByLayer
 49
-0.5
 62
             256
  6
ByLayer
  0
ACDBDICTIONARYWDFLT
  5
1F
102
{ACAD_REACTORS
330
19
102
}
100
AcDbDictionary
281
               1
  3
Normal
350
1D
100
AcDbDictionaryWithDefault
340
1D
  0
ACDBPLACEHOLDER
  5
1D
102
{ACAD_REACTORS
330
1F
102
}
  0
LAYOUT
  5
20
102
{ACAD_REACTORS
330
1E
102
}
100
AcDbPlotSettings
  1

  2

  4

  6

 40
0.0
 41
0.0
 42
0.0
 43
0.0
 44
0.0
 45
0.0
 46
0.0
 47
0.0
 48
0.0
 49
0.0
140
0.0
141
0.0
142
1.0
143
1.0
 70
            1024
 72
               0
 73
               0
 74
               0
  7

 75
               0
147
1.0
148
0.0
149
0.0
100
AcDbLayout
  1
Model
 70
               0
 71
               0
 10
0.0
 20
0.0
 11
0.0
 21
0.0
 12
0.0
 22
0.0
 32
0.0
 14
0.0
 24
0.0
 34
0.0
 15
0.0
 25
0.0
 35
0.0
146
0.0
 13
0.0
 23
0.0
 33
0.0
 16
0.0
 26
0.0
 36
0.0
 17
0.0
 27
0.0
 37
0.0
 76
               0
330
A
331
0
345
0
346
0
  0
LAYOUT
  5
21
102
{ACAD_REACTORS
330
1E
102
}
100
AcDbPlotSettings
  1

  2

  4

  6

 40
0.0
 41
0.0
 42
0.0
 43
0.0
 44
0.0
 45
0.0
 46
0.0
 47
0.0
 48
0.0
 49
0.0
140
0.0
141
0.0
142
1.0
143
1.0
 70
               0
 72
               0
 73
               0
 74
               0
  7

 75
               0
147
1.0
148
0.0
149
0.0
100
AcDbLayout
  1
Layout1
 70
               0
 71
               0
 10
0.0
 20
0.0
 11
0.0
 21
0.0
 12
0.0
 22
0.0
 32
0.0
 14
0.0
 24
0.0
 34
0.0
 15
0.0
 25
0.0
 35
0.0
146
0.0
 13
0.0
 23
0.0
 33
0.0
 16
0.0
 26
0.0
 36
0.0
 17
0.0
 27
0.0
 37
0.0
 76
               0
330
B
331
0
345
0
346
0
  0
DICTIONARY
  5
1E
102
{ACAD_REACTORS
330
19
102
}
100
AcDbDictionary
280
               0
281
               1
  3
Layout1
350
21
  3
Model
350
20
  0
DICTIONARY
  5
22
102
{ACAD_REACTORS
330
19
102
}
100
AcDbDictionary
280
               0
281
               1
  0
WIPEOUTVARIABLES
  5
23
100
AcDbWipeoutVariables
 70
               0
  0
ENDSEC
  0
EOF
