  0
SECTION
  2
HEADER
  9
$ACADVER
  1
AC1015
  9
$ACADMAINTVER
 70
               6
  9
$DWGCODEPAGE
  3
ANSI_1252
  9
$INSBASE
 10
0.0
 20
0.0
 30
0.0
  9
$EXTMIN
 10
4.9730646840599952
 20
1.5731445506799977
 30
-0.6867421142222221
  9
$EXTMAX
 10
47.693880125519996
 20
32.72333351759999
 30
0.6867421142222221
  9
$LIMMIN
 10
0.0
 20
0.0
  9
$LIMMAX
 10
0.0
 20
0.0
  9
$ORTHOMODE
 70
               0
  9
$REGENMODE
 70
               1
  9
$FILLMODE
 70
               1
  9
$QTEXTMODE
 70
               0
  9
$MIRRTEXT
 70
               1
  9
$LTSCALE
 40
4.2333417999999998
  9
$ATTMODE
 70
               1
  9
$TEXTSIZE
 40
0.2
  9
$TRACEWID
 40
1.0
  9
$TEXTSTYLE
  7
Standard
  9
$CLAYER
  8
None
  9
$CELTYPE
  6
Continuous
  9
$CECOLOR
 62
             256
  9
$CELTSCALE
 40
1.0
  9
$DISPSILH
 70
               0
  9
$DIMSCALE
 40
1.0
  9
$DIMASZ
 40
0.529167725
  9
$DIMEXO
 40
0.3175006357885214
  9
$DIMDLI
 40
6.9999859934672708
  9
$DIMRND
 40
0.0
  9
$DIMDLE
 40
0.0
  9
$DIMEXE
 40
0.6350012715770428
  9
$DIMTP
 40
0.0
  9
$DIMTM
 40
0.0
  9
$DIMTXT
 40
0.4210651041666666
  9
$DIMCEN
 40
0.0
  9
$DIMTSZ
 40
0.0
  9
$DIMTOL
 70
               0
  9
$DIMLIM
 70
               0
  9
$DIMTIH
 70
               1
  9
$DIMTOH
 70
               1
  9
$DIMSE1
 70
               0
  9
$DIMSE2
 70
               0
  9
$DIMTAD
 70
               0
  9
$DIMZIN
 70
              11
  9
$DIMBLK
  1
VW_FILLEDARROW
  9
$DIMASO
 70
               1
  9
$DIMSHO
 70
               1
  9
$DIMPOST
  1
<>mm
  9
$DIMAPOST
  1
[]"
  9
$DIMALT
 70
               0
  9
$DIMALTD
 70
               3
  9
$DIMALTF
 40
0.0393700787401575
  9
$DIMLFAC
 40
1.0
  9
$DIMTOFL
 70
               1
  9
$DIMTVP
 40
0.0
  9
$DIMTIX
 70
               1
  9
$DIMSOXD
 70
               0
  9
$DIMSAH
 70
               0
  9
$DIMBLK1
  1

  9
$DIMBLK2
  1

  9
$DIMSTYLE
  2
IE Standard
  9
$DIMCLRD
 70
               0
  9
$DIMCLRE
 70
               0
  9
$DIMCLRT
 70
               0
  9
$DIMTFAC
 40
1.0
  9
$DIMGAP
 40
0.0
  9
$DIMJUST
 70
               0
  9
$DIMSD1
 70
               0
  9
$DIMSD2
 70
               0
  9
$DIMTOLJ
 70
               1
  9
$DIMTZIN
 70
              11
  9
$DIMALTZ
 70
               3
  9
$DIMALTTZ
 70
               3
  9
$DIMUPT
 70
               0
  9
$DIMDEC
 70
               2
  9
$DIMTDEC
 70
               2
  9
$DIMALTU
 70
               2
  9
$DIMALTTD
 70
               2
  9
$DIMTXSTY
  7
Helvetica
  9
$DIMAUNIT
 70
               0
  9
$DIMADEC
 70
               0
  9
$DIMALTRND
 40
0.0
  9
$DIMAZIN
 70
               0
  9
$DIMDSEP
 70
              46
  9
$DIMATFIT
 70
               0
  9
$DIMFRAC
 70
               2
  9
$DIMLDRBLK
  1

  9
$DIMLUNIT
 70
               2
  9
$DIMLWD
 70
              -2
  9
$DIMLWE
 70
              -2
  9
$DIMTMOVE
 70
               0
  9
$LUNITS
 70
               2
  9
$LUPREC
 70
               4
  9
$SKETCHINC
 40
0.1
  9
$FILLETRAD
 40
0.0
  9
$AUNITS
 70
               0
  9
$AUPREC
 70
               0
  9
$MENU
  1
acad
  9
$ELEVATION
 40
0.0
  9
$PELEVATION
 40
0.0
  9
$THICKNESS
 40
0.0
  9
$LIMCHECK
 70
               0
  9
$CHAMFERA
 40
0.0
  9
$CHAMFERB
 40
0.0
  9
$CHAMFERC
 40
0.0
  9
$CHAMFERD
 40
0.0
  9
$SKPOLY
 70
               0
  9
$TDCREATE
 40
2454679.536689815
  9
$TDUCREATE
 40
0.000000000
  9
$TDUPDATE
 40
2454679.536689815
  9
$TDUUPDATE
 40
0.000000000
  9
$TDINDWG
 40
0.0000000000
  9
$TDUSRTIMER
 40
0.0000000000
  9
$USRTIMER
 70
               1
  9
$ANGBASE
 50
0.0
  9
$ANGDIR
 70
               0
  9
$PDMODE
 70
               1
  9
$PDSIZE
 40
-2.0
  9
$PLINEWID
 40
0.0
  9
$SPLFRAME
 70
               0
  9
$SPLINETYPE
 70
               6
  9
$SPLINESEGS
 70
               8
  9
$HANDSEED
  5
38F
  9
$SURFTAB1
 70
               6
  9
$SURFTAB2
 70
               6
  9
$SURFTYPE
 70
               6
  9
$SURFU
 70
               6
  9
$SURFV
 70
               6
  9
$UCSBASE
  2

  9
$UCSNAME
  2

  9
$UCSORG
 10
0.0
 20
0.0
 30
0.0
  9
$UCSXDIR
 10
1.0
 20
0.0
 30
0.0
  9
$UCSYDIR
 10
0.0
 20
1.0
 30
0.0
  9
$UCSORTHOREF
  2

  9
$UCSORTHOVIEW
 70
               0
  9
$UCSORGTOP
 10
0.0
 20
0.0
 30
0.0
  9
$UCSORGBOTTOM
 10
0.0
 20
0.0
 30
0.0
  9
$UCSORGLEFT
 10
0.0
 20
0.0
 30
0.0
  9
$UCSORGRIGHT
 10
0.0
 20
0.0
 30
0.0
  9
$UCSORGFRONT
 10
0.0
 20
0.0
 30
0.0
  9
$UCSORGBACK
 10
0.0
 20
0.0
 30
0.0
  9
$PUCSBASE
  2

  9
$PUCSNAME
  2

  9
$PUCSORG
 10
0.0
 20
0.0
 30
0.0
  9
$PUCSXDIR
 10
1.0
 20
0.0
 30
0.0
  9
$PUCSYDIR
 10
0.0
 20
1.0
 30
0.0
  9
$PUCSORTHOREF
  2

  9
$PUCSORTHOVIEW
 70
               0
  9
$PUCSORGTOP
 10
0.0
 20
0.0
 30
0.0
  9
$PUCSORGBOTTOM
 10
0.0
 20
0.0
 30
0.0
  9
$PUCSORGLEFT
 10
0.0
 20
0.0
 30
0.0
  9
$PUCSORGRIGHT
 10
0.0
 20
0.0
 30
0.0
  9
$PUCSORGFRONT
 10
0.0
 20
0.0
 30
0.0
  9
$PUCSORGBACK
 10
0.0
 20
0.0
 30
0.0
  9
$USERI1
 70
               0
  9
$USERI2
 70
               0
  9
$USERI3
 70
               0
  9
$USERI4
 70
               0
  9
$USERI5
 70
               0
  9
$USERR1
 40
0.0
  9
$USERR2
 40
0.0
  9
$USERR3
 40
0.0
  9
$USERR4
 40
0.0
  9
$USERR5
 40
0.0
  9
$WORLDVIEW
 70
               1
  9
$SHADEDGE
 70
               3
  9
$SHADEDIF
 70
              70
  9
$TILEMODE
 70
               1
  9
$MAXACTVP
 70
              64
  9
$PINSBASE
 10
0.0
 20
0.0
 30
0.0
  9
$PLIMCHECK
 70
               0
  9
$PEXTMIN
 10
1.0000000000000000E+20
 20
1.0000000000000000E+20
 30
1.0000000000000000E+20
  9
$PEXTMAX
 10
-1.0000000000000000E+20
 20
-1.0000000000000000E+20
 30
-1.0000000000000000E+20
  9
$PLIMMIN
 10
0.0
 20
0.0
  9
$PLIMMAX
 10
12.0
 20
9.0
  9
$UNITMODE
 70
               0
  9
$VISRETAIN
 70
               0
  9
$PLINEGEN
 70
               1
  9
$PSLTSCALE
 70
               0
  9
$TREEDEPTH
 70
            3020
  9
$CMLSTYLE
  2
Standard
  9
$CMLJUST
 70
               0
  9
$CMLSCALE
 40
1.0
  9
$PROXYGRAPHICS
 70
               0
  9
$MEASUREMENT
 70
               1
  9
$CELWEIGHT
370
               0
  9
$ENDCAPS
280
               0
  9
$JOINSTYLE
280
               0
  9
$LWDISPLAY
290
               1
  9
$INSUNITS
 70
               4
  9
$HYPERLINKBASE
  1

  9
$STYLESHEET
  1

  9
$XEDIT
290
               1
  9
$CEPSNTYPE
380
               0
  9
$PSTYLEMODE
290
               1
  9
$FINGERPRINTGUID
  2

  9
$VERSIONGUID
  2

  9
$EXTNAMES
290
               1
  9
$PSVPSCALE
 40
0.0
  0
ENDSEC
  0
SECTION
  2
CLASSES
  0
CLASS
  1
LWPOLYLINE
  2
AcDbPolyline
  3
AutoCAD 2000
 90
        0
280
               0
281
               1
  0
CLASS
  1
IMAGE
  2
AcDbRasterImage
  3
ISM
 90
      127
280
               0
281
               1
  0
CLASS
  1
OLE2FRAME
  2
AcDbOle2Frame
  3
AutoCAD 2000
 90
        0
280
               0
281
               1
  0
CLASS
  1
HATCH
  2
AcDbHatch
  3
AutoCAD 2000
 90
        0
280
               0
281
               1
  0
CLASS
  1
DICTIONARYVAR
  2
AcDbDictionaryVar
  3
AutoCAD 2000
 90
        0
280
               0
281
               0
  0
CLASS
  1
RASTERVARIABLES
  2
AcDbRasterVariables
  3
ISM
 90
        0
280
               0
281
               0
  0
CLASS
  1
IMAGEDEF
  2
AcDbRasterImageDef
  3
ISM
 90
        0
280
               0
281
               0
  0
CLASS
  1
IMAGEDEF_REACTOR
  2
AcDbRasterImageDefReactor
  3
ISM
 90
        1
280
               0
281
               0
  0
CLASS
  1
IDBUFFER
  2
AcDbIdBuffer
  3
AutoCAD 2000
 90
        0
280
               0
281
               0
  0
CLASS
  1
SPATIAL_FILTER
  2
AcDbSpatialFilter
  3
AutoCAD 2000
 90
        0
280
               0
281
               0
  0
CLASS
  1
XRECORD
  2
AcDbXrecord
  3
AutoCAD 2000
 90
        0
280
               0
281
               0
  0
CLASS
  1
SORTENTSTABLE
  2
AcDbSortentsTable
  3
AutoCAD 2000
 90
        0
280
               0
281
               0
  0
CLASS
  1
LAYER_INDEX
  2
AcDbLayerIndex
  3
AutoCAD 2000
 90
        0
280
               0
281
               0
  0
CLASS
  1
SPATIAL_INDEX
  2
AcDbSpatialIndex
  3
AutoCAD 2000
 90
        0
280
               0
281
               0
  0
CLASS
  1
OBJECT_PTR
  2
CAseDLPNTableRecord
  3
"ASE-LPNTableRecord"
 90
        1
280
               0
281
               0
  0
CLASS
  1
LAYOUT
  2
AcDbLayout
  3
AutoCAD 2000
 90
        0
280
               0
281
               0
  0
CLASS
  1
PLOTSETTINGS
  2
AcDbPlotSettings
  3
AutoCAD 2000
 90
        0
280
               0
281
               0
  0
CLASS
  1
ACDBDICTIONARYWDFLT
  2
AcDbDictionaryWithDefault
  3
AutoCAD 2000
 90
        0
280
               0
281
               0
  0
CLASS
  1
ACDBPLACEHOLDER
  2
AcDbPlaceHolder
  3
AutoCAD 2000
 90
        0
280
               0
281
               0
  0
CLASS
  1
VBA_PROJECT
  2
AcDbVbaProject
  3
acadvba
 90
        0
280
               0
281
               0
  0
CLASS
  1
WIPEOUT
  2
AcDbWipeout
  3
WipeOut|AutoCAD Express Tool|expresstools@autodesk.com
 90
      127
280
               0
281
               1
  0
CLASS
  1
WIPEOUTVARIABLES
  2
AcDbWipeoutVariables
  3
WipeOut|AutoCAD Express Tool|expresstools@autodesk.com
 90
        0
280
               0
281
               0
  0
CLASS
  1
RTEXT
  2
RText
  3
RText|AutoCAD Express Tool|expresstools@autodesk.com
 90
        0
280
               0
281
               1
  0
CLASS
  1
ARCALIGNEDTEXT
  2
AcDbArcAlignedText
  3
ATEXT|AutoCAD Express Tool|expresstools@autodesk.com
 90
        0
280
               0
281
               1
  0
ENDSEC
  0
SECTION
  2
TABLES
  0
TABLE
  2
VPORT
  5
7
100
AcDbSymbolTable
 70
               1
  0
VPORT
  5
15
100
AcDbSymbolTableRecord
100
AcDbViewportTableRecord
  2
*ACTIVE
 70
               0
 10
0.0
 20
0.0
 11
1.0
 21
1.0
 12
26.333472404789998
 22
17.148239034139994
 13
0.0
 23
0.0
 14
1.0
 24
1.0
 15
0.0
 25
0.0
 16
0.0
 26
0.0
 36
1.0
 17
0.0
 27
0.0
 37
0.0
 40
31.150188966919991
 41
0.688564
 42
50.0
 43
0.0
 44
0.0
 50
0.0
 51
0.0
 71
               0
 72
            2000
 73
               1
 74
               1
 75
               0
 76
               0
 77
               0
 78
               0
281
               0
 65
               0
110
0.0
120
0.0
130
0.0
111
1.0
121
0.0
131
0.0
112
0.0
122
1.0
132
0.0
345
0
346
0
 79
               0
146
0.0
  0
ENDTAB
  0
TABLE
  2
LTYPE
  5
4
100
AcDbSymbolTable
 70
              20
  0
LTYPE
  5
11
100
AcDbSymbolTableRecord
100
AcDbLinetypeTableRecord
  2
ByBlock
 70
              64
  3

 72
              65
 73
               0
 40
0.0
  0
LTYPE
  5
12
100
AcDbSymbolTableRecord
100
AcDbLinetypeTableRecord
  2
ByLayer
 70
              64
  3

 72
              65
 73
               0
 40
0.0
  0
LTYPE
  5
13
100
AcDbSymbolTableRecord
100
AcDbLinetypeTableRecord
  2
Continuous
 70
              64
  3
Solid line
 72
              65
 73
               0
 40
0.0
  0
LTYPE
  5
31
100
AcDbSymbolTableRecord
100
AcDbLinetypeTableRecord
  2
STYLE_01
 70
               0
  3

 72
              65
 73
               2
 40
1.5
 49
1.0
 74
               0
 49
-0.5
 74
               0
  0
LTYPE
  5
32
100
AcDbSymbolTableRecord
100
AcDbLinetypeTableRecord
  2
STYLE_02
 70
               0
  3

 72
              65
 73
               2
 40
0.75
 49
0.5
 74
               0
 49
-0.25
 74
               0
  0
LTYPE
  5
33
100
AcDbSymbolTableRecord
100
AcDbLinetypeTableRecord
  2
STYLE_03
 70
               0
  3

 72
              65
 73
               4
 40
4.0
 49
0.25
 74
               0
 49
-0.5
 74
               0
 49
0.5
 74
               0
 49
-0.5
 74
               0
  0
LTYPE
  5
34
100
AcDbSymbolTableRecord
100
AcDbLinetypeTableRecord
  2
STYLE_04
 70
               0
  3

 72
              65
 73
               4
 40
5.0
 49
2.5
 74
               0
 49
-0.5
 74
               0
 49
0.5
 74
               0
 49
-0.5
 74
               0
  0
LTYPE
  5
35
100
AcDbSymbolTableRecord
100
AcDbLinetypeTableRecord
  2
STYLE_05
 70
               0
  3

 72
              65
 73
               2
 40
0.5
 49
0.0001
 74
               0
 49
-0.4999
 74
               0
  0
LTYPE
  5
36
100
AcDbSymbolTableRecord
100
AcDbLinetypeTableRecord
  2
STYLE_06
 70
               0
  3

 72
              65
 73
               4
 40
2.0
 49
1.0
 74
               0
 49
-0.5
 74
               0
 49
0.0001
 74
               0
 49
-0.4999
 74
               0
  0
LTYPE
  5
37
100
AcDbSymbolTableRecord
100
AcDbLinetypeTableRecord
  2
STYLE_07
 70
               0
  3

 72
              65
 73
               6
 40
3.5
 49
1.0
 74
               0
 49
-0.5
 74
               0
 49
1.0
 74
               0
 49
-0.5
 74
               0
 49
0.0001000000000002
 74
               0
 49
-0.4998999999999998
 74
               0
  0
LTYPE
  5
38
100
AcDbSymbolTableRecord
100
AcDbLinetypeTableRecord
  2
STYLE_08
 70
               0
  3

 72
              65
 73
               6
 40
2.5
 49
1.0
 74
               0
 49
-0.5
 74
               0
 49
0.0001
 74
               0
 49
-0.4999
 74
               0
 49
0.0001000000000002
 74
               0
 49
-0.4998999999999998
 74
               0
  0
LTYPE
  5
39
100
AcDbSymbolTableRecord
100
AcDbLinetypeTableRecord
  2
STYLE_09
 70
               0
  3

 72
              65
 73
               2
 40
0.09722900390625
 49
0.0555572509765625
 74
               0
 49
-0.0416717529296875
 74
               0
  0
LTYPE
  5
3A
100
AcDbSymbolTableRecord
100
AcDbLinetypeTableRecord
  2
STYLE_10
 70
               0
  3

 72
              65
 73
               4
 40
0.59722900390625
 49
0.3055572509765625
 74
               0
 49
-0.15277099609375
 74
               0
 49
0.013885498046875
 74
               0
 49
-0.1250152587890625
 74
               0
  0
LTYPE
  5
3B
100
AcDbSymbolTableRecord
100
AcDbLinetypeTableRecord
  2
STYLE_11
 70
               0
  3

 72
              65
 73
               4
 40
0.4305572509765625
 49
0.236114501953125
 74
               0
 49
-0.0833282470703125
 74
               0
 49
0.013885498046875
 74
               0
 49
-0.09722900390625
 74
               0
  0
LTYPE
  5
3C
100
AcDbSymbolTableRecord
100
AcDbLinetypeTableRecord
  2
STYLE_12
 70
               0
  3

 72
              65
 73
               2
 40
0.0833282470703125
 49
0.0555572509765625
 74
               0
 49
-0.02777099609375
 74
               0
  0
LTYPE
  5
3D
100
AcDbSymbolTableRecord
100
AcDbLinetypeTableRecord
  2
STYLE_13
 70
               0
  3

 72
              65
 73
               4
 40
0.068511962890625
 49
0.0428314208984375
 74
               0
 49
-0.0085601806640625
 74
               0
 49
0.0085601806640625
 74
               0
 49
-0.0085601806640625
 74
               0
  0
LTYPE
  5
3E
100
AcDbSymbolTableRecord
100
AcDbLinetypeTableRecord
  2
STYLE_14
 70
               0
  3

 72
              65
 73
               2
 40
0.02569580078125
 49
0.0171356201171875
 74
               0
 49
-0.0085601806640625
 74
               0
  0
LTYPE
  5
3F
100
AcDbSymbolTableRecord
100
AcDbLinetypeTableRecord
  2
STYLE_15
 70
               0
  3

 72
              65
 73
               6
 40
0.08563232421875
 49
0.0428314208984375
 74
               0
 49
-0.0085601806640625
 74
               0
 49
0.0085601806640625
 74
               0
 49
-0.0085601806640625
 74
               0
 49
0.0085601806640625
 74
               0
 49
-0.0085601806640625
 74
               0
  0
LTYPE
  5
40
100
AcDbSymbolTableRecord
100
AcDbLinetypeTableRecord
  2
STYLE_16
 70
               0
  3

 72
              65
 73
               2
 40
0.375
 49
0.25
 74
               0
 49
-0.125
 74
               0
  0
LTYPE
  5
41
100
AcDbSymbolTableRecord
100
AcDbLinetypeTableRecord
  2
STYLE_17
 70
               0
  3

 72
              65
 73
               4
 40
0.2083282470703125
 49
0.111114501953125
 74
               0
 49
-0.041656494140625
 74
               0
 49
0.013885498046875
 74
               0
 49
-0.0416717529296875
 74
               0
  0
ENDTAB
  0
TABLE
  2
LAYER
  5
2
100
AcDbSymbolTable
 70
               5
  0
LAYER
  5
14
100
AcDbSymbolTableRecord
100
AcDbLayerTableRecord
  2
0
 70
               0
 62
               7
  6
Continuous
290
               1
370
              -3
390
1D
  0
LAYER
  5
42
100
AcDbSymbolTableRecord
100
AcDbLayerTableRecord
  2
Defpoints
 70
               0
 62
               7
  6
Continuous
290
               0
370
              -3
390
1D
  0
LAYER
  5
43
100
AcDbSymbolTableRecord
100
AcDbLayerTableRecord
  2
None
 70
               0
 62
               7
  6
Continuous
290
               1
370
               5
390
1D
  0
LAYER
  5
44
100
AcDbSymbolTableRecord
100
AcDbLayerTableRecord
  2
Dimension
 70
               0
 62
               7
  6
Continuous
290
               1
370
               5
390
1D
  0
LAYER
  5
45
100
AcDbSymbolTableRecord
100
AcDbLayerTableRecord
  2
Solid Lines
 70
               0
 62
               7
  6
Continuous
290
               1
370
              25
390
1D
  0
ENDTAB
  0
TABLE
  2
STYLE
  5
3
100
AcDbSymbolTable
 70
               4
  0
STYLE
  5
17
100
AcDbSymbolTableRecord
100
AcDbTextStyleTableRecord
  2
Standard
 70
               0
 40
0.0
 41
1.0
 50
0.0
 71
               0
 42
0.0
  3
txt
  4

  0
STYLE
  5
2E
100
AcDbSymbolTableRecord
100
AcDbTextStyleTableRecord
  2
Arial
 70
               0
 40
0.0
 41
1.0
 50
0.0
 71
               0
 42
0.0
  3
Arial
  4

1001
ACAD
1000
Arial
1071
        0
  0
STYLE
  5
2F
100
AcDbSymbolTableRecord
100
AcDbTextStyleTableRecord
  2
Arial (bold)
 70
               0
 40
0.0
 41
1.0
 50
0.0
 71
               0
 42
0.0
  3
Arial
  4

1001
ACAD
1000
Arial
1071
 33554432
  0
STYLE
  5
30
100
AcDbSymbolTableRecord
100
AcDbTextStyleTableRecord
  2
Helvetica
 70
               0
 40
0.0
 41
1.0
 50
0.0
 71
               0
 42
0.0
  3
Helvetica
  4

1001
ACAD
1000
Helvetica
1071
        0
  0
ENDTAB
  0
TABLE
  2
VIEW
  5
5
100
AcDbSymbolTable
 70
               0
  0
ENDTAB
  0
TABLE
  2
UCS
  5
6
100
AcDbSymbolTable
 70
               0
  0
ENDTAB
  0
TABLE
  2
APPID
  5
8
100
AcDbSymbolTable
 70
               1
  0
APPID
  5
16
100
AcDbSymbolTableRecord
100
AcDbRegAppTableRecord
  2
ACAD
 70
               0
  0
ENDTAB
  0
TABLE
  2
DIMSTYLE
  5
9
100
AcDbSymbolTable
 70
               2
100
AcDbDimStyleTable
 71
               0
  0
DIMSTYLE
105
18
100
AcDbSymbolTableRecord
100
AcDbDimStyleTableRecord
  2
Standard
 70
               0
  3

  4

 40
1.0
 41
0.18
 42
0.0625
 43
0.38
 44
0.18
 45
0.0
 46
0.0
 47
0.0
 48
0.0
 71
               0
 72
               0
 73
               1
 74
               1
 75
               0
 76
               0
 77
               0
 78
               0
 79
               0
140
0.18
141
0.09
142
0.0
143
25.399999999999999
144
1.0
145
0.0
146
1.0
147
0.09
148
0.0
170
               0
171
               2
172
               0
173
               0
174
               0
175
               0
176
               0
177
               0
178
               0
179
               0
271
               4
272
               4
273
               2
274
               2
275
               0
276
               0
277
               2
278
              46
279
               0
280
               0
281
               0
282
               0
283
               1
284
               0
285
               0
286
               0
288
               0
289
               3
340
17
341
0
342
0
343
0
344
0
371
              -2
372
              -2
  0
DIMSTYLE
105
4E
100
AcDbSymbolTableRecord
100
AcDbDimStyleTableRecord
  2
IE Standard
 70
               0
  3
<>mm
  4
[]"
 40
1.0
 41
0.529167725
 42
0.3175006357885214
 43
6.9999859934672708
 44
0.6350012715770428
 45
0.0
 46
0.0
 47
0.0
 48
0.0
 71
               0
 72
               0
 73
               1
 74
               1
 75
               0
 76
               0
 77
               0
 78
              11
 79
               0
140
0.4210651041666666
141
0.0
142
0.0
143
0.0393700787401575
144
1.0
145
0.0
146
1.0
147
0.0
148
0.0
170
               0
171
               3
172
               1
173
               0
174
               1
175
               0
176
               0
177
               0
178
               0
179
               0
271
               2
272
               2
273
               2
274
               2
275
               0
276
               2
277
               2
278
              46
279
               0
280
               0
281
               0
282
               0
283
               1
284
              11
285
               3
286
               3
288
               0
289
               0
340
30
341
4A
342
46
343
0
344
0
371
              -2
372
              -2
  0
ENDTAB
  0
TABLE
  2
BLOCK_RECORD
  5
1
100
AcDbSymbolTable
 70
              12
  0
BLOCK_RECORD
  5
A
100
AcDbSymbolTableRecord
100
AcDbBlockTableRecord
  2
*MODEL_SPACE
340
20
  0
BLOCK_RECORD
  5
B
100
AcDbSymbolTableRecord
100
AcDbBlockTableRecord
  2
*PAPER_SPACE
340
21
  0
BLOCK_RECORD
  5
46
100
AcDbSymbolTableRecord
100
AcDbBlockTableRecord
  2
VW_FILLEDARROW
340
0
  0
BLOCK_RECORD
  5
4A
100
AcDbSymbolTableRecord
100
AcDbBlockTableRecord
  2
VW_FILLEDARROW-1
340
0
  0
BLOCK_RECORD
  5
24
100
AcDbSymbolTableRecord
100
AcDbBlockTableRecord
  2
IE i logo
340
0
102
{BLKREFS
331
378
102
}
  0
BLOCK_RECORD
  5
25
100
AcDbSymbolTableRecord
100
AcDbBlockTableRecord
  2
*D3
340
0
  0
BLOCK_RECORD
  5
26
100
AcDbSymbolTableRecord
100
AcDbBlockTableRecord
  2
*D4
340
0
  0
BLOCK_RECORD
  5
27
100
AcDbSymbolTableRecord
100
AcDbBlockTableRecord
  2
*D5
340
0
  0
BLOCK_RECORD
  5
28
100
AcDbSymbolTableRecord
100
AcDbBlockTableRecord
  2
*D6
340
0
  0
BLOCK_RECORD
  5
29
100
AcDbSymbolTableRecord
100
AcDbBlockTableRecord
  2
Group
340
0
102
{BLKREFS
331
386
102
}
  0
BLOCK_RECORD
  5
2A
100
AcDbSymbolTableRecord
100
AcDbBlockTableRecord
  2
*D8
340
0
  0
BLOCK_RECORD
  5
2B
100
AcDbSymbolTableRecord
100
AcDbBlockTableRecord
  2
*D9
340
0
  0
BLOCK_RECORD
  5
2C
100
AcDbSymbolTableRecord
100
AcDbBlockTableRecord
  2
*D10
340
0
  0
BLOCK_RECORD
  5
2D
100
AcDbSymbolTableRecord
100
AcDbBlockTableRecord
  2
*D11
340
0
  0
ENDTAB
  0
ENDSEC
  0
SECTION
  2
BLOCKS
  0
BLOCK
  5
D
100
AcDbEntity
  8
0
390
0
100
AcDbBlockBegin
  2
*MODEL_SPACE
 70
               0
 10
0.0
 20
0.0
 30
0.0
  3
*MODEL_SPACE
  1

  0
ENDBLK
  5
E
100
AcDbEntity
  8
0
390
0
100
AcDbBlockEnd
  0
BLOCK
  5
F
100
AcDbEntity
 67
               1
  8
0
390
0
100
AcDbBlockBegin
  2
*PAPER_SPACE
 70
               0
 10
0.0
 20
0.0
 30
0.0
  3
*PAPER_SPACE
  1

  0
ENDBLK
  5
10
100
AcDbEntity
 67
               1
  8
0
390
0
100
AcDbBlockEnd
  0
BLOCK
  5
47
100
AcDbEntity
  8
0
370
              -2
390
0
  6
ByBlock
 62
               0
100
AcDbBlockBegin
  2
VW_FILLEDARROW
 70
               0
 10
0.0
 20
0.0
 30
0.0
  3
VW_FILLEDARROW
  1

  0
SOLID
  5
48
100
AcDbEntity
  8
0
370
              -2
390
0
 62
               0
100
AcDbTrace
 10
0.0
 20
0.0
 30
0.0
 11
-0.9999409647216795
 21
-0.2679333739759718
 31
0.0
 12
-0.9999409647216795
 22
0.2679333739759721
 32
0.0
 13
-0.9999409647216795
 23
0.2679333739759721
 33
0.0
  0
ENDBLK
  5
49
100
AcDbEntity
  8
0
390
0
100
AcDbBlockEnd
  0
BLOCK
  5
4B
100
AcDbEntity
  8
0
370
              -2
390
0
  6
ByBlock
 62
               0
100
AcDbBlockBegin
  2
VW_FILLEDARROW-1
 70
               0
 10
0.0
 20
0.0
 30
0.0
  3
VW_FILLEDARROW
  1

  0
SOLID
  5
4C
100
AcDbEntity
  8
0
370
              -2
390
0
 62
               0
100
AcDbTrace
 10
0.0
 20
0.0
 30
0.0
 11
-0.6663689271362304
 21
-0.1785530158873466
 31
0.0
 12
-0.6663689271362304
 22
0.1785530158873468
 32
0.0
 13
-0.6663689271362304
 23
0.1785530158873468
 33
0.0
  0
ENDBLK
  5
4D
100
AcDbEntity
  8
0
390
0
100
AcDbBlockEnd
  0
BLOCK
  5
4F
100
AcDbEntity
  8
None
390
0
100
AcDbBlockBegin
  2
IE i logo
 70
               0
 10
0.0
 20
0.0
 30
0.0
  3
IE i logo
  1

  0
CIRCLE
  5
50
102
{ACAD_REACTORS
330
51
102
}
100
AcDbEntity
  8
None
370
               5
390
0
  6
Continuous
 62
               7
100
AcDbCircle
 10
0.0
 20
0.0
 30
0.0
 40
2.6707900018721049
  0
HATCH
  5
51
100
AcDbEntity
  8
None
370
               0
390
0
  6
Continuous
 62
               7
100
AcDbHatch
 10
0.0
 20
0.0
 30
0.0
210
0.0
220
0.0
230
1.0
  2
SOLID
 70
               1
 71
               1
 91
        1
 92
        1
 93
        1
 72
               2
 10
0.0
 20
0.0
 40
2.6707900018721049
 50
0.0
 51
360.0
 73
               0
 97
        1
330
50
 75
               0
 76
               1
 98
        1
 10
0.0
 20
0.0
  0
WIPEOUT
  5
52
100
AcDbEntity
  8
None
370
               5
390
0
  6
Continuous
 62
               7
 92
        0
100
AcDbWipeout
 90
        0
 10
-1.01559
 20
0.73569
 30
0.0
 11
0.6889700000000001
 21
0.0
 31
0.0
 12
0.0
 22
0.6889700000000001
 32
0.0
 13
1.0
 23
1.0
340
0
 70
               7
280
               1
281
              50
282
              50
283
               0
360
0
 71
               2
 91
       97
 14
-0.384131384530531
 24
0.0667881039813055
 14
-0.3634758906411018
 24
0.0346239223043094
 14
-0.3415474367534144
 24
0.00272054661306
 14
-0.3183460228674687
 24
-0.0289220230924422
 14
-0.2938716489832648
 24
-0.0603037868121978
 14
-0.2681243151008025
 24
-0.0914247445462067
 14
-0.2411040212200821
 24
-0.1222848962944686
 14
-0.2128107673411033
 24
-0.1528842420569836
 14
-0.1832445534638663
 24
-0.1832227818337517
 14
-0.1529111164129063
 24
-0.2127940984367968
 14
-0.1223161930127582
 24
-0.2410917746781425
 14
-0.0914597832634222
 24
-0.2681158105577891
 14
-0.0603418871648982
 24
-0.2938662060757359
 14
-0.0289625047171866
 24
-0.3183429612319839
 14
0.0026783640797133
 24
-0.3415460760265321
 14
0.0345807192258009
 24
-0.3634755504593811
 14
0.0667445607210765
 24
-0.384131384530531
 14
0.0986291130237893
 24
-0.4031788394269708
 14
0.1296936005921883
 24
-0.4202831763356896
 14
0.1599380234262741
 24
-0.4354443952566872
 14
0.1893623815260462
 24
-0.4486624961899646
 14
0.2179666748915049
 24
-0.4599374791355209
 14
0.2457509035226498
 24
-0.4692693440933564
 14
0.2727150674194813
 24
-0.4766580910634712
 14
0.2988591665819992
 24
-0.4821037200458653
 14
0.3237520773763735
 24
-0.485530597304672
 14
0.3469626761687736
 24
-0.4868630891040248
 14
0.3684909629591999
 24
-0.4861011954439233
 14
0.3883369377476522
 24
-0.483244916324368
 14
0.4065006005341306
 24
-0.4782942517453585
 14
0.4229819513186351
 24
-0.4712492017068954
 14
0.4377809901011655
 24
-0.4621097662089782
 14
0.450897716881722
 24
-0.4508759452516074
 14
0.462126435113285
 24
-0.4377544559269632
 14
0.4712614482488352
 24
-0.4229520153272275
 14
0.4783027562883724
 24
-0.4064686234523998
 14
0.4832503592318967
 24
-0.3883042803024801
 14
0.4861042570794083
 24
-0.3684589858774687
 14
0.486864449830907
 24
-0.3469327401773656
 14
0.4855309374863926
 24
-0.3237255432021711
 14
0.4821037200458654
 24
-0.2988373949518843
 14
0.4766580910634716
 24
-0.2726983985151745
 14
0.4692693440933567
 24
-0.24573865698071
 14
0.4599374791355212
 24
-0.217958170348491
 14
0.4486624961899646
 24
-0.1893569386185173
 14
0.4354443952566874
 24
-0.1599349617907888
 14
0.4202831763356894
 24
-0.1296922398653057
 14
0.4031788394269706
 24
-0.0986287728420684
 14
0.384131384530531
 24
-0.0667445607210762
 14
0.363475890641102
 24
-0.0345803790440801
 14
0.3415474367534145
 24
-0.0026770033528307
 14
0.3183460228674687
 24
0.0289655663526718
 14
0.2938716489832648
 24
0.0603473300724272
 14
0.2681243151008025
 24
0.0914682878064358
 14
0.2411040212200821
 24
0.1223284395546979
 14
0.2128107673411033
 24
0.1529277853172129
 14
0.1832445534638663
 24
0.1832663250939811
 14
0.1529111164129063
 24
0.2128376416970262
 14
0.1223161930127581
 24
0.2411353179383721
 14
0.0914597832634222
 24
0.2681593538180184
 14
0.0603418871648983
 24
0.2939097493359655
 14
0.0289625047171866
 24
0.3183865044922132
 14
-0.0026783640797133
 24
0.3415896192867617
 14
-0.0345807192258009
 24
0.3635190937196106
 14
-0.0667445607210765
 24
0.3841749277907604
 14
-0.0986291130237892
 24
0.4032220425054794
 14
-0.1296936005921883
 24
0.4203253588690366
 14
-0.159938023426274
 24
0.4354848768814319
 14
-0.1893623815260462
 24
0.4487005965426653
 14
-0.2179666748915049
 24
0.4599725178527369
 14
-0.2457509035226499
 24
0.4693006408116466
 14
-0.2727150674194813
 24
0.4766849654193943
 14
-0.2988591665819992
 24
0.4821254916759801
 14
-0.3237520773763735
 24
0.4855476063906992
 14
-0.3469626761687736
 24
0.4868766963728464
 14
-0.3684909629591999
 24
0.486112761622422
 14
-0.3883369377476522
 24
0.4832558021394255
 14
-0.4065006005341306
 24
0.4783058179238573
 14
-0.4229819513186351
 24
0.4712628089757174
 14
-0.4377809901011655
 24
0.4621267752950057
 14
-0.450897716881722
 24
0.450897716881722
 14
-0.462126435113285
 24
0.437781330282886
 14
-0.4712614482488352
 24
0.4229833120455172
 14
-0.4783027562883724
 24
0.4065036621696155
 14
-0.4832503592318967
 24
0.388342380655181
 14
-0.4861042570794085
 24
0.3684994675022135
 14
-0.486864449830907
 24
0.3469749227107132
 14
-0.4855309374863926
 24
0.32376874628068
 14
-0.4821037200458657
 24
0.2988809382121138
 14
-0.4766580910634715
 24
0.2727419417754038
 14
-0.4692693440933567
 24
0.2457822002409394
 14
-0.4599374791355211
 24
0.2180017136087203
 14
-0.4486624961899646
 24
0.1894004818787466
 14
-0.4354443952566874
 24
0.1599785050510182
 14
-0.4202831763356894
 24
0.1297357831255353
 14
-0.4031788394269706
 24
0.0986723161022978
 14
-0.384131384530531
 24
0.0667881039813055
  0
SPLINE
  5
53
100
AcDbEntity
  8
None
370
               5
390
0
  6
Continuous
 62
               7
100
AcDbSpline
210
0.0
220
0.0
230
1.0
 70
               9
 71
               2
 72
              17
 73
              14
 74
               0
 42
0.000001
 43
0.000001
 40
0.0
 40
0.0
 40
0.0
 40
1.0
 40
2.0
 40
3.0
 40
4.0
 40
5.0
 40
6.0
 40
7.0
 40
8.0
 40
9.0
 40
10.0
 40
11.0
 40
12.0
 40
12.0
 40
12.0
 10
-0.9357599999999999
 20
1.03416
 30
0.0
 10
-0.8805899999999999
 20
1.1231599999999999
 30
0.0
 10
-0.71412
 20
1.2896599999999998
 30
0.0
 10
-0.5361199999999999
 20
1.3999999999999999
 30
0.0
 10
-0.39428
 20
1.4246599999999998
 30
0.0
 10
-0.32662
 20
1.3569699999999998
 30
0.0
 10
-0.35128
 20
1.2151599999999998
 30
0.0
 10
-0.46162
 20
1.0371599999999999
 30
0.0
 10
-0.6280899999999999
 20
0.8706599999999999
 30
0.0
 10
-0.80609
 20
0.7603199999999999
 30
0.0
 10
-0.9479299999999999
 20
0.73569
 30
0.0
 10
-1.01559
 20
0.8033499999999999
 30
0.0
 10
-0.9909299999999999
 20
0.9451599999999999
 30
0.0
 10
-0.9357599999999999
 20
1.03416
 30
0.0
  0
WIPEOUT
  5
54
100
AcDbEntity
  8
None
370
               5
390
0
  6
Continuous
 62
               7
 92
        0
100
AcDbWipeout
 90
        0
 10
-1.7197799999999999
 20
-1.8961899999999998
 30
0.0
 11
1.8520599999999998
 21
0.0
 31
0.0
 12
0.0
 22
1.8520599999999998
 32
0.0
 13
1.0
 23
1.0
340
0
 70
               7
280
               1
281
              50
282
              50
283
               0
360
0
 71
               2
 91
       36
 14
-0.4523827521786551
 24
0.3095202099284041
 14
-0.2500026996965541
 24
0.1190404198568081
 14
-0.2142911136788225
 24
0.1190404198568081
 14
-0.0714231720354632
 24
0.3690377201602539
 14
0.0
 24
0.4523827521786551
 14
0.0714231720354633
 24
0.5
 14
0.2142857142857143
 24
0.5
 14
0.3690539183395787
 24
0.4047493061779856
 14
0.4761940757858817
 24
0.3095202099284041
 14
0.5
 24
0.2380916384998327
 14
0.5
 24
0.1071347580531948
 14
0.4880997375894949
 24
0.0714231720354632
 14
0.4642884139822685
 24
0.0714231720354632
 14
0.4285768279645368
 24
0.0829562757146097
 14
0.3214258717320173
 24
0.1666522682850447
 14
0.274726520739069
 24
0.1785579300886581
 14
0.2142857142857143
 24
0.1666522682850447
 14
0.190479790071596
 24
0.1070915629083291
 14
0.1428625422502512
 24
0.0238059242141183
 14
0.1190404198568082
 24
-0.0833450320184012
 14
0.1071347580531948
 24
-0.2142911136788225
 14
0.0714231720354633
 24
-0.2857304838936103
 14
0.0238059242141184
 24
-0.3452533935185685
 14
-0.0238059242141183
 24
-0.3866289429068173
 14
-0.0714231720354632
 24
-0.3866289429068173
 14
-0.1309622798397461
 24
-0.3571536559290736
 14
-0.1785741282679827
 24
-0.2976361456972236
 14
-0.2619029621070591
 24
-0.178579527661091
 14
-0.342424111529864
 24
-0.1071563556256276
 14
-0.4727114672310832
 24
0.0238059242141183
 14
-0.5
 24
0.0714231720354632
 14
-0.5
 24
0.1547520058745397
 14
-0.5
 24
0.2380916384998327
 14
-0.5
 24
0.2857088863211775
 14
-0.4880997375894949
 24
0.3214204723389091
 14
-0.4523827521786551
 24
0.3095202099284041
  0
POLYLINE
  5
55
100
AcDbEntity
  8
None
370
               5
390
0
  6
Continuous
 62
               7
100
AcDb2dPolyline
 66
               1
 10
0.0
 20
0.0
 30
0.0
 70
               1
 75
               5
  0
VERTEX
  5
56
100
AcDbEntity
  8
None
370
               5
390
0
  6
Continuous
 62
               7
100
AcDbVertex
100
AcDb2dVertex
 10
-1.6315899999999999
 20
-1.5434099999999999
 30
0.0
  0
VERTEX
  5
57
100
AcDbEntity
  8
None
370
               5
390
0
  6
Continuous
 62
               7
100
AcDbVertex
100
AcDb2dVertex
 10
-1.2567699999999999
 20
-1.1906299999999999
 30
0.0
  0
VERTEX
  5
58
100
AcDbEntity
  8
None
370
               5
390
0
  6
Continuous
 62
               7
100
AcDbVertex
100
AcDb2dVertex
 10
-1.1906299999999999
 20
-1.1906299999999999
 30
0.0
  0
VERTEX
  5
59
100
AcDbEntity
  8
None
370
               5
390
0
  6
Continuous
 62
               7
100
AcDbVertex
100
AcDb2dVertex
 10
-0.9260299999999999
 20
-1.6536399999999998
 30
0.0
  0
VERTEX
  5
5A
100
AcDbEntity
  8
None
370
               5
390
0
  6
Continuous
 62
               7
100
AcDbVertex
100
AcDb2dVertex
 10
-0.79375
 20
-1.8079999999999998
 30
0.0
  0
VERTEX
  5
5B
100
AcDbEntity
  8
None
370
               5
390
0
  6
Continuous
 62
               7
100
AcDbVertex
100
AcDb2dVertex
 10
-0.6614699999999999
 20
-1.8961899999999998
 30
0.0
  0
VERTEX
  5
5C
100
AcDbEntity
  8
None
370
               5
390
0
  6
Continuous
 62
               7
100
AcDbVertex
100
AcDb2dVertex
 10
-0.39688
 20
-1.8961899999999998
 30
0.0
  0
VERTEX
  5
5D
100
AcDbEntity
  8
None
370
               5
390
0
  6
Continuous
 62
               7
100
AcDbVertex
100
AcDb2dVertex
 10
-0.11024
 20
-1.7197799999999999
 30
0.0
  0
VERTEX
  5
5E
100
AcDbEntity
  8
None
370
               5
390
0
  6
Continuous
 62
               7
100
AcDbVertex
100
AcDb2dVertex
 10
0.08819
 20
-1.5434099999999999
 30
0.0
  0
VERTEX
  5
5F
100
AcDbEntity
  8
None
370
               5
390
0
  6
Continuous
 62
               7
100
AcDbVertex
100
AcDb2dVertex
 10
0.13228
 20
-1.4111199999999999
 30
0.0
  0
VERTEX
  5
60
100
AcDbEntity
  8
None
370
               5
390
0
  6
Continuous
 62
               7
100
AcDbVertex
100
AcDb2dVertex
 10
0.13228
 20
-1.16858
 30
0.0
  0
VERTEX
  5
61
100
AcDbEntity
  8
None
370
               5
390
0
  6
Continuous
 62
               7
100
AcDbVertex
100
AcDb2dVertex
 10
0.11024
 20
-1.1024399999999999
 30
0.0
  0
VERTEX
  5
62
100
AcDbEntity
  8
None
370
               5
390
0
  6
Continuous
 62
               7
100
AcDbVertex
100
AcDb2dVertex
 10
0.06614
 20
-1.1024399999999999
 30
0.0
  0
VERTEX
  5
63
100
AcDbEntity
  8
None
370
               5
390
0
  6
Continuous
 62
               7
100
AcDbVertex
100
AcDb2dVertex
 10
0.0
 20
-1.1237999999999999
 30
0.0
  0
VERTEX
  5
64
100
AcDbEntity
  8
None
370
               5
390
0
  6
Continuous
 62
               7
100
AcDbVertex
100
AcDb2dVertex
 10
-0.19845
 20
-1.2788099999999998
 30
0.0
  0
VERTEX
  5
65
100
AcDbEntity
  8
None
370
               5
390
0
  6
Continuous
 62
               7
100
AcDbVertex
100
AcDb2dVertex
 10
-0.28494
 20
-1.3008599999999999
 30
0.0
  0
VERTEX
  5
66
100
AcDbEntity
  8
None
370
               5
390
0
  6
Continuous
 62
               7
100
AcDbVertex
100
AcDb2dVertex
 10
-0.39688
 20
-1.2788099999999998
 30
0.0
  0
VERTEX
  5
67
100
AcDbEntity
  8
None
370
               5
390
0
  6
Continuous
 62
               7
100
AcDbVertex
100
AcDb2dVertex
 10
-0.44097
 20
-1.1684999999999999
 30
0.0
  0
VERTEX
  5
68
100
AcDbEntity
  8
None
370
               5
390
0
  6
Continuous
 62
               7
100
AcDbVertex
100
AcDb2dVertex
 10
-0.52916
 20
-1.0142499999999999
 30
0.0
  0
VERTEX
  5
69
100
AcDbEntity
  8
None
370
               5
390
0
  6
Continuous
 62
               7
100
AcDbVertex
100
AcDb2dVertex
 10
-0.5732799999999999
 20
-0.8158
 30
0.0
  0
VERTEX
  5
6A
100
AcDbEntity
  8
None
370
               5
390
0
  6
Continuous
 62
               7
100
AcDbVertex
100
AcDb2dVertex
 10
-0.5953299999999999
 20
-0.5732799999999999
 30
0.0
  0
VERTEX
  5
6B
100
AcDbEntity
  8
None
370
               5
390
0
  6
Continuous
 62
               7
100
AcDbVertex
100
AcDb2dVertex
 10
-0.6614699999999999
 20
-0.44097
 30
0.0
  0
VERTEX
  5
6C
100
AcDbEntity
  8
None
370
               5
390
0
  6
Continuous
 62
               7
100
AcDbVertex
100
AcDb2dVertex
 10
-0.7496599999999999
 20
-0.33073
 30
0.0
  0
VERTEX
  5
6D
100
AcDbEntity
  8
None
370
               5
390
0
  6
Continuous
 62
               7
100
AcDbVertex
100
AcDb2dVertex
 10
-0.8378399999999999
 20
-0.2541
 30
0.0
  0
VERTEX
  5
6E
100
AcDbEntity
  8
None
370
               5
390
0
  6
Continuous
 62
               7
100
AcDbVertex
100
AcDb2dVertex
 10
-0.9260299999999999
 20
-0.2541
 30
0.0
  0
VERTEX
  5
6F
100
AcDbEntity
  8
None
370
               5
390
0
  6
Continuous
 62
               7
100
AcDbVertex
100
AcDb2dVertex
 10
-1.0363
 20
-0.30869
 30
0.0
  0
VERTEX
  5
70
100
AcDbEntity
  8
None
370
               5
390
0
  6
Continuous
 62
               7
100
AcDbVertex
100
AcDb2dVertex
 10
-1.1244799999999999
 20
-0.41892
 30
0.0
  0
VERTEX
  5
71
100
AcDbEntity
  8
None
370
               5
390
0
  6
Continuous
 62
               7
100
AcDbVertex
100
AcDb2dVertex
 10
-1.2788099999999998
 20
-0.63942
 30
0.0
  0
VERTEX
  5
72
100
AcDbEntity
  8
None
370
               5
390
0
  6
Continuous
 62
               7
100
AcDbVertex
100
AcDb2dVertex
 10
-1.4279399999999998
 20
-0.7716999999999999
 30
0.0
  0
VERTEX
  5
73
100
AcDbEntity
  8
None
370
               5
390
0
  6
Continuous
 62
               7
100
AcDbVertex
100
AcDb2dVertex
 10
-1.6692399999999998
 20
-1.0142499999999999
 30
0.0
  0
VERTEX
  5
74
100
AcDbEntity
  8
None
370
               5
390
0
  6
Continuous
 62
               7
100
AcDbVertex
100
AcDb2dVertex
 10
-1.7197799999999999
 20
-1.1024399999999999
 30
0.0
  0
VERTEX
  5
75
100
AcDbEntity
  8
None
370
               5
390
0
  6
Continuous
 62
               7
100
AcDbVertex
100
AcDb2dVertex
 10
-1.7197799999999999
 20
-1.2567699999999999
 30
0.0
  0
VERTEX
  5
76
100
AcDbEntity
  8
None
370
               5
390
0
  6
Continuous
 62
               7
100
AcDbVertex
100
AcDb2dVertex
 10
-1.7197799999999999
 20
-1.4111199999999999
 30
0.0
  0
VERTEX
  5
77
100
AcDbEntity
  8
None
370
               5
390
0
  6
Continuous
 62
               7
100
AcDbVertex
100
AcDb2dVertex
 10
-1.7197799999999999
 20
-1.4993099999999999
 30
0.0
  0
VERTEX
  5
78
100
AcDbEntity
  8
None
370
               5
390
0
  6
Continuous
 62
               7
100
AcDbVertex
100
AcDb2dVertex
 10
-1.6977399999999998
 20
-1.5654499999999998
 30
0.0
  0
SEQEND
  5
79
100
AcDbEntity
  8
None
370
               5
390
0
  6
Continuous
 62
               7
  0
POLYLINE
  5
7A
100
AcDbEntity
  8
None
370
               5
390
0
  6
Continuous
 62
               7
100
AcDb2dPolyline
 66
               1
 10
0.0
 20
0.0
 30
0.0
 75
               5
  0
VERTEX
  5
7B
100
AcDbEntity
  8
None
370
               5
390
0
  6
Continuous
 62
               7
100
AcDbVertex
100
AcDb2dVertex
 10
-1.7197799999999999
 20
-1.1410199999999999
 30
0.0
  0
VERTEX
  5
7C
100
AcDbEntity
  8
None
370
               5
390
0
  6
Continuous
 62
               7
100
AcDbVertex
100
AcDb2dVertex
 10
-1.7197799999999999
 20
-1.45522
 30
0.0
  0
VERTEX
  5
7D
100
AcDbEntity
  8
None
370
               5
390
0
  6
Continuous
 62
               7
100
AcDbVertex
100
AcDb2dVertex
 10
-1.7197799999999999
 20
-1.4772599999999998
 30
0.0
  0
VERTEX
  5
7E
100
AcDbEntity
  8
None
370
               5
390
0
  6
Continuous
 62
               7
100
AcDbVertex
100
AcDb2dVertex
 10
-1.71427
 20
-1.5158499999999999
 30
0.0
  0
SEQEND
  5
7F
100
AcDbEntity
  8
None
370
               5
390
0
  6
Continuous
 62
               7
  0
ENDBLK
  5
80
100
AcDbEntity
  8
None
390
0
100
AcDbBlockEnd
  0
BLOCK
  5
81
100
AcDbEntity
  8
Dimension
390
0
100
AcDbBlockBegin
  2
*D3
 70
               1
 10
0.0
 20
0.0
 30
0.0
  3
*D3
  1

  0
LINE
  5
82
100
AcDbEntity
  8
Dimension
370
              -2
390
0
  6
Continuous
 62
               0
100
AcDbLine
 10
31.687861599999994
 20
24.017022599999997
 30
0.0
 11
33.331677198488727
 21
24.750007293507661
 31
0.0
  0
SOLID
  5
83
100
AcDbEntity
  8
Dimension
370
              -2
390
0
 62
               0
100
AcDbTrace
 10
31.687861599999994
 20
24.017022599999997
 30
0.0
 11
31.971624009562511
 21
24.246808868484667
 31
0.0
 12
32.048500189562553
 22
24.074142141167293
 32
0.0
 13
32.048500189562553
 23
24.074142141167293
 33
0.0
  0
LINE
  5
84
100
AcDbEntity
  8
Dimension
370
              -2
390
0
  6
Continuous
 62
               0
100
AcDbLine
 10
33.331677198488727
 20
24.750007293507661
 30
0.0
 11
34.331677199804396
 21
24.750007293507661
 31
0.0
  0
WIPEOUT
  5
85
100
AcDbEntity
  8
Dimension
370
              -2
390
0
  6
Continuous
 62
               0
 92
        0
100
AcDbWipeout
 90
        0
 10
34.331677199804396
 20
50.57853929350766
 30
0.0
 11
4.5919675371712358
 21
0.0
 31
0.0
 12
0.0
 22
4.5919675371712358
 32
0.0
 13
1.0
 23
1.0
340
0
 70
               7
280
               1
281
              50
282
              50
283
               0
360
0
 71
               2
 91
        5
 14
-0.5
 24
6.1983436377076977
 14
0.5
 24
6.1983436377076977
 14
0.5
 24
6.0510965166149102
 14
-0.5
 24
6.0510965166149102
 14
-0.5
 24
6.1983436377076977
  0
MTEXT
  5
86
100
AcDbEntity
  8
Dimension
390
0
 62
               0
100
AcDbMText
 10
34.331677199804396
 20
24.97998539767433
 30
0.0
 40
0.4210651041666666
 41
0.0
 71
               1
 72
               1
  1
Ø 0.28mm (x225)
  7
Helvetica
 73
               1
 44
0.9673603504928805
  0
POINT
  5
87
100
AcDbEntity
  8
Defpoints
370
               0
390
0
 62
               0
100
AcDbPoint
 10
31.432141599999994
 20
23.902982599999994
 30
0.0
  0
POINT
  5
88
100
AcDbEntity
  8
Defpoints
370
               0
390
0
 62
               0
100
AcDbPoint
 10
31.687861599999994
 20
24.017022599999997
 30
0.0
  0
ENDBLK
  5
89
100
AcDbEntity
  8
Dimension
390
0
100
AcDbBlockEnd
  0
BLOCK
  5
8A
100
AcDbEntity
  8
Dimension
390
0
100
AcDbBlockBegin
  2
*D4
 70
               1
 10
0.0
 20
0.0
 30
0.0
  3
*D4
  1

  0
LINE
  5
8B
100
AcDbEntity
  8
Dimension
370
              -2
390
0
  6
Continuous
 62
               0
100
AcDbLine
 10
23.560001599999996
 20
26.777503235788519
 30
0.0
 11
23.560001599999996
 21
31.135001271577046
 31
0.0
  0
LINE
  5
8C
100
AcDbEntity
  8
Dimension
370
              -2
390
0
  6
Continuous
 62
               0
100
AcDbLine
 10
31.560001599999996
 20
26.777503235788519
 30
0.0
 11
31.560001599999996
 21
31.135001271577046
 31
0.0
  0
LINE
  5
8D
100
AcDbEntity
  8
Dimension
370
              -2
390
0
  6
Continuous
 62
               0
100
AcDbLine
 10
23.560001599999996
 20
30.500000000000004
 30
0.0
 11
31.560001599999996
 21
30.500000000000004
 31
0.0
  0
SOLID
  5
8E
100
AcDbEntity
  8
Dimension
370
              -2
390
0
 62
               0
100
AcDbTrace
 10
23.560001599999996
 20
30.500000000000004
 30
0.0
 11
24.089169324999997
 21
30.641790064574369
 31
0.0
 12
24.089169324999997
 22
30.358209935425638
 32
0.0
 13
24.089169324999997
 23
30.358209935425638
 33
0.0
  0
SOLID
  5
8F
100
AcDbEntity
  8
Dimension
370
              -2
390
0
 62
               0
100
AcDbTrace
 10
31.560001599999996
 20
30.500000000000004
 30
0.0
 11
31.030833874999995
 21
30.358209935425638
 31
0.0
 12
31.030833874999995
 22
30.641790064574369
 32
0.0
 13
31.030833874999995
 23
30.641790064574369
 33
0.0
  0
WIPEOUT
  5
90
100
AcDbEntity
  8
Dimension
370
              -2
390
0
  6
Continuous
 62
               0
 92
        0
100
AcDbWipeout
 90
        0
 10
26.641484829687247
 20
56.328532000000003
 30
0.0
 11
1.3170303406255091
 21
0.0
 31
0.0
 12
0.0
 22
1.3170303406255091
 32
0.0
 13
1.0
 23
1.0
340
0
 70
               7
280
               1
281
              50
282
              50
283
               0
360
0
 71
               2
 91
        5
 14
-0.5
 24
20.367886253533428
 14
0.5000000000000013
 24
20.367886253533428
 14
0.5000000000000013
 24
19.854493373245742
 14
-0.5
 24
19.854493373245742
 14
-0.5
 24
20.367886253533428
  0
MTEXT
  5
91
100
AcDbEntity
  8
Dimension
390
0
 62
               0
100
AcDbMText
 10
26.641484829687247
 20
30.729978104166673
 30
0.0
 40
0.4210651041666666
 41
0.0
 71
               1
 72
               1
  1
8mm
  7
Helvetica
 73
               1
 44
0.9673603504928805
  0
POINT
  5
92
100
AcDbEntity
  8
Defpoints
370
               0
390
0
 62
               0
100
AcDbPoint
 10
31.560001599999996
 20
26.460002599999996
 30
0.0
  0
POINT
  5
93
100
AcDbEntity
  8
Defpoints
370
               0
390
0
 62
               0
100
AcDbPoint
 10
23.560001599999996
 20
26.460002599999996
 30
0.0
  0
POINT
  5
94
100
AcDbEntity
  8
Defpoints
370
               0
390
0
 62
               0
100
AcDbPoint
 10
23.560001599999996
 20
30.500000000000004
 30
0.0
  0
ENDBLK
  5
95
100
AcDbEntity
  8
Dimension
390
0
100
AcDbBlockEnd
  0
BLOCK
  5
96
100
AcDbEntity
  8
Dimension
390
0
100
AcDbBlockBegin
  2
*D5
 70
               1
 10
0.0
 20
0.0
 30
0.0
  3
*D5
  1

  0
LINE
  5
97
100
AcDbEntity
  8
Dimension
370
              -2
390
0
  6
Continuous
 62
               0
100
AcDbLine
 10
23.242500964211473
 20
26.460002599999996
 30
0.0
 11
17.870460328422951
 21
26.460002599999996
 31
0.0
  0
LINE
  5
98
100
AcDbEntity
  8
Dimension
370
              -2
390
0
  6
Continuous
 62
               0
100
AcDbLine
 10
23.242500964211473
 20
18.460002599999996
 30
0.0
 11
17.870460328422951
 21
18.460002599999996
 31
0.0
  0
LINE
  5
99
100
AcDbEntity
  8
Dimension
370
              -2
390
0
  6
Continuous
 62
               0
100
AcDbLine
 10
18.505461599999997
 20
26.460002599999996
 30
0.0
 11
18.505461599999997
 21
18.460002599999996
 31
0.0
  0
SOLID
  5
9A
100
AcDbEntity
  8
Dimension
370
              -2
390
0
 62
               0
100
AcDbTrace
 10
18.505461599999997
 20
26.460002599999996
 30
0.0
 11
18.647251664574359
 21
25.930834874999995
 31
0.0
 12
18.363671535425631
 22
25.930834874999995
 32
0.0
 13
18.363671535425631
 23
25.930834874999995
 33
0.0
  0
SOLID
  5
9B
100
AcDbEntity
  8
Dimension
370
              -2
390
0
 62
               0
100
AcDbTrace
 10
18.505461599999997
 20
18.460002599999996
 30
0.0
 11
18.363671535425631
 21
18.989170324999996
 31
0.0
 12
18.647251664574359
 22
18.989170324999996
 32
0.0
 13
18.647251664574359
 23
18.989170324999996
 33
0.0
  0
WIPEOUT
  5
9C
100
AcDbEntity
  8
Dimension
370
              -2
390
0
  6
Continuous
 62
               0
 92
        0
100
AcDbWipeout
 90
        0
 10
17.846946429687243
 20
48.288534599999998
 30
0.0
 11
1.3170303406255091
 21
0.0
 31
0.0
 12
0.0
 22
1.3170303406255091
 32
0.0
 13
1.0
 23
1.0
340
0
 70
               7
280
               1
281
              50
282
              50
283
               0
360
0
 71
               2
 91
        5
 14
-0.5
 24
20.367886253533428
 14
0.4999999999999987
 24
20.367886253533428
 14
0.4999999999999987
 24
19.854493373245742
 14
-0.5
 24
19.854493373245742
 14
-0.5
 24
20.367886253533428
  0
MTEXT
  5
9D
100
AcDbEntity
  8
Dimension
390
0
 62
               0
100
AcDbMText
 10
17.846946429687243
 20
22.689980704166668
 30
0.0
 40
0.4210651041666666
 41
0.0
 71
               1
 72
               1
  1
8mm
  7
Helvetica
 73
               1
 44
0.9673603504928805
  0
POINT
  5
9E
100
AcDbEntity
  8
Defpoints
370
               0
390
0
 62
               0
100
AcDbPoint
 10
23.560001599999996
 20
18.460002599999996
 30
0.0
  0
POINT
  5
9F
100
AcDbEntity
  8
Defpoints
370
               0
390
0
 62
               0
100
AcDbPoint
 10
23.560001599999996
 20
26.460002599999996
 30
0.0
  0
POINT
  5
A0
100
AcDbEntity
  8
Defpoints
370
               0
390
0
 62
               0
100
AcDbPoint
 10
18.505461599999997
 20
26.460002599999996
 30
0.0
  0
ENDBLK
  5
A1
100
AcDbEntity
  8
Dimension
390
0
100
AcDbBlockEnd
  0
BLOCK
  5
A2
100
AcDbEntity
  8
Dimension
390
0
100
AcDbBlockBegin
  2
*D6
 70
               1
 10
0.0
 20
0.0
 30
0.0
  3
*D6
  1

  0
LINE
  5
A3
100
AcDbEntity
  8
Dimension
370
              -2
390
0
  6
Continuous
 62
               0
100
AcDbLine
 10
27.060001599999996
 20
18.142501964211473
 30
0.0
 11
27.060001599999996
 21
15.676924328422952
 31
0.0
  0
LINE
  5
A4
100
AcDbEntity
  8
Dimension
370
              -2
390
0
  6
Continuous
 62
               0
100
AcDbLine
 10
27.560001599999996
 20
18.142501964211473
 30
0.0
 11
27.560001599999996
 21
15.676924328422952
 31
0.0
  0
LINE
  5
A5
100
AcDbEntity
  8
Dimension
370
              -2
390
0
  6
Continuous
 62
               0
100
AcDbLine
 10
27.560001599999996
 20
16.311925599999995
 30
0.0
 11
27.060001599999996
 21
16.311925599999995
 31
0.0
  0
LINE
  5
A6
100
AcDbEntity
  8
Dimension
370
              -2
390
0
  6
Continuous
 62
               0
100
AcDbLine
 10
27.060001599999996
 20
16.311925599999995
 30
0.0
 11
25.879421599999993
 21
16.311925599999995
 31
0.0
  0
SOLID
  5
A7
100
AcDbEntity
  8
Dimension
370
              -2
390
0
 62
               0
100
AcDbTrace
 10
27.060001599999996
 20
16.311925599999995
 30
0.0
 11
26.530833874999995
 21
16.170135535425629
 31
0.0
 12
26.530833874999995
 22
16.453715664574357
 32
0.0
 13
26.530833874999995
 23
16.453715664574357
 33
0.0
  0
LINE
  5
A8
100
AcDbEntity
  8
Dimension
370
              -2
390
0
  6
Continuous
 62
               0
100
AcDbLine
 10
27.560001599999996
 20
16.311925599999995
 30
0.0
 11
28.726668265573206
 21
16.311925599999995
 31
0.0
  0
SOLID
  5
A9
100
AcDbEntity
  8
Dimension
370
              -2
390
0
 62
               0
100
AcDbTrace
 10
27.560001599999996
 20
16.311925599999995
 30
0.0
 11
28.089169324999997
 21
16.453715664574357
 31
0.0
 12
28.089169324999997
 22
16.170135535425629
 32
0.0
 13
28.089169324999997
 23
16.170135535425629
 33
0.0
  0
WIPEOUT
  5
AA
100
AcDbEntity
  8
Dimension
370
              -2
390
0
  6
Continuous
 62
               0
 92
        0
100
AcDbWipeout
 90
        0
 10
22.95726041959189
 20
42.140457599999991
 30
0.0
 11
2.9221611804081062
 21
0.0
 31
0.0
 12
0.0
 22
2.9221611804081062
 32
0.0
 13
1.0
 23
1.0
340
0
 70
               7
280
               1
281
              50
282
              50
283
               0
360
0
 71
               2
 91
        5
 14
-0.5
 24
9.4545399396297487
 14
0.4999999999999991
 24
9.4545399396297487
 14
0.4999999999999991
 24
9.2231516080985045
 14
-0.5
 24
9.2231516080985045
 14
-0.5
 24
9.4545399396297487
  0
MTEXT
  5
AB
100
AcDbEntity
  8
Dimension
390
0
 62
               0
100
AcDbMText
 10
22.95726041959189
 20
16.541903704166661
 30
0.0
 40
0.4210651041666666
 41
0.0
 71
               1
 72
               1
  1
0.5mm typ.
  7
Helvetica
 73
               1
 44
0.9673603504928805
  0
POINT
  5
AC
100
AcDbEntity
  8
Defpoints
370
               0
390
0
 62
               0
100
AcDbPoint
 10
27.560001599999996
 20
18.460002599999996
 30
0.0
  0
POINT
  5
AD
100
AcDbEntity
  8
Defpoints
370
               0
390
0
 62
               0
100
AcDbPoint
 10
27.060001599999996
 20
18.460002599999996
 30
0.0
  0
POINT
  5
AE
100
AcDbEntity
  8
Defpoints
370
               0
390
0
 62
               0
100
AcDbPoint
 10
27.060001599999996
 20
16.311925599999995
 30
0.0
  0
ENDBLK
  5
AF
100
AcDbEntity
  8
Dimension
390
0
100
AcDbBlockEnd
  0
BLOCK
  5
B0
100
AcDbEntity
  8
None
390
0
100
AcDbBlockBegin
  2
Group
 70
               0
 10
0.0
 20
0.0
 30
0.0
  3
Group
  1

  0
CIRCLE
  5
B1
102
{ACAD_REACTORS
330
B2
102
}
100
AcDbEntity
  8
None
370
               9
390
0
  6
Continuous
 62
               7
100
AcDbCircle
 10
-3.2044099999999998
 20
17.862199999999998
 30
0.0
 40
0.1400000000000006
  0
HATCH
  5
B2
100
AcDbEntity
  8
None
370
               0
390
0
  6
Continuous
 62
               7
100
AcDbHatch
 10
0.0
 20
0.0
 30
0.0
210
0.0
220
0.0
230
1.0
  2
SOLID
 70
               1
 71
               1
 91
        1
 92
        1
 93
        1
 72
               2
 10
-3.2044099999999998
 20
17.862199999999998
 40
0.1400000000000006
 50
0.0
 51
360.0
 73
               0
 97
        1
330
B1
 75
               0
 76
               1
 98
        1
 10
0.0
 20
0.0
  0
CIRCLE
  5
B3
102
{ACAD_REACTORS
330
B4
102
}
100
AcDbEntity
  8
None
370
               9
390
0
  6
Continuous
 62
               7
100
AcDbCircle
 10
-2.7044099999999998
 20
17.862199999999998
 30
0.0
 40
0.1400000000000006
  0
HATCH
  5
B4
100
AcDbEntity
  8
None
370
               0
390
0
  6
Continuous
 62
               7
100
AcDbHatch
 10
0.0
 20
0.0
 30
0.0
210
0.0
220
0.0
230
1.0
  2
SOLID
 70
               1
 71
               1
 91
        1
 92
        1
 93
        1
 72
               2
 10
-2.7044099999999998
 20
17.862199999999998
 40
0.1400000000000006
 50
0.0
 51
360.0
 73
               0
 97
        1
330
B3
 75
               0
 76
               1
 98
        1
 10
0.0
 20
0.0
  0
CIRCLE
  5
B5
102
{ACAD_REACTORS
330
B6
102
}
100
AcDbEntity
  8
None
370
               9
390
0
  6
Continuous
 62
               7
100
AcDbCircle
 10
-2.2044099999999998
 20
17.862199999999998
 30
0.0
 40
0.1400000000000006
  0
HATCH
  5
B6
100
AcDbEntity
  8
None
370
               0
390
0
  6
Continuous
 62
               7
100
AcDbHatch
 10
0.0
 20
0.0
 30
0.0
210
0.0
220
0.0
230
1.0
  2
SOLID
 70
               1
 71
               1
 91
        1
 92
        1
 93
        1
 72
               2
 10
-2.2044099999999998
 20
17.862199999999998
 40
0.1400000000000006
 50
0.0
 51
360.0
 73
               0
 97
        1
330
B5
 75
               0
 76
               1
 98
        1
 10
0.0
 20
0.0
  0
CIRCLE
  5
B7
102
{ACAD_REACTORS
330
B8
102
}
100
AcDbEntity
  8
None
370
               9
390
0
  6
Continuous
 62
               7
100
AcDbCircle
 10
-1.7044099999999998
 20
17.862199999999998
 30
0.0
 40
0.1400000000000006
  0
HATCH
  5
B8
100
AcDbEntity
  8
None
370
               0
390
0
  6
Continuous
 62
               7
100
AcDbHatch
 10
0.0
 20
0.0
 30
0.0
210
0.0
220
0.0
230
1.0
  2
SOLID
 70
               1
 71
               1
 91
        1
 92
        1
 93
        1
 72
               2
 10
-1.7044099999999998
 20
17.862199999999998
 40
0.1400000000000006
 50
0.0
 51
360.0
 73
               0
 97
        1
330
B7
 75
               0
 76
               1
 98
        1
 10
0.0
 20
0.0
  0
CIRCLE
  5
B9
102
{ACAD_REACTORS
330
BA
102
}
100
AcDbEntity
  8
None
370
               9
390
0
  6
Continuous
 62
               7
100
AcDbCircle
 10
-1.20441
 20
17.862199999999998
 30
0.0
 40
0.1400000000000006
  0
HATCH
  5
BA
100
AcDbEntity
  8
None
370
               0
390
0
  6
Continuous
 62
               7
100
AcDbHatch
 10
0.0
 20
0.0
 30
0.0
210
0.0
220
0.0
230
1.0
  2
SOLID
 70
               1
 71
               1
 91
        1
 92
        1
 93
        1
 72
               2
 10
-1.20441
 20
17.862199999999998
 40
0.1400000000000006
 50
0.0
 51
360.0
 73
               0
 97
        1
330
B9
 75
               0
 76
               1
 98
        1
 10
0.0
 20
0.0
  0
CIRCLE
  5
BB
102
{ACAD_REACTORS
330
BC
102
}
100
AcDbEntity
  8
None
370
               9
390
0
  6
Continuous
 62
               7
100
AcDbCircle
 10
-0.70441
 20
17.862199999999998
 30
0.0
 40
0.1400000000000006
  0
HATCH
  5
BC
100
AcDbEntity
  8
None
370
               0
390
0
  6
Continuous
 62
               7
100
AcDbHatch
 10
0.0
 20
0.0
 30
0.0
210
0.0
220
0.0
230
1.0
  2
SOLID
 70
               1
 71
               1
 91
        1
 92
        1
 93
        1
 72
               2
 10
-0.70441
 20
17.862199999999998
 40
0.1400000000000006
 50
0.0
 51
360.0
 73
               0
 97
        1
330
BB
 75
               0
 76
               1
 98
        1
 10
0.0
 20
0.0
  0
CIRCLE
  5
BD
102
{ACAD_REACTORS
330
BE
102
}
100
AcDbEntity
  8
None
370
               9
390
0
  6
Continuous
 62
               7
100
AcDbCircle
 10
-0.20441
 20
17.862199999999998
 30
0.0
 40
0.1400000000000006
  0
HATCH
  5
BE
100
AcDbEntity
  8
None
370
               0
390
0
  6
Continuous
 62
               7
100
AcDbHatch
 10
0.0
 20
0.0
 30
0.0
210
0.0
220
0.0
230
1.0
  2
SOLID
 70
               1
 71
               1
 91
        1
 92
        1
 93
        1
 72
               2
 10
-0.20441
 20
17.862199999999998
 40
0.1400000000000006
 50
0.0
 51
360.0
 73
               0
 97
        1
330
BD
 75
               0
 76
               1
 98
        1
 10
0.0
 20
0.0
  0
CIRCLE
  5
BF
102
{ACAD_REACTORS
330
C0
102
}
100
AcDbEntity
  8
None
370
               9
390
0
  6
Continuous
 62
               7
100
AcDbCircle
 10
0.29559
 20
17.862199999999998
 30
0.0
 40
0.1400000000000006
  0
HATCH
  5
C0
100
AcDbEntity
  8
None
370
               0
390
0
  6
Continuous
 62
               7
100
AcDbHatch
 10
0.0
 20
0.0
 30
0.0
210
0.0
220
0.0
230
1.0
  2
SOLID
 70
               1
 71
               1
 91
        1
 92
        1
 93
        1
 72
               2
 10
0.29559
 20
17.862199999999998
 40
0.1400000000000006
 50
0.0
 51
360.0
 73
               0
 97
        1
330
BF
 75
               0
 76
               1
 98
        1
 10
0.0
 20
0.0
  0
CIRCLE
  5
C1
102
{ACAD_REACTORS
330
C2
102
}
100
AcDbEntity
  8
None
370
               9
390
0
  6
Continuous
 62
               7
100
AcDbCircle
 10
0.7955899999999999
 20
17.862199999999998
 30
0.0
 40
0.1400000000000006
  0
HATCH
  5
C2
100
AcDbEntity
  8
None
370
               0
390
0
  6
Continuous
 62
               7
100
AcDbHatch
 10
0.0
 20
0.0
 30
0.0
210
0.0
220
0.0
230
1.0
  2
SOLID
 70
               1
 71
               1
 91
        1
 92
        1
 93
        1
 72
               2
 10
0.7955899999999999
 20
17.862199999999998
 40
0.1400000000000006
 50
0.0
 51
360.0
 73
               0
 97
        1
330
C1
 75
               0
 76
               1
 98
        1
 10
0.0
 20
0.0
  0
CIRCLE
  5
C3
102
{ACAD_REACTORS
330
C4
102
}
100
AcDbEntity
  8
None
370
               9
390
0
  6
Continuous
 62
               7
100
AcDbCircle
 10
1.2955899999999998
 20
17.862199999999998
 30
0.0
 40
0.1400000000000006
  0
HATCH
  5
C4
100
AcDbEntity
  8
None
370
               0
390
0
  6
Continuous
 62
               7
100
AcDbHatch
 10
0.0
 20
0.0
 30
0.0
210
0.0
220
0.0
230
1.0
  2
SOLID
 70
               1
 71
               1
 91
        1
 92
        1
 93
        1
 72
               2
 10
1.2955899999999998
 20
17.862199999999998
 40
0.1400000000000006
 50
0.0
 51
360.0
 73
               0
 97
        1
330
C3
 75
               0
 76
               1
 98
        1
 10
0.0
 20
0.0
  0
CIRCLE
  5
C5
102
{ACAD_REACTORS
330
C6
102
}
100
AcDbEntity
  8
None
370
               9
390
0
  6
Continuous
 62
               7
100
AcDbCircle
 10
1.7955899999999998
 20
17.862199999999998
 30
0.0
 40
0.1400000000000006
  0
HATCH
  5
C6
100
AcDbEntity
  8
None
370
               0
390
0
  6
Continuous
 62
               7
100
AcDbHatch
 10
0.0
 20
0.0
 30
0.0
210
0.0
220
0.0
230
1.0
  2
SOLID
 70
               1
 71
               1
 91
        1
 92
        1
 93
        1
 72
               2
 10
1.7955899999999998
 20
17.862199999999998
 40
0.1400000000000006
 50
0.0
 51
360.0
 73
               0
 97
        1
330
C5
 75
               0
 76
               1
 98
        1
 10
0.0
 20
0.0
  0
CIRCLE
  5
C7
102
{ACAD_REACTORS
330
C8
102
}
100
AcDbEntity
  8
None
370
               9
390
0
  6
Continuous
 62
               7
100
AcDbCircle
 10
2.2955899999999998
 20
17.862199999999998
 30
0.0
 40
0.1400000000000006
  0
HATCH
  5
C8
100
AcDbEntity
  8
None
370
               0
390
0
  6
Continuous
 62
               7
100
AcDbHatch
 10
0.0
 20
0.0
 30
0.0
210
0.0
220
0.0
230
1.0
  2
SOLID
 70
               1
 71
               1
 91
        1
 92
        1
 93
        1
 72
               2
 10
2.2955899999999998
 20
17.862199999999998
 40
0.1400000000000006
 50
0.0
 51
360.0
 73
               0
 97
        1
330
C7
 75
               0
 76
               1
 98
        1
 10
0.0
 20
0.0
  0
CIRCLE
  5
C9
102
{ACAD_REACTORS
330
CA
102
}
100
AcDbEntity
  8
None
370
               9
390
0
  6
Continuous
 62
               7
100
AcDbCircle
 10
2.7955899999999998
 20
17.862199999999998
 30
0.0
 40
0.1400000000000006
  0
HATCH
  5
CA
100
AcDbEntity
  8
None
370
               0
390
0
  6
Continuous
 62
               7
100
AcDbHatch
 10
0.0
 20
0.0
 30
0.0
210
0.0
220
0.0
230
1.0
  2
SOLID
 70
               1
 71
               1
 91
        1
 92
        1
 93
        1
 72
               2
 10
2.7955899999999998
 20
17.862199999999998
 40
0.1400000000000006
 50
0.0
 51
360.0
 73
               0
 97
        1
330
C9
 75
               0
 76
               1
 98
        1
 10
0.0
 20
0.0
  0
CIRCLE
  5
CB
102
{ACAD_REACTORS
330
CC
102
}
100
AcDbEntity
  8
None
370
               9
390
0
  6
Continuous
 62
               7
100
AcDbCircle
 10
3.2955899999999998
 20
17.862199999999998
 30
0.0
 40
0.1400000000000006
  0
HATCH
  5
CC
100
AcDbEntity
  8
None
370
               0
390
0
  6
Continuous
 62
               7
100
AcDbHatch
 10
0.0
 20
0.0
 30
0.0
210
0.0
220
0.0
230
1.0
  2
SOLID
 70
               1
 71
               1
 91
        1
 92
        1
 93
        1
 72
               2
 10
3.2955899999999998
 20
17.862199999999998
 40
0.1400000000000006
 50
0.0
 51
360.0
 73
               0
 97
        1
330
CB
 75
               0
 76
               1
 98
        1
 10
0.0
 20
0.0
  0
CIRCLE
  5
CD
102
{ACAD_REACTORS
330
CE
102
}
100
AcDbEntity
  8
None
370
               9
390
0
  6
Continuous
 62
               7
100
AcDbCircle
 10
3.7955899999999998
 20
17.862199999999998
 30
0.0
 40
0.1400000000000006
  0
HATCH
  5
CE
100
AcDbEntity
  8
None
370
               0
390
0
  6
Continuous
 62
               7
100
AcDbHatch
 10
0.0
 20
0.0
 30
0.0
210
0.0
220
0.0
230
1.0
  2
SOLID
 70
               1
 71
               1
 91
        1
 92
        1
 93
        1
 72
               2
 10
3.7955899999999998
 20
17.862199999999998
 40
0.1400000000000006
 50
0.0
 51
360.0
 73
               0
 97
        1
330
CD
 75
               0
 76
               1
 98
        1
 10
0.0
 20
0.0
  0
CIRCLE
  5
CF
102
{ACAD_REACTORS
330
D0
102
}
100
AcDbEntity
  8
None
370
               9
390
0
  6
Continuous
 62
               7
100
AcDbCircle
 10
-3.2044099999999998
 20
18.362199999999998
 30
0.0
 40
0.1400000000000006
  0
HATCH
  5
D0
100
AcDbEntity
  8
None
370
               0
390
0
  6
Continuous
 62
               7
100
AcDbHatch
 10
0.0
 20
0.0
 30
0.0
210
0.0
220
0.0
230
1.0
  2
SOLID
 70
               1
 71
               1
 91
        1
 92
        1
 93
        1
 72
               2
 10
-3.2044099999999998
 20
18.362199999999998
 40
0.1400000000000006
 50
0.0
 51
360.0
 73
               0
 97
        1
330
CF
 75
               0
 76
               1
 98
        1
 10
0.0
 20
0.0
  0
CIRCLE
  5
D1
102
{ACAD_REACTORS
330
D2
102
}
100
AcDbEntity
  8
None
370
               9
390
0
  6
Continuous
 62
               7
100
AcDbCircle
 10
-2.7044099999999998
 20
18.362199999999998
 30
0.0
 40
0.1400000000000006
  0
HATCH
  5
D2
100
AcDbEntity
  8
None
370
               0
390
0
  6
Continuous
 62
               7
100
AcDbHatch
 10
0.0
 20
0.0
 30
0.0
210
0.0
220
0.0
230
1.0
  2
SOLID
 70
               1
 71
               1
 91
        1
 92
        1
 93
        1
 72
               2
 10
-2.7044099999999998
 20
18.362199999999998
 40
0.1400000000000006
 50
0.0
 51
360.0
 73
               0
 97
        1
330
D1
 75
               0
 76
               1
 98
        1
 10
0.0
 20
0.0
  0
CIRCLE
  5
D3
102
{ACAD_REACTORS
330
D4
102
}
100
AcDbEntity
  8
None
370
               9
390
0
  6
Continuous
 62
               7
100
AcDbCircle
 10
-2.2044099999999998
 20
18.362199999999998
 30
0.0
 40
0.1400000000000006
  0
HATCH
  5
D4
100
AcDbEntity
  8
None
370
               0
390
0
  6
Continuous
 62
               7
100
AcDbHatch
 10
0.0
 20
0.0
 30
0.0
210
0.0
220
0.0
230
1.0
  2
SOLID
 70
               1
 71
               1
 91
        1
 92
        1
 93
        1
 72
               2
 10
-2.2044099999999998
 20
18.362199999999998
 40
0.1400000000000006
 50
0.0
 51
360.0
 73
               0
 97
        1
330
D3
 75
               0
 76
               1
 98
        1
 10
0.0
 20
0.0
  0
CIRCLE
  5
D5
102
{ACAD_REACTORS
330
D6
102
}
100
AcDbEntity
  8
None
370
               9
390
0
  6
Continuous
 62
               7
100
AcDbCircle
 10
-1.7044099999999998
 20
18.362199999999998
 30
0.0
 40
0.1400000000000006
  0
HATCH
  5
D6
100
AcDbEntity
  8
None
370
               0
390
0
  6
Continuous
 62
               7
100
AcDbHatch
 10
0.0
 20
0.0
 30
0.0
210
0.0
220
0.0
230
1.0
  2
SOLID
 70
               1
 71
               1
 91
        1
 92
        1
 93
        1
 72
               2
 10
-1.7044099999999998
 20
18.362199999999998
 40
0.1400000000000006
 50
0.0
 51
360.0
 73
               0
 97
        1
330
D5
 75
               0
 76
               1
 98
        1
 10
0.0
 20
0.0
  0
CIRCLE
  5
D7
102
{ACAD_REACTORS
330
D8
102
}
100
AcDbEntity
  8
None
370
               9
390
0
  6
Continuous
 62
               7
100
AcDbCircle
 10
-1.20441
 20
18.362199999999998
 30
0.0
 40
0.1400000000000006
  0
HATCH
  5
D8
100
AcDbEntity
  8
None
370
               0
390
0
  6
Continuous
 62
               7
100
AcDbHatch
 10
0.0
 20
0.0
 30
0.0
210
0.0
220
0.0
230
1.0
  2
SOLID
 70
               1
 71
               1
 91
        1
 92
        1
 93
        1
 72
               2
 10
-1.20441
 20
18.362199999999998
 40
0.1400000000000006
 50
0.0
 51
360.0
 73
               0
 97
        1
330
D7
 75
               0
 76
               1
 98
        1
 10
0.0
 20
0.0
  0
CIRCLE
  5
D9
102
{ACAD_REACTORS
330
DA
102
}
100
AcDbEntity
  8
None
370
               9
390
0
  6
Continuous
 62
               7
100
AcDbCircle
 10
-0.70441
 20
18.362199999999998
 30
0.0
 40
0.1400000000000006
  0
HATCH
  5
DA
100
AcDbEntity
  8
None
370
               0
390
0
  6
Continuous
 62
               7
100
AcDbHatch
 10
0.0
 20
0.0
 30
0.0
210
0.0
220
0.0
230
1.0
  2
SOLID
 70
               1
 71
               1
 91
        1
 92
        1
 93
        1
 72
               2
 10
-0.70441
 20
18.362199999999998
 40
0.1400000000000006
 50
0.0
 51
360.0
 73
               0
 97
        1
330
D9
 75
               0
 76
               1
 98
        1
 10
0.0
 20
0.0
  0
CIRCLE
  5
DB
102
{ACAD_REACTORS
330
DC
102
}
100
AcDbEntity
  8
None
370
               9
390
0
  6
Continuous
 62
               7
100
AcDbCircle
 10
-0.20441
 20
18.362199999999998
 30
0.0
 40
0.1400000000000006
  0
HATCH
  5
DC
100
AcDbEntity
  8
None
370
               0
390
0
  6
Continuous
 62
               7
100
AcDbHatch
 10
0.0
 20
0.0
 30
0.0
210
0.0
220
0.0
230
1.0
  2
SOLID
 70
               1
 71
               1
 91
        1
 92
        1
 93
        1
 72
               2
 10
-0.20441
 20
18.362199999999998
 40
0.1400000000000006
 50
0.0
 51
360.0
 73
               0
 97
        1
330
DB
 75
               0
 76
               1
 98
        1
 10
0.0
 20
0.0
  0
CIRCLE
  5
DD
102
{ACAD_REACTORS
330
DE
102
}
100
AcDbEntity
  8
None
370
               9
390
0
  6
Continuous
 62
               7
100
AcDbCircle
 10
0.29559
 20
18.362199999999998
 30
0.0
 40
0.1400000000000006
  0
HATCH
  5
DE
100
AcDbEntity
  8
None
370
               0
390
0
  6
Continuous
 62
               7
100
AcDbHatch
 10
0.0
 20
0.0
 30
0.0
210
0.0
220
0.0
230
1.0
  2
SOLID
 70
               1
 71
               1
 91
        1
 92
        1
 93
        1
 72
               2
 10
0.29559
 20
18.362199999999998
 40
0.1400000000000006
 50
0.0
 51
360.0
 73
               0
 97
        1
330
DD
 75
               0
 76
               1
 98
        1
 10
0.0
 20
0.0
  0
CIRCLE
  5
DF
102
{ACAD_REACTORS
330
E0
102
}
100
AcDbEntity
  8
None
370
               9
390
0
  6
Continuous
 62
               7
100
AcDbCircle
 10
0.7955899999999999
 20
18.362199999999998
 30
0.0
 40
0.1400000000000006
  0
HATCH
  5
E0
100
AcDbEntity
  8
None
370
               0
390
0
  6
Continuous
 62
               7
100
AcDbHatch
 10
0.0
 20
0.0
 30
0.0
210
0.0
220
0.0
230
1.0
  2
SOLID
 70
               1
 71
               1
 91
        1
 92
        1
 93
        1
 72
               2
 10
0.7955899999999999
 20
18.362199999999998
 40
0.1400000000000006
 50
0.0
 51
360.0
 73
               0
 97
        1
330
DF
 75
               0
 76
               1
 98
        1
 10
0.0
 20
0.0
  0
CIRCLE
  5
E1
102
{ACAD_REACTORS
330
E2
102
}
100
AcDbEntity
  8
None
370
               9
390
0
  6
Continuous
 62
               7
100
AcDbCircle
 10
1.2955899999999998
 20
18.362199999999998
 30
0.0
 40
0.1400000000000006
  0
HATCH
  5
E2
100
AcDbEntity
  8
None
370
               0
390
0
  6
Continuous
 62
               7
100
AcDbHatch
 10
0.0
 20
0.0
 30
0.0
210
0.0
220
0.0
230
1.0
  2
SOLID
 70
               1
 71
               1
 91
        1
 92
        1
 93
        1
 72
               2
 10
1.2955899999999998
 20
18.362199999999998
 40
0.1400000000000006
 50
0.0
 51
360.0
 73
               0
 97
        1
330
E1
 75
               0
 76
               1
 98
        1
 10
0.0
 20
0.0
  0
CIRCLE
  5
E3
102
{ACAD_REACTORS
330
E4
102
}
100
AcDbEntity
  8
None
370
               9
390
0
  6
Continuous
 62
               7
100
AcDbCircle
 10
1.7955899999999998
 20
18.362199999999998
 30
0.0
 40
0.1400000000000006
  0
HATCH
  5
E4
100
AcDbEntity
  8
None
370
               0
390
0
  6
Continuous
 62
               7
100
AcDbHatch
 10
0.0
 20
0.0
 30
0.0
210
0.0
220
0.0
230
1.0
  2
SOLID
 70
               1
 71
               1
 91
        1
 92
        1
 93
        1
 72
               2
 10
1.7955899999999998
 20
18.362199999999998
 40
0.1400000000000006
 50
0.0
 51
360.0
 73
               0
 97
        1
330
E3
 75
               0
 76
               1
 98
        1
 10
0.0
 20
0.0
  0
CIRCLE
  5
E5
102
{ACAD_REACTORS
330
E6
102
}
100
AcDbEntity
  8
None
370
               9
390
0
  6
Continuous
 62
               7
100
AcDbCircle
 10
2.2955899999999998
 20
18.362199999999998
 30
0.0
 40
0.1400000000000006
  0
HATCH
  5
E6
100
AcDbEntity
  8
None
370
               0
390
0
  6
Continuous
 62
               7
100
AcDbHatch
 10
0.0
 20
0.0
 30
0.0
210
0.0
220
0.0
230
1.0
  2
SOLID
 70
               1
 71
               1
 91
        1
 92
        1
 93
        1
 72
               2
 10
2.2955899999999998
 20
18.362199999999998
 40
0.1400000000000006
 50
0.0
 51
360.0
 73
               0
 97
        1
330
E5
 75
               0
 76
               1
 98
        1
 10
0.0
 20
0.0
  0
CIRCLE
  5
E7
102
{ACAD_REACTORS
330
E8
102
}
100
AcDbEntity
  8
None
370
               9
390
0
  6
Continuous
 62
               7
100
AcDbCircle
 10
2.7955899999999998
 20
18.362199999999998
 30
0.0
 40
0.1400000000000006
  0
HATCH
  5
E8
100
AcDbEntity
  8
None
370
               0
390
0
  6
Continuous
 62
               7
100
AcDbHatch
 10
0.0
 20
0.0
 30
0.0
210
0.0
220
0.0
230
1.0
  2
SOLID
 70
               1
 71
               1
 91
        1
 92
        1
 93
        1
 72
               2
 10
2.7955899999999998
 20
18.362199999999998
 40
0.1400000000000006
 50
0.0
 51
360.0
 73
               0
 97
        1
330
E7
 75
               0
 76
               1
 98
        1
 10
0.0
 20
0.0
  0
CIRCLE
  5
E9
102
{ACAD_REACTORS
330
EA
102
}
100
AcDbEntity
  8
None
370
               9
390
0
  6
Continuous
 62
               7
100
AcDbCircle
 10
3.2955899999999998
 20
18.362199999999998
 30
0.0
 40
0.1400000000000006
  0
HATCH
  5
EA
100
AcDbEntity
  8
None
370
               0
390
0
  6
Continuous
 62
               7
100
AcDbHatch
 10
0.0
 20
0.0
 30
0.0
210
0.0
220
0.0
230
1.0
  2
SOLID
 70
               1
 71
               1
 91
        1
 92
        1
 93
        1
 72
               2
 10
3.2955899999999998
 20
18.362199999999998
 40
0.1400000000000006
 50
0.0
 51
360.0
 73
               0
 97
        1
330
E9
 75
               0
 76
               1
 98
        1
 10
0.0
 20
0.0
  0
CIRCLE
  5
EB
102
{ACAD_REACTORS
330
EC
102
}
100
AcDbEntity
  8
None
370
               9
390
0
  6
Continuous
 62
               7
100
AcDbCircle
 10
3.7955899999999998
 20
18.362199999999998
 30
0.0
 40
0.1400000000000006
  0
HATCH
  5
EC
100
AcDbEntity
  8
None
370
               0
390
0
  6
Continuous
 62
               7
100
AcDbHatch
 10
0.0
 20
0.0
 30
0.0
210
0.0
220
0.0
230
1.0
  2
SOLID
 70
               1
 71
               1
 91
        1
 92
        1
 93
        1
 72
               2
 10
3.7955899999999998
 20
18.362199999999998
 40
0.1400000000000006
 50
0.0
 51
360.0
 73
               0
 97
        1
330
EB
 75
               0
 76
               1
 98
        1
 10
0.0
 20
0.0
  0
CIRCLE
  5
ED
102
{ACAD_REACTORS
330
EE
102
}
100
AcDbEntity
  8
None
370
               9
390
0
  6
Continuous
 62
               7
100
AcDbCircle
 10
-3.2044099999999998
 20
18.862199999999998
 30
0.0
 40
0.1400000000000006
  0
HATCH
  5
EE
100
AcDbEntity
  8
None
370
               0
390
0
  6
Continuous
 62
               7
100
AcDbHatch
 10
0.0
 20
0.0
 30
0.0
210
0.0
220
0.0
230
1.0
  2
SOLID
 70
               1
 71
               1
 91
        1
 92
        1
 93
        1
 72
               2
 10
-3.2044099999999998
 20
18.862199999999998
 40
0.1400000000000006
 50
0.0
 51
360.0
 73
               0
 97
        1
330
ED
 75
               0
 76
               1
 98
        1
 10
0.0
 20
0.0
  0
CIRCLE
  5
EF
102
{ACAD_REACTORS
330
F0
102
}
100
AcDbEntity
  8
None
370
               9
390
0
  6
Continuous
 62
               7
100
AcDbCircle
 10
-2.7044099999999998
 20
18.862199999999998
 30
0.0
 40
0.1400000000000006
  0
HATCH
  5
F0
100
AcDbEntity
  8
None
370
               0
390
0
  6
Continuous
 62
               7
100
AcDbHatch
 10
0.0
 20
0.0
 30
0.0
210
0.0
220
0.0
230
1.0
  2
SOLID
 70
               1
 71
               1
 91
        1
 92
        1
 93
        1
 72
               2
 10
-2.7044099999999998
 20
18.862199999999998
 40
0.1400000000000006
 50
0.0
 51
360.0
 73
               0
 97
        1
330
EF
 75
               0
 76
               1
 98
        1
 10
0.0
 20
0.0
  0
CIRCLE
  5
F1
102
{ACAD_REACTORS
330
F2
102
}
100
AcDbEntity
  8
None
370
               9
390
0
  6
Continuous
 62
               7
100
AcDbCircle
 10
-2.2044099999999998
 20
18.862199999999998
 30
0.0
 40
0.1400000000000006
  0
HATCH
  5
F2
100
AcDbEntity
  8
None
370
               0
390
0
  6
Continuous
 62
               7
100
AcDbHatch
 10
0.0
 20
0.0
 30
0.0
210
0.0
220
0.0
230
1.0
  2
SOLID
 70
               1
 71
               1
 91
        1
 92
        1
 93
        1
 72
               2
 10
-2.2044099999999998
 20
18.862199999999998
 40
0.1400000000000006
 50
0.0
 51
360.0
 73
               0
 97
        1
330
F1
 75
               0
 76
               1
 98
        1
 10
0.0
 20
0.0
  0
CIRCLE
  5
F3
102
{ACAD_REACTORS
330
F4
102
}
100
AcDbEntity
  8
None
370
               9
390
0
  6
Continuous
 62
               7
100
AcDbCircle
 10
-1.7044099999999998
 20
18.862199999999998
 30
0.0
 40
0.1400000000000006
  0
HATCH
  5
F4
100
AcDbEntity
  8
None
370
               0
390
0
  6
Continuous
 62
               7
100
AcDbHatch
 10
0.0
 20
0.0
 30
0.0
210
0.0
220
0.0
230
1.0
  2
SOLID
 70
               1
 71
               1
 91
        1
 92
        1
 93
        1
 72
               2
 10
-1.7044099999999998
 20
18.862199999999998
 40
0.1400000000000006
 50
0.0
 51
360.0
 73
               0
 97
        1
330
F3
 75
               0
 76
               1
 98
        1
 10
0.0
 20
0.0
  0
CIRCLE
  5
F5
102
{ACAD_REACTORS
330
F6
102
}
100
AcDbEntity
  8
None
370
               9
390
0
  6
Continuous
 62
               7
100
AcDbCircle
 10
-1.20441
 20
18.862199999999998
 30
0.0
 40
0.1400000000000006
  0
HATCH
  5
F6
100
AcDbEntity
  8
None
370
               0
390
0
  6
Continuous
 62
               7
100
AcDbHatch
 10
0.0
 20
0.0
 30
0.0
210
0.0
220
0.0
230
1.0
  2
SOLID
 70
               1
 71
               1
 91
        1
 92
        1
 93
        1
 72
               2
 10
-1.20441
 20
18.862199999999998
 40
0.1400000000000006
 50
0.0
 51
360.0
 73
               0
 97
        1
330
F5
 75
               0
 76
               1
 98
        1
 10
0.0
 20
0.0
  0
CIRCLE
  5
F7
102
{ACAD_REACTORS
330
F8
102
}
100
AcDbEntity
  8
None
370
               9
390
0
  6
Continuous
 62
               7
100
AcDbCircle
 10
-0.70441
 20
18.862199999999998
 30
0.0
 40
0.1400000000000006
  0
HATCH
  5
F8
100
AcDbEntity
  8
None
370
               0
390
0
  6
Continuous
 62
               7
100
AcDbHatch
 10
0.0
 20
0.0
 30
0.0
210
0.0
220
0.0
230
1.0
  2
SOLID
 70
               1
 71
               1
 91
        1
 92
        1
 93
        1
 72
               2
 10
-0.70441
 20
18.862199999999998
 40
0.1400000000000006
 50
0.0
 51
360.0
 73
               0
 97
        1
330
F7
 75
               0
 76
               1
 98
        1
 10
0.0
 20
0.0
  0
CIRCLE
  5
F9
102
{ACAD_REACTORS
330
FA
102
}
100
AcDbEntity
  8
None
370
               9
390
0
  6
Continuous
 62
               7
100
AcDbCircle
 10
-0.20441
 20
18.862199999999998
 30
0.0
 40
0.1400000000000006
  0
HATCH
  5
FA
100
AcDbEntity
  8
None
370
               0
390
0
  6
Continuous
 62
               7
100
AcDbHatch
 10
0.0
 20
0.0
 30
0.0
210
0.0
220
0.0
230
1.0
  2
SOLID
 70
               1
 71
               1
 91
        1
 92
        1
 93
        1
 72
               2
 10
-0.20441
 20
18.862199999999998
 40
0.1400000000000006
 50
0.0
 51
360.0
 73
               0
 97
        1
330
F9
 75
               0
 76
               1
 98
        1
 10
0.0
 20
0.0
  0
CIRCLE
  5
FB
102
{ACAD_REACTORS
330
FC
102
}
100
AcDbEntity
  8
None
370
               9
390
0
  6
Continuous
 62
               7
100
AcDbCircle
 10
0.29559
 20
18.862199999999998
 30
0.0
 40
0.1400000000000006
  0
HATCH
  5
FC
100
AcDbEntity
  8
None
370
               0
390
0
  6
Continuous
 62
               7
100
AcDbHatch
 10
0.0
 20
0.0
 30
0.0
210
0.0
220
0.0
230
1.0
  2
SOLID
 70
               1
 71
               1
 91
        1
 92
        1
 93
        1
 72
               2
 10
0.29559
 20
18.862199999999998
 40
0.1400000000000006
 50
0.0
 51
360.0
 73
               0
 97
        1
330
FB
 75
               0
 76
               1
 98
        1
 10
0.0
 20
0.0
  0
CIRCLE
  5
FD
102
{ACAD_REACTORS
330
FE
102
}
100
AcDbEntity
  8
None
370
               9
390
0
  6
Continuous
 62
               7
100
AcDbCircle
 10
0.7955899999999999
 20
18.862199999999998
 30
0.0
 40
0.1400000000000006
  0
HATCH
  5
FE
100
AcDbEntity
  8
None
370
               0
390
0
  6
Continuous
 62
               7
100
AcDbHatch
 10
0.0
 20
0.0
 30
0.0
210
0.0
220
0.0
230
1.0
  2
SOLID
 70
               1
 71
               1
 91
        1
 92
        1
 93
        1
 72
               2
 10
0.7955899999999999
 20
18.862199999999998
 40
0.1400000000000006
 50
0.0
 51
360.0
 73
               0
 97
        1
330
FD
 75
               0
 76
               1
 98
        1
 10
0.0
 20
0.0
  0
CIRCLE
  5
FF
102
{ACAD_REACTORS
330
100
102
}
100
AcDbEntity
  8
None
370
               9
390
0
  6
Continuous
 62
               7
100
AcDbCircle
 10
1.2955899999999998
 20
18.862199999999998
 30
0.0
 40
0.1400000000000006
  0
HATCH
  5
100
100
AcDbEntity
  8
None
370
               0
390
0
  6
Continuous
 62
               7
100
AcDbHatch
 10
0.0
 20
0.0
 30
0.0
210
0.0
220
0.0
230
1.0
  2
SOLID
 70
               1
 71
               1
 91
        1
 92
        1
 93
        1
 72
               2
 10
1.2955899999999998
 20
18.862199999999998
 40
0.1400000000000006
 50
0.0
 51
360.0
 73
               0
 97
        1
330
FF
 75
               0
 76
               1
 98
        1
 10
0.0
 20
0.0
  0
CIRCLE
  5
101
102
{ACAD_REACTORS
330
102
102
}
100
AcDbEntity
  8
None
370
               9
390
0
  6
Continuous
 62
               7
100
AcDbCircle
 10
1.7955899999999998
 20
18.862199999999998
 30
0.0
 40
0.1400000000000006
  0
HATCH
  5
102
100
AcDbEntity
  8
None
370
               0
390
0
  6
Continuous
 62
               7
100
AcDbHatch
 10
0.0
 20
0.0
 30
0.0
210
0.0
220
0.0
230
1.0
  2
SOLID
 70
               1
 71
               1
 91
        1
 92
        1
 93
        1
 72
               2
 10
1.7955899999999998
 20
18.862199999999998
 40
0.1400000000000006
 50
0.0
 51
360.0
 73
               0
 97
        1
330
101
 75
               0
 76
               1
 98
        1
 10
0.0
 20
0.0
  0
CIRCLE
  5
103
102
{ACAD_REACTORS
330
104
102
}
100
AcDbEntity
  8
None
370
               9
390
0
  6
Continuous
 62
               7
100
AcDbCircle
 10
2.2955899999999998
 20
18.862199999999998
 30
0.0
 40
0.1400000000000006
  0
HATCH
  5
104
100
AcDbEntity
  8
None
370
               0
390
0
  6
Continuous
 62
               7
100
AcDbHatch
 10
0.0
 20
0.0
 30
0.0
210
0.0
220
0.0
230
1.0
  2
SOLID
 70
               1
 71
               1
 91
        1
 92
        1
 93
        1
 72
               2
 10
2.2955899999999998
 20
18.862199999999998
 40
0.1400000000000006
 50
0.0
 51
360.0
 73
               0
 97
        1
330
103
 75
               0
 76
               1
 98
        1
 10
0.0
 20
0.0
  0
CIRCLE
  5
105
102
{ACAD_REACTORS
330
106
102
}
100
AcDbEntity
  8
None
370
               9
390
0
  6
Continuous
 62
               7
100
AcDbCircle
 10
2.7955899999999998
 20
18.862199999999998
 30
0.0
 40
0.1400000000000006
  0
HATCH
  5
106
100
AcDbEntity
  8
None
370
               0
390
0
  6
Continuous
 62
               7
100
AcDbHatch
 10
0.0
 20
0.0
 30
0.0
210
0.0
220
0.0
230
1.0
  2
SOLID
 70
               1
 71
               1
 91
        1
 92
        1
 93
        1
 72
               2
 10
2.7955899999999998
 20
18.862199999999998
 40
0.1400000000000006
 50
0.0
 51
360.0
 73
               0
 97
        1
330
105
 75
               0
 76
               1
 98
        1
 10
0.0
 20
0.0
  0
CIRCLE
  5
107
102
{ACAD_REACTORS
330
108
102
}
100
AcDbEntity
  8
None
370
               9
390
0
  6
Continuous
 62
               7
100
AcDbCircle
 10
3.2955899999999998
 20
18.862199999999998
 30
0.0
 40
0.1400000000000006
  0
HATCH
  5
108
100
AcDbEntity
  8
None
370
               0
390
0
  6
Continuous
 62
               7
100
AcDbHatch
 10
0.0
 20
0.0
 30
0.0
210
0.0
220
0.0
230
1.0
  2
SOLID
 70
               1
 71
               1
 91
        1
 92
        1
 93
        1
 72
               2
 10
3.2955899999999998
 20
18.862199999999998
 40
0.1400000000000006
 50
0.0
 51
360.0
 73
               0
 97
        1
330
107
 75
               0
 76
               1
 98
        1
 10
0.0
 20
0.0
  0
CIRCLE
  5
109
102
{ACAD_REACTORS
330
10A
102
}
100
AcDbEntity
  8
None
370
               9
390
0
  6
Continuous
 62
               7
100
AcDbCircle
 10
3.7955899999999998
 20
18.862199999999998
 30
0.0
 40
0.1400000000000006
  0
HATCH
  5
10A
100
AcDbEntity
  8
None
370
               0
390
0
  6
Continuous
 62
               7
100
AcDbHatch
 10
0.0
 20
0.0
 30
0.0
210
0.0
220
0.0
230
1.0
  2
SOLID
 70
               1
 71
               1
 91
        1
 92
        1
 93
        1
 72
               2
 10
3.7955899999999998
 20
18.862199999999998
 40
0.1400000000000006
 50
0.0
 51
360.0
 73
               0
 97
        1
330
109
 75
               0
 76
               1
 98
        1
 10
0.0
 20
0.0
  0
CIRCLE
  5
10B
102
{ACAD_REACTORS
330
10C
102
}
100
AcDbEntity
  8
None
370
               9
390
0
  6
Continuous
 62
               7
100
AcDbCircle
 10
-3.2044099999999998
 20
19.362199999999998
 30
0.0
 40
0.1400000000000006
  0
HATCH
  5
10C
100
AcDbEntity
  8
None
370
               0
390
0
  6
Continuous
 62
               7
100
AcDbHatch
 10
0.0
 20
0.0
 30
0.0
210
0.0
220
0.0
230
1.0
  2
SOLID
 70
               1
 71
               1
 91
        1
 92
        1
 93
        1
 72
               2
 10
-3.2044099999999998
 20
19.362199999999998
 40
0.1400000000000006
 50
0.0
 51
360.0
 73
               0
 97
        1
330
10B
 75
               0
 76
               1
 98
        1
 10
0.0
 20
0.0
  0
CIRCLE
  5
10D
102
{ACAD_REACTORS
330
10E
102
}
100
AcDbEntity
  8
None
370
               9
390
0
  6
Continuous
 62
               7
100
AcDbCircle
 10
-2.7044099999999998
 20
19.362199999999998
 30
0.0
 40
0.1400000000000006
  0
HATCH
  5
10E
100
AcDbEntity
  8
None
370
               0
390
0
  6
Continuous
 62
               7
100
AcDbHatch
 10
0.0
 20
0.0
 30
0.0
210
0.0
220
0.0
230
1.0
  2
SOLID
 70
               1
 71
               1
 91
        1
 92
        1
 93
        1
 72
               2
 10
-2.7044099999999998
 20
19.362199999999998
 40
0.1400000000000006
 50
0.0
 51
360.0
 73
               0
 97
        1
330
10D
 75
               0
 76
               1
 98
        1
 10
0.0
 20
0.0
  0
CIRCLE
  5
10F
102
{ACAD_REACTORS
330
110
102
}
100
AcDbEntity
  8
None
370
               9
390
0
  6
Continuous
 62
               7
100
AcDbCircle
 10
-2.2044099999999998
 20
19.362199999999998
 30
0.0
 40
0.1400000000000006
  0
HATCH
  5
110
100
AcDbEntity
  8
None
370
               0
390
0
  6
Continuous
 62
               7
100
AcDbHatch
 10
0.0
 20
0.0
 30
0.0
210
0.0
220
0.0
230
1.0
  2
SOLID
 70
               1
 71
               1
 91
        1
 92
        1
 93
        1
 72
               2
 10
-2.2044099999999998
 20
19.362199999999998
 40
0.1400000000000006
 50
0.0
 51
360.0
 73
               0
 97
        1
330
10F
 75
               0
 76
               1
 98
        1
 10
0.0
 20
0.0
  0
CIRCLE
  5
111
102
{ACAD_REACTORS
330
112
102
}
100
AcDbEntity
  8
None
370
               9
390
0
  6
Continuous
 62
               7
100
AcDbCircle
 10
-1.7044099999999998
 20
19.362199999999998
 30
0.0
 40
0.1400000000000006
  0
HATCH
  5
112
100
AcDbEntity
  8
None
370
               0
390
0
  6
Continuous
 62
               7
100
AcDbHatch
 10
0.0
 20
0.0
 30
0.0
210
0.0
220
0.0
230
1.0
  2
SOLID
 70
               1
 71
               1
 91
        1
 92
        1
 93
        1
 72
               2
 10
-1.7044099999999998
 20
19.362199999999998
 40
0.1400000000000006
 50
0.0
 51
360.0
 73
               0
 97
        1
330
111
 75
               0
 76
               1
 98
        1
 10
0.0
 20
0.0
  0
CIRCLE
  5
113
102
{ACAD_REACTORS
330
114
102
}
100
AcDbEntity
  8
None
370
               9
390
0
  6
Continuous
 62
               7
100
AcDbCircle
 10
-1.20441
 20
19.362199999999998
 30
0.0
 40
0.1400000000000006
  0
HATCH
  5
114
100
AcDbEntity
  8
None
370
               0
390
0
  6
Continuous
 62
               7
100
AcDbHatch
 10
0.0
 20
0.0
 30
0.0
210
0.0
220
0.0
230
1.0
  2
SOLID
 70
               1
 71
               1
 91
        1
 92
        1
 93
        1
 72
               2
 10
-1.20441
 20
19.362199999999998
 40
0.1400000000000006
 50
0.0
 51
360.0
 73
               0
 97
        1
330
113
 75
               0
 76
               1
 98
        1
 10
0.0
 20
0.0
  0
CIRCLE
  5
115
102
{ACAD_REACTORS
330
116
102
}
100
AcDbEntity
  8
None
370
               9
390
0
  6
Continuous
 62
               7
100
AcDbCircle
 10
-0.70441
 20
19.362199999999998
 30
0.0
 40
0.1400000000000006
  0
HATCH
  5
116
100
AcDbEntity
  8
None
370
               0
390
0
  6
Continuous
 62
               7
100
AcDbHatch
 10
0.0
 20
0.0
 30
0.0
210
0.0
220
0.0
230
1.0
  2
SOLID
 70
               1
 71
               1
 91
        1
 92
        1
 93
        1
 72
               2
 10
-0.70441
 20
19.362199999999998
 40
0.1400000000000006
 50
0.0
 51
360.0
 73
               0
 97
        1
330
115
 75
               0
 76
               1
 98
        1
 10
0.0
 20
0.0
  0
CIRCLE
  5
117
102
{ACAD_REACTORS
330
118
102
}
100
AcDbEntity
  8
None
370
               9
390
0
  6
Continuous
 62
               7
100
AcDbCircle
 10
-0.20441
 20
19.362199999999998
 30
0.0
 40
0.1400000000000006
  0
HATCH
  5
118
100
AcDbEntity
  8
None
370
               0
390
0
  6
Continuous
 62
               7
100
AcDbHatch
 10
0.0
 20
0.0
 30
0.0
210
0.0
220
0.0
230
1.0
  2
SOLID
 70
               1
 71
               1
 91
        1
 92
        1
 93
        1
 72
               2
 10
-0.20441
 20
19.362199999999998
 40
0.1400000000000006
 50
0.0
 51
360.0
 73
               0
 97
        1
330
117
 75
               0
 76
               1
 98
        1
 10
0.0
 20
0.0
  0
CIRCLE
  5
119
102
{ACAD_REACTORS
330
11A
102
}
100
AcDbEntity
  8
None
370
               9
390
0
  6
Continuous
 62
               7
100
AcDbCircle
 10
0.29559
 20
19.362199999999998
 30
0.0
 40
0.1400000000000006
  0
HATCH
  5
11A
100
AcDbEntity
  8
None
370
               0
390
0
  6
Continuous
 62
               7
100
AcDbHatch
 10
0.0
 20
0.0
 30
0.0
210
0.0
220
0.0
230
1.0
  2
SOLID
 70
               1
 71
               1
 91
        1
 92
        1
 93
        1
 72
               2
 10
0.29559
 20
19.362199999999998
 40
0.1400000000000006
 50
0.0
 51
360.0
 73
               0
 97
        1
330
119
 75
               0
 76
               1
 98
        1
 10
0.0
 20
0.0
  0
CIRCLE
  5
11B
102
{ACAD_REACTORS
330
11C
102
}
100
AcDbEntity
  8
None
370
               9
390
0
  6
Continuous
 62
               7
100
AcDbCircle
 10
0.7955899999999999
 20
19.362199999999998
 30
0.0
 40
0.1400000000000006
  0
HATCH
  5
11C
100
AcDbEntity
  8
None
370
               0
390
0
  6
Continuous
 62
               7
100
AcDbHatch
 10
0.0
 20
0.0
 30
0.0
210
0.0
220
0.0
230
1.0
  2
SOLID
 70
               1
 71
               1
 91
        1
 92
        1
 93
        1
 72
               2
 10
0.7955899999999999
 20
19.362199999999998
 40
0.1400000000000006
 50
0.0
 51
360.0
 73
               0
 97
        1
330
11B
 75
               0
 76
               1
 98
        1
 10
0.0
 20
0.0
  0
CIRCLE
  5
11D
102
{ACAD_REACTORS
330
11E
102
}
100
AcDbEntity
  8
None
370
               9
390
0
  6
Continuous
 62
               7
100
AcDbCircle
 10
1.2955899999999998
 20
19.362199999999998
 30
0.0
 40
0.1400000000000006
  0
HATCH
  5
11E
100
AcDbEntity
  8
None
370
               0
390
0
  6
Continuous
 62
               7
100
AcDbHatch
 10
0.0
 20
0.0
 30
0.0
210
0.0
220
0.0
230
1.0
  2
SOLID
 70
               1
 71
               1
 91
        1
 92
        1
 93
        1
 72
               2
 10
1.2955899999999998
 20
19.362199999999998
 40
0.1400000000000006
 50
0.0
 51
360.0
 73
               0
 97
        1
330
11D
 75
               0
 76
               1
 98
        1
 10
0.0
 20
0.0
  0
CIRCLE
  5
11F
102
{ACAD_REACTORS
330
120
102
}
100
AcDbEntity
  8
None
370
               9
390
0
  6
Continuous
 62
               7
100
AcDbCircle
 10
1.7955899999999998
 20
19.362199999999998
 30
0.0
 40
0.1400000000000006
  0
HATCH
  5
120
100
AcDbEntity
  8
None
370
               0
390
0
  6
Continuous
 62
               7
100
AcDbHatch
 10
0.0
 20
0.0
 30
0.0
210
0.0
220
0.0
230
1.0
  2
SOLID
 70
               1
 71
               1
 91
        1
 92
        1
 93
        1
 72
               2
 10
1.7955899999999998
 20
19.362199999999998
 40
0.1400000000000006
 50
0.0
 51
360.0
 73
               0
 97
        1
330
11F
 75
               0
 76
               1
 98
        1
 10
0.0
 20
0.0
  0
CIRCLE
  5
121
102
{ACAD_REACTORS
330
122
102
}
100
AcDbEntity
  8
None
370
               9
390
0
  6
Continuous
 62
               7
100
AcDbCircle
 10
2.2955899999999998
 20
19.362199999999998
 30
0.0
 40
0.1400000000000006
  0
HATCH
  5
122
100
AcDbEntity
  8
None
370
               0
390
0
  6
Continuous
 62
               7
100
AcDbHatch
 10
0.0
 20
0.0
 30
0.0
210
0.0
220
0.0
230
1.0
  2
SOLID
 70
               1
 71
               1
 91
        1
 92
        1
 93
        1
 72
               2
 10
2.2955899999999998
 20
19.362199999999998
 40
0.1400000000000006
 50
0.0
 51
360.0
 73
               0
 97
        1
330
121
 75
               0
 76
               1
 98
        1
 10
0.0
 20
0.0
  0
CIRCLE
  5
123
102
{ACAD_REACTORS
330
124
102
}
100
AcDbEntity
  8
None
370
               9
390
0
  6
Continuous
 62
               7
100
AcDbCircle
 10
2.7955899999999998
 20
19.362199999999998
 30
0.0
 40
0.1400000000000006
  0
HATCH
  5
124
100
AcDbEntity
  8
None
370
               0
390
0
  6
Continuous
 62
               7
100
AcDbHatch
 10
0.0
 20
0.0
 30
0.0
210
0.0
220
0.0
230
1.0
  2
SOLID
 70
               1
 71
               1
 91
        1
 92
        1
 93
        1
 72
               2
 10
2.7955899999999998
 20
19.362199999999998
 40
0.1400000000000006
 50
0.0
 51
360.0
 73
               0
 97
        1
330
123
 75
               0
 76
               1
 98
        1
 10
0.0
 20
0.0
  0
CIRCLE
  5
125
102
{ACAD_REACTORS
330
126
102
}
100
AcDbEntity
  8
None
370
               9
390
0
  6
Continuous
 62
               7
100
AcDbCircle
 10
3.2955899999999998
 20
19.362199999999998
 30
0.0
 40
0.1400000000000006
  0
HATCH
  5
126
100
AcDbEntity
  8
None
370
               0
390
0
  6
Continuous
 62
               7
100
AcDbHatch
 10
0.0
 20
0.0
 30
0.0
210
0.0
220
0.0
230
1.0
  2
SOLID
 70
               1
 71
               1
 91
        1
 92
        1
 93
        1
 72
               2
 10
3.2955899999999998
 20
19.362199999999998
 40
0.1400000000000006
 50
0.0
 51
360.0
 73
               0
 97
        1
330
125
 75
               0
 76
               1
 98
        1
 10
0.0
 20
0.0
  0
CIRCLE
  5
127
102
{ACAD_REACTORS
330
128
102
}
100
AcDbEntity
  8
None
370
               9
390
0
  6
Continuous
 62
               7
100
AcDbCircle
 10
3.7955899999999998
 20
19.362199999999998
 30
0.0
 40
0.1400000000000006
  0
HATCH
  5
128
100
AcDbEntity
  8
None
370
               0
390
0
  6
Continuous
 62
               7
100
AcDbHatch
 10
0.0
 20
0.0
 30
0.0
210
0.0
220
0.0
230
1.0
  2
SOLID
 70
               1
 71
               1
 91
        1
 92
        1
 93
        1
 72
               2
 10
3.7955899999999998
 20
19.362199999999998
 40
0.1400000000000006
 50
0.0
 51
360.0
 73
               0
 97
        1
330
127
 75
               0
 76
               1
 98
        1
 10
0.0
 20
0.0
  0
CIRCLE
  5
129
102
{ACAD_REACTORS
330
12A
102
}
100
AcDbEntity
  8
None
370
               9
390
0
  6
Continuous
 62
               7
100
AcDbCircle
 10
-3.2044099999999998
 20
19.862199999999998
 30
0.0
 40
0.1400000000000006
  0
HATCH
  5
12A
100
AcDbEntity
  8
None
370
               0
390
0
  6
Continuous
 62
               7
100
AcDbHatch
 10
0.0
 20
0.0
 30
0.0
210
0.0
220
0.0
230
1.0
  2
SOLID
 70
               1
 71
               1
 91
        1
 92
        1
 93
        1
 72
               2
 10
-3.2044099999999998
 20
19.862199999999998
 40
0.1400000000000006
 50
0.0
 51
360.0
 73
               0
 97
        1
330
129
 75
               0
 76
               1
 98
        1
 10
0.0
 20
0.0
  0
CIRCLE
  5
12B
102
{ACAD_REACTORS
330
12C
102
}
100
AcDbEntity
  8
None
370
               9
390
0
  6
Continuous
 62
               7
100
AcDbCircle
 10
-2.7044099999999998
 20
19.862199999999998
 30
0.0
 40
0.1400000000000006
  0
HATCH
  5
12C
100
AcDbEntity
  8
None
370
               0
390
0
  6
Continuous
 62
               7
100
AcDbHatch
 10
0.0
 20
0.0
 30
0.0
210
0.0
220
0.0
230
1.0
  2
SOLID
 70
               1
 71
               1
 91
        1
 92
        1
 93
        1
 72
               2
 10
-2.7044099999999998
 20
19.862199999999998
 40
0.1400000000000006
 50
0.0
 51
360.0
 73
               0
 97
        1
330
12B
 75
               0
 76
               1
 98
        1
 10
0.0
 20
0.0
  0
CIRCLE
  5
12D
102
{ACAD_REACTORS
330
12E
102
}
100
AcDbEntity
  8
None
370
               9
390
0
  6
Continuous
 62
               7
100
AcDbCircle
 10
-2.2044099999999998
 20
19.862199999999998
 30
0.0
 40
0.1400000000000006
  0
HATCH
  5
12E
100
AcDbEntity
  8
None
370
               0
390
0
  6
Continuous
 62
               7
100
AcDbHatch
 10
0.0
 20
0.0
 30
0.0
210
0.0
220
0.0
230
1.0
  2
SOLID
 70
               1
 71
               1
 91
        1
 92
        1
 93
        1
 72
               2
 10
-2.2044099999999998
 20
19.862199999999998
 40
0.1400000000000006
 50
0.0
 51
360.0
 73
               0
 97
        1
330
12D
 75
               0
 76
               1
 98
        1
 10
0.0
 20
0.0
  0
CIRCLE
  5
12F
102
{ACAD_REACTORS
330
130
102
}
100
AcDbEntity
  8
None
370
               9
390
0
  6
Continuous
 62
               7
100
AcDbCircle
 10
-1.7044099999999998
 20
19.862199999999998
 30
0.0
 40
0.1400000000000006
  0
HATCH
  5
130
100
AcDbEntity
  8
None
370
               0
390
0
  6
Continuous
 62
               7
100
AcDbHatch
 10
0.0
 20
0.0
 30
0.0
210
0.0
220
0.0
230
1.0
  2
SOLID
 70
               1
 71
               1
 91
        1
 92
        1
 93
        1
 72
               2
 10
-1.7044099999999998
 20
19.862199999999998
 40
0.1400000000000006
 50
0.0
 51
360.0
 73
               0
 97
        1
330
12F
 75
               0
 76
               1
 98
        1
 10
0.0
 20
0.0
  0
CIRCLE
  5
131
102
{ACAD_REACTORS
330
132
102
}
100
AcDbEntity
  8
None
370
               9
390
0
  6
Continuous
 62
               7
100
AcDbCircle
 10
-1.20441
 20
19.862199999999998
 30
0.0
 40
0.1400000000000006
  0
HATCH
  5
132
100
AcDbEntity
  8
None
370
               0
390
0
  6
Continuous
 62
               7
100
AcDbHatch
 10
0.0
 20
0.0
 30
0.0
210
0.0
220
0.0
230
1.0
  2
SOLID
 70
               1
 71
               1
 91
        1
 92
        1
 93
        1
 72
               2
 10
-1.20441
 20
19.862199999999998
 40
0.1400000000000006
 50
0.0
 51
360.0
 73
               0
 97
        1
330
131
 75
               0
 76
               1
 98
        1
 10
0.0
 20
0.0
  0
CIRCLE
  5
133
102
{ACAD_REACTORS
330
134
102
}
100
AcDbEntity
  8
None
370
               9
390
0
  6
Continuous
 62
               7
100
AcDbCircle
 10
-0.70441
 20
19.862199999999998
 30
0.0
 40
0.1400000000000006
  0
HATCH
  5
134
100
AcDbEntity
  8
None
370
               0
390
0
  6
Continuous
 62
               7
100
AcDbHatch
 10
0.0
 20
0.0
 30
0.0
210
0.0
220
0.0
230
1.0
  2
SOLID
 70
               1
 71
               1
 91
        1
 92
        1
 93
        1
 72
               2
 10
-0.70441
 20
19.862199999999998
 40
0.1400000000000006
 50
0.0
 51
360.0
 73
               0
 97
        1
330
133
 75
               0
 76
               1
 98
        1
 10
0.0
 20
0.0
  0
CIRCLE
  5
135
102
{ACAD_REACTORS
330
136
102
}
100
AcDbEntity
  8
None
370
               9
390
0
  6
Continuous
 62
               7
100
AcDbCircle
 10
-0.20441
 20
19.862199999999998
 30
0.0
 40
0.1400000000000006
  0
HATCH
  5
136
100
AcDbEntity
  8
None
370
               0
390
0
  6
Continuous
 62
               7
100
AcDbHatch
 10
0.0
 20
0.0
 30
0.0
210
0.0
220
0.0
230
1.0
  2
SOLID
 70
               1
 71
               1
 91
        1
 92
        1
 93
        1
 72
               2
 10
-0.20441
 20
19.862199999999998
 40
0.1400000000000006
 50
0.0
 51
360.0
 73
               0
 97
        1
330
135
 75
               0
 76
               1
 98
        1
 10
0.0
 20
0.0
  0
CIRCLE
  5
137
102
{ACAD_REACTORS
330
138
102
}
100
AcDbEntity
  8
None
370
               9
390
0
  6
Continuous
 62
               7
100
AcDbCircle
 10
0.29559
 20
19.862199999999998
 30
0.0
 40
0.1400000000000006
  0
HATCH
  5
138
100
AcDbEntity
  8
None
370
               0
390
0
  6
Continuous
 62
               7
100
AcDbHatch
 10
0.0
 20
0.0
 30
0.0
210
0.0
220
0.0
230
1.0
  2
SOLID
 70
               1
 71
               1
 91
        1
 92
        1
 93
        1
 72
               2
 10
0.29559
 20
19.862199999999998
 40
0.1400000000000006
 50
0.0
 51
360.0
 73
               0
 97
        1
330
137
 75
               0
 76
               1
 98
        1
 10
0.0
 20
0.0
  0
CIRCLE
  5
139
102
{ACAD_REACTORS
330
13A
102
}
100
AcDbEntity
  8
None
370
               9
390
0
  6
Continuous
 62
               7
100
AcDbCircle
 10
0.7955899999999999
 20
19.862199999999998
 30
0.0
 40
0.1400000000000006
  0
HATCH
  5
13A
100
AcDbEntity
  8
None
370
               0
390
0
  6
Continuous
 62
               7
100
AcDbHatch
 10
0.0
 20
0.0
 30
0.0
210
0.0
220
0.0
230
1.0
  2
SOLID
 70
               1
 71
               1
 91
        1
 92
        1
 93
        1
 72
               2
 10
0.7955899999999999
 20
19.862199999999998
 40
0.1400000000000006
 50
0.0
 51
360.0
 73
               0
 97
        1
330
139
 75
               0
 76
               1
 98
        1
 10
0.0
 20
0.0
  0
CIRCLE
  5
13B
102
{ACAD_REACTORS
330
13C
102
}
100
AcDbEntity
  8
None
370
               9
390
0
  6
Continuous
 62
               7
100
AcDbCircle
 10
1.2955899999999998
 20
19.862199999999998
 30
0.0
 40
0.1400000000000006
  0
HATCH
  5
13C
100
AcDbEntity
  8
None
370
               0
390
0
  6
Continuous
 62
               7
100
AcDbHatch
 10
0.0
 20
0.0
 30
0.0
210
0.0
220
0.0
230
1.0
  2
SOLID
 70
               1
 71
               1
 91
        1
 92
        1
 93
        1
 72
               2
 10
1.2955899999999998
 20
19.862199999999998
 40
0.1400000000000006
 50
0.0
 51
360.0
 73
               0
 97
        1
330
13B
 75
               0
 76
               1
 98
        1
 10
0.0
 20
0.0
  0
CIRCLE
  5
13D
102
{ACAD_REACTORS
330
13E
102
}
100
AcDbEntity
  8
None
370
               9
390
0
  6
Continuous
 62
               7
100
AcDbCircle
 10
1.7955899999999998
 20
19.862199999999998
 30
0.0
 40
0.1400000000000006
  0
HATCH
  5
13E
100
AcDbEntity
  8
None
370
               0
390
0
  6
Continuous
 62
               7
100
AcDbHatch
 10
0.0
 20
0.0
 30
0.0
210
0.0
220
0.0
230
1.0
  2
SOLID
 70
               1
 71
               1
 91
        1
 92
        1
 93
        1
 72
               2
 10
1.7955899999999998
 20
19.862199999999998
 40
0.1400000000000006
 50
0.0
 51
360.0
 73
               0
 97
        1
330
13D
 75
               0
 76
               1
 98
        1
 10
0.0
 20
0.0
  0
CIRCLE
  5
13F
102
{ACAD_REACTORS
330
140
102
}
100
AcDbEntity
  8
None
370
               9
390
0
  6
Continuous
 62
               7
100
AcDbCircle
 10
2.2955899999999998
 20
19.862199999999998
 30
0.0
 40
0.1400000000000006
  0
HATCH
  5
140
100
AcDbEntity
  8
None
370
               0
390
0
  6
Continuous
 62
               7
100
AcDbHatch
 10
0.0
 20
0.0
 30
0.0
210
0.0
220
0.0
230
1.0
  2
SOLID
 70
               1
 71
               1
 91
        1
 92
        1
 93
        1
 72
               2
 10
2.2955899999999998
 20
19.862199999999998
 40
0.1400000000000006
 50
0.0
 51
360.0
 73
               0
 97
        1
330
13F
 75
               0
 76
               1
 98
        1
 10
0.0
 20
0.0
  0
CIRCLE
  5
141
102
{ACAD_REACTORS
330
142
102
}
100
AcDbEntity
  8
None
370
               9
390
0
  6
Continuous
 62
               7
100
AcDbCircle
 10
2.7955899999999998
 20
19.862199999999998
 30
0.0
 40
0.1400000000000006
  0
HATCH
  5
142
100
AcDbEntity
  8
None
370
               0
390
0
  6
Continuous
 62
               7
100
AcDbHatch
 10
0.0
 20
0.0
 30
0.0
210
0.0
220
0.0
230
1.0
  2
SOLID
 70
               1
 71
               1
 91
        1
 92
        1
 93
        1
 72
               2
 10
2.7955899999999998
 20
19.862199999999998
 40
0.1400000000000006
 50
0.0
 51
360.0
 73
               0
 97
        1
330
141
 75
               0
 76
               1
 98
        1
 10
0.0
 20
0.0
  0
CIRCLE
  5
143
102
{ACAD_REACTORS
330
144
102
}
100
AcDbEntity
  8
None
370
               9
390
0
  6
Continuous
 62
               7
100
AcDbCircle
 10
3.2955899999999998
 20
19.862199999999998
 30
0.0
 40
0.1400000000000006
  0
HATCH
  5
144
100
AcDbEntity
  8
None
370
               0
390
0
  6
Continuous
 62
               7
100
AcDbHatch
 10
0.0
 20
0.0
 30
0.0
210
0.0
220
0.0
230
1.0
  2
SOLID
 70
               1
 71
               1
 91
        1
 92
        1
 93
        1
 72
               2
 10
3.2955899999999998
 20
19.862199999999998
 40
0.1400000000000006
 50
0.0
 51
360.0
 73
               0
 97
        1
330
143
 75
               0
 76
               1
 98
        1
 10
0.0
 20
0.0
  0
CIRCLE
  5
145
102
{ACAD_REACTORS
330
146
102
}
100
AcDbEntity
  8
None
370
               9
390
0
  6
Continuous
 62
               7
100
AcDbCircle
 10
3.7955899999999998
 20
19.862199999999998
 30
0.0
 40
0.1400000000000006
  0
HATCH
  5
146
100
AcDbEntity
  8
None
370
               0
390
0
  6
Continuous
 62
               7
100
AcDbHatch
 10
0.0
 20
0.0
 30
0.0
210
0.0
220
0.0
230
1.0
  2
SOLID
 70
               1
 71
               1
 91
        1
 92
        1
 93
        1
 72
               2
 10
3.7955899999999998
 20
19.862199999999998
 40
0.1400000000000006
 50
0.0
 51
360.0
 73
               0
 97
        1
330
145
 75
               0
 76
               1
 98
        1
 10
0.0
 20
0.0
  0
CIRCLE
  5
147
102
{ACAD_REACTORS
330
148
102
}
100
AcDbEntity
  8
None
370
               9
390
0
  6
Continuous
 62
               7
100
AcDbCircle
 10
-3.2044099999999998
 20
20.362199999999998
 30
0.0
 40
0.1400000000000006
  0
HATCH
  5
148
100
AcDbEntity
  8
None
370
               0
390
0
  6
Continuous
 62
               7
100
AcDbHatch
 10
0.0
 20
0.0
 30
0.0
210
0.0
220
0.0
230
1.0
  2
SOLID
 70
               1
 71
               1
 91
        1
 92
        1
 93
        1
 72
               2
 10
-3.2044099999999998
 20
20.362199999999998
 40
0.1400000000000006
 50
0.0
 51
360.0
 73
               0
 97
        1
330
147
 75
               0
 76
               1
 98
        1
 10
0.0
 20
0.0
  0
CIRCLE
  5
149
102
{ACAD_REACTORS
330
14A
102
}
100
AcDbEntity
  8
None
370
               9
390
0
  6
Continuous
 62
               7
100
AcDbCircle
 10
-2.7044099999999998
 20
20.362199999999998
 30
0.0
 40
0.1400000000000006
  0
HATCH
  5
14A
100
AcDbEntity
  8
None
370
               0
390
0
  6
Continuous
 62
               7
100
AcDbHatch
 10
0.0
 20
0.0
 30
0.0
210
0.0
220
0.0
230
1.0
  2
SOLID
 70
               1
 71
               1
 91
        1
 92
        1
 93
        1
 72
               2
 10
-2.7044099999999998
 20
20.362199999999998
 40
0.1400000000000006
 50
0.0
 51
360.0
 73
               0
 97
        1
330
149
 75
               0
 76
               1
 98
        1
 10
0.0
 20
0.0
  0
CIRCLE
  5
14B
102
{ACAD_REACTORS
330
14C
102
}
100
AcDbEntity
  8
None
370
               9
390
0
  6
Continuous
 62
               7
100
AcDbCircle
 10
-2.2044099999999998
 20
20.362199999999998
 30
0.0
 40
0.1400000000000006
  0
HATCH
  5
14C
100
AcDbEntity
  8
None
370
               0
390
0
  6
Continuous
 62
               7
100
AcDbHatch
 10
0.0
 20
0.0
 30
0.0
210
0.0
220
0.0
230
1.0
  2
SOLID
 70
               1
 71
               1
 91
        1
 92
        1
 93
        1
 72
               2
 10
-2.2044099999999998
 20
20.362199999999998
 40
0.1400000000000006
 50
0.0
 51
360.0
 73
               0
 97
        1
330
14B
 75
               0
 76
               1
 98
        1
 10
0.0
 20
0.0
  0
CIRCLE
  5
14D
102
{ACAD_REACTORS
330
14E
102
}
100
AcDbEntity
  8
None
370
               9
390
0
  6
Continuous
 62
               7
100
AcDbCircle
 10
-1.7044099999999998
 20
20.362199999999998
 30
0.0
 40
0.1400000000000006
  0
HATCH
  5
14E
100
AcDbEntity
  8
None
370
               0
390
0
  6
Continuous
 62
               7
100
AcDbHatch
 10
0.0
 20
0.0
 30
0.0
210
0.0
220
0.0
230
1.0
  2
SOLID
 70
               1
 71
               1
 91
        1
 92
        1
 93
        1
 72
               2
 10
-1.7044099999999998
 20
20.362199999999998
 40
0.1400000000000006
 50
0.0
 51
360.0
 73
               0
 97
        1
330
14D
 75
               0
 76
               1
 98
        1
 10
0.0
 20
0.0
  0
CIRCLE
  5
14F
102
{ACAD_REACTORS
330
150
102
}
100
AcDbEntity
  8
None
370
               9
390
0
  6
Continuous
 62
               7
100
AcDbCircle
 10
-1.20441
 20
20.362199999999998
 30
0.0
 40
0.1400000000000006
  0
HATCH
  5
150
100
AcDbEntity
  8
None
370
               0
390
0
  6
Continuous
 62
               7
100
AcDbHatch
 10
0.0
 20
0.0
 30
0.0
210
0.0
220
0.0
230
1.0
  2
SOLID
 70
               1
 71
               1
 91
        1
 92
        1
 93
        1
 72
               2
 10
-1.20441
 20
20.362199999999998
 40
0.1400000000000006
 50
0.0
 51
360.0
 73
               0
 97
        1
330
14F
 75
               0
 76
               1
 98
        1
 10
0.0
 20
0.0
  0
CIRCLE
  5
151
102
{ACAD_REACTORS
330
152
102
}
100
AcDbEntity
  8
None
370
               9
390
0
  6
Continuous
 62
               7
100
AcDbCircle
 10
-0.70441
 20
20.362199999999998
 30
0.0
 40
0.1400000000000006
  0
HATCH
  5
152
100
AcDbEntity
  8
None
370
               0
390
0
  6
Continuous
 62
               7
100
AcDbHatch
 10
0.0
 20
0.0
 30
0.0
210
0.0
220
0.0
230
1.0
  2
SOLID
 70
               1
 71
               1
 91
        1
 92
        1
 93
        1
 72
               2
 10
-0.70441
 20
20.362199999999998
 40
0.1400000000000006
 50
0.0
 51
360.0
 73
               0
 97
        1
330
151
 75
               0
 76
               1
 98
        1
 10
0.0
 20
0.0
  0
CIRCLE
  5
153
102
{ACAD_REACTORS
330
154
102
}
100
AcDbEntity
  8
None
370
               9
390
0
  6
Continuous
 62
               7
100
AcDbCircle
 10
-0.20441
 20
20.362199999999998
 30
0.0
 40
0.1400000000000006
  0
HATCH
  5
154
100
AcDbEntity
  8
None
370
               0
390
0
  6
Continuous
 62
               7
100
AcDbHatch
 10
0.0
 20
0.0
 30
0.0
210
0.0
220
0.0
230
1.0
  2
SOLID
 70
               1
 71
               1
 91
        1
 92
        1
 93
        1
 72
               2
 10
-0.20441
 20
20.362199999999998
 40
0.1400000000000006
 50
0.0
 51
360.0
 73
               0
 97
        1
330
153
 75
               0
 76
               1
 98
        1
 10
0.0
 20
0.0
  0
CIRCLE
  5
155
102
{ACAD_REACTORS
330
156
102
}
100
AcDbEntity
  8
None
370
               9
390
0
  6
Continuous
 62
               7
100
AcDbCircle
 10
0.29559
 20
20.362199999999998
 30
0.0
 40
0.1400000000000006
  0
HATCH
  5
156
100
AcDbEntity
  8
None
370
               0
390
0
  6
Continuous
 62
               7
100
AcDbHatch
 10
0.0
 20
0.0
 30
0.0
210
0.0
220
0.0
230
1.0
  2
SOLID
 70
               1
 71
               1
 91
        1
 92
        1
 93
        1
 72
               2
 10
0.29559
 20
20.362199999999998
 40
0.1400000000000006
 50
0.0
 51
360.0
 73
               0
 97
        1
330
155
 75
               0
 76
               1
 98
        1
 10
0.0
 20
0.0
  0
CIRCLE
  5
157
102
{ACAD_REACTORS
330
158
102
}
100
AcDbEntity
  8
None
370
               9
390
0
  6
Continuous
 62
               7
100
AcDbCircle
 10
0.7955899999999999
 20
20.362199999999998
 30
0.0
 40
0.1400000000000006
  0
HATCH
  5
158
100
AcDbEntity
  8
None
370
               0
390
0
  6
Continuous
 62
               7
100
AcDbHatch
 10
0.0
 20
0.0
 30
0.0
210
0.0
220
0.0
230
1.0
  2
SOLID
 70
               1
 71
               1
 91
        1
 92
        1
 93
        1
 72
               2
 10
0.7955899999999999
 20
20.362199999999998
 40
0.1400000000000006
 50
0.0
 51
360.0
 73
               0
 97
        1
330
157
 75
               0
 76
               1
 98
        1
 10
0.0
 20
0.0
  0
CIRCLE
  5
159
102
{ACAD_REACTORS
330
15A
102
}
100
AcDbEntity
  8
None
370
               9
390
0
  6
Continuous
 62
               7
100
AcDbCircle
 10
1.2955899999999998
 20
20.362199999999998
 30
0.0
 40
0.1400000000000006
  0
HATCH
  5
15A
100
AcDbEntity
  8
None
370
               0
390
0
  6
Continuous
 62
               7
100
AcDbHatch
 10
0.0
 20
0.0
 30
0.0
210
0.0
220
0.0
230
1.0
  2
SOLID
 70
               1
 71
               1
 91
        1
 92
        1
 93
        1
 72
               2
 10
1.2955899999999998
 20
20.362199999999998
 40
0.1400000000000006
 50
0.0
 51
360.0
 73
               0
 97
        1
330
159
 75
               0
 76
               1
 98
        1
 10
0.0
 20
0.0
  0
CIRCLE
  5
15B
102
{ACAD_REACTORS
330
15C
102
}
100
AcDbEntity
  8
None
370
               9
390
0
  6
Continuous
 62
               7
100
AcDbCircle
 10
1.7955899999999998
 20
20.362199999999998
 30
0.0
 40
0.1400000000000006
  0
HATCH
  5
15C
100
AcDbEntity
  8
None
370
               0
390
0
  6
Continuous
 62
               7
100
AcDbHatch
 10
0.0
 20
0.0
 30
0.0
210
0.0
220
0.0
230
1.0
  2
SOLID
 70
               1
 71
               1
 91
        1
 92
        1
 93
        1
 72
               2
 10
1.7955899999999998
 20
20.362199999999998
 40
0.1400000000000006
 50
0.0
 51
360.0
 73
               0
 97
        1
330
15B
 75
               0
 76
               1
 98
        1
 10
0.0
 20
0.0
  0
CIRCLE
  5
15D
102
{ACAD_REACTORS
330
15E
102
}
100
AcDbEntity
  8
None
370
               9
390
0
  6
Continuous
 62
               7
100
AcDbCircle
 10
2.2955899999999998
 20
20.362199999999998
 30
0.0
 40
0.1400000000000006
  0
HATCH
  5
15E
100
AcDbEntity
  8
None
370
               0
390
0
  6
Continuous
 62
               7
100
AcDbHatch
 10
0.0
 20
0.0
 30
0.0
210
0.0
220
0.0
230
1.0
  2
SOLID
 70
               1
 71
               1
 91
        1
 92
        1
 93
        1
 72
               2
 10
2.2955899999999998
 20
20.362199999999998
 40
0.1400000000000006
 50
0.0
 51
360.0
 73
               0
 97
        1
330
15D
 75
               0
 76
               1
 98
        1
 10
0.0
 20
0.0
  0
CIRCLE
  5
15F
102
{ACAD_REACTORS
330
160
102
}
100
AcDbEntity
  8
None
370
               9
390
0
  6
Continuous
 62
               7
100
AcDbCircle
 10
2.7955899999999998
 20
20.362199999999998
 30
0.0
 40
0.1400000000000006
  0
HATCH
  5
160
100
AcDbEntity
  8
None
370
               0
390
0
  6
Continuous
 62
               7
100
AcDbHatch
 10
0.0
 20
0.0
 30
0.0
210
0.0
220
0.0
230
1.0
  2
SOLID
 70
               1
 71
               1
 91
        1
 92
        1
 93
        1
 72
               2
 10
2.7955899999999998
 20
20.362199999999998
 40
0.1400000000000006
 50
0.0
 51
360.0
 73
               0
 97
        1
330
15F
 75
               0
 76
               1
 98
        1
 10
0.0
 20
0.0
  0
CIRCLE
  5
161
102
{ACAD_REACTORS
330
162
102
}
100
AcDbEntity
  8
None
370
               9
390
0
  6
Continuous
 62
               7
100
AcDbCircle
 10
3.2955899999999998
 20
20.362199999999998
 30
0.0
 40
0.1400000000000006
  0
HATCH
  5
162
100
AcDbEntity
  8
None
370
               0
390
0
  6
Continuous
 62
               7
100
AcDbHatch
 10
0.0
 20
0.0
 30
0.0
210
0.0
220
0.0
230
1.0
  2
SOLID
 70
               1
 71
               1
 91
        1
 92
        1
 93
        1
 72
               2
 10
3.2955899999999998
 20
20.362199999999998
 40
0.1400000000000006
 50
0.0
 51
360.0
 73
               0
 97
        1
330
161
 75
               0
 76
               1
 98
        1
 10
0.0
 20
0.0
  0
CIRCLE
  5
163
102
{ACAD_REACTORS
330
164
102
}
100
AcDbEntity
  8
None
370
               9
390
0
  6
Continuous
 62
               7
100
AcDbCircle
 10
3.7955899999999998
 20
20.362199999999998
 30
0.0
 40
0.1400000000000006
  0
HATCH
  5
164
100
AcDbEntity
  8
None
370
               0
390
0
  6
Continuous
 62
               7
100
AcDbHatch
 10
0.0
 20
0.0
 30
0.0
210
0.0
220
0.0
230
1.0
  2
SOLID
 70
               1
 71
               1
 91
        1
 92
        1
 93
        1
 72
               2
 10
3.7955899999999998
 20
20.362199999999998
 40
0.1400000000000006
 50
0.0
 51
360.0
 73
               0
 97
        1
330
163
 75
               0
 76
               1
 98
        1
 10
0.0
 20
0.0
  0
CIRCLE
  5
165
102
{ACAD_REACTORS
330
166
102
}
100
AcDbEntity
  8
None
370
               9
390
0
  6
Continuous
 62
               7
100
AcDbCircle
 10
-3.2044099999999998
 20
20.862199999999998
 30
0.0
 40
0.1400000000000006
  0
HATCH
  5
166
100
AcDbEntity
  8
None
370
               0
390
0
  6
Continuous
 62
               7
100
AcDbHatch
 10
0.0
 20
0.0
 30
0.0
210
0.0
220
0.0
230
1.0
  2
SOLID
 70
               1
 71
               1
 91
        1
 92
        1
 93
        1
 72
               2
 10
-3.2044099999999998
 20
20.862199999999998
 40
0.1400000000000006
 50
0.0
 51
360.0
 73
               0
 97
        1
330
165
 75
               0
 76
               1
 98
        1
 10
0.0
 20
0.0
  0
CIRCLE
  5
167
102
{ACAD_REACTORS
330
168
102
}
100
AcDbEntity
  8
None
370
               9
390
0
  6
Continuous
 62
               7
100
AcDbCircle
 10
-2.7044099999999998
 20
20.862199999999998
 30
0.0
 40
0.1400000000000006
  0
HATCH
  5
168
100
AcDbEntity
  8
None
370
               0
390
0
  6
Continuous
 62
               7
100
AcDbHatch
 10
0.0
 20
0.0
 30
0.0
210
0.0
220
0.0
230
1.0
  2
SOLID
 70
               1
 71
               1
 91
        1
 92
        1
 93
        1
 72
               2
 10
-2.7044099999999998
 20
20.862199999999998
 40
0.1400000000000006
 50
0.0
 51
360.0
 73
               0
 97
        1
330
167
 75
               0
 76
               1
 98
        1
 10
0.0
 20
0.0
  0
CIRCLE
  5
169
102
{ACAD_REACTORS
330
16A
102
}
100
AcDbEntity
  8
None
370
               9
390
0
  6
Continuous
 62
               7
100
AcDbCircle
 10
-2.2044099999999998
 20
20.862199999999998
 30
0.0
 40
0.1400000000000006
  0
HATCH
  5
16A
100
AcDbEntity
  8
None
370
               0
390
0
  6
Continuous
 62
               7
100
AcDbHatch
 10
0.0
 20
0.0
 30
0.0
210
0.0
220
0.0
230
1.0
  2
SOLID
 70
               1
 71
               1
 91
        1
 92
        1
 93
        1
 72
               2
 10
-2.2044099999999998
 20
20.862199999999998
 40
0.1400000000000006
 50
0.0
 51
360.0
 73
               0
 97
        1
330
169
 75
               0
 76
               1
 98
        1
 10
0.0
 20
0.0
  0
CIRCLE
  5
16B
102
{ACAD_REACTORS
330
16C
102
}
100
AcDbEntity
  8
None
370
               9
390
0
  6
Continuous
 62
               7
100
AcDbCircle
 10
-1.7044099999999998
 20
20.862199999999998
 30
0.0
 40
0.1400000000000006
  0
HATCH
  5
16C
100
AcDbEntity
  8
None
370
               0
390
0
  6
Continuous
 62
               7
100
AcDbHatch
 10
0.0
 20
0.0
 30
0.0
210
0.0
220
0.0
230
1.0
  2
SOLID
 70
               1
 71
               1
 91
        1
 92
        1
 93
        1
 72
               2
 10
-1.7044099999999998
 20
20.862199999999998
 40
0.1400000000000006
 50
0.0
 51
360.0
 73
               0
 97
        1
330
16B
 75
               0
 76
               1
 98
        1
 10
0.0
 20
0.0
  0
CIRCLE
  5
16D
102
{ACAD_REACTORS
330
16E
102
}
100
AcDbEntity
  8
None
370
               9
390
0
  6
Continuous
 62
               7
100
AcDbCircle
 10
-1.20441
 20
20.862199999999998
 30
0.0
 40
0.1400000000000006
  0
HATCH
  5
16E
100
AcDbEntity
  8
None
370
               0
390
0
  6
Continuous
 62
               7
100
AcDbHatch
 10
0.0
 20
0.0
 30
0.0
210
0.0
220
0.0
230
1.0
  2
SOLID
 70
               1
 71
               1
 91
        1
 92
        1
 93
        1
 72
               2
 10
-1.20441
 20
20.862199999999998
 40
0.1400000000000006
 50
0.0
 51
360.0
 73
               0
 97
        1
330
16D
 75
               0
 76
               1
 98
        1
 10
0.0
 20
0.0
  0
CIRCLE
  5
16F
102
{ACAD_REACTORS
330
170
102
}
100
AcDbEntity
  8
None
370
               9
390
0
  6
Continuous
 62
               7
100
AcDbCircle
 10
-0.70441
 20
20.862199999999998
 30
0.0
 40
0.1400000000000006
  0
HATCH
  5
170
100
AcDbEntity
  8
None
370
               0
390
0
  6
Continuous
 62
               7
100
AcDbHatch
 10
0.0
 20
0.0
 30
0.0
210
0.0
220
0.0
230
1.0
  2
SOLID
 70
               1
 71
               1
 91
        1
 92
        1
 93
        1
 72
               2
 10
-0.70441
 20
20.862199999999998
 40
0.1400000000000006
 50
0.0
 51
360.0
 73
               0
 97
        1
330
16F
 75
               0
 76
               1
 98
        1
 10
0.0
 20
0.0
  0
CIRCLE
  5
171
102
{ACAD_REACTORS
330
172
102
}
100
AcDbEntity
  8
None
370
               9
390
0
  6
Continuous
 62
               7
100
AcDbCircle
 10
-0.20441
 20
20.862199999999998
 30
0.0
 40
0.1400000000000006
  0
HATCH
  5
172
100
AcDbEntity
  8
None
370
               0
390
0
  6
Continuous
 62
               7
100
AcDbHatch
 10
0.0
 20
0.0
 30
0.0
210
0.0
220
0.0
230
1.0
  2
SOLID
 70
               1
 71
               1
 91
        1
 92
        1
 93
        1
 72
               2
 10
-0.20441
 20
20.862199999999998
 40
0.1400000000000006
 50
0.0
 51
360.0
 73
               0
 97
        1
330
171
 75
               0
 76
               1
 98
        1
 10
0.0
 20
0.0
  0
CIRCLE
  5
173
102
{ACAD_REACTORS
330
174
102
}
100
AcDbEntity
  8
None
370
               9
390
0
  6
Continuous
 62
               7
100
AcDbCircle
 10
0.29559
 20
20.862199999999998
 30
0.0
 40
0.1400000000000006
  0
HATCH
  5
174
100
AcDbEntity
  8
None
370
               0
390
0
  6
Continuous
 62
               7
100
AcDbHatch
 10
0.0
 20
0.0
 30
0.0
210
0.0
220
0.0
230
1.0
  2
SOLID
 70
               1
 71
               1
 91
        1
 92
        1
 93
        1
 72
               2
 10
0.29559
 20
20.862199999999998
 40
0.1400000000000006
 50
0.0
 51
360.0
 73
               0
 97
        1
330
173
 75
               0
 76
               1
 98
        1
 10
0.0
 20
0.0
  0
CIRCLE
  5
175
102
{ACAD_REACTORS
330
176
102
}
100
AcDbEntity
  8
None
370
               9
390
0
  6
Continuous
 62
               7
100
AcDbCircle
 10
0.7955899999999999
 20
20.862199999999998
 30
0.0
 40
0.1400000000000006
  0
HATCH
  5
176
100
AcDbEntity
  8
None
370
               0
390
0
  6
Continuous
 62
               7
100
AcDbHatch
 10
0.0
 20
0.0
 30
0.0
210
0.0
220
0.0
230
1.0
  2
SOLID
 70
               1
 71
               1
 91
        1
 92
        1
 93
        1
 72
               2
 10
0.7955899999999999
 20
20.862199999999998
 40
0.1400000000000006
 50
0.0
 51
360.0
 73
               0
 97
        1
330
175
 75
               0
 76
               1
 98
        1
 10
0.0
 20
0.0
  0
CIRCLE
  5
177
102
{ACAD_REACTORS
330
178
102
}
100
AcDbEntity
  8
None
370
               9
390
0
  6
Continuous
 62
               7
100
AcDbCircle
 10
1.2955899999999998
 20
20.862199999999998
 30
0.0
 40
0.1400000000000006
  0
HATCH
  5
178
100
AcDbEntity
  8
None
370
               0
390
0
  6
Continuous
 62
               7
100
AcDbHatch
 10
0.0
 20
0.0
 30
0.0
210
0.0
220
0.0
230
1.0
  2
SOLID
 70
               1
 71
               1
 91
        1
 92
        1
 93
        1
 72
               2
 10
1.2955899999999998
 20
20.862199999999998
 40
0.1400000000000006
 50
0.0
 51
360.0
 73
               0
 97
        1
330
177
 75
               0
 76
               1
 98
        1
 10
0.0
 20
0.0
  0
CIRCLE
  5
179
102
{ACAD_REACTORS
330
17A
102
}
100
AcDbEntity
  8
None
370
               9
390
0
  6
Continuous
 62
               7
100
AcDbCircle
 10
1.7955899999999998
 20
20.862199999999998
 30
0.0
 40
0.1400000000000006
  0
HATCH
  5
17A
100
AcDbEntity
  8
None
370
               0
390
0
  6
Continuous
 62
               7
100
AcDbHatch
 10
0.0
 20
0.0
 30
0.0
210
0.0
220
0.0
230
1.0
  2
SOLID
 70
               1
 71
               1
 91
        1
 92
        1
 93
        1
 72
               2
 10
1.7955899999999998
 20
20.862199999999998
 40
0.1400000000000006
 50
0.0
 51
360.0
 73
               0
 97
        1
330
179
 75
               0
 76
               1
 98
        1
 10
0.0
 20
0.0
  0
CIRCLE
  5
17B
102
{ACAD_REACTORS
330
17C
102
}
100
AcDbEntity
  8
None
370
               9
390
0
  6
Continuous
 62
               7
100
AcDbCircle
 10
2.2955899999999998
 20
20.862199999999998
 30
0.0
 40
0.1400000000000006
  0
HATCH
  5
17C
100
AcDbEntity
  8
None
370
               0
390
0
  6
Continuous
 62
               7
100
AcDbHatch
 10
0.0
 20
0.0
 30
0.0
210
0.0
220
0.0
230
1.0
  2
SOLID
 70
               1
 71
               1
 91
        1
 92
        1
 93
        1
 72
               2
 10
2.2955899999999998
 20
20.862199999999998
 40
0.1400000000000006
 50
0.0
 51
360.0
 73
               0
 97
        1
330
17B
 75
               0
 76
               1
 98
        1
 10
0.0
 20
0.0
  0
CIRCLE
  5
17D
102
{ACAD_REACTORS
330
17E
102
}
100
AcDbEntity
  8
None
370
               9
390
0
  6
Continuous
 62
               7
100
AcDbCircle
 10
2.7955899999999998
 20
20.862199999999998
 30
0.0
 40
0.1400000000000006
  0
HATCH
  5
17E
100
AcDbEntity
  8
None
370
               0
390
0
  6
Continuous
 62
               7
100
AcDbHatch
 10
0.0
 20
0.0
 30
0.0
210
0.0
220
0.0
230
1.0
  2
SOLID
 70
               1
 71
               1
 91
        1
 92
        1
 93
        1
 72
               2
 10
2.7955899999999998
 20
20.862199999999998
 40
0.1400000000000006
 50
0.0
 51
360.0
 73
               0
 97
        1
330
17D
 75
               0
 76
               1
 98
        1
 10
0.0
 20
0.0
  0
CIRCLE
  5
17F
102
{ACAD_REACTORS
330
180
102
}
100
AcDbEntity
  8
None
370
               9
390
0
  6
Continuous
 62
               7
100
AcDbCircle
 10
3.2955899999999998
 20
20.862199999999998
 30
0.0
 40
0.1400000000000006
  0
HATCH
  5
180
100
AcDbEntity
  8
None
370
               0
390
0
  6
Continuous
 62
               7
100
AcDbHatch
 10
0.0
 20
0.0
 30
0.0
210
0.0
220
0.0
230
1.0
  2
SOLID
 70
               1
 71
               1
 91
        1
 92
        1
 93
        1
 72
               2
 10
3.2955899999999998
 20
20.862199999999998
 40
0.1400000000000006
 50
0.0
 51
360.0
 73
               0
 97
        1
330
17F
 75
               0
 76
               1
 98
        1
 10
0.0
 20
0.0
  0
CIRCLE
  5
181
102
{ACAD_REACTORS
330
182
102
}
100
AcDbEntity
  8
None
370
               9
390
0
  6
Continuous
 62
               7
100
AcDbCircle
 10
3.7955899999999998
 20
20.862199999999998
 30
0.0
 40
0.1400000000000006
  0
HATCH
  5
182
100
AcDbEntity
  8
None
370
               0
390
0
  6
Continuous
 62
               7
100
AcDbHatch
 10
0.0
 20
0.0
 30
0.0
210
0.0
220
0.0
230
1.0
  2
SOLID
 70
               1
 71
               1
 91
        1
 92
        1
 93
        1
 72
               2
 10
3.7955899999999998
 20
20.862199999999998
 40
0.1400000000000006
 50
0.0
 51
360.0
 73
               0
 97
        1
330
181
 75
               0
 76
               1
 98
        1
 10
0.0
 20
0.0
  0
CIRCLE
  5
183
102
{ACAD_REACTORS
330
184
102
}
100
AcDbEntity
  8
None
370
               9
390
0
  6
Continuous
 62
               7
100
AcDbCircle
 10
-3.2044099999999998
 20
21.362199999999998
 30
0.0
 40
0.1400000000000006
  0
HATCH
  5
184
100
AcDbEntity
  8
None
370
               0
390
0
  6
Continuous
 62
               7
100
AcDbHatch
 10
0.0
 20
0.0
 30
0.0
210
0.0
220
0.0
230
1.0
  2
SOLID
 70
               1
 71
               1
 91
        1
 92
        1
 93
        1
 72
               2
 10
-3.2044099999999998
 20
21.362199999999998
 40
0.1400000000000006
 50
0.0
 51
360.0
 73
               0
 97
        1
330
183
 75
               0
 76
               1
 98
        1
 10
0.0
 20
0.0
  0
CIRCLE
  5
185
102
{ACAD_REACTORS
330
186
102
}
100
AcDbEntity
  8
None
370
               9
390
0
  6
Continuous
 62
               7
100
AcDbCircle
 10
-2.7044099999999998
 20
21.362199999999998
 30
0.0
 40
0.1400000000000006
  0
HATCH
  5
186
100
AcDbEntity
  8
None
370
               0
390
0
  6
Continuous
 62
               7
100
AcDbHatch
 10
0.0
 20
0.0
 30
0.0
210
0.0
220
0.0
230
1.0
  2
SOLID
 70
               1
 71
               1
 91
        1
 92
        1
 93
        1
 72
               2
 10
-2.7044099999999998
 20
21.362199999999998
 40
0.1400000000000006
 50
0.0
 51
360.0
 73
               0
 97
        1
330
185
 75
               0
 76
               1
 98
        1
 10
0.0
 20
0.0
  0
CIRCLE
  5
187
102
{ACAD_REACTORS
330
188
102
}
100
AcDbEntity
  8
None
370
               9
390
0
  6
Continuous
 62
               7
100
AcDbCircle
 10
-2.2044099999999998
 20
21.362199999999998
 30
0.0
 40
0.1400000000000006
  0
HATCH
  5
188
100
AcDbEntity
  8
None
370
               0
390
0
  6
Continuous
 62
               7
100
AcDbHatch
 10
0.0
 20
0.0
 30
0.0
210
0.0
220
0.0
230
1.0
  2
SOLID
 70
               1
 71
               1
 91
        1
 92
        1
 93
        1
 72
               2
 10
-2.2044099999999998
 20
21.362199999999998
 40
0.1400000000000006
 50
0.0
 51
360.0
 73
               0
 97
        1
330
187
 75
               0
 76
               1
 98
        1
 10
0.0
 20
0.0
  0
CIRCLE
  5
189
102
{ACAD_REACTORS
330
18A
102
}
100
AcDbEntity
  8
None
370
               9
390
0
  6
Continuous
 62
               7
100
AcDbCircle
 10
-1.7044099999999998
 20
21.362199999999998
 30
0.0
 40
0.1400000000000006
  0
HATCH
  5
18A
100
AcDbEntity
  8
None
370
               0
390
0
  6
Continuous
 62
               7
100
AcDbHatch
 10
0.0
 20
0.0
 30
0.0
210
0.0
220
0.0
230
1.0
  2
SOLID
 70
               1
 71
               1
 91
        1
 92
        1
 93
        1
 72
               2
 10
-1.7044099999999998
 20
21.362199999999998
 40
0.1400000000000006
 50
0.0
 51
360.0
 73
               0
 97
        1
330
189
 75
               0
 76
               1
 98
        1
 10
0.0
 20
0.0
  0
CIRCLE
  5
18B
102
{ACAD_REACTORS
330
18C
102
}
100
AcDbEntity
  8
None
370
               9
390
0
  6
Continuous
 62
               7
100
AcDbCircle
 10
-1.20441
 20
21.362199999999998
 30
0.0
 40
0.1400000000000006
  0
HATCH
  5
18C
100
AcDbEntity
  8
None
370
               0
390
0
  6
Continuous
 62
               7
100
AcDbHatch
 10
0.0
 20
0.0
 30
0.0
210
0.0
220
0.0
230
1.0
  2
SOLID
 70
               1
 71
               1
 91
        1
 92
        1
 93
        1
 72
               2
 10
-1.20441
 20
21.362199999999998
 40
0.1400000000000006
 50
0.0
 51
360.0
 73
               0
 97
        1
330
18B
 75
               0
 76
               1
 98
        1
 10
0.0
 20
0.0
  0
CIRCLE
  5
18D
102
{ACAD_REACTORS
330
18E
102
}
100
AcDbEntity
  8
None
370
               9
390
0
  6
Continuous
 62
               7
100
AcDbCircle
 10
-0.70441
 20
21.362199999999998
 30
0.0
 40
0.1400000000000006
  0
HATCH
  5
18E
100
AcDbEntity
  8
None
370
               0
390
0
  6
Continuous
 62
               7
100
AcDbHatch
 10
0.0
 20
0.0
 30
0.0
210
0.0
220
0.0
230
1.0
  2
SOLID
 70
               1
 71
               1
 91
        1
 92
        1
 93
        1
 72
               2
 10
-0.70441
 20
21.362199999999998
 40
0.1400000000000006
 50
0.0
 51
360.0
 73
               0
 97
        1
330
18D
 75
               0
 76
               1
 98
        1
 10
0.0
 20
0.0
  0
CIRCLE
  5
18F
102
{ACAD_REACTORS
330
190
102
}
100
AcDbEntity
  8
None
370
               9
390
0
  6
Continuous
 62
               7
100
AcDbCircle
 10
-0.20441
 20
21.362199999999998
 30
0.0
 40
0.1400000000000006
  0
HATCH
  5
190
100
AcDbEntity
  8
None
370
               0
390
0
  6
Continuous
 62
               7
100
AcDbHatch
 10
0.0
 20
0.0
 30
0.0
210
0.0
220
0.0
230
1.0
  2
SOLID
 70
               1
 71
               1
 91
        1
 92
        1
 93
        1
 72
               2
 10
-0.20441
 20
21.362199999999998
 40
0.1400000000000006
 50
0.0
 51
360.0
 73
               0
 97
        1
330
18F
 75
               0
 76
               1
 98
        1
 10
0.0
 20
0.0
  0
CIRCLE
  5
191
102
{ACAD_REACTORS
330
192
102
}
100
AcDbEntity
  8
None
370
               9
390
0
  6
Continuous
 62
               7
100
AcDbCircle
 10
0.29559
 20
21.362199999999998
 30
0.0
 40
0.1400000000000006
  0
HATCH
  5
192
100
AcDbEntity
  8
None
370
               0
390
0
  6
Continuous
 62
               7
100
AcDbHatch
 10
0.0
 20
0.0
 30
0.0
210
0.0
220
0.0
230
1.0
  2
SOLID
 70
               1
 71
               1
 91
        1
 92
        1
 93
        1
 72
               2
 10
0.29559
 20
21.362199999999998
 40
0.1400000000000006
 50
0.0
 51
360.0
 73
               0
 97
        1
330
191
 75
               0
 76
               1
 98
        1
 10
0.0
 20
0.0
  0
CIRCLE
  5
193
102
{ACAD_REACTORS
330
194
102
}
100
AcDbEntity
  8
None
370
               9
390
0
  6
Continuous
 62
               7
100
AcDbCircle
 10
0.7955899999999999
 20
21.362199999999998
 30
0.0
 40
0.1400000000000006
  0
HATCH
  5
194
100
AcDbEntity
  8
None
370
               0
390
0
  6
Continuous
 62
               7
100
AcDbHatch
 10
0.0
 20
0.0
 30
0.0
210
0.0
220
0.0
230
1.0
  2
SOLID
 70
               1
 71
               1
 91
        1
 92
        1
 93
        1
 72
               2
 10
0.7955899999999999
 20
21.362199999999998
 40
0.1400000000000006
 50
0.0
 51
360.0
 73
               0
 97
        1
330
193
 75
               0
 76
               1
 98
        1
 10
0.0
 20
0.0
  0
CIRCLE
  5
195
102
{ACAD_REACTORS
330
196
102
}
100
AcDbEntity
  8
None
370
               9
390
0
  6
Continuous
 62
               7
100
AcDbCircle
 10
1.2955899999999998
 20
21.362199999999998
 30
0.0
 40
0.1400000000000006
  0
HATCH
  5
196
100
AcDbEntity
  8
None
370
               0
390
0
  6
Continuous
 62
               7
100
AcDbHatch
 10
0.0
 20
0.0
 30
0.0
210
0.0
220
0.0
230
1.0
  2
SOLID
 70
               1
 71
               1
 91
        1
 92
        1
 93
        1
 72
               2
 10
1.2955899999999998
 20
21.362199999999998
 40
0.1400000000000006
 50
0.0
 51
360.0
 73
               0
 97
        1
330
195
 75
               0
 76
               1
 98
        1
 10
0.0
 20
0.0
  0
CIRCLE
  5
197
102
{ACAD_REACTORS
330
198
102
}
100
AcDbEntity
  8
None
370
               9
390
0
  6
Continuous
 62
               7
100
AcDbCircle
 10
1.7955899999999998
 20
21.362199999999998
 30
0.0
 40
0.1400000000000006
  0
HATCH
  5
198
100
AcDbEntity
  8
None
370
               0
390
0
  6
Continuous
 62
               7
100
AcDbHatch
 10
0.0
 20
0.0
 30
0.0
210
0.0
220
0.0
230
1.0
  2
SOLID
 70
               1
 71
               1
 91
        1
 92
        1
 93
        1
 72
               2
 10
1.7955899999999998
 20
21.362199999999998
 40
0.1400000000000006
 50
0.0
 51
360.0
 73
               0
 97
        1
330
197
 75
               0
 76
               1
 98
        1
 10
0.0
 20
0.0
  0
CIRCLE
  5
199
102
{ACAD_REACTORS
330
19A
102
}
100
AcDbEntity
  8
None
370
               9
390
0
  6
Continuous
 62
               7
100
AcDbCircle
 10
2.2955899999999998
 20
21.362199999999998
 30
0.0
 40
0.1400000000000006
  0
HATCH
  5
19A
100
AcDbEntity
  8
None
370
               0
390
0
  6
Continuous
 62
               7
100
AcDbHatch
 10
0.0
 20
0.0
 30
0.0
210
0.0
220
0.0
230
1.0
  2
SOLID
 70
               1
 71
               1
 91
        1
 92
        1
 93
        1
 72
               2
 10
2.2955899999999998
 20
21.362199999999998
 40
0.1400000000000006
 50
0.0
 51
360.0
 73
               0
 97
        1
330
199
 75
               0
 76
               1
 98
        1
 10
0.0
 20
0.0
  0
CIRCLE
  5
19B
102
{ACAD_REACTORS
330
19C
102
}
100
AcDbEntity
  8
None
370
               9
390
0
  6
Continuous
 62
               7
100
AcDbCircle
 10
2.7955899999999998
 20
21.362199999999998
 30
0.0
 40
0.1400000000000006
  0
HATCH
  5
19C
100
AcDbEntity
  8
None
370
               0
390
0
  6
Continuous
 62
               7
100
AcDbHatch
 10
0.0
 20
0.0
 30
0.0
210
0.0
220
0.0
230
1.0
  2
SOLID
 70
               1
 71
               1
 91
        1
 92
        1
 93
        1
 72
               2
 10
2.7955899999999998
 20
21.362199999999998
 40
0.1400000000000006
 50
0.0
 51
360.0
 73
               0
 97
        1
330
19B
 75
               0
 76
               1
 98
        1
 10
0.0
 20
0.0
  0
CIRCLE
  5
19D
102
{ACAD_REACTORS
330
19E
102
}
100
AcDbEntity
  8
None
370
               9
390
0
  6
Continuous
 62
               7
100
AcDbCircle
 10
3.2955899999999998
 20
21.362199999999998
 30
0.0
 40
0.1400000000000006
  0
HATCH
  5
19E
100
AcDbEntity
  8
None
370
               0
390
0
  6
Continuous
 62
               7
100
AcDbHatch
 10
0.0
 20
0.0
 30
0.0
210
0.0
220
0.0
230
1.0
  2
SOLID
 70
               1
 71
               1
 91
        1
 92
        1
 93
        1
 72
               2
 10
3.2955899999999998
 20
21.362199999999998
 40
0.1400000000000006
 50
0.0
 51
360.0
 73
               0
 97
        1
330
19D
 75
               0
 76
               1
 98
        1
 10
0.0
 20
0.0
  0
CIRCLE
  5
19F
102
{ACAD_REACTORS
330
1A0
102
}
100
AcDbEntity
  8
None
370
               9
390
0
  6
Continuous
 62
               7
100
AcDbCircle
 10
3.7955899999999998
 20
21.362199999999998
 30
0.0
 40
0.1400000000000006
  0
HATCH
  5
1A0
100
AcDbEntity
  8
None
370
               0
390
0
  6
Continuous
 62
               7
100
AcDbHatch
 10
0.0
 20
0.0
 30
0.0
210
0.0
220
0.0
230
1.0
  2
SOLID
 70
               1
 71
               1
 91
        1
 92
        1
 93
        1
 72
               2
 10
3.7955899999999998
 20
21.362199999999998
 40
0.1400000000000006
 50
0.0
 51
360.0
 73
               0
 97
        1
330
19F
 75
               0
 76
               1
 98
        1
 10
0.0
 20
0.0
  0
CIRCLE
  5
1A1
102
{ACAD_REACTORS
330
1A2
102
}
100
AcDbEntity
  8
None
370
               9
390
0
  6
Continuous
 62
               7
100
AcDbCircle
 10
-3.2044099999999998
 20
21.862199999999998
 30
0.0
 40
0.1400000000000006
  0
HATCH
  5
1A2
100
AcDbEntity
  8
None
370
               0
390
0
  6
Continuous
 62
               7
100
AcDbHatch
 10
0.0
 20
0.0
 30
0.0
210
0.0
220
0.0
230
1.0
  2
SOLID
 70
               1
 71
               1
 91
        1
 92
        1
 93
        1
 72
               2
 10
-3.2044099999999998
 20
21.862199999999998
 40
0.1400000000000006
 50
0.0
 51
360.0
 73
               0
 97
        1
330
1A1
 75
               0
 76
               1
 98
        1
 10
0.0
 20
0.0
  0
CIRCLE
  5
1A3
102
{ACAD_REACTORS
330
1A4
102
}
100
AcDbEntity
  8
None
370
               9
390
0
  6
Continuous
 62
               7
100
AcDbCircle
 10
-2.7044099999999998
 20
21.862199999999998
 30
0.0
 40
0.1400000000000006
  0
HATCH
  5
1A4
100
AcDbEntity
  8
None
370
               0
390
0
  6
Continuous
 62
               7
100
AcDbHatch
 10
0.0
 20
0.0
 30
0.0
210
0.0
220
0.0
230
1.0
  2
SOLID
 70
               1
 71
               1
 91
        1
 92
        1
 93
        1
 72
               2
 10
-2.7044099999999998
 20
21.862199999999998
 40
0.1400000000000006
 50
0.0
 51
360.0
 73
               0
 97
        1
330
1A3
 75
               0
 76
               1
 98
        1
 10
0.0
 20
0.0
  0
CIRCLE
  5
1A5
102
{ACAD_REACTORS
330
1A6
102
}
100
AcDbEntity
  8
None
370
               9
390
0
  6
Continuous
 62
               7
100
AcDbCircle
 10
-2.2044099999999998
 20
21.862199999999998
 30
0.0
 40
0.1400000000000006
  0
HATCH
  5
1A6
100
AcDbEntity
  8
None
370
               0
390
0
  6
Continuous
 62
               7
100
AcDbHatch
 10
0.0
 20
0.0
 30
0.0
210
0.0
220
0.0
230
1.0
  2
SOLID
 70
               1
 71
               1
 91
        1
 92
        1
 93
        1
 72
               2
 10
-2.2044099999999998
 20
21.862199999999998
 40
0.1400000000000006
 50
0.0
 51
360.0
 73
               0
 97
        1
330
1A5
 75
               0
 76
               1
 98
        1
 10
0.0
 20
0.0
  0
CIRCLE
  5
1A7
102
{ACAD_REACTORS
330
1A8
102
}
100
AcDbEntity
  8
None
370
               9
390
0
  6
Continuous
 62
               7
100
AcDbCircle
 10
-1.7044099999999998
 20
21.862199999999998
 30
0.0
 40
0.1400000000000006
  0
HATCH
  5
1A8
100
AcDbEntity
  8
None
370
               0
390
0
  6
Continuous
 62
               7
100
AcDbHatch
 10
0.0
 20
0.0
 30
0.0
210
0.0
220
0.0
230
1.0
  2
SOLID
 70
               1
 71
               1
 91
        1
 92
        1
 93
        1
 72
               2
 10
-1.7044099999999998
 20
21.862199999999998
 40
0.1400000000000006
 50
0.0
 51
360.0
 73
               0
 97
        1
330
1A7
 75
               0
 76
               1
 98
        1
 10
0.0
 20
0.0
  0
CIRCLE
  5
1A9
102
{ACAD_REACTORS
330
1AA
102
}
100
AcDbEntity
  8
None
370
               9
390
0
  6
Continuous
 62
               7
100
AcDbCircle
 10
-1.20441
 20
21.862199999999998
 30
0.0
 40
0.1400000000000006
  0
HATCH
  5
1AA
100
AcDbEntity
  8
None
370
               0
390
0
  6
Continuous
 62
               7
100
AcDbHatch
 10
0.0
 20
0.0
 30
0.0
210
0.0
220
0.0
230
1.0
  2
SOLID
 70
               1
 71
               1
 91
        1
 92
        1
 93
        1
 72
               2
 10
-1.20441
 20
21.862199999999998
 40
0.1400000000000006
 50
0.0
 51
360.0
 73
               0
 97
        1
330
1A9
 75
               0
 76
               1
 98
        1
 10
0.0
 20
0.0
  0
CIRCLE
  5
1AB
102
{ACAD_REACTORS
330
1AC
102
}
100
AcDbEntity
  8
None
370
               9
390
0
  6
Continuous
 62
               7
100
AcDbCircle
 10
-0.70441
 20
21.862199999999998
 30
0.0
 40
0.1400000000000006
  0
HATCH
  5
1AC
100
AcDbEntity
  8
None
370
               0
390
0
  6
Continuous
 62
               7
100
AcDbHatch
 10
0.0
 20
0.0
 30
0.0
210
0.0
220
0.0
230
1.0
  2
SOLID
 70
               1
 71
               1
 91
        1
 92
        1
 93
        1
 72
               2
 10
-0.70441
 20
21.862199999999998
 40
0.1400000000000006
 50
0.0
 51
360.0
 73
               0
 97
        1
330
1AB
 75
               0
 76
               1
 98
        1
 10
0.0
 20
0.0
  0
CIRCLE
  5
1AD
102
{ACAD_REACTORS
330
1AE
102
}
100
AcDbEntity
  8
None
370
               9
390
0
  6
Continuous
 62
               7
100
AcDbCircle
 10
-0.20441
 20
21.862199999999998
 30
0.0
 40
0.1400000000000006
  0
HATCH
  5
1AE
100
AcDbEntity
  8
None
370
               0
390
0
  6
Continuous
 62
               7
100
AcDbHatch
 10
0.0
 20
0.0
 30
0.0
210
0.0
220
0.0
230
1.0
  2
SOLID
 70
               1
 71
               1
 91
        1
 92
        1
 93
        1
 72
               2
 10
-0.20441
 20
21.862199999999998
 40
0.1400000000000006
 50
0.0
 51
360.0
 73
               0
 97
        1
330
1AD
 75
               0
 76
               1
 98
        1
 10
0.0
 20
0.0
  0
CIRCLE
  5
1AF
102
{ACAD_REACTORS
330
1B0
102
}
100
AcDbEntity
  8
None
370
               9
390
0
  6
Continuous
 62
               7
100
AcDbCircle
 10
0.29559
 20
21.862199999999998
 30
0.0
 40
0.1400000000000006
  0
HATCH
  5
1B0
100
AcDbEntity
  8
None
370
               0
390
0
  6
Continuous
 62
               7
100
AcDbHatch
 10
0.0
 20
0.0
 30
0.0
210
0.0
220
0.0
230
1.0
  2
SOLID
 70
               1
 71
               1
 91
        1
 92
        1
 93
        1
 72
               2
 10
0.29559
 20
21.862199999999998
 40
0.1400000000000006
 50
0.0
 51
360.0
 73
               0
 97
        1
330
1AF
 75
               0
 76
               1
 98
        1
 10
0.0
 20
0.0
  0
CIRCLE
  5
1B1
102
{ACAD_REACTORS
330
1B2
102
}
100
AcDbEntity
  8
None
370
               9
390
0
  6
Continuous
 62
               7
100
AcDbCircle
 10
0.7955899999999999
 20
21.862199999999998
 30
0.0
 40
0.1400000000000006
  0
HATCH
  5
1B2
100
AcDbEntity
  8
None
370
               0
390
0
  6
Continuous
 62
               7
100
AcDbHatch
 10
0.0
 20
0.0
 30
0.0
210
0.0
220
0.0
230
1.0
  2
SOLID
 70
               1
 71
               1
 91
        1
 92
        1
 93
        1
 72
               2
 10
0.7955899999999999
 20
21.862199999999998
 40
0.1400000000000006
 50
0.0
 51
360.0
 73
               0
 97
        1
330
1B1
 75
               0
 76
               1
 98
        1
 10
0.0
 20
0.0
  0
CIRCLE
  5
1B3
102
{ACAD_REACTORS
330
1B4
102
}
100
AcDbEntity
  8
None
370
               9
390
0
  6
Continuous
 62
               7
100
AcDbCircle
 10
1.2955899999999998
 20
21.862199999999998
 30
0.0
 40
0.1400000000000006
  0
HATCH
  5
1B4
100
AcDbEntity
  8
None
370
               0
390
0
  6
Continuous
 62
               7
100
AcDbHatch
 10
0.0
 20
0.0
 30
0.0
210
0.0
220
0.0
230
1.0
  2
SOLID
 70
               1
 71
               1
 91
        1
 92
        1
 93
        1
 72
               2
 10
1.2955899999999998
 20
21.862199999999998
 40
0.1400000000000006
 50
0.0
 51
360.0
 73
               0
 97
        1
330
1B3
 75
               0
 76
               1
 98
        1
 10
0.0
 20
0.0
  0
CIRCLE
  5
1B5
102
{ACAD_REACTORS
330
1B6
102
}
100
AcDbEntity
  8
None
370
               9
390
0
  6
Continuous
 62
               7
100
AcDbCircle
 10
1.7955899999999998
 20
21.862199999999998
 30
0.0
 40
0.1400000000000006
  0
HATCH
  5
1B6
100
AcDbEntity
  8
None
370
               0
390
0
  6
Continuous
 62
               7
100
AcDbHatch
 10
0.0
 20
0.0
 30
0.0
210
0.0
220
0.0
230
1.0
  2
SOLID
 70
               1
 71
               1
 91
        1
 92
        1
 93
        1
 72
               2
 10
1.7955899999999998
 20
21.862199999999998
 40
0.1400000000000006
 50
0.0
 51
360.0
 73
               0
 97
        1
330
1B5
 75
               0
 76
               1
 98
        1
 10
0.0
 20
0.0
  0
CIRCLE
  5
1B7
102
{ACAD_REACTORS
330
1B8
102
}
100
AcDbEntity
  8
None
370
               9
390
0
  6
Continuous
 62
               7
100
AcDbCircle
 10
2.2955899999999998
 20
21.862199999999998
 30
0.0
 40
0.1400000000000006
  0
HATCH
  5
1B8
100
AcDbEntity
  8
None
370
               0
390
0
  6
Continuous
 62
               7
100
AcDbHatch
 10
0.0
 20
0.0
 30
0.0
210
0.0
220
0.0
230
1.0
  2
SOLID
 70
               1
 71
               1
 91
        1
 92
        1
 93
        1
 72
               2
 10
2.2955899999999998
 20
21.862199999999998
 40
0.1400000000000006
 50
0.0
 51
360.0
 73
               0
 97
        1
330
1B7
 75
               0
 76
               1
 98
        1
 10
0.0
 20
0.0
  0
CIRCLE
  5
1B9
102
{ACAD_REACTORS
330
1BA
102
}
100
AcDbEntity
  8
None
370
               9
390
0
  6
Continuous
 62
               7
100
AcDbCircle
 10
2.7955899999999998
 20
21.862199999999998
 30
0.0
 40
0.1400000000000006
  0
HATCH
  5
1BA
100
AcDbEntity
  8
None
370
               0
390
0
  6
Continuous
 62
               7
100
AcDbHatch
 10
0.0
 20
0.0
 30
0.0
210
0.0
220
0.0
230
1.0
  2
SOLID
 70
               1
 71
               1
 91
        1
 92
        1
 93
        1
 72
               2
 10
2.7955899999999998
 20
21.862199999999998
 40
0.1400000000000006
 50
0.0
 51
360.0
 73
               0
 97
        1
330
1B9
 75
               0
 76
               1
 98
        1
 10
0.0
 20
0.0
  0
CIRCLE
  5
1BB
102
{ACAD_REACTORS
330
1BC
102
}
100
AcDbEntity
  8
None
370
               9
390
0
  6
Continuous
 62
               7
100
AcDbCircle
 10
3.2955899999999998
 20
21.862199999999998
 30
0.0
 40
0.1400000000000006
  0
HATCH
  5
1BC
100
AcDbEntity
  8
None
370
               0
390
0
  6
Continuous
 62
               7
100
AcDbHatch
 10
0.0
 20
0.0
 30
0.0
210
0.0
220
0.0
230
1.0
  2
SOLID
 70
               1
 71
               1
 91
        1
 92
        1
 93
        1
 72
               2
 10
3.2955899999999998
 20
21.862199999999998
 40
0.1400000000000006
 50
0.0
 51
360.0
 73
               0
 97
        1
330
1BB
 75
               0
 76
               1
 98
        1
 10
0.0
 20
0.0
  0
CIRCLE
  5
1BD
102
{ACAD_REACTORS
330
1BE
102
}
100
AcDbEntity
  8
None
370
               9
390
0
  6
Continuous
 62
               7
100
AcDbCircle
 10
3.7955899999999998
 20
21.862199999999998
 30
0.0
 40
0.1400000000000006
  0
HATCH
  5
1BE
100
AcDbEntity
  8
None
370
               0
390
0
  6
Continuous
 62
               7
100
AcDbHatch
 10
0.0
 20
0.0
 30
0.0
210
0.0
220
0.0
230
1.0
  2
SOLID
 70
               1
 71
               1
 91
        1
 92
        1
 93
        1
 72
               2
 10
3.7955899999999998
 20
21.862199999999998
 40
0.1400000000000006
 50
0.0
 51
360.0
 73
               0
 97
        1
330
1BD
 75
               0
 76
               1
 98
        1
 10
0.0
 20
0.0
  0
CIRCLE
  5
1BF
102
{ACAD_REACTORS
330
1C0
102
}
100
AcDbEntity
  8
None
370
               9
390
0
  6
Continuous
 62
               7
100
AcDbCircle
 10
-3.2044099999999998
 20
22.362199999999998
 30
0.0
 40
0.1400000000000006
  0
HATCH
  5
1C0
100
AcDbEntity
  8
None
370
               0
390
0
  6
Continuous
 62
               7
100
AcDbHatch
 10
0.0
 20
0.0
 30
0.0
210
0.0
220
0.0
230
1.0
  2
SOLID
 70
               1
 71
               1
 91
        1
 92
        1
 93
        1
 72
               2
 10
-3.2044099999999998
 20
22.362199999999998
 40
0.1400000000000006
 50
0.0
 51
360.0
 73
               0
 97
        1
330
1BF
 75
               0
 76
               1
 98
        1
 10
0.0
 20
0.0
  0
CIRCLE
  5
1C1
102
{ACAD_REACTORS
330
1C2
102
}
100
AcDbEntity
  8
None
370
               9
390
0
  6
Continuous
 62
               7
100
AcDbCircle
 10
-2.7044099999999998
 20
22.362199999999998
 30
0.0
 40
0.1400000000000006
  0
HATCH
  5
1C2
100
AcDbEntity
  8
None
370
               0
390
0
  6
Continuous
 62
               7
100
AcDbHatch
 10
0.0
 20
0.0
 30
0.0
210
0.0
220
0.0
230
1.0
  2
SOLID
 70
               1
 71
               1
 91
        1
 92
        1
 93
        1
 72
               2
 10
-2.7044099999999998
 20
22.362199999999998
 40
0.1400000000000006
 50
0.0
 51
360.0
 73
               0
 97
        1
330
1C1
 75
               0
 76
               1
 98
        1
 10
0.0
 20
0.0
  0
CIRCLE
  5
1C3
102
{ACAD_REACTORS
330
1C4
102
}
100
AcDbEntity
  8
None
370
               9
390
0
  6
Continuous
 62
               7
100
AcDbCircle
 10
-2.2044099999999998
 20
22.362199999999998
 30
0.0
 40
0.1400000000000006
  0
HATCH
  5
1C4
100
AcDbEntity
  8
None
370
               0
390
0
  6
Continuous
 62
               7
100
AcDbHatch
 10
0.0
 20
0.0
 30
0.0
210
0.0
220
0.0
230
1.0
  2
SOLID
 70
               1
 71
               1
 91
        1
 92
        1
 93
        1
 72
               2
 10
-2.2044099999999998
 20
22.362199999999998
 40
0.1400000000000006
 50
0.0
 51
360.0
 73
               0
 97
        1
330
1C3
 75
               0
 76
               1
 98
        1
 10
0.0
 20
0.0
  0
CIRCLE
  5
1C5
102
{ACAD_REACTORS
330
1C6
102
}
100
AcDbEntity
  8
None
370
               9
390
0
  6
Continuous
 62
               7
100
AcDbCircle
 10
-1.7044099999999998
 20
22.362199999999998
 30
0.0
 40
0.1400000000000006
  0
HATCH
  5
1C6
100
AcDbEntity
  8
None
370
               0
390
0
  6
Continuous
 62
               7
100
AcDbHatch
 10
0.0
 20
0.0
 30
0.0
210
0.0
220
0.0
230
1.0
  2
SOLID
 70
               1
 71
               1
 91
        1
 92
        1
 93
        1
 72
               2
 10
-1.7044099999999998
 20
22.362199999999998
 40
0.1400000000000006
 50
0.0
 51
360.0
 73
               0
 97
        1
330
1C5
 75
               0
 76
               1
 98
        1
 10
0.0
 20
0.0
  0
CIRCLE
  5
1C7
102
{ACAD_REACTORS
330
1C8
102
}
100
AcDbEntity
  8
None
370
               9
390
0
  6
Continuous
 62
               7
100
AcDbCircle
 10
-1.20441
 20
22.362199999999998
 30
0.0
 40
0.1400000000000006
  0
HATCH
  5
1C8
100
AcDbEntity
  8
None
370
               0
390
0
  6
Continuous
 62
               7
100
AcDbHatch
 10
0.0
 20
0.0
 30
0.0
210
0.0
220
0.0
230
1.0
  2
SOLID
 70
               1
 71
               1
 91
        1
 92
        1
 93
        1
 72
               2
 10
-1.20441
 20
22.362199999999998
 40
0.1400000000000006
 50
0.0
 51
360.0
 73
               0
 97
        1
330
1C7
 75
               0
 76
               1
 98
        1
 10
0.0
 20
0.0
  0
CIRCLE
  5
1C9
102
{ACAD_REACTORS
330
1CA
102
}
100
AcDbEntity
  8
None
370
               9
390
0
  6
Continuous
 62
               7
100
AcDbCircle
 10
-0.70441
 20
22.362199999999998
 30
0.0
 40
0.1400000000000006
  0
HATCH
  5
1CA
100
AcDbEntity
  8
None
370
               0
390
0
  6
Continuous
 62
               7
100
AcDbHatch
 10
0.0
 20
0.0
 30
0.0
210
0.0
220
0.0
230
1.0
  2
SOLID
 70
               1
 71
               1
 91
        1
 92
        1
 93
        1
 72
               2
 10
-0.70441
 20
22.362199999999998
 40
0.1400000000000006
 50
0.0
 51
360.0
 73
               0
 97
        1
330
1C9
 75
               0
 76
               1
 98
        1
 10
0.0
 20
0.0
  0
CIRCLE
  5
1CB
102
{ACAD_REACTORS
330
1CC
102
}
100
AcDbEntity
  8
None
370
               9
390
0
  6
Continuous
 62
               7
100
AcDbCircle
 10
-0.20441
 20
22.362199999999998
 30
0.0
 40
0.1400000000000006
  0
HATCH
  5
1CC
100
AcDbEntity
  8
None
370
               0
390
0
  6
Continuous
 62
               7
100
AcDbHatch
 10
0.0
 20
0.0
 30
0.0
210
0.0
220
0.0
230
1.0
  2
SOLID
 70
               1
 71
               1
 91
        1
 92
        1
 93
        1
 72
               2
 10
-0.20441
 20
22.362199999999998
 40
0.1400000000000006
 50
0.0
 51
360.0
 73
               0
 97
        1
330
1CB
 75
               0
 76
               1
 98
        1
 10
0.0
 20
0.0
  0
CIRCLE
  5
1CD
102
{ACAD_REACTORS
330
1CE
102
}
100
AcDbEntity
  8
None
370
               9
390
0
  6
Continuous
 62
               7
100
AcDbCircle
 10
0.29559
 20
22.362199999999998
 30
0.0
 40
0.1400000000000006
  0
HATCH
  5
1CE
100
AcDbEntity
  8
None
370
               0
390
0
  6
Continuous
 62
               7
100
AcDbHatch
 10
0.0
 20
0.0
 30
0.0
210
0.0
220
0.0
230
1.0
  2
SOLID
 70
               1
 71
               1
 91
        1
 92
        1
 93
        1
 72
               2
 10
0.29559
 20
22.362199999999998
 40
0.1400000000000006
 50
0.0
 51
360.0
 73
               0
 97
        1
330
1CD
 75
               0
 76
               1
 98
        1
 10
0.0
 20
0.0
  0
CIRCLE
  5
1CF
102
{ACAD_REACTORS
330
1D0
102
}
100
AcDbEntity
  8
None
370
               9
390
0
  6
Continuous
 62
               7
100
AcDbCircle
 10
0.7955899999999999
 20
22.362199999999998
 30
0.0
 40
0.1400000000000006
  0
HATCH
  5
1D0
100
AcDbEntity
  8
None
370
               0
390
0
  6
Continuous
 62
               7
100
AcDbHatch
 10
0.0
 20
0.0
 30
0.0
210
0.0
220
0.0
230
1.0
  2
SOLID
 70
               1
 71
               1
 91
        1
 92
        1
 93
        1
 72
               2
 10
0.7955899999999999
 20
22.362199999999998
 40
0.1400000000000006
 50
0.0
 51
360.0
 73
               0
 97
        1
330
1CF
 75
               0
 76
               1
 98
        1
 10
0.0
 20
0.0
  0
CIRCLE
  5
1D1
102
{ACAD_REACTORS
330
1D2
102
}
100
AcDbEntity
  8
None
370
               9
390
0
  6
Continuous
 62
               7
100
AcDbCircle
 10
1.2955899999999998
 20
22.362199999999998
 30
0.0
 40
0.1400000000000006
  0
HATCH
  5
1D2
100
AcDbEntity
  8
None
370
               0
390
0
  6
Continuous
 62
               7
100
AcDbHatch
 10
0.0
 20
0.0
 30
0.0
210
0.0
220
0.0
230
1.0
  2
SOLID
 70
               1
 71
               1
 91
        1
 92
        1
 93
        1
 72
               2
 10
1.2955899999999998
 20
22.362199999999998
 40
0.1400000000000006
 50
0.0
 51
360.0
 73
               0
 97
        1
330
1D1
 75
               0
 76
               1
 98
        1
 10
0.0
 20
0.0
  0
CIRCLE
  5
1D3
102
{ACAD_REACTORS
330
1D4
102
}
100
AcDbEntity
  8
None
370
               9
390
0
  6
Continuous
 62
               7
100
AcDbCircle
 10
1.7955899999999998
 20
22.362199999999998
 30
0.0
 40
0.1400000000000006
  0
HATCH
  5
1D4
100
AcDbEntity
  8
None
370
               0
390
0
  6
Continuous
 62
               7
100
AcDbHatch
 10
0.0
 20
0.0
 30
0.0
210
0.0
220
0.0
230
1.0
  2
SOLID
 70
               1
 71
               1
 91
        1
 92
        1
 93
        1
 72
               2
 10
1.7955899999999998
 20
22.362199999999998
 40
0.1400000000000006
 50
0.0
 51
360.0
 73
               0
 97
        1
330
1D3
 75
               0
 76
               1
 98
        1
 10
0.0
 20
0.0
  0
CIRCLE
  5
1D5
102
{ACAD_REACTORS
330
1D6
102
}
100
AcDbEntity
  8
None
370
               9
390
0
  6
Continuous
 62
               7
100
AcDbCircle
 10
2.2955899999999998
 20
22.362199999999998
 30
0.0
 40
0.1400000000000006
  0
HATCH
  5
1D6
100
AcDbEntity
  8
None
370
               0
390
0
  6
Continuous
 62
               7
100
AcDbHatch
 10
0.0
 20
0.0
 30
0.0
210
0.0
220
0.0
230
1.0
  2
SOLID
 70
               1
 71
               1
 91
        1
 92
        1
 93
        1
 72
               2
 10
2.2955899999999998
 20
22.362199999999998
 40
0.1400000000000006
 50
0.0
 51
360.0
 73
               0
 97
        1
330
1D5
 75
               0
 76
               1
 98
        1
 10
0.0
 20
0.0
  0
CIRCLE
  5
1D7
102
{ACAD_REACTORS
330
1D8
102
}
100
AcDbEntity
  8
None
370
               9
390
0
  6
Continuous
 62
               7
100
AcDbCircle
 10
2.7955899999999998
 20
22.362199999999998
 30
0.0
 40
0.1400000000000006
  0
HATCH
  5
1D8
100
AcDbEntity
  8
None
370
               0
390
0
  6
Continuous
 62
               7
100
AcDbHatch
 10
0.0
 20
0.0
 30
0.0
210
0.0
220
0.0
230
1.0
  2
SOLID
 70
               1
 71
               1
 91
        1
 92
        1
 93
        1
 72
               2
 10
2.7955899999999998
 20
22.362199999999998
 40
0.1400000000000006
 50
0.0
 51
360.0
 73
               0
 97
        1
330
1D7
 75
               0
 76
               1
 98
        1
 10
0.0
 20
0.0
  0
CIRCLE
  5
1D9
102
{ACAD_REACTORS
330
1DA
102
}
100
AcDbEntity
  8
None
370
               9
390
0
  6
Continuous
 62
               7
100
AcDbCircle
 10
3.2955899999999998
 20
22.362199999999998
 30
0.0
 40
0.1400000000000006
  0
HATCH
  5
1DA
100
AcDbEntity
  8
None
370
               0
390
0
  6
Continuous
 62
               7
100
AcDbHatch
 10
0.0
 20
0.0
 30
0.0
210
0.0
220
0.0
230
1.0
  2
SOLID
 70
               1
 71
               1
 91
        1
 92
        1
 93
        1
 72
               2
 10
3.2955899999999998
 20
22.362199999999998
 40
0.1400000000000006
 50
0.0
 51
360.0
 73
               0
 97
        1
330
1D9
 75
               0
 76
               1
 98
        1
 10
0.0
 20
0.0
  0
CIRCLE
  5
1DB
102
{ACAD_REACTORS
330
1DC
102
}
100
AcDbEntity
  8
None
370
               9
390
0
  6
Continuous
 62
               7
100
AcDbCircle
 10
3.7955899999999998
 20
22.362199999999998
 30
0.0
 40
0.1400000000000006
  0
HATCH
  5
1DC
100
AcDbEntity
  8
None
370
               0
390
0
  6
Continuous
 62
               7
100
AcDbHatch
 10
0.0
 20
0.0
 30
0.0
210
0.0
220
0.0
230
1.0
  2
SOLID
 70
               1
 71
               1
 91
        1
 92
        1
 93
        1
 72
               2
 10
3.7955899999999998
 20
22.362199999999998
 40
0.1400000000000006
 50
0.0
 51
360.0
 73
               0
 97
        1
330
1DB
 75
               0
 76
               1
 98
        1
 10
0.0
 20
0.0
  0
CIRCLE
  5
1DD
102
{ACAD_REACTORS
330
1DE
102
}
100
AcDbEntity
  8
None
370
               9
390
0
  6
Continuous
 62
               7
100
AcDbCircle
 10
-3.2044099999999998
 20
22.862199999999998
 30
0.0
 40
0.1400000000000006
  0
HATCH
  5
1DE
100
AcDbEntity
  8
None
370
               0
390
0
  6
Continuous
 62
               7
100
AcDbHatch
 10
0.0
 20
0.0
 30
0.0
210
0.0
220
0.0
230
1.0
  2
SOLID
 70
               1
 71
               1
 91
        1
 92
        1
 93
        1
 72
               2
 10
-3.2044099999999998
 20
22.862199999999998
 40
0.1400000000000006
 50
0.0
 51
360.0
 73
               0
 97
        1
330
1DD
 75
               0
 76
               1
 98
        1
 10
0.0
 20
0.0
  0
CIRCLE
  5
1DF
102
{ACAD_REACTORS
330
1E0
102
}
100
AcDbEntity
  8
None
370
               9
390
0
  6
Continuous
 62
               7
100
AcDbCircle
 10
-2.7044099999999998
 20
22.862199999999998
 30
0.0
 40
0.1400000000000006
  0
HATCH
  5
1E0
100
AcDbEntity
  8
None
370
               0
390
0
  6
Continuous
 62
               7
100
AcDbHatch
 10
0.0
 20
0.0
 30
0.0
210
0.0
220
0.0
230
1.0
  2
SOLID
 70
               1
 71
               1
 91
        1
 92
        1
 93
        1
 72
               2
 10
-2.7044099999999998
 20
22.862199999999998
 40
0.1400000000000006
 50
0.0
 51
360.0
 73
               0
 97
        1
330
1DF
 75
               0
 76
               1
 98
        1
 10
0.0
 20
0.0
  0
CIRCLE
  5
1E1
102
{ACAD_REACTORS
330
1E2
102
}
100
AcDbEntity
  8
None
370
               9
390
0
  6
Continuous
 62
               7
100
AcDbCircle
 10
-2.2044099999999998
 20
22.862199999999998
 30
0.0
 40
0.1400000000000006
  0
HATCH
  5
1E2
100
AcDbEntity
  8
None
370
               0
390
0
  6
Continuous
 62
               7
100
AcDbHatch
 10
0.0
 20
0.0
 30
0.0
210
0.0
220
0.0
230
1.0
  2
SOLID
 70
               1
 71
               1
 91
        1
 92
        1
 93
        1
 72
               2
 10
-2.2044099999999998
 20
22.862199999999998
 40
0.1400000000000006
 50
0.0
 51
360.0
 73
               0
 97
        1
330
1E1
 75
               0
 76
               1
 98
        1
 10
0.0
 20
0.0
  0
CIRCLE
  5
1E3
102
{ACAD_REACTORS
330
1E4
102
}
100
AcDbEntity
  8
None
370
               9
390
0
  6
Continuous
 62
               7
100
AcDbCircle
 10
-1.7044099999999998
 20
22.862199999999998
 30
0.0
 40
0.1400000000000006
  0
HATCH
  5
1E4
100
AcDbEntity
  8
None
370
               0
390
0
  6
Continuous
 62
               7
100
AcDbHatch
 10
0.0
 20
0.0
 30
0.0
210
0.0
220
0.0
230
1.0
  2
SOLID
 70
               1
 71
               1
 91
        1
 92
        1
 93
        1
 72
               2
 10
-1.7044099999999998
 20
22.862199999999998
 40
0.1400000000000006
 50
0.0
 51
360.0
 73
               0
 97
        1
330
1E3
 75
               0
 76
               1
 98
        1
 10
0.0
 20
0.0
  0
CIRCLE
  5
1E5
102
{ACAD_REACTORS
330
1E6
102
}
100
AcDbEntity
  8
None
370
               9
390
0
  6
Continuous
 62
               7
100
AcDbCircle
 10
-1.20441
 20
22.862199999999998
 30
0.0
 40
0.1400000000000006
  0
HATCH
  5
1E6
100
AcDbEntity
  8
None
370
               0
390
0
  6
Continuous
 62
               7
100
AcDbHatch
 10
0.0
 20
0.0
 30
0.0
210
0.0
220
0.0
230
1.0
  2
SOLID
 70
               1
 71
               1
 91
        1
 92
        1
 93
        1
 72
               2
 10
-1.20441
 20
22.862199999999998
 40
0.1400000000000006
 50
0.0
 51
360.0
 73
               0
 97
        1
330
1E5
 75
               0
 76
               1
 98
        1
 10
0.0
 20
0.0
  0
CIRCLE
  5
1E7
102
{ACAD_REACTORS
330
1E8
102
}
100
AcDbEntity
  8
None
370
               9
390
0
  6
Continuous
 62
               7
100
AcDbCircle
 10
-0.70441
 20
22.862199999999998
 30
0.0
 40
0.1400000000000006
  0
HATCH
  5
1E8
100
AcDbEntity
  8
None
370
               0
390
0
  6
Continuous
 62
               7
100
AcDbHatch
 10
0.0
 20
0.0
 30
0.0
210
0.0
220
0.0
230
1.0
  2
SOLID
 70
               1
 71
               1
 91
        1
 92
        1
 93
        1
 72
               2
 10
-0.70441
 20
22.862199999999998
 40
0.1400000000000006
 50
0.0
 51
360.0
 73
               0
 97
        1
330
1E7
 75
               0
 76
               1
 98
        1
 10
0.0
 20
0.0
  0
CIRCLE
  5
1E9
102
{ACAD_REACTORS
330
1EA
102
}
100
AcDbEntity
  8
None
370
               9
390
0
  6
Continuous
 62
               7
100
AcDbCircle
 10
-0.20441
 20
22.862199999999998
 30
0.0
 40
0.1400000000000006
  0
HATCH
  5
1EA
100
AcDbEntity
  8
None
370
               0
390
0
  6
Continuous
 62
               7
100
AcDbHatch
 10
0.0
 20
0.0
 30
0.0
210
0.0
220
0.0
230
1.0
  2
SOLID
 70
               1
 71
               1
 91
        1
 92
        1
 93
        1
 72
               2
 10
-0.20441
 20
22.862199999999998
 40
0.1400000000000006
 50
0.0
 51
360.0
 73
               0
 97
        1
330
1E9
 75
               0
 76
               1
 98
        1
 10
0.0
 20
0.0
  0
CIRCLE
  5
1EB
102
{ACAD_REACTORS
330
1EC
102
}
100
AcDbEntity
  8
None
370
               9
390
0
  6
Continuous
 62
               7
100
AcDbCircle
 10
0.29559
 20
22.862199999999998
 30
0.0
 40
0.1400000000000006
  0
HATCH
  5
1EC
100
AcDbEntity
  8
None
370
               0
390
0
  6
Continuous
 62
               7
100
AcDbHatch
 10
0.0
 20
0.0
 30
0.0
210
0.0
220
0.0
230
1.0
  2
SOLID
 70
               1
 71
               1
 91
        1
 92
        1
 93
        1
 72
               2
 10
0.29559
 20
22.862199999999998
 40
0.1400000000000006
 50
0.0
 51
360.0
 73
               0
 97
        1
330
1EB
 75
               0
 76
               1
 98
        1
 10
0.0
 20
0.0
  0
CIRCLE
  5
1ED
102
{ACAD_REACTORS
330
1EE
102
}
100
AcDbEntity
  8
None
370
               9
390
0
  6
Continuous
 62
               7
100
AcDbCircle
 10
0.7955899999999999
 20
22.862199999999998
 30
0.0
 40
0.1400000000000006
  0
HATCH
  5
1EE
100
AcDbEntity
  8
None
370
               0
390
0
  6
Continuous
 62
               7
100
AcDbHatch
 10
0.0
 20
0.0
 30
0.0
210
0.0
220
0.0
230
1.0
  2
SOLID
 70
               1
 71
               1
 91
        1
 92
        1
 93
        1
 72
               2
 10
0.7955899999999999
 20
22.862199999999998
 40
0.1400000000000006
 50
0.0
 51
360.0
 73
               0
 97
        1
330
1ED
 75
               0
 76
               1
 98
        1
 10
0.0
 20
0.0
  0
CIRCLE
  5
1EF
102
{ACAD_REACTORS
330
1F0
102
}
100
AcDbEntity
  8
None
370
               9
390
0
  6
Continuous
 62
               7
100
AcDbCircle
 10
1.2955899999999998
 20
22.862199999999998
 30
0.0
 40
0.1400000000000006
  0
HATCH
  5
1F0
100
AcDbEntity
  8
None
370
               0
390
0
  6
Continuous
 62
               7
100
AcDbHatch
 10
0.0
 20
0.0
 30
0.0
210
0.0
220
0.0
230
1.0
  2
SOLID
 70
               1
 71
               1
 91
        1
 92
        1
 93
        1
 72
               2
 10
1.2955899999999998
 20
22.862199999999998
 40
0.1400000000000006
 50
0.0
 51
360.0
 73
               0
 97
        1
330
1EF
 75
               0
 76
               1
 98
        1
 10
0.0
 20
0.0
  0
CIRCLE
  5
1F1
102
{ACAD_REACTORS
330
1F2
102
}
100
AcDbEntity
  8
None
370
               9
390
0
  6
Continuous
 62
               7
100
AcDbCircle
 10
1.7955899999999998
 20
22.862199999999998
 30
0.0
 40
0.1400000000000006
  0
HATCH
  5
1F2
100
AcDbEntity
  8
None
370
               0
390
0
  6
Continuous
 62
               7
100
AcDbHatch
 10
0.0
 20
0.0
 30
0.0
210
0.0
220
0.0
230
1.0
  2
SOLID
 70
               1
 71
               1
 91
        1
 92
        1
 93
        1
 72
               2
 10
1.7955899999999998
 20
22.862199999999998
 40
0.1400000000000006
 50
0.0
 51
360.0
 73
               0
 97
        1
330
1F1
 75
               0
 76
               1
 98
        1
 10
0.0
 20
0.0
  0
CIRCLE
  5
1F3
102
{ACAD_REACTORS
330
1F4
102
}
100
AcDbEntity
  8
None
370
               9
390
0
  6
Continuous
 62
               7
100
AcDbCircle
 10
2.2955899999999998
 20
22.862199999999998
 30
0.0
 40
0.1400000000000006
  0
HATCH
  5
1F4
100
AcDbEntity
  8
None
370
               0
390
0
  6
Continuous
 62
               7
100
AcDbHatch
 10
0.0
 20
0.0
 30
0.0
210
0.0
220
0.0
230
1.0
  2
SOLID
 70
               1
 71
               1
 91
        1
 92
        1
 93
        1
 72
               2
 10
2.2955899999999998
 20
22.862199999999998
 40
0.1400000000000006
 50
0.0
 51
360.0
 73
               0
 97
        1
330
1F3
 75
               0
 76
               1
 98
        1
 10
0.0
 20
0.0
  0
CIRCLE
  5
1F5
102
{ACAD_REACTORS
330
1F6
102
}
100
AcDbEntity
  8
None
370
               9
390
0
  6
Continuous
 62
               7
100
AcDbCircle
 10
2.7955899999999998
 20
22.862199999999998
 30
0.0
 40
0.1400000000000006
  0
HATCH
  5
1F6
100
AcDbEntity
  8
None
370
               0
390
0
  6
Continuous
 62
               7
100
AcDbHatch
 10
0.0
 20
0.0
 30
0.0
210
0.0
220
0.0
230
1.0
  2
SOLID
 70
               1
 71
               1
 91
        1
 92
        1
 93
        1
 72
               2
 10
2.7955899999999998
 20
22.862199999999998
 40
0.1400000000000006
 50
0.0
 51
360.0
 73
               0
 97
        1
330
1F5
 75
               0
 76
               1
 98
        1
 10
0.0
 20
0.0
  0
CIRCLE
  5
1F7
102
{ACAD_REACTORS
330
1F8
102
}
100
AcDbEntity
  8
None
370
               9
390
0
  6
Continuous
 62
               7
100
AcDbCircle
 10
3.2955899999999998
 20
22.862199999999998
 30
0.0
 40
0.1400000000000006
  0
HATCH
  5
1F8
100
AcDbEntity
  8
None
370
               0
390
0
  6
Continuous
 62
               7
100
AcDbHatch
 10
0.0
 20
0.0
 30
0.0
210
0.0
220
0.0
230
1.0
  2
SOLID
 70
               1
 71
               1
 91
        1
 92
        1
 93
        1
 72
               2
 10
3.2955899999999998
 20
22.862199999999998
 40
0.1400000000000006
 50
0.0
 51
360.0
 73
               0
 97
        1
330
1F7
 75
               0
 76
               1
 98
        1
 10
0.0
 20
0.0
  0
CIRCLE
  5
1F9
102
{ACAD_REACTORS
330
1FA
102
}
100
AcDbEntity
  8
None
370
               9
390
0
  6
Continuous
 62
               7
100
AcDbCircle
 10
3.7955899999999998
 20
22.862199999999998
 30
0.0
 40
0.1400000000000006
  0
HATCH
  5
1FA
100
AcDbEntity
  8
None
370
               0
390
0
  6
Continuous
 62
               7
100
AcDbHatch
 10
0.0
 20
0.0
 30
0.0
210
0.0
220
0.0
230
1.0
  2
SOLID
 70
               1
 71
               1
 91
        1
 92
        1
 93
        1
 72
               2
 10
3.7955899999999998
 20
22.862199999999998
 40
0.1400000000000006
 50
0.0
 51
360.0
 73
               0
 97
        1
330
1F9
 75
               0
 76
               1
 98
        1
 10
0.0
 20
0.0
  0
CIRCLE
  5
1FB
102
{ACAD_REACTORS
330
1FC
102
}
100
AcDbEntity
  8
None
370
               9
390
0
  6
Continuous
 62
               7
100
AcDbCircle
 10
-3.2044099999999998
 20
23.362199999999998
 30
0.0
 40
0.1400000000000006
  0
HATCH
  5
1FC
100
AcDbEntity
  8
None
370
               0
390
0
  6
Continuous
 62
               7
100
AcDbHatch
 10
0.0
 20
0.0
 30
0.0
210
0.0
220
0.0
230
1.0
  2
SOLID
 70
               1
 71
               1
 91
        1
 92
        1
 93
        1
 72
               2
 10
-3.2044099999999998
 20
23.362199999999998
 40
0.1400000000000006
 50
0.0
 51
360.0
 73
               0
 97
        1
330
1FB
 75
               0
 76
               1
 98
        1
 10
0.0
 20
0.0
  0
CIRCLE
  5
1FD
102
{ACAD_REACTORS
330
1FE
102
}
100
AcDbEntity
  8
None
370
               9
390
0
  6
Continuous
 62
               7
100
AcDbCircle
 10
-2.7044099999999998
 20
23.362199999999998
 30
0.0
 40
0.1400000000000006
  0
HATCH
  5
1FE
100
AcDbEntity
  8
None
370
               0
390
0
  6
Continuous
 62
               7
100
AcDbHatch
 10
0.0
 20
0.0
 30
0.0
210
0.0
220
0.0
230
1.0
  2
SOLID
 70
               1
 71
               1
 91
        1
 92
        1
 93
        1
 72
               2
 10
-2.7044099999999998
 20
23.362199999999998
 40
0.1400000000000006
 50
0.0
 51
360.0
 73
               0
 97
        1
330
1FD
 75
               0
 76
               1
 98
        1
 10
0.0
 20
0.0
  0
CIRCLE
  5
1FF
102
{ACAD_REACTORS
330
200
102
}
100
AcDbEntity
  8
None
370
               9
390
0
  6
Continuous
 62
               7
100
AcDbCircle
 10
-2.2044099999999998
 20
23.362199999999998
 30
0.0
 40
0.1400000000000006
  0
HATCH
  5
200
100
AcDbEntity
  8
None
370
               0
390
0
  6
Continuous
 62
               7
100
AcDbHatch
 10
0.0
 20
0.0
 30
0.0
210
0.0
220
0.0
230
1.0
  2
SOLID
 70
               1
 71
               1
 91
        1
 92
        1
 93
        1
 72
               2
 10
-2.2044099999999998
 20
23.362199999999998
 40
0.1400000000000006
 50
0.0
 51
360.0
 73
               0
 97
        1
330
1FF
 75
               0
 76
               1
 98
        1
 10
0.0
 20
0.0
  0
CIRCLE
  5
201
102
{ACAD_REACTORS
330
202
102
}
100
AcDbEntity
  8
None
370
               9
390
0
  6
Continuous
 62
               7
100
AcDbCircle
 10
-1.7044099999999998
 20
23.362199999999998
 30
0.0
 40
0.1400000000000006
  0
HATCH
  5
202
100
AcDbEntity
  8
None
370
               0
390
0
  6
Continuous
 62
               7
100
AcDbHatch
 10
0.0
 20
0.0
 30
0.0
210
0.0
220
0.0
230
1.0
  2
SOLID
 70
               1
 71
               1
 91
        1
 92
        1
 93
        1
 72
               2
 10
-1.7044099999999998
 20
23.362199999999998
 40
0.1400000000000006
 50
0.0
 51
360.0
 73
               0
 97
        1
330
201
 75
               0
 76
               1
 98
        1
 10
0.0
 20
0.0
  0
CIRCLE
  5
203
102
{ACAD_REACTORS
330
204
102
}
100
AcDbEntity
  8
None
370
               9
390
0
  6
Continuous
 62
               7
100
AcDbCircle
 10
-1.20441
 20
23.362199999999998
 30
0.0
 40
0.1400000000000006
  0
HATCH
  5
204
100
AcDbEntity
  8
None
370
               0
390
0
  6
Continuous
 62
               7
100
AcDbHatch
 10
0.0
 20
0.0
 30
0.0
210
0.0
220
0.0
230
1.0
  2
SOLID
 70
               1
 71
               1
 91
        1
 92
        1
 93
        1
 72
               2
 10
-1.20441
 20
23.362199999999998
 40
0.1400000000000006
 50
0.0
 51
360.0
 73
               0
 97
        1
330
203
 75
               0
 76
               1
 98
        1
 10
0.0
 20
0.0
  0
CIRCLE
  5
205
102
{ACAD_REACTORS
330
206
102
}
100
AcDbEntity
  8
None
370
               9
390
0
  6
Continuous
 62
               7
100
AcDbCircle
 10
-0.70441
 20
23.362199999999998
 30
0.0
 40
0.1400000000000006
  0
HATCH
  5
206
100
AcDbEntity
  8
None
370
               0
390
0
  6
Continuous
 62
               7
100
AcDbHatch
 10
0.0
 20
0.0
 30
0.0
210
0.0
220
0.0
230
1.0
  2
SOLID
 70
               1
 71
               1
 91
        1
 92
        1
 93
        1
 72
               2
 10
-0.70441
 20
23.362199999999998
 40
0.1400000000000006
 50
0.0
 51
360.0
 73
               0
 97
        1
330
205
 75
               0
 76
               1
 98
        1
 10
0.0
 20
0.0
  0
CIRCLE
  5
207
102
{ACAD_REACTORS
330
208
102
}
100
AcDbEntity
  8
None
370
               9
390
0
  6
Continuous
 62
               7
100
AcDbCircle
 10
-0.20441
 20
23.362199999999998
 30
0.0
 40
0.1400000000000006
  0
HATCH
  5
208
100
AcDbEntity
  8
None
370
               0
390
0
  6
Continuous
 62
               7
100
AcDbHatch
 10
0.0
 20
0.0
 30
0.0
210
0.0
220
0.0
230
1.0
  2
SOLID
 70
               1
 71
               1
 91
        1
 92
        1
 93
        1
 72
               2
 10
-0.20441
 20
23.362199999999998
 40
0.1400000000000006
 50
0.0
 51
360.0
 73
               0
 97
        1
330
207
 75
               0
 76
               1
 98
        1
 10
0.0
 20
0.0
  0
CIRCLE
  5
209
102
{ACAD_REACTORS
330
20A
102
}
100
AcDbEntity
  8
None
370
               9
390
0
  6
Continuous
 62
               7
100
AcDbCircle
 10
0.29559
 20
23.362199999999998
 30
0.0
 40
0.1400000000000006
  0
HATCH
  5
20A
100
AcDbEntity
  8
None
370
               0
390
0
  6
Continuous
 62
               7
100
AcDbHatch
 10
0.0
 20
0.0
 30
0.0
210
0.0
220
0.0
230
1.0
  2
SOLID
 70
               1
 71
               1
 91
        1
 92
        1
 93
        1
 72
               2
 10
0.29559
 20
23.362199999999998
 40
0.1400000000000006
 50
0.0
 51
360.0
 73
               0
 97
        1
330
209
 75
               0
 76
               1
 98
        1
 10
0.0
 20
0.0
  0
CIRCLE
  5
20B
102
{ACAD_REACTORS
330
20C
102
}
100
AcDbEntity
  8
None
370
               9
390
0
  6
Continuous
 62
               7
100
AcDbCircle
 10
0.7955899999999999
 20
23.362199999999998
 30
0.0
 40
0.1400000000000006
  0
HATCH
  5
20C
100
AcDbEntity
  8
None
370
               0
390
0
  6
Continuous
 62
               7
100
AcDbHatch
 10
0.0
 20
0.0
 30
0.0
210
0.0
220
0.0
230
1.0
  2
SOLID
 70
               1
 71
               1
 91
        1
 92
        1
 93
        1
 72
               2
 10
0.7955899999999999
 20
23.362199999999998
 40
0.1400000000000006
 50
0.0
 51
360.0
 73
               0
 97
        1
330
20B
 75
               0
 76
               1
 98
        1
 10
0.0
 20
0.0
  0
CIRCLE
  5
20D
102
{ACAD_REACTORS
330
20E
102
}
100
AcDbEntity
  8
None
370
               9
390
0
  6
Continuous
 62
               7
100
AcDbCircle
 10
1.2955899999999998
 20
23.362199999999998
 30
0.0
 40
0.1400000000000006
  0
HATCH
  5
20E
100
AcDbEntity
  8
None
370
               0
390
0
  6
Continuous
 62
               7
100
AcDbHatch
 10
0.0
 20
0.0
 30
0.0
210
0.0
220
0.0
230
1.0
  2
SOLID
 70
               1
 71
               1
 91
        1
 92
        1
 93
        1
 72
               2
 10
1.2955899999999998
 20
23.362199999999998
 40
0.1400000000000006
 50
0.0
 51
360.0
 73
               0
 97
        1
330
20D
 75
               0
 76
               1
 98
        1
 10
0.0
 20
0.0
  0
CIRCLE
  5
20F
102
{ACAD_REACTORS
330
210
102
}
100
AcDbEntity
  8
None
370
               9
390
0
  6
Continuous
 62
               7
100
AcDbCircle
 10
1.7955899999999998
 20
23.362199999999998
 30
0.0
 40
0.1400000000000006
  0
HATCH
  5
210
100
AcDbEntity
  8
None
370
               0
390
0
  6
Continuous
 62
               7
100
AcDbHatch
 10
0.0
 20
0.0
 30
0.0
210
0.0
220
0.0
230
1.0
  2
SOLID
 70
               1
 71
               1
 91
        1
 92
        1
 93
        1
 72
               2
 10
1.7955899999999998
 20
23.362199999999998
 40
0.1400000000000006
 50
0.0
 51
360.0
 73
               0
 97
        1
330
20F
 75
               0
 76
               1
 98
        1
 10
0.0
 20
0.0
  0
CIRCLE
  5
211
102
{ACAD_REACTORS
330
212
102
}
100
AcDbEntity
  8
None
370
               9
390
0
  6
Continuous
 62
               7
100
AcDbCircle
 10
2.2955899999999998
 20
23.362199999999998
 30
0.0
 40
0.1400000000000006
  0
HATCH
  5
212
100
AcDbEntity
  8
None
370
               0
390
0
  6
Continuous
 62
               7
100
AcDbHatch
 10
0.0
 20
0.0
 30
0.0
210
0.0
220
0.0
230
1.0
  2
SOLID
 70
               1
 71
               1
 91
        1
 92
        1
 93
        1
 72
               2
 10
2.2955899999999998
 20
23.362199999999998
 40
0.1400000000000006
 50
0.0
 51
360.0
 73
               0
 97
        1
330
211
 75
               0
 76
               1
 98
        1
 10
0.0
 20
0.0
  0
CIRCLE
  5
213
102
{ACAD_REACTORS
330
214
102
}
100
AcDbEntity
  8
None
370
               9
390
0
  6
Continuous
 62
               7
100
AcDbCircle
 10
2.7955899999999998
 20
23.362199999999998
 30
0.0
 40
0.1400000000000006
  0
HATCH
  5
214
100
AcDbEntity
  8
None
370
               0
390
0
  6
Continuous
 62
               7
100
AcDbHatch
 10
0.0
 20
0.0
 30
0.0
210
0.0
220
0.0
230
1.0
  2
SOLID
 70
               1
 71
               1
 91
        1
 92
        1
 93
        1
 72
               2
 10
2.7955899999999998
 20
23.362199999999998
 40
0.1400000000000006
 50
0.0
 51
360.0
 73
               0
 97
        1
330
213
 75
               0
 76
               1
 98
        1
 10
0.0
 20
0.0
  0
CIRCLE
  5
215
102
{ACAD_REACTORS
330
216
102
}
100
AcDbEntity
  8
None
370
               9
390
0
  6
Continuous
 62
               7
100
AcDbCircle
 10
3.2955899999999998
 20
23.362199999999998
 30
0.0
 40
0.1400000000000006
  0
HATCH
  5
216
100
AcDbEntity
  8
None
370
               0
390
0
  6
Continuous
 62
               7
100
AcDbHatch
 10
0.0
 20
0.0
 30
0.0
210
0.0
220
0.0
230
1.0
  2
SOLID
 70
               1
 71
               1
 91
        1
 92
        1
 93
        1
 72
               2
 10
3.2955899999999998
 20
23.362199999999998
 40
0.1400000000000006
 50
0.0
 51
360.0
 73
               0
 97
        1
330
215
 75
               0
 76
               1
 98
        1
 10
0.0
 20
0.0
  0
CIRCLE
  5
217
102
{ACAD_REACTORS
330
218
102
}
100
AcDbEntity
  8
None
370
               9
390
0
  6
Continuous
 62
               7
100
AcDbCircle
 10
3.7955899999999998
 20
23.362199999999998
 30
0.0
 40
0.1400000000000006
  0
HATCH
  5
218
100
AcDbEntity
  8
None
370
               0
390
0
  6
Continuous
 62
               7
100
AcDbHatch
 10
0.0
 20
0.0
 30
0.0
210
0.0
220
0.0
230
1.0
  2
SOLID
 70
               1
 71
               1
 91
        1
 92
        1
 93
        1
 72
               2
 10
3.7955899999999998
 20
23.362199999999998
 40
0.1400000000000006
 50
0.0
 51
360.0
 73
               0
 97
        1
330
217
 75
               0
 76
               1
 98
        1
 10
0.0
 20
0.0
  0
CIRCLE
  5
219
102
{ACAD_REACTORS
330
21A
102
}
100
AcDbEntity
  8
None
370
               9
390
0
  6
Continuous
 62
               7
100
AcDbCircle
 10
-3.2044099999999998
 20
23.862199999999998
 30
0.0
 40
0.1400000000000006
  0
HATCH
  5
21A
100
AcDbEntity
  8
None
370
               0
390
0
  6
Continuous
 62
               7
100
AcDbHatch
 10
0.0
 20
0.0
 30
0.0
210
0.0
220
0.0
230
1.0
  2
SOLID
 70
               1
 71
               1
 91
        1
 92
        1
 93
        1
 72
               2
 10
-3.2044099999999998
 20
23.862199999999998
 40
0.1400000000000006
 50
0.0
 51
360.0
 73
               0
 97
        1
330
219
 75
               0
 76
               1
 98
        1
 10
0.0
 20
0.0
  0
CIRCLE
  5
21B
102
{ACAD_REACTORS
330
21C
102
}
100
AcDbEntity
  8
None
370
               9
390
0
  6
Continuous
 62
               7
100
AcDbCircle
 10
-2.7044099999999998
 20
23.862199999999998
 30
0.0
 40
0.1400000000000006
  0
HATCH
  5
21C
100
AcDbEntity
  8
None
370
               0
390
0
  6
Continuous
 62
               7
100
AcDbHatch
 10
0.0
 20
0.0
 30
0.0
210
0.0
220
0.0
230
1.0
  2
SOLID
 70
               1
 71
               1
 91
        1
 92
        1
 93
        1
 72
               2
 10
-2.7044099999999998
 20
23.862199999999998
 40
0.1400000000000006
 50
0.0
 51
360.0
 73
               0
 97
        1
330
21B
 75
               0
 76
               1
 98
        1
 10
0.0
 20
0.0
  0
CIRCLE
  5
21D
102
{ACAD_REACTORS
330
21E
102
}
100
AcDbEntity
  8
None
370
               9
390
0
  6
Continuous
 62
               7
100
AcDbCircle
 10
-2.2044099999999998
 20
23.862199999999998
 30
0.0
 40
0.1400000000000006
  0
HATCH
  5
21E
100
AcDbEntity
  8
None
370
               0
390
0
  6
Continuous
 62
               7
100
AcDbHatch
 10
0.0
 20
0.0
 30
0.0
210
0.0
220
0.0
230
1.0
  2
SOLID
 70
               1
 71
               1
 91
        1
 92
        1
 93
        1
 72
               2
 10
-2.2044099999999998
 20
23.862199999999998
 40
0.1400000000000006
 50
0.0
 51
360.0
 73
               0
 97
        1
330
21D
 75
               0
 76
               1
 98
        1
 10
0.0
 20
0.0
  0
CIRCLE
  5
21F
102
{ACAD_REACTORS
330
220
102
}
100
AcDbEntity
  8
None
370
               9
390
0
  6
Continuous
 62
               7
100
AcDbCircle
 10
-1.7044099999999998
 20
23.862199999999998
 30
0.0
 40
0.1400000000000006
  0
HATCH
  5
220
100
AcDbEntity
  8
None
370
               0
390
0
  6
Continuous
 62
               7
100
AcDbHatch
 10
0.0
 20
0.0
 30
0.0
210
0.0
220
0.0
230
1.0
  2
SOLID
 70
               1
 71
               1
 91
        1
 92
        1
 93
        1
 72
               2
 10
-1.7044099999999998
 20
23.862199999999998
 40
0.1400000000000006
 50
0.0
 51
360.0
 73
               0
 97
        1
330
21F
 75
               0
 76
               1
 98
        1
 10
0.0
 20
0.0
  0
CIRCLE
  5
221
102
{ACAD_REACTORS
330
222
102
}
100
AcDbEntity
  8
None
370
               9
390
0
  6
Continuous
 62
               7
100
AcDbCircle
 10
-1.20441
 20
23.862199999999998
 30
0.0
 40
0.1400000000000006
  0
HATCH
  5
222
100
AcDbEntity
  8
None
370
               0
390
0
  6
Continuous
 62
               7
100
AcDbHatch
 10
0.0
 20
0.0
 30
0.0
210
0.0
220
0.0
230
1.0
  2
SOLID
 70
               1
 71
               1
 91
        1
 92
        1
 93
        1
 72
               2
 10
-1.20441
 20
23.862199999999998
 40
0.1400000000000006
 50
0.0
 51
360.0
 73
               0
 97
        1
330
221
 75
               0
 76
               1
 98
        1
 10
0.0
 20
0.0
  0
CIRCLE
  5
223
102
{ACAD_REACTORS
330
224
102
}
100
AcDbEntity
  8
None
370
               9
390
0
  6
Continuous
 62
               7
100
AcDbCircle
 10
-0.70441
 20
23.862199999999998
 30
0.0
 40
0.1400000000000006
  0
HATCH
  5
224
100
AcDbEntity
  8
None
370
               0
390
0
  6
Continuous
 62
               7
100
AcDbHatch
 10
0.0
 20
0.0
 30
0.0
210
0.0
220
0.0
230
1.0
  2
SOLID
 70
               1
 71
               1
 91
        1
 92
        1
 93
        1
 72
               2
 10
-0.70441
 20
23.862199999999998
 40
0.1400000000000006
 50
0.0
 51
360.0
 73
               0
 97
        1
330
223
 75
               0
 76
               1
 98
        1
 10
0.0
 20
0.0
  0
CIRCLE
  5
225
102
{ACAD_REACTORS
330
226
102
}
100
AcDbEntity
  8
None
370
               9
390
0
  6
Continuous
 62
               7
100
AcDbCircle
 10
-0.20441
 20
23.862199999999998
 30
0.0
 40
0.1400000000000006
  0
HATCH
  5
226
100
AcDbEntity
  8
None
370
               0
390
0
  6
Continuous
 62
               7
100
AcDbHatch
 10
0.0
 20
0.0
 30
0.0
210
0.0
220
0.0
230
1.0
  2
SOLID
 70
               1
 71
               1
 91
        1
 92
        1
 93
        1
 72
               2
 10
-0.20441
 20
23.862199999999998
 40
0.1400000000000006
 50
0.0
 51
360.0
 73
               0
 97
        1
330
225
 75
               0
 76
               1
 98
        1
 10
0.0
 20
0.0
  0
CIRCLE
  5
227
102
{ACAD_REACTORS
330
228
102
}
100
AcDbEntity
  8
None
370
               9
390
0
  6
Continuous
 62
               7
100
AcDbCircle
 10
0.29559
 20
23.862199999999998
 30
0.0
 40
0.1400000000000006
  0
HATCH
  5
228
100
AcDbEntity
  8
None
370
               0
390
0
  6
Continuous
 62
               7
100
AcDbHatch
 10
0.0
 20
0.0
 30
0.0
210
0.0
220
0.0
230
1.0
  2
SOLID
 70
               1
 71
               1
 91
        1
 92
        1
 93
        1
 72
               2
 10
0.29559
 20
23.862199999999998
 40
0.1400000000000006
 50
0.0
 51
360.0
 73
               0
 97
        1
330
227
 75
               0
 76
               1
 98
        1
 10
0.0
 20
0.0
  0
CIRCLE
  5
229
102
{ACAD_REACTORS
330
22A
102
}
100
AcDbEntity
  8
None
370
               9
390
0
  6
Continuous
 62
               7
100
AcDbCircle
 10
0.7955899999999999
 20
23.862199999999998
 30
0.0
 40
0.1400000000000006
  0
HATCH
  5
22A
100
AcDbEntity
  8
None
370
               0
390
0
  6
Continuous
 62
               7
100
AcDbHatch
 10
0.0
 20
0.0
 30
0.0
210
0.0
220
0.0
230
1.0
  2
SOLID
 70
               1
 71
               1
 91
        1
 92
        1
 93
        1
 72
               2
 10
0.7955899999999999
 20
23.862199999999998
 40
0.1400000000000006
 50
0.0
 51
360.0
 73
               0
 97
        1
330
229
 75
               0
 76
               1
 98
        1
 10
0.0
 20
0.0
  0
CIRCLE
  5
22B
102
{ACAD_REACTORS
330
22C
102
}
100
AcDbEntity
  8
None
370
               9
390
0
  6
Continuous
 62
               7
100
AcDbCircle
 10
1.2955899999999998
 20
23.862199999999998
 30
0.0
 40
0.1400000000000006
  0
HATCH
  5
22C
100
AcDbEntity
  8
None
370
               0
390
0
  6
Continuous
 62
               7
100
AcDbHatch
 10
0.0
 20
0.0
 30
0.0
210
0.0
220
0.0
230
1.0
  2
SOLID
 70
               1
 71
               1
 91
        1
 92
        1
 93
        1
 72
               2
 10
1.2955899999999998
 20
23.862199999999998
 40
0.1400000000000006
 50
0.0
 51
360.0
 73
               0
 97
        1
330
22B
 75
               0
 76
               1
 98
        1
 10
0.0
 20
0.0
  0
CIRCLE
  5
22D
102
{ACAD_REACTORS
330
22E
102
}
100
AcDbEntity
  8
None
370
               9
390
0
  6
Continuous
 62
               7
100
AcDbCircle
 10
1.7955899999999998
 20
23.862199999999998
 30
0.0
 40
0.1400000000000006
  0
HATCH
  5
22E
100
AcDbEntity
  8
None
370
               0
390
0
  6
Continuous
 62
               7
100
AcDbHatch
 10
0.0
 20
0.0
 30
0.0
210
0.0
220
0.0
230
1.0
  2
SOLID
 70
               1
 71
               1
 91
        1
 92
        1
 93
        1
 72
               2
 10
1.7955899999999998
 20
23.862199999999998
 40
0.1400000000000006
 50
0.0
 51
360.0
 73
               0
 97
        1
330
22D
 75
               0
 76
               1
 98
        1
 10
0.0
 20
0.0
  0
CIRCLE
  5
22F
102
{ACAD_REACTORS
330
230
102
}
100
AcDbEntity
  8
None
370
               9
390
0
  6
Continuous
 62
               7
100
AcDbCircle
 10
2.2955899999999998
 20
23.862199999999998
 30
0.0
 40
0.1400000000000006
  0
HATCH
  5
230
100
AcDbEntity
  8
None
370
               0
390
0
  6
Continuous
 62
               7
100
AcDbHatch
 10
0.0
 20
0.0
 30
0.0
210
0.0
220
0.0
230
1.0
  2
SOLID
 70
               1
 71
               1
 91
        1
 92
        1
 93
        1
 72
               2
 10
2.2955899999999998
 20
23.862199999999998
 40
0.1400000000000006
 50
0.0
 51
360.0
 73
               0
 97
        1
330
22F
 75
               0
 76
               1
 98
        1
 10
0.0
 20
0.0
  0
CIRCLE
  5
231
102
{ACAD_REACTORS
330
232
102
}
100
AcDbEntity
  8
None
370
               9
390
0
  6
Continuous
 62
               7
100
AcDbCircle
 10
2.7955899999999998
 20
23.862199999999998
 30
0.0
 40
0.1400000000000006
  0
HATCH
  5
232
100
AcDbEntity
  8
None
370
               0
390
0
  6
Continuous
 62
               7
100
AcDbHatch
 10
0.0
 20
0.0
 30
0.0
210
0.0
220
0.0
230
1.0
  2
SOLID
 70
               1
 71
               1
 91
        1
 92
        1
 93
        1
 72
               2
 10
2.7955899999999998
 20
23.862199999999998
 40
0.1400000000000006
 50
0.0
 51
360.0
 73
               0
 97
        1
330
231
 75
               0
 76
               1
 98
        1
 10
0.0
 20
0.0
  0
CIRCLE
  5
233
102
{ACAD_REACTORS
330
234
102
}
100
AcDbEntity
  8
None
370
               9
390
0
  6
Continuous
 62
               7
100
AcDbCircle
 10
3.2955899999999998
 20
23.862199999999998
 30
0.0
 40
0.1400000000000006
  0
HATCH
  5
234
100
AcDbEntity
  8
None
370
               0
390
0
  6
Continuous
 62
               7
100
AcDbHatch
 10
0.0
 20
0.0
 30
0.0
210
0.0
220
0.0
230
1.0
  2
SOLID
 70
               1
 71
               1
 91
        1
 92
        1
 93
        1
 72
               2
 10
3.2955899999999998
 20
23.862199999999998
 40
0.1400000000000006
 50
0.0
 51
360.0
 73
               0
 97
        1
330
233
 75
               0
 76
               1
 98
        1
 10
0.0
 20
0.0
  0
CIRCLE
  5
235
102
{ACAD_REACTORS
330
236
102
}
100
AcDbEntity
  8
None
370
               9
390
0
  6
Continuous
 62
               7
100
AcDbCircle
 10
3.7955899999999998
 20
23.862199999999998
 30
0.0
 40
0.1400000000000006
  0
HATCH
  5
236
100
AcDbEntity
  8
None
370
               0
390
0
  6
Continuous
 62
               7
100
AcDbHatch
 10
0.0
 20
0.0
 30
0.0
210
0.0
220
0.0
230
1.0
  2
SOLID
 70
               1
 71
               1
 91
        1
 92
        1
 93
        1
 72
               2
 10
3.7955899999999998
 20
23.862199999999998
 40
0.1400000000000006
 50
0.0
 51
360.0
 73
               0
 97
        1
330
235
 75
               0
 76
               1
 98
        1
 10
0.0
 20
0.0
  0
CIRCLE
  5
237
102
{ACAD_REACTORS
330
238
102
}
100
AcDbEntity
  8
None
370
               9
390
0
  6
Continuous
 62
               7
100
AcDbCircle
 10
-3.2044099999999998
 20
24.362199999999998
 30
0.0
 40
0.1400000000000006
  0
HATCH
  5
238
100
AcDbEntity
  8
None
370
               0
390
0
  6
Continuous
 62
               7
100
AcDbHatch
 10
0.0
 20
0.0
 30
0.0
210
0.0
220
0.0
230
1.0
  2
SOLID
 70
               1
 71
               1
 91
        1
 92
        1
 93
        1
 72
               2
 10
-3.2044099999999998
 20
24.362199999999998
 40
0.1400000000000006
 50
0.0
 51
360.0
 73
               0
 97
        1
330
237
 75
               0
 76
               1
 98
        1
 10
0.0
 20
0.0
  0
CIRCLE
  5
239
102
{ACAD_REACTORS
330
23A
102
}
100
AcDbEntity
  8
None
370
               9
390
0
  6
Continuous
 62
               7
100
AcDbCircle
 10
-2.7044099999999998
 20
24.362199999999998
 30
0.0
 40
0.1400000000000006
  0
HATCH
  5
23A
100
AcDbEntity
  8
None
370
               0
390
0
  6
Continuous
 62
               7
100
AcDbHatch
 10
0.0
 20
0.0
 30
0.0
210
0.0
220
0.0
230
1.0
  2
SOLID
 70
               1
 71
               1
 91
        1
 92
        1
 93
        1
 72
               2
 10
-2.7044099999999998
 20
24.362199999999998
 40
0.1400000000000006
 50
0.0
 51
360.0
 73
               0
 97
        1
330
239
 75
               0
 76
               1
 98
        1
 10
0.0
 20
0.0
  0
CIRCLE
  5
23B
102
{ACAD_REACTORS
330
23C
102
}
100
AcDbEntity
  8
None
370
               9
390
0
  6
Continuous
 62
               7
100
AcDbCircle
 10
-2.2044099999999998
 20
24.362199999999998
 30
0.0
 40
0.1400000000000006
  0
HATCH
  5
23C
100
AcDbEntity
  8
None
370
               0
390
0
  6
Continuous
 62
               7
100
AcDbHatch
 10
0.0
 20
0.0
 30
0.0
210
0.0
220
0.0
230
1.0
  2
SOLID
 70
               1
 71
               1
 91
        1
 92
        1
 93
        1
 72
               2
 10
-2.2044099999999998
 20
24.362199999999998
 40
0.1400000000000006
 50
0.0
 51
360.0
 73
               0
 97
        1
330
23B
 75
               0
 76
               1
 98
        1
 10
0.0
 20
0.0
  0
CIRCLE
  5
23D
102
{ACAD_REACTORS
330
23E
102
}
100
AcDbEntity
  8
None
370
               9
390
0
  6
Continuous
 62
               7
100
AcDbCircle
 10
-1.7044099999999998
 20
24.362199999999998
 30
0.0
 40
0.1400000000000006
  0
HATCH
  5
23E
100
AcDbEntity
  8
None
370
               0
390
0
  6
Continuous
 62
               7
100
AcDbHatch
 10
0.0
 20
0.0
 30
0.0
210
0.0
220
0.0
230
1.0
  2
SOLID
 70
               1
 71
               1
 91
        1
 92
        1
 93
        1
 72
               2
 10
-1.7044099999999998
 20
24.362199999999998
 40
0.1400000000000006
 50
0.0
 51
360.0
 73
               0
 97
        1
330
23D
 75
               0
 76
               1
 98
        1
 10
0.0
 20
0.0
  0
CIRCLE
  5
23F
102
{ACAD_REACTORS
330
240
102
}
100
AcDbEntity
  8
None
370
               9
390
0
  6
Continuous
 62
               7
100
AcDbCircle
 10
-1.20441
 20
24.362199999999998
 30
0.0
 40
0.1400000000000006
  0
HATCH
  5
240
100
AcDbEntity
  8
None
370
               0
390
0
  6
Continuous
 62
               7
100
AcDbHatch
 10
0.0
 20
0.0
 30
0.0
210
0.0
220
0.0
230
1.0
  2
SOLID
 70
               1
 71
               1
 91
        1
 92
        1
 93
        1
 72
               2
 10
-1.20441
 20
24.362199999999998
 40
0.1400000000000006
 50
0.0
 51
360.0
 73
               0
 97
        1
330
23F
 75
               0
 76
               1
 98
        1
 10
0.0
 20
0.0
  0
CIRCLE
  5
241
102
{ACAD_REACTORS
330
242
102
}
100
AcDbEntity
  8
None
370
               9
390
0
  6
Continuous
 62
               7
100
AcDbCircle
 10
-0.70441
 20
24.362199999999998
 30
0.0
 40
0.1400000000000006
  0
HATCH
  5
242
100
AcDbEntity
  8
None
370
               0
390
0
  6
Continuous
 62
               7
100
AcDbHatch
 10
0.0
 20
0.0
 30
0.0
210
0.0
220
0.0
230
1.0
  2
SOLID
 70
               1
 71
               1
 91
        1
 92
        1
 93
        1
 72
               2
 10
-0.70441
 20
24.362199999999998
 40
0.1400000000000006
 50
0.0
 51
360.0
 73
               0
 97
        1
330
241
 75
               0
 76
               1
 98
        1
 10
0.0
 20
0.0
  0
CIRCLE
  5
243
102
{ACAD_REACTORS
330
244
102
}
100
AcDbEntity
  8
None
370
               9
390
0
  6
Continuous
 62
               7
100
AcDbCircle
 10
-0.20441
 20
24.362199999999998
 30
0.0
 40
0.1400000000000006
  0
HATCH
  5
244
100
AcDbEntity
  8
None
370
               0
390
0
  6
Continuous
 62
               7
100
AcDbHatch
 10
0.0
 20
0.0
 30
0.0
210
0.0
220
0.0
230
1.0
  2
SOLID
 70
               1
 71
               1
 91
        1
 92
        1
 93
        1
 72
               2
 10
-0.20441
 20
24.362199999999998
 40
0.1400000000000006
 50
0.0
 51
360.0
 73
               0
 97
        1
330
243
 75
               0
 76
               1
 98
        1
 10
0.0
 20
0.0
  0
CIRCLE
  5
245
102
{ACAD_REACTORS
330
246
102
}
100
AcDbEntity
  8
None
370
               9
390
0
  6
Continuous
 62
               7
100
AcDbCircle
 10
0.29559
 20
24.362199999999998
 30
0.0
 40
0.1400000000000006
  0
HATCH
  5
246
100
AcDbEntity
  8
None
370
               0
390
0
  6
Continuous
 62
               7
100
AcDbHatch
 10
0.0
 20
0.0
 30
0.0
210
0.0
220
0.0
230
1.0
  2
SOLID
 70
               1
 71
               1
 91
        1
 92
        1
 93
        1
 72
               2
 10
0.29559
 20
24.362199999999998
 40
0.1400000000000006
 50
0.0
 51
360.0
 73
               0
 97
        1
330
245
 75
               0
 76
               1
 98
        1
 10
0.0
 20
0.0
  0
CIRCLE
  5
247
102
{ACAD_REACTORS
330
248
102
}
100
AcDbEntity
  8
None
370
               9
390
0
  6
Continuous
 62
               7
100
AcDbCircle
 10
0.7955899999999999
 20
24.362199999999998
 30
0.0
 40
0.1400000000000006
  0
HATCH
  5
248
100
AcDbEntity
  8
None
370
               0
390
0
  6
Continuous
 62
               7
100
AcDbHatch
 10
0.0
 20
0.0
 30
0.0
210
0.0
220
0.0
230
1.0
  2
SOLID
 70
               1
 71
               1
 91
        1
 92
        1
 93
        1
 72
               2
 10
0.7955899999999999
 20
24.362199999999998
 40
0.1400000000000006
 50
0.0
 51
360.0
 73
               0
 97
        1
330
247
 75
               0
 76
               1
 98
        1
 10
0.0
 20
0.0
  0
CIRCLE
  5
249
102
{ACAD_REACTORS
330
24A
102
}
100
AcDbEntity
  8
None
370
               9
390
0
  6
Continuous
 62
               7
100
AcDbCircle
 10
1.2955899999999998
 20
24.362199999999998
 30
0.0
 40
0.1400000000000006
  0
HATCH
  5
24A
100
AcDbEntity
  8
None
370
               0
390
0
  6
Continuous
 62
               7
100
AcDbHatch
 10
0.0
 20
0.0
 30
0.0
210
0.0
220
0.0
230
1.0
  2
SOLID
 70
               1
 71
               1
 91
        1
 92
        1
 93
        1
 72
               2
 10
1.2955899999999998
 20
24.362199999999998
 40
0.1400000000000006
 50
0.0
 51
360.0
 73
               0
 97
        1
330
249
 75
               0
 76
               1
 98
        1
 10
0.0
 20
0.0
  0
CIRCLE
  5
24B
102
{ACAD_REACTORS
330
24C
102
}
100
AcDbEntity
  8
None
370
               9
390
0
  6
Continuous
 62
               7
100
AcDbCircle
 10
1.7955899999999998
 20
24.362199999999998
 30
0.0
 40
0.1400000000000006
  0
HATCH
  5
24C
100
AcDbEntity
  8
None
370
               0
390
0
  6
Continuous
 62
               7
100
AcDbHatch
 10
0.0
 20
0.0
 30
0.0
210
0.0
220
0.0
230
1.0
  2
SOLID
 70
               1
 71
               1
 91
        1
 92
        1
 93
        1
 72
               2
 10
1.7955899999999998
 20
24.362199999999998
 40
0.1400000000000006
 50
0.0
 51
360.0
 73
               0
 97
        1
330
24B
 75
               0
 76
               1
 98
        1
 10
0.0
 20
0.0
  0
CIRCLE
  5
24D
102
{ACAD_REACTORS
330
24E
102
}
100
AcDbEntity
  8
None
370
               9
390
0
  6
Continuous
 62
               7
100
AcDbCircle
 10
2.2955899999999998
 20
24.362199999999998
 30
0.0
 40
0.1400000000000006
  0
HATCH
  5
24E
100
AcDbEntity
  8
None
370
               0
390
0
  6
Continuous
 62
               7
100
AcDbHatch
 10
0.0
 20
0.0
 30
0.0
210
0.0
220
0.0
230
1.0
  2
SOLID
 70
               1
 71
               1
 91
        1
 92
        1
 93
        1
 72
               2
 10
2.2955899999999998
 20
24.362199999999998
 40
0.1400000000000006
 50
0.0
 51
360.0
 73
               0
 97
        1
330
24D
 75
               0
 76
               1
 98
        1
 10
0.0
 20
0.0
  0
CIRCLE
  5
24F
102
{ACAD_REACTORS
330
250
102
}
100
AcDbEntity
  8
None
370
               9
390
0
  6
Continuous
 62
               7
100
AcDbCircle
 10
2.7955899999999998
 20
24.362199999999998
 30
0.0
 40
0.1400000000000006
  0
HATCH
  5
250
100
AcDbEntity
  8
None
370
               0
390
0
  6
Continuous
 62
               7
100
AcDbHatch
 10
0.0
 20
0.0
 30
0.0
210
0.0
220
0.0
230
1.0
  2
SOLID
 70
               1
 71
               1
 91
        1
 92
        1
 93
        1
 72
               2
 10
2.7955899999999998
 20
24.362199999999998
 40
0.1400000000000006
 50
0.0
 51
360.0
 73
               0
 97
        1
330
24F
 75
               0
 76
               1
 98
        1
 10
0.0
 20
0.0
  0
CIRCLE
  5
251
102
{ACAD_REACTORS
330
252
102
}
100
AcDbEntity
  8
None
370
               9
390
0
  6
Continuous
 62
               7
100
AcDbCircle
 10
3.2955899999999998
 20
24.362199999999998
 30
0.0
 40
0.1400000000000006
  0
HATCH
  5
252
100
AcDbEntity
  8
None
370
               0
390
0
  6
Continuous
 62
               7
100
AcDbHatch
 10
0.0
 20
0.0
 30
0.0
210
0.0
220
0.0
230
1.0
  2
SOLID
 70
               1
 71
               1
 91
        1
 92
        1
 93
        1
 72
               2
 10
3.2955899999999998
 20
24.362199999999998
 40
0.1400000000000006
 50
0.0
 51
360.0
 73
               0
 97
        1
330
251
 75
               0
 76
               1
 98
        1
 10
0.0
 20
0.0
  0
CIRCLE
  5
253
102
{ACAD_REACTORS
330
254
102
}
100
AcDbEntity
  8
None
370
               9
390
0
  6
Continuous
 62
               7
100
AcDbCircle
 10
3.7955899999999998
 20
24.362199999999998
 30
0.0
 40
0.1400000000000006
  0
HATCH
  5
254
100
AcDbEntity
  8
None
370
               0
390
0
  6
Continuous
 62
               7
100
AcDbHatch
 10
0.0
 20
0.0
 30
0.0
210
0.0
220
0.0
230
1.0
  2
SOLID
 70
               1
 71
               1
 91
        1
 92
        1
 93
        1
 72
               2
 10
3.7955899999999998
 20
24.362199999999998
 40
0.1400000000000006
 50
0.0
 51
360.0
 73
               0
 97
        1
330
253
 75
               0
 76
               1
 98
        1
 10
0.0
 20
0.0
  0
CIRCLE
  5
255
102
{ACAD_REACTORS
330
256
102
}
100
AcDbEntity
  8
None
370
               9
390
0
  6
Continuous
 62
               7
100
AcDbCircle
 10
-3.2044099999999998
 20
24.862199999999998
 30
0.0
 40
0.1400000000000006
  0
HATCH
  5
256
100
AcDbEntity
  8
None
370
               0
390
0
  6
Continuous
 62
               7
100
AcDbHatch
 10
0.0
 20
0.0
 30
0.0
210
0.0
220
0.0
230
1.0
  2
SOLID
 70
               1
 71
               1
 91
        1
 92
        1
 93
        1
 72
               2
 10
-3.2044099999999998
 20
24.862199999999998
 40
0.1400000000000006
 50
0.0
 51
360.0
 73
               0
 97
        1
330
255
 75
               0
 76
               1
 98
        1
 10
0.0
 20
0.0
  0
CIRCLE
  5
257
102
{ACAD_REACTORS
330
258
102
}
100
AcDbEntity
  8
None
370
               9
390
0
  6
Continuous
 62
               7
100
AcDbCircle
 10
-2.7044099999999998
 20
24.862199999999998
 30
0.0
 40
0.1400000000000006
  0
HATCH
  5
258
100
AcDbEntity
  8
None
370
               0
390
0
  6
Continuous
 62
               7
100
AcDbHatch
 10
0.0
 20
0.0
 30
0.0
210
0.0
220
0.0
230
1.0
  2
SOLID
 70
               1
 71
               1
 91
        1
 92
        1
 93
        1
 72
               2
 10
-2.7044099999999998
 20
24.862199999999998
 40
0.1400000000000006
 50
0.0
 51
360.0
 73
               0
 97
        1
330
257
 75
               0
 76
               1
 98
        1
 10
0.0
 20
0.0
  0
CIRCLE
  5
259
102
{ACAD_REACTORS
330
25A
102
}
100
AcDbEntity
  8
None
370
               9
390
0
  6
Continuous
 62
               7
100
AcDbCircle
 10
-2.2044099999999998
 20
24.862199999999998
 30
0.0
 40
0.1400000000000006
  0
HATCH
  5
25A
100
AcDbEntity
  8
None
370
               0
390
0
  6
Continuous
 62
               7
100
AcDbHatch
 10
0.0
 20
0.0
 30
0.0
210
0.0
220
0.0
230
1.0
  2
SOLID
 70
               1
 71
               1
 91
        1
 92
        1
 93
        1
 72
               2
 10
-2.2044099999999998
 20
24.862199999999998
 40
0.1400000000000006
 50
0.0
 51
360.0
 73
               0
 97
        1
330
259
 75
               0
 76
               1
 98
        1
 10
0.0
 20
0.0
  0
CIRCLE
  5
25B
102
{ACAD_REACTORS
330
25C
102
}
100
AcDbEntity
  8
None
370
               9
390
0
  6
Continuous
 62
               7
100
AcDbCircle
 10
-1.7044099999999998
 20
24.862199999999998
 30
0.0
 40
0.1400000000000006
  0
HATCH
  5
25C
100
AcDbEntity
  8
None
370
               0
390
0
  6
Continuous
 62
               7
100
AcDbHatch
 10
0.0
 20
0.0
 30
0.0
210
0.0
220
0.0
230
1.0
  2
SOLID
 70
               1
 71
               1
 91
        1
 92
        1
 93
        1
 72
               2
 10
-1.7044099999999998
 20
24.862199999999998
 40
0.1400000000000006
 50
0.0
 51
360.0
 73
               0
 97
        1
330
25B
 75
               0
 76
               1
 98
        1
 10
0.0
 20
0.0
  0
CIRCLE
  5
25D
102
{ACAD_REACTORS
330
25E
102
}
100
AcDbEntity
  8
None
370
               9
390
0
  6
Continuous
 62
               7
100
AcDbCircle
 10
-1.20441
 20
24.862199999999998
 30
0.0
 40
0.1400000000000006
  0
HATCH
  5
25E
100
AcDbEntity
  8
None
370
               0
390
0
  6
Continuous
 62
               7
100
AcDbHatch
 10
0.0
 20
0.0
 30
0.0
210
0.0
220
0.0
230
1.0
  2
SOLID
 70
               1
 71
               1
 91
        1
 92
        1
 93
        1
 72
               2
 10
-1.20441
 20
24.862199999999998
 40
0.1400000000000006
 50
0.0
 51
360.0
 73
               0
 97
        1
330
25D
 75
               0
 76
               1
 98
        1
 10
0.0
 20
0.0
  0
CIRCLE
  5
25F
102
{ACAD_REACTORS
330
260
102
}
100
AcDbEntity
  8
None
370
               9
390
0
  6
Continuous
 62
               7
100
AcDbCircle
 10
-0.70441
 20
24.862199999999998
 30
0.0
 40
0.1400000000000006
  0
HATCH
  5
260
100
AcDbEntity
  8
None
370
               0
390
0
  6
Continuous
 62
               7
100
AcDbHatch
 10
0.0
 20
0.0
 30
0.0
210
0.0
220
0.0
230
1.0
  2
SOLID
 70
               1
 71
               1
 91
        1
 92
        1
 93
        1
 72
               2
 10
-0.70441
 20
24.862199999999998
 40
0.1400000000000006
 50
0.0
 51
360.0
 73
               0
 97
        1
330
25F
 75
               0
 76
               1
 98
        1
 10
0.0
 20
0.0
  0
CIRCLE
  5
261
102
{ACAD_REACTORS
330
262
102
}
100
AcDbEntity
  8
None
370
               9
390
0
  6
Continuous
 62
               7
100
AcDbCircle
 10
-0.20441
 20
24.862199999999998
 30
0.0
 40
0.1400000000000006
  0
HATCH
  5
262
100
AcDbEntity
  8
None
370
               0
390
0
  6
Continuous
 62
               7
100
AcDbHatch
 10
0.0
 20
0.0
 30
0.0
210
0.0
220
0.0
230
1.0
  2
SOLID
 70
               1
 71
               1
 91
        1
 92
        1
 93
        1
 72
               2
 10
-0.20441
 20
24.862199999999998
 40
0.1400000000000006
 50
0.0
 51
360.0
 73
               0
 97
        1
330
261
 75
               0
 76
               1
 98
        1
 10
0.0
 20
0.0
  0
CIRCLE
  5
263
102
{ACAD_REACTORS
330
264
102
}
100
AcDbEntity
  8
None
370
               9
390
0
  6
Continuous
 62
               7
100
AcDbCircle
 10
0.29559
 20
24.862199999999998
 30
0.0
 40
0.1400000000000006
  0
HATCH
  5
264
100
AcDbEntity
  8
None
370
               0
390
0
  6
Continuous
 62
               7
100
AcDbHatch
 10
0.0
 20
0.0
 30
0.0
210
0.0
220
0.0
230
1.0
  2
SOLID
 70
               1
 71
               1
 91
        1
 92
        1
 93
        1
 72
               2
 10
0.29559
 20
24.862199999999998
 40
0.1400000000000006
 50
0.0
 51
360.0
 73
               0
 97
        1
330
263
 75
               0
 76
               1
 98
        1
 10
0.0
 20
0.0
  0
CIRCLE
  5
265
102
{ACAD_REACTORS
330
266
102
}
100
AcDbEntity
  8
None
370
               9
390
0
  6
Continuous
 62
               7
100
AcDbCircle
 10
0.7955899999999999
 20
24.862199999999998
 30
0.0
 40
0.1400000000000006
  0
HATCH
  5
266
100
AcDbEntity
  8
None
370
               0
390
0
  6
Continuous
 62
               7
100
AcDbHatch
 10
0.0
 20
0.0
 30
0.0
210
0.0
220
0.0
230
1.0
  2
SOLID
 70
               1
 71
               1
 91
        1
 92
        1
 93
        1
 72
               2
 10
0.7955899999999999
 20
24.862199999999998
 40
0.1400000000000006
 50
0.0
 51
360.0
 73
               0
 97
        1
330
265
 75
               0
 76
               1
 98
        1
 10
0.0
 20
0.0
  0
CIRCLE
  5
267
102
{ACAD_REACTORS
330
268
102
}
100
AcDbEntity
  8
None
370
               9
390
0
  6
Continuous
 62
               7
100
AcDbCircle
 10
1.2955899999999998
 20
24.862199999999998
 30
0.0
 40
0.1400000000000006
  0
HATCH
  5
268
100
AcDbEntity
  8
None
370
               0
390
0
  6
Continuous
 62
               7
100
AcDbHatch
 10
0.0
 20
0.0
 30
0.0
210
0.0
220
0.0
230
1.0
  2
SOLID
 70
               1
 71
               1
 91
        1
 92
        1
 93
        1
 72
               2
 10
1.2955899999999998
 20
24.862199999999998
 40
0.1400000000000006
 50
0.0
 51
360.0
 73
               0
 97
        1
330
267
 75
               0
 76
               1
 98
        1
 10
0.0
 20
0.0
  0
CIRCLE
  5
269
102
{ACAD_REACTORS
330
26A
102
}
100
AcDbEntity
  8
None
370
               9
390
0
  6
Continuous
 62
               7
100
AcDbCircle
 10
1.7955899999999998
 20
24.862199999999998
 30
0.0
 40
0.1400000000000006
  0
HATCH
  5
26A
100
AcDbEntity
  8
None
370
               0
390
0
  6
Continuous
 62
               7
100
AcDbHatch
 10
0.0
 20
0.0
 30
0.0
210
0.0
220
0.0
230
1.0
  2
SOLID
 70
               1
 71
               1
 91
        1
 92
        1
 93
        1
 72
               2
 10
1.7955899999999998
 20
24.862199999999998
 40
0.1400000000000006
 50
0.0
 51
360.0
 73
               0
 97
        1
330
269
 75
               0
 76
               1
 98
        1
 10
0.0
 20
0.0
  0
CIRCLE
  5
26B
102
{ACAD_REACTORS
330
26C
102
}
100
AcDbEntity
  8
None
370
               9
390
0
  6
Continuous
 62
               7
100
AcDbCircle
 10
2.2955899999999998
 20
24.862199999999998
 30
0.0
 40
0.1400000000000006
  0
HATCH
  5
26C
100
AcDbEntity
  8
None
370
               0
390
0
  6
Continuous
 62
               7
100
AcDbHatch
 10
0.0
 20
0.0
 30
0.0
210
0.0
220
0.0
230
1.0
  2
SOLID
 70
               1
 71
               1
 91
        1
 92
        1
 93
        1
 72
               2
 10
2.2955899999999998
 20
24.862199999999998
 40
0.1400000000000006
 50
0.0
 51
360.0
 73
               0
 97
        1
330
26B
 75
               0
 76
               1
 98
        1
 10
0.0
 20
0.0
  0
CIRCLE
  5
26D
102
{ACAD_REACTORS
330
26E
102
}
100
AcDbEntity
  8
None
370
               9
390
0
  6
Continuous
 62
               7
100
AcDbCircle
 10
2.7955899999999998
 20
24.862199999999998
 30
0.0
 40
0.1400000000000006
  0
HATCH
  5
26E
100
AcDbEntity
  8
None
370
               0
390
0
  6
Continuous
 62
               7
100
AcDbHatch
 10
0.0
 20
0.0
 30
0.0
210
0.0
220
0.0
230
1.0
  2
SOLID
 70
               1
 71
               1
 91
        1
 92
        1
 93
        1
 72
               2
 10
2.7955899999999998
 20
24.862199999999998
 40
0.1400000000000006
 50
0.0
 51
360.0
 73
               0
 97
        1
330
26D
 75
               0
 76
               1
 98
        1
 10
0.0
 20
0.0
  0
CIRCLE
  5
26F
102
{ACAD_REACTORS
330
270
102
}
100
AcDbEntity
  8
None
370
               9
390
0
  6
Continuous
 62
               7
100
AcDbCircle
 10
3.2955899999999998
 20
24.862199999999998
 30
0.0
 40
0.1400000000000006
  0
HATCH
  5
270
100
AcDbEntity
  8
None
370
               0
390
0
  6
Continuous
 62
               7
100
AcDbHatch
 10
0.0
 20
0.0
 30
0.0
210
0.0
220
0.0
230
1.0
  2
SOLID
 70
               1
 71
               1
 91
        1
 92
        1
 93
        1
 72
               2
 10
3.2955899999999998
 20
24.862199999999998
 40
0.1400000000000006
 50
0.0
 51
360.0
 73
               0
 97
        1
330
26F
 75
               0
 76
               1
 98
        1
 10
0.0
 20
0.0
  0
CIRCLE
  5
271
102
{ACAD_REACTORS
330
272
102
}
100
AcDbEntity
  8
None
370
               9
390
0
  6
Continuous
 62
               7
100
AcDbCircle
 10
3.7955899999999998
 20
24.862199999999998
 30
0.0
 40
0.1400000000000006
  0
HATCH
  5
272
100
AcDbEntity
  8
None
370
               0
390
0
  6
Continuous
 62
               7
100
AcDbHatch
 10
0.0
 20
0.0
 30
0.0
210
0.0
220
0.0
230
1.0
  2
SOLID
 70
               1
 71
               1
 91
        1
 92
        1
 93
        1
 72
               2
 10
3.7955899999999998
 20
24.862199999999998
 40
0.1400000000000006
 50
0.0
 51
360.0
 73
               0
 97
        1
330
271
 75
               0
 76
               1
 98
        1
 10
0.0
 20
0.0
  0
CIRCLE
  5
273
102
{ACAD_REACTORS
330
274
102
}
100
AcDbEntity
  8
None
370
               9
390
0
  6
Continuous
 62
               7
100
AcDbCircle
 10
4.2955899999999998
 20
17.862199999999998
 30
0.0
 40
0.1400000000000006
  0
HATCH
  5
274
100
AcDbEntity
  8
None
370
               0
390
0
  6
Continuous
 62
               7
100
AcDbHatch
 10
0.0
 20
0.0
 30
0.0
210
0.0
220
0.0
230
1.0
  2
SOLID
 70
               1
 71
               1
 91
        1
 92
        1
 93
        1
 72
               2
 10
4.2955899999999998
 20
17.862199999999998
 40
0.1400000000000006
 50
0.0
 51
360.0
 73
               0
 97
        1
330
273
 75
               0
 76
               1
 98
        1
 10
0.0
 20
0.0
  0
CIRCLE
  5
275
102
{ACAD_REACTORS
330
276
102
}
100
AcDbEntity
  8
None
370
               9
390
0
  6
Continuous
 62
               7
100
AcDbCircle
 10
4.2955899999999998
 20
18.362199999999998
 30
0.0
 40
0.1400000000000006
  0
HATCH
  5
276
100
AcDbEntity
  8
None
370
               0
390
0
  6
Continuous
 62
               7
100
AcDbHatch
 10
0.0
 20
0.0
 30
0.0
210
0.0
220
0.0
230
1.0
  2
SOLID
 70
               1
 71
               1
 91
        1
 92
        1
 93
        1
 72
               2
 10
4.2955899999999998
 20
18.362199999999998
 40
0.1400000000000006
 50
0.0
 51
360.0
 73
               0
 97
        1
330
275
 75
               0
 76
               1
 98
        1
 10
0.0
 20
0.0
  0
CIRCLE
  5
277
102
{ACAD_REACTORS
330
278
102
}
100
AcDbEntity
  8
None
370
               9
390
0
  6
Continuous
 62
               7
100
AcDbCircle
 10
4.2955899999999998
 20
18.862199999999998
 30
0.0
 40
0.1400000000000006
  0
HATCH
  5
278
100
AcDbEntity
  8
None
370
               0
390
0
  6
Continuous
 62
               7
100
AcDbHatch
 10
0.0
 20
0.0
 30
0.0
210
0.0
220
0.0
230
1.0
  2
SOLID
 70
               1
 71
               1
 91
        1
 92
        1
 93
        1
 72
               2
 10
4.2955899999999998
 20
18.862199999999998
 40
0.1400000000000006
 50
0.0
 51
360.0
 73
               0
 97
        1
330
277
 75
               0
 76
               1
 98
        1
 10
0.0
 20
0.0
  0
CIRCLE
  5
279
102
{ACAD_REACTORS
330
27A
102
}
100
AcDbEntity
  8
None
370
               9
390
0
  6
Continuous
 62
               7
100
AcDbCircle
 10
4.2955899999999998
 20
19.362199999999998
 30
0.0
 40
0.1400000000000006
  0
HATCH
  5
27A
100
AcDbEntity
  8
None
370
               0
390
0
  6
Continuous
 62
               7
100
AcDbHatch
 10
0.0
 20
0.0
 30
0.0
210
0.0
220
0.0
230
1.0
  2
SOLID
 70
               1
 71
               1
 91
        1
 92
        1
 93
        1
 72
               2
 10
4.2955899999999998
 20
19.362199999999998
 40
0.1400000000000006
 50
0.0
 51
360.0
 73
               0
 97
        1
330
279
 75
               0
 76
               1
 98
        1
 10
0.0
 20
0.0
  0
CIRCLE
  5
27B
102
{ACAD_REACTORS
330
27C
102
}
100
AcDbEntity
  8
None
370
               9
390
0
  6
Continuous
 62
               7
100
AcDbCircle
 10
4.2955899999999998
 20
19.862199999999998
 30
0.0
 40
0.1400000000000006
  0
HATCH
  5
27C
100
AcDbEntity
  8
None
370
               0
390
0
  6
Continuous
 62
               7
100
AcDbHatch
 10
0.0
 20
0.0
 30
0.0
210
0.0
220
0.0
230
1.0
  2
SOLID
 70
               1
 71
               1
 91
        1
 92
        1
 93
        1
 72
               2
 10
4.2955899999999998
 20
19.862199999999998
 40
0.1400000000000006
 50
0.0
 51
360.0
 73
               0
 97
        1
330
27B
 75
               0
 76
               1
 98
        1
 10
0.0
 20
0.0
  0
CIRCLE
  5
27D
102
{ACAD_REACTORS
330
27E
102
}
100
AcDbEntity
  8
None
370
               9
390
0
  6
Continuous
 62
               7
100
AcDbCircle
 10
4.2955899999999998
 20
20.362199999999998
 30
0.0
 40
0.1400000000000006
  0
HATCH
  5
27E
100
AcDbEntity
  8
None
370
               0
390
0
  6
Continuous
 62
               7
100
AcDbHatch
 10
0.0
 20
0.0
 30
0.0
210
0.0
220
0.0
230
1.0
  2
SOLID
 70
               1
 71
               1
 91
        1
 92
        1
 93
        1
 72
               2
 10
4.2955899999999998
 20
20.362199999999998
 40
0.1400000000000006
 50
0.0
 51
360.0
 73
               0
 97
        1
330
27D
 75
               0
 76
               1
 98
        1
 10
0.0
 20
0.0
  0
CIRCLE
  5
27F
102
{ACAD_REACTORS
330
280
102
}
100
AcDbEntity
  8
None
370
               9
390
0
  6
Continuous
 62
               7
100
AcDbCircle
 10
4.2955899999999998
 20
20.862199999999998
 30
0.0
 40
0.1400000000000006
  0
HATCH
  5
280
100
AcDbEntity
  8
None
370
               0
390
0
  6
Continuous
 62
               7
100
AcDbHatch
 10
0.0
 20
0.0
 30
0.0
210
0.0
220
0.0
230
1.0
  2
SOLID
 70
               1
 71
               1
 91
        1
 92
        1
 93
        1
 72
               2
 10
4.2955899999999998
 20
20.862199999999998
 40
0.1400000000000006
 50
0.0
 51
360.0
 73
               0
 97
        1
330
27F
 75
               0
 76
               1
 98
        1
 10
0.0
 20
0.0
  0
CIRCLE
  5
281
102
{ACAD_REACTORS
330
282
102
}
100
AcDbEntity
  8
None
370
               9
390
0
  6
Continuous
 62
               7
100
AcDbCircle
 10
4.2955899999999998
 20
21.362199999999998
 30
0.0
 40
0.1400000000000006
  0
HATCH
  5
282
100
AcDbEntity
  8
None
370
               0
390
0
  6
Continuous
 62
               7
100
AcDbHatch
 10
0.0
 20
0.0
 30
0.0
210
0.0
220
0.0
230
1.0
  2
SOLID
 70
               1
 71
               1
 91
        1
 92
        1
 93
        1
 72
               2
 10
4.2955899999999998
 20
21.362199999999998
 40
0.1400000000000006
 50
0.0
 51
360.0
 73
               0
 97
        1
330
281
 75
               0
 76
               1
 98
        1
 10
0.0
 20
0.0
  0
CIRCLE
  5
283
102
{ACAD_REACTORS
330
284
102
}
100
AcDbEntity
  8
None
370
               9
390
0
  6
Continuous
 62
               7
100
AcDbCircle
 10
4.2955899999999998
 20
21.862199999999998
 30
0.0
 40
0.1400000000000006
  0
HATCH
  5
284
100
AcDbEntity
  8
None
370
               0
390
0
  6
Continuous
 62
               7
100
AcDbHatch
 10
0.0
 20
0.0
 30
0.0
210
0.0
220
0.0
230
1.0
  2
SOLID
 70
               1
 71
               1
 91
        1
 92
        1
 93
        1
 72
               2
 10
4.2955899999999998
 20
21.862199999999998
 40
0.1400000000000006
 50
0.0
 51
360.0
 73
               0
 97
        1
330
283
 75
               0
 76
               1
 98
        1
 10
0.0
 20
0.0
  0
CIRCLE
  5
285
102
{ACAD_REACTORS
330
286
102
}
100
AcDbEntity
  8
None
370
               9
390
0
  6
Continuous
 62
               7
100
AcDbCircle
 10
4.2955899999999998
 20
22.362199999999998
 30
0.0
 40
0.1400000000000006
  0
HATCH
  5
286
100
AcDbEntity
  8
None
370
               0
390
0
  6
Continuous
 62
               7
100
AcDbHatch
 10
0.0
 20
0.0
 30
0.0
210
0.0
220
0.0
230
1.0
  2
SOLID
 70
               1
 71
               1
 91
        1
 92
        1
 93
        1
 72
               2
 10
4.2955899999999998
 20
22.362199999999998
 40
0.1400000000000006
 50
0.0
 51
360.0
 73
               0
 97
        1
330
285
 75
               0
 76
               1
 98
        1
 10
0.0
 20
0.0
  0
CIRCLE
  5
287
102
{ACAD_REACTORS
330
288
102
}
100
AcDbEntity
  8
None
370
               9
390
0
  6
Continuous
 62
               7
100
AcDbCircle
 10
4.2955899999999998
 20
22.862199999999998
 30
0.0
 40
0.1400000000000006
  0
HATCH
  5
288
100
AcDbEntity
  8
None
370
               0
390
0
  6
Continuous
 62
               7
100
AcDbHatch
 10
0.0
 20
0.0
 30
0.0
210
0.0
220
0.0
230
1.0
  2
SOLID
 70
               1
 71
               1
 91
        1
 92
        1
 93
        1
 72
               2
 10
4.2955899999999998
 20
22.862199999999998
 40
0.1400000000000006
 50
0.0
 51
360.0
 73
               0
 97
        1
330
287
 75
               0
 76
               1
 98
        1
 10
0.0
 20
0.0
  0
CIRCLE
  5
289
102
{ACAD_REACTORS
330
28A
102
}
100
AcDbEntity
  8
None
370
               9
390
0
  6
Continuous
 62
               7
100
AcDbCircle
 10
4.2955899999999998
 20
23.362199999999998
 30
0.0
 40
0.1400000000000006
  0
HATCH
  5
28A
100
AcDbEntity
  8
None
370
               0
390
0
  6
Continuous
 62
               7
100
AcDbHatch
 10
0.0
 20
0.0
 30
0.0
210
0.0
220
0.0
230
1.0
  2
SOLID
 70
               1
 71
               1
 91
        1
 92
        1
 93
        1
 72
               2
 10
4.2955899999999998
 20
23.362199999999998
 40
0.1400000000000006
 50
0.0
 51
360.0
 73
               0
 97
        1
330
289
 75
               0
 76
               1
 98
        1
 10
0.0
 20
0.0
  0
CIRCLE
  5
28B
102
{ACAD_REACTORS
330
28C
102
}
100
AcDbEntity
  8
None
370
               9
390
0
  6
Continuous
 62
               7
100
AcDbCircle
 10
4.2955899999999998
 20
23.862199999999998
 30
0.0
 40
0.1400000000000006
  0
HATCH
  5
28C
100
AcDbEntity
  8
None
370
               0
390
0
  6
Continuous
 62
               7
100
AcDbHatch
 10
0.0
 20
0.0
 30
0.0
210
0.0
220
0.0
230
1.0
  2
SOLID
 70
               1
 71
               1
 91
        1
 92
        1
 93
        1
 72
               2
 10
4.2955899999999998
 20
23.862199999999998
 40
0.1400000000000006
 50
0.0
 51
360.0
 73
               0
 97
        1
330
28B
 75
               0
 76
               1
 98
        1
 10
0.0
 20
0.0
  0
CIRCLE
  5
28D
102
{ACAD_REACTORS
330
28E
102
}
100
AcDbEntity
  8
None
370
               9
390
0
  6
Continuous
 62
               7
100
AcDbCircle
 10
4.2955899999999998
 20
24.362199999999998
 30
0.0
 40
0.1400000000000006
  0
HATCH
  5
28E
100
AcDbEntity
  8
None
370
               0
390
0
  6
Continuous
 62
               7
100
AcDbHatch
 10
0.0
 20
0.0
 30
0.0
210
0.0
220
0.0
230
1.0
  2
SOLID
 70
               1
 71
               1
 91
        1
 92
        1
 93
        1
 72
               2
 10
4.2955899999999998
 20
24.362199999999998
 40
0.1400000000000006
 50
0.0
 51
360.0
 73
               0
 97
        1
330
28D
 75
               0
 76
               1
 98
        1
 10
0.0
 20
0.0
  0
CIRCLE
  5
28F
102
{ACAD_REACTORS
330
290
102
}
100
AcDbEntity
  8
None
370
               9
390
0
  6
Continuous
 62
               7
100
AcDbCircle
 10
4.2955899999999998
 20
24.862199999999998
 30
0.0
 40
0.1400000000000006
  0
HATCH
  5
290
100
AcDbEntity
  8
None
370
               0
390
0
  6
Continuous
 62
               7
100
AcDbHatch
 10
0.0
 20
0.0
 30
0.0
210
0.0
220
0.0
230
1.0
  2
SOLID
 70
               1
 71
               1
 91
        1
 92
        1
 93
        1
 72
               2
 10
4.2955899999999998
 20
24.862199999999998
 40
0.1400000000000006
 50
0.0
 51
360.0
 73
               0
 97
        1
330
28F
 75
               0
 76
               1
 98
        1
 10
0.0
 20
0.0
  0
CIRCLE
  5
291
102
{ACAD_REACTORS
330
292
102
}
100
AcDbEntity
  8
None
370
               9
390
0
  6
Continuous
 62
               7
100
AcDbCircle
 10
-3.2044099999999998
 20
25.362199999999998
 30
0.0
 40
0.1400000000000006
  0
HATCH
  5
292
100
AcDbEntity
  8
None
370
               0
390
0
  6
Continuous
 62
               7
100
AcDbHatch
 10
0.0
 20
0.0
 30
0.0
210
0.0
220
0.0
230
1.0
  2
SOLID
 70
               1
 71
               1
 91
        1
 92
        1
 93
        1
 72
               2
 10
-3.2044099999999998
 20
25.362199999999998
 40
0.1400000000000006
 50
0.0
 51
360.0
 73
               0
 97
        1
330
291
 75
               0
 76
               1
 98
        1
 10
0.0
 20
0.0
  0
CIRCLE
  5
293
102
{ACAD_REACTORS
330
294
102
}
100
AcDbEntity
  8
None
370
               9
390
0
  6
Continuous
 62
               7
100
AcDbCircle
 10
-2.7044099999999998
 20
25.362199999999998
 30
0.0
 40
0.1400000000000006
  0
HATCH
  5
294
100
AcDbEntity
  8
None
370
               0
390
0
  6
Continuous
 62
               7
100
AcDbHatch
 10
0.0
 20
0.0
 30
0.0
210
0.0
220
0.0
230
1.0
  2
SOLID
 70
               1
 71
               1
 91
        1
 92
        1
 93
        1
 72
               2
 10
-2.7044099999999998
 20
25.362199999999998
 40
0.1400000000000006
 50
0.0
 51
360.0
 73
               0
 97
        1
330
293
 75
               0
 76
               1
 98
        1
 10
0.0
 20
0.0
  0
CIRCLE
  5
295
102
{ACAD_REACTORS
330
296
102
}
100
AcDbEntity
  8
None
370
               9
390
0
  6
Continuous
 62
               7
100
AcDbCircle
 10
-2.2044099999999998
 20
25.362199999999998
 30
0.0
 40
0.1400000000000006
  0
HATCH
  5
296
100
AcDbEntity
  8
None
370
               0
390
0
  6
Continuous
 62
               7
100
AcDbHatch
 10
0.0
 20
0.0
 30
0.0
210
0.0
220
0.0
230
1.0
  2
SOLID
 70
               1
 71
               1
 91
        1
 92
        1
 93
        1
 72
               2
 10
-2.2044099999999998
 20
25.362199999999998
 40
0.1400000000000006
 50
0.0
 51
360.0
 73
               0
 97
        1
330
295
 75
               0
 76
               1
 98
        1
 10
0.0
 20
0.0
  0
CIRCLE
  5
297
102
{ACAD_REACTORS
330
298
102
}
100
AcDbEntity
  8
None
370
               9
390
0
  6
Continuous
 62
               7
100
AcDbCircle
 10
-1.7044099999999998
 20
25.362199999999998
 30
0.0
 40
0.1400000000000006
  0
HATCH
  5
298
100
AcDbEntity
  8
None
370
               0
390
0
  6
Continuous
 62
               7
100
AcDbHatch
 10
0.0
 20
0.0
 30
0.0
210
0.0
220
0.0
230
1.0
  2
SOLID
 70
               1
 71
               1
 91
        1
 92
        1
 93
        1
 72
               2
 10
-1.7044099999999998
 20
25.362199999999998
 40
0.1400000000000006
 50
0.0
 51
360.0
 73
               0
 97
        1
330
297
 75
               0
 76
               1
 98
        1
 10
0.0
 20
0.0
  0
CIRCLE
  5
299
102
{ACAD_REACTORS
330
29A
102
}
100
AcDbEntity
  8
None
370
               9
390
0
  6
Continuous
 62
               7
100
AcDbCircle
 10
-1.20441
 20
25.362199999999998
 30
0.0
 40
0.1400000000000006
  0
HATCH
  5
29A
100
AcDbEntity
  8
None
370
               0
390
0
  6
Continuous
 62
               7
100
AcDbHatch
 10
0.0
 20
0.0
 30
0.0
210
0.0
220
0.0
230
1.0
  2
SOLID
 70
               1
 71
               1
 91
        1
 92
        1
 93
        1
 72
               2
 10
-1.20441
 20
25.362199999999998
 40
0.1400000000000006
 50
0.0
 51
360.0
 73
               0
 97
        1
330
299
 75
               0
 76
               1
 98
        1
 10
0.0
 20
0.0
  0
CIRCLE
  5
29B
102
{ACAD_REACTORS
330
29C
102
}
100
AcDbEntity
  8
None
370
               9
390
0
  6
Continuous
 62
               7
100
AcDbCircle
 10
-0.70441
 20
25.362199999999998
 30
0.0
 40
0.1400000000000006
  0
HATCH
  5
29C
100
AcDbEntity
  8
None
370
               0
390
0
  6
Continuous
 62
               7
100
AcDbHatch
 10
0.0
 20
0.0
 30
0.0
210
0.0
220
0.0
230
1.0
  2
SOLID
 70
               1
 71
               1
 91
        1
 92
        1
 93
        1
 72
               2
 10
-0.70441
 20
25.362199999999998
 40
0.1400000000000006
 50
0.0
 51
360.0
 73
               0
 97
        1
330
29B
 75
               0
 76
               1
 98
        1
 10
0.0
 20
0.0
  0
CIRCLE
  5
29D
102
{ACAD_REACTORS
330
29E
102
}
100
AcDbEntity
  8
None
370
               9
390
0
  6
Continuous
 62
               7
100
AcDbCircle
 10
-0.20441
 20
25.362199999999998
 30
0.0
 40
0.1400000000000006
  0
HATCH
  5
29E
100
AcDbEntity
  8
None
370
               0
390
0
  6
Continuous
 62
               7
100
AcDbHatch
 10
0.0
 20
0.0
 30
0.0
210
0.0
220
0.0
230
1.0
  2
SOLID
 70
               1
 71
               1
 91
        1
 92
        1
 93
        1
 72
               2
 10
-0.20441
 20
25.362199999999998
 40
0.1400000000000006
 50
0.0
 51
360.0
 73
               0
 97
        1
330
29D
 75
               0
 76
               1
 98
        1
 10
0.0
 20
0.0
  0
CIRCLE
  5
29F
102
{ACAD_REACTORS
330
2A0
102
}
100
AcDbEntity
  8
None
370
               9
390
0
  6
Continuous
 62
               7
100
AcDbCircle
 10
0.29559
 20
25.362199999999998
 30
0.0
 40
0.1400000000000006
  0
HATCH
  5
2A0
100
AcDbEntity
  8
None
370
               0
390
0
  6
Continuous
 62
               7
100
AcDbHatch
 10
0.0
 20
0.0
 30
0.0
210
0.0
220
0.0
230
1.0
  2
SOLID
 70
               1
 71
               1
 91
        1
 92
        1
 93
        1
 72
               2
 10
0.29559
 20
25.362199999999998
 40
0.1400000000000006
 50
0.0
 51
360.0
 73
               0
 97
        1
330
29F
 75
               0
 76
               1
 98
        1
 10
0.0
 20
0.0
  0
CIRCLE
  5
2A1
102
{ACAD_REACTORS
330
2A2
102
}
100
AcDbEntity
  8
None
370
               9
390
0
  6
Continuous
 62
               7
100
AcDbCircle
 10
0.7955899999999999
 20
25.362199999999998
 30
0.0
 40
0.1400000000000006
  0
HATCH
  5
2A2
100
AcDbEntity
  8
None
370
               0
390
0
  6
Continuous
 62
               7
100
AcDbHatch
 10
0.0
 20
0.0
 30
0.0
210
0.0
220
0.0
230
1.0
  2
SOLID
 70
               1
 71
               1
 91
        1
 92
        1
 93
        1
 72
               2
 10
0.7955899999999999
 20
25.362199999999998
 40
0.1400000000000006
 50
0.0
 51
360.0
 73
               0
 97
        1
330
2A1
 75
               0
 76
               1
 98
        1
 10
0.0
 20
0.0
  0
CIRCLE
  5
2A3
102
{ACAD_REACTORS
330
2A4
102
}
100
AcDbEntity
  8
None
370
               9
390
0
  6
Continuous
 62
               7
100
AcDbCircle
 10
1.2955899999999998
 20
25.362199999999998
 30
0.0
 40
0.1400000000000006
  0
HATCH
  5
2A4
100
AcDbEntity
  8
None
370
               0
390
0
  6
Continuous
 62
               7
100
AcDbHatch
 10
0.0
 20
0.0
 30
0.0
210
0.0
220
0.0
230
1.0
  2
SOLID
 70
               1
 71
               1
 91
        1
 92
        1
 93
        1
 72
               2
 10
1.2955899999999998
 20
25.362199999999998
 40
0.1400000000000006
 50
0.0
 51
360.0
 73
               0
 97
        1
330
2A3
 75
               0
 76
               1
 98
        1
 10
0.0
 20
0.0
  0
CIRCLE
  5
2A5
102
{ACAD_REACTORS
330
2A6
102
}
100
AcDbEntity
  8
None
370
               9
390
0
  6
Continuous
 62
               7
100
AcDbCircle
 10
1.7955899999999998
 20
25.362199999999998
 30
0.0
 40
0.1400000000000006
  0
HATCH
  5
2A6
100
AcDbEntity
  8
None
370
               0
390
0
  6
Continuous
 62
               7
100
AcDbHatch
 10
0.0
 20
0.0
 30
0.0
210
0.0
220
0.0
230
1.0
  2
SOLID
 70
               1
 71
               1
 91
        1
 92
        1
 93
        1
 72
               2
 10
1.7955899999999998
 20
25.362199999999998
 40
0.1400000000000006
 50
0.0
 51
360.0
 73
               0
 97
        1
330
2A5
 75
               0
 76
               1
 98
        1
 10
0.0
 20
0.0
  0
CIRCLE
  5
2A7
102
{ACAD_REACTORS
330
2A8
102
}
100
AcDbEntity
  8
None
370
               9
390
0
  6
Continuous
 62
               7
100
AcDbCircle
 10
2.2955899999999998
 20
25.362199999999998
 30
0.0
 40
0.1400000000000006
  0
HATCH
  5
2A8
100
AcDbEntity
  8
None
370
               0
390
0
  6
Continuous
 62
               7
100
AcDbHatch
 10
0.0
 20
0.0
 30
0.0
210
0.0
220
0.0
230
1.0
  2
SOLID
 70
               1
 71
               1
 91
        1
 92
        1
 93
        1
 72
               2
 10
2.2955899999999998
 20
25.362199999999998
 40
0.1400000000000006
 50
0.0
 51
360.0
 73
               0
 97
        1
330
2A7
 75
               0
 76
               1
 98
        1
 10
0.0
 20
0.0
  0
CIRCLE
  5
2A9
102
{ACAD_REACTORS
330
2AA
102
}
100
AcDbEntity
  8
None
370
               9
390
0
  6
Continuous
 62
               7
100
AcDbCircle
 10
2.7955899999999998
 20
25.362199999999998
 30
0.0
 40
0.1400000000000006
  0
HATCH
  5
2AA
100
AcDbEntity
  8
None
370
               0
390
0
  6
Continuous
 62
               7
100
AcDbHatch
 10
0.0
 20
0.0
 30
0.0
210
0.0
220
0.0
230
1.0
  2
SOLID
 70
               1
 71
               1
 91
        1
 92
        1
 93
        1
 72
               2
 10
2.7955899999999998
 20
25.362199999999998
 40
0.1400000000000006
 50
0.0
 51
360.0
 73
               0
 97
        1
330
2A9
 75
               0
 76
               1
 98
        1
 10
0.0
 20
0.0
  0
CIRCLE
  5
2AB
102
{ACAD_REACTORS
330
2AC
102
}
100
AcDbEntity
  8
None
370
               9
390
0
  6
Continuous
 62
               7
100
AcDbCircle
 10
3.2955899999999998
 20
25.362199999999998
 30
0.0
 40
0.1400000000000006
  0
HATCH
  5
2AC
100
AcDbEntity
  8
None
370
               0
390
0
  6
Continuous
 62
               7
100
AcDbHatch
 10
0.0
 20
0.0
 30
0.0
210
0.0
220
0.0
230
1.0
  2
SOLID
 70
               1
 71
               1
 91
        1
 92
        1
 93
        1
 72
               2
 10
3.2955899999999998
 20
25.362199999999998
 40
0.1400000000000006
 50
0.0
 51
360.0
 73
               0
 97
        1
330
2AB
 75
               0
 76
               1
 98
        1
 10
0.0
 20
0.0
  0
CIRCLE
  5
2AD
102
{ACAD_REACTORS
330
2AE
102
}
100
AcDbEntity
  8
None
370
               9
390
0
  6
Continuous
 62
               7
100
AcDbCircle
 10
3.7955899999999998
 20
25.362199999999998
 30
0.0
 40
0.1400000000000006
  0
HATCH
  5
2AE
100
AcDbEntity
  8
None
370
               0
390
0
  6
Continuous
 62
               7
100
AcDbHatch
 10
0.0
 20
0.0
 30
0.0
210
0.0
220
0.0
230
1.0
  2
SOLID
 70
               1
 71
               1
 91
        1
 92
        1
 93
        1
 72
               2
 10
3.7955899999999998
 20
25.362199999999998
 40
0.1400000000000006
 50
0.0
 51
360.0
 73
               0
 97
        1
330
2AD
 75
               0
 76
               1
 98
        1
 10
0.0
 20
0.0
  0
CIRCLE
  5
2AF
102
{ACAD_REACTORS
330
2B0
102
}
100
AcDbEntity
  8
None
370
               9
390
0
  6
Continuous
 62
               7
100
AcDbCircle
 10
4.2955899999999998
 20
25.362199999999998
 30
0.0
 40
0.1400000000000006
  0
HATCH
  5
2B0
100
AcDbEntity
  8
None
370
               0
390
0
  6
Continuous
 62
               7
100
AcDbHatch
 10
0.0
 20
0.0
 30
0.0
210
0.0
220
0.0
230
1.0
  2
SOLID
 70
               1
 71
               1
 91
        1
 92
        1
 93
        1
 72
               2
 10
4.2955899999999998
 20
25.362199999999998
 40
0.1400000000000006
 50
0.0
 51
360.0
 73
               0
 97
        1
330
2AF
 75
               0
 76
               1
 98
        1
 10
0.0
 20
0.0
  0
CIRCLE
  5
2B1
102
{ACAD_REACTORS
330
2B2
102
}
100
AcDbEntity
  8
None
370
               9
390
0
  6
Continuous
 62
               7
100
AcDbCircle
 10
-3.2044099999999998
 20
25.862199999999998
 30
0.0
 40
0.1400000000000006
  0
HATCH
  5
2B2
100
AcDbEntity
  8
None
370
               0
390
0
  6
Continuous
 62
               7
100
AcDbHatch
 10
0.0
 20
0.0
 30
0.0
210
0.0
220
0.0
230
1.0
  2
SOLID
 70
               1
 71
               1
 91
        1
 92
        1
 93
        1
 72
               2
 10
-3.2044099999999998
 20
25.862199999999998
 40
0.1400000000000006
 50
0.0
 51
360.0
 73
               0
 97
        1
330
2B1
 75
               0
 76
               1
 98
        1
 10
0.0
 20
0.0
  0
CIRCLE
  5
2B3
102
{ACAD_REACTORS
330
2B4
102
}
100
AcDbEntity
  8
None
370
               9
390
0
  6
Continuous
 62
               7
100
AcDbCircle
 10
-2.7044099999999998
 20
25.862199999999998
 30
0.0
 40
0.1400000000000006
  0
HATCH
  5
2B4
100
AcDbEntity
  8
None
370
               0
390
0
  6
Continuous
 62
               7
100
AcDbHatch
 10
0.0
 20
0.0
 30
0.0
210
0.0
220
0.0
230
1.0
  2
SOLID
 70
               1
 71
               1
 91
        1
 92
        1
 93
        1
 72
               2
 10
-2.7044099999999998
 20
25.862199999999998
 40
0.1400000000000006
 50
0.0
 51
360.0
 73
               0
 97
        1
330
2B3
 75
               0
 76
               1
 98
        1
 10
0.0
 20
0.0
  0
CIRCLE
  5
2B5
102
{ACAD_REACTORS
330
2B6
102
}
100
AcDbEntity
  8
None
370
               9
390
0
  6
Continuous
 62
               7
100
AcDbCircle
 10
-2.2044099999999998
 20
25.862199999999998
 30
0.0
 40
0.1400000000000006
  0
HATCH
  5
2B6
100
AcDbEntity
  8
None
370
               0
390
0
  6
Continuous
 62
               7
100
AcDbHatch
 10
0.0
 20
0.0
 30
0.0
210
0.0
220
0.0
230
1.0
  2
SOLID
 70
               1
 71
               1
 91
        1
 92
        1
 93
        1
 72
               2
 10
-2.2044099999999998
 20
25.862199999999998
 40
0.1400000000000006
 50
0.0
 51
360.0
 73
               0
 97
        1
330
2B5
 75
               0
 76
               1
 98
        1
 10
0.0
 20
0.0
  0
CIRCLE
  5
2B7
102
{ACAD_REACTORS
330
2B8
102
}
100
AcDbEntity
  8
None
370
               9
390
0
  6
Continuous
 62
               7
100
AcDbCircle
 10
-1.7044099999999998
 20
25.862199999999998
 30
0.0
 40
0.1400000000000006
  0
HATCH
  5
2B8
100
AcDbEntity
  8
None
370
               0
390
0
  6
Continuous
 62
               7
100
AcDbHatch
 10
0.0
 20
0.0
 30
0.0
210
0.0
220
0.0
230
1.0
  2
SOLID
 70
               1
 71
               1
 91
        1
 92
        1
 93
        1
 72
               2
 10
-1.7044099999999998
 20
25.862199999999998
 40
0.1400000000000006
 50
0.0
 51
360.0
 73
               0
 97
        1
330
2B7
 75
               0
 76
               1
 98
        1
 10
0.0
 20
0.0
  0
CIRCLE
  5
2B9
102
{ACAD_REACTORS
330
2BA
102
}
100
AcDbEntity
  8
None
370
               9
390
0
  6
Continuous
 62
               7
100
AcDbCircle
 10
-1.20441
 20
25.862199999999998
 30
0.0
 40
0.1400000000000006
  0
HATCH
  5
2BA
100
AcDbEntity
  8
None
370
               0
390
0
  6
Continuous
 62
               7
100
AcDbHatch
 10
0.0
 20
0.0
 30
0.0
210
0.0
220
0.0
230
1.0
  2
SOLID
 70
               1
 71
               1
 91
        1
 92
        1
 93
        1
 72
               2
 10
-1.20441
 20
25.862199999999998
 40
0.1400000000000006
 50
0.0
 51
360.0
 73
               0
 97
        1
330
2B9
 75
               0
 76
               1
 98
        1
 10
0.0
 20
0.0
  0
CIRCLE
  5
2BB
102
{ACAD_REACTORS
330
2BC
102
}
100
AcDbEntity
  8
None
370
               9
390
0
  6
Continuous
 62
               7
100
AcDbCircle
 10
-0.70441
 20
25.862199999999998
 30
0.0
 40
0.1400000000000006
  0
HATCH
  5
2BC
100
AcDbEntity
  8
None
370
               0
390
0
  6
Continuous
 62
               7
100
AcDbHatch
 10
0.0
 20
0.0
 30
0.0
210
0.0
220
0.0
230
1.0
  2
SOLID
 70
               1
 71
               1
 91
        1
 92
        1
 93
        1
 72
               2
 10
-0.70441
 20
25.862199999999998
 40
0.1400000000000006
 50
0.0
 51
360.0
 73
               0
 97
        1
330
2BB
 75
               0
 76
               1
 98
        1
 10
0.0
 20
0.0
  0
CIRCLE
  5
2BD
102
{ACAD_REACTORS
330
2BE
102
}
100
AcDbEntity
  8
None
370
               9
390
0
  6
Continuous
 62
               7
100
AcDbCircle
 10
-0.20441
 20
25.862199999999998
 30
0.0
 40
0.1400000000000006
  0
HATCH
  5
2BE
100
AcDbEntity
  8
None
370
               0
390
0
  6
Continuous
 62
               7
100
AcDbHatch
 10
0.0
 20
0.0
 30
0.0
210
0.0
220
0.0
230
1.0
  2
SOLID
 70
               1
 71
               1
 91
        1
 92
        1
 93
        1
 72
               2
 10
-0.20441
 20
25.862199999999998
 40
0.1400000000000006
 50
0.0
 51
360.0
 73
               0
 97
        1
330
2BD
 75
               0
 76
               1
 98
        1
 10
0.0
 20
0.0
  0
CIRCLE
  5
2BF
102
{ACAD_REACTORS
330
2C0
102
}
100
AcDbEntity
  8
None
370
               9
390
0
  6
Continuous
 62
               7
100
AcDbCircle
 10
0.29559
 20
25.862199999999998
 30
0.0
 40
0.1400000000000006
  0
HATCH
  5
2C0
100
AcDbEntity
  8
None
370
               0
390
0
  6
Continuous
 62
               7
100
AcDbHatch
 10
0.0
 20
0.0
 30
0.0
210
0.0
220
0.0
230
1.0
  2
SOLID
 70
               1
 71
               1
 91
        1
 92
        1
 93
        1
 72
               2
 10
0.29559
 20
25.862199999999998
 40
0.1400000000000006
 50
0.0
 51
360.0
 73
               0
 97
        1
330
2BF
 75
               0
 76
               1
 98
        1
 10
0.0
 20
0.0
  0
CIRCLE
  5
2C1
102
{ACAD_REACTORS
330
2C2
102
}
100
AcDbEntity
  8
None
370
               9
390
0
  6
Continuous
 62
               7
100
AcDbCircle
 10
0.7955899999999999
 20
25.862199999999998
 30
0.0
 40
0.1400000000000006
  0
HATCH
  5
2C2
100
AcDbEntity
  8
None
370
               0
390
0
  6
Continuous
 62
               7
100
AcDbHatch
 10
0.0
 20
0.0
 30
0.0
210
0.0
220
0.0
230
1.0
  2
SOLID
 70
               1
 71
               1
 91
        1
 92
        1
 93
        1
 72
               2
 10
0.7955899999999999
 20
25.862199999999998
 40
0.1400000000000006
 50
0.0
 51
360.0
 73
               0
 97
        1
330
2C1
 75
               0
 76
               1
 98
        1
 10
0.0
 20
0.0
  0
CIRCLE
  5
2C3
102
{ACAD_REACTORS
330
2C4
102
}
100
AcDbEntity
  8
None
370
               9
390
0
  6
Continuous
 62
               7
100
AcDbCircle
 10
1.2955899999999998
 20
25.862199999999998
 30
0.0
 40
0.1400000000000006
  0
HATCH
  5
2C4
100
AcDbEntity
  8
None
370
               0
390
0
  6
Continuous
 62
               7
100
AcDbHatch
 10
0.0
 20
0.0
 30
0.0
210
0.0
220
0.0
230
1.0
  2
SOLID
 70
               1
 71
               1
 91
        1
 92
        1
 93
        1
 72
               2
 10
1.2955899999999998
 20
25.862199999999998
 40
0.1400000000000006
 50
0.0
 51
360.0
 73
               0
 97
        1
330
2C3
 75
               0
 76
               1
 98
        1
 10
0.0
 20
0.0
  0
CIRCLE
  5
2C5
102
{ACAD_REACTORS
330
2C6
102
}
100
AcDbEntity
  8
None
370
               9
390
0
  6
Continuous
 62
               7
100
AcDbCircle
 10
1.7955899999999998
 20
25.862199999999998
 30
0.0
 40
0.1400000000000006
  0
HATCH
  5
2C6
100
AcDbEntity
  8
None
370
               0
390
0
  6
Continuous
 62
               7
100
AcDbHatch
 10
0.0
 20
0.0
 30
0.0
210
0.0
220
0.0
230
1.0
  2
SOLID
 70
               1
 71
               1
 91
        1
 92
        1
 93
        1
 72
               2
 10
1.7955899999999998
 20
25.862199999999998
 40
0.1400000000000006
 50
0.0
 51
360.0
 73
               0
 97
        1
330
2C5
 75
               0
 76
               1
 98
        1
 10
0.0
 20
0.0
  0
CIRCLE
  5
2C7
102
{ACAD_REACTORS
330
2C8
102
}
100
AcDbEntity
  8
None
370
               9
390
0
  6
Continuous
 62
               7
100
AcDbCircle
 10
2.2955899999999998
 20
25.862199999999998
 30
0.0
 40
0.1400000000000006
  0
HATCH
  5
2C8
100
AcDbEntity
  8
None
370
               0
390
0
  6
Continuous
 62
               7
100
AcDbHatch
 10
0.0
 20
0.0
 30
0.0
210
0.0
220
0.0
230
1.0
  2
SOLID
 70
               1
 71
               1
 91
        1
 92
        1
 93
        1
 72
               2
 10
2.2955899999999998
 20
25.862199999999998
 40
0.1400000000000006
 50
0.0
 51
360.0
 73
               0
 97
        1
330
2C7
 75
               0
 76
               1
 98
        1
 10
0.0
 20
0.0
  0
CIRCLE
  5
2C9
102
{ACAD_REACTORS
330
2CA
102
}
100
AcDbEntity
  8
None
370
               9
390
0
  6
Continuous
 62
               7
100
AcDbCircle
 10
2.7955899999999998
 20
25.862199999999998
 30
0.0
 40
0.1400000000000006
  0
HATCH
  5
2CA
100
AcDbEntity
  8
None
370
               0
390
0
  6
Continuous
 62
               7
100
AcDbHatch
 10
0.0
 20
0.0
 30
0.0
210
0.0
220
0.0
230
1.0
  2
SOLID
 70
               1
 71
               1
 91
        1
 92
        1
 93
        1
 72
               2
 10
2.7955899999999998
 20
25.862199999999998
 40
0.1400000000000006
 50
0.0
 51
360.0
 73
               0
 97
        1
330
2C9
 75
               0
 76
               1
 98
        1
 10
0.0
 20
0.0
  0
CIRCLE
  5
2CB
102
{ACAD_REACTORS
330
2CC
102
}
100
AcDbEntity
  8
None
370
               9
390
0
  6
Continuous
 62
               7
100
AcDbCircle
 10
3.2955899999999998
 20
25.862199999999998
 30
0.0
 40
0.1400000000000006
  0
HATCH
  5
2CC
100
AcDbEntity
  8
None
370
               0
390
0
  6
Continuous
 62
               7
100
AcDbHatch
 10
0.0
 20
0.0
 30
0.0
210
0.0
220
0.0
230
1.0
  2
SOLID
 70
               1
 71
               1
 91
        1
 92
        1
 93
        1
 72
               2
 10
3.2955899999999998
 20
25.862199999999998
 40
0.1400000000000006
 50
0.0
 51
360.0
 73
               0
 97
        1
330
2CB
 75
               0
 76
               1
 98
        1
 10
0.0
 20
0.0
  0
CIRCLE
  5
2CD
102
{ACAD_REACTORS
330
2CE
102
}
100
AcDbEntity
  8
None
370
               9
390
0
  6
Continuous
 62
               7
100
AcDbCircle
 10
3.7955899999999998
 20
25.862199999999998
 30
0.0
 40
0.1400000000000006
  0
HATCH
  5
2CE
100
AcDbEntity
  8
None
370
               0
390
0
  6
Continuous
 62
               7
100
AcDbHatch
 10
0.0
 20
0.0
 30
0.0
210
0.0
220
0.0
230
1.0
  2
SOLID
 70
               1
 71
               1
 91
        1
 92
        1
 93
        1
 72
               2
 10
3.7955899999999998
 20
25.862199999999998
 40
0.1400000000000006
 50
0.0
 51
360.0
 73
               0
 97
        1
330
2CD
 75
               0
 76
               1
 98
        1
 10
0.0
 20
0.0
  0
CIRCLE
  5
2CF
102
{ACAD_REACTORS
330
2D0
102
}
100
AcDbEntity
  8
None
370
               9
390
0
  6
Continuous
 62
               7
100
AcDbCircle
 10
4.2955899999999998
 20
25.862199999999998
 30
0.0
 40
0.1400000000000006
  0
HATCH
  5
2D0
100
AcDbEntity
  8
None
370
               0
390
0
  6
Continuous
 62
               7
100
AcDbHatch
 10
0.0
 20
0.0
 30
0.0
210
0.0
220
0.0
230
1.0
  2
SOLID
 70
               1
 71
               1
 91
        1
 92
        1
 93
        1
 72
               2
 10
4.2955899999999998
 20
25.862199999999998
 40
0.1400000000000006
 50
0.0
 51
360.0
 73
               0
 97
        1
330
2CF
 75
               0
 76
               1
 98
        1
 10
0.0
 20
0.0
  0
CIRCLE
  5
2D1
102
{ACAD_REACTORS
330
2D2
102
}
100
AcDbEntity
  8
None
370
               9
390
0
  6
Continuous
 62
               7
100
AcDbCircle
 10
4.7955899999999998
 20
17.862199999999998
 30
0.0
 40
0.1400000000000006
  0
HATCH
  5
2D2
100
AcDbEntity
  8
None
370
               0
390
0
  6
Continuous
 62
               7
100
AcDbHatch
 10
0.0
 20
0.0
 30
0.0
210
0.0
220
0.0
230
1.0
  2
SOLID
 70
               1
 71
               1
 91
        1
 92
        1
 93
        1
 72
               2
 10
4.7955899999999998
 20
17.862199999999998
 40
0.1400000000000006
 50
0.0
 51
360.0
 73
               0
 97
        1
330
2D1
 75
               0
 76
               1
 98
        1
 10
0.0
 20
0.0
  0
CIRCLE
  5
2D3
102
{ACAD_REACTORS
330
2D4
102
}
100
AcDbEntity
  8
None
370
               9
390
0
  6
Continuous
 62
               7
100
AcDbCircle
 10
4.7955899999999998
 20
18.362199999999998
 30
0.0
 40
0.1400000000000006
  0
HATCH
  5
2D4
100
AcDbEntity
  8
None
370
               0
390
0
  6
Continuous
 62
               7
100
AcDbHatch
 10
0.0
 20
0.0
 30
0.0
210
0.0
220
0.0
230
1.0
  2
SOLID
 70
               1
 71
               1
 91
        1
 92
        1
 93
        1
 72
               2
 10
4.7955899999999998
 20
18.362199999999998
 40
0.1400000000000006
 50
0.0
 51
360.0
 73
               0
 97
        1
330
2D3
 75
               0
 76
               1
 98
        1
 10
0.0
 20
0.0
  0
CIRCLE
  5
2D5
102
{ACAD_REACTORS
330
2D6
102
}
100
AcDbEntity
  8
None
370
               9
390
0
  6
Continuous
 62
               7
100
AcDbCircle
 10
4.7955899999999998
 20
18.862199999999998
 30
0.0
 40
0.1400000000000006
  0
HATCH
  5
2D6
100
AcDbEntity
  8
None
370
               0
390
0
  6
Continuous
 62
               7
100
AcDbHatch
 10
0.0
 20
0.0
 30
0.0
210
0.0
220
0.0
230
1.0
  2
SOLID
 70
               1
 71
               1
 91
        1
 92
        1
 93
        1
 72
               2
 10
4.7955899999999998
 20
18.862199999999998
 40
0.1400000000000006
 50
0.0
 51
360.0
 73
               0
 97
        1
330
2D5
 75
               0
 76
               1
 98
        1
 10
0.0
 20
0.0
  0
CIRCLE
  5
2D7
102
{ACAD_REACTORS
330
2D8
102
}
100
AcDbEntity
  8
None
370
               9
390
0
  6
Continuous
 62
               7
100
AcDbCircle
 10
4.7955899999999998
 20
19.362199999999998
 30
0.0
 40
0.1400000000000006
  0
HATCH
  5
2D8
100
AcDbEntity
  8
None
370
               0
390
0
  6
Continuous
 62
               7
100
AcDbHatch
 10
0.0
 20
0.0
 30
0.0
210
0.0
220
0.0
230
1.0
  2
SOLID
 70
               1
 71
               1
 91
        1
 92
        1
 93
        1
 72
               2
 10
4.7955899999999998
 20
19.362199999999998
 40
0.1400000000000006
 50
0.0
 51
360.0
 73
               0
 97
        1
330
2D7
 75
               0
 76
               1
 98
        1
 10
0.0
 20
0.0
  0
CIRCLE
  5
2D9
102
{ACAD_REACTORS
330
2DA
102
}
100
AcDbEntity
  8
None
370
               9
390
0
  6
Continuous
 62
               7
100
AcDbCircle
 10
4.7955899999999998
 20
19.862199999999998
 30
0.0
 40
0.1400000000000006
  0
HATCH
  5
2DA
100
AcDbEntity
  8
None
370
               0
390
0
  6
Continuous
 62
               7
100
AcDbHatch
 10
0.0
 20
0.0
 30
0.0
210
0.0
220
0.0
230
1.0
  2
SOLID
 70
               1
 71
               1
 91
        1
 92
        1
 93
        1
 72
               2
 10
4.7955899999999998
 20
19.862199999999998
 40
0.1400000000000006
 50
0.0
 51
360.0
 73
               0
 97
        1
330
2D9
 75
               0
 76
               1
 98
        1
 10
0.0
 20
0.0
  0
CIRCLE
  5
2DB
102
{ACAD_REACTORS
330
2DC
102
}
100
AcDbEntity
  8
None
370
               9
390
0
  6
Continuous
 62
               7
100
AcDbCircle
 10
4.7955899999999998
 20
20.362199999999998
 30
0.0
 40
0.1400000000000006
  0
HATCH
  5
2DC
100
AcDbEntity
  8
None
370
               0
390
0
  6
Continuous
 62
               7
100
AcDbHatch
 10
0.0
 20
0.0
 30
0.0
210
0.0
220
0.0
230
1.0
  2
SOLID
 70
               1
 71
               1
 91
        1
 92
        1
 93
        1
 72
               2
 10
4.7955899999999998
 20
20.362199999999998
 40
0.1400000000000006
 50
0.0
 51
360.0
 73
               0
 97
        1
330
2DB
 75
               0
 76
               1
 98
        1
 10
0.0
 20
0.0
  0
CIRCLE
  5
2DD
102
{ACAD_REACTORS
330
2DE
102
}
100
AcDbEntity
  8
None
370
               9
390
0
  6
Continuous
 62
               7
100
AcDbCircle
 10
4.7955899999999998
 20
20.862199999999998
 30
0.0
 40
0.1400000000000006
  0
HATCH
  5
2DE
100
AcDbEntity
  8
None
370
               0
390
0
  6
Continuous
 62
               7
100
AcDbHatch
 10
0.0
 20
0.0
 30
0.0
210
0.0
220
0.0
230
1.0
  2
SOLID
 70
               1
 71
               1
 91
        1
 92
        1
 93
        1
 72
               2
 10
4.7955899999999998
 20
20.862199999999998
 40
0.1400000000000006
 50
0.0
 51
360.0
 73
               0
 97
        1
330
2DD
 75
               0
 76
               1
 98
        1
 10
0.0
 20
0.0
  0
CIRCLE
  5
2DF
102
{ACAD_REACTORS
330
2E0
102
}
100
AcDbEntity
  8
None
370
               9
390
0
  6
Continuous
 62
               7
100
AcDbCircle
 10
4.7955899999999998
 20
21.362199999999998
 30
0.0
 40
0.1400000000000006
  0
HATCH
  5
2E0
100
AcDbEntity
  8
None
370
               0
390
0
  6
Continuous
 62
               7
100
AcDbHatch
 10
0.0
 20
0.0
 30
0.0
210
0.0
220
0.0
230
1.0
  2
SOLID
 70
               1
 71
               1
 91
        1
 92
        1
 93
        1
 72
               2
 10
4.7955899999999998
 20
21.362199999999998
 40
0.1400000000000006
 50
0.0
 51
360.0
 73
               0
 97
        1
330
2DF
 75
               0
 76
               1
 98
        1
 10
0.0
 20
0.0
  0
CIRCLE
  5
2E1
102
{ACAD_REACTORS
330
2E2
102
}
100
AcDbEntity
  8
None
370
               9
390
0
  6
Continuous
 62
               7
100
AcDbCircle
 10
4.7955899999999998
 20
21.862199999999998
 30
0.0
 40
0.1400000000000006
  0
HATCH
  5
2E2
100
AcDbEntity
  8
None
370
               0
390
0
  6
Continuous
 62
               7
100
AcDbHatch
 10
0.0
 20
0.0
 30
0.0
210
0.0
220
0.0
230
1.0
  2
SOLID
 70
               1
 71
               1
 91
        1
 92
        1
 93
        1
 72
               2
 10
4.7955899999999998
 20
21.862199999999998
 40
0.1400000000000006
 50
0.0
 51
360.0
 73
               0
 97
        1
330
2E1
 75
               0
 76
               1
 98
        1
 10
0.0
 20
0.0
  0
CIRCLE
  5
2E3
102
{ACAD_REACTORS
330
2E4
102
}
100
AcDbEntity
  8
None
370
               9
390
0
  6
Continuous
 62
               7
100
AcDbCircle
 10
4.7955899999999998
 20
22.362199999999998
 30
0.0
 40
0.1400000000000006
  0
HATCH
  5
2E4
100
AcDbEntity
  8
None
370
               0
390
0
  6
Continuous
 62
               7
100
AcDbHatch
 10
0.0
 20
0.0
 30
0.0
210
0.0
220
0.0
230
1.0
  2
SOLID
 70
               1
 71
               1
 91
        1
 92
        1
 93
        1
 72
               2
 10
4.7955899999999998
 20
22.362199999999998
 40
0.1400000000000006
 50
0.0
 51
360.0
 73
               0
 97
        1
330
2E3
 75
               0
 76
               1
 98
        1
 10
0.0
 20
0.0
  0
CIRCLE
  5
2E5
102
{ACAD_REACTORS
330
2E6
102
}
100
AcDbEntity
  8
None
370
               9
390
0
  6
Continuous
 62
               7
100
AcDbCircle
 10
4.7955899999999998
 20
22.862199999999998
 30
0.0
 40
0.1400000000000006
  0
HATCH
  5
2E6
100
AcDbEntity
  8
None
370
               0
390
0
  6
Continuous
 62
               7
100
AcDbHatch
 10
0.0
 20
0.0
 30
0.0
210
0.0
220
0.0
230
1.0
  2
SOLID
 70
               1
 71
               1
 91
        1
 92
        1
 93
        1
 72
               2
 10
4.7955899999999998
 20
22.862199999999998
 40
0.1400000000000006
 50
0.0
 51
360.0
 73
               0
 97
        1
330
2E5
 75
               0
 76
               1
 98
        1
 10
0.0
 20
0.0
  0
CIRCLE
  5
2E7
102
{ACAD_REACTORS
330
2E8
102
}
100
AcDbEntity
  8
None
370
               9
390
0
  6
Continuous
 62
               7
100
AcDbCircle
 10
4.7955899999999998
 20
23.362199999999998
 30
0.0
 40
0.1400000000000006
  0
HATCH
  5
2E8
100
AcDbEntity
  8
None
370
               0
390
0
  6
Continuous
 62
               7
100
AcDbHatch
 10
0.0
 20
0.0
 30
0.0
210
0.0
220
0.0
230
1.0
  2
SOLID
 70
               1
 71
               1
 91
        1
 92
        1
 93
        1
 72
               2
 10
4.7955899999999998
 20
23.362199999999998
 40
0.1400000000000006
 50
0.0
 51
360.0
 73
               0
 97
        1
330
2E7
 75
               0
 76
               1
 98
        1
 10
0.0
 20
0.0
  0
CIRCLE
  5
2E9
102
{ACAD_REACTORS
330
2EA
102
}
100
AcDbEntity
  8
None
370
               9
390
0
  6
Continuous
 62
               7
100
AcDbCircle
 10
4.7955899999999998
 20
23.862199999999998
 30
0.0
 40
0.1400000000000006
  0
HATCH
  5
2EA
100
AcDbEntity
  8
None
370
               0
390
0
  6
Continuous
 62
               7
100
AcDbHatch
 10
0.0
 20
0.0
 30
0.0
210
0.0
220
0.0
230
1.0
  2
SOLID
 70
               1
 71
               1
 91
        1
 92
        1
 93
        1
 72
               2
 10
4.7955899999999998
 20
23.862199999999998
 40
0.1400000000000006
 50
0.0
 51
360.0
 73
               0
 97
        1
330
2E9
 75
               0
 76
               1
 98
        1
 10
0.0
 20
0.0
  0
CIRCLE
  5
2EB
102
{ACAD_REACTORS
330
2EC
102
}
100
AcDbEntity
  8
None
370
               9
390
0
  6
Continuous
 62
               7
100
AcDbCircle
 10
4.7955899999999998
 20
24.362199999999998
 30
0.0
 40
0.1400000000000006
  0
HATCH
  5
2EC
100
AcDbEntity
  8
None
370
               0
390
0
  6
Continuous
 62
               7
100
AcDbHatch
 10
0.0
 20
0.0
 30
0.0
210
0.0
220
0.0
230
1.0
  2
SOLID
 70
               1
 71
               1
 91
        1
 92
        1
 93
        1
 72
               2
 10
4.7955899999999998
 20
24.362199999999998
 40
0.1400000000000006
 50
0.0
 51
360.0
 73
               0
 97
        1
330
2EB
 75
               0
 76
               1
 98
        1
 10
0.0
 20
0.0
  0
CIRCLE
  5
2ED
102
{ACAD_REACTORS
330
2EE
102
}
100
AcDbEntity
  8
None
370
               9
390
0
  6
Continuous
 62
               7
100
AcDbCircle
 10
4.7955899999999998
 20
24.862199999999998
 30
0.0
 40
0.1400000000000006
  0
HATCH
  5
2EE
100
AcDbEntity
  8
None
370
               0
390
0
  6
Continuous
 62
               7
100
AcDbHatch
 10
0.0
 20
0.0
 30
0.0
210
0.0
220
0.0
230
1.0
  2
SOLID
 70
               1
 71
               1
 91
        1
 92
        1
 93
        1
 72
               2
 10
4.7955899999999998
 20
24.862199999999998
 40
0.1400000000000006
 50
0.0
 51
360.0
 73
               0
 97
        1
330
2ED
 75
               0
 76
               1
 98
        1
 10
0.0
 20
0.0
  0
CIRCLE
  5
2EF
102
{ACAD_REACTORS
330
2F0
102
}
100
AcDbEntity
  8
None
370
               9
390
0
  6
Continuous
 62
               7
100
AcDbCircle
 10
4.7955899999999998
 20
25.362199999999998
 30
0.0
 40
0.1400000000000006
  0
HATCH
  5
2F0
100
AcDbEntity
  8
None
370
               0
390
0
  6
Continuous
 62
               7
100
AcDbHatch
 10
0.0
 20
0.0
 30
0.0
210
0.0
220
0.0
230
1.0
  2
SOLID
 70
               1
 71
               1
 91
        1
 92
        1
 93
        1
 72
               2
 10
4.7955899999999998
 20
25.362199999999998
 40
0.1400000000000006
 50
0.0
 51
360.0
 73
               0
 97
        1
330
2EF
 75
               0
 76
               1
 98
        1
 10
0.0
 20
0.0
  0
CIRCLE
  5
2F1
102
{ACAD_REACTORS
330
2F2
102
}
100
AcDbEntity
  8
None
370
               9
390
0
  6
Continuous
 62
               7
100
AcDbCircle
 10
4.7955899999999998
 20
25.862199999999998
 30
0.0
 40
0.1400000000000006
  0
HATCH
  5
2F2
100
AcDbEntity
  8
None
370
               0
390
0
  6
Continuous
 62
               7
100
AcDbHatch
 10
0.0
 20
0.0
 30
0.0
210
0.0
220
0.0
230
1.0
  2
SOLID
 70
               1
 71
               1
 91
        1
 92
        1
 93
        1
 72
               2
 10
4.7955899999999998
 20
25.862199999999998
 40
0.1400000000000006
 50
0.0
 51
360.0
 73
               0
 97
        1
330
2F1
 75
               0
 76
               1
 98
        1
 10
0.0
 20
0.0
  0
ENDBLK
  5
2F3
100
AcDbEntity
  8
None
390
0
100
AcDbBlockEnd
  0
BLOCK
  5
2F4
100
AcDbEntity
  8
Dimension
390
0
100
AcDbBlockBegin
  2
*D8
 70
               1
 10
0.0
 20
0.0
 30
0.0
  3
*D8
  1

  0
LINE
  5
2F5
100
AcDbEntity
  8
Dimension
370
              -2
390
0
  6
Continuous
 62
               0
100
AcDbLine
 10
23.242500964211473
 20
26.460002599999996
 30
0.0
 11
20.144998728422959
 21
26.460002599999996
 31
0.0
  0
LINE
  5
2F6
100
AcDbEntity
  8
Dimension
370
              -2
390
0
  6
Continuous
 62
               0
100
AcDbLine
 10
21.805001964211474
 20
27.647501599999995
 30
0.0
 11
20.144998728422959
 21
27.647501599999995
 31
0.0
  0
LINE
  5
2F7
100
AcDbEntity
  8
Dimension
370
              -2
390
0
  6
Continuous
 62
               0
100
AcDbLine
 10
20.780000000000001
 20
27.647501599999995
 30
0.0
 11
20.780000000000001
 21
26.460002599999996
 31
0.0
  0
LINE
  5
2F8
100
AcDbEntity
  8
Dimension
370
              -2
390
0
  6
Continuous
 62
               0
100
AcDbLine
 10
20.780000000000001
 20
26.460002599999996
 30
0.0
 11
20.780000000000001
 21
25.293335934426786
 31
0.0
  0
SOLID
  5
2F9
100
AcDbEntity
  8
Dimension
370
              -2
390
0
 62
               0
100
AcDbTrace
 10
20.780000000000001
 20
26.460002599999996
 30
0.0
 11
20.921790064574363
 21
25.930834874999995
 31
0.0
 12
20.638209935425635
 22
25.930834874999995
 32
0.0
 13
20.638209935425635
 23
25.930834874999995
 33
0.0
  0
LINE
  5
2FA
100
AcDbEntity
  8
Dimension
370
              -2
390
0
  6
Continuous
 62
               0
100
AcDbLine
 10
20.780000000000001
 20
27.647501599999995
 30
0.0
 11
20.780000000000001
 21
28.814168265573205
 31
0.0
  0
SOLID
  5
2FB
100
AcDbEntity
  8
Dimension
370
              -2
390
0
 62
               0
100
AcDbTrace
 10
20.780000000000001
 20
27.647501599999995
 30
0.0
 11
20.638209935425635
 21
28.176669324999995
 31
0.0
 12
20.921790064574367
 22
28.176669324999995
 32
0.0
 13
20.921790064574367
 23
28.176669324999995
 33
0.0
  0
WIPEOUT
  5
2FC
100
AcDbEntity
  8
Dimension
370
              -2
390
0
  6
Continuous
 62
               0
 92
        0
100
AcDbWipeout
 90
        0
 10
19.380645282157289
 20
52.882281720138877
 30
0.0
 11
2.7987094356854225
 21
0.0
 31
0.0
 12
0.0
 22
2.7987094356854225
 32
0.0
 13
1.0
 23
1.0
340
0
 70
               7
280
               1
281
              50
282
              50
283
               0
360
0
 71
               2
 91
        5
 14
-0.5
 24
9.8495268448943563
 14
0.5000000000000007
 24
9.8495268448943563
 14
0.5000000000000007
 24
9.6079302178559267
 14
-0.5
 24
9.6079302178559267
 14
-0.5
 24
9.8495268448943563
  0
MTEXT
  5
2FD
100
AcDbEntity
  8
Dimension
390
0
 62
               0
100
AcDbMText
 10
19.380645282157289
 20
27.283731823075808
 30
0.0
 40
0.4210680682146991
 41
0.0
 71
               1
 72
               1
  1
1.1875mm
  7
Helvetica
 73
               1
 44
0.9673603504928806
  0
POINT
  5
2FE
100
AcDbEntity
  8
Defpoints
370
               0
390
0
 62
               0
100
AcDbPoint
 10
22.122502599999997
 20
27.647501599999995
 30
0.0
  0
POINT
  5
2FF
100
AcDbEntity
  8
Defpoints
370
               0
390
0
 62
               0
100
AcDbPoint
 10
23.560001599999996
 20
26.460002599999996
 30
0.0
  0
POINT
  5
300
100
AcDbEntity
  8
Defpoints
370
               0
390
0
 62
               0
100
AcDbPoint
 10
20.780000000000001
 20
26.460002599999996
 30
0.0
  0
ENDBLK
  5
301
100
AcDbEntity
  8
Dimension
390
0
100
AcDbBlockEnd
  0
BLOCK
  5
302
100
AcDbEntity
  8
Dimension
390
0
100
AcDbBlockBegin
  2
*D9
 70
               1
 10
0.0
 20
0.0
 30
0.0
  3
*D9
  1

  0
LINE
  5
303
100
AcDbEntity
  8
Dimension
370
              -2
390
0
  6
Continuous
 62
               0
100
AcDbLine
 10
23.560001599999996
 20
26.777503235788519
 30
0.0
 11
23.560001599999996
 21
29.885001271577046
 31
0.0
  0
LINE
  5
304
100
AcDbEntity
  8
Dimension
370
              -2
390
0
  6
Continuous
 62
               0
100
AcDbLine
 10
22.122502599999997
 20
27.965002235788518
 30
0.0
 11
22.122502599999997
 21
29.885001271577046
 31
0.0
  0
LINE
  5
305
100
AcDbEntity
  8
Dimension
370
              -2
390
0
  6
Continuous
 62
               0
100
AcDbLine
 10
22.122502599999997
 20
29.250000000000004
 30
0.0
 11
23.560001599999996
 21
29.250000000000004
 31
0.0
  0
LINE
  5
306
100
AcDbEntity
  8
Dimension
370
              -2
390
0
  6
Continuous
 62
               0
100
AcDbLine
 10
23.560001599999996
 20
29.250000000000004
 30
0.0
 11
24.523086922301342
 21
29.250000000000004
 31
0.0
  0
SOLID
  5
307
100
AcDbEntity
  8
Dimension
370
              -2
390
0
 62
               0
100
AcDbTrace
 10
23.560001599999996
 20
29.250000000000004
 30
0.0
 11
24.089169324999997
 21
29.391790064574369
 31
0.0
 12
24.089169324999997
 22
29.108209935425638
 32
0.0
 13
24.089169324999997
 23
29.108209935425638
 33
0.0
  0
LINE
  5
308
100
AcDbEntity
  8
Dimension
370
              -2
390
0
  6
Continuous
 62
               0
100
AcDbLine
 10
22.122502599999997
 20
29.250000000000004
 30
0.0
 11
20.955835934426787
 21
29.250000000000004
 31
0.0
  0
SOLID
  5
309
100
AcDbEntity
  8
Dimension
370
              -2
390
0
 62
               0
100
AcDbTrace
 10
22.122502599999997
 20
29.250000000000004
 30
0.0
 11
21.593334874999996
 21
29.108209935425638
 31
0.0
 12
21.593334874999996
 22
29.391790064574369
 32
0.0
 13
21.593334874999996
 23
29.391790064574369
 33
0.0
  0
WIPEOUT
  5
30A
100
AcDbEntity
  8
Dimension
370
              -2
390
0
  6
Continuous
 62
               0
 92
        0
100
AcDbWipeout
 90
        0
 10
24.523086922301342
 20
55.078529620138895
 30
0.0
 11
2.7987094356854225
 21
0.0
 31
0.0
 12
0.0
 22
2.7987094356854225
 32
0.0
 13
1.0
 23
1.0
340
0
 70
               7
280
               1
281
              50
282
              50
283
               0
360
0
 71
               2
 91
        5
 14
-0.5
 24
9.8495268448943598
 14
0.4999999999999993
 24
9.8495268448943598
 14
0.4999999999999993
 24
9.6079302178559303
 14
-0.5
 24
9.6079302178559303
 14
-0.5
 24
9.8495268448943598
  0
MTEXT
  5
30B
100
AcDbEntity
  8
Dimension
390
0
 62
               0
100
AcDbMText
 10
24.523086922301342
 20
29.479979723075818
 30
0.0
 40
0.4210680682146991
 41
0.0
 71
               1
 72
               1
  1
1.4375mm
  7
Helvetica
 73
               1
 44
0.9673603504928806
  0
POINT
  5
30C
100
AcDbEntity
  8
Defpoints
370
               0
390
0
 62
               0
100
AcDbPoint
 10
22.122502599999997
 20
27.647501599999995
 30
0.0
  0
POINT
  5
30D
100
AcDbEntity
  8
Defpoints
370
               0
390
0
 62
               0
100
AcDbPoint
 10
23.560001599999996
 20
26.460002599999996
 30
0.0
  0
POINT
  5
30E
100
AcDbEntity
  8
Defpoints
370
               0
390
0
 62
               0
100
AcDbPoint
 10
23.560001599999996
 20
29.250000000000004
 30
0.0
  0
ENDBLK
  5
30F
100
AcDbEntity
  8
Dimension
390
0
100
AcDbBlockEnd
  0
BLOCK
  5
310
100
AcDbEntity
  8
Dimension
390
0
100
AcDbBlockBegin
  2
*D10
 70
               1
 10
0.0
 20
0.0
 30
0.0
  3
*D10
  1

  0
LINE
  5
311
100
AcDbEntity
  8
Dimension
370
              -2
390
0
  6
Continuous
 62
               0
100
AcDbLine
 10
23.242500964211473
 20
18.460002599999996
 30
0.0
 11
20.144998728422959
 21
18.460002599999996
 31
0.0
  0
LINE
  5
312
100
AcDbEntity
  8
Dimension
370
              -2
390
0
  6
Continuous
 62
               0
100
AcDbLine
 10
21.805001964211474
 20
17.272503599999997
 30
0.0
 11
20.144998728422959
 21
17.272503599999997
 31
0.0
  0
LINE
  5
313
100
AcDbEntity
  8
Dimension
370
              -2
390
0
  6
Continuous
 62
               0
100
AcDbLine
 10
20.780000000000001
 20
17.272503599999997
 30
0.0
 11
20.780000000000001
 21
18.460002599999996
 31
0.0
  0
LINE
  5
314
100
AcDbEntity
  8
Dimension
370
              -2
390
0
  6
Continuous
 62
               0
100
AcDbLine
 10
20.780000000000001
 20
18.460002599999996
 30
0.0
 11
20.780000000000001
 21
19.626669265573206
 31
0.0
  0
SOLID
  5
315
100
AcDbEntity
  8
Dimension
370
              -2
390
0
 62
               0
100
AcDbTrace
 10
20.780000000000001
 20
18.460002599999996
 30
0.0
 11
20.638209935425635
 21
18.989170324999996
 31
0.0
 12
20.921790064574367
 22
18.989170324999996
 32
0.0
 13
20.921790064574367
 23
18.989170324999996
 33
0.0
  0
LINE
  5
316
100
AcDbEntity
  8
Dimension
370
              -2
390
0
  6
Continuous
 62
               0
100
AcDbLine
 10
20.780000000000001
 20
17.272503599999997
 30
0.0
 11
20.780000000000001
 21
16.105836934426787
 31
0.0
  0
SOLID
  5
317
100
AcDbEntity
  8
Dimension
370
              -2
390
0
 62
               0
100
AcDbTrace
 10
20.780000000000001
 20
17.272503599999997
 30
0.0
 11
20.921790064574363
 21
16.743335874999996
 31
0.0
 12
20.638209935425635
 22
16.743335874999996
 32
0.0
 13
20.638209935425635
 23
16.743335874999996
 33
0.0
  0
WIPEOUT
  5
318
100
AcDbEntity
  8
Dimension
370
              -2
390
0
  6
Continuous
 62
               0
 92
        0
100
AcDbWipeout
 90
        0
 10
19.709905222364121
 20
43.694782720138889
 30
0.0
 11
2.1401895552717631
 21
0.0
 31
0.0
 12
0.0
 22
2.1401895552717631
 32
0.0
 13
1.0
 23
1.0
340
0
 70
               7
280
               1
281
              50
282
              50
283
               0
360
0
 71
               2
 91
        5
 14
-0.5
 24
12.726304411002204
 14
0.4999999999999988
 24
12.726304411002204
 14
0.4999999999999988
 24
12.410370358312013
 14
-0.5
 24
12.410370358312013
 14
-0.5
 24
12.726304411002204
  0
MTEXT
  5
319
100
AcDbEntity
  8
Dimension
390
0
 62
               0
100
AcDbMText
 10
19.709905222364121
 20
18.096232823075812
 30
0.0
 40
0.4210680682146991
 41
0.0
 71
               1
 72
               1
  1
1.19mm
  7
Helvetica
 73
               1
 44
0.9673603504928806
  0
POINT
  5
31A
100
AcDbEntity
  8
Defpoints
370
               0
390
0
 62
               0
100
AcDbPoint
 10
22.122502599999997
 20
17.272503599999997
 30
0.0
  0
POINT
  5
31B
100
AcDbEntity
  8
Defpoints
370
               0
390
0
 62
               0
100
AcDbPoint
 10
23.560001599999996
 20
18.460002599999996
 30
0.0
  0
POINT
  5
31C
100
AcDbEntity
  8
Defpoints
370
               0
390
0
 62
               0
100
AcDbPoint
 10
20.780000000000001
 20
18.460002599999996
 30
0.0
  0
ENDBLK
  5
31D
100
AcDbEntity
  8
Dimension
390
0
100
AcDbBlockEnd
  0
BLOCK
  5
31E
100
AcDbEntity
  8
Dimension
390
0
100
AcDbBlockBegin
  2
*D11
 70
               1
 10
0.0
 20
0.0
 30
0.0
  3
*D11
  1

  0
LINE
  5
31F
100
AcDbEntity
  8
Dimension
370
              -2
390
0
  6
Continuous
 62
               0
100
AcDbLine
 10
31.560001599999996
 20
26.777503235788519
 30
0.0
 11
31.560001599999996
 21
29.105233680545734
 31
0.0
  0
LINE
  5
320
100
AcDbEntity
  8
Dimension
370
              -2
390
0
  6
Continuous
 62
               0
100
AcDbLine
 10
32.497500599999995
 20
27.965002235788518
 30
0.0
 11
32.497500599999995
 21
29.105233680545734
 31
0.0
  0
LINE
  5
321
100
AcDbEntity
  8
Dimension
370
              -2
390
0
  6
Continuous
 62
               0
100
AcDbLine
 10
32.497500599999995
 20
28.470232408968691
 30
0.0
 11
31.560001599999996
 21
28.470232408968691
 31
0.0
  0
LINE
  5
322
100
AcDbEntity
  8
Dimension
370
              -2
390
0
  6
Continuous
 62
               0
100
AcDbLine
 10
31.560001599999996
 20
28.470232408968691
 30
0.0
 11
30.399394878658907
 21
28.470232408968691
 31
0.0
  0
SOLID
  5
323
100
AcDbEntity
  8
Dimension
370
              -2
390
0
 62
               0
100
AcDbTrace
 10
31.560001599999996
 20
28.470232408968691
 30
0.0
 11
31.030833874999995
 21
28.328442344394325
 31
0.0
 12
31.030833874999995
 22
28.612022473543057
 32
0.0
 13
31.030833874999995
 23
28.612022473543057
 33
0.0
  0
LINE
  5
324
100
AcDbEntity
  8
Dimension
370
              -2
390
0
  6
Continuous
 62
               0
100
AcDbLine
 10
32.497500599999995
 20
28.470232408968691
 30
0.0
 11
33.664167265573205
 21
28.470232408968691
 31
0.0
  0
SOLID
  5
325
100
AcDbEntity
  8
Dimension
370
              -2
390
0
 62
               0
100
AcDbTrace
 10
32.497500599999995
 20
28.470232408968691
 30
0.0
 11
33.026668324999996
 21
28.612022473543057
 31
0.0
 12
33.026668324999996
 22
28.328442344394325
 32
0.0
 13
33.026668324999996
 23
28.328442344394325
 33
0.0
  0
WIPEOUT
  5
326
100
AcDbEntity
  8
Dimension
370
              -2
390
0
  6
Continuous
 62
               0
 92
        0
100
AcDbWipeout
 90
        0
 10
28.259205323387143
 20
54.298762029107579
 30
0.0
 11
2.1401895552717631
 21
0.0
 31
0.0
 12
0.0
 22
2.1401895552717631
 32
0.0
 13
1.0
 23
1.0
340
0
 70
               7
280
               1
281
              50
282
              50
283
               0
360
0
 71
               2
 91
        5
 14
-0.5
 24
12.726304411002202
 14
0.5000000000000004
 24
12.726304411002202
 14
0.5000000000000004
 24
12.410370358312012
 14
-0.5
 24
12.410370358312012
 14
-0.5
 24
12.726304411002202
  0
MTEXT
  5
327
100
AcDbEntity
  8
Dimension
390
0
 62
               0
100
AcDbMText
 10
28.259205323387143
 20
28.700212132044506
 30
0.0
 40
0.4210680682146991
 41
0.0
 71
               1
 72
               1
  1
0.94mm
  7
Helvetica
 73
               1
 44
0.9673603504928806
  0
POINT
  5
328
100
AcDbEntity
  8
Defpoints
370
               0
390
0
 62
               0
100
AcDbPoint
 10
32.497500599999995
 20
27.647501599999995
 30
0.0
  0
POINT
  5
329
100
AcDbEntity
  8
Defpoints
370
               0
390
0
 62
               0
100
AcDbPoint
 10
31.560001599999996
 20
26.460002599999996
 30
0.0
  0
POINT
  5
32A
100
AcDbEntity
  8
Defpoints
370
               0
390
0
 62
               0
100
AcDbPoint
 10
31.560001599999996
 20
28.470232408968691
 30
0.0
  0
ENDBLK
  5
32B
100
AcDbEntity
  8
Dimension
390
0
100
AcDbBlockEnd
  0
ENDSEC
  0
SECTION
  2
ENTITIES
  0
MTEXT
  5
32C
100
AcDbEntity
  8
None
390
0
 62
               7
100
AcDbMText
 10
28.658712055259997
 20
7.3880712134961746
 30
0.0
 40
0.3469900602981771
 41
19.035168070259999
 71
               1
 72
               1
  1
Recommended PCB Layout Tolerances:  ±0.025mm [±0.001"] unless stated otherwise.\P
  7
Helvetica
 73
               1
 44
0.9673603504928806
  0
MTEXT
  5
32D
100
AcDbEntity
  8
None
390
0
 62
               7
100
AcDbMText
 10
6.0308001328599978
 20
32.618512531916771
 30
0.0
 40
0.4082970405507812
 41
7.8846091025199998
 71
               1
 72
               1
  1
{\LRecommended PCB Layout Top View}\P
  7
Helvetica
 73
               1
 44
0.9673603504928811
  0
WIPEOUT
  5
32E
100
AcDbEntity
  8
None
370
              15
390
0
  6
Continuous
 62
               1
 92
        0
100
AcDbWipeout
 90
        0
 10
5.8564164507599976
 20
33.052390842599998
 30
0.0
 11
11.900982350568899
 21
0.0
 31
0.0
 12
0.0
 22
11.900982350568899
 32
0.0
 13
1.0
 23
1.0
340
0
 70
               7
280
               1
281
              50
282
              50
283
               0
360
0
 71
               2
 91
        5
 14
-0.5
 24
2.6986932027295349
 14
0.5
 24
2.6986932027295349
 14
0.5
 24
2.4941578573860772
 14
-0.5
 24
2.4941578573860772
 14
-0.5
 24
2.6986932027295349
  0
MTEXT
  5
32F
100
AcDbEntity
  8
None
390
0
 62
               1
100
AcDbMText
 10
5.8564164507599976
 20
9.2226636864932274
 30
0.0
 40
0.3789612613932292
 41
0.0
 71
               1
 72
               1
  1
{\LTarget PCB Recommendations}\PTotal thickness: 1.6mm min.\PPlating: Gold or Solder finish\PPCB Pad height: Same or higher than solder mask
  7
Arial
 73
               1
 44
0.9673603504928806
  0
WIPEOUT
  5
330
100
AcDbEntity
  8
Dimension
370
               5
390
0
  6
Continuous
 62
               7
 92
        0
100
AcDbWipeout
 90
        0
 10
21.842931757059997
 20
29.997541399579994
 30
0.0
 11
7.0893641787000004
 21
0.0
 31
0.0
 12
0.0
 22
7.0893641787000004
 32
0.0
 13
1.0
 23
1.0
340
0
 70
               7
280
               1
281
              50
282
              50
283
               0
360
0
 71
               2
 91
        5
 14
-0.5
 24
4.031730459570106
 14
0.4999999999999998
 24
4.031730459570106
 14
0.4999999999999998
 24
4.1909669669132796
 14
-0.5
 24
4.1909669669132796
 14
-0.5
 24
4.031730459570106
  0
POLYLINE
  5
331
100
AcDbEntity
  8
Dimension
370
               5
390
0
  6
Continuous
 62
               7
100
AcDb2dPolyline
 66
               1
 10
0.0
 20
0.0
 30
0.0
 70
               1
 75
               5
  0
VERTEX
  5
332
100
AcDbEntity
  8
Dimension
370
               5
390
0
  6
Continuous
 62
               7
100
AcDbVertex
100
AcDb2dVertex
 10
21.842931757059997
 20
4.9598179906799977
 30
0.0
  0
VERTEX
  5
333
100
AcDbEntity
  8
Dimension
370
               5
390
0
  6
Continuous
 62
               7
100
AcDbVertex
100
AcDb2dVertex
 10
28.932295935759996
 20
4.9598179906799977
 30
0.0
  0
VERTEX
  5
334
100
AcDbEntity
  8
Dimension
370
               5
390
0
  6
Continuous
 62
               7
100
AcDbVertex
100
AcDb2dVertex
 10
28.932295935759996
 20
3.8309323995799973
 30
0.0
  0
VERTEX
  5
335
100
AcDbEntity
  8
Dimension
370
               5
390
0
  6
Continuous
 62
               7
100
AcDbVertex
100
AcDb2dVertex
 10
21.842931757059997
 20
3.8309323995799973
 30
0.0
  0
SEQEND
  5
336
100
AcDbEntity
  8
Dimension
370
               5
390
0
  6
Continuous
 62
               7
  0
WIPEOUT
  5
337
100
AcDbEntity
  8
Dimension
370
               5
390
0
  6
Continuous
 62
               7
 92
        0
100
AcDbWipeout
 90
        0
 10
28.932295935759996
 20
29.997541399579994
 30
0.0
 11
4.954493242299999
 21
0.0
 31
0.0
 12
0.0
 22
4.954493242299999
 32
0.0
 13
1.0
 23
1.0
340
0
 70
               7
280
               1
281
              50
282
              50
283
               0
360
0
 71
               2
 91
        5
 14
-0.5
 24
5.553538714138373
 14
0.4999999999999994
 24
5.553538714138373
 14
0.4999999999999994
 24
5.7813895832165487
 14
-0.5
 24
5.7813895832165487
 14
-0.5
 24
5.553538714138373
  0
POLYLINE
  5
338
100
AcDbEntity
  8
Dimension
370
               5
390
0
  6
Continuous
 62
               7
100
AcDb2dPolyline
 66
               1
 10
0.0
 20
0.0
 30
0.0
 70
               1
 75
               5
  0
VERTEX
  5
339
100
AcDbEntity
  8
Dimension
370
               5
390
0
  6
Continuous
 62
               7
100
AcDbVertex
100
AcDb2dVertex
 10
28.932295935759996
 20
4.9598179906799977
 30
0.0
  0
VERTEX
  5
33A
100
AcDbEntity
  8
Dimension
370
               5
390
0
  6
Continuous
 62
               7
100
AcDbVertex
100
AcDb2dVertex
 10
33.886789178059992
 20
4.9598179906799977
 30
0.0
  0
VERTEX
  5
33B
100
AcDbEntity
  8
Dimension
370
               5
390
0
  6
Continuous
 62
               7
100
AcDbVertex
100
AcDb2dVertex
 10
33.886789178059992
 20
3.8309323995799973
 30
0.0
  0
VERTEX
  5
33C
100
AcDbEntity
  8
Dimension
370
               5
390
0
  6
Continuous
 62
               7
100
AcDbVertex
100
AcDb2dVertex
 10
28.932295935759996
 20
3.8309323995799973
 30
0.0
  0
SEQEND
  5
33D
100
AcDbEntity
  8
Dimension
370
               5
390
0
  6
Continuous
 62
               7
  0
WIPEOUT
  5
33E
100
AcDbEntity
  8
Dimension
370
               5
390
0
  6
Continuous
 62
               7
 92
        0
100
AcDbWipeout
 90
        0
 10
33.886789178059992
 20
29.997541399579994
 30
0.0
 11
4.9614765896000002
 21
0.0
 31
0.0
 12
0.0
 22
4.9614765896000002
 32
0.0
 13
1.0
 23
1.0
340
0
 70
               7
280
               1
281
              50
282
              50
283
               0
360
0
 71
               2
 91
        5
 14
-0.5
 24
5.5464257881177597
 14
0.5000000000000007
 24
5.5464257881177597
 14
0.5000000000000007
 24
5.7739559539289447
 14
-0.5
 24
5.7739559539289447
 14
-0.5
 24
5.5464257881177597
  0
POLYLINE
  5
33F
100
AcDbEntity
  8
Dimension
370
               5
390
0
  6
Continuous
 62
               7
100
AcDb2dPolyline
 66
               1
 10
0.0
 20
0.0
 30
0.0
 70
               1
 75
               5
  0
VERTEX
  5
340
100
AcDbEntity
  8
Dimension
370
               5
390
0
  6
Continuous
 62
               7
100
AcDbVertex
100
AcDb2dVertex
 10
33.886789178059992
 20
4.9598179906799977
 30
0.0
  0
VERTEX
  5
341
100
AcDbEntity
  8
Dimension
370
               5
390
0
  6
Continuous
 62
               7
100
AcDbVertex
100
AcDb2dVertex
 10
38.848265767659996
 20
4.9598179906799977
 30
0.0
  0
VERTEX
  5
342
100
AcDbEntity
  8
Dimension
370
               5
390
0
  6
Continuous
 62
               7
100
AcDbVertex
100
AcDb2dVertex
 10
38.848265767659996
 20
3.8309323995799973
 30
0.0
  0
VERTEX
  5
343
100
AcDbEntity
  8
Dimension
370
               5
390
0
  6
Continuous
 62
               7
100
AcDbVertex
100
AcDb2dVertex
 10
33.886789178059992
 20
3.8309323995799973
 30
0.0
  0
SEQEND
  5
344
100
AcDbEntity
  8
Dimension
370
               5
390
0
  6
Continuous
 62
               7
  0
WIPEOUT
  5
345
100
AcDbEntity
  8
Dimension
370
               5
390
0
  6
Continuous
 62
               7
 92
        0
100
AcDbWipeout
 90
        0
 10
21.842931757059997
 20
28.868635808439997
 30
0.0
 11
9.0820814974600008
 21
0.0
 31
0.0
 12
0.0
 22
9.0820814974600008
 32
0.0
 13
1.0
 23
1.0
340
0
 70
               7
280
               1
281
              50
282
              50
283
               0
360
0
 71
               2
 91
        5
 14
-0.5
 24
3.2568243486762736
 14
0.4999999999999998
 24
3.2568243486762736
 14
0.4999999999999998
 24
3.3811246636927952
 14
-0.5
 24
3.3811246636927952
 14
-0.5
 24
3.2568243486762736
  0
POLYLINE
  5
346
100
AcDbEntity
  8
Dimension
370
               5
390
0
  6
Continuous
 62
               7
100
AcDb2dPolyline
 66
               1
 10
0.0
 20
0.0
 30
0.0
 70
               1
 75
               5
  0
VERTEX
  5
347
100
AcDbEntity
  8
Dimension
370
               5
390
0
  6
Continuous
 62
               7
100
AcDbVertex
100
AcDb2dVertex
 10
21.842931757059997
 20
3.8309323995799973
 30
0.0
  0
VERTEX
  5
348
100
AcDbEntity
  8
Dimension
370
               5
390
0
  6
Continuous
 62
               7
100
AcDbVertex
100
AcDb2dVertex
 10
30.925013254519996
 20
3.8309323995799973
 30
0.0
  0
VERTEX
  5
349
100
AcDbEntity
  8
Dimension
370
               5
390
0
  6
Continuous
 62
               7
100
AcDbVertex
100
AcDb2dVertex
 10
30.925013254519996
 20
2.7020268084399977
 30
0.0
  0
VERTEX
  5
34A
100
AcDbEntity
  8
Dimension
370
               5
390
0
  6
Continuous
 62
               7
100
AcDbVertex
100
AcDb2dVertex
 10
21.842931757059997
 20
2.7020268084399977
 30
0.0
  0
SEQEND
  5
34B
100
AcDbEntity
  8
Dimension
370
               5
390
0
  6
Continuous
 62
               7
  0
WIPEOUT
  5
34C
100
AcDbEntity
  8
Dimension
370
               5
390
0
  6
Continuous
 62
               7
 92
        0
100
AcDbWipeout
 90
        0
 10
30.925013254519996
 20
28.868635808439997
 30
0.0
 11
7.9232525131399996
 21
0.0
 31
0.0
 12
0.0
 22
7.9232525131399996
 32
0.0
 13
1.0
 23
1.0
340
0
 70
               7
280
               1
281
              50
282
              50
283
               0
360
0
 71
               2
 91
        5
 14
-0.5
 24
3.6600284564119629
 14
0.5
 24
3.6600284564119629
 14
0.5
 24
3.8025085287393074
 14
-0.5
 24
3.8025085287393074
 14
-0.5
 24
3.6600284564119629
  0
POLYLINE
  5
34D
100
AcDbEntity
  8
Dimension
370
               5
390
0
  6
Continuous
 62
               7
100
AcDb2dPolyline
 66
               1
 10
0.0
 20
0.0
 30
0.0
 70
               1
 75
               5
  0
VERTEX
  5
34E
100
AcDbEntity
  8
Dimension
370
               5
390
0
  6
Continuous
 62
               7
100
AcDbVertex
100
AcDb2dVertex
 10
30.925013254519996
 20
3.8309323995799973
 30
0.0
  0
VERTEX
  5
34F
100
AcDbEntity
  8
Dimension
370
               5
390
0
  6
Continuous
 62
               7
100
AcDbVertex
100
AcDb2dVertex
 10
38.848265767659996
 20
3.8309323995799973
 30
0.0
  0
VERTEX
  5
350
100
AcDbEntity
  8
Dimension
370
               5
390
0
  6
Continuous
 62
               7
100
AcDbVertex
100
AcDb2dVertex
 10
38.848265767659996
 20
2.7020268084399977
 30
0.0
  0
VERTEX
  5
351
100
AcDbEntity
  8
Dimension
370
               5
390
0
  6
Continuous
 62
               7
100
AcDbVertex
100
AcDb2dVertex
 10
30.925013254519996
 20
2.7020268084399977
 30
0.0
  0
SEQEND
  5
352
100
AcDbEntity
  8
Dimension
370
               5
390
0
  6
Continuous
 62
               7
  0
WIPEOUT
  5
353
100
AcDbEntity
  8
Dimension
370
               5
390
0
  6
Continuous
 62
               7
 92
        0
100
AcDbWipeout
 90
        0
 10
30.925013254519996
 20
27.739753550679996
 30
0.0
 11
7.9232525131399996
 21
0.0
 31
0.0
 12
0.0
 22
7.9232525131399996
 32
0.0
 13
1.0
 23
1.0
340
0
 70
               7
280
               1
281
              50
282
              50
283
               0
360
0
 71
               2
 91
        5
 14
-0.5
 24
3.6600314013364064
 14
0.5
 24
3.6600314013364064
 14
0.5
 24
3.802508528739307
 14
-0.5
 24
3.802508528739307
 14
-0.5
 24
3.6600314013364064
  0
POLYLINE
  5
354
100
AcDbEntity
  8
Dimension
370
               5
390
0
  6
Continuous
 62
               7
100
AcDb2dPolyline
 66
               1
 10
0.0
 20
0.0
 30
0.0
 70
               1
 75
               5
  0
VERTEX
  5
355
100
AcDbEntity
  8
Dimension
370
               5
390
0
  6
Continuous
 62
               7
100
AcDbVertex
100
AcDb2dVertex
 10
30.925013254519996
 20
2.7020268084399977
 30
0.0
  0
VERTEX
  5
356
100
AcDbEntity
  8
Dimension
370
               5
390
0
  6
Continuous
 62
               7
100
AcDbVertex
100
AcDb2dVertex
 10
38.848265767659996
 20
2.7020268084399977
 30
0.0
  0
VERTEX
  5
357
100
AcDbEntity
  8
Dimension
370
               5
390
0
  6
Continuous
 62
               7
100
AcDbVertex
100
AcDb2dVertex
 10
38.848265767659996
 20
1.5731445506799977
 30
0.0
  0
VERTEX
  5
358
100
AcDbEntity
  8
Dimension
370
               5
390
0
  6
Continuous
 62
               7
100
AcDbVertex
100
AcDb2dVertex
 10
30.925013254519996
 20
1.5731445506799977
 30
0.0
  0
SEQEND
  5
359
100
AcDbEntity
  8
Dimension
370
               5
390
0
  6
Continuous
 62
               7
  0
WIPEOUT
  5
35A
100
AcDbEntity
  8
Dimension
370
               5
390
0
  6
Continuous
 62
               7
 92
        0
100
AcDbWipeout
 90
        0
 10
21.842931757059997
 20
27.739753550679996
 30
0.0
 11
9.0820814974600008
 21
0.0
 31
0.0
 12
0.0
 22
9.0820814974600008
 32
0.0
 13
1.0
 23
1.0
340
0
 70
               7
280
               1
281
              50
282
              50
283
               0
360
0
 71
               2
 91
        5
 14
-0.5
 24
3.2568269178428242
 14
0.4999999999999998
 24
3.2568269178428242
 14
0.4999999999999998
 24
3.3811246636927947
 14
-0.5
 24
3.3811246636927947
 14
-0.5
 24
3.2568269178428242
  0
POLYLINE
  5
35B
100
AcDbEntity
  8
Dimension
370
               5
390
0
  6
Continuous
 62
               7
100
AcDb2dPolyline
 66
               1
 10
0.0
 20
0.0
 30
0.0
 70
               1
 75
               5
  0
VERTEX
  5
35C
100
AcDbEntity
  8
Dimension
370
               5
390
0
  6
Continuous
 62
               7
100
AcDbVertex
100
AcDb2dVertex
 10
21.842931757059997
 20
2.7020268084399977
 30
0.0
  0
VERTEX
  5
35D
100
AcDbEntity
  8
Dimension
370
               5
390
0
  6
Continuous
 62
               7
100
AcDbVertex
100
AcDb2dVertex
 10
30.925013254519996
 20
2.7020268084399977
 30
0.0
  0
VERTEX
  5
35E
100
AcDbEntity
  8
Dimension
370
               5
390
0
  6
Continuous
 62
               7
100
AcDbVertex
100
AcDb2dVertex
 10
30.925013254519996
 20
1.5731445506799977
 30
0.0
  0
VERTEX
  5
35F
100
AcDbEntity
  8
Dimension
370
               5
390
0
  6
Continuous
 62
               7
100
AcDbVertex
100
AcDb2dVertex
 10
21.842931757059997
 20
1.5731445506799977
 30
0.0
  0
SEQEND
  5
360
100
AcDbEntity
  8
Dimension
370
               5
390
0
  6
Continuous
 62
               7
  0
MTEXT
  5
361
100
AcDbEntity
  8
None
390
0
 62
               7
100
AcDbMText
 10
22.266265937059995
 20
4.6401845094004246
 30
0.0
 40
0.421068333454427
 41
0.0
 71
               1
 72
               1
  1
Status: Released
  7
Arial
 73
               1
 44
0.9673603504928809
  0
MTEXT
  5
362
100
AcDbEntity
  8
None
390
0
 62
               7
100
AcDbMText
 10
22.266265937059995
 20
3.5103455830604244
 30
0.0
 40
0.421068333454427
 41
0.0
 71
               1
 72
               1
  1
Drawing: H. Hansen
  7
Arial
 73
               1
 44
0.9673603504928809
  0
WIPEOUT
  5
363
100
AcDbEntity
  8
None
370
               5
390
0
  6
Continuous
 62
               7
 92
        0
100
AcDbWipeout
 90
        0
 10
29.355630115759997
 20
30.268064107290996
 30
0.0
 11
2.6282013157250725
 21
0.0
 31
0.0
 12
0.0
 22
2.6282013157250725
 32
0.0
 13
1.0
 23
1.0
340
0
 70
               7
280
               1
281
              50
282
              50
283
               0
360
0
 71
               2
 91
        5
 14
-0.5
 24
10.456090061838019
 14
0.4999999999999997
 24
10.456090061838019
 14
0.4999999999999997
 24
10.198819364344869
 14
-0.5
 24
10.198819364344869
 14
-0.5
 24
10.456090061838019
  0
MTEXT
  5
364
100
AcDbEntity
  8
None
390
0
 62
               7
100
AcDbMText
 10
29.355630115759997
 20
4.669514568060424
 30
0.0
 40
0.421068333454427
 41
0.0
 71
               1
 72
               1
  1
Scale: 6:1
  7
Arial
 73
               1
 44
0.9673603504928809
  0
MTEXT
  5
365
100
AcDbEntity
  8
None
390
0
 62
               7
100
AcDbMText
 10
34.310123358059997
 20
4.6392411741804249
 30
0.0
 40
0.421068333454427
 41
0.0
 71
               1
 72
               1
  1
Rev: B
  7
Arial
 73
               1
 44
0.9673603504928809
  0
MTEXT
  5
366
100
AcDbEntity
  8
None
390
0
 62
               7
100
AcDbMText
 10
31.348347434519994
 20
3.4164020618404245
 30
0.0
 40
0.421068333454427
 41
0.0
 71
               1
 72
               1
  1
Date: 2/21/05
  7
Arial
 73
               1
 44
0.9673603504928809
  0
MTEXT
  5
367
100
AcDbEntity
  8
None
390
0
 62
               7
100
AcDbMText
 10
22.222105848739997
 20
2.2965598586188309
 30
0.0
 40
0.2947471172708333
 41
9.0820814974600008
 71
               1
 72
               1
  1
File: SG-BGA-7031 Dwg
  7
Arial
 73
               1
 44
0.9673603504928808
  0
WIPEOUT
  5
368
100
AcDbEntity
  8
Dimension
370
               5
390
0
  6
Continuous
 62
               7
 92
        0
100
AcDbWipeout
 90
        0
 10
4.9730646840599952
 20
27.739753550679996
 30
0.0
 11
16.869867072999998
 21
0.0
 31
0.0
 12
0.0
 22
16.869867072999998
 32
0.0
 13
1.0
 23
1.0
340
0
 70
               7
280
               1
281
              50
282
              50
283
               0
360
0
 71
               2
 91
        5
 14
-0.5
 24
1.9172501210377499
 14
0.5000000000000002
 24
1.9172501210377499
 14
0.5000000000000002
 24
2.0510856657477352
 14
-0.5
 24
2.0510856657477352
 14
-0.5
 24
1.9172501210377499
  0
POLYLINE
  5
369
100
AcDbEntity
  8
Dimension
370
               5
390
0
  6
Continuous
 62
               7
100
AcDb2dPolyline
 66
               1
 10
0.0
 20
0.0
 30
0.0
 70
               1
 75
               5
  0
VERTEX
  5
36A
100
AcDbEntity
  8
Dimension
370
               5
390
0
  6
Continuous
 62
               7
100
AcDbVertex
100
AcDb2dVertex
 10
4.9730646840599952
 20
3.8309323995799973
 30
0.0
  0
VERTEX
  5
36B
100
AcDbEntity
  8
Dimension
370
               5
390
0
  6
Continuous
 62
               7
100
AcDbVertex
100
AcDb2dVertex
 10
21.842931757059997
 20
3.8309323995799973
 30
0.0
  0
VERTEX
  5
36C
100
AcDbEntity
  8
Dimension
370
               5
390
0
  6
Continuous
 62
               7
100
AcDbVertex
100
AcDb2dVertex
 10
21.842931757059997
 20
1.5731445506799977
 30
0.0
  0
VERTEX
  5
36D
100
AcDbEntity
  8
Dimension
370
               5
390
0
  6
Continuous
 62
               7
100
AcDbVertex
100
AcDb2dVertex
 10
4.9730646840599952
 20
1.5731445506799977
 30
0.0
  0
SEQEND
  5
36E
100
AcDbEntity
  8
Dimension
370
               5
390
0
  6
Continuous
 62
               7
  0
WIPEOUT
  5
36F
100
AcDbEntity
  8
Dimension
370
               5
390
0
  6
Continuous
 62
               7
 92
        0
100
AcDbWipeout
 90
        0
 10
4.9730646840599952
 20
29.997541399579994
 30
0.0
 11
16.869867072999998
 21
0.0
 31
0.0
 12
0.0
 22
16.869867072999998
 32
0.0
 13
1.0
 23
1.0
340
0
 70
               7
280
               1
281
              50
282
              50
283
               0
360
0
 71
               2
 91
        5
 14
-0.5
 24
1.9841683873711455
 14
0.5000000000000002
 24
1.9841683873711455
 14
0.5000000000000002
 24
2.0510856657477352
 14
-0.5
 24
2.0510856657477352
 14
-0.5
 24
1.9841683873711455
  0
POLYLINE
  5
370
100
AcDbEntity
  8
Dimension
370
               5
390
0
  6
Continuous
 62
               7
100
AcDb2dPolyline
 66
               1
 10
0.0
 20
0.0
 30
0.0
 70
               1
 75
               5
  0
VERTEX
  5
371
100
AcDbEntity
  8
Dimension
370
               5
390
0
  6
Continuous
 62
               7
100
AcDbVertex
100
AcDb2dVertex
 10
4.9730646840599952
 20
4.9598179906799977
 30
0.0
  0
VERTEX
  5
372
100
AcDbEntity
  8
Dimension
370
               5
390
0
  6
Continuous
 62
               7
100
AcDbVertex
100
AcDb2dVertex
 10
21.842931757059997
 20
4.9598179906799977
 30
0.0
  0
VERTEX
  5
373
100
AcDbEntity
  8
Dimension
370
               5
390
0
  6
Continuous
 62
               7
100
AcDbVertex
100
AcDb2dVertex
 10
21.842931757059997
 20
3.8309323995799973
 30
0.0
  0
VERTEX
  5
374
100
AcDbEntity
  8
Dimension
370
               5
390
0
  6
Continuous
 62
               7
100
AcDbVertex
100
AcDb2dVertex
 10
4.9730646840599952
 20
3.8309323995799973
 30
0.0
  0
SEQEND
  5
375
100
AcDbEntity
  8
Dimension
370
               5
390
0
  6
Continuous
 62
               7
  0
MTEXT
  5
376
100
AcDbEntity
  8
None
390
0
 62
               7
100
AcDbMText
 10
13.407998220559996
 20
4.6616214678992565
 30
0.0
 40
0.4911719892864582
 41
0.0
 71
               2
 72
               1
  1
SG-BGA-7031 Drawing
  7
Arial (bold)
 73
               1
 44
0.9925958378970426
  0
MTEXT
  5
377
100
AcDbEntity
  8
None
390
0
 62
               7
100
AcDbMText
 10
14.067742873379997
 20
3.6917716889674663
 30
0.0
 40
0.3349492376054687
 41
12.246117825519999
 71
               2
 72
               1
  1
© 2005 IRONWOOD ELECTRONICS, INC.\PPO BOX 21151 ST. PAUL, MN  55121\PTele: (651) 452-8100\Pwww.ironwoodelectronics.com
  7
Arial
 73
               1
 44
0.9673603504928806
  0
INSERT
  5
378
100
AcDbEntity
  8
None
390
0
 62
               7
100
AcDbBlockReference
  2
IE i logo
 10
6.7779382937999983
 20
2.7196801770799981
 30
0.0
 41
0.333334
 42
0.333334
 43
0.333334
  0
MTEXT
  5
379
100
AcDbEntity
  8
None
390
0
 62
               7
100
AcDbMText
 10
31.348347434519994
 20
2.3897900086204249
 30
0.0
 40
0.421068333454427
 41
0.0
 71
               1
 72
               1
  1
Modified: 05/29/08
  7
Arial
 73
               1
 44
0.9673603504928809
  0
WIPEOUT
  5
37A
100
AcDbEntity
  8
None
370
               9
390
0
  6
Continuous
 62
               7
 92
        0
100
AcDbWipeout
 90
        0
 10
40.509635757059996
 20
28.132881270267195
 30
0.0
 11
5.0705936365543165
 21
0.0
 31
0.0
 12
0.0
 22
5.0705936365543165
 32
0.0
 13
1.0
 23
1.0
340
0
 70
               7
280
               1
281
              50
282
              50
283
               0
360
0
 71
               2
 91
        5
 14
-0.5
 24
5.6604626352549356
 14
0.4999999999999994
 24
5.6604626352549356
 14
0.4999999999999994
 24
5.4689041947815138
 14
-0.5
 24
5.4689041947815138
 14
-0.5
 24
5.6604626352549356
  0
MTEXT
  5
37B
100
AcDbEntity
  8
None
390
0
 62
               7
100
AcDbMText
 10
40.509635757059996
 20
2.7615535830488644
 30
0.0
 40
0.5894942345416665
 41
0.0
 71
               1
 72
               1
  1
PAGE 2 OF 4
  7
Arial (bold)
 73
               1
 44
0.9925958378970429
  0
DIMENSION
  5
37C
100
AcDbEntity
  8
Dimension
370
               9
390
0
  6
Continuous
 62
              12
100
AcDbDimension
  2
*D3
 10
31.432141599999994
 20
23.902982599999994
 30
0.0
 11
34.331643272545669
 21
24.750077745421059
 31
0.0
 70
               3
 71
               5
 72
               1
 41
1.0
 42
0.0
  3
IE Standard
100
AcDbDiametricDimension
 15
31.687861599999994
 25
24.017022599999997
 35
0.0
 40
1.7998299999999998
1001
ACAD
1000
DSTYLE
1002
{
1070
             172
1070
               0
1070
             289
1070
               0
1070
             342
1005
4A
1070
             340
1005
2E
1070
              75
1070
               1
1070
              76
1070
               1
1070
               3
1000
mm (x225)
1070
             174
1070
               0
1070
             147
1040
0.066145965625
1002
}
  0
DIMENSION
  5
37D
100
AcDbEntity
  8
Dimension
370
               9
390
0
  6
Continuous
 62
              12
100
AcDbDimension
  2
*D4
 10
23.560001599999996
 20
30.500000000000004
 30
0.0
 11
27.300000000000001
 21
30.500000000000004
 31
0.0
 70
             128
 71
               5
 72
               1
 41
1.0
 42
0.0
  3
IE Standard
100
AcDbAlignedDimension
 13
31.560001599999996
 23
26.460002599999996
 33
0.0
 14
23.560001599999996
 24
26.460002599999996
 34
0.0
100
AcDbRotatedDimension
1001
ACAD
1000
DSTYLE
1002
{
1070
             340
1005
2E
1070
             147
1040
0.066145965625
1002
}
  0
DIMENSION
  5
37E
100
AcDbEntity
  8
Dimension
370
               9
390
0
  6
Continuous
 62
              12
100
AcDbDimension
  2
*D5
 10
18.505461599999997
 20
26.460002599999996
 30
0.0
 11
18.505461599999997
 21
22.460002599999999
 31
0.0
 70
             128
 71
               5
 72
               1
 41
1.0
 42
0.0
  3
IE Standard
100
AcDbAlignedDimension
 13
23.560001599999996
 23
18.460002599999996
 33
0.0
 14
23.560001599999996
 24
26.460002599999996
 34
0.0
 50
90.0
100
AcDbRotatedDimension
1001
ACAD
1000
DSTYLE
1002
{
1070
             340
1005
2E
1070
             147
1040
0.066145965625
1002
}
  0
DIMENSION
  5
37F
100
AcDbEntity
  8
Dimension
370
               9
390
0
  6
Continuous
 62
              12
100
AcDbDimension
  2
*D6
 10
27.060001599999996
 20
16.311925599999995
 30
0.0
 11
25.879421599999993
 21
16.311925599999995
 31
0.0
 70
             128
 71
               5
 72
               1
 41
1.0
 42
0.0
  3
IE Standard
100
AcDbAlignedDimension
 13
27.560001599999996
 23
18.460002599999996
 33
0.0
 14
27.060001599999996
 24
18.460002599999996
 34
0.0
100
AcDbRotatedDimension
1001
ACAD
1000
DSTYLE
1002
{
1070
             340
1005
2E
1070
               3
1000
<>mm typ.
1070
             174
1070
               0
1070
             147
1040
0.066145965625
1002
}
  0
POLYLINE
  5
380
100
AcDbEntity
  8
None
370
               9
390
0
  6
STYLE_12
 62
               7
100
AcDb2dPolyline
 66
               1
 10
0.0
 20
0.0
 30
0.0
 70
               1
 75
               5
  0
VERTEX
  5
381
100
AcDbEntity
  8
None
370
               9
390
0
  6
STYLE_12
 62
               7
100
AcDbVertex
100
AcDb2dVertex
 10
22.122502599999997
 20
27.647501599999995
 30
0.0
  0
VERTEX
  5
382
100
AcDbEntity
  8
None
370
               9
390
0
  6
STYLE_12
 62
               7
100
AcDbVertex
100
AcDb2dVertex
 10
32.497500599999995
 20
27.647501599999995
 30
0.0
  0
VERTEX
  5
383
100
AcDbEntity
  8
None
370
               9
390
0
  6
STYLE_12
 62
               7
100
AcDbVertex
100
AcDb2dVertex
 10
32.497500599999995
 20
17.272503599999997
 30
0.0
  0
VERTEX
  5
384
100
AcDbEntity
  8
None
370
               9
390
0
  6
STYLE_12
 62
               7
100
AcDbVertex
100
AcDb2dVertex
 10
22.122502599999997
 20
17.272503599999997
 30
0.0
  0
SEQEND
  5
385
100
AcDbEntity
  8
None
370
               9
390
0
  6
STYLE_12
 62
               7
  0
INSERT
  5
386
100
AcDbEntity
  8
None
390
0
 62
               7
100
AcDbBlockReference
  2
Group
 10
26.764411599999995
 20
0.5978025999999977
 30
0.0
  0
DIMENSION
  5
387
100
AcDbEntity
  8
Dimension
370
               9
390
0
  6
Continuous
 62
              12
100
AcDbDimension
  2
*D8
 10
20.780000000000001
 20
26.460002599999996
 30
0.0
 11
20.780000000000001
 21
27.053752099999993
 31
0.0
 71
               5
 72
               1
 41
1.0
 42
0.0
  3
IE Standard
100
AcDbAlignedDimension
 13
22.122502599999997
 23
27.647501599999995
 33
0.0
 14
23.560001599999996
 24
26.460002599999996
 34
0.0
 50
90.0
100
AcDbRotatedDimension
1001
ACAD
1000
DSTYLE
1002
{
1070
             271
1070
               4
1070
             340
1005
2E
1070
             140
1040
0.4210680682146991
1070
             147
1040
0.066145965625
1002
}
  0
DIMENSION
  5
388
100
AcDbEntity
  8
Dimension
370
               9
390
0
  6
Continuous
 62
              12
100
AcDbDimension
  2
*D9
 10
23.560001599999996
 20
29.250000000000004
 30
0.0
 11
24.523086922301342
 21
29.250000000000004
 31
0.0
 70
             128
 71
               5
 72
               1
 41
1.0
 42
0.0
  3
IE Standard
100
AcDbAlignedDimension
 13
22.122502599999997
 23
27.647501599999995
 33
0.0
 14
23.560001599999996
 24
26.460002599999996
 34
0.0
100
AcDbRotatedDimension
1001
ACAD
1000
DSTYLE
1002
{
1070
             271
1070
               4
1070
             340
1005
2E
1070
             140
1040
0.4210680682146991
1070
             174
1070
               0
1070
             147
1040
0.066145965625
1002
}
  0
DIMENSION
  5
389
100
AcDbEntity
  8
Dimension
370
               9
390
0
  6
Continuous
 62
              12
100
AcDbDimension
  2
*D10
 10
20.780000000000001
 20
18.460002599999996
 30
0.0
 11
20.780000000000001
 21
17.866253099999998
 31
0.0
 71
               5
 72
               1
 41
1.0
 42
0.0
  3
IE Standard
100
AcDbAlignedDimension
 13
22.122502599999997
 23
17.272503599999997
 33
0.0
 14
23.560001599999996
 24
18.460002599999996
 34
0.0
 50
90.0
100
AcDbRotatedDimension
1001
ACAD
1000
DSTYLE
1002
{
1070
             340
1005
2E
1070
             140
1040
0.4210680682146991
1070
             147
1040
0.066145965625
1002
}
  0
DIMENSION
  5
38A
100
AcDbEntity
  8
Dimension
370
               9
390
0
  6
Continuous
 62
              12
100
AcDbDimension
  2
*D11
 10
31.560001599999996
 20
28.470232408968691
 30
0.0
 11
30.399394878658907
 21
28.470232408968691
 31
0.0
 70
             128
 71
               5
 72
               1
 41
1.0
 42
0.0
  3
IE Standard
100
AcDbAlignedDimension
 13
32.497500599999995
 23
27.647501599999995
 33
0.0
 14
31.560001599999996
 24
26.460002599999996
 34
0.0
100
AcDbRotatedDimension
1001
ACAD
1000
DSTYLE
1002
{
1070
             340
1005
2E
1070
             140
1040
0.4210680682146991
1070
             174
1070
               0
1070
             147
1040
0.066145965625
1002
}
  0
WIPEOUT
  5
38B
100
AcDbEntity
  8
None
370
               9
390
0
  6
Continuous
 62
              12
 92
        0
100
AcDbWipeout
 90
        0
 10
34.399999999999999
 20
47.115917125607908
 30
0.0
 11
3.6100999024939862
 21
0.0
 31
0.0
 12
0.0
 22
3.6100999024939862
 32
0.0
 13
1.0
 23
1.0
340
0
 70
               7
280
               1
281
              50
282
              50
283
               0
360
0
 71
               2
 91
        5
 14
-0.5
 24
7.7481675595523463
 14
0.5000000000000018
 24
7.7481675595523463
 14
0.5000000000000018
 24
7.5608711472688217
 14
-0.5
 24
7.5608711472688217
 14
-0.5
 24
7.7481675595523463
  0
MTEXT
  5
38C
100
AcDbEntity
  8
None
390
0
 62
              12
100
AcDbMText
 10
34.399999999999999
 20
21.517367228544835
 30
0.0
 40
0.4210680682146991
 41
0.0
 71
               1
 72
               1
  1
socket outline
  7
Arial
 73
               1
 44
0.9673603504928806
  0
LINE
  5
38D
100
AcDbEntity
  8
None
370
               9
390
0
  6
Continuous
 62
              12
100
AcDbLine
 10
34.399999999999999
 20
21.287387505469024
 30
0.0
 11
32.497500599999995
 21
21.287387505469024
 31
0.0
  0
SOLID
  5
38E
100
AcDbEntity
  8
None
370
               9
390
0
 62
              12
100
AcDbTrace
 10
32.497500599999995
 20
21.287387505469024
 30
0.0
 11
32.836240291149899
 21
21.378152532157007
 31
0.0
 12
32.836240291149899
 22
21.196622478781041
 32
0.0
 13
32.836240291149899
 23
21.196622478781041
 33
0.0
  0
ENDSEC
  0
SECTION
  2
OBJECTS
  0
DICTIONARY
  5
19
100
AcDbDictionary
280
               0
281
               1
  3
ACAD_GROUP
350
1A
  3
ACAD_MLINESTYLE
350
1B
  3
ACAD_LAYOUT
350
1E
  3
ACAD_PLOTSETTINGS
350
22
  3
ACAD_PLOTSTYLENAME
350
1F
  3
ACAD_WIPEOUT_VARS
350
23
  0
DICTIONARY
  5
1A
102
{ACAD_REACTORS
330
19
102
}
100
AcDbDictionary
280
               0
281
               1
  0
DICTIONARY
  5
1B
102
{ACAD_REACTORS
330
19
102
}
100
AcDbDictionary
280
               0
281
               1
  3
Standard
350
1C
  0
MLINESTYLE
  5
1C
102
{ACAD_REACTORS
330
1B
102
}
100
AcDbMlineStyle
  2
Standard
 70
               0
  3

 62
               0
 51
90.0
 52
90.0
 71
               2
 49
0.5
 62
             256
  6
ByLayer
 49
-0.5
 62
             256
  6
ByLayer
  0
ACDBDICTIONARYWDFLT
  5
1F
102
{ACAD_REACTORS
330
19
102
}
100
AcDbDictionary
281
               1
  3
Normal
350
1D
100
AcDbDictionaryWithDefault
340
1D
  0
ACDBPLACEHOLDER
  5
1D
102
{ACAD_REACTORS
330
1F
102
}
  0
LAYOUT
  5
20
102
{ACAD_REACTORS
330
1E
102
}
100
AcDbPlotSettings
  1

  2

  4

  6

 40
0.0
 41
0.0
 42
0.0
 43
0.0
 44
0.0
 45
0.0
 46
0.0
 47
0.0
 48
0.0
 49
0.0
140
0.0
141
0.0
142
1.0
143
1.0
 70
            1024
 72
               0
 73
               0
 74
               0
  7

 75
               0
147
1.0
148
0.0
149
0.0
100
AcDbLayout
  1
Model
 70
               0
 71
               0
 10
0.0
 20
0.0
 11
0.0
 21
0.0
 12
0.0
 22
0.0
 32
0.0
 14
0.0
 24
0.0
 34
0.0
 15
0.0
 25
0.0
 35
0.0
146
0.0
 13
0.0
 23
0.0
 33
0.0
 16
0.0
 26
0.0
 36
0.0
 17
0.0
 27
0.0
 37
0.0
 76
               0
330
A
331
0
345
0
346
0
  0
LAYOUT
  5
21
102
{ACAD_REACTORS
330
1E
102
}
100
AcDbPlotSettings
  1

  2

  4

  6

 40
0.0
 41
0.0
 42
0.0
 43
0.0
 44
0.0
 45
0.0
 46
0.0
 47
0.0
 48
0.0
 49
0.0
140
0.0
141
0.0
142
1.0
143
1.0
 70
               0
 72
               0
 73
               0
 74
               0
  7

 75
               0
147
1.0
148
0.0
149
0.0
100
AcDbLayout
  1
Layout1
 70
               0
 71
               0
 10
0.0
 20
0.0
 11
0.0
 21
0.0
 12
0.0
 22
0.0
 32
0.0
 14
0.0
 24
0.0
 34
0.0
 15
0.0
 25
0.0
 35
0.0
146
0.0
 13
0.0
 23
0.0
 33
0.0
 16
0.0
 26
0.0
 36
0.0
 17
0.0
 27
0.0
 37
0.0
 76
               0
330
B
331
0
345
0
346
0
  0
DICTIONARY
  5
1E
102
{ACAD_REACTORS
330
19
102
}
100
AcDbDictionary
280
               0
281
               1
  3
Layout1
350
21
  3
Model
350
20
  0
DICTIONARY
  5
22
102
{ACAD_REACTORS
330
19
102
}
100
AcDbDictionary
280
               0
281
               1
  0
WIPEOUTVARIABLES
  5
23
100
AcDbWipeoutVariables
 70
               0
  0
ENDSEC
  0
EOF
