  0
SECTION
  2
HEADER
  9
$ACADVER
  1
AC1015
  9
$ACADMAINTVER
 70
               6
  9
$DWGCODEPAGE
  3
ANSI_1252
  9
$INSBASE
 10
0.0
 20
0.0
 30
0.0
  9
$EXTMIN
 10
-5.8725434000000014
 20
-154.05115739999999
 30
-1.030111111111111
  9
$EXTMAX
 10
59.093031599999989
 20
-105.41778739999999
 30
1.030111111111111
  9
$LIMMIN
 10
0.0
 20
0.0
  9
$LIMMAX
 10
0.0
 20
0.0
  9
$ORTHOMODE
 70
               0
  9
$REGENMODE
 70
               1
  9
$FILLMODE
 70
               1
  9
$QTEXTMODE
 70
               0
  9
$MIRRTEXT
 70
               1
  9
$LTSCALE
 40
3.1749999999999998
  9
$ATTMODE
 70
               1
  9
$TEXTSIZE
 40
0.2
  9
$TRACEWID
 40
1.0
  9
$TEXTSTYLE
  7
Standard
  9
$CLAYER
  8
None
  9
$CELTYPE
  6
Continuous
  9
$CECOLOR
 62
             256
  9
$CELTSCALE
 40
1.0
  9
$DISPSILH
 70
               0
  9
$DIMSCALE
 40
1.0
  9
$DIMASZ
 40
0.79375
  9
$DIMEXO
 40
0.4762500011827797
  9
$DIMDLI
 40
6.9999859934672708
  9
$DIMRND
 40
0.0
  9
$DIMDLE
 40
0.0
  9
$DIMEXE
 40
0.9525000023655593
  9
$DIMTP
 40
0.0
  9
$DIMTM
 40
0.0
  9
$DIMTXT
 40
0.6315976562499999
  9
$DIMCEN
 40
0.0
  9
$DIMTSZ
 40
0.0
  9
$DIMTOL
 70
               0
  9
$DIMLIM
 70
               0
  9
$DIMTIH
 70
               1
  9
$DIMTOH
 70
               1
  9
$DIMSE1
 70
               0
  9
$DIMSE2
 70
               0
  9
$DIMTAD
 70
               0
  9
$DIMZIN
 70
              11
  9
$DIMBLK
  1
VW_FILLEDARROW
  9
$DIMASO
 70
               1
  9
$DIMSHO
 70
               1
  9
$DIMPOST
  1
<>mm
  9
$DIMAPOST
  1
[]"
  9
$DIMALT
 70
               0
  9
$DIMALTD
 70
               3
  9
$DIMALTF
 40
0.0393700787401575
  9
$DIMLFAC
 40
1.0
  9
$DIMTOFL
 70
               1
  9
$DIMTVP
 40
0.0
  9
$DIMTIX
 70
               1
  9
$DIMSOXD
 70
               0
  9
$DIMSAH
 70
               0
  9
$DIMBLK1
  1

  9
$DIMBLK2
  1

  9
$DIMSTYLE
  2
IE Standard
  9
$DIMCLRD
 70
               0
  9
$DIMCLRE
 70
               0
  9
$DIMCLRT
 70
               0
  9
$DIMTFAC
 40
1.0
  9
$DIMGAP
 40
0.0
  9
$DIMJUST
 70
               0
  9
$DIMSD1
 70
               0
  9
$DIMSD2
 70
               0
  9
$DIMTOLJ
 70
               1
  9
$DIMTZIN
 70
              11
  9
$DIMALTZ
 70
               3
  9
$DIMALTTZ
 70
               3
  9
$DIMUPT
 70
               0
  9
$DIMDEC
 70
               2
  9
$DIMTDEC
 70
               2
  9
$DIMALTU
 70
               2
  9
$DIMALTTD
 70
               2
  9
$DIMTXSTY
  7
Helvetica
  9
$DIMAUNIT
 70
               0
  9
$DIMADEC
 70
               0
  9
$DIMALTRND
 40
0.0
  9
$DIMAZIN
 70
               0
  9
$DIMDSEP
 70
              46
  9
$DIMATFIT
 70
               0
  9
$DIMFRAC
 70
               2
  9
$DIMLDRBLK
  1

  9
$DIMLUNIT
 70
               2
  9
$DIMLWD
 70
              -2
  9
$DIMLWE
 70
              -2
  9
$DIMTMOVE
 70
               0
  9
$LUNITS
 70
               2
  9
$LUPREC
 70
               4
  9
$SKETCHINC
 40
0.1
  9
$FILLETRAD
 40
0.0
  9
$AUNITS
 70
               0
  9
$AUPREC
 70
               0
  9
$MENU
  1
acad
  9
$ELEVATION
 40
0.0
  9
$PELEVATION
 40
0.0
  9
$THICKNESS
 40
0.0
  9
$LIMCHECK
 70
               0
  9
$CHAMFERA
 40
0.0
  9
$CHAMFERB
 40
0.0
  9
$CHAMFERC
 40
0.0
  9
$CHAMFERD
 40
0.0
  9
$SKPOLY
 70
               0
  9
$TDCREATE
 40
2454679.546261574
  9
$TDUCREATE
 40
0.000000000
  9
$TDUPDATE
 40
2454679.546261574
  9
$TDUUPDATE
 40
0.000000000
  9
$TDINDWG
 40
0.0000000000
  9
$TDUSRTIMER
 40
0.0000000000
  9
$USRTIMER
 70
               1
  9
$ANGBASE
 50
0.0
  9
$ANGDIR
 70
               0
  9
$PDMODE
 70
               1
  9
$PDSIZE
 40
-2.0
  9
$PLINEWID
 40
0.0
  9
$SPLFRAME
 70
               0
  9
$SPLINETYPE
 70
               6
  9
$SPLINESEGS
 70
               8
  9
$HANDSEED
  5
367
  9
$SURFTAB1
 70
               6
  9
$SURFTAB2
 70
               6
  9
$SURFTYPE
 70
               6
  9
$SURFU
 70
               6
  9
$SURFV
 70
               6
  9
$UCSBASE
  2

  9
$UCSNAME
  2

  9
$UCSORG
 10
0.0
 20
0.0
 30
0.0
  9
$UCSXDIR
 10
1.0
 20
0.0
 30
0.0
  9
$UCSYDIR
 10
0.0
 20
1.0
 30
0.0
  9
$UCSORTHOREF
  2

  9
$UCSORTHOVIEW
 70
               0
  9
$UCSORGTOP
 10
0.0
 20
0.0
 30
0.0
  9
$UCSORGBOTTOM
 10
0.0
 20
0.0
 30
0.0
  9
$UCSORGLEFT
 10
0.0
 20
0.0
 30
0.0
  9
$UCSORGRIGHT
 10
0.0
 20
0.0
 30
0.0
  9
$UCSORGFRONT
 10
0.0
 20
0.0
 30
0.0
  9
$UCSORGBACK
 10
0.0
 20
0.0
 30
0.0
  9
$PUCSBASE
  2

  9
$PUCSNAME
  2

  9
$PUCSORG
 10
0.0
 20
0.0
 30
0.0
  9
$PUCSXDIR
 10
1.0
 20
0.0
 30
0.0
  9
$PUCSYDIR
 10
0.0
 20
1.0
 30
0.0
  9
$PUCSORTHOREF
  2

  9
$PUCSORTHOVIEW
 70
               0
  9
$PUCSORGTOP
 10
0.0
 20
0.0
 30
0.0
  9
$PUCSORGBOTTOM
 10
0.0
 20
0.0
 30
0.0
  9
$PUCSORGLEFT
 10
0.0
 20
0.0
 30
0.0
  9
$PUCSORGRIGHT
 10
0.0
 20
0.0
 30
0.0
  9
$PUCSORGFRONT
 10
0.0
 20
0.0
 30
0.0
  9
$PUCSORGBACK
 10
0.0
 20
0.0
 30
0.0
  9
$USERI1
 70
               0
  9
$USERI2
 70
               0
  9
$USERI3
 70
               0
  9
$USERI4
 70
               0
  9
$USERI5
 70
               0
  9
$USERR1
 40
0.0
  9
$USERR2
 40
0.0
  9
$USERR3
 40
0.0
  9
$USERR4
 40
0.0
  9
$USERR5
 40
0.0
  9
$WORLDVIEW
 70
               1
  9
$SHADEDGE
 70
               3
  9
$SHADEDIF
 70
              70
  9
$TILEMODE
 70
               1
  9
$MAXACTVP
 70
              64
  9
$PINSBASE
 10
0.0
 20
0.0
 30
0.0
  9
$PLIMCHECK
 70
               0
  9
$PEXTMIN
 10
1.0000000000000000E+20
 20
1.0000000000000000E+20
 30
1.0000000000000000E+20
  9
$PEXTMAX
 10
-1.0000000000000000E+20
 20
-1.0000000000000000E+20
 30
-1.0000000000000000E+20
  9
$PLIMMIN
 10
0.0
 20
0.0
  9
$PLIMMAX
 10
12.0
 20
9.0
  9
$UNITMODE
 70
               0
  9
$VISRETAIN
 70
               0
  9
$PLINEGEN
 70
               1
  9
$PSLTSCALE
 70
               0
  9
$TREEDEPTH
 70
            3020
  9
$CMLSTYLE
  2
Standard
  9
$CMLJUST
 70
               0
  9
$CMLSCALE
 40
1.0
  9
$PROXYGRAPHICS
 70
               0
  9
$MEASUREMENT
 70
               1
  9
$CELWEIGHT
370
               0
  9
$ENDCAPS
280
               0
  9
$JOINSTYLE
280
               0
  9
$LWDISPLAY
290
               1
  9
$INSUNITS
 70
               4
  9
$HYPERLINKBASE
  1

  9
$STYLESHEET
  1

  9
$XEDIT
290
               1
  9
$CEPSNTYPE
380
               0
  9
$PSTYLEMODE
290
               1
  9
$FINGERPRINTGUID
  2

  9
$VERSIONGUID
  2

  9
$EXTNAMES
290
               1
  9
$PSVPSCALE
 40
0.0
  0
ENDSEC
  0
SECTION
  2
CLASSES
  0
CLASS
  1
LWPOLYLINE
  2
AcDbPolyline
  3
AutoCAD 2000
 90
        0
280
               0
281
               1
  0
CLASS
  1
IMAGE
  2
AcDbRasterImage
  3
ISM
 90
      127
280
               0
281
               1
  0
CLASS
  1
OLE2FRAME
  2
AcDbOle2Frame
  3
AutoCAD 2000
 90
        0
280
               0
281
               1
  0
CLASS
  1
HATCH
  2
AcDbHatch
  3
AutoCAD 2000
 90
        0
280
               0
281
               1
  0
CLASS
  1
DICTIONARYVAR
  2
AcDbDictionaryVar
  3
AutoCAD 2000
 90
        0
280
               0
281
               0
  0
CLASS
  1
RASTERVARIABLES
  2
AcDbRasterVariables
  3
ISM
 90
        0
280
               0
281
               0
  0
CLASS
  1
IMAGEDEF
  2
AcDbRasterImageDef
  3
ISM
 90
        0
280
               0
281
               0
  0
CLASS
  1
IMAGEDEF_REACTOR
  2
AcDbRasterImageDefReactor
  3
ISM
 90
        1
280
               0
281
               0
  0
CLASS
  1
IDBUFFER
  2
AcDbIdBuffer
  3
AutoCAD 2000
 90
        0
280
               0
281
               0
  0
CLASS
  1
SPATIAL_FILTER
  2
AcDbSpatialFilter
  3
AutoCAD 2000
 90
        0
280
               0
281
               0
  0
CLASS
  1
XRECORD
  2
AcDbXrecord
  3
AutoCAD 2000
 90
        0
280
               0
281
               0
  0
CLASS
  1
SORTENTSTABLE
  2
AcDbSortentsTable
  3
AutoCAD 2000
 90
        0
280
               0
281
               0
  0
CLASS
  1
LAYER_INDEX
  2
AcDbLayerIndex
  3
AutoCAD 2000
 90
        0
280
               0
281
               0
  0
CLASS
  1
SPATIAL_INDEX
  2
AcDbSpatialIndex
  3
AutoCAD 2000
 90
        0
280
               0
281
               0
  0
CLASS
  1
OBJECT_PTR
  2
CAseDLPNTableRecord
  3
"ASE-LPNTableRecord"
 90
        1
280
               0
281
               0
  0
CLASS
  1
LAYOUT
  2
AcDbLayout
  3
AutoCAD 2000
 90
        0
280
               0
281
               0
  0
CLASS
  1
PLOTSETTINGS
  2
AcDbPlotSettings
  3
AutoCAD 2000
 90
        0
280
               0
281
               0
  0
CLASS
  1
ACDBDICTIONARYWDFLT
  2
AcDbDictionaryWithDefault
  3
AutoCAD 2000
 90
        0
280
               0
281
               0
  0
CLASS
  1
ACDBPLACEHOLDER
  2
AcDbPlaceHolder
  3
AutoCAD 2000
 90
        0
280
               0
281
               0
  0
CLASS
  1
VBA_PROJECT
  2
AcDbVbaProject
  3
acadvba
 90
        0
280
               0
281
               0
  0
CLASS
  1
WIPEOUT
  2
AcDbWipeout
  3
WipeOut|AutoCAD Express Tool|expresstools@autodesk.com
 90
      127
280
               0
281
               1
  0
CLASS
  1
WIPEOUTVARIABLES
  2
AcDbWipeoutVariables
  3
WipeOut|AutoCAD Express Tool|expresstools@autodesk.com
 90
        0
280
               0
281
               0
  0
CLASS
  1
RTEXT
  2
RText
  3
RText|AutoCAD Express Tool|expresstools@autodesk.com
 90
        0
280
               0
281
               1
  0
CLASS
  1
ARCALIGNEDTEXT
  2
AcDbArcAlignedText
  3
ATEXT|AutoCAD Express Tool|expresstools@autodesk.com
 90
        0
280
               0
281
               1
  0
ENDSEC
  0
SECTION
  2
TABLES
  0
TABLE
  2
VPORT
  5
7
100
AcDbSymbolTable
 70
               1
  0
VPORT
  5
15
100
AcDbSymbolTableRecord
100
AcDbViewportTableRecord
  2
*ACTIVE
 70
               0
 10
0.0
 20
0.0
 11
1.0
 21
1.0
 12
26.610244099999992
 22
-129.73447239999999
 13
0.0
 23
0.0
 14
1.0
 24
1.0
 15
0.0
 25
0.0
 16
0.0
 26
0.0
 36
1.0
 17
0.0
 27
0.0
 37
0.0
 40
48.633369999999999
 41
0.688564
 42
50.0
 43
0.0
 44
0.0
 50
0.0
 51
0.0
 71
               0
 72
            2000
 73
               1
 74
               1
 75
               0
 76
               0
 77
               0
 78
               0
281
               0
 65
               0
110
0.0
120
0.0
130
0.0
111
1.0
121
0.0
131
0.0
112
0.0
122
1.0
132
0.0
345
0
346
0
 79
               0
146
0.0
  0
ENDTAB
  0
TABLE
  2
LTYPE
  5
4
100
AcDbSymbolTable
 70
              27
  0
LTYPE
  5
11
100
AcDbSymbolTableRecord
100
AcDbLinetypeTableRecord
  2
ByBlock
 70
              64
  3

 72
              65
 73
               0
 40
0.0
  0
LTYPE
  5
12
100
AcDbSymbolTableRecord
100
AcDbLinetypeTableRecord
  2
ByLayer
 70
              64
  3

 72
              65
 73
               0
 40
0.0
  0
LTYPE
  5
13
100
AcDbSymbolTableRecord
100
AcDbLinetypeTableRecord
  2
Continuous
 70
              64
  3
Solid line
 72
              65
 73
               0
 40
0.0
  0
LTYPE
  5
3E
100
AcDbSymbolTableRecord
100
AcDbLinetypeTableRecord
  2
STYLE_01
 70
               0
  3

 72
              65
 73
               2
 40
3.0
 49
2.0
 74
               0
 49
-1.0
 74
               0
  0
LTYPE
  5
3F
100
AcDbSymbolTableRecord
100
AcDbLinetypeTableRecord
  2
STYLE_02
 70
               0
  3

 72
              65
 73
               2
 40
1.5
 49
1.0
 74
               0
 49
-0.5
 74
               0
  0
LTYPE
  5
40
100
AcDbSymbolTableRecord
100
AcDbLinetypeTableRecord
  2
STYLE_03
 70
               0
  3

 72
              65
 73
               4
 40
8.0
 49
0.5
 74
               0
 49
-1.0
 74
               0
 49
1.0
 74
               0
 49
-1.0
 74
               0
  0
LTYPE
  5
41
100
AcDbSymbolTableRecord
100
AcDbLinetypeTableRecord
  2
STYLE_04
 70
               0
  3

 72
              65
 73
               4
 40
10.0
 49
5.0
 74
               0
 49
-1.0
 74
               0
 49
1.0
 74
               0
 49
-1.0
 74
               0
  0
LTYPE
  5
42
100
AcDbSymbolTableRecord
100
AcDbLinetypeTableRecord
  2
STYLE_05
 70
               0
  3

 72
              65
 73
               2
 40
1.0
 49
0.0002
 74
               0
 49
-0.9998
 74
               0
  0
LTYPE
  5
43
100
AcDbSymbolTableRecord
100
AcDbLinetypeTableRecord
  2
STYLE_06
 70
               0
  3

 72
              65
 73
               4
 40
4.0
 49
2.0
 74
               0
 49
-1.0
 74
               0
 49
0.0002
 74
               0
 49
-0.9998
 74
               0
  0
LTYPE
  5
44
100
AcDbSymbolTableRecord
100
AcDbLinetypeTableRecord
  2
STYLE_07
 70
               0
  3

 72
              65
 73
               6
 40
7.0
 49
2.0
 74
               0
 49
-1.0
 74
               0
 49
2.0
 74
               0
 49
-1.0
 74
               0
 49
0.0002000000000004
 74
               0
 49
-0.9997999999999996
 74
               0
  0
LTYPE
  5
45
100
AcDbSymbolTableRecord
100
AcDbLinetypeTableRecord
  2
STYLE_08
 70
               0
  3

 72
              65
 73
               6
 40
5.0
 49
2.0
 74
               0
 49
-1.0
 74
               0
 49
0.0002
 74
               0
 49
-0.9998
 74
               0
 49
0.0002000000000004
 74
               0
 49
-0.9997999999999996
 74
               0
  0
LTYPE
  5
46
100
AcDbSymbolTableRecord
100
AcDbLinetypeTableRecord
  2
STYLE_09
 70
               0
  3

 72
              65
 73
               2
 40
0.1944580078125
 49
0.111114501953125
 74
               0
 49
-0.083343505859375
 74
               0
  0
LTYPE
  5
47
100
AcDbSymbolTableRecord
100
AcDbLinetypeTableRecord
  2
STYLE_10
 70
               0
  3

 72
              65
 73
               4
 40
1.1944580078125
 49
0.611114501953125
 74
               0
 49
-0.3055419921875
 74
               0
 49
0.02777099609375
 74
               0
 49
-0.250030517578125
 74
               0
  0
LTYPE
  5
48
100
AcDbSymbolTableRecord
100
AcDbLinetypeTableRecord
  2
STYLE_11
 70
               0
  3

 72
              65
 73
               4
 40
0.861114501953125
 49
0.47222900390625
 74
               0
 49
-0.166656494140625
 74
               0
 49
0.02777099609375
 74
               0
 49
-0.1944580078125
 74
               0
  0
LTYPE
  5
49
100
AcDbSymbolTableRecord
100
AcDbLinetypeTableRecord
  2
STYLE_12
 70
               0
  3

 72
              65
 73
               2
 40
0.166656494140625
 49
0.111114501953125
 74
               0
 49
-0.0555419921875
 74
               0
  0
LTYPE
  5
4A
100
AcDbSymbolTableRecord
100
AcDbLinetypeTableRecord
  2
STYLE_13
 70
               0
  3

 72
              65
 73
               4
 40
0.13702392578125
 49
0.085662841796875
 74
               0
 49
-0.017120361328125
 74
               0
 49
0.017120361328125
 74
               0
 49
-0.017120361328125
 74
               0
  0
LTYPE
  5
4B
100
AcDbSymbolTableRecord
100
AcDbLinetypeTableRecord
  2
STYLE_14
 70
               0
  3

 72
              65
 73
               2
 40
0.0513916015625
 49
0.034271240234375
 74
               0
 49
-0.017120361328125
 74
               0
  0
LTYPE
  5
4C
100
AcDbSymbolTableRecord
100
AcDbLinetypeTableRecord
  2
STYLE_15
 70
               0
  3

 72
              65
 73
               6
 40
0.1712646484375
 49
0.085662841796875
 74
               0
 49
-0.017120361328125
 74
               0
 49
0.017120361328125
 74
               0
 49
-0.017120361328125
 74
               0
 49
0.017120361328125
 74
               0
 49
-0.017120361328125
 74
               0
  0
LTYPE
  5
4D
100
AcDbSymbolTableRecord
100
AcDbLinetypeTableRecord
  2
STYLE_16
 70
               0
  3

 72
              65
 73
               2
 40
0.75
 49
0.5
 74
               0
 49
-0.25
 74
               0
  0
LTYPE
  5
4E
100
AcDbSymbolTableRecord
100
AcDbLinetypeTableRecord
  2
STYLE_17
 70
               0
  3

 72
              65
 73
               4
 40
0.416656494140625
 49
0.25
 74
               0
 49
-0.08331298828125
 74
               0
 49
0.02777099609375
 74
               0
 49
-0.055572509765625
 74
               0
  0
LTYPE
  5
4F
100
AcDbSymbolTableRecord
100
AcDbLinetypeTableRecord
  2
STYLE_18
 70
               0
  3

 72
              65
 73
               6
 40
0.75
 49
0.25
 74
               0
 49
-0.08331298828125
 74
               0
 49
0.25
 74
               0
 49
-0.083343505859375
 74
               0
 49
0.02777099609375
 74
               0
 49
-0.055572509765625
 74
               0
  0
LTYPE
  5
50
100
AcDbSymbolTableRecord
100
AcDbLinetypeTableRecord
  2
STYLE_19
 70
               0
  3

 72
              65
 73
               6
 40
0.5
 49
0.25
 74
               0
 49
-0.08331298828125
 74
               0
 49
0.02777099609375
 74
               0
 49
-0.055572509765625
 74
               0
 49
0.02777099609375
 74
               0
 49
-0.055572509765625
 74
               0
  0
LTYPE
  5
51
100
AcDbSymbolTableRecord
100
AcDbLinetypeTableRecord
  2
STYLE_20
 70
               0
  3

 72
              65
 73
               4
 40
0.52777099609375
 49
0.27777099609375
 74
               0
 49
-0.083343505859375
 74
               0
 49
0.0555419921875
 74
               0
 49
-0.111114501953125
 74
               0
  0
LTYPE
  5
52
100
AcDbSymbolTableRecord
100
AcDbLinetypeTableRecord
  2
STYLE_21
 70
               0
  3

 72
              65
 73
               2
 40
0.138885498046875
 49
0.083343505859375
 74
               0
 49
-0.0555419921875
 74
               0
  0
LTYPE
  5
53
100
AcDbSymbolTableRecord
100
AcDbLinetypeTableRecord
  2
STYLE_22
 70
               0
  3

 72
              65
 73
               2
 40
0.166656494140625
 49
0.08331298828125
 74
               0
 49
-0.083343505859375
 74
               0
  0
LTYPE
  5
54
100
AcDbSymbolTableRecord
100
AcDbLinetypeTableRecord
  2
STYLE_23
 70
               0
  3

 72
              65
 73
               2
 40
0.27777099609375
 49
0.194427490234375
 74
               0
 49
-0.083343505859375
 74
               0
  0
LTYPE
  5
55
100
AcDbSymbolTableRecord
100
AcDbLinetypeTableRecord
  2
STYLE_24
 70
               0
  3

 72
              65
 73
               2
 40
0.5
 49
0.416656494140625
 74
               0
 49
-0.083343505859375
 74
               0
  0
ENDTAB
  0
TABLE
  2
LAYER
  5
2
100
AcDbSymbolTable
 70
               5
  0
LAYER
  5
14
100
AcDbSymbolTableRecord
100
AcDbLayerTableRecord
  2
0
 70
               0
 62
               7
  6
Continuous
290
               1
370
              -3
390
1D
  0
LAYER
  5
56
100
AcDbSymbolTableRecord
100
AcDbLayerTableRecord
  2
Defpoints
 70
               0
 62
               7
  6
Continuous
290
               0
370
              -3
390
1D
  0
LAYER
  5
57
100
AcDbSymbolTableRecord
100
AcDbLayerTableRecord
  2
None
 70
               0
 62
               7
  6
Continuous
290
               1
370
               5
390
1D
  0
LAYER
  5
58
100
AcDbSymbolTableRecord
100
AcDbLayerTableRecord
  2
Dimension
 70
               0
 62
               7
  6
Continuous
290
               1
370
               5
390
1D
  0
LAYER
  5
59
100
AcDbSymbolTableRecord
100
AcDbLayerTableRecord
  2
Solid Lines
 70
               0
 62
               7
  6
Continuous
290
               1
370
              25
390
1D
  0
ENDTAB
  0
TABLE
  2
STYLE
  5
3
100
AcDbSymbolTable
 70
               5
  0
STYLE
  5
17
100
AcDbSymbolTableRecord
100
AcDbTextStyleTableRecord
  2
Standard
 70
               0
 40
0.0
 41
1.0
 50
0.0
 71
               0
 42
0.0
  3
txt
  4

  0
STYLE
  5
3A
100
AcDbSymbolTableRecord
100
AcDbTextStyleTableRecord
  2
Arial
 70
               0
 40
0.0
 41
1.0
 50
0.0
 71
               0
 42
0.0
  3
Arial
  4

1001
ACAD
1000
Arial
1071
        0
  0
STYLE
  5
3B
100
AcDbSymbolTableRecord
100
AcDbTextStyleTableRecord
  2
Arial (bold)
 70
               0
 40
0.0
 41
1.0
 50
0.0
 71
               0
 42
0.0
  3
Arial
  4

1001
ACAD
1000
Arial
1071
 33554432
  0
STYLE
  5
3C
100
AcDbSymbolTableRecord
100
AcDbTextStyleTableRecord
  2
Helvetica
 70
               0
 40
0.0
 41
1.0
 50
0.0
 71
               0
 42
0.0
  3
Helvetica
  4

1001
ACAD
1000
Helvetica
1071
        0
  0
STYLE
  5
3D
100
AcDbSymbolTableRecord
100
AcDbTextStyleTableRecord
  2
New Century Schlbk
 70
               0
 40
0.0
 41
1.0
 50
0.0
 71
               0
 42
0.0
  3
New Century Schlbk
  4

1001
ACAD
1000
New Century Schlbk
1071
        0
  0
ENDTAB
  0
TABLE
  2
VIEW
  5
5
100
AcDbSymbolTable
 70
               0
  0
ENDTAB
  0
TABLE
  2
UCS
  5
6
100
AcDbSymbolTable
 70
               0
  0
ENDTAB
  0
TABLE
  2
APPID
  5
8
100
AcDbSymbolTable
 70
               1
  0
APPID
  5
16
100
AcDbSymbolTableRecord
100
AcDbRegAppTableRecord
  2
ACAD
 70
               0
  0
ENDTAB
  0
TABLE
  2
DIMSTYLE
  5
9
100
AcDbSymbolTable
 70
               2
100
AcDbDimStyleTable
 71
               0
  0
DIMSTYLE
105
18
100
AcDbSymbolTableRecord
100
AcDbDimStyleTableRecord
  2
Standard
 70
               0
  3

  4

 40
1.0
 41
0.18
 42
0.0625
 43
0.38
 44
0.18
 45
0.0
 46
0.0
 47
0.0
 48
0.0
 71
               0
 72
               0
 73
               1
 74
               1
 75
               0
 76
               0
 77
               0
 78
               0
 79
               0
140
0.18
141
0.09
142
0.0
143
25.399999999999999
144
1.0
145
0.0
146
1.0
147
0.09
148
0.0
170
               0
171
               2
172
               0
173
               0
174
               0
175
               0
176
               0
177
               0
178
               0
179
               0
271
               4
272
               4
273
               2
274
               2
275
               0
276
               0
277
               2
278
              46
279
               0
280
               0
281
               0
282
               0
283
               1
284
               0
285
               0
286
               0
288
               0
289
               3
340
17
341
0
342
0
343
0
344
0
371
              -2
372
              -2
  0
DIMSTYLE
105
62
100
AcDbSymbolTableRecord
100
AcDbDimStyleTableRecord
  2
IE Standard
 70
               0
  3
<>mm
  4
[]"
 40
1.0
 41
0.79375
 42
0.4762500011827797
 43
6.9999859934672708
 44
0.9525000023655593
 45
0.0
 46
0.0
 47
0.0
 48
0.0
 71
               0
 72
               0
 73
               1
 74
               1
 75
               0
 76
               0
 77
               0
 78
              11
 79
               0
140
0.6315976562499999
141
0.0
142
0.0
143
0.0393700787401575
144
1.0
145
0.0
146
1.0
147
0.0
148
0.0
170
               0
171
               3
172
               1
173
               0
174
               1
175
               0
176
               0
177
               0
178
               0
179
               0
271
               2
272
               2
273
               2
274
               2
275
               0
276
               2
277
               2
278
              46
279
               0
280
               0
281
               0
282
               0
283
               1
284
              11
285
               3
286
               3
288
               0
289
               0
340
3C
341
5E
342
5A
343
0
344
0
371
              -2
372
              -2
  0
ENDTAB
  0
TABLE
  2
BLOCK_RECORD
  5
1
100
AcDbSymbolTable
 70
              24
  0
BLOCK_RECORD
  5
A
100
AcDbSymbolTableRecord
100
AcDbBlockTableRecord
  2
*MODEL_SPACE
340
20
  0
BLOCK_RECORD
  5
B
100
AcDbSymbolTableRecord
100
AcDbBlockTableRecord
  2
*PAPER_SPACE
340
21
  0
BLOCK_RECORD
  5
5A
100
AcDbSymbolTableRecord
100
AcDbBlockTableRecord
  2
VW_FILLEDARROW
340
0
  0
BLOCK_RECORD
  5
5E
100
AcDbSymbolTableRecord
100
AcDbBlockTableRecord
  2
VW_FILLEDARROW-1
340
0
  0
BLOCK_RECORD
  5
24
100
AcDbSymbolTableRecord
100
AcDbBlockTableRecord
  2
IE i logo
340
0
102
{BLKREFS
331
339
102
}
  0
BLOCK_RECORD
  5
25
100
AcDbSymbolTableRecord
100
AcDbBlockTableRecord
  2
pad
340
0
102
{BLKREFS
331
9A
331
9B
331
9C
331
9D
331
9E
331
9F
331
A0
331
A1
331
A2
331
A3
331
A4
331
A5
331
A6
331
A7
331
A8
331
A9
331
AA
331
AB
331
AC
331
AD
331
AE
331
AF
331
B0
331
B1
331
B2
331
B3
331
B4
331
B5
331
B6
331
B7
331
B8
331
B9
331
BA
331
BB
331
BC
331
BD
331
BE
331
BF
331
C0
331
C1
331
C2
331
C3
331
C4
331
C5
331
C6
331
C7
331
C8
331
C9
331
CA
331
CB
331
CC
331
CD
331
CE
331
CF
331
D0
331
D1
331
D2
331
D3
331
D4
331
D5
331
D6
331
D7
331
D8
331
D9
331
DA
331
DB
331
DC
331
DD
331
DE
331
DF
331
E0
331
E1
331
E2
331
E3
331
E4
331
E5
331
E6
331
E7
331
E8
331
E9
331
EA
331
EB
331
EC
331
ED
331
EE
331
EF
331
F0
331
F1
331
F2
331
F3
331
F4
331
F5
331
F6
331
F7
331
F8
331
F9
331
FA
331
FB
331
FC
331
FD
331
FE
331
FF
331
100
331
101
331
102
331
103
331
104
331
105
331
106
331
107
331
108
331
109
331
10A
331
10B
331
10C
331
10D
331
10E
331
10F
331
110
331
111
331
112
331
113
331
114
331
115
331
116
331
117
331
118
331
119
331
11A
331
11B
331
11C
331
11D
331
11E
331
11F
331
120
331
121
331
122
331
123
331
124
331
125
331
126
331
127
331
128
331
129
331
12A
331
12B
331
12C
331
12D
331
12E
331
12F
331
130
331
131
331
132
331
133
331
134
331
135
331
136
331
137
331
138
331
139
331
13A
331
13B
331
13C
331
13D
331
13E
331
13F
331
140
331
141
331
142
331
143
331
144
331
145
331
146
331
147
331
148
331
149
331
14A
331
14B
331
14C
331
14D
331
14E
331
14F
331
150
331
151
331
152
331
153
331
154
331
155
331
156
331
157
331
158
331
159
331
15A
331
15B
331
15C
331
15D
331
15E
331
15F
331
160
331
161
331
162
331
163
331
164
331
165
331
166
331
167
331
168
331
169
331
16A
331
16B
331
16C
331
16D
331
16E
331
16F
331
170
331
171
331
172
331
173
331
174
331
175
331
176
331
177
331
178
331
179
331
17A
331
17B
331
17C
331
17D
331
17E
331
17F
331
180
331
181
331
182
331
183
331
184
331
185
331
186
331
187
331
188
331
189
331
18A
331
18B
331
18C
331
18D
331
18E
331
18F
331
190
331
191
331
192
331
193
331
194
331
195
331
196
331
197
331
198
331
199
331
19A
331
19B
331
19C
331
19D
331
19E
331
19F
331
1A0
331
1A1
331
1A2
331
1A3
331
1A4
331
1A5
331
1A6
331
1A7
331
1A8
331
1A9
331
1AA
331
1AB
331
1AC
331
1AD
331
1AE
331
1AF
331
1B0
331
1B1
331
1B2
331
1B3
331
1B4
331
1B5
331
1B6
331
1B7
331
1B8
331
1B9
331
1BA
331
1BB
331
1BC
331
1BD
331
1BE
331
1BF
331
1C0
331
1C1
331
1C2
331
1C3
331
1C4
331
1C5
331
1C6
331
1C7
331
1C8
331
1C9
331
1CA
331
1CB
331
1CC
331
1CD
331
1CE
331
1CF
331
1D0
331
1D1
331
1D2
331
1D3
331
1D4
331
1D5
331
1D6
331
1D7
331
1D8
331
1D9
331
1DA
331
1DB
331
1DC
331
1DD
331
1DE
331
1DF
331
1E0
331
1E1
331
1E2
331
1E3
331
1E4
331
1E5
331
1E6
331
1E7
331
1E8
331
1E9
331
1EA
331
1EB
331
1EC
331
1ED
331
1EE
331
1EF
331
1F0
331
1F1
331
1F2
331
1F3
331
1F4
331
1F5
331
1F6
331
1F7
331
1F8
331
1F9
331
1FA
331
1FB
331
1FC
331
1FD
331
1FE
331
1FF
331
200
331
201
331
202
102
}
  0
BLOCK_RECORD
  5
26
100
AcDbSymbolTableRecord
100
AcDbBlockTableRecord
  2
Group
340
0
102
{BLKREFS
331
222
102
}
  0
BLOCK_RECORD
  5
27
100
AcDbSymbolTableRecord
100
AcDbBlockTableRecord
  2
Group-1
340
0
102
{BLKREFS
331
223
102
}
  0
BLOCK_RECORD
  5
28
100
AcDbSymbolTableRecord
100
AcDbBlockTableRecord
  2
Group-2
340
0
102
{BLKREFS
331
211
102
}
  0
BLOCK_RECORD
  5
29
100
AcDbSymbolTableRecord
100
AcDbBlockTableRecord
  2
Group-3
340
0
102
{BLKREFS
331
224
102
}
  0
BLOCK_RECORD
  5
2A
100
AcDbSymbolTableRecord
100
AcDbBlockTableRecord
  2
Group-4
340
0
102
{BLKREFS
331
347
102
}
  0
BLOCK_RECORD
  5
2B
100
AcDbSymbolTableRecord
100
AcDbBlockTableRecord
  2
*D9
340
0
  0
BLOCK_RECORD
  5
2C
100
AcDbSymbolTableRecord
100
AcDbBlockTableRecord
  2
*D10
340
0
  0
BLOCK_RECORD
  5
2D
100
AcDbSymbolTableRecord
100
AcDbBlockTableRecord
  2
*D11
340
0
  0
BLOCK_RECORD
  5
2E
100
AcDbSymbolTableRecord
100
AcDbBlockTableRecord
  2
*D12
340
0
  0
BLOCK_RECORD
  5
2F
100
AcDbSymbolTableRecord
100
AcDbBlockTableRecord
  2
*D13
340
0
  0
BLOCK_RECORD
  5
30
100
AcDbSymbolTableRecord
100
AcDbBlockTableRecord
  2
*D14
340
0
  0
BLOCK_RECORD
  5
31
100
AcDbSymbolTableRecord
100
AcDbBlockTableRecord
  2
*D15
340
0
  0
BLOCK_RECORD
  5
32
100
AcDbSymbolTableRecord
100
AcDbBlockTableRecord
  2
*D16
340
0
  0
BLOCK_RECORD
  5
33
100
AcDbSymbolTableRecord
100
AcDbBlockTableRecord
  2
*D17
340
0
  0
BLOCK_RECORD
  5
34
100
AcDbSymbolTableRecord
100
AcDbBlockTableRecord
  2
*D18
340
0
  0
BLOCK_RECORD
  5
35
100
AcDbSymbolTableRecord
100
AcDbBlockTableRecord
  2
*D19
340
0
  0
BLOCK_RECORD
  5
36
100
AcDbSymbolTableRecord
100
AcDbBlockTableRecord
  2
*D20
340
0
  0
BLOCK_RECORD
  5
37
100
AcDbSymbolTableRecord
100
AcDbBlockTableRecord
  2
*D21
340
0
  0
BLOCK_RECORD
  5
38
100
AcDbSymbolTableRecord
100
AcDbBlockTableRecord
  2
*D22
340
0
  0
BLOCK_RECORD
  5
39
100
AcDbSymbolTableRecord
100
AcDbBlockTableRecord
  2
*D23
340
0
  0
ENDTAB
  0
ENDSEC
  0
SECTION
  2
BLOCKS
  0
BLOCK
  5
D
100
AcDbEntity
  8
0
390
0
100
AcDbBlockBegin
  2
*MODEL_SPACE
 70
               0
 10
0.0
 20
0.0
 30
0.0
  3
*MODEL_SPACE
  1

  0
ENDBLK
  5
E
100
AcDbEntity
  8
0
390
0
100
AcDbBlockEnd
  0
BLOCK
  5
F
100
AcDbEntity
 67
               1
  8
0
390
0
100
AcDbBlockBegin
  2
*PAPER_SPACE
 70
               0
 10
0.0
 20
0.0
 30
0.0
  3
*PAPER_SPACE
  1

  0
ENDBLK
  5
10
100
AcDbEntity
 67
               1
  8
0
390
0
100
AcDbBlockEnd
  0
BLOCK
  5
5B
100
AcDbEntity
  8
0
370
              -2
390
0
  6
ByBlock
 62
               0
100
AcDbBlockBegin
  2
VW_FILLEDARROW
 70
               0
 10
0.0
 20
0.0
 30
0.0
  3
VW_FILLEDARROW
  1

  0
SOLID
  5
5C
100
AcDbEntity
  8
0
370
              -2
390
0
 62
               0
100
AcDbTrace
 10
0.0
 20
0.0
 30
0.0
 11
-0.9999389648437499
 21
-0.2679328381102956
 31
0.0
 12
-0.9999389648437499
 22
0.2679328381102958
 32
0.0
 13
-0.9999389648437499
 23
0.2679328381102958
 33
0.0
  0
ENDBLK
  5
5D
100
AcDbEntity
  8
0
390
0
100
AcDbBlockEnd
  0
BLOCK
  5
5F
100
AcDbEntity
  8
0
370
              -2
390
0
  6
ByBlock
 62
               0
100
AcDbBlockBegin
  2
VW_FILLEDARROW-1
 70
               0
 10
0.0
 20
0.0
 30
0.0
  3
VW_FILLEDARROW
  1

  0
SOLID
  5
60
100
AcDbEntity
  8
0
370
              -2
390
0
 62
               0
100
AcDbTrace
 10
0.0
 20
0.0
 30
0.0
 11
-0.6662384033203125
 21
-0.1785180421362784
 31
0.0
 12
-0.6662384033203125
 22
0.1785180421362785
 32
0.0
 13
-0.6662384033203125
 23
0.1785180421362785
 33
0.0
  0
ENDBLK
  5
61
100
AcDbEntity
  8
0
390
0
100
AcDbBlockEnd
  0
BLOCK
  5
63
100
AcDbEntity
  8
None
390
0
100
AcDbBlockBegin
  2
IE i logo
 70
               0
 10
0.0
 20
0.0
 30
0.0
  3
IE i logo
  1

  0
CIRCLE
  5
64
102
{ACAD_REACTORS
330
65
102
}
100
AcDbEntity
  8
None
370
               5
390
0
  6
Continuous
 62
               7
100
AcDbCircle
 10
0.0
 20
0.0
 30
0.0
 40
2.6707900018721049
  0
HATCH
  5
65
100
AcDbEntity
  8
None
370
               0
390
0
  6
Continuous
 62
               7
100
AcDbHatch
 10
0.0
 20
0.0
 30
0.0
210
0.0
220
0.0
230
1.0
  2
SOLID
 70
               1
 71
               1
 91
        1
 92
        1
 93
        1
 72
               2
 10
0.0
 20
0.0
 40
2.6707900018721049
 50
0.0
 51
360.0
 73
               0
 97
        1
330
64
 75
               0
 76
               1
 98
        1
 10
0.0
 20
0.0
  0
WIPEOUT
  5
66
100
AcDbEntity
  8
None
370
               5
390
0
  6
Continuous
 62
               7
 92
        0
100
AcDbWipeout
 90
        0
 10
-1.01559
 20
0.73569
 30
0.0
 11
0.6889700000000001
 21
0.0
 31
0.0
 12
0.0
 22
0.6889700000000001
 32
0.0
 13
1.0
 23
1.0
340
0
 70
               7
280
               1
281
              50
282
              50
283
               0
360
0
 71
               2
 91
       97
 14
-0.384131384530531
 24
0.0667881039813055
 14
-0.3634758906411018
 24
0.0346239223043094
 14
-0.3415474367534144
 24
0.00272054661306
 14
-0.3183460228674687
 24
-0.0289220230924422
 14
-0.2938716489832648
 24
-0.0603037868121978
 14
-0.2681243151008025
 24
-0.0914247445462067
 14
-0.2411040212200821
 24
-0.1222848962944686
 14
-0.2128107673411033
 24
-0.1528842420569836
 14
-0.1832445534638663
 24
-0.1832227818337517
 14
-0.1529111164129063
 24
-0.2127940984367968
 14
-0.1223161930127582
 24
-0.2410917746781425
 14
-0.0914597832634222
 24
-0.2681158105577891
 14
-0.0603418871648982
 24
-0.2938662060757359
 14
-0.0289625047171866
 24
-0.3183429612319839
 14
0.0026783640797133
 24
-0.3415460760265321
 14
0.0345807192258009
 24
-0.3634755504593811
 14
0.0667445607210765
 24
-0.384131384530531
 14
0.0986291130237893
 24
-0.4031788394269708
 14
0.1296936005921883
 24
-0.4202831763356896
 14
0.1599380234262741
 24
-0.4354443952566872
 14
0.1893623815260462
 24
-0.4486624961899646
 14
0.2179666748915049
 24
-0.4599374791355209
 14
0.2457509035226498
 24
-0.4692693440933564
 14
0.2727150674194813
 24
-0.4766580910634712
 14
0.2988591665819992
 24
-0.4821037200458653
 14
0.3237520773763735
 24
-0.485530597304672
 14
0.3469626761687736
 24
-0.4868630891040248
 14
0.3684909629591999
 24
-0.4861011954439233
 14
0.3883369377476522
 24
-0.483244916324368
 14
0.4065006005341306
 24
-0.4782942517453585
 14
0.4229819513186351
 24
-0.4712492017068954
 14
0.4377809901011655
 24
-0.4621097662089782
 14
0.450897716881722
 24
-0.4508759452516074
 14
0.462126435113285
 24
-0.4377544559269632
 14
0.4712614482488352
 24
-0.4229520153272275
 14
0.4783027562883724
 24
-0.4064686234523998
 14
0.4832503592318967
 24
-0.3883042803024801
 14
0.4861042570794083
 24
-0.3684589858774687
 14
0.486864449830907
 24
-0.3469327401773656
 14
0.4855309374863926
 24
-0.3237255432021711
 14
0.4821037200458654
 24
-0.2988373949518843
 14
0.4766580910634716
 24
-0.2726983985151745
 14
0.4692693440933567
 24
-0.24573865698071
 14
0.4599374791355212
 24
-0.217958170348491
 14
0.4486624961899646
 24
-0.1893569386185173
 14
0.4354443952566874
 24
-0.1599349617907888
 14
0.4202831763356894
 24
-0.1296922398653057
 14
0.4031788394269706
 24
-0.0986287728420684
 14
0.384131384530531
 24
-0.0667445607210762
 14
0.363475890641102
 24
-0.0345803790440801
 14
0.3415474367534145
 24
-0.0026770033528307
 14
0.3183460228674687
 24
0.0289655663526718
 14
0.2938716489832648
 24
0.0603473300724272
 14
0.2681243151008025
 24
0.0914682878064358
 14
0.2411040212200821
 24
0.1223284395546979
 14
0.2128107673411033
 24
0.1529277853172129
 14
0.1832445534638663
 24
0.1832663250939811
 14
0.1529111164129063
 24
0.2128376416970262
 14
0.1223161930127581
 24
0.2411353179383721
 14
0.0914597832634222
 24
0.2681593538180184
 14
0.0603418871648983
 24
0.2939097493359655
 14
0.0289625047171866
 24
0.3183865044922132
 14
-0.0026783640797133
 24
0.3415896192867617
 14
-0.0345807192258009
 24
0.3635190937196106
 14
-0.0667445607210765
 24
0.3841749277907604
 14
-0.0986291130237892
 24
0.4032220425054794
 14
-0.1296936005921883
 24
0.4203253588690366
 14
-0.159938023426274
 24
0.4354848768814319
 14
-0.1893623815260462
 24
0.4487005965426653
 14
-0.2179666748915049
 24
0.4599725178527369
 14
-0.2457509035226499
 24
0.4693006408116466
 14
-0.2727150674194813
 24
0.4766849654193943
 14
-0.2988591665819992
 24
0.4821254916759801
 14
-0.3237520773763735
 24
0.4855476063906992
 14
-0.3469626761687736
 24
0.4868766963728464
 14
-0.3684909629591999
 24
0.486112761622422
 14
-0.3883369377476522
 24
0.4832558021394255
 14
-0.4065006005341306
 24
0.4783058179238573
 14
-0.4229819513186351
 24
0.4712628089757174
 14
-0.4377809901011655
 24
0.4621267752950057
 14
-0.450897716881722
 24
0.450897716881722
 14
-0.462126435113285
 24
0.437781330282886
 14
-0.4712614482488352
 24
0.4229833120455172
 14
-0.4783027562883724
 24
0.4065036621696155
 14
-0.4832503592318967
 24
0.388342380655181
 14
-0.4861042570794085
 24
0.3684994675022135
 14
-0.486864449830907
 24
0.3469749227107132
 14
-0.4855309374863926
 24
0.32376874628068
 14
-0.4821037200458657
 24
0.2988809382121138
 14
-0.4766580910634715
 24
0.2727419417754038
 14
-0.4692693440933567
 24
0.2457822002409394
 14
-0.4599374791355211
 24
0.2180017136087203
 14
-0.4486624961899646
 24
0.1894004818787466
 14
-0.4354443952566874
 24
0.1599785050510182
 14
-0.4202831763356894
 24
0.1297357831255353
 14
-0.4031788394269706
 24
0.0986723161022978
 14
-0.384131384530531
 24
0.0667881039813055
  0
SPLINE
  5
67
100
AcDbEntity
  8
None
370
               5
390
0
  6
Continuous
 62
               7
100
AcDbSpline
210
0.0
220
0.0
230
1.0
 70
               9
 71
               2
 72
              17
 73
              14
 74
               0
 42
0.000001
 43
0.000001
 40
0.0
 40
0.0
 40
0.0
 40
1.0
 40
2.0
 40
3.0
 40
4.0
 40
5.0
 40
6.0
 40
7.0
 40
8.0
 40
9.0
 40
10.0
 40
11.0
 40
12.0
 40
12.0
 40
12.0
 10
-0.9357599999999999
 20
1.03416
 30
0.0
 10
-0.8805899999999999
 20
1.1231599999999999
 30
0.0
 10
-0.71412
 20
1.2896599999999998
 30
0.0
 10
-0.5361199999999999
 20
1.3999999999999999
 30
0.0
 10
-0.39428
 20
1.4246599999999998
 30
0.0
 10
-0.32662
 20
1.3569699999999998
 30
0.0
 10
-0.35128
 20
1.2151599999999998
 30
0.0
 10
-0.46162
 20
1.0371599999999999
 30
0.0
 10
-0.6280899999999999
 20
0.8706599999999999
 30
0.0
 10
-0.80609
 20
0.7603199999999999
 30
0.0
 10
-0.9479299999999999
 20
0.73569
 30
0.0
 10
-1.01559
 20
0.8033499999999999
 30
0.0
 10
-0.9909299999999999
 20
0.9451599999999999
 30
0.0
 10
-0.9357599999999999
 20
1.03416
 30
0.0
  0
WIPEOUT
  5
68
100
AcDbEntity
  8
None
370
               5
390
0
  6
Continuous
 62
               7
 92
        0
100
AcDbWipeout
 90
        0
 10
-1.7197799999999999
 20
-1.8961899999999998
 30
0.0
 11
1.8520599999999998
 21
0.0
 31
0.0
 12
0.0
 22
1.8520599999999998
 32
0.0
 13
1.0
 23
1.0
340
0
 70
               7
280
               1
281
              50
282
              50
283
               0
360
0
 71
               2
 91
       36
 14
-0.4523827521786551
 24
0.3095202099284041
 14
-0.2500026996965541
 24
0.1190404198568081
 14
-0.2142911136788225
 24
0.1190404198568081
 14
-0.0714231720354632
 24
0.3690377201602539
 14
0.0
 24
0.4523827521786551
 14
0.0714231720354633
 24
0.5
 14
0.2142857142857143
 24
0.5
 14
0.3690539183395787
 24
0.4047493061779856
 14
0.4761940757858817
 24
0.3095202099284041
 14
0.5
 24
0.2380916384998327
 14
0.5
 24
0.1071347580531948
 14
0.4880997375894949
 24
0.0714231720354632
 14
0.4642884139822685
 24
0.0714231720354632
 14
0.4285768279645368
 24
0.0829562757146097
 14
0.3214258717320173
 24
0.1666522682850447
 14
0.274726520739069
 24
0.1785579300886581
 14
0.2142857142857143
 24
0.1666522682850447
 14
0.190479790071596
 24
0.1070915629083291
 14
0.1428625422502512
 24
0.0238059242141183
 14
0.1190404198568082
 24
-0.0833450320184012
 14
0.1071347580531948
 24
-0.2142911136788225
 14
0.0714231720354633
 24
-0.2857304838936103
 14
0.0238059242141184
 24
-0.3452533935185685
 14
-0.0238059242141183
 24
-0.3866289429068173
 14
-0.0714231720354632
 24
-0.3866289429068173
 14
-0.1309622798397461
 24
-0.3571536559290736
 14
-0.1785741282679827
 24
-0.2976361456972236
 14
-0.2619029621070591
 24
-0.178579527661091
 14
-0.342424111529864
 24
-0.1071563556256276
 14
-0.4727114672310832
 24
0.0238059242141183
 14
-0.5
 24
0.0714231720354632
 14
-0.5
 24
0.1547520058745397
 14
-0.5
 24
0.2380916384998327
 14
-0.5
 24
0.2857088863211775
 14
-0.4880997375894949
 24
0.3214204723389091
 14
-0.4523827521786551
 24
0.3095202099284041
  0
POLYLINE
  5
69
100
AcDbEntity
  8
None
370
               5
390
0
  6
Continuous
 62
               7
100
AcDb2dPolyline
 66
               1
 10
0.0
 20
0.0
 30
0.0
 70
               1
 75
               5
  0
VERTEX
  5
6A
100
AcDbEntity
  8
None
370
               5
390
0
  6
Continuous
 62
               7
100
AcDbVertex
100
AcDb2dVertex
 10
-1.6315899999999999
 20
-1.5434099999999999
 30
0.0
  0
VERTEX
  5
6B
100
AcDbEntity
  8
None
370
               5
390
0
  6
Continuous
 62
               7
100
AcDbVertex
100
AcDb2dVertex
 10
-1.2567699999999999
 20
-1.1906299999999999
 30
0.0
  0
VERTEX
  5
6C
100
AcDbEntity
  8
None
370
               5
390
0
  6
Continuous
 62
               7
100
AcDbVertex
100
AcDb2dVertex
 10
-1.1906299999999999
 20
-1.1906299999999999
 30
0.0
  0
VERTEX
  5
6D
100
AcDbEntity
  8
None
370
               5
390
0
  6
Continuous
 62
               7
100
AcDbVertex
100
AcDb2dVertex
 10
-0.9260299999999999
 20
-1.6536399999999998
 30
0.0
  0
VERTEX
  5
6E
100
AcDbEntity
  8
None
370
               5
390
0
  6
Continuous
 62
               7
100
AcDbVertex
100
AcDb2dVertex
 10
-0.79375
 20
-1.8079999999999998
 30
0.0
  0
VERTEX
  5
6F
100
AcDbEntity
  8
None
370
               5
390
0
  6
Continuous
 62
               7
100
AcDbVertex
100
AcDb2dVertex
 10
-0.6614699999999999
 20
-1.8961899999999998
 30
0.0
  0
VERTEX
  5
70
100
AcDbEntity
  8
None
370
               5
390
0
  6
Continuous
 62
               7
100
AcDbVertex
100
AcDb2dVertex
 10
-0.39688
 20
-1.8961899999999998
 30
0.0
  0
VERTEX
  5
71
100
AcDbEntity
  8
None
370
               5
390
0
  6
Continuous
 62
               7
100
AcDbVertex
100
AcDb2dVertex
 10
-0.11024
 20
-1.7197799999999999
 30
0.0
  0
VERTEX
  5
72
100
AcDbEntity
  8
None
370
               5
390
0
  6
Continuous
 62
               7
100
AcDbVertex
100
AcDb2dVertex
 10
0.08819
 20
-1.5434099999999999
 30
0.0
  0
VERTEX
  5
73
100
AcDbEntity
  8
None
370
               5
390
0
  6
Continuous
 62
               7
100
AcDbVertex
100
AcDb2dVertex
 10
0.13228
 20
-1.4111199999999999
 30
0.0
  0
VERTEX
  5
74
100
AcDbEntity
  8
None
370
               5
390
0
  6
Continuous
 62
               7
100
AcDbVertex
100
AcDb2dVertex
 10
0.13228
 20
-1.16858
 30
0.0
  0
VERTEX
  5
75
100
AcDbEntity
  8
None
370
               5
390
0
  6
Continuous
 62
               7
100
AcDbVertex
100
AcDb2dVertex
 10
0.11024
 20
-1.1024399999999999
 30
0.0
  0
VERTEX
  5
76
100
AcDbEntity
  8
None
370
               5
390
0
  6
Continuous
 62
               7
100
AcDbVertex
100
AcDb2dVertex
 10
0.06614
 20
-1.1024399999999999
 30
0.0
  0
VERTEX
  5
77
100
AcDbEntity
  8
None
370
               5
390
0
  6
Continuous
 62
               7
100
AcDbVertex
100
AcDb2dVertex
 10
0.0
 20
-1.1237999999999999
 30
0.0
  0
VERTEX
  5
78
100
AcDbEntity
  8
None
370
               5
390
0
  6
Continuous
 62
               7
100
AcDbVertex
100
AcDb2dVertex
 10
-0.19845
 20
-1.2788099999999998
 30
0.0
  0
VERTEX
  5
79
100
AcDbEntity
  8
None
370
               5
390
0
  6
Continuous
 62
               7
100
AcDbVertex
100
AcDb2dVertex
 10
-0.28494
 20
-1.3008599999999999
 30
0.0
  0
VERTEX
  5
7A
100
AcDbEntity
  8
None
370
               5
390
0
  6
Continuous
 62
               7
100
AcDbVertex
100
AcDb2dVertex
 10
-0.39688
 20
-1.2788099999999998
 30
0.0
  0
VERTEX
  5
7B
100
AcDbEntity
  8
None
370
               5
390
0
  6
Continuous
 62
               7
100
AcDbVertex
100
AcDb2dVertex
 10
-0.44097
 20
-1.1684999999999999
 30
0.0
  0
VERTEX
  5
7C
100
AcDbEntity
  8
None
370
               5
390
0
  6
Continuous
 62
               7
100
AcDbVertex
100
AcDb2dVertex
 10
-0.52916
 20
-1.0142499999999999
 30
0.0
  0
VERTEX
  5
7D
100
AcDbEntity
  8
None
370
               5
390
0
  6
Continuous
 62
               7
100
AcDbVertex
100
AcDb2dVertex
 10
-0.5732799999999999
 20
-0.8158
 30
0.0
  0
VERTEX
  5
7E
100
AcDbEntity
  8
None
370
               5
390
0
  6
Continuous
 62
               7
100
AcDbVertex
100
AcDb2dVertex
 10
-0.5953299999999999
 20
-0.5732799999999999
 30
0.0
  0
VERTEX
  5
7F
100
AcDbEntity
  8
None
370
               5
390
0
  6
Continuous
 62
               7
100
AcDbVertex
100
AcDb2dVertex
 10
-0.6614699999999999
 20
-0.44097
 30
0.0
  0
VERTEX
  5
80
100
AcDbEntity
  8
None
370
               5
390
0
  6
Continuous
 62
               7
100
AcDbVertex
100
AcDb2dVertex
 10
-0.7496599999999999
 20
-0.33073
 30
0.0
  0
VERTEX
  5
81
100
AcDbEntity
  8
None
370
               5
390
0
  6
Continuous
 62
               7
100
AcDbVertex
100
AcDb2dVertex
 10
-0.8378399999999999
 20
-0.2541
 30
0.0
  0
VERTEX
  5
82
100
AcDbEntity
  8
None
370
               5
390
0
  6
Continuous
 62
               7
100
AcDbVertex
100
AcDb2dVertex
 10
-0.9260299999999999
 20
-0.2541
 30
0.0
  0
VERTEX
  5
83
100
AcDbEntity
  8
None
370
               5
390
0
  6
Continuous
 62
               7
100
AcDbVertex
100
AcDb2dVertex
 10
-1.0363
 20
-0.30869
 30
0.0
  0
VERTEX
  5
84
100
AcDbEntity
  8
None
370
               5
390
0
  6
Continuous
 62
               7
100
AcDbVertex
100
AcDb2dVertex
 10
-1.1244799999999999
 20
-0.41892
 30
0.0
  0
VERTEX
  5
85
100
AcDbEntity
  8
None
370
               5
390
0
  6
Continuous
 62
               7
100
AcDbVertex
100
AcDb2dVertex
 10
-1.2788099999999998
 20
-0.63942
 30
0.0
  0
VERTEX
  5
86
100
AcDbEntity
  8
None
370
               5
390
0
  6
Continuous
 62
               7
100
AcDbVertex
100
AcDb2dVertex
 10
-1.4279399999999998
 20
-0.7716999999999999
 30
0.0
  0
VERTEX
  5
87
100
AcDbEntity
  8
None
370
               5
390
0
  6
Continuous
 62
               7
100
AcDbVertex
100
AcDb2dVertex
 10
-1.6692399999999998
 20
-1.0142499999999999
 30
0.0
  0
VERTEX
  5
88
100
AcDbEntity
  8
None
370
               5
390
0
  6
Continuous
 62
               7
100
AcDbVertex
100
AcDb2dVertex
 10
-1.7197799999999999
 20
-1.1024399999999999
 30
0.0
  0
VERTEX
  5
89
100
AcDbEntity
  8
None
370
               5
390
0
  6
Continuous
 62
               7
100
AcDbVertex
100
AcDb2dVertex
 10
-1.7197799999999999
 20
-1.2567699999999999
 30
0.0
  0
VERTEX
  5
8A
100
AcDbEntity
  8
None
370
               5
390
0
  6
Continuous
 62
               7
100
AcDbVertex
100
AcDb2dVertex
 10
-1.7197799999999999
 20
-1.4111199999999999
 30
0.0
  0
VERTEX
  5
8B
100
AcDbEntity
  8
None
370
               5
390
0
  6
Continuous
 62
               7
100
AcDbVertex
100
AcDb2dVertex
 10
-1.7197799999999999
 20
-1.4993099999999999
 30
0.0
  0
VERTEX
  5
8C
100
AcDbEntity
  8
None
370
               5
390
0
  6
Continuous
 62
               7
100
AcDbVertex
100
AcDb2dVertex
 10
-1.6977399999999998
 20
-1.5654499999999998
 30
0.0
  0
SEQEND
  5
8D
100
AcDbEntity
  8
None
370
               5
390
0
  6
Continuous
 62
               7
  0
POLYLINE
  5
8E
100
AcDbEntity
  8
None
370
               5
390
0
  6
Continuous
 62
               7
100
AcDb2dPolyline
 66
               1
 10
0.0
 20
0.0
 30
0.0
 75
               5
  0
VERTEX
  5
8F
100
AcDbEntity
  8
None
370
               5
390
0
  6
Continuous
 62
               7
100
AcDbVertex
100
AcDb2dVertex
 10
-1.7197799999999999
 20
-1.1410199999999999
 30
0.0
  0
VERTEX
  5
90
100
AcDbEntity
  8
None
370
               5
390
0
  6
Continuous
 62
               7
100
AcDbVertex
100
AcDb2dVertex
 10
-1.7197799999999999
 20
-1.45522
 30
0.0
  0
VERTEX
  5
91
100
AcDbEntity
  8
None
370
               5
390
0
  6
Continuous
 62
               7
100
AcDbVertex
100
AcDb2dVertex
 10
-1.7197799999999999
 20
-1.4772599999999998
 30
0.0
  0
VERTEX
  5
92
100
AcDbEntity
  8
None
370
               5
390
0
  6
Continuous
 62
               7
100
AcDbVertex
100
AcDb2dVertex
 10
-1.71427
 20
-1.5158499999999999
 30
0.0
  0
SEQEND
  5
93
100
AcDbEntity
  8
None
370
               5
390
0
  6
Continuous
 62
               7
  0
ENDBLK
  5
94
100
AcDbEntity
  8
None
390
0
100
AcDbBlockEnd
  0
BLOCK
  5
95
100
AcDbEntity
  8
None
390
0
100
AcDbBlockBegin
  2
pad
 70
               0
 10
0.0
 20
0.0
 30
0.0
  3
pad
  1

  0
CIRCLE
  5
96
102
{ACAD_REACTORS
330
97
102
}
100
AcDbEntity
  8
None
370
               9
390
0
  6
Continuous
 62
               7
100
AcDbCircle
 10
0.0
 20
0.0
 30
0.0
 40
0.1399986921367482
  0
HATCH
  5
97
100
AcDbEntity
  8
None
370
               0
390
0
  6
Continuous
 62
               7
100
AcDbHatch
 10
0.0
 20
0.0
 30
0.0
210
0.0
220
0.0
230
1.0
  2
SOLID
 70
               1
 71
               1
 91
        1
 92
        1
 93
        1
 72
               2
 10
0.0
 20
0.0
 40
0.1399986921367482
 50
0.0
 51
360.0
 73
               0
 97
        1
330
96
 75
               0
 76
               1
 98
        1
 10
0.0
 20
0.0
  0
ENDBLK
  5
98
100
AcDbEntity
  8
None
390
0
100
AcDbBlockEnd
  0
BLOCK
  5
99
100
AcDbEntity
  8
None
390
0
100
AcDbBlockBegin
  2
Group
 70
               0
 10
0.0
 20
0.0
 30
0.0
  3
Group
  1

  0
INSERT
  5
9A
100
AcDbEntity
  8
None
390
0
 62
               7
100
AcDbBlockReference
  2
pad
 10
-6.6244099999999992
 20
25.776559999999996
 30
0.0
  0
INSERT
  5
9B
100
AcDbEntity
  8
None
390
0
 62
               7
100
AcDbBlockReference
  2
pad
 10
-6.1244099999999992
 20
25.776559999999996
 30
0.0
  0
INSERT
  5
9C
100
AcDbEntity
  8
None
390
0
 62
               7
100
AcDbBlockReference
  2
pad
 10
-5.6244099999999992
 20
25.776559999999996
 30
0.0
  0
INSERT
  5
9D
100
AcDbEntity
  8
None
390
0
 62
               7
100
AcDbBlockReference
  2
pad
 10
-5.1244099999999992
 20
25.776559999999996
 30
0.0
  0
INSERT
  5
9E
100
AcDbEntity
  8
None
390
0
 62
               7
100
AcDbBlockReference
  2
pad
 10
-4.6244099999999992
 20
25.776559999999996
 30
0.0
  0
INSERT
  5
9F
100
AcDbEntity
  8
None
390
0
 62
               7
100
AcDbBlockReference
  2
pad
 10
-4.1244099999999992
 20
25.776559999999996
 30
0.0
  0
INSERT
  5
A0
100
AcDbEntity
  8
None
390
0
 62
               7
100
AcDbBlockReference
  2
pad
 10
-3.6244099999999997
 20
25.776559999999996
 30
0.0
  0
INSERT
  5
A1
100
AcDbEntity
  8
None
390
0
 62
               7
100
AcDbBlockReference
  2
pad
 10
-3.1244099999999997
 20
25.776559999999996
 30
0.0
  0
INSERT
  5
A2
100
AcDbEntity
  8
None
390
0
 62
               7
100
AcDbBlockReference
  2
pad
 10
-2.6244099999999997
 20
25.776559999999996
 30
0.0
  0
INSERT
  5
A3
100
AcDbEntity
  8
None
390
0
 62
               7
100
AcDbBlockReference
  2
pad
 10
-2.1244099999999997
 20
25.776559999999996
 30
0.0
  0
INSERT
  5
A4
100
AcDbEntity
  8
None
390
0
 62
               7
100
AcDbBlockReference
  2
pad
 10
-1.6244099999999999
 20
25.776559999999996
 30
0.0
  0
INSERT
  5
A5
100
AcDbEntity
  8
None
390
0
 62
               7
100
AcDbBlockReference
  2
pad
 10
-1.1244099999999999
 20
25.776559999999996
 30
0.0
  0
INSERT
  5
A6
100
AcDbEntity
  8
None
390
0
 62
               7
100
AcDbBlockReference
  2
pad
 10
-0.6244099999999999
 20
25.776559999999996
 30
0.0
  0
INSERT
  5
A7
100
AcDbEntity
  8
None
390
0
 62
               7
100
AcDbBlockReference
  2
pad
 10
-0.12441
 20
25.776559999999996
 30
0.0
  0
INSERT
  5
A8
100
AcDbEntity
  8
None
390
0
 62
               7
100
AcDbBlockReference
  2
pad
 10
0.37559
 20
25.776559999999996
 30
0.0
  0
INSERT
  5
A9
100
AcDbEntity
  8
None
390
0
 62
               7
100
AcDbBlockReference
  2
pad
 10
0.8755899999999999
 20
25.776559999999996
 30
0.0
  0
INSERT
  5
AA
100
AcDbEntity
  8
None
390
0
 62
               7
100
AcDbBlockReference
  2
pad
 10
1.3755899999999999
 20
25.776559999999996
 30
0.0
  0
INSERT
  5
AB
100
AcDbEntity
  8
None
390
0
 62
               7
100
AcDbBlockReference
  2
pad
 10
1.8755899999999999
 20
25.776559999999996
 30
0.0
  0
INSERT
  5
AC
100
AcDbEntity
  8
None
390
0
 62
               7
100
AcDbBlockReference
  2
pad
 10
2.3755899999999999
 20
25.776559999999996
 30
0.0
  0
INSERT
  5
AD
100
AcDbEntity
  8
None
390
0
 62
               7
100
AcDbBlockReference
  2
pad
 10
-6.6244099999999992
 20
26.276559999999996
 30
0.0
  0
INSERT
  5
AE
100
AcDbEntity
  8
None
390
0
 62
               7
100
AcDbBlockReference
  2
pad
 10
-6.1244099999999992
 20
26.276559999999996
 30
0.0
  0
INSERT
  5
AF
100
AcDbEntity
  8
None
390
0
 62
               7
100
AcDbBlockReference
  2
pad
 10
-5.6244099999999992
 20
26.276559999999996
 30
0.0
  0
INSERT
  5
B0
100
AcDbEntity
  8
None
390
0
 62
               7
100
AcDbBlockReference
  2
pad
 10
-5.1244099999999992
 20
26.276559999999996
 30
0.0
  0
INSERT
  5
B1
100
AcDbEntity
  8
None
390
0
 62
               7
100
AcDbBlockReference
  2
pad
 10
-4.6244099999999992
 20
26.276559999999996
 30
0.0
  0
INSERT
  5
B2
100
AcDbEntity
  8
None
390
0
 62
               7
100
AcDbBlockReference
  2
pad
 10
-4.1244099999999992
 20
26.276559999999996
 30
0.0
  0
INSERT
  5
B3
100
AcDbEntity
  8
None
390
0
 62
               7
100
AcDbBlockReference
  2
pad
 10
-3.6244099999999997
 20
26.276559999999996
 30
0.0
  0
INSERT
  5
B4
100
AcDbEntity
  8
None
390
0
 62
               7
100
AcDbBlockReference
  2
pad
 10
-3.1244099999999997
 20
26.276559999999996
 30
0.0
  0
INSERT
  5
B5
100
AcDbEntity
  8
None
390
0
 62
               7
100
AcDbBlockReference
  2
pad
 10
-2.6244099999999997
 20
26.276559999999996
 30
0.0
  0
INSERT
  5
B6
100
AcDbEntity
  8
None
390
0
 62
               7
100
AcDbBlockReference
  2
pad
 10
-2.1244099999999997
 20
26.276559999999996
 30
0.0
  0
INSERT
  5
B7
100
AcDbEntity
  8
None
390
0
 62
               7
100
AcDbBlockReference
  2
pad
 10
-1.6244099999999999
 20
26.276559999999996
 30
0.0
  0
INSERT
  5
B8
100
AcDbEntity
  8
None
390
0
 62
               7
100
AcDbBlockReference
  2
pad
 10
-1.1244099999999999
 20
26.276559999999996
 30
0.0
  0
INSERT
  5
B9
100
AcDbEntity
  8
None
390
0
 62
               7
100
AcDbBlockReference
  2
pad
 10
-0.6244099999999999
 20
26.276559999999996
 30
0.0
  0
INSERT
  5
BA
100
AcDbEntity
  8
None
390
0
 62
               7
100
AcDbBlockReference
  2
pad
 10
-0.12441
 20
26.276559999999996
 30
0.0
  0
INSERT
  5
BB
100
AcDbEntity
  8
None
390
0
 62
               7
100
AcDbBlockReference
  2
pad
 10
0.37559
 20
26.276559999999996
 30
0.0
  0
INSERT
  5
BC
100
AcDbEntity
  8
None
390
0
 62
               7
100
AcDbBlockReference
  2
pad
 10
0.8755899999999999
 20
26.276559999999996
 30
0.0
  0
INSERT
  5
BD
100
AcDbEntity
  8
None
390
0
 62
               7
100
AcDbBlockReference
  2
pad
 10
1.3755899999999999
 20
26.276559999999996
 30
0.0
  0
INSERT
  5
BE
100
AcDbEntity
  8
None
390
0
 62
               7
100
AcDbBlockReference
  2
pad
 10
1.8755899999999999
 20
26.276559999999996
 30
0.0
  0
INSERT
  5
BF
100
AcDbEntity
  8
None
390
0
 62
               7
100
AcDbBlockReference
  2
pad
 10
2.3755899999999999
 20
26.276559999999996
 30
0.0
  0
INSERT
  5
C0
100
AcDbEntity
  8
None
390
0
 62
               7
100
AcDbBlockReference
  2
pad
 10
-6.6244099999999992
 20
26.776559999999996
 30
0.0
  0
INSERT
  5
C1
100
AcDbEntity
  8
None
390
0
 62
               7
100
AcDbBlockReference
  2
pad
 10
-6.1244099999999992
 20
26.776559999999996
 30
0.0
  0
INSERT
  5
C2
100
AcDbEntity
  8
None
390
0
 62
               7
100
AcDbBlockReference
  2
pad
 10
-5.6244099999999992
 20
26.776559999999996
 30
0.0
  0
INSERT
  5
C3
100
AcDbEntity
  8
None
390
0
 62
               7
100
AcDbBlockReference
  2
pad
 10
-5.1244099999999992
 20
26.776559999999996
 30
0.0
  0
INSERT
  5
C4
100
AcDbEntity
  8
None
390
0
 62
               7
100
AcDbBlockReference
  2
pad
 10
-4.6244099999999992
 20
26.776559999999996
 30
0.0
  0
INSERT
  5
C5
100
AcDbEntity
  8
None
390
0
 62
               7
100
AcDbBlockReference
  2
pad
 10
-4.1244099999999992
 20
26.776559999999996
 30
0.0
  0
INSERT
  5
C6
100
AcDbEntity
  8
None
390
0
 62
               7
100
AcDbBlockReference
  2
pad
 10
-3.6244099999999997
 20
26.776559999999996
 30
0.0
  0
INSERT
  5
C7
100
AcDbEntity
  8
None
390
0
 62
               7
100
AcDbBlockReference
  2
pad
 10
-3.1244099999999997
 20
26.776559999999996
 30
0.0
  0
INSERT
  5
C8
100
AcDbEntity
  8
None
390
0
 62
               7
100
AcDbBlockReference
  2
pad
 10
-2.6244099999999997
 20
26.776559999999996
 30
0.0
  0
INSERT
  5
C9
100
AcDbEntity
  8
None
390
0
 62
               7
100
AcDbBlockReference
  2
pad
 10
-2.1244099999999997
 20
26.776559999999996
 30
0.0
  0
INSERT
  5
CA
100
AcDbEntity
  8
None
390
0
 62
               7
100
AcDbBlockReference
  2
pad
 10
-1.6244099999999999
 20
26.776559999999996
 30
0.0
  0
INSERT
  5
CB
100
AcDbEntity
  8
None
390
0
 62
               7
100
AcDbBlockReference
  2
pad
 10
-1.1244099999999999
 20
26.776559999999996
 30
0.0
  0
INSERT
  5
CC
100
AcDbEntity
  8
None
390
0
 62
               7
100
AcDbBlockReference
  2
pad
 10
-0.6244099999999999
 20
26.776559999999996
 30
0.0
  0
INSERT
  5
CD
100
AcDbEntity
  8
None
390
0
 62
               7
100
AcDbBlockReference
  2
pad
 10
-0.12441
 20
26.776559999999996
 30
0.0
  0
INSERT
  5
CE
100
AcDbEntity
  8
None
390
0
 62
               7
100
AcDbBlockReference
  2
pad
 10
0.37559
 20
26.776559999999996
 30
0.0
  0
INSERT
  5
CF
100
AcDbEntity
  8
None
390
0
 62
               7
100
AcDbBlockReference
  2
pad
 10
0.8755899999999999
 20
26.776559999999996
 30
0.0
  0
INSERT
  5
D0
100
AcDbEntity
  8
None
390
0
 62
               7
100
AcDbBlockReference
  2
pad
 10
1.3755899999999999
 20
26.776559999999996
 30
0.0
  0
INSERT
  5
D1
100
AcDbEntity
  8
None
390
0
 62
               7
100
AcDbBlockReference
  2
pad
 10
1.8755899999999999
 20
26.776559999999996
 30
0.0
  0
INSERT
  5
D2
100
AcDbEntity
  8
None
390
0
 62
               7
100
AcDbBlockReference
  2
pad
 10
2.3755899999999999
 20
26.776559999999996
 30
0.0
  0
INSERT
  5
D3
100
AcDbEntity
  8
None
390
0
 62
               7
100
AcDbBlockReference
  2
pad
 10
-6.6244099999999992
 20
27.276559999999996
 30
0.0
  0
INSERT
  5
D4
100
AcDbEntity
  8
None
390
0
 62
               7
100
AcDbBlockReference
  2
pad
 10
-6.1244099999999992
 20
27.276559999999996
 30
0.0
  0
INSERT
  5
D5
100
AcDbEntity
  8
None
390
0
 62
               7
100
AcDbBlockReference
  2
pad
 10
-5.6244099999999992
 20
27.276559999999996
 30
0.0
  0
INSERT
  5
D6
100
AcDbEntity
  8
None
390
0
 62
               7
100
AcDbBlockReference
  2
pad
 10
-5.1244099999999992
 20
27.276559999999996
 30
0.0
  0
INSERT
  5
D7
100
AcDbEntity
  8
None
390
0
 62
               7
100
AcDbBlockReference
  2
pad
 10
-4.6244099999999992
 20
27.276559999999996
 30
0.0
  0
INSERT
  5
D8
100
AcDbEntity
  8
None
390
0
 62
               7
100
AcDbBlockReference
  2
pad
 10
-4.1244099999999992
 20
27.276559999999996
 30
0.0
  0
INSERT
  5
D9
100
AcDbEntity
  8
None
390
0
 62
               7
100
AcDbBlockReference
  2
pad
 10
-3.6244099999999997
 20
27.276559999999996
 30
0.0
  0
INSERT
  5
DA
100
AcDbEntity
  8
None
390
0
 62
               7
100
AcDbBlockReference
  2
pad
 10
-3.1244099999999997
 20
27.276559999999996
 30
0.0
  0
INSERT
  5
DB
100
AcDbEntity
  8
None
390
0
 62
               7
100
AcDbBlockReference
  2
pad
 10
-2.6244099999999997
 20
27.276559999999996
 30
0.0
  0
INSERT
  5
DC
100
AcDbEntity
  8
None
390
0
 62
               7
100
AcDbBlockReference
  2
pad
 10
-2.1244099999999997
 20
27.276559999999996
 30
0.0
  0
INSERT
  5
DD
100
AcDbEntity
  8
None
390
0
 62
               7
100
AcDbBlockReference
  2
pad
 10
-1.6244099999999999
 20
27.276559999999996
 30
0.0
  0
INSERT
  5
DE
100
AcDbEntity
  8
None
390
0
 62
               7
100
AcDbBlockReference
  2
pad
 10
-1.1244099999999999
 20
27.276559999999996
 30
0.0
  0
INSERT
  5
DF
100
AcDbEntity
  8
None
390
0
 62
               7
100
AcDbBlockReference
  2
pad
 10
-0.6244099999999999
 20
27.276559999999996
 30
0.0
  0
INSERT
  5
E0
100
AcDbEntity
  8
None
390
0
 62
               7
100
AcDbBlockReference
  2
pad
 10
-0.12441
 20
27.276559999999996
 30
0.0
  0
INSERT
  5
E1
100
AcDbEntity
  8
None
390
0
 62
               7
100
AcDbBlockReference
  2
pad
 10
0.37559
 20
27.276559999999996
 30
0.0
  0
INSERT
  5
E2
100
AcDbEntity
  8
None
390
0
 62
               7
100
AcDbBlockReference
  2
pad
 10
0.8755899999999999
 20
27.276559999999996
 30
0.0
  0
INSERT
  5
E3
100
AcDbEntity
  8
None
390
0
 62
               7
100
AcDbBlockReference
  2
pad
 10
1.3755899999999999
 20
27.276559999999996
 30
0.0
  0
INSERT
  5
E4
100
AcDbEntity
  8
None
390
0
 62
               7
100
AcDbBlockReference
  2
pad
 10
1.8755899999999999
 20
27.276559999999996
 30
0.0
  0
INSERT
  5
E5
100
AcDbEntity
  8
None
390
0
 62
               7
100
AcDbBlockReference
  2
pad
 10
2.3755899999999999
 20
27.276559999999996
 30
0.0
  0
INSERT
  5
E6
100
AcDbEntity
  8
None
390
0
 62
               7
100
AcDbBlockReference
  2
pad
 10
-6.6244099999999992
 20
27.776559999999996
 30
0.0
  0
INSERT
  5
E7
100
AcDbEntity
  8
None
390
0
 62
               7
100
AcDbBlockReference
  2
pad
 10
-6.1244099999999992
 20
27.776559999999996
 30
0.0
  0
INSERT
  5
E8
100
AcDbEntity
  8
None
390
0
 62
               7
100
AcDbBlockReference
  2
pad
 10
-5.6244099999999992
 20
27.776559999999996
 30
0.0
  0
INSERT
  5
E9
100
AcDbEntity
  8
None
390
0
 62
               7
100
AcDbBlockReference
  2
pad
 10
-5.1244099999999992
 20
27.776559999999996
 30
0.0
  0
INSERT
  5
EA
100
AcDbEntity
  8
None
390
0
 62
               7
100
AcDbBlockReference
  2
pad
 10
-4.6244099999999992
 20
27.776559999999996
 30
0.0
  0
INSERT
  5
EB
100
AcDbEntity
  8
None
390
0
 62
               7
100
AcDbBlockReference
  2
pad
 10
-4.1244099999999992
 20
27.776559999999996
 30
0.0
  0
INSERT
  5
EC
100
AcDbEntity
  8
None
390
0
 62
               7
100
AcDbBlockReference
  2
pad
 10
-3.6244099999999997
 20
27.776559999999996
 30
0.0
  0
INSERT
  5
ED
100
AcDbEntity
  8
None
390
0
 62
               7
100
AcDbBlockReference
  2
pad
 10
-3.1244099999999997
 20
27.776559999999996
 30
0.0
  0
INSERT
  5
EE
100
AcDbEntity
  8
None
390
0
 62
               7
100
AcDbBlockReference
  2
pad
 10
-2.6244099999999997
 20
27.776559999999996
 30
0.0
  0
INSERT
  5
EF
100
AcDbEntity
  8
None
390
0
 62
               7
100
AcDbBlockReference
  2
pad
 10
-2.1244099999999997
 20
27.776559999999996
 30
0.0
  0
INSERT
  5
F0
100
AcDbEntity
  8
None
390
0
 62
               7
100
AcDbBlockReference
  2
pad
 10
-1.6244099999999999
 20
27.776559999999996
 30
0.0
  0
INSERT
  5
F1
100
AcDbEntity
  8
None
390
0
 62
               7
100
AcDbBlockReference
  2
pad
 10
-1.1244099999999999
 20
27.776559999999996
 30
0.0
  0
INSERT
  5
F2
100
AcDbEntity
  8
None
390
0
 62
               7
100
AcDbBlockReference
  2
pad
 10
-0.6244099999999999
 20
27.776559999999996
 30
0.0
  0
INSERT
  5
F3
100
AcDbEntity
  8
None
390
0
 62
               7
100
AcDbBlockReference
  2
pad
 10
-0.12441
 20
27.776559999999996
 30
0.0
  0
INSERT
  5
F4
100
AcDbEntity
  8
None
390
0
 62
               7
100
AcDbBlockReference
  2
pad
 10
0.37559
 20
27.776559999999996
 30
0.0
  0
INSERT
  5
F5
100
AcDbEntity
  8
None
390
0
 62
               7
100
AcDbBlockReference
  2
pad
 10
0.8755899999999999
 20
27.776559999999996
 30
0.0
  0
INSERT
  5
F6
100
AcDbEntity
  8
None
390
0
 62
               7
100
AcDbBlockReference
  2
pad
 10
1.3755899999999999
 20
27.776559999999996
 30
0.0
  0
INSERT
  5
F7
100
AcDbEntity
  8
None
390
0
 62
               7
100
AcDbBlockReference
  2
pad
 10
1.8755899999999999
 20
27.776559999999996
 30
0.0
  0
INSERT
  5
F8
100
AcDbEntity
  8
None
390
0
 62
               7
100
AcDbBlockReference
  2
pad
 10
2.3755899999999999
 20
27.776559999999996
 30
0.0
  0
INSERT
  5
F9
100
AcDbEntity
  8
None
390
0
 62
               7
100
AcDbBlockReference
  2
pad
 10
-6.6244099999999992
 20
28.276559999999996
 30
0.0
  0
INSERT
  5
FA
100
AcDbEntity
  8
None
390
0
 62
               7
100
AcDbBlockReference
  2
pad
 10
-6.1244099999999992
 20
28.276559999999996
 30
0.0
  0
INSERT
  5
FB
100
AcDbEntity
  8
None
390
0
 62
               7
100
AcDbBlockReference
  2
pad
 10
-5.6244099999999992
 20
28.276559999999996
 30
0.0
  0
INSERT
  5
FC
100
AcDbEntity
  8
None
390
0
 62
               7
100
AcDbBlockReference
  2
pad
 10
-5.1244099999999992
 20
28.276559999999996
 30
0.0
  0
INSERT
  5
FD
100
AcDbEntity
  8
None
390
0
 62
               7
100
AcDbBlockReference
  2
pad
 10
-4.6244099999999992
 20
28.276559999999996
 30
0.0
  0
INSERT
  5
FE
100
AcDbEntity
  8
None
390
0
 62
               7
100
AcDbBlockReference
  2
pad
 10
-4.1244099999999992
 20
28.276559999999996
 30
0.0
  0
INSERT
  5
FF
100
AcDbEntity
  8
None
390
0
 62
               7
100
AcDbBlockReference
  2
pad
 10
-3.6244099999999997
 20
28.276559999999996
 30
0.0
  0
INSERT
  5
100
100
AcDbEntity
  8
None
390
0
 62
               7
100
AcDbBlockReference
  2
pad
 10
-3.1244099999999997
 20
28.276559999999996
 30
0.0
  0
INSERT
  5
101
100
AcDbEntity
  8
None
390
0
 62
               7
100
AcDbBlockReference
  2
pad
 10
-2.6244099999999997
 20
28.276559999999996
 30
0.0
  0
INSERT
  5
102
100
AcDbEntity
  8
None
390
0
 62
               7
100
AcDbBlockReference
  2
pad
 10
-2.1244099999999997
 20
28.276559999999996
 30
0.0
  0
INSERT
  5
103
100
AcDbEntity
  8
None
390
0
 62
               7
100
AcDbBlockReference
  2
pad
 10
-1.6244099999999999
 20
28.276559999999996
 30
0.0
  0
INSERT
  5
104
100
AcDbEntity
  8
None
390
0
 62
               7
100
AcDbBlockReference
  2
pad
 10
-1.1244099999999999
 20
28.276559999999996
 30
0.0
  0
INSERT
  5
105
100
AcDbEntity
  8
None
390
0
 62
               7
100
AcDbBlockReference
  2
pad
 10
-0.6244099999999999
 20
28.276559999999996
 30
0.0
  0
INSERT
  5
106
100
AcDbEntity
  8
None
390
0
 62
               7
100
AcDbBlockReference
  2
pad
 10
-0.12441
 20
28.276559999999996
 30
0.0
  0
INSERT
  5
107
100
AcDbEntity
  8
None
390
0
 62
               7
100
AcDbBlockReference
  2
pad
 10
0.37559
 20
28.276559999999996
 30
0.0
  0
INSERT
  5
108
100
AcDbEntity
  8
None
390
0
 62
               7
100
AcDbBlockReference
  2
pad
 10
0.8755899999999999
 20
28.276559999999996
 30
0.0
  0
INSERT
  5
109
100
AcDbEntity
  8
None
390
0
 62
               7
100
AcDbBlockReference
  2
pad
 10
1.3755899999999999
 20
28.276559999999996
 30
0.0
  0
INSERT
  5
10A
100
AcDbEntity
  8
None
390
0
 62
               7
100
AcDbBlockReference
  2
pad
 10
1.8755899999999999
 20
28.276559999999996
 30
0.0
  0
INSERT
  5
10B
100
AcDbEntity
  8
None
390
0
 62
               7
100
AcDbBlockReference
  2
pad
 10
2.3755899999999999
 20
28.276559999999996
 30
0.0
  0
INSERT
  5
10C
100
AcDbEntity
  8
None
390
0
 62
               7
100
AcDbBlockReference
  2
pad
 10
-6.6244099999999992
 20
28.776559999999996
 30
0.0
  0
INSERT
  5
10D
100
AcDbEntity
  8
None
390
0
 62
               7
100
AcDbBlockReference
  2
pad
 10
-6.1244099999999992
 20
28.776559999999996
 30
0.0
  0
INSERT
  5
10E
100
AcDbEntity
  8
None
390
0
 62
               7
100
AcDbBlockReference
  2
pad
 10
-5.6244099999999992
 20
28.776559999999996
 30
0.0
  0
INSERT
  5
10F
100
AcDbEntity
  8
None
390
0
 62
               7
100
AcDbBlockReference
  2
pad
 10
-5.1244099999999992
 20
28.776559999999996
 30
0.0
  0
INSERT
  5
110
100
AcDbEntity
  8
None
390
0
 62
               7
100
AcDbBlockReference
  2
pad
 10
-4.6244099999999992
 20
28.776559999999996
 30
0.0
  0
INSERT
  5
111
100
AcDbEntity
  8
None
390
0
 62
               7
100
AcDbBlockReference
  2
pad
 10
-4.1244099999999992
 20
28.776559999999996
 30
0.0
  0
INSERT
  5
112
100
AcDbEntity
  8
None
390
0
 62
               7
100
AcDbBlockReference
  2
pad
 10
-3.6244099999999997
 20
28.776559999999996
 30
0.0
  0
INSERT
  5
113
100
AcDbEntity
  8
None
390
0
 62
               7
100
AcDbBlockReference
  2
pad
 10
-3.1244099999999997
 20
28.776559999999996
 30
0.0
  0
INSERT
  5
114
100
AcDbEntity
  8
None
390
0
 62
               7
100
AcDbBlockReference
  2
pad
 10
-2.6244099999999997
 20
28.776559999999996
 30
0.0
  0
INSERT
  5
115
100
AcDbEntity
  8
None
390
0
 62
               7
100
AcDbBlockReference
  2
pad
 10
-2.1244099999999997
 20
28.776559999999996
 30
0.0
  0
INSERT
  5
116
100
AcDbEntity
  8
None
390
0
 62
               7
100
AcDbBlockReference
  2
pad
 10
-1.6244099999999999
 20
28.776559999999996
 30
0.0
  0
INSERT
  5
117
100
AcDbEntity
  8
None
390
0
 62
               7
100
AcDbBlockReference
  2
pad
 10
-1.1244099999999999
 20
28.776559999999996
 30
0.0
  0
INSERT
  5
118
100
AcDbEntity
  8
None
390
0
 62
               7
100
AcDbBlockReference
  2
pad
 10
-0.6244099999999999
 20
28.776559999999996
 30
0.0
  0
INSERT
  5
119
100
AcDbEntity
  8
None
390
0
 62
               7
100
AcDbBlockReference
  2
pad
 10
-0.12441
 20
28.776559999999996
 30
0.0
  0
INSERT
  5
11A
100
AcDbEntity
  8
None
390
0
 62
               7
100
AcDbBlockReference
  2
pad
 10
0.37559
 20
28.776559999999996
 30
0.0
  0
INSERT
  5
11B
100
AcDbEntity
  8
None
390
0
 62
               7
100
AcDbBlockReference
  2
pad
 10
0.8755899999999999
 20
28.776559999999996
 30
0.0
  0
INSERT
  5
11C
100
AcDbEntity
  8
None
390
0
 62
               7
100
AcDbBlockReference
  2
pad
 10
1.3755899999999999
 20
28.776559999999996
 30
0.0
  0
INSERT
  5
11D
100
AcDbEntity
  8
None
390
0
 62
               7
100
AcDbBlockReference
  2
pad
 10
1.8755899999999999
 20
28.776559999999996
 30
0.0
  0
INSERT
  5
11E
100
AcDbEntity
  8
None
390
0
 62
               7
100
AcDbBlockReference
  2
pad
 10
2.3755899999999999
 20
28.776559999999996
 30
0.0
  0
INSERT
  5
11F
100
AcDbEntity
  8
None
390
0
 62
               7
100
AcDbBlockReference
  2
pad
 10
-6.6244099999999992
 20
29.276559999999996
 30
0.0
  0
INSERT
  5
120
100
AcDbEntity
  8
None
390
0
 62
               7
100
AcDbBlockReference
  2
pad
 10
-6.1244099999999992
 20
29.276559999999996
 30
0.0
  0
INSERT
  5
121
100
AcDbEntity
  8
None
390
0
 62
               7
100
AcDbBlockReference
  2
pad
 10
-5.6244099999999992
 20
29.276559999999996
 30
0.0
  0
INSERT
  5
122
100
AcDbEntity
  8
None
390
0
 62
               7
100
AcDbBlockReference
  2
pad
 10
-5.1244099999999992
 20
29.276559999999996
 30
0.0
  0
INSERT
  5
123
100
AcDbEntity
  8
None
390
0
 62
               7
100
AcDbBlockReference
  2
pad
 10
-4.6244099999999992
 20
29.276559999999996
 30
0.0
  0
INSERT
  5
124
100
AcDbEntity
  8
None
390
0
 62
               7
100
AcDbBlockReference
  2
pad
 10
-4.1244099999999992
 20
29.276559999999996
 30
0.0
  0
INSERT
  5
125
100
AcDbEntity
  8
None
390
0
 62
               7
100
AcDbBlockReference
  2
pad
 10
-3.6244099999999997
 20
29.276559999999996
 30
0.0
  0
INSERT
  5
126
100
AcDbEntity
  8
None
390
0
 62
               7
100
AcDbBlockReference
  2
pad
 10
-3.1244099999999997
 20
29.276559999999996
 30
0.0
  0
INSERT
  5
127
100
AcDbEntity
  8
None
390
0
 62
               7
100
AcDbBlockReference
  2
pad
 10
-2.6244099999999997
 20
29.276559999999996
 30
0.0
  0
INSERT
  5
128
100
AcDbEntity
  8
None
390
0
 62
               7
100
AcDbBlockReference
  2
pad
 10
-2.1244099999999997
 20
29.276559999999996
 30
0.0
  0
INSERT
  5
129
100
AcDbEntity
  8
None
390
0
 62
               7
100
AcDbBlockReference
  2
pad
 10
-1.6244099999999999
 20
29.276559999999996
 30
0.0
  0
INSERT
  5
12A
100
AcDbEntity
  8
None
390
0
 62
               7
100
AcDbBlockReference
  2
pad
 10
-1.1244099999999999
 20
29.276559999999996
 30
0.0
  0
INSERT
  5
12B
100
AcDbEntity
  8
None
390
0
 62
               7
100
AcDbBlockReference
  2
pad
 10
-0.6244099999999999
 20
29.276559999999996
 30
0.0
  0
INSERT
  5
12C
100
AcDbEntity
  8
None
390
0
 62
               7
100
AcDbBlockReference
  2
pad
 10
-0.12441
 20
29.276559999999996
 30
0.0
  0
INSERT
  5
12D
100
AcDbEntity
  8
None
390
0
 62
               7
100
AcDbBlockReference
  2
pad
 10
0.37559
 20
29.276559999999996
 30
0.0
  0
INSERT
  5
12E
100
AcDbEntity
  8
None
390
0
 62
               7
100
AcDbBlockReference
  2
pad
 10
0.8755899999999999
 20
29.276559999999996
 30
0.0
  0
INSERT
  5
12F
100
AcDbEntity
  8
None
390
0
 62
               7
100
AcDbBlockReference
  2
pad
 10
1.3755899999999999
 20
29.276559999999996
 30
0.0
  0
INSERT
  5
130
100
AcDbEntity
  8
None
390
0
 62
               7
100
AcDbBlockReference
  2
pad
 10
1.8755899999999999
 20
29.276559999999996
 30
0.0
  0
INSERT
  5
131
100
AcDbEntity
  8
None
390
0
 62
               7
100
AcDbBlockReference
  2
pad
 10
2.3755899999999999
 20
29.276559999999996
 30
0.0
  0
INSERT
  5
132
100
AcDbEntity
  8
None
390
0
 62
               7
100
AcDbBlockReference
  2
pad
 10
-6.6244099999999992
 20
29.776559999999996
 30
0.0
  0
INSERT
  5
133
100
AcDbEntity
  8
None
390
0
 62
               7
100
AcDbBlockReference
  2
pad
 10
-6.1244099999999992
 20
29.776559999999996
 30
0.0
  0
INSERT
  5
134
100
AcDbEntity
  8
None
390
0
 62
               7
100
AcDbBlockReference
  2
pad
 10
-5.6244099999999992
 20
29.776559999999996
 30
0.0
  0
INSERT
  5
135
100
AcDbEntity
  8
None
390
0
 62
               7
100
AcDbBlockReference
  2
pad
 10
-5.1244099999999992
 20
29.776559999999996
 30
0.0
  0
INSERT
  5
136
100
AcDbEntity
  8
None
390
0
 62
               7
100
AcDbBlockReference
  2
pad
 10
-4.6244099999999992
 20
29.776559999999996
 30
0.0
  0
INSERT
  5
137
100
AcDbEntity
  8
None
390
0
 62
               7
100
AcDbBlockReference
  2
pad
 10
-4.1244099999999992
 20
29.776559999999996
 30
0.0
  0
INSERT
  5
138
100
AcDbEntity
  8
None
390
0
 62
               7
100
AcDbBlockReference
  2
pad
 10
-3.6244099999999997
 20
29.776559999999996
 30
0.0
  0
INSERT
  5
139
100
AcDbEntity
  8
None
390
0
 62
               7
100
AcDbBlockReference
  2
pad
 10
-3.1244099999999997
 20
29.776559999999996
 30
0.0
  0
INSERT
  5
13A
100
AcDbEntity
  8
None
390
0
 62
               7
100
AcDbBlockReference
  2
pad
 10
-2.6244099999999997
 20
29.776559999999996
 30
0.0
  0
INSERT
  5
13B
100
AcDbEntity
  8
None
390
0
 62
               7
100
AcDbBlockReference
  2
pad
 10
-2.1244099999999997
 20
29.776559999999996
 30
0.0
  0
INSERT
  5
13C
100
AcDbEntity
  8
None
390
0
 62
               7
100
AcDbBlockReference
  2
pad
 10
-1.6244099999999999
 20
29.776559999999996
 30
0.0
  0
INSERT
  5
13D
100
AcDbEntity
  8
None
390
0
 62
               7
100
AcDbBlockReference
  2
pad
 10
-1.1244099999999999
 20
29.776559999999996
 30
0.0
  0
INSERT
  5
13E
100
AcDbEntity
  8
None
390
0
 62
               7
100
AcDbBlockReference
  2
pad
 10
-0.6244099999999999
 20
29.776559999999996
 30
0.0
  0
INSERT
  5
13F
100
AcDbEntity
  8
None
390
0
 62
               7
100
AcDbBlockReference
  2
pad
 10
-0.12441
 20
29.776559999999996
 30
0.0
  0
INSERT
  5
140
100
AcDbEntity
  8
None
390
0
 62
               7
100
AcDbBlockReference
  2
pad
 10
0.37559
 20
29.776559999999996
 30
0.0
  0
INSERT
  5
141
100
AcDbEntity
  8
None
390
0
 62
               7
100
AcDbBlockReference
  2
pad
 10
0.8755899999999999
 20
29.776559999999996
 30
0.0
  0
INSERT
  5
142
100
AcDbEntity
  8
None
390
0
 62
               7
100
AcDbBlockReference
  2
pad
 10
1.3755899999999999
 20
29.776559999999996
 30
0.0
  0
INSERT
  5
143
100
AcDbEntity
  8
None
390
0
 62
               7
100
AcDbBlockReference
  2
pad
 10
1.8755899999999999
 20
29.776559999999996
 30
0.0
  0
INSERT
  5
144
100
AcDbEntity
  8
None
390
0
 62
               7
100
AcDbBlockReference
  2
pad
 10
2.3755899999999999
 20
29.776559999999996
 30
0.0
  0
INSERT
  5
145
100
AcDbEntity
  8
None
390
0
 62
               7
100
AcDbBlockReference
  2
pad
 10
-6.6244099999999992
 20
30.276559999999996
 30
0.0
  0
INSERT
  5
146
100
AcDbEntity
  8
None
390
0
 62
               7
100
AcDbBlockReference
  2
pad
 10
-6.1244099999999992
 20
30.276559999999996
 30
0.0
  0
INSERT
  5
147
100
AcDbEntity
  8
None
390
0
 62
               7
100
AcDbBlockReference
  2
pad
 10
-5.6244099999999992
 20
30.276559999999996
 30
0.0
  0
INSERT
  5
148
100
AcDbEntity
  8
None
390
0
 62
               7
100
AcDbBlockReference
  2
pad
 10
-5.1244099999999992
 20
30.276559999999996
 30
0.0
  0
INSERT
  5
149
100
AcDbEntity
  8
None
390
0
 62
               7
100
AcDbBlockReference
  2
pad
 10
-4.6244099999999992
 20
30.276559999999996
 30
0.0
  0
INSERT
  5
14A
100
AcDbEntity
  8
None
390
0
 62
               7
100
AcDbBlockReference
  2
pad
 10
-4.1244099999999992
 20
30.276559999999996
 30
0.0
  0
INSERT
  5
14B
100
AcDbEntity
  8
None
390
0
 62
               7
100
AcDbBlockReference
  2
pad
 10
-3.6244099999999997
 20
30.276559999999996
 30
0.0
  0
INSERT
  5
14C
100
AcDbEntity
  8
None
390
0
 62
               7
100
AcDbBlockReference
  2
pad
 10
-3.1244099999999997
 20
30.276559999999996
 30
0.0
  0
INSERT
  5
14D
100
AcDbEntity
  8
None
390
0
 62
               7
100
AcDbBlockReference
  2
pad
 10
-2.6244099999999997
 20
30.276559999999996
 30
0.0
  0
INSERT
  5
14E
100
AcDbEntity
  8
None
390
0
 62
               7
100
AcDbBlockReference
  2
pad
 10
-2.1244099999999997
 20
30.276559999999996
 30
0.0
  0
INSERT
  5
14F
100
AcDbEntity
  8
None
390
0
 62
               7
100
AcDbBlockReference
  2
pad
 10
-1.6244099999999999
 20
30.276559999999996
 30
0.0
  0
INSERT
  5
150
100
AcDbEntity
  8
None
390
0
 62
               7
100
AcDbBlockReference
  2
pad
 10
-1.1244099999999999
 20
30.276559999999996
 30
0.0
  0
INSERT
  5
151
100
AcDbEntity
  8
None
390
0
 62
               7
100
AcDbBlockReference
  2
pad
 10
-0.6244099999999999
 20
30.276559999999996
 30
0.0
  0
INSERT
  5
152
100
AcDbEntity
  8
None
390
0
 62
               7
100
AcDbBlockReference
  2
pad
 10
-0.12441
 20
30.276559999999996
 30
0.0
  0
INSERT
  5
153
100
AcDbEntity
  8
None
390
0
 62
               7
100
AcDbBlockReference
  2
pad
 10
0.37559
 20
30.276559999999996
 30
0.0
  0
INSERT
  5
154
100
AcDbEntity
  8
None
390
0
 62
               7
100
AcDbBlockReference
  2
pad
 10
0.8755899999999999
 20
30.276559999999996
 30
0.0
  0
INSERT
  5
155
100
AcDbEntity
  8
None
390
0
 62
               7
100
AcDbBlockReference
  2
pad
 10
1.3755899999999999
 20
30.276559999999996
 30
0.0
  0
INSERT
  5
156
100
AcDbEntity
  8
None
390
0
 62
               7
100
AcDbBlockReference
  2
pad
 10
1.8755899999999999
 20
30.276559999999996
 30
0.0
  0
INSERT
  5
157
100
AcDbEntity
  8
None
390
0
 62
               7
100
AcDbBlockReference
  2
pad
 10
2.3755899999999999
 20
30.276559999999996
 30
0.0
  0
INSERT
  5
158
100
AcDbEntity
  8
None
390
0
 62
               7
100
AcDbBlockReference
  2
pad
 10
-6.6244099999999992
 20
30.776559999999996
 30
0.0
  0
INSERT
  5
159
100
AcDbEntity
  8
None
390
0
 62
               7
100
AcDbBlockReference
  2
pad
 10
-6.1244099999999992
 20
30.776559999999996
 30
0.0
  0
INSERT
  5
15A
100
AcDbEntity
  8
None
390
0
 62
               7
100
AcDbBlockReference
  2
pad
 10
-5.6244099999999992
 20
30.776559999999996
 30
0.0
  0
INSERT
  5
15B
100
AcDbEntity
  8
None
390
0
 62
               7
100
AcDbBlockReference
  2
pad
 10
-5.1244099999999992
 20
30.776559999999996
 30
0.0
  0
INSERT
  5
15C
100
AcDbEntity
  8
None
390
0
 62
               7
100
AcDbBlockReference
  2
pad
 10
-4.6244099999999992
 20
30.776559999999996
 30
0.0
  0
INSERT
  5
15D
100
AcDbEntity
  8
None
390
0
 62
               7
100
AcDbBlockReference
  2
pad
 10
-4.1244099999999992
 20
30.776559999999996
 30
0.0
  0
INSERT
  5
15E
100
AcDbEntity
  8
None
390
0
 62
               7
100
AcDbBlockReference
  2
pad
 10
-3.6244099999999997
 20
30.776559999999996
 30
0.0
  0
INSERT
  5
15F
100
AcDbEntity
  8
None
390
0
 62
               7
100
AcDbBlockReference
  2
pad
 10
-3.1244099999999997
 20
30.776559999999996
 30
0.0
  0
INSERT
  5
160
100
AcDbEntity
  8
None
390
0
 62
               7
100
AcDbBlockReference
  2
pad
 10
-2.6244099999999997
 20
30.776559999999996
 30
0.0
  0
INSERT
  5
161
100
AcDbEntity
  8
None
390
0
 62
               7
100
AcDbBlockReference
  2
pad
 10
-2.1244099999999997
 20
30.776559999999996
 30
0.0
  0
INSERT
  5
162
100
AcDbEntity
  8
None
390
0
 62
               7
100
AcDbBlockReference
  2
pad
 10
-1.6244099999999999
 20
30.776559999999996
 30
0.0
  0
INSERT
  5
163
100
AcDbEntity
  8
None
390
0
 62
               7
100
AcDbBlockReference
  2
pad
 10
-1.1244099999999999
 20
30.776559999999996
 30
0.0
  0
INSERT
  5
164
100
AcDbEntity
  8
None
390
0
 62
               7
100
AcDbBlockReference
  2
pad
 10
-0.6244099999999999
 20
30.776559999999996
 30
0.0
  0
INSERT
  5
165
100
AcDbEntity
  8
None
390
0
 62
               7
100
AcDbBlockReference
  2
pad
 10
-0.12441
 20
30.776559999999996
 30
0.0
  0
INSERT
  5
166
100
AcDbEntity
  8
None
390
0
 62
               7
100
AcDbBlockReference
  2
pad
 10
0.37559
 20
30.776559999999996
 30
0.0
  0
INSERT
  5
167
100
AcDbEntity
  8
None
390
0
 62
               7
100
AcDbBlockReference
  2
pad
 10
0.8755899999999999
 20
30.776559999999996
 30
0.0
  0
INSERT
  5
168
100
AcDbEntity
  8
None
390
0
 62
               7
100
AcDbBlockReference
  2
pad
 10
1.3755899999999999
 20
30.776559999999996
 30
0.0
  0
INSERT
  5
169
100
AcDbEntity
  8
None
390
0
 62
               7
100
AcDbBlockReference
  2
pad
 10
1.8755899999999999
 20
30.776559999999996
 30
0.0
  0
INSERT
  5
16A
100
AcDbEntity
  8
None
390
0
 62
               7
100
AcDbBlockReference
  2
pad
 10
2.3755899999999999
 20
30.776559999999996
 30
0.0
  0
INSERT
  5
16B
100
AcDbEntity
  8
None
390
0
 62
               7
100
AcDbBlockReference
  2
pad
 10
-6.6244099999999992
 20
31.276559999999996
 30
0.0
  0
INSERT
  5
16C
100
AcDbEntity
  8
None
390
0
 62
               7
100
AcDbBlockReference
  2
pad
 10
-6.1244099999999992
 20
31.276559999999996
 30
0.0
  0
INSERT
  5
16D
100
AcDbEntity
  8
None
390
0
 62
               7
100
AcDbBlockReference
  2
pad
 10
-5.6244099999999992
 20
31.276559999999996
 30
0.0
  0
INSERT
  5
16E
100
AcDbEntity
  8
None
390
0
 62
               7
100
AcDbBlockReference
  2
pad
 10
-5.1244099999999992
 20
31.276559999999996
 30
0.0
  0
INSERT
  5
16F
100
AcDbEntity
  8
None
390
0
 62
               7
100
AcDbBlockReference
  2
pad
 10
-4.6244099999999992
 20
31.276559999999996
 30
0.0
  0
INSERT
  5
170
100
AcDbEntity
  8
None
390
0
 62
               7
100
AcDbBlockReference
  2
pad
 10
-4.1244099999999992
 20
31.276559999999996
 30
0.0
  0
INSERT
  5
171
100
AcDbEntity
  8
None
390
0
 62
               7
100
AcDbBlockReference
  2
pad
 10
-3.6244099999999997
 20
31.276559999999996
 30
0.0
  0
INSERT
  5
172
100
AcDbEntity
  8
None
390
0
 62
               7
100
AcDbBlockReference
  2
pad
 10
-3.1244099999999997
 20
31.276559999999996
 30
0.0
  0
INSERT
  5
173
100
AcDbEntity
  8
None
390
0
 62
               7
100
AcDbBlockReference
  2
pad
 10
-2.6244099999999997
 20
31.276559999999996
 30
0.0
  0
INSERT
  5
174
100
AcDbEntity
  8
None
390
0
 62
               7
100
AcDbBlockReference
  2
pad
 10
-2.1244099999999997
 20
31.276559999999996
 30
0.0
  0
INSERT
  5
175
100
AcDbEntity
  8
None
390
0
 62
               7
100
AcDbBlockReference
  2
pad
 10
-1.6244099999999999
 20
31.276559999999996
 30
0.0
  0
INSERT
  5
176
100
AcDbEntity
  8
None
390
0
 62
               7
100
AcDbBlockReference
  2
pad
 10
-1.1244099999999999
 20
31.276559999999996
 30
0.0
  0
INSERT
  5
177
100
AcDbEntity
  8
None
390
0
 62
               7
100
AcDbBlockReference
  2
pad
 10
-0.6244099999999999
 20
31.276559999999996
 30
0.0
  0
INSERT
  5
178
100
AcDbEntity
  8
None
390
0
 62
               7
100
AcDbBlockReference
  2
pad
 10
-0.12441
 20
31.276559999999996
 30
0.0
  0
INSERT
  5
179
100
AcDbEntity
  8
None
390
0
 62
               7
100
AcDbBlockReference
  2
pad
 10
0.37559
 20
31.276559999999996
 30
0.0
  0
INSERT
  5
17A
100
AcDbEntity
  8
None
390
0
 62
               7
100
AcDbBlockReference
  2
pad
 10
0.8755899999999999
 20
31.276559999999996
 30
0.0
  0
INSERT
  5
17B
100
AcDbEntity
  8
None
390
0
 62
               7
100
AcDbBlockReference
  2
pad
 10
1.3755899999999999
 20
31.276559999999996
 30
0.0
  0
INSERT
  5
17C
100
AcDbEntity
  8
None
390
0
 62
               7
100
AcDbBlockReference
  2
pad
 10
1.8755899999999999
 20
31.276559999999996
 30
0.0
  0
INSERT
  5
17D
100
AcDbEntity
  8
None
390
0
 62
               7
100
AcDbBlockReference
  2
pad
 10
2.3755899999999999
 20
31.276559999999996
 30
0.0
  0
INSERT
  5
17E
100
AcDbEntity
  8
None
390
0
 62
               7
100
AcDbBlockReference
  2
pad
 10
-6.6244099999999992
 20
31.776559999999996
 30
0.0
  0
INSERT
  5
17F
100
AcDbEntity
  8
None
390
0
 62
               7
100
AcDbBlockReference
  2
pad
 10
-6.1244099999999992
 20
31.776559999999996
 30
0.0
  0
INSERT
  5
180
100
AcDbEntity
  8
None
390
0
 62
               7
100
AcDbBlockReference
  2
pad
 10
-5.6244099999999992
 20
31.776559999999996
 30
0.0
  0
INSERT
  5
181
100
AcDbEntity
  8
None
390
0
 62
               7
100
AcDbBlockReference
  2
pad
 10
-5.1244099999999992
 20
31.776559999999996
 30
0.0
  0
INSERT
  5
182
100
AcDbEntity
  8
None
390
0
 62
               7
100
AcDbBlockReference
  2
pad
 10
-4.6244099999999992
 20
31.776559999999996
 30
0.0
  0
INSERT
  5
183
100
AcDbEntity
  8
None
390
0
 62
               7
100
AcDbBlockReference
  2
pad
 10
-4.1244099999999992
 20
31.776559999999996
 30
0.0
  0
INSERT
  5
184
100
AcDbEntity
  8
None
390
0
 62
               7
100
AcDbBlockReference
  2
pad
 10
-3.6244099999999997
 20
31.776559999999996
 30
0.0
  0
INSERT
  5
185
100
AcDbEntity
  8
None
390
0
 62
               7
100
AcDbBlockReference
  2
pad
 10
-3.1244099999999997
 20
31.776559999999996
 30
0.0
  0
INSERT
  5
186
100
AcDbEntity
  8
None
390
0
 62
               7
100
AcDbBlockReference
  2
pad
 10
-2.6244099999999997
 20
31.776559999999996
 30
0.0
  0
INSERT
  5
187
100
AcDbEntity
  8
None
390
0
 62
               7
100
AcDbBlockReference
  2
pad
 10
-2.1244099999999997
 20
31.776559999999996
 30
0.0
  0
INSERT
  5
188
100
AcDbEntity
  8
None
390
0
 62
               7
100
AcDbBlockReference
  2
pad
 10
-1.6244099999999999
 20
31.776559999999996
 30
0.0
  0
INSERT
  5
189
100
AcDbEntity
  8
None
390
0
 62
               7
100
AcDbBlockReference
  2
pad
 10
-1.1244099999999999
 20
31.776559999999996
 30
0.0
  0
INSERT
  5
18A
100
AcDbEntity
  8
None
390
0
 62
               7
100
AcDbBlockReference
  2
pad
 10
-0.6244099999999999
 20
31.776559999999996
 30
0.0
  0
INSERT
  5
18B
100
AcDbEntity
  8
None
390
0
 62
               7
100
AcDbBlockReference
  2
pad
 10
-0.12441
 20
31.776559999999996
 30
0.0
  0
INSERT
  5
18C
100
AcDbEntity
  8
None
390
0
 62
               7
100
AcDbBlockReference
  2
pad
 10
0.37559
 20
31.776559999999996
 30
0.0
  0
INSERT
  5
18D
100
AcDbEntity
  8
None
390
0
 62
               7
100
AcDbBlockReference
  2
pad
 10
0.8755899999999999
 20
31.776559999999996
 30
0.0
  0
INSERT
  5
18E
100
AcDbEntity
  8
None
390
0
 62
               7
100
AcDbBlockReference
  2
pad
 10
1.3755899999999999
 20
31.776559999999996
 30
0.0
  0
INSERT
  5
18F
100
AcDbEntity
  8
None
390
0
 62
               7
100
AcDbBlockReference
  2
pad
 10
1.8755899999999999
 20
31.776559999999996
 30
0.0
  0
INSERT
  5
190
100
AcDbEntity
  8
None
390
0
 62
               7
100
AcDbBlockReference
  2
pad
 10
2.3755899999999999
 20
31.776559999999996
 30
0.0
  0
INSERT
  5
191
100
AcDbEntity
  8
None
390
0
 62
               7
100
AcDbBlockReference
  2
pad
 10
-6.6244099999999992
 20
32.276559999999996
 30
0.0
  0
INSERT
  5
192
100
AcDbEntity
  8
None
390
0
 62
               7
100
AcDbBlockReference
  2
pad
 10
-6.1244099999999992
 20
32.276559999999996
 30
0.0
  0
INSERT
  5
193
100
AcDbEntity
  8
None
390
0
 62
               7
100
AcDbBlockReference
  2
pad
 10
-5.6244099999999992
 20
32.276559999999996
 30
0.0
  0
INSERT
  5
194
100
AcDbEntity
  8
None
390
0
 62
               7
100
AcDbBlockReference
  2
pad
 10
-5.1244099999999992
 20
32.276559999999996
 30
0.0
  0
INSERT
  5
195
100
AcDbEntity
  8
None
390
0
 62
               7
100
AcDbBlockReference
  2
pad
 10
-4.6244099999999992
 20
32.276559999999996
 30
0.0
  0
INSERT
  5
196
100
AcDbEntity
  8
None
390
0
 62
               7
100
AcDbBlockReference
  2
pad
 10
-4.1244099999999992
 20
32.276559999999996
 30
0.0
  0
INSERT
  5
197
100
AcDbEntity
  8
None
390
0
 62
               7
100
AcDbBlockReference
  2
pad
 10
-3.6244099999999997
 20
32.276559999999996
 30
0.0
  0
INSERT
  5
198
100
AcDbEntity
  8
None
390
0
 62
               7
100
AcDbBlockReference
  2
pad
 10
-3.1244099999999997
 20
32.276559999999996
 30
0.0
  0
INSERT
  5
199
100
AcDbEntity
  8
None
390
0
 62
               7
100
AcDbBlockReference
  2
pad
 10
-2.6244099999999997
 20
32.276559999999996
 30
0.0
  0
INSERT
  5
19A
100
AcDbEntity
  8
None
390
0
 62
               7
100
AcDbBlockReference
  2
pad
 10
-2.1244099999999997
 20
32.276559999999996
 30
0.0
  0
INSERT
  5
19B
100
AcDbEntity
  8
None
390
0
 62
               7
100
AcDbBlockReference
  2
pad
 10
-1.6244099999999999
 20
32.276559999999996
 30
0.0
  0
INSERT
  5
19C
100
AcDbEntity
  8
None
390
0
 62
               7
100
AcDbBlockReference
  2
pad
 10
-1.1244099999999999
 20
32.276559999999996
 30
0.0
  0
INSERT
  5
19D
100
AcDbEntity
  8
None
390
0
 62
               7
100
AcDbBlockReference
  2
pad
 10
-0.6244099999999999
 20
32.276559999999996
 30
0.0
  0
INSERT
  5
19E
100
AcDbEntity
  8
None
390
0
 62
               7
100
AcDbBlockReference
  2
pad
 10
-0.12441
 20
32.276559999999996
 30
0.0
  0
INSERT
  5
19F
100
AcDbEntity
  8
None
390
0
 62
               7
100
AcDbBlockReference
  2
pad
 10
0.37559
 20
32.276559999999996
 30
0.0
  0
INSERT
  5
1A0
100
AcDbEntity
  8
None
390
0
 62
               7
100
AcDbBlockReference
  2
pad
 10
0.8755899999999999
 20
32.276559999999996
 30
0.0
  0
INSERT
  5
1A1
100
AcDbEntity
  8
None
390
0
 62
               7
100
AcDbBlockReference
  2
pad
 10
1.3755899999999999
 20
32.276559999999996
 30
0.0
  0
INSERT
  5
1A2
100
AcDbEntity
  8
None
390
0
 62
               7
100
AcDbBlockReference
  2
pad
 10
1.8755899999999999
 20
32.276559999999996
 30
0.0
  0
INSERT
  5
1A3
100
AcDbEntity
  8
None
390
0
 62
               7
100
AcDbBlockReference
  2
pad
 10
2.3755899999999999
 20
32.276559999999996
 30
0.0
  0
INSERT
  5
1A4
100
AcDbEntity
  8
None
390
0
 62
               7
100
AcDbBlockReference
  2
pad
 10
-6.6244099999999992
 20
32.776559999999996
 30
0.0
  0
INSERT
  5
1A5
100
AcDbEntity
  8
None
390
0
 62
               7
100
AcDbBlockReference
  2
pad
 10
-6.1244099999999992
 20
32.776559999999996
 30
0.0
  0
INSERT
  5
1A6
100
AcDbEntity
  8
None
390
0
 62
               7
100
AcDbBlockReference
  2
pad
 10
-5.6244099999999992
 20
32.776559999999996
 30
0.0
  0
INSERT
  5
1A7
100
AcDbEntity
  8
None
390
0
 62
               7
100
AcDbBlockReference
  2
pad
 10
-5.1244099999999992
 20
32.776559999999996
 30
0.0
  0
INSERT
  5
1A8
100
AcDbEntity
  8
None
390
0
 62
               7
100
AcDbBlockReference
  2
pad
 10
-4.6244099999999992
 20
32.776559999999996
 30
0.0
  0
INSERT
  5
1A9
100
AcDbEntity
  8
None
390
0
 62
               7
100
AcDbBlockReference
  2
pad
 10
-4.1244099999999992
 20
32.776559999999996
 30
0.0
  0
INSERT
  5
1AA
100
AcDbEntity
  8
None
390
0
 62
               7
100
AcDbBlockReference
  2
pad
 10
-3.6244099999999997
 20
32.776559999999996
 30
0.0
  0
INSERT
  5
1AB
100
AcDbEntity
  8
None
390
0
 62
               7
100
AcDbBlockReference
  2
pad
 10
-3.1244099999999997
 20
32.776559999999996
 30
0.0
  0
INSERT
  5
1AC
100
AcDbEntity
  8
None
390
0
 62
               7
100
AcDbBlockReference
  2
pad
 10
-2.6244099999999997
 20
32.776559999999996
 30
0.0
  0
INSERT
  5
1AD
100
AcDbEntity
  8
None
390
0
 62
               7
100
AcDbBlockReference
  2
pad
 10
-2.1244099999999997
 20
32.776559999999996
 30
0.0
  0
INSERT
  5
1AE
100
AcDbEntity
  8
None
390
0
 62
               7
100
AcDbBlockReference
  2
pad
 10
-1.6244099999999999
 20
32.776559999999996
 30
0.0
  0
INSERT
  5
1AF
100
AcDbEntity
  8
None
390
0
 62
               7
100
AcDbBlockReference
  2
pad
 10
-1.1244099999999999
 20
32.776559999999996
 30
0.0
  0
INSERT
  5
1B0
100
AcDbEntity
  8
None
390
0
 62
               7
100
AcDbBlockReference
  2
pad
 10
-0.6244099999999999
 20
32.776559999999996
 30
0.0
  0
INSERT
  5
1B1
100
AcDbEntity
  8
None
390
0
 62
               7
100
AcDbBlockReference
  2
pad
 10
-0.12441
 20
32.776559999999996
 30
0.0
  0
INSERT
  5
1B2
100
AcDbEntity
  8
None
390
0
 62
               7
100
AcDbBlockReference
  2
pad
 10
0.37559
 20
32.776559999999996
 30
0.0
  0
INSERT
  5
1B3
100
AcDbEntity
  8
None
390
0
 62
               7
100
AcDbBlockReference
  2
pad
 10
0.8755899999999999
 20
32.776559999999996
 30
0.0
  0
INSERT
  5
1B4
100
AcDbEntity
  8
None
390
0
 62
               7
100
AcDbBlockReference
  2
pad
 10
1.3755899999999999
 20
32.776559999999996
 30
0.0
  0
INSERT
  5
1B5
100
AcDbEntity
  8
None
390
0
 62
               7
100
AcDbBlockReference
  2
pad
 10
1.8755899999999999
 20
32.776559999999996
 30
0.0
  0
INSERT
  5
1B6
100
AcDbEntity
  8
None
390
0
 62
               7
100
AcDbBlockReference
  2
pad
 10
2.3755899999999999
 20
32.776559999999996
 30
0.0
  0
INSERT
  5
1B7
100
AcDbEntity
  8
None
390
0
 62
               7
100
AcDbBlockReference
  2
pad
 10
-6.6244099999999992
 20
33.276559999999996
 30
0.0
  0
INSERT
  5
1B8
100
AcDbEntity
  8
None
390
0
 62
               7
100
AcDbBlockReference
  2
pad
 10
-6.1244099999999992
 20
33.276559999999996
 30
0.0
  0
INSERT
  5
1B9
100
AcDbEntity
  8
None
390
0
 62
               7
100
AcDbBlockReference
  2
pad
 10
-5.6244099999999992
 20
33.276559999999996
 30
0.0
  0
INSERT
  5
1BA
100
AcDbEntity
  8
None
390
0
 62
               7
100
AcDbBlockReference
  2
pad
 10
-5.1244099999999992
 20
33.276559999999996
 30
0.0
  0
INSERT
  5
1BB
100
AcDbEntity
  8
None
390
0
 62
               7
100
AcDbBlockReference
  2
pad
 10
-4.6244099999999992
 20
33.276559999999996
 30
0.0
  0
INSERT
  5
1BC
100
AcDbEntity
  8
None
390
0
 62
               7
100
AcDbBlockReference
  2
pad
 10
-4.1244099999999992
 20
33.276559999999996
 30
0.0
  0
INSERT
  5
1BD
100
AcDbEntity
  8
None
390
0
 62
               7
100
AcDbBlockReference
  2
pad
 10
-3.6244099999999997
 20
33.276559999999996
 30
0.0
  0
INSERT
  5
1BE
100
AcDbEntity
  8
None
390
0
 62
               7
100
AcDbBlockReference
  2
pad
 10
-3.1244099999999997
 20
33.276559999999996
 30
0.0
  0
INSERT
  5
1BF
100
AcDbEntity
  8
None
390
0
 62
               7
100
AcDbBlockReference
  2
pad
 10
-2.6244099999999997
 20
33.276559999999996
 30
0.0
  0
INSERT
  5
1C0
100
AcDbEntity
  8
None
390
0
 62
               7
100
AcDbBlockReference
  2
pad
 10
-2.1244099999999997
 20
33.276559999999996
 30
0.0
  0
INSERT
  5
1C1
100
AcDbEntity
  8
None
390
0
 62
               7
100
AcDbBlockReference
  2
pad
 10
-1.6244099999999999
 20
33.276559999999996
 30
0.0
  0
INSERT
  5
1C2
100
AcDbEntity
  8
None
390
0
 62
               7
100
AcDbBlockReference
  2
pad
 10
-1.1244099999999999
 20
33.276559999999996
 30
0.0
  0
INSERT
  5
1C3
100
AcDbEntity
  8
None
390
0
 62
               7
100
AcDbBlockReference
  2
pad
 10
-0.6244099999999999
 20
33.276559999999996
 30
0.0
  0
INSERT
  5
1C4
100
AcDbEntity
  8
None
390
0
 62
               7
100
AcDbBlockReference
  2
pad
 10
-0.12441
 20
33.276559999999996
 30
0.0
  0
INSERT
  5
1C5
100
AcDbEntity
  8
None
390
0
 62
               7
100
AcDbBlockReference
  2
pad
 10
0.37559
 20
33.276559999999996
 30
0.0
  0
INSERT
  5
1C6
100
AcDbEntity
  8
None
390
0
 62
               7
100
AcDbBlockReference
  2
pad
 10
0.8755899999999999
 20
33.276559999999996
 30
0.0
  0
INSERT
  5
1C7
100
AcDbEntity
  8
None
390
0
 62
               7
100
AcDbBlockReference
  2
pad
 10
1.3755899999999999
 20
33.276559999999996
 30
0.0
  0
INSERT
  5
1C8
100
AcDbEntity
  8
None
390
0
 62
               7
100
AcDbBlockReference
  2
pad
 10
1.8755899999999999
 20
33.276559999999996
 30
0.0
  0
INSERT
  5
1C9
100
AcDbEntity
  8
None
390
0
 62
               7
100
AcDbBlockReference
  2
pad
 10
2.3755899999999999
 20
33.276559999999996
 30
0.0
  0
INSERT
  5
1CA
100
AcDbEntity
  8
None
390
0
 62
               7
100
AcDbBlockReference
  2
pad
 10
-6.6244099999999992
 20
33.776559999999996
 30
0.0
  0
INSERT
  5
1CB
100
AcDbEntity
  8
None
390
0
 62
               7
100
AcDbBlockReference
  2
pad
 10
-6.1244099999999992
 20
33.776559999999996
 30
0.0
  0
INSERT
  5
1CC
100
AcDbEntity
  8
None
390
0
 62
               7
100
AcDbBlockReference
  2
pad
 10
-5.6244099999999992
 20
33.776559999999996
 30
0.0
  0
INSERT
  5
1CD
100
AcDbEntity
  8
None
390
0
 62
               7
100
AcDbBlockReference
  2
pad
 10
-5.1244099999999992
 20
33.776559999999996
 30
0.0
  0
INSERT
  5
1CE
100
AcDbEntity
  8
None
390
0
 62
               7
100
AcDbBlockReference
  2
pad
 10
-4.6244099999999992
 20
33.776559999999996
 30
0.0
  0
INSERT
  5
1CF
100
AcDbEntity
  8
None
390
0
 62
               7
100
AcDbBlockReference
  2
pad
 10
-4.1244099999999992
 20
33.776559999999996
 30
0.0
  0
INSERT
  5
1D0
100
AcDbEntity
  8
None
390
0
 62
               7
100
AcDbBlockReference
  2
pad
 10
-3.6244099999999997
 20
33.776559999999996
 30
0.0
  0
INSERT
  5
1D1
100
AcDbEntity
  8
None
390
0
 62
               7
100
AcDbBlockReference
  2
pad
 10
-3.1244099999999997
 20
33.776559999999996
 30
0.0
  0
INSERT
  5
1D2
100
AcDbEntity
  8
None
390
0
 62
               7
100
AcDbBlockReference
  2
pad
 10
-2.6244099999999997
 20
33.776559999999996
 30
0.0
  0
INSERT
  5
1D3
100
AcDbEntity
  8
None
390
0
 62
               7
100
AcDbBlockReference
  2
pad
 10
-2.1244099999999997
 20
33.776559999999996
 30
0.0
  0
INSERT
  5
1D4
100
AcDbEntity
  8
None
390
0
 62
               7
100
AcDbBlockReference
  2
pad
 10
-1.6244099999999999
 20
33.776559999999996
 30
0.0
  0
INSERT
  5
1D5
100
AcDbEntity
  8
None
390
0
 62
               7
100
AcDbBlockReference
  2
pad
 10
-1.1244099999999999
 20
33.776559999999996
 30
0.0
  0
INSERT
  5
1D6
100
AcDbEntity
  8
None
390
0
 62
               7
100
AcDbBlockReference
  2
pad
 10
-0.6244099999999999
 20
33.776559999999996
 30
0.0
  0
INSERT
  5
1D7
100
AcDbEntity
  8
None
390
0
 62
               7
100
AcDbBlockReference
  2
pad
 10
-0.12441
 20
33.776559999999996
 30
0.0
  0
INSERT
  5
1D8
100
AcDbEntity
  8
None
390
0
 62
               7
100
AcDbBlockReference
  2
pad
 10
0.37559
 20
33.776559999999996
 30
0.0
  0
INSERT
  5
1D9
100
AcDbEntity
  8
None
390
0
 62
               7
100
AcDbBlockReference
  2
pad
 10
0.8755899999999999
 20
33.776559999999996
 30
0.0
  0
INSERT
  5
1DA
100
AcDbEntity
  8
None
390
0
 62
               7
100
AcDbBlockReference
  2
pad
 10
1.3755899999999999
 20
33.776559999999996
 30
0.0
  0
INSERT
  5
1DB
100
AcDbEntity
  8
None
390
0
 62
               7
100
AcDbBlockReference
  2
pad
 10
1.8755899999999999
 20
33.776559999999996
 30
0.0
  0
INSERT
  5
1DC
100
AcDbEntity
  8
None
390
0
 62
               7
100
AcDbBlockReference
  2
pad
 10
2.3755899999999999
 20
33.776559999999996
 30
0.0
  0
INSERT
  5
1DD
100
AcDbEntity
  8
None
390
0
 62
               7
100
AcDbBlockReference
  2
pad
 10
-6.6244099999999992
 20
34.276559999999996
 30
0.0
  0
INSERT
  5
1DE
100
AcDbEntity
  8
None
390
0
 62
               7
100
AcDbBlockReference
  2
pad
 10
-6.1244099999999992
 20
34.276559999999996
 30
0.0
  0
INSERT
  5
1DF
100
AcDbEntity
  8
None
390
0
 62
               7
100
AcDbBlockReference
  2
pad
 10
-5.6244099999999992
 20
34.276559999999996
 30
0.0
  0
INSERT
  5
1E0
100
AcDbEntity
  8
None
390
0
 62
               7
100
AcDbBlockReference
  2
pad
 10
-5.1244099999999992
 20
34.276559999999996
 30
0.0
  0
INSERT
  5
1E1
100
AcDbEntity
  8
None
390
0
 62
               7
100
AcDbBlockReference
  2
pad
 10
-4.6244099999999992
 20
34.276559999999996
 30
0.0
  0
INSERT
  5
1E2
100
AcDbEntity
  8
None
390
0
 62
               7
100
AcDbBlockReference
  2
pad
 10
-4.1244099999999992
 20
34.276559999999996
 30
0.0
  0
INSERT
  5
1E3
100
AcDbEntity
  8
None
390
0
 62
               7
100
AcDbBlockReference
  2
pad
 10
-3.6244099999999997
 20
34.276559999999996
 30
0.0
  0
INSERT
  5
1E4
100
AcDbEntity
  8
None
390
0
 62
               7
100
AcDbBlockReference
  2
pad
 10
-3.1244099999999997
 20
34.276559999999996
 30
0.0
  0
INSERT
  5
1E5
100
AcDbEntity
  8
None
390
0
 62
               7
100
AcDbBlockReference
  2
pad
 10
-2.6244099999999997
 20
34.276559999999996
 30
0.0
  0
INSERT
  5
1E6
100
AcDbEntity
  8
None
390
0
 62
               7
100
AcDbBlockReference
  2
pad
 10
-2.1244099999999997
 20
34.276559999999996
 30
0.0
  0
INSERT
  5
1E7
100
AcDbEntity
  8
None
390
0
 62
               7
100
AcDbBlockReference
  2
pad
 10
-1.6244099999999999
 20
34.276559999999996
 30
0.0
  0
INSERT
  5
1E8
100
AcDbEntity
  8
None
390
0
 62
               7
100
AcDbBlockReference
  2
pad
 10
-1.1244099999999999
 20
34.276559999999996
 30
0.0
  0
INSERT
  5
1E9
100
AcDbEntity
  8
None
390
0
 62
               7
100
AcDbBlockReference
  2
pad
 10
-0.6244099999999999
 20
34.276559999999996
 30
0.0
  0
INSERT
  5
1EA
100
AcDbEntity
  8
None
390
0
 62
               7
100
AcDbBlockReference
  2
pad
 10
-0.12441
 20
34.276559999999996
 30
0.0
  0
INSERT
  5
1EB
100
AcDbEntity
  8
None
390
0
 62
               7
100
AcDbBlockReference
  2
pad
 10
0.37559
 20
34.276559999999996
 30
0.0
  0
INSERT
  5
1EC
100
AcDbEntity
  8
None
390
0
 62
               7
100
AcDbBlockReference
  2
pad
 10
0.8755899999999999
 20
34.276559999999996
 30
0.0
  0
INSERT
  5
1ED
100
AcDbEntity
  8
None
390
0
 62
               7
100
AcDbBlockReference
  2
pad
 10
1.3755899999999999
 20
34.276559999999996
 30
0.0
  0
INSERT
  5
1EE
100
AcDbEntity
  8
None
390
0
 62
               7
100
AcDbBlockReference
  2
pad
 10
1.8755899999999999
 20
34.276559999999996
 30
0.0
  0
INSERT
  5
1EF
100
AcDbEntity
  8
None
390
0
 62
               7
100
AcDbBlockReference
  2
pad
 10
2.3755899999999999
 20
34.276559999999996
 30
0.0
  0
INSERT
  5
1F0
100
AcDbEntity
  8
None
390
0
 62
               7
100
AcDbBlockReference
  2
pad
 10
-6.6244099999999992
 20
34.776559999999996
 30
0.0
  0
INSERT
  5
1F1
100
AcDbEntity
  8
None
390
0
 62
               7
100
AcDbBlockReference
  2
pad
 10
-6.1244099999999992
 20
34.776559999999996
 30
0.0
  0
INSERT
  5
1F2
100
AcDbEntity
  8
None
390
0
 62
               7
100
AcDbBlockReference
  2
pad
 10
-5.6244099999999992
 20
34.776559999999996
 30
0.0
  0
INSERT
  5
1F3
100
AcDbEntity
  8
None
390
0
 62
               7
100
AcDbBlockReference
  2
pad
 10
-5.1244099999999992
 20
34.776559999999996
 30
0.0
  0
INSERT
  5
1F4
100
AcDbEntity
  8
None
390
0
 62
               7
100
AcDbBlockReference
  2
pad
 10
-4.6244099999999992
 20
34.776559999999996
 30
0.0
  0
INSERT
  5
1F5
100
AcDbEntity
  8
None
390
0
 62
               7
100
AcDbBlockReference
  2
pad
 10
-4.1244099999999992
 20
34.776559999999996
 30
0.0
  0
INSERT
  5
1F6
100
AcDbEntity
  8
None
390
0
 62
               7
100
AcDbBlockReference
  2
pad
 10
-3.6244099999999997
 20
34.776559999999996
 30
0.0
  0
INSERT
  5
1F7
100
AcDbEntity
  8
None
390
0
 62
               7
100
AcDbBlockReference
  2
pad
 10
-3.1244099999999997
 20
34.776559999999996
 30
0.0
  0
INSERT
  5
1F8
100
AcDbEntity
  8
None
390
0
 62
               7
100
AcDbBlockReference
  2
pad
 10
-2.6244099999999997
 20
34.776559999999996
 30
0.0
  0
INSERT
  5
1F9
100
AcDbEntity
  8
None
390
0
 62
               7
100
AcDbBlockReference
  2
pad
 10
-2.1244099999999997
 20
34.776559999999996
 30
0.0
  0
INSERT
  5
1FA
100
AcDbEntity
  8
None
390
0
 62
               7
100
AcDbBlockReference
  2
pad
 10
-1.6244099999999999
 20
34.776559999999996
 30
0.0
  0
INSERT
  5
1FB
100
AcDbEntity
  8
None
390
0
 62
               7
100
AcDbBlockReference
  2
pad
 10
-1.1244099999999999
 20
34.776559999999996
 30
0.0
  0
INSERT
  5
1FC
100
AcDbEntity
  8
None
390
0
 62
               7
100
AcDbBlockReference
  2
pad
 10
-0.6244099999999999
 20
34.776559999999996
 30
0.0
  0
INSERT
  5
1FD
100
AcDbEntity
  8
None
390
0
 62
               7
100
AcDbBlockReference
  2
pad
 10
-0.12441
 20
34.776559999999996
 30
0.0
  0
INSERT
  5
1FE
100
AcDbEntity
  8
None
390
0
 62
               7
100
AcDbBlockReference
  2
pad
 10
0.37559
 20
34.776559999999996
 30
0.0
  0
INSERT
  5
1FF
100
AcDbEntity
  8
None
390
0
 62
               7
100
AcDbBlockReference
  2
pad
 10
0.8755899999999999
 20
34.776559999999996
 30
0.0
  0
INSERT
  5
200
100
AcDbEntity
  8
None
390
0
 62
               7
100
AcDbBlockReference
  2
pad
 10
1.3755899999999999
 20
34.776559999999996
 30
0.0
  0
INSERT
  5
201
100
AcDbEntity
  8
None
390
0
 62
               7
100
AcDbBlockReference
  2
pad
 10
1.8755899999999999
 20
34.776559999999996
 30
0.0
  0
INSERT
  5
202
100
AcDbEntity
  8
None
390
0
 62
               7
100
AcDbBlockReference
  2
pad
 10
2.3755899999999999
 20
34.776559999999996
 30
0.0
  0
ENDBLK
  5
203
100
AcDbEntity
  8
None
390
0
100
AcDbBlockEnd
  0
BLOCK
  5
204
100
AcDbEntity
  8
None
390
0
100
AcDbBlockBegin
  2
Group-1
 70
               0
 10
0.0
 20
0.0
 30
0.0
  3
Group-1
  1

  0
POLYLINE
  5
205
100
AcDbEntity
  8
None
370
               9
390
0
  6
STYLE_12
 62
               7
100
AcDb2dPolyline
 66
               1
 10
0.0
 20
0.0
 30
0.0
 70
               1
 75
               5
  0
VERTEX
  5
206
100
AcDbEntity
  8
None
370
               9
390
0
  6
STYLE_12
 62
               7
100
AcDbVertex
100
AcDb2dVertex
 10
-9.98691
 20
37.889059999999994
 30
0.0
  0
VERTEX
  5
207
100
AcDbEntity
  8
None
370
               9
390
0
  6
STYLE_12
 62
               7
100
AcDbVertex
100
AcDb2dVertex
 10
5.2380899999999997
 20
37.889059999999994
 30
0.0
  0
VERTEX
  5
208
100
AcDbEntity
  8
None
370
               9
390
0
  6
STYLE_12
 62
               7
100
AcDbVertex
100
AcDb2dVertex
 10
5.2380899999999997
 20
22.664059999999999
 30
0.0
  0
VERTEX
  5
209
100
AcDbEntity
  8
None
370
               9
390
0
  6
STYLE_12
 62
               7
100
AcDbVertex
100
AcDb2dVertex
 10
-9.98691
 20
22.664059999999999
 30
0.0
  0
SEQEND
  5
20A
100
AcDbEntity
  8
None
370
               9
390
0
  6
STYLE_12
 62
               7
  0
ENDBLK
  5
20B
100
AcDbEntity
  8
None
390
0
100
AcDbBlockEnd
  0
BLOCK
  5
20C
100
AcDbEntity
  8
None
390
0
100
AcDbBlockBegin
  2
Group-2
 70
               0
 10
0.0
 20
0.0
 30
0.0
  3
Group-2
  1

  0
LINE
  5
20D
100
AcDbEntity
  8
None
370
               9
390
0
  6
STYLE_17
 62
             132
100
AcDbLine
 10
-2.3744099999999997
 20
40.776559999999996
 30
0.0
 11
-2.3744099999999997
 21
19.77656
 31
0.0
  0
LINE
  5
20E
100
AcDbEntity
  8
None
370
               9
390
0
  6
STYLE_17
 62
             132
100
AcDbLine
 10
-12.874409999999999
 20
30.276559999999996
 30
0.0
 11
8.125589999999999
 21
30.276559999999996
 31
0.0
  0
ENDBLK
  5
20F
100
AcDbEntity
  8
None
390
0
100
AcDbBlockEnd
  0
BLOCK
  5
210
100
AcDbEntity
  8
None
390
0
100
AcDbBlockBegin
  2
Group-3
 70
               0
 10
0.0
 20
0.0
 30
0.0
  3
Group-3
  1

  0
INSERT
  5
211
100
AcDbEntity
  8
None
390
0
 62
             132
100
AcDbBlockReference
  2
Group-2
 10
0.0
 20
0.0
 30
0.0
  0
ENDBLK
  5
212
100
AcDbEntity
  8
None
390
0
100
AcDbBlockEnd
  0
BLOCK
  5
213
100
AcDbEntity
  8
None
390
0
100
AcDbBlockBegin
  2
Group-4
 70
               0
 10
0.0
 20
0.0
 30
0.0
  3
Group-4
  1

  0
CIRCLE
  5
214
102
{ACAD_REACTORS
330
215
102
}
100
AcDbEntity
  8
None
370
               9
390
0
  6
Continuous
 62
             180
100
AcDbCircle
 10
-7.0349899999999996
 20
36.93656
 30
0.0
 40
0.2500014851955847
  0
HATCH
  5
215
100
AcDbEntity
  8
None
370
               0
390
0
  6
Continuous
 62
             180
100
AcDbHatch
 10
0.0
 20
0.0
 30
0.0
210
0.0
220
0.0
230
1.0
  2
SOLID
 70
               1
 71
               1
 91
        1
 92
        1
 93
        1
 72
               2
 10
-7.0349899999999996
 20
36.93656
 40
0.2500014851955847
 50
0.0
 51
360.0
 73
               0
 97
        1
330
214
 75
               0
 76
               1
 98
        1
 10
0.0
 20
0.0
  0
CIRCLE
  5
216
100
AcDbEntity
  8
None
370
               9
390
0
  6
Continuous
 62
               7
100
AcDbCircle
 10
-8.73691
 20
36.639059999999994
 30
0.0
 40
0.8050000000000006
  0
CIRCLE
  5
217
100
AcDbEntity
  8
None
370
               9
390
0
  6
Continuous
 62
               7
100
AcDbCircle
 10
3.9880899999999997
 20
23.914059999999999
 30
0.0
 40
0.8050000000000002
  0
CIRCLE
  5
218
100
AcDbEntity
  8
None
370
               9
390
0
  6
Continuous
 62
               7
100
AcDbCircle
 10
-8.73691
 20
23.914059999999999
 30
0.0
 40
0.8050000000000006
  0
CIRCLE
  5
219
100
AcDbEntity
  8
None
370
               9
390
0
  6
Continuous
 62
               7
100
AcDbCircle
 10
3.9880899999999997
 20
36.639059999999994
 30
0.0
 40
0.8050000000000002
  0
CIRCLE
  5
21A
100
AcDbEntity
  8
None
370
               9
390
0
  6
Continuous
 62
               7
100
AcDbCircle
 10
3.9880899999999997
 20
34.099059999999994
 30
0.0
 40
0.4249999999999998
  0
CIRCLE
  5
21B
100
AcDbEntity
  8
None
370
               9
390
0
  6
Continuous
 62
               7
100
AcDbCircle
 10
-8.73691
 20
28.994059999999998
 30
0.0
 40
0.4250000000000007
  0
POLYLINE
  5
21C
100
AcDbEntity
  8
None
370
               9
390
0
  6
STYLE_12
 62
               7
100
AcDb2dPolyline
 66
               1
 10
0.0
 20
0.0
 30
0.0
 70
               1
 75
               5
  0
VERTEX
  5
21D
100
AcDbEntity
  8
None
370
               9
390
0
  6
STYLE_12
 62
               7
100
AcDbVertex
100
AcDb2dVertex
 10
-11.236909999999998
 20
39.139059999999994
 30
0.0
  0
VERTEX
  5
21E
100
AcDbEntity
  8
None
370
               9
390
0
  6
STYLE_12
 62
               7
100
AcDbVertex
100
AcDb2dVertex
 10
6.4880899999999997
 20
39.139059999999994
 30
0.0
  0
VERTEX
  5
21F
100
AcDbEntity
  8
None
370
               9
390
0
  6
STYLE_12
 62
               7
100
AcDbVertex
100
AcDb2dVertex
 10
6.4880899999999997
 20
21.414059999999999
 30
0.0
  0
VERTEX
  5
220
100
AcDbEntity
  8
None
370
               9
390
0
  6
STYLE_12
 62
               7
100
AcDbVertex
100
AcDb2dVertex
 10
-11.236909999999998
 20
21.414059999999999
 30
0.0
  0
SEQEND
  5
221
100
AcDbEntity
  8
None
370
               9
390
0
  6
STYLE_12
 62
               7
  0
INSERT
  5
222
100
AcDbEntity
  8
None
390
0
 62
               7
100
AcDbBlockReference
  2
Group
 10
0.0
 20
0.0
 30
0.0
  0
INSERT
  5
223
100
AcDbEntity
  8
None
390
0
 62
               7
100
AcDbBlockReference
  2
Group-1
 10
0.0
 20
0.0
 30
0.0
  0
INSERT
  5
224
100
AcDbEntity
  8
None
390
0
 62
               7
100
AcDbBlockReference
  2
Group-3
 10
0.0
 20
0.0
 30
0.0
  0
ENDBLK
  5
225
100
AcDbEntity
  8
None
390
0
100
AcDbBlockEnd
  0
BLOCK
  5
226
100
AcDbEntity
  8
Dimension
390
0
100
AcDbBlockBegin
  2
*D9
 70
               1
 10
0.0
 20
0.0
 30
0.0
  3
*D9
  1

  0
LINE
  5
227
100
AcDbEntity
  8
Dimension
370
              -2
390
0
  6
Continuous
 62
               0
100
AcDbLine
 10
18.127501599999995
 20
-118.36125739881723
 30
0.0
 11
18.127501599999995
 21
-111.71433739763444
 31
0.0
  0
LINE
  5
228
100
AcDbEntity
  8
Dimension
370
              -2
390
0
  6
Continuous
 62
               0
100
AcDbLine
 10
16.877501599999995
 20
-117.11125739881723
 30
0.0
 11
16.877501599999995
 21
-111.71433739763444
 31
0.0
  0
LINE
  5
229
100
AcDbEntity
  8
Dimension
370
              -2
390
0
  6
Continuous
 62
               0
100
AcDbLine
 10
16.877501599999995
 20
-112.66683739999999
 30
0.0
 11
18.127501599999995
 21
-112.66683739999999
 31
0.0
  0
LINE
  5
22A
100
AcDbEntity
  8
Dimension
370
              -2
390
0
  6
Continuous
 62
               0
100
AcDbLine
 10
18.127501599999995
 20
-112.66683739999999
 30
0.0
 11
19.877498098366811
 21
-112.66683739999999
 31
0.0
  0
SOLID
  5
22B
100
AcDbEntity
  8
Dimension
370
              -2
390
0
 62
               0
100
AcDbTrace
 10
18.127501599999995
 20
-112.66683739999999
 30
0.0
 11
18.921251599999994
 21
-112.45415272850779
 31
0.0
 12
18.921251599999994
 22
-112.8795220714922
 32
0.0
 13
18.921251599999994
 23
-112.8795220714922
 33
0.0
  0
LINE
  5
22C
100
AcDbEntity
  8
Dimension
370
              -2
390
0
  6
Continuous
 62
               0
100
AcDbLine
 10
16.877501599999995
 20
-112.66683739999999
 30
0.0
 11
13.896401599999994
 21
-112.66683739999999
 31
0.0
  0
SOLID
  5
22D
100
AcDbEntity
  8
Dimension
370
              -2
390
0
 62
               0
100
AcDbTrace
 10
16.877501599999995
 20
-112.66683739999999
 30
0.0
 11
16.083751599999992
 21
-112.8795220714922
 31
0.0
 12
16.083751599999992
 22
-112.45415272850779
 32
0.0
 13
16.083751599999992
 23
-112.45415272850779
 33
0.0
  0
WIPEOUT
  5
22E
100
AcDbEntity
  8
Dimension
370
              -2
390
0
  6
Continuous
 62
               0
 92
        0
100
AcDbWipeout
 90
        0
 10
5.2357422457371108
 20
69.167028655555541
 30
0.0
 11
3.2102614270316217
 21
0.0
 31
0.0
 12
0.0
 22
3.2102614270316217
 32
0.0
 13
1.0
 23
1.0
340
0
 70
               7
280
               1
281
              50
282
              50
283
               0
360
0
 71
               2
 91
        5
 14
-0.5
 24
57.299417475667134
 14
0.5
 24
57.299417475667134
 14
0.5
 24
56.983483392710582
 14
-0.5
 24
56.983483392710582
 14
-0.5
 24
57.299417475667134
  0
MTEXT
  5
22F
100
AcDbEntity
  8
Dimension
390
0
 62
               0
100
AcDbMText
 10
5.2357422457371108
 20
-112.32186768819443
 30
0.0
 40
0.6315976562499999
 41
0.0
 71
               1
 72
               1
  1
1.25mm
  7
Helvetica
 73
               1
 44
0.9673603504928808
  0
WIPEOUT
  5
230
100
AcDbEntity
  8
Dimension
370
              -2
390
0
  6
Continuous
 62
               0
 92
        0
100
AcDbWipeout
 90
        0
 10
8.4460036727687324
 20
69.167026433333319
 30
0.0
 11
3.6953285164303242
 21
0.0
 31
0.0
 12
0.0
 22
3.6953285164303242
 32
0.0
 13
1.0
 23
1.0
340
0
 70
               7
280
               1
281
              50
282
              50
283
               0
360
0
 71
               2
 91
        5
 14
-0.5
 24
49.843645142581472
 14
0.5
 24
49.843645142581472
 14
0.5
 24
49.569182129214603
 14
-0.5
 24
49.569182129214603
 14
-0.5
 24
49.843645142581472
  0
MTEXT
  5
231
100
AcDbEntity
  8
Dimension
390
0
 62
               0
100
AcDbMText
 10
8.4460036727687324
 20
-112.32186991041667
 30
0.0
 40
0.6315976562499999
 41
0.0
 71
               1
 72
               1
  1
±0.13mm
  7
Helvetica
 73
               1
 44
0.9673603504928808
  0
WIPEOUT
  5
232
100
AcDbEntity
  8
Dimension
370
              -2
390
0
  6
Continuous
 62
               0
 92
        0
100
AcDbWipeout
 90
        0
 10
12.141332189199058
 20
69.167023544444433
 30
0.0
 11
1.7550694108009335
 21
0.0
 31
0.0
 12
0.0
 22
1.7550694108009335
 32
0.0
 13
1.0
 23
1.0
340
0
 70
               7
280
               1
281
              50
282
              50
283
               0
360
0
 71
               2
 91
        5
 14
-0.5
 24
104.39388469643939
 14
0.5
 24
104.39388469643939
 14
0.5
 24
103.81599523812544
 14
-0.5
 24
103.81599523812544
 14
-0.5
 24
104.39388469643939
  0
MTEXT
  5
233
100
AcDbEntity
  8
Dimension
390
0
 62
               0
100
AcDbMText
 10
12.141332189199058
 20
-112.32186850532406
 30
0.0
 40
0.6316008391203704
 41
0.0
 71
               1
 72
               1
  1
 (x4)
  7
Helvetica
 73
               1
 44
0.9673603504928805
  0
POINT
  5
234
100
AcDbEntity
  8
Defpoints
370
               0
390
0
 62
               0
100
AcDbPoint
 10
16.877501599999995
 20
-117.58750739999999
 30
0.0
  0
POINT
  5
235
100
AcDbEntity
  8
Defpoints
370
               0
390
0
 62
               0
100
AcDbPoint
 10
18.127501599999995
 20
-118.83750739999999
 30
0.0
  0
POINT
  5
236
100
AcDbEntity
  8
Defpoints
370
               0
390
0
 62
               0
100
AcDbPoint
 10
18.127501599999995
 20
-112.66683739999999
 30
0.0
  0
ENDBLK
  5
237
100
AcDbEntity
  8
Dimension
390
0
100
AcDbBlockEnd
  0
BLOCK
  5
238
100
AcDbEntity
  8
Dimension
390
0
100
AcDbBlockBegin
  2
*D10
 70
               1
 10
0.0
 20
0.0
 30
0.0
  3
*D10
  1

  0
LINE
  5
239
100
AcDbEntity
  8
Dimension
370
              -2
390
0
  6
Continuous
 62
               0
100
AcDbLine
 10
16.401251598817211
 20
-117.58750739999999
 30
0.0
 11
9.1312215976344362
 21
-117.58750739999999
 31
0.0
  0
LINE
  5
23A
100
AcDbEntity
  8
Dimension
370
              -2
390
0
  6
Continuous
 62
               0
100
AcDbLine
 10
17.651251598817211
 20
-118.83750739999999
 30
0.0
 11
9.1312215976344326
 21
-118.83750739999999
 31
0.0
  0
LINE
  5
23B
100
AcDbEntity
  8
Dimension
370
              -2
390
0
  6
Continuous
 62
               0
100
AcDbLine
 10
10.083721599999993
 20
-118.83750739999999
 30
0.0
 11
10.083721599999993
 21
-117.58750739999999
 31
0.0
  0
LINE
  5
23C
100
AcDbEntity
  8
Dimension
370
              -2
390
0
  6
Continuous
 62
               0
100
AcDbLine
 10
10.083721599999993
 20
-117.58750739999999
 30
0.0
 11
10.083721599999993
 21
-115.2642474
 31
0.0
  0
SOLID
  5
23D
100
AcDbEntity
  8
Dimension
370
              -2
390
0
 62
               0
100
AcDbTrace
 10
10.083721599999993
 20
-117.58750739999999
 30
0.0
 11
9.8710369285077881
 21
-116.7937574
 31
0.0
 12
10.296406271492199
 22
-116.7937574
 32
0.0
 13
10.296406271492199
 23
-116.7937574
 33
0.0
  0
LINE
  5
23E
100
AcDbEntity
  8
Dimension
370
              -2
390
0
  6
Continuous
 62
               0
100
AcDbLine
 10
10.083721599999993
 20
-118.83750739999999
 30
0.0
 11
10.083721599999993
 21
-120.58750389836682
 31
0.0
  0
SOLID
  5
23F
100
AcDbEntity
  8
Dimension
370
              -2
390
0
 62
               0
100
AcDbTrace
 10
10.083721599999993
 20
-118.83750739999999
 30
0.0
 11
10.296406271492195
 21
-119.63125740000001
 31
0.0
 12
9.8710369285077881
 22
-119.63125740000001
 32
0.0
 13
9.8710369285077881
 23
-119.63125740000001
 33
0.0
  0
WIPEOUT
  5
240
100
AcDbEntity
  8
Dimension
370
              -2
390
0
  6
Continuous
 62
               0
 92
        0
100
AcDbWipeout
 90
        0
 10
5.7533919228685519
 20
66.569618655555544
 30
0.0
 11
3.2102614270316217
 21
0.0
 31
0.0
 12
0.0
 22
3.2102614270316217
 32
0.0
 13
1.0
 23
1.0
340
0
 70
               7
280
               1
281
              50
282
              50
283
               0
360
0
 71
               2
 91
        5
 14
-0.5
 24
57.299417475667134
 14
0.5
 24
57.299417475667134
 14
0.5
 24
56.983483392710589
 14
-0.5
 24
56.983483392710589
 14
-0.5
 24
57.299417475667134
  0
MTEXT
  5
241
100
AcDbEntity
  8
Dimension
390
0
 62
               0
100
AcDbMText
 10
5.7533919228685519
 20
-114.91927768819444
 30
0.0
 40
0.6315976562499999
 41
0.0
 71
               1
 72
               1
  1
1.25mm
  7
Helvetica
 73
               1
 44
0.9673603504928808
  0
WIPEOUT
  5
242
100
AcDbEntity
  8
Dimension
370
              -2
390
0
  6
Continuous
 62
               0
 92
        0
100
AcDbWipeout
 90
        0
 10
8.9636533499001736
 20
66.569616433333323
 30
0.0
 11
3.6953285164303242
 21
0.0
 31
0.0
 12
0.0
 22
3.6953285164303242
 32
0.0
 13
1.0
 23
1.0
340
0
 70
               7
280
               1
281
              50
282
              50
283
               0
360
0
 71
               2
 91
        5
 14
-0.5
 24
49.843645142581479
 14
0.5
 24
49.843645142581479
 14
0.5
 24
49.569182129214603
 14
-0.5
 24
49.569182129214603
 14
-0.5
 24
49.843645142581479
  0
MTEXT
  5
243
100
AcDbEntity
  8
Dimension
390
0
 62
               0
100
AcDbMText
 10
8.9636533499001736
 20
-114.91927991041666
 30
0.0
 40
0.6315976562499999
 41
0.0
 71
               1
 72
               1
  1
±0.13mm
  7
Helvetica
 73
               1
 44
0.9673603504928808
  0
WIPEOUT
  5
244
100
AcDbEntity
  8
Dimension
370
              -2
390
0
  6
Continuous
 62
               0
 92
        0
100
AcDbWipeout
 90
        0
 10
12.6589818663305
 20
66.569613544444437
 30
0.0
 11
1.7550694108009335
 21
0.0
 31
0.0
 12
0.0
 22
1.7550694108009335
 32
0.0
 13
1.0
 23
1.0
340
0
 70
               7
280
               1
281
              50
282
              50
283
               0
360
0
 71
               2
 91
        5
 14
-0.5
 24
104.39388469643939
 14
0.5
 24
104.39388469643939
 14
0.5
 24
103.81599523812544
 14
-0.5
 24
103.81599523812544
 14
-0.5
 24
104.39388469643939
  0
MTEXT
  5
245
100
AcDbEntity
  8
Dimension
390
0
 62
               0
100
AcDbMText
 10
12.6589818663305
 20
-114.91927850532407
 30
0.0
 40
0.6316008391203704
 41
0.0
 71
               1
 72
               1
  1
 (x4)
  7
Helvetica
 73
               1
 44
0.9673603504928805
  0
POINT
  5
246
100
AcDbEntity
  8
Defpoints
370
               0
390
0
 62
               0
100
AcDbPoint
 10
18.127501599999995
 20
-118.83750739999999
 30
0.0
  0
POINT
  5
247
100
AcDbEntity
  8
Defpoints
370
               0
390
0
 62
               0
100
AcDbPoint
 10
16.877501599999995
 20
-117.58750739999999
 30
0.0
  0
POINT
  5
248
100
AcDbEntity
  8
Defpoints
370
               0
390
0
 62
               0
100
AcDbPoint
 10
10.083721599999993
 20
-117.58750739999999
 30
0.0
  0
ENDBLK
  5
249
100
AcDbEntity
  8
Dimension
390
0
100
AcDbBlockEnd
  0
BLOCK
  5
24A
100
AcDbEntity
  8
Dimension
390
0
100
AcDbBlockBegin
  2
*D11
 70
               1
 10
0.0
 20
0.0
 30
0.0
  3
*D11
  1

  0
LINE
  5
24B
100
AcDbEntity
  8
Dimension
370
              -2
390
0
  6
Continuous
 62
               0
100
AcDbLine
 10
17.651251598817211
 20
-131.56250739999999
 30
0.0
 11
12.744811597634435
 21
-131.56250739999999
 31
0.0
  0
LINE
  5
24C
100
AcDbEntity
  8
Dimension
370
              -2
390
0
  6
Continuous
 62
               0
100
AcDbLine
 10
17.711451598817213
 20
-126.4825074
 30
0.0
 11
12.744811597634435
 21
-126.4825074
 31
0.0
  0
LINE
  5
24D
100
AcDbEntity
  8
Dimension
370
              -2
390
0
  6
Continuous
 62
               0
100
AcDbLine
 10
13.697311599999994
 20
-131.56250739999999
 30
0.0
 11
13.697311599999994
 21
-126.4825074
 31
0.0
  0
SOLID
  5
24E
100
AcDbEntity
  8
Dimension
370
              -2
390
0
 62
               0
100
AcDbTrace
 10
13.697311599999994
 20
-131.56250739999999
 30
0.0
 11
13.48462692850779
 21
-130.7687574
 31
0.0
 12
13.909996271492197
 22
-130.7687574
 32
0.0
 13
13.909996271492197
 23
-130.7687574
 33
0.0
  0
SOLID
  5
24F
100
AcDbEntity
  8
Dimension
370
              -2
390
0
 62
               0
100
AcDbTrace
 10
13.697311599999994
 20
-126.4825074
 30
0.0
 11
13.909996271492197
 21
-127.27625739999999
 31
0.0
 12
13.48462692850779
 22
-127.27625739999999
 32
0.0
 13
13.48462692850779
 23
-127.27625739999999
 33
0.0
  0
WIPEOUT
  5
250
100
AcDbEntity
  8
Dimension
370
              -2
390
0
  6
Continuous
 62
               0
 92
        0
100
AcDbWipeout
 90
        0
 10
12.092180886484183
 20
53.433876241601553
 30
0.0
 11
3.2102614270316234
 21
0.0
 31
0.0
 12
0.0
 22
3.2102614270316234
 32
0.0
 13
1.0
 23
1.0
340
0
 70
               7
280
               1
281
              50
282
              50
283
               0
360
0
 71
               2
 91
        5
 14
-0.5
 24
57.299417475667092
 14
0.5
 24
57.299417475667092
 14
0.5
 24
56.983483392710554
 14
-0.5
 24
56.983483392710554
 14
-0.5
 24
57.299417475667092
  0
MTEXT
  5
251
100
AcDbEntity
  8
Dimension
390
0
 62
               0
100
AcDbMText
 10
12.092180886484183
 20
-128.05502010214843
 30
0.0
 40
0.6315976562499999
 41
0.0
 71
               1
 72
               1
  1
5.08mm
  7
Helvetica
 73
               1
 44
0.9673603504928808
  0
POINT
  5
252
100
AcDbEntity
  8
Defpoints
370
               0
390
0
 62
               0
100
AcDbPoint
 10
18.187701599999993
 20
-126.4825074
 30
0.0
  0
POINT
  5
253
100
AcDbEntity
  8
Defpoints
370
               0
390
0
 62
               0
100
AcDbPoint
 10
18.127501599999995
 20
-131.56250739999999
 30
0.0
  0
POINT
  5
254
100
AcDbEntity
  8
Defpoints
370
               0
390
0
 62
               0
100
AcDbPoint
 10
13.697311599999994
 20
-131.56250739999999
 30
0.0
  0
ENDBLK
  5
255
100
AcDbEntity
  8
Dimension
390
0
100
AcDbBlockEnd
  0
BLOCK
  5
256
100
AcDbEntity
  8
Dimension
390
0
100
AcDbBlockBegin
  2
*D12
 70
               1
 10
0.0
 20
0.0
 30
0.0
  3
*D12
  1

  0
LINE
  5
257
100
AcDbEntity
  8
Dimension
370
              -2
390
0
  6
Continuous
 62
               0
100
AcDbLine
 10
16.877501599999995
 20
-133.28875740118278
 30
0.0
 11
16.877501599999995
 21
-141.79861740236555
 31
0.0
  0
LINE
  5
258
100
AcDbEntity
  8
Dimension
370
              -2
390
0
  6
Continuous
 62
               0
100
AcDbLine
 10
32.102501599999997
 20
-133.28875740118278
 30
0.0
 11
32.102501599999997
 21
-141.79861740236555
 31
0.0
  0
LINE
  5
259
100
AcDbEntity
  8
Dimension
370
              -2
390
0
  6
Continuous
 62
               0
100
AcDbLine
 10
16.877501599999995
 20
-140.8461174
 30
0.0
 11
32.102501599999997
 21
-140.8461174
 31
0.0
  0
SOLID
  5
25A
100
AcDbEntity
  8
Dimension
370
              -2
390
0
 62
               0
100
AcDbTrace
 10
16.877501599999995
 20
-140.8461174
 30
0.0
 11
17.671251599999991
 21
-140.63343272850778
 31
0.0
 12
17.671251599999991
 22
-141.05880207149221
 32
0.0
 13
17.671251599999991
 23
-141.05880207149221
 33
0.0
  0
SOLID
  5
25B
100
AcDbEntity
  8
Dimension
370
              -2
390
0
 62
               0
100
AcDbTrace
 10
32.102501599999997
 20
-140.8461174
 30
0.0
 11
31.308751599999994
 21
-141.05880207149221
 31
0.0
 12
31.308751599999994
 22
-140.63343272850778
 32
0.0
 13
31.308751599999994
 23
-140.63343272850778
 33
0.0
  0
WIPEOUT
  5
25C
100
AcDbEntity
  8
Dimension
370
              -2
390
0
  6
Continuous
 62
               0
 92
        0
100
AcDbWipeout
 90
        0
 10
19.78892022008306
 20
40.987748655555549
 30
0.0
 11
4.1980342255698311
 21
0.0
 31
0.0
 12
0.0
 22
4.1980342255698311
 32
0.0
 13
1.0
 23
1.0
340
0
 70
               7
280
               1
281
              50
282
              50
283
               0
360
0
 71
               2
 91
        5
 14
-0.5
 24
43.934848122337414
 14
0.5
 24
43.934848122337414
 14
0.5
 24
43.693251473643507
 14
-0.5
 24
43.693251473643507
 14
-0.5
 24
43.934848122337414
  0
MTEXT
  5
25D
100
AcDbEntity
  8
Dimension
390
0
 62
               0
100
AcDbMText
 10
19.78892022008306
 20
-140.50114768819444
 30
0.0
 40
0.6315976562499999
 41
0.0
 71
               1
 72
               1
  1
15.225mm
  7
Helvetica
 73
               1
 44
0.9673603504928808
  0
WIPEOUT
  5
25E
100
AcDbEntity
  8
Dimension
370
              -2
390
0
  6
Continuous
 62
               0
 92
        0
100
AcDbWipeout
 90
        0
 10
23.986954445652891
 20
40.987746433333328
 30
0.0
 11
4.1892149156994289
 21
0.0
 31
0.0
 12
0.0
 22
4.1892149156994289
 32
0.0
 13
1.0
 23
1.0
340
0
 70
               7
280
               1
281
              50
282
              50
283
               0
360
0
 71
               2
 91
        5
 14
-0.5
 24
44.026288975211592
 14
0.5000000000000004
 24
44.026288975211592
 14
0.5000000000000004
 24
43.784183707181754
 14
-0.5
 24
43.784183707181754
 14
-0.5
 24
44.026288975211592
  0
MTEXT
  5
25F
100
AcDbEntity
  8
Dimension
390
0
 62
               0
100
AcDbMText
 10
23.986954445652891
 20
-140.50114991041667
 30
0.0
 40
0.6315976562499999
 41
0.0
 71
               1
 72
               1
  1
±0.125mm
  7
Helvetica
 73
               1
 44
0.9673603504928808
  0
WIPEOUT
  5
260
100
AcDbEntity
  8
Dimension
370
              -2
390
0
  6
Continuous
 62
               0
 92
        0
100
AcDbWipeout
 90
        0
 10
28.176169361352322
 20
40.987743544444442
 30
0.0
 11
1.7550694108009335
 21
0.0
 31
0.0
 12
0.0
 22
1.7550694108009335
 32
0.0
 13
1.0
 23
1.0
340
0
 70
               7
280
               1
281
              50
282
              50
283
               0
360
0
 71
               2
 91
        5
 14
-0.5
 24
104.39388469643937
 14
0.499999999999999
 24
104.39388469643937
 14
0.499999999999999
 24
103.81599523812544
 14
-0.5
 24
103.81599523812544
 14
-0.5
 24
104.39388469643937
  0
MTEXT
  5
261
100
AcDbEntity
  8
Dimension
390
0
 62
               0
100
AcDbMText
 10
28.176169361352322
 20
-140.50114850532407
 30
0.0
 40
0.6316008391203704
 41
0.0
 71
               1
 72
               1
  1
 (x4)
  7
Helvetica
 73
               1
 44
0.9673603504928805
  0
POINT
  5
262
100
AcDbEntity
  8
Defpoints
370
               0
390
0
 62
               0
100
AcDbPoint
 10
32.102501599999997
 20
-132.81250739999999
 30
0.0
  0
POINT
  5
263
100
AcDbEntity
  8
Defpoints
370
               0
390
0
 62
               0
100
AcDbPoint
 10
16.877501599999995
 20
-132.81250739999999
 30
0.0
  0
POINT
  5
264
100
AcDbEntity
  8
Defpoints
370
               0
390
0
 62
               0
100
AcDbPoint
 10
16.877501599999995
 20
-140.8461174
 30
0.0
  0
ENDBLK
  5
265
100
AcDbEntity
  8
Dimension
390
0
100
AcDbBlockEnd
  0
BLOCK
  5
266
100
AcDbEntity
  8
Dimension
390
0
100
AcDbBlockBegin
  2
*D13
 70
               1
 10
0.0
 20
0.0
 30
0.0
  3
*D13
  1

  0
LINE
  5
267
100
AcDbEntity
  8
Dimension
370
              -2
390
0
  6
Continuous
 62
               0
100
AcDbLine
 10
18.127501599999995
 20
-132.03875740118278
 30
0.0
 11
18.127501599999995
 21
-139.97187740236555
 31
0.0
  0
LINE
  5
268
100
AcDbEntity
  8
Dimension
370
              -2
390
0
  6
Continuous
 62
               0
100
AcDbLine
 10
30.852501599999993
 20
-132.03875740118278
 30
0.0
 11
30.852501599999993
 21
-139.97187740236555
 31
0.0
  0
LINE
  5
269
100
AcDbEntity
  8
Dimension
370
              -2
390
0
  6
Continuous
 62
               0
100
AcDbLine
 10
18.127501599999995
 20
-139.0193774
 30
0.0
 11
30.852501599999993
 21
-139.0193774
 31
0.0
  0
SOLID
  5
26A
100
AcDbEntity
  8
Dimension
370
              -2
390
0
 62
               0
100
AcDbTrace
 10
18.127501599999995
 20
-139.0193774
 30
0.0
 11
18.921251599999994
 21
-138.80669272850778
 31
0.0
 12
18.921251599999994
 22
-139.23206207149221
 32
0.0
 13
18.921251599999994
 23
-139.23206207149221
 33
0.0
  0
SOLID
  5
26B
100
AcDbEntity
  8
Dimension
370
              -2
390
0
 62
               0
100
AcDbTrace
 10
30.852501599999993
 20
-139.0193774
 30
0.0
 11
30.058751599999994
 21
-139.23206207149221
 31
0.0
 12
30.058751599999994
 22
-138.80669272850778
 32
0.0
 13
30.058751599999994
 23
-138.80669272850778
 33
0.0
  0
WIPEOUT
  5
26C
100
AcDbEntity
  8
Dimension
370
              -2
390
0
  6
Continuous
 62
               0
 92
        0
100
AcDbWipeout
 90
        0
 10
21.749950974198907
 20
42.814486099999996
 30
0.0
 11
5.9530947208404541
 21
0.0
 31
0.0
 12
0.0
 22
5.9530947208404541
 32
0.0
 13
1.0
 23
1.0
340
0
 70
               7
280
               1
281
              50
282
              50
283
               0
360
0
 71
               2
 91
        5
 14
-0.5
 24
31.129611580286969
 14
0.5
 24
31.129611580286969
 14
0.5
 24
30.959241201927394
 14
-0.5
 24
30.959241201927394
 14
-0.5
 24
31.129611580286969
  0
MTEXT
  5
26D
100
AcDbEntity
  8
Dimension
390
0
 62
               0
100
AcDbMText
 10
21.749950974198907
 20
-138.67441024375
 30
0.0
 40
0.6315976562499999
 41
0.0
 71
               1
 72
               1
  1
12.725mm (x4)
  7
Helvetica
 73
               1
 44
0.9673603504928808
  0
POINT
  5
26E
100
AcDbEntity
  8
Defpoints
370
               0
390
0
 62
               0
100
AcDbPoint
 10
30.852501599999993
 20
-131.56250739999999
 30
0.0
  0
POINT
  5
26F
100
AcDbEntity
  8
Defpoints
370
               0
390
0
 62
               0
100
AcDbPoint
 10
18.127501599999995
 20
-131.56250739999999
 30
0.0
  0
POINT
  5
270
100
AcDbEntity
  8
Defpoints
370
               0
390
0
 62
               0
100
AcDbPoint
 10
18.127501599999995
 20
-139.0193774
 30
0.0
  0
ENDBLK
  5
271
100
AcDbEntity
  8
Dimension
390
0
100
AcDbBlockEnd
  0
BLOCK
  5
272
100
AcDbEntity
  8
Dimension
390
0
100
AcDbBlockBegin
  2
*D14
 70
               1
 10
0.0
 20
0.0
 30
0.0
  3
*D14
  1

  0
LINE
  5
273
100
AcDbEntity
  8
Dimension
370
              -2
390
0
  6
Continuous
 62
               0
100
AcDbLine
 10
31.328751601182773
 20
-118.83750739999999
 30
0.0
 11
39.109661602365549
 21
-118.83750739999999
 31
0.0
  0
LINE
  5
274
100
AcDbEntity
  8
Dimension
370
              -2
390
0
  6
Continuous
 62
               0
100
AcDbLine
 10
31.328751601182773
 20
-121.3775074
 30
0.0
 11
39.109661602365549
 21
-121.3775074
 31
0.0
  0
LINE
  5
275
100
AcDbEntity
  8
Dimension
370
              -2
390
0
  6
Continuous
 62
               0
100
AcDbLine
 10
38.157161599999995
 20
-121.3775074
 30
0.0
 11
38.157161599999995
 21
-118.83750739999999
 31
0.0
  0
LINE
  5
276
100
AcDbEntity
  8
Dimension
370
              -2
390
0
  6
Continuous
 62
               0
100
AcDbLine
 10
38.157161599999995
 20
-118.83750739999999
 30
0.0
 11
38.157161599999995
 21
-117.08751090163318
 31
0.0
  0
SOLID
  5
277
100
AcDbEntity
  8
Dimension
370
              -2
390
0
 62
               0
100
AcDbTrace
 10
38.157161599999995
 20
-118.83750739999999
 30
0.0
 11
37.94447692850779
 21
-118.0437574
 31
0.0
 12
38.369846271492193
 22
-118.0437574
 32
0.0
 13
38.369846271492193
 23
-118.0437574
 33
0.0
  0
LINE
  5
278
100
AcDbEntity
  8
Dimension
370
              -2
390
0
  6
Continuous
 62
               0
100
AcDbLine
 10
38.157161599999995
 20
-121.3775074
 30
0.0
 11
38.157161599999995
 21
-123.12750389836683
 31
0.0
  0
SOLID
  5
279
100
AcDbEntity
  8
Dimension
370
              -2
390
0
 62
               0
100
AcDbTrace
 10
38.157161599999995
 20
-121.3775074
 30
0.0
 11
38.369846271492193
 21
-122.1712574
 31
0.0
 12
37.94447692850779
 22
-122.1712574
 32
0.0
 13
37.94447692850779
 23
-122.1712574
 33
0.0
  0
WIPEOUT
  5
27A
100
AcDbEntity
  8
Dimension
370
              -2
390
0
  6
Continuous
 62
               0
 92
        0
100
AcDbWipeout
 90
        0
 10
36.552030886484182
 20
61.72635609999999
 30
0.0
 11
3.2102614270316234
 21
0.0
 31
0.0
 12
0.0
 22
3.2102614270316234
 32
0.0
 13
1.0
 23
1.0
340
0
 70
               7
280
               1
281
              50
282
              50
283
               0
360
0
 71
               2
 91
        5
 14
-0.5
 24
57.299417475667106
 14
0.4999999999999983
 24
57.299417475667106
 14
0.4999999999999983
 24
56.983483392710561
 14
-0.5
 24
56.983483392710561
 14
-0.5
 24
57.299417475667106
  0
MTEXT
  5
27B
100
AcDbEntity
  8
Dimension
390
0
 62
               0
100
AcDbMText
 10
36.552030886484182
 20
-119.76254024375
 30
0.0
 40
0.6315976562499999
 41
0.0
 71
               1
 72
               1
  1
2.54mm
  7
Helvetica
 73
               1
 44
0.9673603504928808
  0
POINT
  5
27C
100
AcDbEntity
  8
Defpoints
370
               0
390
0
 62
               0
100
AcDbPoint
 10
30.852501599999993
 20
-121.3775074
 30
0.0
  0
POINT
  5
27D
100
AcDbEntity
  8
Defpoints
370
               0
390
0
 62
               0
100
AcDbPoint
 10
30.852501599999993
 20
-118.83750739999999
 30
0.0
  0
POINT
  5
27E
100
AcDbEntity
  8
Defpoints
370
               0
390
0
 62
               0
100
AcDbPoint
 10
38.157161599999995
 20
-118.83750739999999
 30
0.0
  0
ENDBLK
  5
27F
100
AcDbEntity
  8
Dimension
390
0
100
AcDbBlockEnd
  0
BLOCK
  5
280
100
AcDbEntity
  8
Dimension
390
0
100
AcDbBlockBegin
  2
*D15
 70
               1
 10
0.0
 20
0.0
 30
0.0
  3
*D15
  1

  0
LINE
  5
281
100
AcDbEntity
  8
Dimension
370
              -2
390
0
  6
Continuous
 62
               0
100
AcDbLine
 10
29.363291599999993
 20
-125.7663374
 30
0.0
 11
35.400002124980901
 21
-129.01410725888201
 31
0.0
  0
SOLID
  5
282
100
AcDbEntity
  8
Dimension
370
              -2
390
0
 62
               0
100
AcDbTrace
 10
29.363291599999993
 20
-125.7663374
 30
0.0
 11
29.894722469358751
 21
-125.89883799730643
 31
0.0
 12
29.757273934566712
 22
-126.14680171796336
 32
0.0
 13
29.757273934566712
 23
-126.14680171796336
 33
0.0
  0
LINE
  5
283
100
AcDbEntity
  8
Dimension
370
              -2
390
0
  6
Continuous
 62
               0
100
AcDbLine
 10
35.400002124980901
 20
-129.01410725888201
 30
0.0
 11
36.899999126960402
 21
-129.01410725888201
 31
0.0
  0
WIPEOUT
  5
284
100
AcDbEntity
  8
Dimension
370
              -2
390
0
  6
Continuous
 62
               0
 92
        0
100
AcDbWipeout
 90
        0
 10
36.899999126960402
 20
52.819756241117972
 30
0.0
 11
8.6165538893805618
 21
0.0
 31
0.0
 12
0.0
 22
8.6165538893805618
 32
0.0
 13
1.0
 23
1.0
340
0
 70
               7
280
               1
281
              50
282
              50
283
               0
360
0
 71
               2
 91
        5
 14
-0.5
 24
21.661705867670069
 14
0.5
 24
21.661705867670069
 14
0.5
 24
21.54399860174674
 14
-0.5
 24
21.54399860174674
 14
-0.5
 24
21.661705867670069
  0
MTEXT
  5
285
100
AcDbEntity
  8
Dimension
390
0
 62
               0
100
AcDbMText
 10
36.899999126960402
 20
-128.66914010263201
 30
0.0
 40
0.6315976562499999
 41
0.0
 71
               1
 72
               1
  1
Ø 0.28mm pad (x361)
  7
Helvetica
 73
               1
 44
0.9673603504928808
  0
POINT
  5
286
100
AcDbEntity
  8
Defpoints
370
               0
390
0
 62
               0
100
AcDbPoint
 10
29.116711599999995
 20
-125.6336774
 30
0.0
  0
POINT
  5
287
100
AcDbEntity
  8
Defpoints
370
               0
390
0
 62
               0
100
AcDbPoint
 10
29.363291599999993
 20
-125.7663374
 30
0.0
  0
ENDBLK
  5
288
100
AcDbEntity
  8
Dimension
390
0
100
AcDbBlockEnd
  0
BLOCK
  5
289
100
AcDbEntity
  8
Dimension
390
0
100
AcDbBlockBegin
  2
*D16
 70
               1
 10
0.0
 20
0.0
 30
0.0
  3
*D16
  1

  0
LINE
  5
28A
100
AcDbEntity
  8
Dimension
370
              -2
390
0
  6
Continuous
 62
               0
100
AcDbLine
 10
17.651251598817211
 20
-118.83750739999999
 30
0.0
 11
12.744811597634435
 21
-118.83750739999999
 31
0.0
  0
LINE
  5
28B
100
AcDbEntity
  8
Dimension
370
              -2
390
0
  6
Continuous
 62
               0
100
AcDbLine
 10
19.763751598817215
 20
-120.7000074
 30
0.0
 11
12.744811597634435
 21
-120.7000074
 31
0.0
  0
LINE
  5
28C
100
AcDbEntity
  8
Dimension
370
              -2
390
0
  6
Continuous
 62
               0
100
AcDbLine
 10
13.697311599999994
 20
-120.7000074
 30
0.0
 11
13.697311599999994
 21
-118.83750739999999
 31
0.0
  0
LINE
  5
28D
100
AcDbEntity
  8
Dimension
370
              -2
390
0
  6
Continuous
 62
               0
100
AcDbLine
 10
13.697311599999994
 20
-118.83750739999999
 30
0.0
 11
13.697311599999994
 21
-117.08751090163318
 31
0.0
  0
SOLID
  5
28E
100
AcDbEntity
  8
Dimension
370
              -2
390
0
 62
               0
100
AcDbTrace
 10
13.697311599999994
 20
-118.83750739999999
 30
0.0
 11
13.48462692850779
 21
-118.0437574
 31
0.0
 12
13.909996271492197
 22
-118.0437574
 32
0.0
 13
13.909996271492197
 23
-118.0437574
 33
0.0
  0
LINE
  5
28F
100
AcDbEntity
  8
Dimension
370
              -2
390
0
  6
Continuous
 62
               0
100
AcDbLine
 10
13.697311599999994
 20
-120.7000074
 30
0.0
 11
13.697311599999994
 21
-122.45000389836682
 31
0.0
  0
SOLID
  5
290
100
AcDbEntity
  8
Dimension
370
              -2
390
0
 62
               0
100
AcDbTrace
 10
13.697311599999994
 20
-120.7000074
 30
0.0
 11
13.909996271492197
 21
-121.49375739999999
 31
0.0
 12
13.48462692850779
 22
-121.49375739999999
 32
0.0
 13
13.48462692850779
 23
-121.49375739999999
 33
0.0
  0
WIPEOUT
  5
291
100
AcDbEntity
  8
Dimension
370
              -2
390
0
  6
Continuous
 62
               0
 92
        0
100
AcDbWipeout
 90
        0
 10
11.598294487215078
 20
62.065106099999994
 30
0.0
 11
4.1980342255698311
 21
0.0
 31
0.0
 12
0.0
 22
4.1980342255698311
 32
0.0
 13
1.0
 23
1.0
340
0
 70
               7
280
               1
281
              50
282
              50
283
               0
360
0
 71
               2
 91
        5
 14
-0.5
 24
43.934848122337421
 14
0.5
 24
43.934848122337421
 14
0.5
 24
43.693251473643514
 14
-0.5
 24
43.693251473643514
 14
-0.5
 24
43.934848122337421
  0
MTEXT
  5
292
100
AcDbEntity
  8
Dimension
390
0
 62
               0
100
AcDbMText
 10
11.598294487215078
 20
-119.42379024374999
 30
0.0
 40
0.6315976562499999
 41
0.0
 71
               1
 72
               1
  1
1.8625mm
  7
Helvetica
 73
               1
 44
0.9673603504928808
  0
POINT
  5
293
100
AcDbEntity
  8
Defpoints
370
               0
390
0
 62
               0
100
AcDbPoint
 10
20.240001599999992
 20
-120.7000074
 30
0.0
  0
POINT
  5
294
100
AcDbEntity
  8
Defpoints
370
               0
390
0
 62
               0
100
AcDbPoint
 10
18.127501599999995
 20
-118.83750739999999
 30
0.0
  0
POINT
  5
295
100
AcDbEntity
  8
Defpoints
370
               0
390
0
 62
               0
100
AcDbPoint
 10
13.697311599999994
 20
-118.83750739999999
 30
0.0
  0
ENDBLK
  5
296
100
AcDbEntity
  8
Dimension
390
0
100
AcDbBlockEnd
  0
BLOCK
  5
297
100
AcDbEntity
  8
Dimension
390
0
100
AcDbBlockBegin
  2
*D17
 70
               1
 10
0.0
 20
0.0
 30
0.0
  3
*D17
  1

  0
LINE
  5
298
100
AcDbEntity
  8
Dimension
370
              -2
390
0
  6
Continuous
 62
               0
100
AcDbLine
 10
20.240001599999992
 20
-130.17625740118277
 30
0.0
 11
20.240001599999992
 21
-137.89250740236557
 31
0.0
  0
LINE
  5
299
100
AcDbEntity
  8
Dimension
370
              -2
390
0
  6
Continuous
 62
               0
100
AcDbLine
 10
29.240001599999992
 20
-130.17625740118277
 30
0.0
 11
29.240001599999992
 21
-137.89250740236557
 31
0.0
  0
LINE
  5
29A
100
AcDbEntity
  8
Dimension
370
              -2
390
0
  6
Continuous
 62
               0
100
AcDbLine
 10
20.240001599999992
 20
-136.94000739999998
 30
0.0
 11
29.240001599999992
 21
-136.94000739999998
 31
0.0
  0
SOLID
  5
29B
100
AcDbEntity
  8
Dimension
370
              -2
390
0
 62
               0
100
AcDbTrace
 10
20.240001599999992
 20
-136.94000739999998
 30
0.0
 11
21.033751599999995
 21
-136.7273227285078
 31
0.0
 12
21.033751599999995
 22
-137.1526920714922
 32
0.0
 13
21.033751599999995
 23
-137.1526920714922
 33
0.0
  0
SOLID
  5
29C
100
AcDbEntity
  8
Dimension
370
              -2
390
0
 62
               0
100
AcDbTrace
 10
29.240001599999992
 20
-136.94000739999998
 30
0.0
 11
28.446251599999993
 21
-137.1526920714922
 31
0.0
 12
28.446251599999993
 22
-136.7273227285078
 32
0.0
 13
28.446251599999993
 23
-136.7273227285078
 33
0.0
  0
WIPEOUT
  5
29D
100
AcDbEntity
  8
Dimension
370
              -2
390
0
  6
Continuous
 62
               0
 92
        0
100
AcDbWipeout
 90
        0
 10
23.752228801461786
 20
44.893856099999994
 30
0.0
 11
1.975545597076416
 21
0.0
 31
0.0
 12
0.0
 22
1.975545597076416
 32
0.0
 13
1.0
 23
1.0
340
0
 70
               7
280
               1
281
              50
282
              50
283
               0
360
0
 71
               2
 91
        5
 14
-0.5
 24
92.799048561493109
 14
0.4999999999999997
 24
92.799048561493109
 14
0.4999999999999997
 24
92.285655703590464
 14
-0.5
 24
92.285655703590464
 14
-0.5
 24
92.799048561493109
  0
MTEXT
  5
29E
100
AcDbEntity
  8
Dimension
390
0
 62
               0
100
AcDbMText
 10
23.752228801461786
 20
-136.59504024374999
 30
0.0
 40
0.6315976562499999
 41
0.0
 71
               1
 72
               1
  1
9mm
  7
Helvetica
 73
               1
 44
0.9673603504928808
  0
POINT
  5
29F
100
AcDbEntity
  8
Defpoints
370
               0
390
0
 62
               0
100
AcDbPoint
 10
29.240001599999992
 20
-129.7000074
 30
0.0
  0
POINT
  5
2A0
100
AcDbEntity
  8
Defpoints
370
               0
390
0
 62
               0
100
AcDbPoint
 10
20.240001599999992
 20
-129.7000074
 30
0.0
  0
POINT
  5
2A1
100
AcDbEntity
  8
Defpoints
370
               0
390
0
 62
               0
100
AcDbPoint
 10
20.240001599999992
 20
-136.94000739999998
 30
0.0
  0
ENDBLK
  5
2A2
100
AcDbEntity
  8
Dimension
390
0
100
AcDbBlockEnd
  0
BLOCK
  5
2A3
100
AcDbEntity
  8
Dimension
390
0
100
AcDbBlockBegin
  2
*D18
 70
               1
 10
0.0
 20
0.0
 30
0.0
  3
*D18
  1

  0
LINE
  5
2A4
100
AcDbEntity
  8
Dimension
370
              -2
390
0
  6
Continuous
 62
               0
100
AcDbLine
 10
20.240001599999992
 20
-120.22375739881721
 30
0.0
 11
20.240001599999992
 21
-112.93750739763445
 31
0.0
  0
LINE
  5
2A5
100
AcDbEntity
  8
Dimension
370
              -2
390
0
  6
Continuous
 62
               0
100
AcDbLine
 10
18.127501599999995
 20
-118.36125739881723
 30
0.0
 11
18.127501599999995
 21
-112.93750739763443
 31
0.0
  0
LINE
  5
2A6
100
AcDbEntity
  8
Dimension
370
              -2
390
0
  6
Continuous
 62
               0
100
AcDbLine
 10
18.127501599999995
 20
-113.8900074
 30
0.0
 11
20.240001599999992
 21
-113.8900074
 31
0.0
  0
LINE
  5
2A7
100
AcDbEntity
  8
Dimension
370
              -2
390
0
  6
Continuous
 62
               0
100
AcDbLine
 10
20.240001599999992
 20
-113.8900074
 30
0.0
 11
22.335461599999995
 21
-113.8900074
 31
0.0
  0
SOLID
  5
2A8
100
AcDbEntity
  8
Dimension
370
              -2
390
0
 62
               0
100
AcDbTrace
 10
20.240001599999992
 20
-113.8900074
 30
0.0
 11
21.033751599999995
 21
-113.67732272850779
 31
0.0
 12
21.033751599999995
 22
-114.1026920714922
 32
0.0
 13
21.033751599999995
 23
-114.1026920714922
 33
0.0
  0
LINE
  5
2A9
100
AcDbEntity
  8
Dimension
370
              -2
390
0
  6
Continuous
 62
               0
100
AcDbLine
 10
18.127501599999995
 20
-113.8900074
 30
0.0
 11
16.377505101633176
 21
-113.8900074
 31
0.0
  0
SOLID
  5
2AA
100
AcDbEntity
  8
Dimension
370
              -2
390
0
 62
               0
100
AcDbTrace
 10
18.127501599999995
 20
-113.8900074
 30
0.0
 11
17.333751599999992
 21
-114.1026920714922
 31
0.0
 12
17.333751599999992
 22
-113.67732272850779
 32
0.0
 13
17.333751599999992
 23
-113.67732272850779
 33
0.0
  0
WIPEOUT
  5
2AB
100
AcDbEntity
  8
Dimension
370
              -2
390
0
  6
Continuous
 62
               0
 92
        0
100
AcDbWipeout
 90
        0
 10
22.335461599999995
 20
67.943856099999991
 30
0.0
 11
4.5419910113016764
 21
0.0
 31
0.0
 12
0.0
 22
4.5419910113016764
 32
0.0
 13
1.0
 23
1.0
340
0
 70
               7
280
               1
281
              50
282
              50
283
               0
360
0
 71
               2
 91
        5
 14
-0.5
 24
40.645605428607709
 14
0.4999999999999998
 24
40.645605428607709
 14
0.4999999999999998
 24
40.422304458289553
 14
-0.5
 24
40.422304458289553
 14
-0.5
 24
40.645605428607709
  0
MTEXT
  5
2AC
100
AcDbEntity
  8
Dimension
390
0
 62
               0
100
AcDbMText
 10
22.335461599999995
 20
-113.54504024374998
 30
0.0
 40
0.6315976562499999
 41
0.0
 71
               1
 72
               1
  1
*2.1125mm
  7
Helvetica
 73
               1
 44
0.9673603504928808
  0
POINT
  5
2AD
100
AcDbEntity
  8
Defpoints
370
               0
390
0
 62
               0
100
AcDbPoint
 10
18.127501599999995
 20
-118.83750739999999
 30
0.0
  0
POINT
  5
2AE
100
AcDbEntity
  8
Defpoints
370
               0
390
0
 62
               0
100
AcDbPoint
 10
20.240001599999992
 20
-120.7000074
 30
0.0
  0
POINT
  5
2AF
100
AcDbEntity
  8
Defpoints
370
               0
390
0
 62
               0
100
AcDbPoint
 10
20.240001599999992
 20
-113.8900074
 30
0.0
  0
ENDBLK
  5
2B0
100
AcDbEntity
  8
Dimension
390
0
100
AcDbBlockEnd
  0
BLOCK
  5
2B1
100
AcDbEntity
  8
Dimension
390
0
100
AcDbBlockBegin
  2
*D19
 70
               1
 10
0.0
 20
0.0
 30
0.0
  3
*D19
  1

  0
LINE
  5
2B2
100
AcDbEntity
  8
Dimension
370
              -2
390
0
  6
Continuous
 62
               0
100
AcDbLine
 10
26.740001599999992
 20
-120.22375739881721
 30
0.0
 11
26.740001599999992
 21
-114.35896739763444
 31
0.0
  0
LINE
  5
2B3
100
AcDbEntity
  8
Dimension
370
              -2
390
0
  6
Continuous
 62
               0
100
AcDbLine
 10
27.240001599999992
 20
-120.22375739881721
 30
0.0
 11
27.240001599999992
 21
-114.35896739763444
 31
0.0
  0
LINE
  5
2B4
100
AcDbEntity
  8
Dimension
370
              -2
390
0
  6
Continuous
 62
               0
100
AcDbLine
 10
27.240001599999992
 20
-115.3114674
 30
0.0
 11
26.740001599999992
 21
-115.3114674
 31
0.0
  0
LINE
  5
2B5
100
AcDbEntity
  8
Dimension
370
              -2
390
0
  6
Continuous
 62
               0
100
AcDbLine
 10
26.740001599999992
 20
-115.3114674
 30
0.0
 11
24.990005101633177
 21
-115.3114674
 31
0.0
  0
SOLID
  5
2B6
100
AcDbEntity
  8
Dimension
370
              -2
390
0
 62
               0
100
AcDbTrace
 10
26.740001599999992
 20
-115.3114674
 30
0.0
 11
25.946251599999993
 21
-115.52415207149221
 31
0.0
 12
25.946251599999993
 22
-115.09878272850779
 32
0.0
 13
25.946251599999993
 23
-115.09878272850779
 33
0.0
  0
LINE
  5
2B7
100
AcDbEntity
  8
Dimension
370
              -2
390
0
  6
Continuous
 62
               0
100
AcDbLine
 10
27.240001599999992
 20
-115.3114674
 30
0.0
 11
29.031161599999994
 21
-115.3114674
 31
0.0
  0
SOLID
  5
2B8
100
AcDbEntity
  8
Dimension
370
              -2
390
0
 62
               0
100
AcDbTrace
 10
27.240001599999992
 20
-115.3114674
 30
0.0
 11
28.033751599999995
 21
-115.09878272850779
 31
0.0
 12
28.033751599999995
 22
-115.52415207149221
 32
0.0
 13
28.033751599999995
 23
-115.52415207149221
 33
0.0
  0
WIPEOUT
  5
2B9
100
AcDbEntity
  8
Dimension
370
              -2
390
0
  6
Continuous
 62
               0
 92
        0
100
AcDbWipeout
 90
        0
 10
29.031161599999994
 20
66.522396099999995
 30
0.0
 11
4.3832417514589093
 21
0.0
 31
0.0
 12
0.0
 22
4.3832417514589093
 32
0.0
 13
1.0
 23
1.0
340
0
 70
               7
280
               1
281
              50
282
              50
283
               0
360
0
 71
               2
 91
        5
 14
-0.5
 24
42.099571581765936
 14
0.4999999999999996
 24
42.099571581765936
 14
0.4999999999999996
 24
41.868183249223613
 14
-0.5
 24
41.868183249223613
 14
-0.5
 24
42.099571581765936
  0
MTEXT
  5
2BA
100
AcDbEntity
  8
Dimension
390
0
 62
               0
100
AcDbMText
 10
29.031161599999994
 20
-114.96650024374999
 30
0.0
 40
0.6315976562499999
 41
0.0
 71
               1
 72
               1
  1
0.5mm typ.
  7
Helvetica
 73
               1
 44
0.9673603504928808
  0
POINT
  5
2BB
100
AcDbEntity
  8
Defpoints
370
               0
390
0
 62
               0
100
AcDbPoint
 10
27.240001599999992
 20
-120.7000074
 30
0.0
  0
POINT
  5
2BC
100
AcDbEntity
  8
Defpoints
370
               0
390
0
 62
               0
100
AcDbPoint
 10
26.740001599999992
 20
-120.7000074
 30
0.0
  0
POINT
  5
2BD
100
AcDbEntity
  8
Defpoints
370
               0
390
0
 62
               0
100
AcDbPoint
 10
26.740001599999992
 20
-115.3114674
 30
0.0
  0
ENDBLK
  5
2BE
100
AcDbEntity
  8
Dimension
390
0
100
AcDbBlockEnd
  0
BLOCK
  5
2BF
100
AcDbEntity
  8
Dimension
390
0
100
AcDbBlockBegin
  2
*D20
 70
               1
 10
0.0
 20
0.0
 30
0.0
  3
*D20
  1

  0
LINE
  5
2C0
100
AcDbEntity
  8
Dimension
370
              -2
390
0
  6
Continuous
 62
               0
100
AcDbLine
 10
31.232051599999991
 20
-121.5687374
 30
0.0
 11
35.740004109599354
 21
-123.84000758689196
 31
0.0
  0
SOLID
  5
2C1
100
AcDbEntity
  8
Dimension
370
              -2
390
0
 62
               0
100
AcDbTrace
 10
31.232051599999991
 20
-121.5687374
 30
0.0
 11
31.767782940190695
 21
-121.68261061164981
 31
0.0
 12
31.639071944383719
 22
-121.9352201641946
 32
0.0
 13
31.639071944383719
 23
-121.9352201641946
 33
0.0
  0
LINE
  5
2C2
100
AcDbEntity
  8
Dimension
370
              -2
390
0
  6
Continuous
 62
               0
100
AcDbLine
 10
35.740004109599354
 20
-123.84000758689196
 30
0.0
 11
37.240001111578856
 21
-123.84000758689196
 31
0.0
  0
WIPEOUT
  5
2C3
100
AcDbEntity
  8
Dimension
370
              -2
390
0
  6
Continuous
 62
               0
 92
        0
100
AcDbWipeout
 90
        0
 10
37.240001111578856
 20
57.993858468663582
 30
0.0
 11
4.1451180299123127
 21
0.0
 31
0.0
 12
0.0
 22
4.1451180299123127
 32
0.0
 13
1.0
 23
1.0
340
0
 70
               7
280
               1
281
              50
282
              50
283
               0
360
0
 71
               2
 91
        5
 14
-0.5
 24
44.489333399960458
 14
0.4999999999999996
 24
44.489333399960458
 14
0.4999999999999996
 24
44.244652550662309
 14
-0.5
 24
44.244652550662309
 14
-0.5
 24
44.489333399960458
  0
MTEXT
  5
2C4
100
AcDbEntity
  8
Dimension
390
0
 62
               0
100
AcDbMText
 10
37.240001111578856
 20
-123.49503787508641
 30
0.0
 40
0.6315976562499999
 41
0.0
 71
               1
 72
               1
  1
Ø 0.85mm
  7
Helvetica
 73
               1
 44
0.9673603504928808
  0
WIPEOUT
  5
2C5
100
AcDbEntity
  8
Dimension
370
              -2
390
0
  6
Continuous
 62
               0
 92
        0
100
AcDbWipeout
 90
        0
 10
41.385119141491167
 20
57.993856246441361
 30
0.0
 11
4.1892149156994289
 21
0.0
 31
0.0
 12
0.0
 22
4.1892149156994289
 32
0.0
 13
1.0
 23
1.0
340
0
 70
               7
280
               1
281
              50
282
              50
283
               0
360
0
 71
               2
 91
        5
 14
-0.5
 24
44.026288975211585
 14
0.5000000000000004
 24
44.026288975211585
 14
0.5000000000000004
 24
43.784183707181747
 14
-0.5
 24
43.784183707181747
 14
-0.5
 24
44.026288975211585
  0
MTEXT
  5
2C6
100
AcDbEntity
  8
Dimension
390
0
 62
               0
100
AcDbMText
 10
41.385119141491167
 20
-123.49504009730863
 30
0.0
 40
0.6315976562499999
 41
0.0
 71
               1
 72
               1
  1
±0.025mm
  7
Helvetica
 73
               1
 44
0.9673603504928808
  0
WIPEOUT
  5
2C7
100
AcDbEntity
  8
Dimension
370
              -2
390
0
  6
Continuous
 62
               0
 92
        0
100
AcDbWipeout
 90
        0
 10
45.574334057190597
 20
57.993853357552467
 30
0.0
 11
1.7550694108009353
 21
0.0
 31
0.0
 12
0.0
 22
1.7550694108009353
 32
0.0
 13
1.0
 23
1.0
340
0
 70
               7
280
               1
281
              50
282
              50
283
               0
360
0
 71
               2
 91
        5
 14
-0.5
 24
104.39388469643927
 14
0.5
 24
104.39388469643927
 14
0.5
 24
103.81599523812534
 14
-0.5
 24
103.81599523812534
 14
-0.5
 24
104.39388469643927
  0
MTEXT
  5
2C8
100
AcDbEntity
  8
Dimension
390
0
 62
               0
100
AcDbMText
 10
45.574334057190597
 20
-123.49503869221604
 30
0.0
 40
0.6316008391203704
 41
0.0
 71
               1
 72
               1
  1
 (x2)
  7
Helvetica
 73
               1
 44
0.9673603504928805
  0
POINT
  5
2C9
100
AcDbEntity
  8
Defpoints
370
               0
390
0
 62
               0
100
AcDbPoint
 10
30.472951599999995
 20
-121.18627739999999
 30
0.0
  0
POINT
  5
2CA
100
AcDbEntity
  8
Defpoints
370
               0
390
0
 62
               0
100
AcDbPoint
 10
31.232051599999991
 20
-121.5687374
 30
0.0
  0
ENDBLK
  5
2CB
100
AcDbEntity
  8
Dimension
390
0
100
AcDbBlockEnd
  0
BLOCK
  5
2CC
100
AcDbEntity
  8
Dimension
390
0
100
AcDbBlockBegin
  2
*D21
 70
               1
 10
0.0
 20
0.0
 30
0.0
  3
*D21
  1

  0
LINE
  5
2CD
100
AcDbEntity
  8
Dimension
370
              -2
390
0
  6
Continuous
 62
               0
100
AcDbLine
 10
31.583011599999992
 20
-131.90069739999998
 30
0.0
 11
35.340006282282026
 21
-133.64000802697078
 31
0.0
  0
SOLID
  5
2CE
100
AcDbEntity
  8
Dimension
370
              -2
390
0
 62
               0
100
AcDbTrace
 10
31.583011599999992
 20
-131.90069739999998
 30
0.0
 11
32.122390704907701
 21
-131.9958044890256
 31
0.0
 12
32.002574062607778
 22
-132.25275210763002
 32
0.0
 13
32.002574062607778
 23
-132.25275210763002
 33
0.0
  0
LINE
  5
2CF
100
AcDbEntity
  8
Dimension
370
              -2
390
0
  6
Continuous
 62
               0
100
AcDbLine
 10
35.340006282282026
 20
-133.64000802697078
 30
0.0
 11
36.840003284261527
 21
-133.64000802697078
 31
0.0
  0
WIPEOUT
  5
2D0
100
AcDbEntity
  8
Dimension
370
              -2
390
0
  6
Continuous
 62
               0
 92
        0
100
AcDbWipeout
 90
        0
 10
36.840003284261527
 20
48.193858028584778
 30
0.0
 11
4.1451180299123127
 21
0.0
 31
0.0
 12
0.0
 22
4.1451180299123127
 32
0.0
 13
1.0
 23
1.0
340
0
 70
               7
280
               1
281
              50
282
              50
283
               0
360
0
 71
               2
 91
        5
 14
-0.5
 24
44.489333399960458
 14
0.4999999999999996
 24
44.489333399960458
 14
0.4999999999999996
 24
44.244652550662309
 14
-0.5
 24
44.244652550662309
 14
-0.5
 24
44.489333399960458
  0
MTEXT
  5
2D1
100
AcDbEntity
  8
Dimension
390
0
 62
               0
100
AcDbMText
 10
36.840003284261527
 20
-133.29503831516521
 30
0.0
 40
0.6315976562499999
 41
0.0
 71
               1
 72
               1
  1
Ø 1.61mm
  7
Helvetica
 73
               1
 44
0.9673603504928808
  0
WIPEOUT
  5
2D2
100
AcDbEntity
  8
Dimension
370
              -2
390
0
  6
Continuous
 62
               0
 92
        0
100
AcDbWipeout
 90
        0
 10
40.985121314173838
 20
48.193855806362556
 30
0.0
 11
3.6953285164303242
 21
0.0
 31
0.0
 12
0.0
 22
3.6953285164303242
 32
0.0
 13
1.0
 23
1.0
340
0
 70
               7
280
               1
281
              50
282
              50
283
               0
360
0
 71
               2
 91
        5
 14
-0.5
 24
49.843645142581479
 14
0.4999999999999996
 24
49.843645142581479
 14
0.4999999999999996
 24
49.569182129214603
 14
-0.5
 24
49.569182129214603
 14
-0.5
 24
49.843645142581479
  0
MTEXT
  5
2D3
100
AcDbEntity
  8
Dimension
390
0
 62
               0
100
AcDbMText
 10
40.985121314173838
 20
-133.29504053738742
 30
0.0
 40
0.6315976562499999
 41
0.0
 71
               1
 72
               1
  1
±0.05mm
  7
Helvetica
 73
               1
 44
0.9673603504928808
  0
WIPEOUT
  5
2D4
100
AcDbEntity
  8
Dimension
370
              -2
390
0
  6
Continuous
 62
               0
 92
        0
100
AcDbWipeout
 90
        0
 10
44.680449830604161
 20
48.193852917473663
 30
0.0
 11
1.7550694108009353
 21
0.0
 31
0.0
 12
0.0
 22
1.7550694108009353
 32
0.0
 13
1.0
 23
1.0
340
0
 70
               7
280
               1
281
              50
282
              50
283
               0
360
0
 71
               2
 91
        5
 14
-0.5
 24
104.39388469643927
 14
0.500000000000004
 24
104.39388469643927
 14
0.500000000000004
 24
103.81599523812534
 14
-0.5
 24
103.81599523812534
 14
-0.5
 24
104.39388469643927
  0
MTEXT
  5
2D5
100
AcDbEntity
  8
Dimension
390
0
 62
               0
100
AcDbMText
 10
44.680449830604161
 20
-133.29503913229485
 30
0.0
 40
0.6316008391203704
 41
0.0
 71
               1
 72
               1
  1
 (x4)
  7
Helvetica
 73
               1
 44
0.9673603504928805
  0
POINT
  5
2D6
100
AcDbEntity
  8
Defpoints
370
               0
390
0
 62
               0
100
AcDbPoint
 10
30.121991599999994
 20
-131.22431739999999
 30
0.0
  0
POINT
  5
2D7
100
AcDbEntity
  8
Defpoints
370
               0
390
0
 62
               0
100
AcDbPoint
 10
31.583011599999992
 20
-131.90069739999998
 30
0.0
  0
ENDBLK
  5
2D8
100
AcDbEntity
  8
Dimension
390
0
100
AcDbBlockEnd
  0
BLOCK
  5
2D9
100
AcDbEntity
  8
Dimension
390
0
100
AcDbBlockBegin
  2
*D22
 70
               1
 10
0.0
 20
0.0
 30
0.0
  3
*D22
  1

  0
LINE
  5
2DA
100
AcDbEntity
  8
Dimension
370
              -2
390
0
  6
Continuous
 62
               0
100
AcDbLine
 10
19.763751598817215
 20
-120.7000074
 30
0.0
 11
9.1312215976344362
 21
-120.7000074
 31
0.0
  0
LINE
  5
2DB
100
AcDbEntity
  8
Dimension
370
              -2
390
0
  6
Continuous
 62
               0
100
AcDbLine
 10
19.763751598817215
 20
-129.7000074
 30
0.0
 11
9.1312215976344326
 21
-129.7000074
 31
0.0
  0
LINE
  5
2DC
100
AcDbEntity
  8
Dimension
370
              -2
390
0
  6
Continuous
 62
               0
100
AcDbLine
 10
10.083721599999993
 20
-120.7000074
 30
0.0
 11
10.083721599999993
 21
-129.7000074
 31
0.0
  0
SOLID
  5
2DD
100
AcDbEntity
  8
Dimension
370
              -2
390
0
 62
               0
100
AcDbTrace
 10
10.083721599999993
 20
-120.7000074
 30
0.0
 11
10.296406271492195
 21
-121.49375739999999
 31
0.0
 12
9.8710369285077881
 22
-121.49375739999999
 32
0.0
 13
9.8710369285077881
 23
-121.49375739999999
 33
0.0
  0
SOLID
  5
2DE
100
AcDbEntity
  8
Dimension
370
              -2
390
0
 62
               0
100
AcDbTrace
 10
10.083721599999993
 20
-129.7000074
 30
0.0
 11
9.8710369285077881
 21
-128.90625739999999
 31
0.0
 12
10.296406271492199
 22
-128.90625739999999
 32
0.0
 13
10.296406271492199
 23
-128.90625739999999
 33
0.0
  0
WIPEOUT
  5
2DF
100
AcDbEntity
  8
Dimension
370
              -2
390
0
  6
Continuous
 62
               0
 92
        0
100
AcDbWipeout
 90
        0
 10
9.095948801461784
 20
55.283911031640613
 30
0.0
 11
1.9755455970764153
 21
0.0
 31
0.0
 12
0.0
 22
1.9755455970764153
 32
0.0
 13
1.0
 23
1.0
340
0
 70
               7
280
               1
281
              50
282
              50
283
               0
360
0
 71
               2
 91
        5
 14
-0.5
 24
92.799048561493137
 14
0.5
 24
92.799048561493137
 14
0.5
 24
92.285655703590521
 14
-0.5
 24
92.285655703590521
 14
-0.5
 24
92.799048561493137
  0
MTEXT
  5
2E0
100
AcDbEntity
  8
Dimension
390
0
 62
               0
100
AcDbMText
 10
9.095948801461784
 20
-126.20498531210937
 30
0.0
 40
0.6315976562499999
 41
0.0
 71
               1
 72
               1
  1
9mm
  7
Helvetica
 73
               1
 44
0.9673603504928808
  0
POINT
  5
2E1
100
AcDbEntity
  8
Defpoints
370
               0
390
0
 62
               0
100
AcDbPoint
 10
20.240001599999992
 20
-129.7000074
 30
0.0
  0
POINT
  5
2E2
100
AcDbEntity
  8
Defpoints
370
               0
390
0
 62
               0
100
AcDbPoint
 10
20.240001599999992
 20
-120.7000074
 30
0.0
  0
POINT
  5
2E3
100
AcDbEntity
  8
Defpoints
370
               0
390
0
 62
               0
100
AcDbPoint
 10
10.083721599999993
 20
-120.7000074
 30
0.0
  0
ENDBLK
  5
2E4
100
AcDbEntity
  8
Dimension
390
0
100
AcDbBlockEnd
  0
BLOCK
  5
2E5
100
AcDbEntity
  8
Dimension
390
0
100
AcDbBlockBegin
  2
*D23
 70
               1
 10
0.0
 20
0.0
 30
0.0
  3
*D23
  1

  0
LINE
  5
2E6
100
AcDbEntity
  8
Dimension
370
              -2
390
0
  6
Continuous
 62
               0
100
AcDbLine
 10
15.627501599999995
 20
-134.53875740118278
 30
0.0
 11
15.627501599999995
 21
-143.71476740236557
 31
0.0
  0
LINE
  5
2E7
100
AcDbEntity
  8
Dimension
370
              -2
390
0
  6
Continuous
 62
               0
100
AcDbLine
 10
33.352501599999997
 20
-134.53875740118278
 30
0.0
 11
33.352501599999997
 21
-143.71476740236557
 31
0.0
  0
LINE
  5
2E8
100
AcDbEntity
  8
Dimension
370
              -2
390
0
  6
Continuous
 62
               0
100
AcDbLine
 10
15.627501599999995
 20
-142.76226739999998
 30
0.0
 11
33.352501599999997
 21
-142.76226739999998
 31
0.0
  0
SOLID
  5
2E9
100
AcDbEntity
  8
Dimension
370
              -2
390
0
 62
               0
100
AcDbTrace
 10
15.627501599999995
 20
-142.76226739999998
 30
0.0
 11
16.421251599999994
 21
-142.5495827285078
 31
0.0
 12
16.421251599999994
 22
-142.9749520714922
 32
0.0
 13
16.421251599999994
 23
-142.9749520714922
 33
0.0
  0
SOLID
  5
2EA
100
AcDbEntity
  8
Dimension
370
              -2
390
0
 62
               0
100
AcDbTrace
 10
33.352501599999997
 20
-142.76226739999998
 30
0.0
 11
32.558751599999994
 21
-142.9749520714922
 31
0.0
 12
32.558751599999994
 22
-142.5495827285078
 32
0.0
 13
32.558751599999994
 23
-142.5495827285078
 33
0.0
  0
WIPEOUT
  5
2EB
100
AcDbEntity
  8
Dimension
370
              -2
390
0
  6
Continuous
 62
               0
 92
        0
100
AcDbWipeout
 90
        0
 10
21.782445882107879
 20
39.071596099999994
 30
0.0
 11
5.4151114357842332
 21
0.0
 31
0.0
 12
0.0
 22
5.4151114357842332
 32
0.0
 13
1.0
 23
1.0
340
0
 70
               7
280
               1
281
              50
282
              50
283
               0
360
0
 71
               2
 91
        5
 14
-0.5
 24
34.172618036085311
 14
0.5
 24
34.172618036085311
 14
0.5
 24
33.985321613467349
 14
-0.5
 24
33.985321613467349
 14
-0.5
 24
34.172618036085311
  0
MTEXT
  5
2EC
100
AcDbEntity
  8
Dimension
390
0
 62
               0
100
AcDbMText
 10
21.782445882107879
 20
-142.41730024374999
 30
0.0
 40
0.6315976562499999
 41
0.0
 71
               1
 72
               1
  1
17.73mm sqr.
  7
Helvetica
 73
               1
 44
0.9673603504928808
  0
POINT
  5
2ED
100
AcDbEntity
  8
Defpoints
370
               0
390
0
 62
               0
100
AcDbPoint
 10
33.352501599999997
 20
-134.06250739999999
 30
0.0
  0
POINT
  5
2EE
100
AcDbEntity
  8
Defpoints
370
               0
390
0
 62
               0
100
AcDbPoint
 10
15.627501599999995
 20
-134.06250739999999
 30
0.0
  0
POINT
  5
2EF
100
AcDbEntity
  8
Defpoints
370
               0
390
0
 62
               0
100
AcDbPoint
 10
15.627501599999995
 20
-142.76226739999998
 30
0.0
  0
ENDBLK
  5
2F0
100
AcDbEntity
  8
Dimension
390
0
100
AcDbBlockEnd
  0
ENDSEC
  0
SECTION
  2
ENTITIES
  0
WIPEOUT
  5
2F1
100
AcDbEntity
  8
Dimension
370
               5
390
0
  6
Continuous
 62
               7
 92
        0
100
AcDbWipeout
 90
        0
 10
19.432206599999994
 20
31.698316599999991
 30
0.0
 11
10.634024999999999
 21
0.0
 31
0.0
 12
0.0
 22
10.634024999999999
 32
0.0
 13
1.0
 23
1.0
340
0
 70
               7
280
               1
281
              50
282
              50
283
               0
360
0
 71
               2
 91
        5
 14
-0.5
 24
17.487702586743964
 14
0.5000000000000002
 24
17.487702586743964
 14
0.5000000000000002
 24
17.646939094087141
 14
-0.5
 24
17.646939094087141
 14
-0.5
 24
17.487702586743964
  0
POLYLINE
  5
2F2
100
AcDbEntity
  8
Dimension
370
               5
390
0
  6
Continuous
 62
               7
100
AcDb2dPolyline
 66
               1
 10
0.0
 20
0.0
 30
0.0
 70
               1
 75
               5
  0
VERTEX
  5
2F3
100
AcDbEntity
  8
Dimension
370
               5
390
0
  6
Continuous
 62
               7
100
AcDbVertex
100
AcDb2dVertex
 10
19.432206599999994
 20
-148.94933739999999
 30
0.0
  0
VERTEX
  5
2F4
100
AcDbEntity
  8
Dimension
370
               5
390
0
  6
Continuous
 62
               7
100
AcDbVertex
100
AcDb2dVertex
 10
30.066231599999995
 20
-148.94933739999999
 30
0.0
  0
VERTEX
  5
2F5
100
AcDbEntity
  8
Dimension
370
               5
390
0
  6
Continuous
 62
               7
100
AcDbVertex
100
AcDb2dVertex
 10
30.066231599999995
 20
-150.64266240000001
 30
0.0
  0
VERTEX
  5
2F6
100
AcDbEntity
  8
Dimension
370
               5
390
0
  6
Continuous
 62
               7
100
AcDbVertex
100
AcDb2dVertex
 10
19.432206599999994
 20
-150.64266240000001
 30
0.0
  0
SEQEND
  5
2F7
100
AcDbEntity
  8
Dimension
370
               5
390
0
  6
Continuous
 62
               7
  0
WIPEOUT
  5
2F8
100
AcDbEntity
  8
Dimension
370
               5
390
0
  6
Continuous
 62
               7
 92
        0
100
AcDbWipeout
 90
        0
 10
30.066231599999995
 20
31.698316599999991
 30
0.0
 11
7.4317250000000001
 21
0.0
 31
0.0
 12
0.0
 22
7.4317250000000001
 32
0.0
 13
1.0
 23
1.0
340
0
 70
               7
280
               1
281
              50
282
              50
283
               0
360
0
 71
               2
 91
        5
 14
-0.5
 24
24.807634364834541
 14
0.5
 24
24.807634364834541
 14
0.5
 24
25.03548523391272
 14
-0.5
 24
25.03548523391272
 14
-0.5
 24
24.807634364834541
  0
POLYLINE
  5
2F9
100
AcDbEntity
  8
Dimension
370
               5
390
0
  6
Continuous
 62
               7
100
AcDb2dPolyline
 66
               1
 10
0.0
 20
0.0
 30
0.0
 70
               1
 75
               5
  0
VERTEX
  5
2FA
100
AcDbEntity
  8
Dimension
370
               5
390
0
  6
Continuous
 62
               7
100
AcDbVertex
100
AcDb2dVertex
 10
30.066231599999995
 20
-148.94933739999999
 30
0.0
  0
VERTEX
  5
2FB
100
AcDbEntity
  8
Dimension
370
               5
390
0
  6
Continuous
 62
               7
100
AcDbVertex
100
AcDb2dVertex
 10
37.497956599999995
 20
-148.94933739999999
 30
0.0
  0
VERTEX
  5
2FC
100
AcDbEntity
  8
Dimension
370
               5
390
0
  6
Continuous
 62
               7
100
AcDbVertex
100
AcDb2dVertex
 10
37.497956599999995
 20
-150.64266240000001
 30
0.0
  0
VERTEX
  5
2FD
100
AcDbEntity
  8
Dimension
370
               5
390
0
  6
Continuous
 62
               7
100
AcDbVertex
100
AcDb2dVertex
 10
30.066231599999995
 20
-150.64266240000001
 30
0.0
  0
SEQEND
  5
2FE
100
AcDbEntity
  8
Dimension
370
               5
390
0
  6
Continuous
 62
               7
  0
WIPEOUT
  5
2FF
100
AcDbEntity
  8
Dimension
370
               5
390
0
  6
Continuous
 62
               7
 92
        0
100
AcDbWipeout
 90
        0
 10
37.497956599999995
 20
31.698316599999991
 30
0.0
 11
7.4421999999999979
 21
0.0
 31
0.0
 12
0.0
 22
7.4421999999999979
 32
0.0
 13
1.0
 23
1.0
340
0
 70
               7
280
               1
281
              50
282
              50
283
               0
360
0
 71
               2
 91
        5
 14
-0.5
 24
24.773421031415445
 14
0.5000000000000002
 24
24.773421031415445
 14
0.5000000000000002
 24
25.000951197226634
 14
-0.5
 24
25.000951197226634
 14
-0.5
 24
24.773421031415445
  0
POLYLINE
  5
300
100
AcDbEntity
  8
Dimension
370
               5
390
0
  6
Continuous
 62
               7
100
AcDb2dPolyline
 66
               1
 10
0.0
 20
0.0
 30
0.0
 70
               1
 75
               5
  0
VERTEX
  5
301
100
AcDbEntity
  8
Dimension
370
               5
390
0
  6
Continuous
 62
               7
100
AcDbVertex
100
AcDb2dVertex
 10
37.497956599999995
 20
-148.94933739999999
 30
0.0
  0
VERTEX
  5
302
100
AcDbEntity
  8
Dimension
370
               5
390
0
  6
Continuous
 62
               7
100
AcDbVertex
100
AcDb2dVertex
 10
44.940156599999995
 20
-148.94933739999999
 30
0.0
  0
VERTEX
  5
303
100
AcDbEntity
  8
Dimension
370
               5
390
0
  6
Continuous
 62
               7
100
AcDbVertex
100
AcDb2dVertex
 10
44.940156599999995
 20
-150.64266240000001
 30
0.0
  0
VERTEX
  5
304
100
AcDbEntity
  8
Dimension
370
               5
390
0
  6
Continuous
 62
               7
100
AcDbVertex
100
AcDb2dVertex
 10
37.497956599999995
 20
-150.64266240000001
 30
0.0
  0
SEQEND
  5
305
100
AcDbEntity
  8
Dimension
370
               5
390
0
  6
Continuous
 62
               7
  0
WIPEOUT
  5
306
100
AcDbEntity
  8
Dimension
370
               5
390
0
  6
Continuous
 62
               7
 92
        0
100
AcDbWipeout
 90
        0
 10
19.432206599999994
 20
30.004961599999994
 30
0.0
 11
13.623094999999999
 21
0.0
 31
0.0
 12
0.0
 22
13.623094999999999
 32
0.0
 13
1.0
 23
1.0
340
0
 70
               7
280
               1
281
              50
282
              50
283
               0
360
0
 71
               2
 91
        5
 14
-0.5
 24
13.760395233241786
 14
0.5
 24
13.760395233241786
 14
0.5
 24
13.884695548258309
 14
-0.5
 24
13.884695548258309
 14
-0.5
 24
13.760395233241786
  0
POLYLINE
  5
307
100
AcDbEntity
  8
Dimension
370
               5
390
0
  6
Continuous
 62
               7
100
AcDb2dPolyline
 66
               1
 10
0.0
 20
0.0
 30
0.0
 70
               1
 75
               5
  0
VERTEX
  5
308
100
AcDbEntity
  8
Dimension
370
               5
390
0
  6
Continuous
 62
               7
100
AcDbVertex
100
AcDb2dVertex
 10
19.432206599999994
 20
-150.64266240000001
 30
0.0
  0
VERTEX
  5
309
100
AcDbEntity
  8
Dimension
370
               5
390
0
  6
Continuous
 62
               7
100
AcDbVertex
100
AcDb2dVertex
 10
33.055301599999993
 20
-150.64266240000001
 30
0.0
  0
VERTEX
  5
30A
100
AcDbEntity
  8
Dimension
370
               5
390
0
  6
Continuous
 62
               7
100
AcDbVertex
100
AcDb2dVertex
 10
33.055301599999993
 20
-152.3360174
 30
0.0
  0
VERTEX
  5
30B
100
AcDbEntity
  8
Dimension
370
               5
390
0
  6
Continuous
 62
               7
100
AcDbVertex
100
AcDb2dVertex
 10
19.432206599999994
 20
-152.3360174
 30
0.0
  0
SEQEND
  5
30C
100
AcDbEntity
  8
Dimension
370
               5
390
0
  6
Continuous
 62
               7
  0
WIPEOUT
  5
30D
100
AcDbEntity
  8
Dimension
370
               5
390
0
  6
Continuous
 62
               7
 92
        0
100
AcDbWipeout
 90
        0
 10
33.055301599999993
 20
30.004961599999994
 30
0.0
 11
11.884854999999998
 21
0.0
 31
0.0
 12
0.0
 22
11.884854999999998
 32
0.0
 13
1.0
 23
1.0
340
0
 70
               7
280
               1
281
              50
282
              50
283
               0
360
0
 71
               2
 91
        5
 14
-0.5
 24
15.699817246403093
 14
0.5000000000000002
 24
15.699817246403093
 14
0.5000000000000002
 24
15.842297318730438
 14
-0.5
 24
15.842297318730438
 14
-0.5
 24
15.699817246403093
  0
POLYLINE
  5
30E
100
AcDbEntity
  8
Dimension
370
               5
390
0
  6
Continuous
 62
               7
100
AcDb2dPolyline
 66
               1
 10
0.0
 20
0.0
 30
0.0
 70
               1
 75
               5
  0
VERTEX
  5
30F
100
AcDbEntity
  8
Dimension
370
               5
390
0
  6
Continuous
 62
               7
100
AcDbVertex
100
AcDb2dVertex
 10
33.055301599999993
 20
-150.64266240000001
 30
0.0
  0
VERTEX
  5
310
100
AcDbEntity
  8
Dimension
370
               5
390
0
  6
Continuous
 62
               7
100
AcDbVertex
100
AcDb2dVertex
 10
44.940156599999995
 20
-150.64266240000001
 30
0.0
  0
VERTEX
  5
311
100
AcDbEntity
  8
Dimension
370
               5
390
0
  6
Continuous
 62
               7
100
AcDbVertex
100
AcDb2dVertex
 10
44.940156599999995
 20
-152.3360174
 30
0.0
  0
VERTEX
  5
312
100
AcDbEntity
  8
Dimension
370
               5
390
0
  6
Continuous
 62
               7
100
AcDbVertex
100
AcDb2dVertex
 10
33.055301599999993
 20
-152.3360174
 30
0.0
  0
SEQEND
  5
313
100
AcDbEntity
  8
Dimension
370
               5
390
0
  6
Continuous
 62
               7
  0
WIPEOUT
  5
314
100
AcDbEntity
  8
Dimension
370
               5
390
0
  6
Continuous
 62
               7
 92
        0
100
AcDbWipeout
 90
        0
 10
33.055301599999993
 20
28.311641599999994
 30
0.0
 11
11.884854999999998
 21
0.0
 31
0.0
 12
0.0
 22
11.884854999999998
 32
0.0
 13
1.0
 23
1.0
340
0
 70
               7
280
               1
281
              50
282
              50
283
               0
360
0
 71
               2
 91
        5
 14
-0.5
 24
15.699820191327536
 14
0.5000000000000002
 24
15.699820191327536
 14
0.5000000000000002
 24
15.842297318730438
 14
-0.5
 24
15.842297318730438
 14
-0.5
 24
15.699820191327536
  0
POLYLINE
  5
315
100
AcDbEntity
  8
Dimension
370
               5
390
0
  6
Continuous
 62
               7
100
AcDb2dPolyline
 66
               1
 10
0.0
 20
0.0
 30
0.0
 70
               1
 75
               5
  0
VERTEX
  5
316
100
AcDbEntity
  8
Dimension
370
               5
390
0
  6
Continuous
 62
               7
100
AcDbVertex
100
AcDb2dVertex
 10
33.055301599999993
 20
-152.3360174
 30
0.0
  0
VERTEX
  5
317
100
AcDbEntity
  8
Dimension
370
               5
390
0
  6
Continuous
 62
               7
100
AcDbVertex
100
AcDb2dVertex
 10
44.940156599999995
 20
-152.3360174
 30
0.0
  0
VERTEX
  5
318
100
AcDbEntity
  8
Dimension
370
               5
390
0
  6
Continuous
 62
               7
100
AcDbVertex
100
AcDb2dVertex
 10
44.940156599999995
 20
-154.0293374
 30
0.0
  0
VERTEX
  5
319
100
AcDbEntity
  8
Dimension
370
               5
390
0
  6
Continuous
 62
               7
100
AcDbVertex
100
AcDb2dVertex
 10
33.055301599999993
 20
-154.0293374
 30
0.0
  0
SEQEND
  5
31A
100
AcDbEntity
  8
Dimension
370
               5
390
0
  6
Continuous
 62
               7
  0
WIPEOUT
  5
31B
100
AcDbEntity
  8
Dimension
370
               5
390
0
  6
Continuous
 62
               7
 92
        0
100
AcDbWipeout
 90
        0
 10
19.432206599999994
 20
28.311641599999994
 30
0.0
 11
13.623094999999999
 21
0.0
 31
0.0
 12
0.0
 22
13.623094999999999
 32
0.0
 13
1.0
 23
1.0
340
0
 70
               7
280
               1
281
              50
282
              50
283
               0
360
0
 71
               2
 91
        5
 14
-0.5
 24
13.760397802408338
 14
0.5
 24
13.760397802408338
 14
0.5
 24
13.884695548258309
 14
-0.5
 24
13.884695548258309
 14
-0.5
 24
13.760397802408338
  0
POLYLINE
  5
31C
100
AcDbEntity
  8
Dimension
370
               5
390
0
  6
Continuous
 62
               7
100
AcDb2dPolyline
 66
               1
 10
0.0
 20
0.0
 30
0.0
 70
               1
 75
               5
  0
VERTEX
  5
31D
100
AcDbEntity
  8
Dimension
370
               5
390
0
  6
Continuous
 62
               7
100
AcDbVertex
100
AcDb2dVertex
 10
19.432206599999994
 20
-152.3360174
 30
0.0
  0
VERTEX
  5
31E
100
AcDbEntity
  8
Dimension
370
               5
390
0
  6
Continuous
 62
               7
100
AcDbVertex
100
AcDb2dVertex
 10
33.055301599999993
 20
-152.3360174
 30
0.0
  0
VERTEX
  5
31F
100
AcDbEntity
  8
Dimension
370
               5
390
0
  6
Continuous
 62
               7
100
AcDbVertex
100
AcDb2dVertex
 10
33.055301599999993
 20
-154.0293374
 30
0.0
  0
VERTEX
  5
320
100
AcDbEntity
  8
Dimension
370
               5
390
0
  6
Continuous
 62
               7
100
AcDbVertex
100
AcDb2dVertex
 10
19.432206599999994
 20
-154.0293374
 30
0.0
  0
SEQEND
  5
321
100
AcDbEntity
  8
Dimension
370
               5
390
0
  6
Continuous
 62
               7
  0
MTEXT
  5
322
100
AcDbEntity
  8
None
390
0
 62
               7
100
AcDbMText
 10
20.067206599999995
 20
-149.42878666302082
 30
0.0
 40
0.6316012369791665
 41
0.0
 71
               1
 72
               1
  1
Status: Released
  7
Arial
 73
               1
 44
0.9673603504928809
  0
MTEXT
  5
323
100
AcDbEntity
  8
None
390
0
 62
               7
100
AcDbMText
 10
20.067206599999995
 20
-151.12354166302083
 30
0.0
 40
0.6316012369791665
 41
0.0
 71
               1
 72
               1
  1
Drawing:  H. Hansen
  7
Arial
 73
               1
 44
0.9673603504928809
  0
WIPEOUT
  5
324
100
AcDbEntity
  8
None
370
               5
390
0
  6
Continuous
 62
               7
 92
        0
100
AcDbWipeout
 90
        0
 10
30.701231599999993
 20
32.10409984999999
 30
0.0
 11
3.9422940889994305
 21
0.0
 31
0.0
 12
0.0
 22
3.9422940889994305
 32
0.0
 13
1.0
 23
1.0
340
0
 70
               7
280
               1
281
              50
282
              50
283
               0
360
0
 71
               2
 91
        5
 14
-0.5
 24
46.752505491359429
 14
0.5000000000000004
 24
46.752505491359429
 14
0.5000000000000004
 24
46.495234793866281
 14
-0.5
 24
46.495234793866281
 14
-0.5
 24
46.752505491359429
  0
MTEXT
  5
325
100
AcDbEntity
  8
None
390
0
 62
               7
100
AcDbMText
 10
30.701231599999993
 20
-149.38479166302082
 30
0.0
 40
0.6316012369791665
 41
0.0
 71
               1
 72
               1
  1
Scale: 4:1
  7
Arial
 73
               1
 44
0.9673603504928809
  0
MTEXT
  5
326
100
AcDbEntity
  8
None
390
0
 62
               7
100
AcDbMText
 10
38.132956599999993
 20
-149.43020166302082
 30
0.0
 40
0.6316012369791665
 41
0.0
 71
               1
 72
               1
  1
Rev: A
  7
Arial
 73
               1
 44
0.9673603504928809
  0
MTEXT
  5
327
100
AcDbEntity
  8
None
390
0
 62
               7
100
AcDbMText
 10
33.690301599999991
 20
-151.26445666302084
 30
0.0
 40
0.6316012369791665
 41
0.0
 71
               1
 72
               1
  1
Date: 3/17/05
  7
Arial
 73
               1
 44
0.9673603504928809
  0
MTEXT
  5
328
100
AcDbEntity
  8
None
390
0
 62
               7
100
AcDbMText
 10
20.067206599999995
 20
-152.90670162656249
 30
0.0
 40
0.5052802734374999
 41
0.0
 71
               1
 72
               1
  1
File: SG-BGA-7042 Dwg
  7
Arial
 73
               1
 44
0.9673603504928808
  0
WIPEOUT
  5
329
100
AcDbEntity
  8
Dimension
370
               5
390
0
  6
Continuous
 62
               7
 92
        0
100
AcDbWipeout
 90
        0
 10
-5.8725434000000014
 20
28.311641599999994
 30
0.0
 11
25.304749999999995
 21
0.0
 31
0.0
 12
0.0
 22
25.304749999999995
 32
0.0
 13
1.0
 23
1.0
340
0
 70
               7
280
               1
281
              50
282
              50
283
               0
360
0
 71
               2
 91
        5
 14
-0.5
 24
7.5719649077742339
 14
0.5
 24
7.5719649077742339
 14
0.5
 24
7.705800452484219
 14
-0.5
 24
7.705800452484219
 14
-0.5
 24
7.5719649077742339
  0
POLYLINE
  5
32A
100
AcDbEntity
  8
Dimension
370
               5
390
0
  6
Continuous
 62
               7
100
AcDb2dPolyline
 66
               1
 10
0.0
 20
0.0
 30
0.0
 70
               1
 75
               5
  0
VERTEX
  5
32B
100
AcDbEntity
  8
Dimension
370
               5
390
0
  6
Continuous
 62
               7
100
AcDbVertex
100
AcDb2dVertex
 10
-5.8725434000000014
 20
-150.64266240000001
 30
0.0
  0
VERTEX
  5
32C
100
AcDbEntity
  8
Dimension
370
               5
390
0
  6
Continuous
 62
               7
100
AcDbVertex
100
AcDb2dVertex
 10
19.432206599999994
 20
-150.64266240000001
 30
0.0
  0
VERTEX
  5
32D
100
AcDbEntity
  8
Dimension
370
               5
390
0
  6
Continuous
 62
               7
100
AcDbVertex
100
AcDb2dVertex
 10
19.432206599999994
 20
-154.0293374
 30
0.0
  0
VERTEX
  5
32E
100
AcDbEntity
  8
Dimension
370
               5
390
0
  6
Continuous
 62
               7
100
AcDbVertex
100
AcDb2dVertex
 10
-5.8725434000000014
 20
-154.0293374
 30
0.0
  0
SEQEND
  5
32F
100
AcDbEntity
  8
Dimension
370
               5
390
0
  6
Continuous
 62
               7
  0
WIPEOUT
  5
330
100
AcDbEntity
  8
Dimension
370
               5
390
0
  6
Continuous
 62
               7
 92
        0
100
AcDbWipeout
 90
        0
 10
-5.8725434000000014
 20
31.698316599999991
 30
0.0
 11
25.304749999999995
 21
0.0
 31
0.0
 12
0.0
 22
25.304749999999995
 32
0.0
 13
1.0
 23
1.0
340
0
 70
               7
280
               1
281
              50
282
              50
283
               0
360
0
 71
               2
 91
        5
 14
-0.5
 24
7.6388831741076286
 14
0.5
 24
7.6388831741076286
 14
0.5
 24
7.705800452484219
 14
-0.5
 24
7.705800452484219
 14
-0.5
 24
7.6388831741076286
  0
POLYLINE
  5
331
100
AcDbEntity
  8
Dimension
370
               5
390
0
  6
Continuous
 62
               7
100
AcDb2dPolyline
 66
               1
 10
0.0
 20
0.0
 30
0.0
 70
               1
 75
               5
  0
VERTEX
  5
332
100
AcDbEntity
  8
Dimension
370
               5
390
0
  6
Continuous
 62
               7
100
AcDbVertex
100
AcDb2dVertex
 10
-5.8725434000000014
 20
-148.94933739999999
 30
0.0
  0
VERTEX
  5
333
100
AcDbEntity
  8
Dimension
370
               5
390
0
  6
Continuous
 62
               7
100
AcDbVertex
100
AcDb2dVertex
 10
19.432206599999994
 20
-148.94933739999999
 30
0.0
  0
VERTEX
  5
334
100
AcDbEntity
  8
Dimension
370
               5
390
0
  6
Continuous
 62
               7
100
AcDbVertex
100
AcDb2dVertex
 10
19.432206599999994
 20
-150.64266240000001
 30
0.0
  0
VERTEX
  5
335
100
AcDbEntity
  8
Dimension
370
               5
390
0
  6
Continuous
 62
               7
100
AcDbVertex
100
AcDb2dVertex
 10
-5.8725434000000014
 20
-150.64266240000001
 30
0.0
  0
SEQEND
  5
336
100
AcDbEntity
  8
Dimension
370
               5
390
0
  6
Continuous
 62
               7
  0
MTEXT
  5
337
100
AcDbEntity
  8
None
390
0
 62
               7
100
AcDbMText
 10
6.7798315999999943
 20
-149.39663128958333
 30
0.0
 40
0.7367565104166665
 41
0.0
 71
               2
 72
               1
  1
SG-BGA-7042 Drawing
  7
Arial (bold)
 73
               1
 44
0.9925958378970426
  0
MTEXT
  5
338
100
AcDbEntity
  8
None
390
0
 62
               7
100
AcDbMText
 10
7.7694465999999949
 20
-150.8514030484375
 30
0.0
 40
0.5024228515624999
 41
18.369139999999998
 71
               2
 72
               1
  1
© 2005 IRONWOOD ELECTRONICS, INC.\PPO BOX 21151 ST. PAUL, MN  55121\PTele: (651) 452-8100\Pwww.ironwoodelectronics.com
  7
Arial
 73
               1
 44
0.9673603504928806
  0
INSERT
  5
339
100
AcDbEntity
  8
None
390
0
 62
               7
100
AcDbBlockReference
  2
IE i logo
 10
-3.1652384000000033
 20
-152.30953739999998
 30
0.0
 41
0.5
 42
0.5
 43
0.5
  0
MTEXT
  5
33A
100
AcDbEntity
  8
None
390
0
 62
               7
100
AcDbMText
 10
33.690301599999991
 20
-152.90670162656249
 30
0.0
 40
0.5052802734374999
 41
0.0
 71
               1
 72
               1
  1
Modified:  
  7
Arial
 73
               1
 44
0.9673603504928808
  0
WIPEOUT
  5
33B
100
AcDbEntity
  8
None
370
               9
390
0
  6
Continuous
 62
               7
 92
        0
100
AcDbWipeout
 90
        0
 10
47.937206599999996
 20
28.289821599999993
 30
0.0
 11
8.8900002691480822
 21
0.0
 31
0.0
 12
0.0
 22
8.8900002691480822
 32
0.0
 13
1.0
 23
1.0
340
0
 70
               7
280
               1
281
              50
282
              50
283
               0
360
0
 71
               2
 91
        5
 14
-0.5
 24
21.010795666991974
 14
0.4999999999999992
 24
21.010795666991974
 14
0.4999999999999992
 24
20.805438530352095
 14
-0.5
 24
20.805438530352095
 14
-0.5
 24
21.010795666991974
  0
MTEXT
  5
33C
100
AcDbEntity
  8
None
390
0
 62
               7
100
AcDbMText
 10
47.937206599999996
 20
-152.51740088958331
 30
0.0
 40
1.1368815104166665
 41
0.0
 71
               1
 72
               1
  1
PAGE 2 of 4
  7
Arial
 73
               1
 44
0.9673603504928806
  0
MTEXT
  5
33D
100
AcDbEntity
  8
None
390
0
 62
               7
100
AcDbMText
 10
28.514511599999992
 20
-147.54116485052083
 30
0.0
 40
0.5204840494791666
 41
28.552694999999996
 71
               1
 72
               1
  1
Recommended PCB Layout Tolerances:  ±0.025mm [±0.001"] unless stated otherwise.\P
  7
Helvetica
 73
               1
 44
0.9673603504928806
  0
MTEXT
  5
33E
100
AcDbEntity
  8
None
390
0
 62
               7
100
AcDbMText
 10
-5.0565734000000049
 20
-105.5750185640625
 30
0.0
 40
0.6124443359374999
 41
11.826889999999999
 71
               1
 72
               1
  1
{\LRecommended PCB Layout Top View}\P
  7
Helvetica
 73
               1
 44
0.9673603504928809
  0
WIPEOUT
  5
33F
100
AcDbEntity
  8
None
370
              15
390
0
  6
Continuous
 62
              12
 92
        0
100
AcDbWipeout
 90
        0
 10
-5.688863400000006
 20
36.546381599999989
 30
0.0
 11
17.851437822977701
 21
0.0
 31
0.0
 12
0.0
 22
17.851437822977701
 32
0.0
 13
1.0
 23
1.0
340
0
 70
               7
280
               1
281
              50
282
              50
283
               0
360
0
 71
               2
 91
        5
 14
-0.5
 24
10.714358126676917
 14
0.5
 24
10.714358126676917
 14
0.5
 24
10.50982278133346
 14
-0.5
 24
10.50982278133346
 14
-0.5
 24
10.714358126676917
  0
MTEXT
  5
340
100
AcDbEntity
  8
None
390
0
 62
              12
100
AcDbMText
 10
-5.688863400000006
 20
-142.28928164479166
 30
0.0
 40
0.5684407552083333
 41
0.0
 71
               1
 72
               1
  1
{\LTarget PCB Recommendations}\PTotal thickness: 1.6mm min.\PPlating: Gold or Solder finish\PPCB Pad height: Same or higher than solder mask
  7
Arial
 73
               1
 44
0.9673603504928806
  0
WIPEOUT
  5
341
100
AcDbEntity
  8
None
370
               9
390
0
  6
Continuous
 62
              12
 92
        0
100
AcDbWipeout
 90
        0
 10
37.432206599999994
 20
73.273463399999983
 30
0.0
 11
21.660825000000003
 21
0.0
 31
0.0
 12
0.0
 22
21.660825000000003
 32
0.0
 13
1.0
 23
1.0
340
0
 70
               7
280
               1
281
              50
282
              50
283
               0
360
0
 71
               2
 91
        5
 14
-0.5
 24
8.9180071165341115
 14
0.4999999999999997
 24
8.9180071165341115
 14
0.4999999999999997
 24
8.8025044429286492
 14
-0.5
 24
8.8025044429286492
 14
-0.5
 24
8.9180071165341115
  0
MTEXT
  5
342
100
AcDbEntity
  8
None
390
0
 62
              12
100
AcDbMText
 10
37.432206599999994
 20
-106.79234347916668
 30
0.0
 40
0.7592005208333332
 41
21.660824999999999
 71
               1
 72
               1
  1
{\L*Note: BGA pattern is not symmetrical with respect to the mounting holes.}
  7
Arial (bold)
 73
               1
 44
0.992595837897043
  0
WIPEOUT
  5
343
100
AcDbEntity
  8
None
370
               5
390
0
  6
Continuous
 62
               7
 92
        0
100
AcDbWipeout
 90
        0
 10
41.732206599999991
 20
66.886251349999995
 30
0.0
 11
12.647089523739284
 21
0.0
 31
0.0
 12
0.0
 22
12.647089523739284
 32
0.0
 13
1.0
 23
1.0
340
0
 70
               7
280
               1
281
              50
282
              50
283
               0
360
0
 71
               2
 91
        5
 14
-0.5
 24
14.917623806468352
 14
0.5000000000000004
 24
14.917623806468352
 14
0.5000000000000004
 24
14.677037998619939
 14
-0.5
 24
14.677037998619939
 14
-0.5
 24
14.917623806468352
  0
MTEXT
  5
344
100
AcDbEntity
  8
None
390
0
 62
               7
100
AcDbMText
 10
41.732206599999991
 20
-112.57416666302083
 30
0.0
 40
0.6316012369791665
 41
0.0
 71
               1
 72
               1
  1
Note: Full BGA pattern shown. \PPlease adjust pattern according \Pto individual requirements.
  7
Arial
 73
               1
 44
0.9673603504928809
  0
WIPEOUT
  5
345
100
AcDbEntity
  8
None
370
               9
390
0
  6
Continuous
 62
               7
 92
        0
100
AcDbWipeout
 90
        0
 10
39.107836599999992
 20
35.98811984999999
 30
0.0
 11
19.385151269700792
 21
0.0
 31
0.0
 12
0.0
 22
19.385151269700792
 32
0.0
 13
1.0
 23
1.0
340
0
 70
               7
280
               1
281
              50
282
              50
283
               0
360
0
 71
               2
 91
        5
 14
-0.5
 24
9.9062190417363922
 14
0.5
 24
9.9062190417363922
 14
0.5
 24
9.8538987510206191
 14
-0.5
 24
9.8538987510206191
 14
-0.5
 24
9.9062190417363922
  0
MTEXT
  5
346
100
AcDbEntity
  8
None
390
0
 62
               7
100
AcDbMText
 10
39.107836599999992
 20
-145.50077166302083
 30
0.0
 40
0.6316012369791665
 41
0.0
 71
               1
 72
               1
  1
All dimensions are in mm unless stated otherwise
  7
Arial
 73
               1
 44
0.9673603504928809
  0
INSERT
  5
347
100
AcDbEntity
  8
None
390
0
 62
               7
100
AcDbBlockReference
  2
Group-4
 10
26.864411599999993
 20
-155.47656739999999
 30
0.0
  0
WIPEOUT
  5
348
100
AcDbEntity
  8
None
370
               9
390
0
  6
Continuous
 62
              12
 92
        0
100
AcDbWipeout
 90
        0
 10
-1.3319684000000045
 20
61.312509599999998
 30
0.0
 11
4.9901799999999987
 21
0.0
 31
0.0
 12
0.0
 22
4.9901799999999987
 32
0.0
 13
1.0
 23
1.0
340
0
 70
               7
280
               1
281
              50
282
              50
283
               0
360
0
 71
               2
 91
        5
 14
-0.5
 24
37.039960281993849
 14
0.5
 24
37.039960281993849
 14
0.5
 24
36.633469534165108
 14
-0.5
 24
36.633469534165108
 14
-0.5
 24
37.039960281993849
  0
MTEXT
  5
349
100
AcDbEntity
  8
None
390
0
 62
              12
100
AcDbMText
 10
-1.3319684000000045
 20
-119.16215574374999
 30
0.0
 40
0.6315976562499999
 41
4.9901799999999996
 71
               1
 72
               1
  1
Socket Body Size
  7
New Century Schlbk
 73
               1
 44
0.9673603504928808
  0
LINE
  5
34A
100
AcDbEntity
  8
None
370
               9
390
0
  6
Continuous
 62
              12
100
AcDbLine
 10
0.6084415999999955
 20
-120.50562739999999
 30
0.0
 11
3.9828115999999945
 21
-123.8800074
 31
0.0
  0
LINE
  5
34B
100
AcDbEntity
  8
None
370
               9
390
0
  6
Continuous
 62
              12
100
AcDbLine
 10
3.9828115999999945
 20
-123.8800074
 30
0.0
 11
16.877501599999995
 21
-123.8800074
 31
0.0
  0
SOLID
  5
34C
100
AcDbEntity
  8
None
370
               9
390
0
 62
              12
100
AcDbTrace
 10
16.877501599999995
 20
-123.8800074
 30
0.0
 11
16.083751599999992
 21
-124.09269207149219
 31
0.0
 12
16.083751599999992
 22
-123.6673227285078
 32
0.0
 13
16.083751599999992
 23
-123.6673227285078
 33
0.0
  0
WIPEOUT
  5
34D
100
AcDbEntity
  8
None
370
               9
390
0
  6
Continuous
 62
              12
 92
        0
100
AcDbWipeout
 90
        0
 10
36.569381599999993
 20
47.200970599999991
 30
0.0
 11
10.098212750752765
 21
0.0
 31
0.0
 12
0.0
 22
10.098212750752765
 32
0.0
 13
1.0
 23
1.0
340
0
 70
               7
280
               1
281
              50
282
              50
283
               0
360
0
 71
               2
 91
        5
 14
-0.5
 24
18.556757517453523
 14
0.5
 24
18.556757517453523
 14
0.5
 24
18.456320833751807
 14
-0.5
 24
18.456320833751807
 14
-0.5
 24
18.556757517453523
  0
MTEXT
  5
34E
100
AcDbEntity
  8
None
390
0
 62
              12
100
AcDbMText
 10
36.569381599999993
 20
-134.28792574375001
 30
0.0
 40
0.6315976562499999
 41
0.0
 71
               1
 72
               1
  1
Non plated mounting hole
  7
Arial
 73
               1
 44
0.9673603504928808
  0
WIPEOUT
  5
34F
100
AcDbEntity
  8
None
370
               9
390
0
  6
Continuous
 62
              12
 92
        0
100
AcDbWipeout
 90
        0
 10
37.287871599999988
 20
57.100970599999997
 30
0.0
 11
10.292239586512245
 21
0.0
 31
0.0
 12
0.0
 22
10.292239586512245
 32
0.0
 13
1.0
 23
1.0
340
0
 70
               7
280
               1
281
              50
282
              50
283
               0
360
0
 71
               2
 91
        5
 14
-0.5
 24
18.216355849212242
 14
0.5000000000000007
 24
18.216355849212242
 14
0.5000000000000007
 24
18.117812573817726
 14
-0.5
 24
18.117812573817726
 14
-0.5
 24
18.216355849212242
  0
MTEXT
  5
350
100
AcDbEntity
  8
None
390
0
 62
              12
100
AcDbMText
 10
37.287871599999988
 20
-124.38792574375
 30
0.0
 40
0.6315976562499999
 41
0.0
 71
               1
 72
               1
  1
Non plated alignment hole
  7
Arial
 73
               1
 44
0.9673603504928808
  0
WIPEOUT
  5
351
100
AcDbEntity
  8
None
370
               9
390
0
  6
Continuous
 62
              12
 92
        0
100
AcDbWipeout
 90
        0
 10
3.5978815999999938
 20
72.33386059999998
 30
0.0
 11
6.5351752281188951
 21
0.0
 31
0.0
 12
0.0
 22
6.5351752281188951
 32
0.0
 13
1.0
 23
1.0
340
0
 70
               7
280
               1
281
              50
282
              50
283
               0
360
0
 71
               2
 91
        5
 14
-0.5
 24
28.401467464168604
 14
0.5
 24
28.401467464168604
 14
0.5
 24
28.246271778575345
 14
-0.5
 24
28.246271778575345
 14
-0.5
 24
28.401467464168604
  0
MTEXT
  5
352
100
AcDbEntity
  8
None
390
0
 62
              12
100
AcDbMText
 10
3.5978815999999938
 20
-109.15503574375001
 30
0.0
 40
0.6315976562499999
 41
0.0
 71
               1
 72
               1
  1
Orientation Mark
  7
New Century Schlbk
 73
               1
 44
0.9673603504928808
  0
LINE
  5
353
100
AcDbEntity
  8
None
370
               9
390
0
  6
Continuous
 62
              12
100
AcDbLine
 10
19.829421599999993
 20
-118.54000739999999
 30
0.0
 11
13.583051599999994
 21
-109.50000739999999
 31
0.0
  0
SOLID
  5
354
100
AcDbEntity
  8
None
370
               9
390
0
 62
              12
100
AcDbTrace
 10
19.829421599999993
 20
-118.54000739999999
 30
0.0
 11
19.209238649096527
 21
-118.00089058575988
 31
0.0
 12
19.561885816643652
 22
-117.76302706780899
 32
0.0
 13
19.561885816643652
 23
-117.76302706780899
 33
0.0
  0
LINE
  5
355
100
AcDbEntity
  8
None
370
               9
390
0
  6
Continuous
 62
              12
100
AcDbLine
 10
13.583051599999994
 20
-109.50000739999999
 30
0.0
 11
10.133051599999995
 21
-109.50000739999999
 31
0.0
  0
DIMENSION
  5
356
100
AcDbEntity
  8
Dimension
370
               9
390
0
  6
Continuous
 62
              12
100
AcDbDimension
  2
*D9
 10
18.127501599999995
 20
-112.66683739999999
 30
0.0
 11
13.896401599999994
 21
-112.66683739999999
 31
0.0
 70
             128
 71
               5
 72
               1
 41
1.0
 42
0.0
  3
IE Standard
100
AcDbAlignedDimension
 13
16.877501599999995
 23
-117.58750739999999
 33
0.0
 14
18.127501599999995
 24
-118.83750739999999
 34
0.0
100
AcDbRotatedDimension
1001
ACAD
1000
DSTYLE
1002
{
1070
             340
1005
3A
1070
              71
1070
               1
1070
              47
1040
0.125
1070
              48
1040
0.125
1070
               3
1000
<>mm (x4)
1070
             174
1070
               0
1070
             147
1040
0.09921875
1002
}
  0
DIMENSION
  5
357
100
AcDbEntity
  8
Dimension
370
               9
390
0
  6
Continuous
 62
              12
100
AcDbDimension
  2
*D10
 10
10.083721599999993
 20
-117.58750739999999
 30
0.0
 11
10.083721599999993
 21
-115.2642474
 31
0.0
 70
             128
 71
               5
 72
               1
 41
1.0
 42
0.0
  3
IE Standard
100
AcDbAlignedDimension
 13
18.127501599999995
 23
-118.83750739999999
 33
0.0
 14
16.877501599999995
 24
-117.58750739999999
 34
0.0
 50
90.0
100
AcDbRotatedDimension
1001
ACAD
1000
DSTYLE
1002
{
1070
             340
1005
3A
1070
              71
1070
               1
1070
              47
1040
0.125
1070
              48
1040
0.125
1070
               3
1000
<>mm (x4)
1070
             174
1070
               0
1070
             147
1040
0.09921875
1002
}
  0
DIMENSION
  5
358
100
AcDbEntity
  8
Dimension
370
               9
390
0
  6
Continuous
 62
              12
100
AcDbDimension
  2
*D11
 10
13.697311599999994
 20
-131.56250739999999
 30
0.0
 11
13.697311599999994
 21
-128.39998725839843
 31
0.0
 70
             128
 71
               5
 72
               1
 41
1.0
 42
0.0
  3
IE Standard
100
AcDbAlignedDimension
 13
18.187701599999993
 23
-126.4825074
 33
0.0
 14
18.127501599999995
 24
-131.56250739999999
 34
0.0
 50
90.0
100
AcDbRotatedDimension
1001
ACAD
1000
DSTYLE
1002
{
1070
             271
1070
               3
1070
             340
1005
3A
1070
             147
1040
0.09921875
1002
}
  0
DIMENSION
  5
359
100
AcDbEntity
  8
Dimension
370
               9
390
0
  6
Continuous
 62
              12
100
AcDbDimension
  2
*D12
 10
16.877501599999995
 20
-140.8461174
 30
0.0
 11
24.860079496118157
 21
-140.8461174
 31
0.0
 70
             128
 71
               5
 72
               1
 41
1.0
 42
0.0
  3
IE Standard
100
AcDbAlignedDimension
 13
32.102501599999997
 23
-132.81250739999999
 33
0.0
 14
16.877501599999995
 24
-132.81250739999999
 34
0.0
100
AcDbRotatedDimension
1001
ACAD
1000
DSTYLE
1002
{
1070
             271
1070
               3
1070
             340
1005
3A
1070
              71
1070
               1
1070
              47
1040
0.125
1070
              48
1040
0.125
1070
               3
1000
<>mm (x4)
1070
             147
1040
0.09921875
1002
}
  0
DIMENSION
  5
35A
100
AcDbEntity
  8
Dimension
370
               9
390
0
  6
Continuous
 62
              12
100
AcDbDimension
  2
*D13
 10
18.127501599999995
 20
-139.0193774
 30
0.0
 11
24.726498334619134
 21
-139.0193774
 31
0.0
 70
             128
 71
               5
 72
               1
 41
1.0
 42
0.0
  3
IE Standard
100
AcDbAlignedDimension
 13
30.852501599999993
 23
-131.56250739999999
 33
0.0
 14
18.127501599999995
 24
-131.56250739999999
 34
0.0
100
AcDbRotatedDimension
1001
ACAD
1000
DSTYLE
1002
{
1070
             271
1070
               3
1070
             340
1005
3A
1070
               3
1000
<>mm (x4)
1070
             147
1040
0.09921875
1002
}
  0
DIMENSION
  5
35B
100
AcDbEntity
  8
Dimension
370
               9
390
0
  6
Continuous
 62
              12
100
AcDbDimension
  2
*D14
 10
38.157161599999995
 20
-118.83750739999999
 30
0.0
 11
38.157161599999995
 21
-120.1075074
 31
0.0
 70
             128
 71
               5
 72
               1
 41
1.0
 42
0.0
  3
IE Standard
100
AcDbAlignedDimension
 13
30.852501599999993
 23
-121.3775074
 33
0.0
 14
30.852501599999993
 24
-118.83750739999999
 34
0.0
 50
90.0
100
AcDbRotatedDimension
1001
ACAD
1000
DSTYLE
1002
{
1070
             271
1070
               3
1070
             340
1005
3A
1070
             147
1040
0.09921875
1002
}
  0
DIMENSION
  5
35C
100
AcDbEntity
  8
Dimension
370
               9
390
0
  6
Continuous
 62
              12
100
AcDbDimension
  2
*D15
 10
29.116711599999995
 20
-125.6336774
 30
0.0
 11
36.900010614467199
 21
-129.01409286344645
 31
0.0
 70
               3
 71
               5
 72
               1
 41
1.0
 42
0.0
  3
IE Standard
100
AcDbDiametricDimension
 15
29.363291599999993
 25
-125.7663374
 35
0.0
 40
6.854919999999999
1001
ACAD
1000
DSTYLE
1002
{
1070
             172
1070
               0
1070
             289
1070
               0
1070
             342
1005
5E
1070
             340
1005
3A
1070
              75
1070
               1
1070
              76
1070
               1
1070
               3
1000
mm pad (x361)
1070
             174
1070
               0
1070
             147
1040
0.09921875
1002
}
  0
DIMENSION
  5
35D
100
AcDbEntity
  8
Dimension
370
               9
390
0
  6
Continuous
 62
              12
100
AcDbDimension
  2
*D16
 10
13.697311599999994
 20
-118.83750739999999
 30
0.0
 11
13.697311599999994
 21
-119.7687574
 31
0.0
 70
             128
 71
               5
 72
               1
 41
1.0
 42
0.0
  3
IE Standard
100
AcDbAlignedDimension
 13
20.240001599999992
 23
-120.7000074
 33
0.0
 14
18.127501599999995
 24
-118.83750739999999
 34
0.0
 50
90.0
100
AcDbRotatedDimension
1001
ACAD
1000
DSTYLE
1002
{
1070
             271
1070
               4
1070
             340
1005
3A
1070
             147
1040
0.09921875
1002
}
  0
DIMENSION
  5
35E
100
AcDbEntity
  8
Dimension
370
               9
390
0
  6
Continuous
 62
              12
100
AcDbDimension
  2
*D17
 10
20.240001599999992
 20
-136.94000739999998
 30
0.0
 11
24.740001599999992
 21
-136.94000739999998
 31
0.0
 70
             128
 71
               5
 72
               1
 41
1.0
 42
0.0
  3
IE Standard
100
AcDbAlignedDimension
 13
29.240001599999992
 23
-129.7000074
 33
0.0
 14
20.240001599999992
 24
-129.7000074
 34
0.0
100
AcDbRotatedDimension
1001
ACAD
1000
DSTYLE
1002
{
1070
             340
1005
3A
1070
             147
1040
0.09921875
1002
}
  0
DIMENSION
  5
35F
100
AcDbEntity
  8
Dimension
370
               9
390
0
  6
Continuous
 62
              12
100
AcDbDimension
  2
*D18
 10
20.240001599999992
 20
-113.8900074
 30
0.0
 11
22.335461599999995
 21
-113.8900074
 31
0.0
 70
             128
 71
               5
 72
               1
 41
1.0
 42
0.0
  3
IE Standard
100
AcDbAlignedDimension
 13
18.127501599999995
 23
-118.83750739999999
 33
0.0
 14
20.240001599999992
 24
-120.7000074
 34
0.0
100
AcDbRotatedDimension
1001
ACAD
1000
DSTYLE
1002
{
1070
             271
1070
               4
1070
             340
1005
3A
1070
               3
1000
*<>mm
1070
             174
1070
               0
1070
             147
1040
0.09921875
1002
}
  0
DIMENSION
  5
360
100
AcDbEntity
  8
Dimension
370
               9
390
0
  6
Continuous
 62
              12
100
AcDbDimension
  2
*D19
 10
26.740001599999992
 20
-115.3114674
 30
0.0
 11
29.031161599999994
 21
-115.3114674
 31
0.0
 70
             128
 71
               5
 72
               1
 41
1.0
 42
0.0
  3
IE Standard
100
AcDbAlignedDimension
 13
27.240001599999992
 23
-120.7000074
 33
0.0
 14
26.740001599999992
 24
-120.7000074
 34
0.0
100
AcDbRotatedDimension
1001
ACAD
1000
DSTYLE
1002
{
1070
             340
1005
3A
1070
               3
1000
<>mm typ.
1070
             174
1070
               0
1070
             147
1040
0.09921875
1002
}
  0
DIMENSION
  5
361
100
AcDbEntity
  8
Dimension
370
               9
390
0
  6
Continuous
 62
              12
100
AcDbDimension
  2
*D20
 10
30.472951599999995
 20
-121.18627739999999
 30
0.0
 11
37.240004533876927
 21
-123.83999655651886
 31
0.0
 70
               3
 71
               5
 72
               1
 41
1.0
 42
0.0
  3
IE Standard
100
AcDbDiametricDimension
 15
31.232051599999991
 25
-121.5687374
 35
0.0
 40
5.0477999999999996
1001
ACAD
1000
DSTYLE
1002
{
1070
             271
1070
               3
1070
             172
1070
               0
1070
             289
1070
               0
1070
             342
1005
5E
1070
             340
1005
3A
1070
              75
1070
               1
1070
              76
1070
               1
1070
              71
1070
               1
1070
              47
1040
0.025
1070
              48
1040
0.025
1070
               3
1000
mm (x2)
1070
             174
1070
               0
1070
             147
1040
0.09921875
1002
}
  0
DIMENSION
  5
362
100
AcDbEntity
  8
Dimension
370
               9
390
0
  6
Continuous
 62
              12
100
AcDbDimension
  2
*D21
 10
30.121991599999994
 20
-131.22431739999999
 30
0.0
 11
36.840002911932906
 21
-133.63999994983936
 31
0.0
 70
               3
 71
               5
 72
               1
 41
1.0
 42
0.0
  3
IE Standard
100
AcDbDiametricDimension
 15
31.583011599999992
 25
-131.90069739999998
 35
0.0
 40
4.1400699999999997
1001
ACAD
1000
DSTYLE
1002
{
1070
             172
1070
               0
1070
             289
1070
               0
1070
             342
1005
5E
1070
             340
1005
3A
1070
              75
1070
               1
1070
              76
1070
               1
1070
              71
1070
               1
1070
              47
1040
0.05
1070
              48
1040
0.05
1070
               3
1000
mm (x4)
1070
             174
1070
               0
1070
             147
1040
0.09921875
1002
}
  0
DIMENSION
  5
363
100
AcDbEntity
  8
Dimension
370
               9
390
0
  6
Continuous
 62
              12
100
AcDbDimension
  2
*D22
 10
10.083721599999993
 20
-120.7000074
 30
0.0
 11
10.083721599999993
 21
-126.54995246835938
 31
0.0
 70
             128
 71
               5
 72
               1
 41
1.0
 42
0.0
  3
IE Standard
100
AcDbAlignedDimension
 13
20.240001599999992
 23
-129.7000074
 33
0.0
 14
20.240001599999992
 24
-120.7000074
 34
0.0
 50
90.0
100
AcDbRotatedDimension
1001
ACAD
1000
DSTYLE
1002
{
1070
             340
1005
3A
1070
             147
1040
0.09921875
1002
}
  0
DIMENSION
  5
364
100
AcDbEntity
  8
Dimension
370
               9
390
0
  6
Continuous
 62
              12
100
AcDbDimension
  2
*D23
 10
15.627501599999995
 20
-142.76226739999998
 30
0.0
 11
24.490001599999992
 21
-142.76226739999998
 31
0.0
 71
               5
 72
               1
 41
1.0
 42
0.0
  3
IE Standard
100
AcDbAlignedDimension
 13
33.352501599999997
 23
-134.06250739999999
 33
0.0
 14
15.627501599999995
 24
-134.06250739999999
 34
0.0
100
AcDbRotatedDimension
1001
ACAD
1000
DSTYLE
1002
{
1070
             340
1005
3A
1070
               3
1000
<>mm sqr.
1070
             147
1040
0.09921875
1002
}
  0
WIPEOUT
  5
365
100
AcDbEntity
  8
None
370
               9
390
0
  6
Continuous
 62
              12
 92
        0
100
AcDbWipeout
 90
        0
 10
20.550061599999992
 20
38.057370599999992
 30
0.0
 11
8.0697506215837276
 21
0.0
 31
0.0
 12
0.0
 22
8.0697506215837276
 32
0.0
 13
1.0
 23
1.0
340
0
 70
               7
280
               1
281
              50
282
              50
283
               0
360
0
 71
               2
 91
        5
 14
-0.5
 24
23.095615100211695
 14
0.5000000000000002
 24
23.095615100211695
 14
0.5000000000000002
 24
22.969932034208725
 14
-0.5
 24
22.969932034208725
 14
-0.5
 24
23.095615100211695
  0
MTEXT
  5
366
100
AcDbEntity
  8
None
390
0
 62
              12
100
AcDbMText
 10
20.550061599999992
 20
-143.43152574375
 30
0.0
 40
0.6315976562499999
 41
0.0
 71
               1
 72
               1
  1
backing plate outline
  7
Arial
 73
               1
 44
0.9673603504928808
  0
ENDSEC
  0
SECTION
  2
OBJECTS
  0
DICTIONARY
  5
19
100
AcDbDictionary
280
               0
281
               1
  3
ACAD_GROUP
350
1A
  3
ACAD_MLINESTYLE
350
1B
  3
ACAD_LAYOUT
350
1E
  3
ACAD_PLOTSETTINGS
350
22
  3
ACAD_PLOTSTYLENAME
350
1F
  3
ACAD_WIPEOUT_VARS
350
23
  0
DICTIONARY
  5
1A
102
{ACAD_REACTORS
330
19
102
}
100
AcDbDictionary
280
               0
281
               1
  0
DICTIONARY
  5
1B
102
{ACAD_REACTORS
330
19
102
}
100
AcDbDictionary
280
               0
281
               1
  3
Standard
350
1C
  0
MLINESTYLE
  5
1C
102
{ACAD_REACTORS
330
1B
102
}
100
AcDbMlineStyle
  2
Standard
 70
               0
  3

 62
               0
 51
90.0
 52
90.0
 71
               2
 49
0.5
 62
             256
  6
ByLayer
 49
-0.5
 62
             256
  6
ByLayer
  0
ACDBDICTIONARYWDFLT
  5
1F
102
{ACAD_REACTORS
330
19
102
}
100
AcDbDictionary
281
               1
  3
Normal
350
1D
100
AcDbDictionaryWithDefault
340
1D
  0
ACDBPLACEHOLDER
  5
1D
102
{ACAD_REACTORS
330
1F
102
}
  0
LAYOUT
  5
20
102
{ACAD_REACTORS
330
1E
102
}
100
AcDbPlotSettings
  1

  2

  4

  6

 40
0.0
 41
0.0
 42
0.0
 43
0.0
 44
0.0
 45
0.0
 46
0.0
 47
0.0
 48
0.0
 49
0.0
140
0.0
141
0.0
142
1.0
143
1.0
 70
            1024
 72
               0
 73
               0
 74
               0
  7

 75
               0
147
1.0
148
0.0
149
0.0
100
AcDbLayout
  1
Model
 70
               0
 71
               0
 10
0.0
 20
0.0
 11
0.0
 21
0.0
 12
0.0
 22
0.0
 32
0.0
 14
0.0
 24
0.0
 34
0.0
 15
0.0
 25
0.0
 35
0.0
146
0.0
 13
0.0
 23
0.0
 33
0.0
 16
0.0
 26
0.0
 36
0.0
 17
0.0
 27
0.0
 37
0.0
 76
               0
330
A
331
0
345
0
346
0
  0
LAYOUT
  5
21
102
{ACAD_REACTORS
330
1E
102
}
100
AcDbPlotSettings
  1

  2

  4

  6

 40
0.0
 41
0.0
 42
0.0
 43
0.0
 44
0.0
 45
0.0
 46
0.0
 47
0.0
 48
0.0
 49
0.0
140
0.0
141
0.0
142
1.0
143
1.0
 70
               0
 72
               0
 73
               0
 74
               0
  7

 75
               0
147
1.0
148
0.0
149
0.0
100
AcDbLayout
  1
Layout1
 70
               0
 71
               0
 10
0.0
 20
0.0
 11
0.0
 21
0.0
 12
0.0
 22
0.0
 32
0.0
 14
0.0
 24
0.0
 34
0.0
 15
0.0
 25
0.0
 35
0.0
146
0.0
 13
0.0
 23
0.0
 33
0.0
 16
0.0
 26
0.0
 36
0.0
 17
0.0
 27
0.0
 37
0.0
 76
               0
330
B
331
0
345
0
346
0
  0
DICTIONARY
  5
1E
102
{ACAD_REACTORS
330
19
102
}
100
AcDbDictionary
280
               0
281
               1
  3
Layout1
350
21
  3
Model
350
20
  0
DICTIONARY
  5
22
102
{ACAD_REACTORS
330
19
102
}
100
AcDbDictionary
280
               0
281
               1
  0
WIPEOUTVARIABLES
  5
23
100
AcDbWipeoutVariables
 70
               0
  0
ENDSEC
  0
EOF
