  0
SECTION
  2
HEADER
  9
$ACADVER
  1
AC1015
  9
$ACADMAINTVER
 70
               6
  9
$DWGCODEPAGE
  3
ANSI_1252
  9
$INSBASE
 10
0.0
 20
0.0
 30
0.0
  9
$EXTMIN
 10
-30.0
 20
-16.104557999999997
 30
-0.34925
  9
$EXTMAX
 10
37.498301670669548
 20
22.0
 30
0.34925
  9
$LIMMIN
 10
0.0
 20
0.0
  9
$LIMMAX
 10
0.0
 20
0.0
  9
$ORTHOMODE
 70
               0
  9
$REGENMODE
 70
               1
  9
$FILLMODE
 70
               1
  9
$QTEXTMODE
 70
               0
  9
$MIRRTEXT
 70
               1
  9
$LTSCALE
 40
1.27
  9
$ATTMODE
 70
               1
  9
$TEXTSIZE
 40
0.2
  9
$TRACEWID
 40
1.0
  9
$TEXTSTYLE
  7
Standard
  9
$CLAYER
  8
None
  9
$CELTYPE
  6
Continuous
  9
$CECOLOR
 62
             256
  9
$CELTSCALE
 40
1.0
  9
$DISPSILH
 70
               0
  9
$DIMSCALE
 40
1.0
  9
$DIMASZ
 40
0.5612060546875
  9
$DIMEXO
 40
0.396875
  9
$DIMDLI
 40
10.16
  9
$DIMRND
 40
0.0
  9
$DIMDLE
 40
1.5874999999999999
  9
$DIMEXE
 40
0.79375
  9
$DIMTP
 40
0.0
  9
$DIMTM
 40
0.0
  9
$DIMTXT
 40
0.7579186197916666
  9
$DIMCEN
 40
0.0
  9
$DIMTSZ
 40
0.0
  9
$DIMTOL
 70
               0
  9
$DIMLIM
 70
               0
  9
$DIMTIH
 70
               0
  9
$DIMTOH
 70
               0
  9
$DIMSE1
 70
               0
  9
$DIMSE2
 70
               0
  9
$DIMTAD
 70
               1
  9
$DIMZIN
 70
              11
  9
$DIMBLK
  1
VW_SLASH
  9
$DIMASO
 70
               1
  9
$DIMSHO
 70
               1
  9
$DIMPOST
  1
<>mm
  9
$DIMAPOST
  1
[]
  9
$DIMALT
 70
               0
  9
$DIMALTD
 70
               1
  9
$DIMALTF
 40
1.0
  9
$DIMLFAC
 40
1.0
  9
$DIMTOFL
 70
               1
  9
$DIMTVP
 40
0.0
  9
$DIMTIX
 70
               1
  9
$DIMSOXD
 70
               0
  9
$DIMSAH
 70
               0
  9
$DIMBLK1
  1

  9
$DIMBLK2
  1

  9
$DIMSTYLE
  2
Arch
  9
$DIMCLRD
 70
               0
  9
$DIMCLRE
 70
               0
  9
$DIMCLRT
 70
               0
  9
$DIMTFAC
 40
1.0
  9
$DIMGAP
 40
1.5874999999999999
  9
$DIMJUST
 70
               0
  9
$DIMSD1
 70
               0
  9
$DIMSD2
 70
               0
  9
$DIMTOLJ
 70
               1
  9
$DIMTZIN
 70
              11
  9
$DIMALTZ
 70
              11
  9
$DIMALTTZ
 70
              11
  9
$DIMUPT
 70
               0
  9
$DIMDEC
 70
               1
  9
$DIMTDEC
 70
               1
  9
$DIMALTU
 70
               2
  9
$DIMALTTD
 70
               2
  9
$DIMTXSTY
  7
Helvetica
  9
$DIMAUNIT
 70
               0
  9
$DIMADEC
 70
               2
  9
$DIMALTRND
 40
0.0
  9
$DIMAZIN
 70
               0
  9
$DIMDSEP
 70
              46
  9
$DIMATFIT
 70
               0
  9
$DIMFRAC
 70
               2
  9
$DIMLDRBLK
  1

  9
$DIMLUNIT
 70
               2
  9
$DIMLWD
 70
              -2
  9
$DIMLWE
 70
              -2
  9
$DIMTMOVE
 70
               0
  9
$LUNITS
 70
               2
  9
$LUPREC
 70
               4
  9
$SKETCHINC
 40
0.1
  9
$FILLETRAD
 40
0.0
  9
$AUNITS
 70
               0
  9
$AUPREC
 70
               0
  9
$MENU
  1
acad
  9
$ELEVATION
 40
0.0
  9
$PELEVATION
 40
0.0
  9
$THICKNESS
 40
0.0
  9
$LIMCHECK
 70
               0
  9
$CHAMFERA
 40
0.0
  9
$CHAMFERB
 40
0.0
  9
$CHAMFERC
 40
0.0
  9
$CHAMFERD
 40
0.0
  9
$SKPOLY
 70
               0
  9
$TDCREATE
 40
2454963.592002315
  9
$TDUCREATE
 40
0.000000000
  9
$TDUPDATE
 40
2454963.592002315
  9
$TDUUPDATE
 40
0.000000000
  9
$TDINDWG
 40
0.0000000000
  9
$TDUSRTIMER
 40
0.0000000000
  9
$USRTIMER
 70
               1
  9
$ANGBASE
 50
0.0
  9
$ANGDIR
 70
               0
  9
$PDMODE
 70
               1
  9
$PDSIZE
 40
-2.0
  9
$PLINEWID
 40
0.0
  9
$SPLFRAME
 70
               0
  9
$SPLINETYPE
 70
               6
  9
$SPLINESEGS
 70
               8
  9
$HANDSEED
  5
1AE
  9
$SURFTAB1
 70
               6
  9
$SURFTAB2
 70
               6
  9
$SURFTYPE
 70
               6
  9
$SURFU
 70
               6
  9
$SURFV
 70
               6
  9
$UCSBASE
  2

  9
$UCSNAME
  2

  9
$UCSORG
 10
0.0
 20
0.0
 30
0.0
  9
$UCSXDIR
 10
1.0
 20
0.0
 30
0.0
  9
$UCSYDIR
 10
0.0
 20
1.0
 30
0.0
  9
$UCSORTHOREF
  2

  9
$UCSORTHOVIEW
 70
               0
  9
$UCSORGTOP
 10
0.0
 20
0.0
 30
0.0
  9
$UCSORGBOTTOM
 10
0.0
 20
0.0
 30
0.0
  9
$UCSORGLEFT
 10
0.0
 20
0.0
 30
0.0
  9
$UCSORGRIGHT
 10
0.0
 20
0.0
 30
0.0
  9
$UCSORGFRONT
 10
0.0
 20
0.0
 30
0.0
  9
$UCSORGBACK
 10
0.0
 20
0.0
 30
0.0
  9
$PUCSBASE
  2

  9
$PUCSNAME
  2

  9
$PUCSORG
 10
0.0
 20
0.0
 30
0.0
  9
$PUCSXDIR
 10
1.0
 20
0.0
 30
0.0
  9
$PUCSYDIR
 10
0.0
 20
1.0
 30
0.0
  9
$PUCSORTHOREF
  2

  9
$PUCSORTHOVIEW
 70
               0
  9
$PUCSORGTOP
 10
0.0
 20
0.0
 30
0.0
  9
$PUCSORGBOTTOM
 10
0.0
 20
0.0
 30
0.0
  9
$PUCSORGLEFT
 10
0.0
 20
0.0
 30
0.0
  9
$PUCSORGRIGHT
 10
0.0
 20
0.0
 30
0.0
  9
$PUCSORGFRONT
 10
0.0
 20
0.0
 30
0.0
  9
$PUCSORGBACK
 10
0.0
 20
0.0
 30
0.0
  9
$USERI1
 70
               0
  9
$USERI2
 70
               0
  9
$USERI3
 70
               0
  9
$USERI4
 70
               0
  9
$USERI5
 70
               0
  9
$USERR1
 40
0.0
  9
$USERR2
 40
0.0
  9
$USERR3
 40
0.0
  9
$USERR4
 40
0.0
  9
$USERR5
 40
0.0
  9
$WORLDVIEW
 70
               1
  9
$SHADEDGE
 70
               3
  9
$SHADEDIF
 70
              70
  9
$TILEMODE
 70
               1
  9
$MAXACTVP
 70
              64
  9
$PINSBASE
 10
0.0
 20
0.0
 30
0.0
  9
$PLIMCHECK
 70
               0
  9
$PEXTMIN
 10
1.0000000000000000E+20
 20
1.0000000000000000E+20
 30
1.0000000000000000E+20
  9
$PEXTMAX
 10
-1.0000000000000000E+20
 20
-1.0000000000000000E+20
 30
-1.0000000000000000E+20
  9
$PLIMMIN
 10
0.0
 20
0.0
  9
$PLIMMAX
 10
12.0
 20
9.0
  9
$UNITMODE
 70
               0
  9
$VISRETAIN
 70
               0
  9
$PLINEGEN
 70
               1
  9
$PSLTSCALE
 70
               0
  9
$TREEDEPTH
 70
            3020
  9
$CMLSTYLE
  2
Standard
  9
$CMLJUST
 70
               0
  9
$CMLSCALE
 40
1.0
  9
$PROXYGRAPHICS
 70
               0
  9
$MEASUREMENT
 70
               1
  9
$CELWEIGHT
370
               0
  9
$ENDCAPS
280
               0
  9
$JOINSTYLE
280
               0
  9
$LWDISPLAY
290
               1
  9
$INSUNITS
 70
               4
  9
$HYPERLINKBASE
  1

  9
$STYLESHEET
  1

  9
$XEDIT
290
               1
  9
$CEPSNTYPE
380
               0
  9
$PSTYLEMODE
290
               1
  9
$FINGERPRINTGUID
  2

  9
$VERSIONGUID
  2

  9
$EXTNAMES
290
               1
  9
$PSVPSCALE
 40
0.0
  0
ENDSEC
  0
SECTION
  2
CLASSES
  0
CLASS
  1
LWPOLYLINE
  2
AcDbPolyline
  3
AutoCAD 2000
 90
        0
280
               0
281
               1
  0
CLASS
  1
IMAGE
  2
AcDbRasterImage
  3
ISM
 90
      127
280
               0
281
               1
  0
CLASS
  1
OLE2FRAME
  2
AcDbOle2Frame
  3
AutoCAD 2000
 90
        0
280
               0
281
               1
  0
CLASS
  1
HATCH
  2
AcDbHatch
  3
AutoCAD 2000
 90
        0
280
               0
281
               1
  0
CLASS
  1
DICTIONARYVAR
  2
AcDbDictionaryVar
  3
AutoCAD 2000
 90
        0
280
               0
281
               0
  0
CLASS
  1
RASTERVARIABLES
  2
AcDbRasterVariables
  3
ISM
 90
        0
280
               0
281
               0
  0
CLASS
  1
IMAGEDEF
  2
AcDbRasterImageDef
  3
ISM
 90
        0
280
               0
281
               0
  0
CLASS
  1
IMAGEDEF_REACTOR
  2
AcDbRasterImageDefReactor
  3
ISM
 90
        1
280
               0
281
               0
  0
CLASS
  1
IDBUFFER
  2
AcDbIdBuffer
  3
AutoCAD 2000
 90
        0
280
               0
281
               0
  0
CLASS
  1
SPATIAL_FILTER
  2
AcDbSpatialFilter
  3
AutoCAD 2000
 90
        0
280
               0
281
               0
  0
CLASS
  1
XRECORD
  2
AcDbXrecord
  3
AutoCAD 2000
 90
        0
280
               0
281
               0
  0
CLASS
  1
SORTENTSTABLE
  2
AcDbSortentsTable
  3
AutoCAD 2000
 90
        0
280
               0
281
               0
  0
CLASS
  1
LAYER_INDEX
  2
AcDbLayerIndex
  3
AutoCAD 2000
 90
        0
280
               0
281
               0
  0
CLASS
  1
SPATIAL_INDEX
  2
AcDbSpatialIndex
  3
AutoCAD 2000
 90
        0
280
               0
281
               0
  0
CLASS
  1
OBJECT_PTR
  2
CAseDLPNTableRecord
  3
"ASE-LPNTableRecord"
 90
        1
280
               0
281
               0
  0
CLASS
  1
LAYOUT
  2
AcDbLayout
  3
AutoCAD 2000
 90
        0
280
               0
281
               0
  0
CLASS
  1
PLOTSETTINGS
  2
AcDbPlotSettings
  3
AutoCAD 2000
 90
        0
280
               0
281
               0
  0
CLASS
  1
ACDBDICTIONARYWDFLT
  2
AcDbDictionaryWithDefault
  3
AutoCAD 2000
 90
        0
280
               0
281
               0
  0
CLASS
  1
ACDBPLACEHOLDER
  2
AcDbPlaceHolder
  3
AutoCAD 2000
 90
        0
280
               0
281
               0
  0
CLASS
  1
VBA_PROJECT
  2
AcDbVbaProject
  3
acadvba
 90
        0
280
               0
281
               0
  0
CLASS
  1
WIPEOUT
  2
AcDbWipeout
  3
WipeOut|AutoCAD Express Tool|expresstools@autodesk.com
 90
      127
280
               0
281
               1
  0
CLASS
  1
WIPEOUTVARIABLES
  2
AcDbWipeoutVariables
  3
WipeOut|AutoCAD Express Tool|expresstools@autodesk.com
 90
        0
280
               0
281
               0
  0
CLASS
  1
RTEXT
  2
RText
  3
RText|AutoCAD Express Tool|expresstools@autodesk.com
 90
        0
280
               0
281
               1
  0
CLASS
  1
ARCALIGNEDTEXT
  2
AcDbArcAlignedText
  3
ATEXT|AutoCAD Express Tool|expresstools@autodesk.com
 90
        0
280
               0
281
               1
  0
ENDSEC
  0
SECTION
  2
TABLES
  0
TABLE
  2
VPORT
  5
7
100
AcDbSymbolTable
 70
               1
  0
VPORT
  5
15
100
AcDbSymbolTableRecord
100
AcDbViewportTableRecord
  2
*ACTIVE
 70
               0
 10
0.0
 20
0.0
 11
1.0
 21
1.0
 12
3.749150835334774
 22
2.9477210000000014
 13
0.0
 23
0.0
 14
1.0
 24
1.0
 15
0.0
 25
0.0
 16
0.0
 26
0.0
 36
1.0
 17
0.0
 27
0.0
 37
0.0
 40
38.104557999999997
 41
0.688564
 42
50.0
 43
0.0
 44
0.0
 50
0.0
 51
0.0
 71
               0
 72
            2000
 73
               1
 74
               1
 75
               0
 76
               0
 77
               0
 78
               0
281
               0
 65
               0
110
0.0
120
0.0
130
0.0
111
1.0
121
0.0
131
0.0
112
0.0
122
1.0
132
0.0
345
0
346
0
 79
               0
146
0.0
  0
ENDTAB
  0
TABLE
  2
LTYPE
  5
4
100
AcDbSymbolTable
 70
              14
  0
LTYPE
  5
11
100
AcDbSymbolTableRecord
100
AcDbLinetypeTableRecord
  2
ByBlock
 70
              64
  3

 72
              65
 73
               0
 40
0.0
  0
LTYPE
  5
12
100
AcDbSymbolTableRecord
100
AcDbLinetypeTableRecord
  2
ByLayer
 70
              64
  3

 72
              65
 73
               0
 40
0.0
  0
LTYPE
  5
13
100
AcDbSymbolTableRecord
100
AcDbLinetypeTableRecord
  2
Continuous
 70
              64
  3
Solid line
 72
              65
 73
               0
 40
0.0
  0
LTYPE
  5
38
100
AcDbSymbolTableRecord
100
AcDbLinetypeTableRecord
  2
STYLE_01
 70
               0
  3

 72
              65
 73
               2
 40
0.41664
 49
0.20828
 74
               0
 49
-0.20836
 74
               0
  0
LTYPE
  5
39
100
AcDbSymbolTableRecord
100
AcDbLinetypeTableRecord
  2
STYLE_02
 70
               0
  3

 72
              65
 73
               2
 40
0.6944250000000001
 49
0.48607
 74
               0
 49
-0.2083550000000001
 74
               0
  0
LTYPE
  5
3A
100
AcDbSymbolTableRecord
100
AcDbLinetypeTableRecord
  2
STYLE_03
 70
               0
  3

 72
              65
 73
               2
 40
1.25
 49
1.0416400000000001
 74
               0
 49
-0.2083599999999999
 74
               0
  0
LTYPE
  5
3B
100
AcDbSymbolTableRecord
100
AcDbLinetypeTableRecord
  2
STYLE_04
 70
               0
  3

 72
              65
 73
               2
 40
1.5277099999999999
 49
1.3194249999999998
 74
               0
 49
-0.208285
 74
               0
  0
LTYPE
  5
3C
100
AcDbSymbolTableRecord
100
AcDbLinetypeTableRecord
  2
STYLE_05
 70
               0
  3

 72
              65
 73
               2
 40
0.20828
 49
0.069425
 74
               0
 49
-0.138855
 74
               0
  0
LTYPE
  5
3D
100
AcDbSymbolTableRecord
100
AcDbLinetypeTableRecord
  2
STYLE_06
 70
               0
  3

 72
              65
 73
               4
 40
1.0416400000000001
 49
0.625
 74
               0
 49
-0.20828
 74
               0
 49
0.06943
 74
               0
 49
-0.13893
 74
               0
  0
LTYPE
  5
3E
100
AcDbSymbolTableRecord
100
AcDbLinetypeTableRecord
  2
STYLE_07
 70
               0
  3

 72
              65
 73
               6
 40
1.875
 49
0.625
 74
               0
 49
-0.20828
 74
               0
 49
0.6250000000000001
 74
               0
 49
-0.2083599999999999
 74
               0
 49
0.06943
 74
               0
 49
-0.1389299999999999
 74
               0
  0
LTYPE
  5
3F
100
AcDbSymbolTableRecord
100
AcDbLinetypeTableRecord
  2
STYLE_08
 70
               0
  3

 72
              65
 73
               6
 40
1.25
 49
0.625
 74
               0
 49
-0.20828
 74
               0
 49
0.06943
 74
               0
 49
-0.13893
 74
               0
 49
0.0694299999999999
 74
               0
 49
-0.13893
 74
               0
  0
LTYPE
  5
40
100
AcDbSymbolTableRecord
100
AcDbLinetypeTableRecord
  2
STYLE_09
 70
               0
  3

 72
              65
 73
               4
 40
5.0
 49
3.75
 74
               0
 49
-0.2777849999999998
 74
               0
 49
0.6944300000000003
 74
               0
 49
-0.2777849999999998
 74
               0
  0
LTYPE
  5
41
100
AcDbSymbolTableRecord
100
AcDbLinetypeTableRecord
  2
STYLE_10
 70
               0
  3

 72
              65
 73
               6
 40
5.9375
 49
3.75
 74
               0
 49
-0.2777849999999998
 74
               0
 49
0.6944300000000003
 74
               0
 49
-0.2777849999999998
 74
               0
 49
0.625
 74
               0
 49
-0.3125
 74
               0
  0
LTYPE
  5
42
100
AcDbSymbolTableRecord
100
AcDbLinetypeTableRecord
  2
STYLE_11
 70
               0
  3

 72
              65
 73
               2
 40
0.4166412353515625
 49
0.2777862548828125
 74
               0
 49
-0.13885498046875
 74
               0
  0
ENDTAB
  0
TABLE
  2
LAYER
  5
2
100
AcDbSymbolTable
 70
               4
  0
LAYER
  5
14
100
AcDbSymbolTableRecord
100
AcDbLayerTableRecord
  2
0
 70
               0
 62
               7
  6
Continuous
290
               1
370
              -3
390
1D
  0
LAYER
  5
43
100
AcDbSymbolTableRecord
100
AcDbLayerTableRecord
  2
Defpoints
 70
               0
 62
               7
  6
Continuous
290
               0
370
              -3
390
1D
  0
LAYER
  5
44
100
AcDbSymbolTableRecord
100
AcDbLayerTableRecord
  2
None
 70
               0
 62
               7
  6
Continuous
290
               1
370
               5
390
1D
  0
LAYER
  5
45
100
AcDbSymbolTableRecord
100
AcDbLayerTableRecord
  2
Dimension
 70
               0
 62
               7
  6
Continuous
290
               1
370
               5
390
1D
  0
ENDTAB
  0
TABLE
  2
STYLE
  5
3
100
AcDbSymbolTable
 70
               4
  0
STYLE
  5
17
100
AcDbSymbolTableRecord
100
AcDbTextStyleTableRecord
  2
Standard
 70
               0
 40
0.0
 41
1.0
 50
0.0
 71
               0
 42
0.0
  3
txt
  4

  0
STYLE
  5
35
100
AcDbSymbolTableRecord
100
AcDbTextStyleTableRecord
  2
Arial
 70
               0
 40
0.0
 41
1.0
 50
0.0
 71
               0
 42
0.0
  3
Arial
  4

1001
ACAD
1000
Arial
1071
        0
  0
STYLE
  5
36
100
AcDbSymbolTableRecord
100
AcDbTextStyleTableRecord
  2
Helvetica
 70
               0
 40
0.0
 41
1.0
 50
0.0
 71
               0
 42
0.0
  3
Helvetica
  4

1001
ACAD
1000
Helvetica
1071
        0
  0
STYLE
  5
37
100
AcDbSymbolTableRecord
100
AcDbTextStyleTableRecord
  2
New Century Schlbk
 70
               0
 40
0.0
 41
1.0
 50
0.0
 71
               0
 42
0.0
  3
New Century Schlbk
  4

1001
ACAD
1000
New Century Schlbk
1071
        0
  0
ENDTAB
  0
TABLE
  2
VIEW
  5
5
100
AcDbSymbolTable
 70
               0
  0
ENDTAB
  0
TABLE
  2
UCS
  5
6
100
AcDbSymbolTable
 70
               0
  0
ENDTAB
  0
TABLE
  2
APPID
  5
8
100
AcDbSymbolTable
 70
               1
  0
APPID
  5
16
100
AcDbSymbolTableRecord
100
AcDbRegAppTableRecord
  2
ACAD
 70
               0
  0
ENDTAB
  0
TABLE
  2
DIMSTYLE
  5
9
100
AcDbSymbolTable
 70
               3
100
AcDbDimStyleTable
 71
               0
  0
DIMSTYLE
105
18
100
AcDbSymbolTableRecord
100
AcDbDimStyleTableRecord
  2
Standard
 70
               0
  3

  4

 40
1.0
 41
0.18
 42
0.0625
 43
0.38
 44
0.18
 45
0.0
 46
0.0
 47
0.0
 48
0.0
 71
               0
 72
               0
 73
               1
 74
               1
 75
               0
 76
               0
 77
               0
 78
               0
 79
               0
140
0.18
141
0.09
142
0.0
143
25.399999999999999
144
1.0
145
0.0
146
1.0
147
0.09
148
0.0
170
               0
171
               2
172
               0
173
               0
174
               0
175
               0
176
               0
177
               0
178
               0
179
               0
271
               4
272
               4
273
               2
274
               2
275
               0
276
               0
277
               2
278
              46
279
               0
280
               0
281
               0
282
               0
283
               1
284
               0
285
               0
286
               0
288
               0
289
               3
340
17
341
0
342
0
343
0
344
0
371
              -2
372
              -2
  0
DIMSTYLE
105
4E
100
AcDbSymbolTableRecord
100
AcDbDimStyleTableRecord
  2
IE Standard
 70
               0
  3
<>mm
  4
[]
 40
1.0
 41
0.79375
 42
0.4762500011827797
 43
6.9999859934672708
 44
0.9525000023655593
 45
0.0
 46
0.0
 47
0.0
 48
0.0
 71
               0
 72
               0
 73
               1
 74
               1
 75
               0
 76
               0
 77
               0
 78
              11
 79
               0
140
0.7579186197916666
141
0.0
142
0.0
143
1.0
144
1.0
145
0.0
146
1.0
147
0.0
148
0.0
170
               0
171
               1
172
               1
173
               0
174
               1
175
               0
176
               0
177
               0
178
               0
179
               2
271
               1
272
               1
273
               2
274
               2
275
               0
276
               2
277
               2
278
              46
279
               0
280
               0
281
               0
282
               0
283
               1
284
              11
285
              11
286
              11
288
               0
289
               0
340
36
341
4A
342
46
343
0
344
0
371
              -2
372
              -2
  0
DIMSTYLE
105
54
100
AcDbSymbolTableRecord
100
AcDbDimStyleTableRecord
  2
Arch
 70
               0
  3
<>mm
  4
[]
 40
1.0
 41
0.5612060546875
 42
0.396875
 43
10.16
 44
0.79375
 45
0.0
 46
1.5874999999999999
 47
0.0
 48
0.0
 71
               0
 72
               0
 73
               0
 74
               0
 75
               0
 76
               0
 77
               1
 78
              11
 79
               0
140
0.7579186197916666
141
0.0
142
0.0
143
1.0
144
1.0
145
0.0
146
1.0
147
1.5874999999999999
148
0.0
170
               0
171
               1
172
               1
173
               0
174
               1
175
               0
176
               0
177
               0
178
               0
179
               2
271
               1
272
               1
273
               2
274
               2
275
               0
276
               2
277
               2
278
              46
279
               0
280
               0
281
               0
282
               0
283
               1
284
              11
285
              11
286
              11
288
               0
289
               0
340
36
341
46
342
4F
343
0
344
0
371
              -2
372
              -2
  0
ENDTAB
  0
TABLE
  2
BLOCK_RECORD
  5
1
100
AcDbSymbolTable
 70
              20
  0
BLOCK_RECORD
  5
A
100
AcDbSymbolTableRecord
100
AcDbBlockTableRecord
  2
*MODEL_SPACE
340
20
  0
BLOCK_RECORD
  5
B
100
AcDbSymbolTableRecord
100
AcDbBlockTableRecord
  2
*PAPER_SPACE
340
21
  0
BLOCK_RECORD
  5
46
100
AcDbSymbolTableRecord
100
AcDbBlockTableRecord
  2
VW_FILLEDARROW
340
0
  0
BLOCK_RECORD
  5
4A
100
AcDbSymbolTableRecord
100
AcDbBlockTableRecord
  2
VW_FILLEDARROW-1
340
0
  0
BLOCK_RECORD
  5
4F
100
AcDbSymbolTableRecord
100
AcDbBlockTableRecord
  2
VW_SLASH
340
0
  0
BLOCK_RECORD
  5
24
100
AcDbSymbolTableRecord
100
AcDbBlockTableRecord
  2
*D3
340
0
  0
BLOCK_RECORD
  5
25
100
AcDbSymbolTableRecord
100
AcDbBlockTableRecord
  2
*D4
340
0
  0
BLOCK_RECORD
  5
26
100
AcDbSymbolTableRecord
100
AcDbBlockTableRecord
  2
*D5
340
0
  0
BLOCK_RECORD
  5
27
100
AcDbSymbolTableRecord
100
AcDbBlockTableRecord
  2
*D6
340
0
  0
BLOCK_RECORD
  5
28
100
AcDbSymbolTableRecord
100
AcDbBlockTableRecord
  2
*D7
340
0
  0
BLOCK_RECORD
  5
29
100
AcDbSymbolTableRecord
100
AcDbBlockTableRecord
  2
*D8
340
0
  0
BLOCK_RECORD
  5
2A
100
AcDbSymbolTableRecord
100
AcDbBlockTableRecord
  2
*D9
340
0
  0
BLOCK_RECORD
  5
2B
100
AcDbSymbolTableRecord
100
AcDbBlockTableRecord
  2
*D10
340
0
  0
BLOCK_RECORD
  5
2C
100
AcDbSymbolTableRecord
100
AcDbBlockTableRecord
  2
*D11
340
0
  0
BLOCK_RECORD
  5
2D
100
AcDbSymbolTableRecord
100
AcDbBlockTableRecord
  2
*D12
340
0
  0
BLOCK_RECORD
  5
2E
100
AcDbSymbolTableRecord
100
AcDbBlockTableRecord
  2
*D13
340
0
  0
BLOCK_RECORD
  5
2F
100
AcDbSymbolTableRecord
100
AcDbBlockTableRecord
  2
*D14
340
0
  0
BLOCK_RECORD
  5
30
100
AcDbSymbolTableRecord
100
AcDbBlockTableRecord
  2
*D15
340
0
  0
BLOCK_RECORD
  5
31
100
AcDbSymbolTableRecord
100
AcDbBlockTableRecord
  2
*D16
340
0
  0
BLOCK_RECORD
  5
32
100
AcDbSymbolTableRecord
100
AcDbBlockTableRecord
  2
*D17
340
0
  0
BLOCK_RECORD
  5
33
100
AcDbSymbolTableRecord
100
AcDbBlockTableRecord
  2
Group
340
0
102
{BLKREFS
331
1AA
102
}
  0
BLOCK_RECORD
  5
34
100
AcDbSymbolTableRecord
100
AcDbBlockTableRecord
  2
Group-1
340
0
102
{BLKREFS
331
1AB
102
}
  0
ENDTAB
  0
ENDSEC
  0
SECTION
  2
BLOCKS
  0
BLOCK
  5
D
100
AcDbEntity
  8
0
390
0
100
AcDbBlockBegin
  2
*MODEL_SPACE
 70
               0
 10
0.0
 20
0.0
 30
0.0
  3
*MODEL_SPACE
  1

  0
ENDBLK
  5
E
100
AcDbEntity
  8
0
390
0
100
AcDbBlockEnd
  0
BLOCK
  5
F
100
AcDbEntity
 67
               1
  8
0
390
0
100
AcDbBlockBegin
  2
*PAPER_SPACE
 70
               0
 10
0.0
 20
0.0
 30
0.0
  3
*PAPER_SPACE
  1

  0
ENDBLK
  5
10
100
AcDbEntity
 67
               1
  8
0
390
0
100
AcDbBlockEnd
  0
BLOCK
  5
47
100
AcDbEntity
  8
0
370
              -2
390
0
  6
ByBlock
 62
               0
100
AcDbBlockBegin
  2
VW_FILLEDARROW
 70
               0
 10
0.0
 20
0.0
 30
0.0
  3
VW_FILLEDARROW
  1

  0
SOLID
  5
48
100
AcDbEntity
  8
0
370
              -2
390
0
 62
               0
100
AcDbTrace
 10
0.0
 20
0.0
 30
0.0
 11
-0.9999389648437499
 21
-0.2679328381102956
 31
0.0
 12
-0.9999389648437499
 22
0.2679328381102958
 32
0.0
 13
-0.9999389648437499
 23
0.2679328381102958
 33
0.0
  0
ENDBLK
  5
49
100
AcDbEntity
  8
0
390
0
100
AcDbBlockEnd
  0
BLOCK
  5
4B
100
AcDbEntity
  8
0
370
              -2
390
0
  6
ByBlock
 62
               0
100
AcDbBlockBegin
  2
VW_FILLEDARROW-1
 70
               0
 10
0.0
 20
0.0
 30
0.0
  3
VW_FILLEDARROW
  1

  0
SOLID
  5
4C
100
AcDbEntity
  8
0
370
              -2
390
0
 62
               0
100
AcDbTrace
 10
0.0
 20
0.0
 30
0.0
 11
-0.6662384033203125
 21
-0.1785180421362784
 31
0.0
 12
-0.6662384033203125
 22
0.1785180421362785
 32
0.0
 13
-0.6662384033203125
 23
0.1785180421362785
 33
0.0
  0
ENDBLK
  5
4D
100
AcDbEntity
  8
0
390
0
100
AcDbBlockEnd
  0
BLOCK
  5
50
100
AcDbEntity
  8
0
370
              -2
390
0
  6
ByBlock
 62
               0
100
AcDbBlockBegin
  2
VW_SLASH
 70
               0
 10
0.0
 20
0.0
 30
0.0
  3
VW_SLASH
  1

  0
LINE
  5
51
100
AcDbEntity
  8
0
370
              -2
390
0
  6
ByBlock
 62
               0
100
AcDbLine
 10
0.0
 20
0.0
 30
0.0
 11
-1.0
 21
0.0
 31
0.0
  0
LINE
  5
52
100
AcDbEntity
  8
0
370
              20
390
0
  6
ByBlock
 62
               0
100
AcDbLine
 10
-0.5000145658230796
 20
-0.5000145658230795
 30
0.0
 11
0.5000145658230796
 21
0.5000145658230795
 31
0.0
  0
ENDBLK
  5
53
100
AcDbEntity
  8
0
390
0
100
AcDbBlockEnd
  0
BLOCK
  5
55
100
AcDbEntity
  8
Dimension
390
0
100
AcDbBlockBegin
  2
*D3
 70
               1
 10
0.0
 20
0.0
 30
0.0
  3
*D3
  1

  0
LINE
  5
56
100
AcDbEntity
  8
Dimension
370
              -2
390
0
  6
Continuous
 62
               0
100
AcDbLine
 10
-4.5141200000000197
 20
11.546690001182778
 30
0.0
 11
-4.5141200000000197
 21
19.456480002365556
 31
0.0
  0
LINE
  5
57
100
AcDbEntity
  8
Dimension
370
              -2
390
0
  6
Continuous
 62
               0
100
AcDbLine
 10
-2.2916200000000231
 20
10.364190001182781
 30
0.0
 11
-2.2916200000000231
 21
19.456480002365556
 31
0.0
  0
LINE
  5
58
100
AcDbEntity
  8
Dimension
370
              -2
390
0
  6
Continuous
 62
               0
100
AcDbLine
 10
-2.2916200000000231
 20
18.503979999999999
 30
0.0
 11
-4.5141200000000197
 21
18.503979999999999
 31
0.0
  0
LINE
  5
59
100
AcDbEntity
  8
Dimension
370
              -2
390
0
  6
Continuous
 62
               0
100
AcDbLine
 10
-4.5141200000000197
 20
18.503979999999999
 30
0.0
 11
-6.2641164983668318
 21
18.503979999999999
 31
0.0
  0
SOLID
  5
5A
100
AcDbEntity
  8
Dimension
370
              -2
390
0
 62
               0
100
AcDbTrace
 10
-4.5141200000000197
 20
18.503979999999999
 30
0.0
 11
-5.3078700000000199
 21
18.291295328507793
 31
0.0
 12
-5.3078700000000199
 22
18.716664671492204
 32
0.0
 13
-5.3078700000000199
 23
18.716664671492204
 33
0.0
  0
LINE
  5
5B
100
AcDbEntity
  8
Dimension
370
              -2
390
0
  6
Continuous
 62
               0
100
AcDbLine
 10
-2.2916200000000231
 20
18.503979999999999
 30
0.0
 11
0.1813899999999791
 21
18.503979999999999
 31
0.0
  0
SOLID
  5
5C
100
AcDbEntity
  8
Dimension
370
              -2
390
0
 62
               0
100
AcDbTrace
 10
-2.2916200000000231
 20
18.503979999999999
 30
0.0
 11
-1.4978700000000231
 21
18.716664671492204
 31
0.0
 12
-1.4978700000000231
 22
18.291295328507793
 32
0.0
 13
-1.4978700000000231
 23
18.291295328507793
 33
0.0
  0
WIPEOUT
  5
5D
100
AcDbEntity
  8
Dimension
370
              -2
390
0
  6
Continuous
 62
               0
 92
        0
100
AcDbWipeout
 90
        0
 10
0.1813899999999791
 20
17.895440249999996
 30
0.0
 11
4.2650699297587078
 21
0.0
 31
0.0
 12
0.0
 22
4.2650699297587078
 32
0.0
 13
1.0
 23
1.0
340
0
 70
               7
280
               1
281
              50
282
              50
283
               0
360
0
 71
               2
 91
        5
 14
-0.5
 24
0.5
 14
0.5
 24
0.5
 14
0.5
 24
0.2146402005022094
 14
-0.5
 24
0.2146402005022094
 14
-0.5
 24
0.5
  0
MTEXT
  5
5E
100
AcDbEntity
  8
Dimension
390
0
 62
               0
100
AcDbMText
 10
0.1813899999999791
 20
18.917941369791663
 30
0.0
 40
0.7579186197916666
 41
0.0
 71
               1
 72
               1
  1
2.22mm*
  7
Helvetica
 73
               1
 44
0.9673603504928806
  0
POINT
  5
5F
100
AcDbEntity
  8
Defpoints
370
               0
390
0
 62
               0
100
AcDbPoint
 10
-2.2916200000000231
 20
9.8879400000000004
 30
0.0
  0
POINT
  5
60
100
AcDbEntity
  8
Defpoints
370
               0
390
0
 62
               0
100
AcDbPoint
 10
-4.5141200000000197
 20
11.070439999999998
 30
0.0
  0
POINT
  5
61
100
AcDbEntity
  8
Defpoints
370
               0
390
0
 62
               0
100
AcDbPoint
 10
-4.5141200000000197
 20
18.503979999999999
 30
0.0
  0
ENDBLK
  5
62
100
AcDbEntity
  8
Dimension
390
0
100
AcDbBlockEnd
  0
BLOCK
  5
63
100
AcDbEntity
  8
Dimension
390
0
100
AcDbBlockBegin
  2
*D4
 70
               1
 10
0.0
 20
0.0
 30
0.0
  3
*D4
  1

  0
LINE
  5
64
100
AcDbEntity
  8
Dimension
370
              -2
390
0
  6
Continuous
 62
               0
100
AcDbLine
 10
-2.6278700011827851
 20
9.8879400000000004
 30
0.0
 11
-8.9559200023655734
 21
9.8879400000000004
 31
0.0
  0
LINE
  5
65
100
AcDbEntity
  8
Dimension
370
              -2
390
0
  6
Continuous
 62
               0
100
AcDbLine
 10
-4.9903700011827965
 20
11.070439999999998
 30
0.0
 11
-8.9559200023655592
 21
11.070439999999998
 31
0.0
  0
LINE
  5
66
100
AcDbEntity
  8
Dimension
370
              -2
390
0
  6
Continuous
 62
               0
100
AcDbLine
 10
-8.0034200000000055
 20
11.070439999999998
 30
0.0
 11
-8.0034200000000055
 21
9.8879400000000004
 31
0.0
  0
LINE
  5
67
100
AcDbEntity
  8
Dimension
370
              -2
390
0
  6
Continuous
 62
               0
100
AcDbLine
 10
-8.0034200000000055
 20
9.8879400000000004
 30
0.0
 11
-8.0034200000000055
 21
8.1379435016331829
 31
0.0
  0
SOLID
  5
68
100
AcDbEntity
  8
Dimension
370
              -2
390
0
 62
               0
100
AcDbTrace
 10
-8.0034200000000055
 20
9.8879400000000004
 30
0.0
 11
-7.790735328507802
 21
9.0941900000000011
 31
0.0
 12
-8.216104671492209
 22
9.0941900000000011
 32
0.0
 13
-8.216104671492209
 23
9.0941900000000011
 33
0.0
  0
LINE
  5
69
100
AcDbEntity
  8
Dimension
370
              -2
390
0
  6
Continuous
 62
               0
100
AcDbLine
 10
-8.0034200000000055
 20
11.070439999999998
 30
0.0
 11
-8.0034200000000055
 21
12.820436498366817
 31
0.0
  0
SOLID
  5
6A
100
AcDbEntity
  8
Dimension
370
              -2
390
0
 62
               0
100
AcDbTrace
 10
-8.0034200000000055
 20
11.070439999999998
 30
0.0
 11
-8.216104671492209
 21
11.864189999999997
 31
0.0
 12
-7.790735328507802
 22
11.864189999999997
 32
0.0
 13
-7.790735328507802
 23
11.864189999999997
 33
0.0
  0
WIPEOUT
  5
6B
100
AcDbEntity
  8
Dimension
370
              -2
390
0
  6
Continuous
 62
               0
 92
        0
100
AcDbWipeout
 90
        0
 10
-9.9295806242921714
 20
9.8706682935180652
 30
0.0
 11
3.8523212485843228
 21
0.0
 31
0.0
 12
0.0
 22
3.8523212485843228
 32
0.0
 13
1.0
 23
1.0
340
0
 70
               7
280
               1
281
              50
282
              50
283
               0
360
0
 71
               2
 91
        5
 14
-0.5
 24
0.5
 14
0.5
 24
0.5
 14
0.5
 24
0.1840659380503998
 14
-0.5
 24
0.1840659380503998
 14
-0.5
 24
0.5
  0
MTEXT
  5
6C
100
AcDbEntity
  8
Dimension
390
0
 62
               0
100
AcDbMText
 10
-9.9295806242921714
 20
10.893169413309732
 30
0.0
 40
0.7579186197916666
 41
0.0
 71
               1
 72
               1
  1
1.18mm
  7
Helvetica
 73
               1
 44
0.9673603504928806
  0
POINT
  5
6D
100
AcDbEntity
  8
Defpoints
370
               0
390
0
 62
               0
100
AcDbPoint
 10
-4.5141200000000197
 20
11.070439999999998
 30
0.0
  0
POINT
  5
6E
100
AcDbEntity
  8
Defpoints
370
               0
390
0
 62
               0
100
AcDbPoint
 10
-2.1516200000000083
 20
9.8879400000000004
 30
0.0
  0
POINT
  5
6F
100
AcDbEntity
  8
Defpoints
370
               0
390
0
 62
               0
100
AcDbPoint
 10
-8.0034200000000091
 20
9.8879400000000004
 30
0.0
  0
ENDBLK
  5
70
100
AcDbEntity
  8
Dimension
390
0
100
AcDbBlockEnd
  0
BLOCK
  5
71
100
AcDbEntity
  8
Dimension
390
0
100
AcDbBlockBegin
  2
*D5
 70
               1
 10
0.0
 20
0.0
 30
0.0
  3
*D5
  1

  0
LINE
  5
72
100
AcDbEntity
  8
Dimension
370
              -2
390
0
  6
Continuous
 62
               0
100
AcDbLine
 10
4.3483799999999917
 20
10.364190001182781
 30
0.0
 11
4.3483799999999917
 21
16.417940002365562
 31
0.0
  0
LINE
  5
73
100
AcDbEntity
  8
Dimension
370
              -2
390
0
  6
Continuous
 62
               0
100
AcDbLine
 10
4.8483799999999917
 20
10.364190001182781
 30
0.0
 11
4.8483799999999917
 21
16.417940002365562
 31
0.0
  0
LINE
  5
74
100
AcDbEntity
  8
Dimension
370
              -2
390
0
  6
Continuous
 62
               0
100
AcDbLine
 10
4.8483799999999917
 20
15.465440000000001
 30
0.0
 11
4.3483799999999917
 21
15.465440000000001
 31
0.0
  0
LINE
  5
75
100
AcDbEntity
  8
Dimension
370
              -2
390
0
  6
Continuous
 62
               0
100
AcDbLine
 10
4.3483799999999917
 20
15.465440000000001
 30
0.0
 11
2.5983835016331795
 21
15.465440000000001
 31
0.0
  0
SOLID
  5
76
100
AcDbEntity
  8
Dimension
370
              -2
390
0
 62
               0
100
AcDbTrace
 10
4.3483799999999917
 20
15.465440000000001
 30
0.0
 11
3.5546299999999915
 21
15.252755328507797
 31
0.0
 12
3.554629999999992
 22
15.678124671492204
 32
0.0
 13
3.554629999999992
 23
15.678124671492204
 33
0.0
  0
LINE
  5
77
100
AcDbEntity
  8
Dimension
370
              -2
390
0
  6
Continuous
 62
               0
100
AcDbLine
 10
4.8483799999999917
 20
15.465440000000001
 30
0.0
 11
6.8833799999999883
 21
15.465440000000001
 31
0.0
  0
SOLID
  5
78
100
AcDbEntity
  8
Dimension
370
              -2
390
0
 62
               0
100
AcDbTrace
 10
4.8483799999999917
 20
15.465440000000001
 30
0.0
 11
5.6421299999999919
 21
15.678124671492204
 31
0.0
 12
5.6421299999999919
 22
15.252755328507797
 32
0.0
 13
5.6421299999999919
 23
15.252755328507797
 33
0.0
  0
WIPEOUT
  5
79
100
AcDbEntity
  8
Dimension
370
              -2
390
0
  6
Continuous
 62
               0
 92
        0
100
AcDbWipeout
 90
        0
 10
6.8833799999999883
 20
14.856900249999999
 30
0.0
 11
5.2599001275168504
 21
0.0
 31
0.0
 12
0.0
 22
5.2599001275168504
 32
0.0
 13
1.0
 23
1.0
340
0
 70
               7
280
               1
281
              50
282
              50
283
               0
360
0
 71
               2
 91
        5
 14
-0.5
 24
0.5
 14
0.5
 24
0.5
 14
0.5
 24
0.2686116712306147
 14
-0.5
 24
0.2686116712306147
 14
-0.5
 24
0.5
  0
MTEXT
  5
7A
100
AcDbEntity
  8
Dimension
390
0
 62
               0
100
AcDbMText
 10
6.8833799999999883
 20
15.879401369791665
 30
0.0
 40
0.7579186197916666
 41
0.0
 71
               1
 72
               1
  1
0.5mm typ.
  7
Helvetica
 73
               1
 44
0.9673603504928806
  0
POINT
  5
7B
100
AcDbEntity
  8
Defpoints
370
               0
390
0
 62
               0
100
AcDbPoint
 10
4.8483799999999917
 20
9.8879400000000004
 30
0.0
  0
POINT
  5
7C
100
AcDbEntity
  8
Defpoints
370
               0
390
0
 62
               0
100
AcDbPoint
 10
4.3483799999999917
 20
9.8879400000000004
 30
0.0
  0
POINT
  5
7D
100
AcDbEntity
  8
Defpoints
370
               0
390
0
 62
               0
100
AcDbPoint
 10
4.3483799999999917
 20
15.465440000000001
 30
0.0
  0
ENDBLK
  5
7E
100
AcDbEntity
  8
Dimension
390
0
100
AcDbBlockEnd
  0
BLOCK
  5
7F
100
AcDbEntity
  8
Dimension
390
0
100
AcDbBlockBegin
  2
*D6
 70
               1
 10
0.0
 20
0.0
 30
0.0
  3
*D6
  1

  0
LINE
  5
80
100
AcDbEntity
  8
Dimension
370
              -2
390
0
  6
Continuous
 62
               0
100
AcDbLine
 10
-4.9903700011827965
 20
-1.6545599999999965
 30
0.0
 11
-9.8927800023655834
 21
-1.6545599999999965
 31
0.0
  0
LINE
  5
81
100
AcDbEntity
  8
Dimension
370
              -2
390
0
  6
Continuous
 62
               0
100
AcDbLine
 10
-4.9903700011827965
 20
3.4254400000000018
 30
0.0
 11
-9.8927800023655692
 21
3.4254400000000018
 31
0.0
  0
LINE
  5
82
100
AcDbEntity
  8
Dimension
370
              -2
390
0
  6
Continuous
 62
               0
100
AcDbLine
 10
-8.9402800000000155
 20
-1.6545599999999965
 30
0.0
 11
-8.9402800000000155
 21
3.4254400000000018
 31
0.0
  0
SOLID
  5
83
100
AcDbEntity
  8
Dimension
370
              -2
390
0
 62
               0
100
AcDbTrace
 10
-8.9402800000000155
 20
-1.6545599999999965
 30
0.0
 11
-9.152964671492219
 21
-0.8608099999999965
 31
0.0
 12
-8.7275953285078121
 22
-0.8608099999999965
 32
0.0
 13
-8.7275953285078121
 23
-0.8608099999999965
 33
0.0
  0
SOLID
  5
84
100
AcDbEntity
  8
Dimension
370
              -2
390
0
 62
               0
100
AcDbTrace
 10
-8.9402800000000155
 20
3.4254400000000018
 30
0.0
 11
-8.7275953285078121
 21
2.6316900000000016
 31
0.0
 12
-9.152964671492219
 22
2.6316900000000016
 32
0.0
 13
-9.152964671492219
 23
2.6316900000000016
 33
0.0
  0
WIPEOUT
  5
85
100
AcDbEntity
  8
Dimension
370
              -2
390
0
  6
Continuous
 62
               0
 92
        0
100
AcDbWipeout
 90
        0
 10
-10.866440624292181
 20
1.2369191708984413
 30
0.0
 11
3.8523212485843228
 21
0.0
 31
0.0
 12
0.0
 22
3.8523212485843228
 32
0.0
 13
1.0
 23
1.0
340
0
 70
               7
280
               1
281
              50
282
              50
283
               0
360
0
 71
               2
 91
        5
 14
-0.5
 24
0.5
 14
0.5
 24
0.5
 14
0.5
 24
0.1840659380504
 14
-0.5
 24
0.1840659380504
 14
-0.5
 24
0.5
  0
MTEXT
  5
86
100
AcDbEntity
  8
Dimension
390
0
 62
               0
100
AcDbMText
 10
-10.866440624292181
 20
2.259420290690108
 30
0.0
 40
0.7579186197916666
 41
0.0
 71
               1
 72
               1
  1
5.08mm
  7
Helvetica
 73
               1
 44
0.9673603504928806
  0
POINT
  5
87
100
AcDbEntity
  8
Defpoints
370
               0
390
0
 62
               0
100
AcDbPoint
 10
-4.5141200000000197
 20
3.4254400000000018
 30
0.0
  0
POINT
  5
88
100
AcDbEntity
  8
Defpoints
370
               0
390
0
 62
               0
100
AcDbPoint
 10
-4.5141200000000197
 20
-1.6545599999999965
 30
0.0
  0
POINT
  5
89
100
AcDbEntity
  8
Defpoints
370
               0
390
0
 62
               0
100
AcDbPoint
 10
-8.9402800000000191
 20
-1.6545599999999965
 30
0.0
  0
ENDBLK
  5
8A
100
AcDbEntity
  8
Dimension
390
0
100
AcDbBlockEnd
  0
BLOCK
  5
8B
100
AcDbEntity
  8
Dimension
390
0
100
AcDbBlockBegin
  2
*D7
 70
               1
 10
0.0
 20
0.0
 30
0.0
  3
*D7
  1

  0
LINE
  5
8C
100
AcDbEntity
  8
Dimension
370
              -2
390
0
  6
Continuous
 62
               0
100
AcDbLine
 10
8.6871300011827799
 20
8.5304400000000058
 30
0.0
 11
14.360270002365567
 21
8.5304400000000058
 31
0.0
  0
LINE
  5
8D
100
AcDbEntity
  8
Dimension
370
              -2
390
0
  6
Continuous
 62
               0
100
AcDbLine
 10
8.6871300011827799
 20
11.070439999999998
 30
0.0
 11
14.360270002365553
 21
11.070439999999998
 31
0.0
  0
LINE
  5
8E
100
AcDbEntity
  8
Dimension
370
              -2
390
0
  6
Continuous
 62
               0
100
AcDbLine
 10
13.407769999999999
 20
11.070439999999998
 30
0.0
 11
13.407769999999999
 21
8.5304400000000058
 31
0.0
  0
LINE
  5
8F
100
AcDbEntity
  8
Dimension
370
              -2
390
0
  6
Continuous
 62
               0
100
AcDbLine
 10
13.407769999999999
 20
8.5304400000000058
 30
0.0
 11
13.407769999999999
 21
6.7804435016331883
 31
0.0
  0
SOLID
  5
90
100
AcDbEntity
  8
Dimension
370
              -2
390
0
 62
               0
100
AcDbTrace
 10
13.407769999999999
 20
8.5304400000000058
 30
0.0
 11
13.620454671492203
 21
7.7366900000000056
 31
0.0
 12
13.195085328507796
 22
7.7366900000000056
 32
0.0
 13
13.195085328507796
 23
7.7366900000000056
 33
0.0
  0
LINE
  5
91
100
AcDbEntity
  8
Dimension
370
              -2
390
0
  6
Continuous
 62
               0
100
AcDbLine
 10
13.407769999999999
 20
11.070439999999998
 30
0.0
 11
13.407769999999999
 21
12.820436498366817
 31
0.0
  0
SOLID
  5
92
100
AcDbEntity
  8
Dimension
370
              -2
390
0
 62
               0
100
AcDbTrace
 10
13.407769999999999
 20
11.070439999999998
 30
0.0
 11
13.195085328507796
 21
11.864189999999997
 31
0.0
 12
13.620454671492203
 22
11.864189999999997
 32
0.0
 13
13.620454671492203
 23
11.864189999999997
 33
0.0
  0
WIPEOUT
  5
93
100
AcDbEntity
  8
Dimension
370
              -2
390
0
  6
Continuous
 62
               0
 92
        0
100
AcDbWipeout
 90
        0
 10
11.481609375707833
 20
9.1919002499999998
 30
0.0
 11
3.8523212485843228
 21
0.0
 31
0.0
 12
0.0
 22
3.8523212485843228
 32
0.0
 13
1.0
 23
1.0
340
0
 70
               7
280
               1
281
              50
282
              50
283
               0
360
0
 71
               2
 91
        5
 14
-0.5
 24
0.5
 14
0.5
 24
0.5
 14
0.5
 24
0.1840659380503998
 14
-0.5
 24
0.1840659380503998
 14
-0.5
 24
0.5
  0
MTEXT
  5
94
100
AcDbEntity
  8
Dimension
390
0
 62
               0
100
AcDbMText
 10
11.481609375707833
 20
10.214401369791666
 30
0.0
 40
0.7579186197916666
 41
0.0
 71
               1
 72
               1
  1
2.54mm
  7
Helvetica
 73
               1
 44
0.9673603504928806
  0
POINT
  5
95
100
AcDbEntity
  8
Defpoints
370
               0
390
0
 62
               0
100
AcDbPoint
 10
8.2108800000000031
 20
11.070439999999998
 30
0.0
  0
POINT
  5
96
100
AcDbEntity
  8
Defpoints
370
               0
390
0
 62
               0
100
AcDbPoint
 10
8.2108800000000031
 20
8.5304400000000058
 30
0.0
  0
POINT
  5
97
100
AcDbEntity
  8
Defpoints
370
               0
390
0
 62
               0
100
AcDbPoint
 10
13.407770000000003
 20
8.5304400000000058
 30
0.0
  0
ENDBLK
  5
98
100
AcDbEntity
  8
Dimension
390
0
100
AcDbBlockEnd
  0
BLOCK
  5
99
100
AcDbEntity
  8
Dimension
390
0
100
AcDbBlockBegin
  2
*D8
 70
               1
 10
0.0
 20
0.0
 30
0.0
  3
*D8
  1

  0
LINE
  5
9A
100
AcDbEntity
  8
Dimension
370
              -2
390
0
  6
Continuous
 62
               0
100
AcDbLine
 10
-4.5141200000000197
 20
-2.1308100011827769
 30
0.0
 11
-4.5141200000000197
 21
-13.337060002365554
 31
0.0
  0
LINE
  5
9B
100
AcDbEntity
  8
Dimension
370
              -2
390
0
  6
Continuous
 62
               0
100
AcDbLine
 10
8.2108800000000031
 20
-2.1308100011827769
 30
0.0
 11
8.2108800000000031
 21
-13.337060002365554
 31
0.0
  0
LINE
  5
9C
100
AcDbEntity
  8
Dimension
370
              -2
390
0
  6
Continuous
 62
               0
100
AcDbLine
 10
8.2108800000000031
 20
-12.384559999999993
 30
0.0
 11
-4.5141200000000197
 21
-12.384559999999993
 31
0.0
  0
LINE
  5
9D
100
AcDbEntity
  8
Dimension
370
              -2
390
0
  6
Continuous
 62
               0
100
AcDbLine
 10
-4.5141200000000197
 20
-12.384559999999993
 30
0.0
 11
-6.2641164983668318
 21
-12.384559999999993
 31
0.0
  0
SOLID
  5
9E
100
AcDbEntity
  8
Dimension
370
              -2
390
0
 62
               0
100
AcDbTrace
 10
-4.5141200000000197
 20
-12.384559999999993
 30
0.0
 11
-5.3078700000000199
 21
-12.597244671492197
 31
0.0
 12
-5.3078700000000199
 22
-12.17187532850779
 32
0.0
 13
-5.3078700000000199
 23
-12.17187532850779
 33
0.0
  0
LINE
  5
9F
100
AcDbEntity
  8
Dimension
370
              -2
390
0
  6
Continuous
 62
               0
100
AcDbLine
 10
8.2108800000000031
 20
-12.384559999999993
 30
0.0
 11
9.9608764983668152
 21
-12.384559999999993
 31
0.0
  0
SOLID
  5
A0
100
AcDbEntity
  8
Dimension
370
              -2
390
0
 62
               0
100
AcDbTrace
 10
8.2108800000000031
 20
-12.384559999999993
 30
0.0
 11
9.0046300000000024
 21
-12.17187532850779
 31
0.0
 12
9.0046300000000024
 22
-12.597244671492197
 32
0.0
 13
9.0046300000000024
 23
-12.597244671492197
 33
0.0
  0
WIPEOUT
  5
A1
100
AcDbEntity
  8
Dimension
370
              -2
390
0
  6
Continuous
 62
               0
 92
        0
100
AcDbWipeout
 90
        0
 10
-4.2570200834624075
 20
-12.993097833333326
 30
0.0
 11
5.0376507600148521
 21
0.0
 31
0.0
 12
0.0
 22
5.0376507600148521
 32
0.0
 13
1.0
 23
1.0
340
0
 70
               7
280
               1
281
              50
282
              50
283
               0
360
0
 71
               2
 91
        5
 14
-0.5
 24
0.5
 14
0.5
 24
0.5
 14
0.5
 24
0.2584033594269222
 14
-0.5
 24
0.2584033594269222
 14
-0.5
 24
0.5
  0
MTEXT
  5
A2
100
AcDbEntity
  8
Dimension
390
0
 62
               0
100
AcDbMText
 10
-4.2570200834624075
 20
-11.97059671354166
 30
0.0
 40
0.7579186197916666
 41
0.0
 71
               1
 72
               1
  1
12.725mm
  7
Helvetica
 73
               1
 44
0.9673603504928806
  0
WIPEOUT
  5
A3
100
AcDbEntity
  8
Dimension
370
              -2
390
0
  6
Continuous
 62
               0
 92
        0
100
AcDbWipeout
 90
        0
 10
0.7806306765524482
 20
-12.993099499999992
 30
0.0
 11
5.0270675208833486
 21
0.0
 31
0.0
 12
0.0
 22
5.0270675208833486
 32
0.0
 13
1.0
 23
1.0
340
0
 70
               7
280
               1
281
              50
282
              50
283
               0
360
0
 71
               2
 91
        5
 14
-0.5
 24
0.5
 14
0.5
 24
0.5
 14
0.5
 24
0.2578947378478542
 14
-0.5
 24
0.2578947378478542
 14
-0.5
 24
0.5
  0
MTEXT
  5
A4
100
AcDbEntity
  8
Dimension
390
0
 62
               0
100
AcDbMText
 10
0.7806306765524482
 20
-11.970598380208326
 30
0.0
 40
0.7579186197916666
 41
0.0
 71
               1
 72
               1
  1
±0.125mm
  7
Helvetica
 73
               1
 44
0.9673603504928806
  0
WIPEOUT
  5
A5
100
AcDbEntity
  8
Dimension
370
              -2
390
0
  6
Continuous
 62
               0
 92
        0
100
AcDbWipeout
 90
        0
 10
5.8076981974357977
 20
-12.993101666666659
 30
0.0
 11
2.10608325931761
 21
0.0
 31
0.0
 12
0.0
 22
2.10608325931761
 32
0.0
 13
1.0
 23
1.0
340
0
 70
               7
280
               1
281
              50
282
              50
283
               0
360
0
 71
               2
 91
        5
 14
-0.5
 24
0.5
 14
0.5
 24
0.5
 14
0.5
 24
-0.0778894675453995
 14
-0.5
 24
-0.0778894675453995
 14
-0.5
 24
0.5
  0
MTEXT
  5
A6
100
AcDbEntity
  8
Dimension
390
0
 62
               0
100
AcDbMText
 10
5.8076981974357977
 20
-11.970597326388882
 30
0.0
 40
0.7579210069444442
 41
0.0
 71
               1
 72
               1
  1
 (x4)
  7
Helvetica
 73
               1
 44
0.9673603504928806
  0
POINT
  5
A7
100
AcDbEntity
  8
Defpoints
370
               0
390
0
 62
               0
100
AcDbPoint
 10
8.2108800000000031
 20
-1.6545599999999965
 30
0.0
  0
POINT
  5
A8
100
AcDbEntity
  8
Defpoints
370
               0
390
0
 62
               0
100
AcDbPoint
 10
-4.5141200000000197
 20
-1.6545599999999965
 30
0.0
  0
POINT
  5
A9
100
AcDbEntity
  8
Defpoints
370
               0
390
0
 62
               0
100
AcDbPoint
 10
-4.5141200000000197
 20
-12.384559999999995
 30
0.0
  0
ENDBLK
  5
AA
100
AcDbEntity
  8
Dimension
390
0
100
AcDbBlockEnd
  0
BLOCK
  5
AB
100
AcDbEntity
  8
Dimension
390
0
100
AcDbBlockBegin
  2
*D9
 70
               1
 10
0.0
 20
0.0
 30
0.0
  3
*D9
  1

  0
LINE
  5
AC
100
AcDbEntity
  8
Dimension
370
              -2
390
0
  6
Continuous
 62
               0
100
AcDbLine
 10
7.3033799999999758
 20
2.2979400000000041
 30
0.0
 11
12.853016407180945
 21
-0.1559808566275009
 31
0.0
  0
SOLID
  5
AD
100
AcDbEntity
  8
Dimension
370
              -2
390
0
 62
               0
100
AcDbTrace
 10
7.3033799999999758
 20
2.2979400000000041
 30
0.0
 11
7.8443368024302087
 21
2.2122608596073405
 31
0.0
 12
7.7290227630582251
 22
1.9532612866304275
 32
0.0
 13
7.7290227630582251
 23
1.9532612866304275
 33
0.0
  0
LINE
  5
AE
100
AcDbEntity
  8
Dimension
370
              -2
390
0
  6
Continuous
 62
               0
100
AcDbLine
 10
12.853016407180945
 20
-0.1559808566275009
 30
0.0
 11
14.35301340916044
 21
-0.1559808566275009
 31
0.0
  0
WIPEOUT
  5
AF
100
AcDbEntity
  8
Dimension
370
              -2
390
0
  6
Continuous
 62
               0
 92
        0
100
AcDbWipeout
 90
        0
 10
14.35301340916044
 20
-0.7645206066275005
 30
0.0
 11
7.6305594868130129
 21
0.0
 31
0.0
 12
0.0
 22
7.6305594868130129
 32
0.0
 13
1.0
 23
1.0
340
0
 70
               7
280
               1
281
              50
282
              50
283
               0
360
0
 71
               2
 91
        5
 14
-0.5
 24
0.5
 14
0.5
 24
0.5
 14
0.5
 24
0.3404993104236546
 14
-0.5
 24
0.3404993104236546
 14
-0.5
 24
0.5
  0
MTEXT
  5
B0
100
AcDbEntity
  8
Dimension
390
0
 62
               0
100
AcDbMText
 10
14.35301340916044
 20
0.2579805131641659
 30
0.0
 40
0.7579186197916666
 41
0.0
 71
               1
 72
               1
  1
0.69 x 0.28 mm 
  7
Helvetica
 73
               1
 44
0.9673603504928806
  0
POINT
  5
B1
100
AcDbEntity
  8
Defpoints
370
               0
390
0
 62
               0
100
AcDbPoint
 10
6.5683799999999906
 20
2.6229400000000069
 30
0.0
  0
POINT
  5
B2
100
AcDbEntity
  8
Defpoints
370
               0
390
0
 62
               0
100
AcDbPoint
 10
7.3033799999999758
 20
2.2979400000000041
 30
0.0
  0
ENDBLK
  5
B3
100
AcDbEntity
  8
Dimension
390
0
100
AcDbBlockEnd
  0
BLOCK
  5
B4
100
AcDbEntity
  8
Dimension
390
0
100
AcDbBlockBegin
  2
*D10
 70
               1
 10
0.0
 20
0.0
 30
0.0
  3
*D10
  1

  0
LINE
  5
B5
100
AcDbEntity
  8
Dimension
370
              -2
390
0
  6
Continuous
 62
               0
100
AcDbLine
 10
-3.0816200000000151
 20
-0.0183200011827829
 30
0.0
 11
-3.0816200000000151
 21
-9.7370600023655598
 31
0.0
  0
LINE
  5
B6
100
AcDbEntity
  8
Dimension
370
              -2
390
0
  6
Continuous
 62
               0
100
AcDbLine
 10
7.2783799999999985
 20
-0.1583200011827834
 30
0.0
 11
7.2783799999999985
 21
-9.7370600023655598
 31
0.0
  0
LINE
  5
B7
100
AcDbEntity
  8
Dimension
370
              -2
390
0
  6
Continuous
 62
               0
100
AcDbLine
 10
-3.0816200000000151
 20
-8.784559999999999
 30
0.0
 11
7.2783799999999985
 21
-8.784559999999999
 31
0.0
  0
SOLID
  5
B8
100
AcDbEntity
  8
Dimension
370
              -2
390
0
 62
               0
100
AcDbTrace
 10
-3.0816200000000151
 20
-8.784559999999999
 30
0.0
 11
-2.2878700000000149
 21
-8.5718753285077955
 31
0.0
 12
-2.2878700000000149
 22
-8.9972446714922025
 32
0.0
 13
-2.2878700000000149
 23
-8.9972446714922025
 33
0.0
  0
SOLID
  5
B9
100
AcDbEntity
  8
Dimension
370
              -2
390
0
 62
               0
100
AcDbTrace
 10
7.2783799999999985
 20
-8.784559999999999
 30
0.0
 11
6.4846299999999983
 21
-8.9972446714922025
 31
0.0
 12
6.4846299999999983
 22
-8.5718753285077955
 32
0.0
 13
6.4846299999999983
 23
-8.5718753285077955
 33
0.0
  0
WIPEOUT
  5
BA
100
AcDbEntity
  8
Dimension
370
              -2
390
0
  6
Continuous
 62
               0
 92
        0
100
AcDbWipeout
 90
        0
 10
0.0806019636705173
 20
-9.3930997499999975
 30
0.0
 11
4.4449860042995875
 21
0.0
 31
0.0
 12
0.0
 22
4.4449860042995875
 32
0.0
 13
1.0
 23
1.0
340
0
 70
               7
280
               1
281
              50
282
              50
283
               0
360
0
 71
               2
 91
        5
 14
-0.5
 24
0.5
 14
0.5
 24
0.5
 14
0.5
 24
0.2261904764553291
 14
-0.5
 24
0.2261904764553291
 14
-0.5
 24
0.5
  0
MTEXT
  5
BB
100
AcDbEntity
  8
Dimension
390
0
 62
               0
100
AcDbMText
 10
0.0806019636705173
 20
-8.3705986302083311
 30
0.0
 40
0.7579186197916666
 41
0.0
 71
               1
 72
               1
  1
10.36mm
  7
Helvetica
 73
               1
 44
0.9673603504928806
  0
POINT
  5
BC
100
AcDbEntity
  8
Defpoints
370
               0
390
0
 62
               0
100
AcDbPoint
 10
7.2783799999999985
 20
0.3179299999999969
 30
0.0
  0
POINT
  5
BD
100
AcDbEntity
  8
Defpoints
370
               0
390
0
 62
               0
100
AcDbPoint
 10
-3.0816200000000151
 20
0.4579299999999975
 30
0.0
  0
POINT
  5
BE
100
AcDbEntity
  8
Defpoints
370
               0
390
0
 62
               0
100
AcDbPoint
 10
-3.0816200000000151
 20
-8.7845600000000008
 30
0.0
  0
ENDBLK
  5
BF
100
AcDbEntity
  8
Dimension
390
0
100
AcDbBlockEnd
  0
BLOCK
  5
C0
100
AcDbEntity
  8
Dimension
390
0
100
AcDbBlockBegin
  2
*D11
 70
               1
 10
0.0
 20
0.0
 30
0.0
  3
*D11
  1

  0
LINE
  5
C1
100
AcDbEntity
  8
Dimension
370
              -2
390
0
  6
Continuous
 62
               0
100
AcDbLine
 10
-2.7678700011827715
 20
9.8879400000000004
 30
0.0
 11
-18.424120002365555
 21
9.8879400000000004
 31
0.0
  0
LINE
  5
C2
100
AcDbEntity
  8
Dimension
370
              -2
390
0
  6
Continuous
 62
               0
100
AcDbLine
 10
-2.7678700011827715
 20
-0.4720599999999919
 30
0.0
 11
-18.424120002365555
 21
-0.4720599999999919
 31
0.0
  0
LINE
  5
C3
100
AcDbEntity
  8
Dimension
370
              -2
390
0
  6
Continuous
 62
               0
100
AcDbLine
 10
-17.471619999999994
 20
9.8879400000000004
 30
0.0
 11
-17.471619999999994
 21
-0.4720599999999919
 31
0.0
  0
SOLID
  5
C4
100
AcDbEntity
  8
Dimension
370
              -2
390
0
 62
               0
100
AcDbTrace
 10
-17.471619999999994
 20
9.8879400000000004
 30
0.0
 11
-17.258935328507793
 21
9.0941900000000011
 31
0.0
 12
-17.6843046714922
 22
9.0941900000000011
 32
0.0
 13
-17.6843046714922
 23
9.0941900000000011
 33
0.0
  0
SOLID
  5
C5
100
AcDbEntity
  8
Dimension
370
              -2
390
0
 62
               0
100
AcDbTrace
 10
-17.471619999999994
 20
-0.4720599999999919
 30
0.0
 11
-17.6843046714922
 21
0.321690000000008
 31
0.0
 12
-17.258935328507789
 22
0.321690000000008
 32
0.0
 13
-17.258935328507789
 23
0.321690000000008
 33
0.0
  0
WIPEOUT
  5
C6
100
AcDbEntity
  8
Dimension
370
              -2
390
0
  6
Continuous
 62
               0
 92
        0
100
AcDbWipeout
 90
        0
 10
-19.694113002149791
 20
3.6096651425781294
 30
0.0
 11
4.4449860042995866
 21
0.0
 31
0.0
 12
0.0
 22
4.4449860042995866
 32
0.0
 13
1.0
 23
1.0
340
0
 70
               7
280
               1
281
              50
282
              50
283
               0
360
0
 71
               2
 91
        5
 14
-0.5
 24
0.5
 14
0.5
 24
0.5
 14
0.5
 24
0.2261904764553293
 14
-0.5
 24
0.2261904764553293
 14
-0.5
 24
0.5
  0
MTEXT
  5
C7
100
AcDbEntity
  8
Dimension
390
0
 62
               0
100
AcDbMText
 10
-19.694113002149791
 20
4.6321662623697959
 30
0.0
 40
0.7579186197916666
 41
0.0
 71
               1
 72
               1
  1
10.36mm
  7
Helvetica
 73
               1
 44
0.9673603504928806
  0
POINT
  5
C8
100
AcDbEntity
  8
Defpoints
370
               0
390
0
 62
               0
100
AcDbPoint
 10
-2.2916199999999947
 20
-0.4720599999999919
 30
0.0
  0
POINT
  5
C9
100
AcDbEntity
  8
Defpoints
370
               0
390
0
 62
               0
100
AcDbPoint
 10
-2.2916199999999947
 20
9.8879400000000004
 30
0.0
  0
POINT
  5
CA
100
AcDbEntity
  8
Defpoints
370
               0
390
0
 62
               0
100
AcDbPoint
 10
-17.471619999999994
 20
9.8879400000000004
 30
0.0
  0
ENDBLK
  5
CB
100
AcDbEntity
  8
Dimension
390
0
100
AcDbBlockEnd
  0
BLOCK
  5
CC
100
AcDbEntity
  8
Dimension
390
0
100
AcDbBlockBegin
  2
*D12
 70
               1
 10
0.0
 20
0.0
 30
0.0
  3
*D12
  1

  0
LINE
  5
CD
100
AcDbEntity
  8
Dimension
370
              -2
390
0
  6
Continuous
 62
               0
100
AcDbLine
 10
-3.557870001182792
 20
9.0979400000000012
 30
0.0
 11
-12.974120002365567
 21
9.0979400000000012
 31
0.0
  0
LINE
  5
CE
100
AcDbEntity
  8
Dimension
370
              -2
390
0
  6
Continuous
 62
               0
100
AcDbLine
 10
-3.557870001182792
 20
0.3179299999999969
 30
0.0
 11
-12.974120002365567
 21
0.3179299999999969
 31
0.0
  0
LINE
  5
CF
100
AcDbEntity
  8
Dimension
370
              -2
390
0
  6
Continuous
 62
               0
100
AcDbLine
 10
-12.021620000000013
 20
9.0979400000000012
 30
0.0
 11
-12.021620000000013
 21
0.3179299999999969
 31
0.0
  0
SOLID
  5
D0
100
AcDbEntity
  8
Dimension
370
              -2
390
0
 62
               0
100
AcDbTrace
 10
-12.021620000000013
 20
9.0979400000000012
 30
0.0
 11
-11.808935328507809
 21
8.304190000000002
 31
0.0
 12
-12.234304671492216
 22
8.304190000000002
 32
0.0
 13
-12.234304671492216
 23
8.304190000000002
 33
0.0
  0
SOLID
  5
D1
100
AcDbEntity
  8
Dimension
370
              -2
390
0
 62
               0
100
AcDbTrace
 10
-12.021620000000013
 20
0.3179299999999969
 30
0.0
 11
-12.234304671492216
 21
1.1116799999999969
 31
0.0
 12
-11.808935328507809
 22
1.1116799999999969
 32
0.0
 13
-11.808935328507809
 23
1.1116799999999969
 33
0.0
  0
WIPEOUT
  5
D2
100
AcDbEntity
  8
Dimension
370
              -2
390
0
  6
Continuous
 62
               0
 92
        0
100
AcDbWipeout
 90
        0
 10
-13.947780624292179
 20
3.9275087627258296
 30
0.0
 11
3.8523212485843228
 21
0.0
 31
0.0
 12
0.0
 22
3.8523212485843228
 32
0.0
 13
1.0
 23
1.0
340
0
 70
               7
280
               1
281
              50
282
              50
283
               0
360
0
 71
               2
 91
        5
 14
-0.5
 24
0.5
 14
0.5
 24
0.5
 14
0.5
 24
0.1840659380504001
 14
-0.5
 24
0.1840659380504001
 14
-0.5
 24
0.5
  0
MTEXT
  5
D3
100
AcDbEntity
  8
Dimension
390
0
 62
               0
100
AcDbMText
 10
-13.947780624292179
 20
4.9500098825174961
 30
0.0
 40
0.7579186197916666
 41
0.0
 71
               1
 72
               1
  1
8.78mm
  7
Helvetica
 73
               1
 44
0.9673603504928806
  0
POINT
  5
D4
100
AcDbEntity
  8
Defpoints
370
               0
390
0
 62
               0
100
AcDbPoint
 10
-3.0816200000000151
 20
0.3179299999999969
 30
0.0
  0
POINT
  5
D5
100
AcDbEntity
  8
Defpoints
370
               0
390
0
 62
               0
100
AcDbPoint
 10
-3.0816200000000151
 20
9.0979400000000012
 30
0.0
  0
POINT
  5
D6
100
AcDbEntity
  8
Defpoints
370
               0
390
0
 62
               0
100
AcDbPoint
 10
-12.021620000000015
 20
9.0979400000000012
 30
0.0
  0
ENDBLK
  5
D7
100
AcDbEntity
  8
Dimension
390
0
100
AcDbBlockEnd
  0
BLOCK
  5
D8
100
AcDbEntity
  8
Dimension
390
0
100
AcDbBlockBegin
  2
*D13
 70
               1
 10
0.0
 20
0.0
 30
0.0
  3
*D13
  1

  0
LINE
  5
D9
100
AcDbEntity
  8
Dimension
370
              -2
390
0
  6
Continuous
 62
               0
100
AcDbLine
 10
-2.2916199999999947
 20
-0.9483100011827723
 30
0.0
 11
-2.2916199999999947
 21
-6.9449000023655501
 31
0.0
  0
LINE
  5
DA
100
AcDbEntity
  8
Dimension
370
              -2
390
0
  6
Continuous
 62
               0
100
AcDbLine
 10
6.4883799999999781
 20
-0.9483100011827723
 30
0.0
 11
6.4883799999999781
 21
-6.9449000023655501
 31
0.0
  0
LINE
  5
DB
100
AcDbEntity
  8
Dimension
370
              -2
390
0
  6
Continuous
 62
               0
100
AcDbLine
 10
-2.2916199999999947
 20
-5.9923999999999893
 30
0.0
 11
6.4883799999999781
 21
-5.9923999999999893
 31
0.0
  0
SOLID
  5
DC
100
AcDbEntity
  8
Dimension
370
              -2
390
0
 62
               0
100
AcDbTrace
 10
-2.2916199999999947
 20
-5.9923999999999893
 30
0.0
 11
-1.4978699999999947
 21
-5.7797153285077858
 31
0.0
 12
-1.4978699999999947
 22
-6.2050846714921928
 32
0.0
 13
-1.4978699999999947
 23
-6.2050846714921928
 33
0.0
  0
SOLID
  5
DD
100
AcDbEntity
  8
Dimension
370
              -2
390
0
 62
               0
100
AcDbTrace
 10
6.4883799999999781
 20
-5.9923999999999893
 30
0.0
 11
5.6946299999999779
 21
-6.2050846714921928
 31
0.0
 12
5.6946299999999779
 22
-5.7797153285077858
 32
0.0
 13
5.6946299999999779
 23
-5.7797153285077858
 33
0.0
  0
WIPEOUT
  5
DE
100
AcDbEntity
  8
Dimension
370
              -2
390
0
  6
Continuous
 62
               0
 92
        0
100
AcDbWipeout
 90
        0
 10
0.136850723364077
 20
-6.6009397499999869
 30
0.0
 11
3.8523212485843232
 21
0.0
 31
0.0
 12
0.0
 22
3.8523212485843232
 32
0.0
 13
1.0
 23
1.0
340
0
 70
               7
280
               1
281
              50
282
              50
283
               0
360
0
 71
               2
 91
        5
 14
-0.5
 24
0.5
 14
0.5
 24
0.5
 14
0.5
 24
0.1840659380504001
 14
-0.5
 24
0.1840659380504001
 14
-0.5
 24
0.5
  0
MTEXT
  5
DF
100
AcDbEntity
  8
Dimension
390
0
 62
               0
100
AcDbMText
 10
0.136850723364077
 20
-5.5784386302083204
 30
0.0
 40
0.7579186197916666
 41
0.0
 71
               1
 72
               1
  1
8.78mm
  7
Helvetica
 73
               1
 44
0.9673603504928806
  0
POINT
  5
E0
100
AcDbEntity
  8
Defpoints
370
               0
390
0
 62
               0
100
AcDbPoint
 10
6.4883799999999781
 20
-0.4720599999999919
 30
0.0
  0
POINT
  5
E1
100
AcDbEntity
  8
Defpoints
370
               0
390
0
 62
               0
100
AcDbPoint
 10
-2.2916199999999947
 20
-0.4720599999999919
 30
0.0
  0
POINT
  5
E2
100
AcDbEntity
  8
Defpoints
370
               0
390
0
 62
               0
100
AcDbPoint
 10
-2.2916199999999947
 20
-5.9923999999999911
 30
0.0
  0
ENDBLK
  5
E3
100
AcDbEntity
  8
Dimension
390
0
100
AcDbBlockEnd
  0
BLOCK
  5
E4
100
AcDbEntity
  8
Dimension
390
0
100
AcDbBlockBegin
  2
*D14
 70
               1
 10
0.0
 20
0.0
 30
0.0
  3
*D14
  1

  0
LINE
  5
E5
100
AcDbEntity
  8
Dimension
370
              -2
390
0
  6
Continuous
 62
               0
100
AcDbLine
 10
-4.5141200000000197
 20
11.546690001182778
 30
0.0
 11
-4.5141200000000197
 21
21.817940002365557
 31
0.0
  0
LINE
  5
E6
100
AcDbEntity
  8
Dimension
370
              -2
390
0
  6
Continuous
 62
               0
100
AcDbLine
 10
-5.7641200000000197
 20
12.796690001182778
 30
0.0
 11
-5.7641200000000197
 21
21.817940002365557
 31
0.0
  0
LINE
  5
E7
100
AcDbEntity
  8
Dimension
370
              -2
390
0
  6
Continuous
 62
               0
100
AcDbLine
 10
-5.7641200000000197
 20
20.86544
 30
0.0
 11
-4.5141200000000197
 21
20.86544
 31
0.0
  0
LINE
  5
E8
100
AcDbEntity
  8
Dimension
370
              -2
390
0
  6
Continuous
 62
               0
100
AcDbLine
 10
-4.5141200000000197
 20
20.86544
 30
0.0
 11
-2.5216200000000129
 21
20.86544
 31
0.0
  0
SOLID
  5
E9
100
AcDbEntity
  8
Dimension
370
              -2
390
0
 62
               0
100
AcDbTrace
 10
-4.5141200000000197
 20
20.86544
 30
0.0
 11
-3.7203700000000195
 21
21.078124671492205
 31
0.0
 12
-3.7203700000000195
 22
20.652755328507794
 32
0.0
 13
-3.7203700000000195
 23
20.652755328507794
 33
0.0
  0
LINE
  5
EA
100
AcDbEntity
  8
Dimension
370
              -2
390
0
  6
Continuous
 62
               0
100
AcDbLine
 10
-5.7641200000000197
 20
20.86544
 30
0.0
 11
-7.5141164983668318
 21
20.86544
 31
0.0
  0
SOLID
  5
EB
100
AcDbEntity
  8
Dimension
370
              -2
390
0
 62
               0
100
AcDbTrace
 10
-5.7641200000000197
 20
20.86544
 30
0.0
 11
-6.5578700000000199
 21
20.652755328507794
 31
0.0
 12
-6.5578700000000199
 22
21.078124671492205
 32
0.0
 13
-6.5578700000000199
 23
21.078124671492205
 33
0.0
  0
WIPEOUT
  5
EC
100
AcDbEntity
  8
Dimension
370
              -2
390
0
  6
Continuous
 62
               0
 92
        0
100
AcDbWipeout
 90
        0
 10
-2.5216200000000129
 20
20.256902166666663
 30
0.0
 11
3.8523212485843232
 21
0.0
 31
0.0
 12
0.0
 22
3.8523212485843232
 32
0.0
 13
1.0
 23
1.0
340
0
 70
               7
280
               1
281
              50
282
              50
283
               0
360
0
 71
               2
 91
        5
 14
-0.5
 24
0.5
 14
0.5
 24
0.5
 14
0.5
 24
0.1840659380503998
 14
-0.5
 24
0.1840659380503998
 14
-0.5
 24
0.5
  0
MTEXT
  5
ED
100
AcDbEntity
  8
Dimension
390
0
 62
               0
100
AcDbMText
 10
-2.5216200000000129
 20
21.279403286458329
 30
0.0
 40
0.7579186197916666
 41
0.0
 71
               1
 72
               1
  1
1.25mm
  7
Helvetica
 73
               1
 44
0.9673603504928806
  0
WIPEOUT
  5
EE
100
AcDbEntity
  8
Dimension
370
              -2
390
0
  6
Continuous
 62
               0
 92
        0
100
AcDbWipeout
 90
        0
 10
1.3307012485843046
 20
20.256900499999997
 30
0.0
 11
5.0270675208833486
 21
0.0
 31
0.0
 12
0.0
 22
5.0270675208833486
 32
0.0
 13
1.0
 23
1.0
340
0
 70
               7
280
               1
281
              50
282
              50
283
               0
360
0
 71
               2
 91
        5
 14
-0.5
 24
0.5
 14
0.5
 24
0.5
 14
0.5
 24
0.2578947378478542
 14
-0.5
 24
0.2578947378478542
 14
-0.5
 24
0.5
  0
MTEXT
  5
EF
100
AcDbEntity
  8
Dimension
390
0
 62
               0
100
AcDbMText
 10
1.3307012485843046
 20
21.279401619791663
 30
0.0
 40
0.7579186197916666
 41
0.0
 71
               1
 72
               1
  1
±0.125mm
  7
Helvetica
 73
               1
 44
0.9673603504928806
  0
WIPEOUT
  5
F0
100
AcDbEntity
  8
Dimension
370
              -2
390
0
  6
Continuous
 62
               0
 92
        0
100
AcDbWipeout
 90
        0
 10
6.3577687694676541
 20
20.256898333333332
 30
0.0
 11
2.1060832593176109
 21
0.0
 31
0.0
 12
0.0
 22
2.1060832593176109
 32
0.0
 13
1.0
 23
1.0
340
0
 70
               7
280
               1
281
              50
282
              50
283
               0
360
0
 71
               2
 91
        5
 14
-0.5
 24
0.5
 14
0.5
 24
0.5
 14
0.5
 24
-0.0778894675453984
 14
-0.5
 24
-0.0778894675453984
 14
-0.5
 24
0.5
  0
MTEXT
  5
F1
100
AcDbEntity
  8
Dimension
390
0
 62
               0
100
AcDbMText
 10
6.3577687694676541
 20
21.279402673611109
 30
0.0
 40
0.7579210069444442
 41
0.0
 71
               1
 72
               1
  1
 (x4)
  7
Helvetica
 73
               1
 44
0.9673603504928806
  0
POINT
  5
F2
100
AcDbEntity
  8
Defpoints
370
               0
390
0
 62
               0
100
AcDbPoint
 10
-5.7641200000000197
 20
12.320439999999998
 30
0.0
  0
POINT
  5
F3
100
AcDbEntity
  8
Defpoints
370
               0
390
0
 62
               0
100
AcDbPoint
 10
-4.5141200000000197
 20
11.070439999999998
 30
0.0
  0
POINT
  5
F4
100
AcDbEntity
  8
Defpoints
370
               0
390
0
 62
               0
100
AcDbPoint
 10
-4.5141200000000197
 20
20.86544
 30
0.0
  0
ENDBLK
  5
F5
100
AcDbEntity
  8
Dimension
390
0
100
AcDbBlockEnd
  0
BLOCK
  5
F6
100
AcDbEntity
  8
Dimension
390
0
100
AcDbBlockBegin
  2
*D15
 70
               1
 10
0.0
 20
0.0
 30
0.0
  3
*D15
  1

  0
LINE
  5
F7
100
AcDbEntity
  8
Dimension
370
              -2
390
0
  6
Continuous
 62
               0
100
AcDbLine
 10
-6.2403700011827965
 20
12.320439999999998
 30
0.0
 11
-17.074120002365575
 21
12.320439999999998
 31
0.0
  0
LINE
  5
F8
100
AcDbEntity
  8
Dimension
370
              -2
390
0
  6
Continuous
 62
               0
100
AcDbLine
 10
-4.9903700011827965
 20
11.070439999999998
 30
0.0
 11
-17.074120002365575
 21
11.070439999999998
 31
0.0
  0
LINE
  5
F9
100
AcDbEntity
  8
Dimension
370
              -2
390
0
  6
Continuous
 62
               0
100
AcDbLine
 10
-16.121620000000021
 20
11.070439999999998
 30
0.0
 11
-16.121620000000021
 21
12.320439999999998
 31
0.0
  0
LINE
  5
FA
100
AcDbEntity
  8
Dimension
370
              -2
390
0
  6
Continuous
 62
               0
100
AcDbLine
 10
-16.121620000000021
 20
12.320439999999998
 30
0.0
 11
-16.121620000000021
 21
15.11544
 31
0.0
  0
SOLID
  5
FB
100
AcDbEntity
  8
Dimension
370
              -2
390
0
 62
               0
100
AcDbTrace
 10
-16.121620000000021
 20
12.320439999999998
 30
0.0
 11
-16.334304671492227
 21
13.114189999999997
 31
0.0
 12
-15.908935328507818
 22
13.114189999999997
 32
0.0
 13
-15.908935328507818
 23
13.114189999999997
 33
0.0
  0
LINE
  5
FC
100
AcDbEntity
  8
Dimension
370
              -2
390
0
  6
Continuous
 62
               0
100
AcDbLine
 10
-16.121620000000021
 20
11.070439999999998
 30
0.0
 11
-16.121620000000021
 21
9.3204435016331804
 31
0.0
  0
SOLID
  5
FD
100
AcDbEntity
  8
Dimension
370
              -2
390
0
 62
               0
100
AcDbTrace
 10
-16.121620000000021
 20
11.070439999999998
 30
0.0
 11
-15.908935328507818
 21
10.276689999999999
 31
0.0
 12
-16.334304671492227
 22
10.276689999999999
 32
0.0
 13
-16.334304671492227
 23
10.276689999999999
 33
0.0
  0
WIPEOUT
  5
FE
100
AcDbEntity
  8
Dimension
370
              -2
390
0
  6
Continuous
 62
               0
 92
        0
100
AcDbWipeout
 90
        0
 10
-21.318023636535031
 20
14.506902166666663
 30
0.0
 11
3.8523212485843246
 21
0.0
 31
0.0
 12
0.0
 22
3.8523212485843246
 32
0.0
 13
1.0
 23
1.0
340
0
 70
               7
280
               1
281
              50
282
              50
283
               0
360
0
 71
               2
 91
        5
 14
-0.5
 24
0.5
 14
0.5
 24
0.5
 14
0.5
 24
0.1840659380504
 14
-0.5
 24
0.1840659380504
 14
-0.5
 24
0.5
  0
MTEXT
  5
FF
100
AcDbEntity
  8
Dimension
390
0
 62
               0
100
AcDbMText
 10
-21.318023636535031
 20
15.529403286458329
 30
0.0
 40
0.7579186197916666
 41
0.0
 71
               1
 72
               1
  1
1.25mm
  7
Helvetica
 73
               1
 44
0.9673603504928806
  0
WIPEOUT
  5
100
100
AcDbEntity
  8
Dimension
370
              -2
390
0
  6
Continuous
 62
               0
 92
        0
100
AcDbWipeout
 90
        0
 10
-17.465702387950707
 20
14.506900499999997
 30
0.0
 11
4.434402765168084
 21
0.0
 31
0.0
 12
0.0
 22
4.434402765168084
 32
0.0
 13
1.0
 23
1.0
340
0
 70
               7
280
               1
281
              50
282
              50
283
               0
360
0
 71
               2
 91
        5
 14
-0.5
 24
0.5
 14
0.5
 24
0.5
 14
0.5
 24
0.22553699687361
 14
-0.5
 24
0.22553699687361
 14
-0.5
 24
0.5
  0
MTEXT
  5
101
100
AcDbEntity
  8
Dimension
390
0
 62
               0
100
AcDbMText
 10
-17.465702387950707
 20
15.529401619791663
 30
0.0
 40
0.7579186197916666
 41
0.0
 71
               1
 72
               1
  1
±0.13mm
  7
Helvetica
 73
               1
 44
0.9673603504928806
  0
WIPEOUT
  5
102
100
AcDbEntity
  8
Dimension
370
              -2
390
0
  6
Continuous
 62
               0
 92
        0
100
AcDbWipeout
 90
        0
 10
-13.031299622782626
 20
14.50689833333333
 30
0.0
 11
2.1060832593176109
 21
0.0
 31
0.0
 12
0.0
 22
2.1060832593176109
 32
0.0
 13
1.0
 23
1.0
340
0
 70
               7
280
               1
281
              50
282
              50
283
               0
360
0
 71
               2
 91
        5
 14
-0.5
 24
0.5
 14
0.5
 24
0.5
 14
0.5
 24
-0.0778894675453992
 14
-0.5
 24
-0.0778894675453992
 14
-0.5
 24
0.5
  0
MTEXT
  5
103
100
AcDbEntity
  8
Dimension
390
0
 62
               0
100
AcDbMText
 10
-13.031299622782626
 20
15.529402673611107
 30
0.0
 40
0.7579210069444442
 41
0.0
 71
               1
 72
               1
  1
 (x4)
  7
Helvetica
 73
               1
 44
0.9673603504928806
  0
POINT
  5
104
100
AcDbEntity
  8
Defpoints
370
               0
390
0
 62
               0
100
AcDbPoint
 10
-4.5141200000000197
 20
11.070439999999998
 30
0.0
  0
POINT
  5
105
100
AcDbEntity
  8
Defpoints
370
               0
390
0
 62
               0
100
AcDbPoint
 10
-5.7641200000000197
 20
12.320439999999998
 30
0.0
  0
POINT
  5
106
100
AcDbEntity
  8
Defpoints
370
               0
390
0
 62
               0
100
AcDbPoint
 10
-16.121620000000021
 20
12.320439999999998
 30
0.0
  0
ENDBLK
  5
107
100
AcDbEntity
  8
Dimension
390
0
100
AcDbBlockEnd
  0
BLOCK
  5
108
100
AcDbEntity
  8
Dimension
390
0
100
AcDbBlockBegin
  2
*D16
 70
               1
 10
0.0
 20
0.0
 30
0.0
  3
*D16
  1

  0
LINE
  5
109
100
AcDbEntity
  8
Dimension
370
              -2
390
0
  6
Continuous
 62
               0
100
AcDbLine
 10
8.969539999999995
 20
-1.9237499999999912
 30
0.0
 11
14.744963213334842
 21
-3.9730366933914745
 31
0.0
  0
SOLID
  5
10A
100
AcDbEntity
  8
Dimension
370
              -2
390
0
 62
               0
100
AcDbTrace
 10
8.969539999999995
 20
-1.9237499999999912
 30
0.0
 11
9.5151557335551225
 21
-1.971485191327446
 31
0.0
 12
9.4181894902994898
 22
-2.2378977551216415
 32
0.0
 13
9.4181894902994898
 23
-2.2378977551216415
 33
0.0
  0
LINE
  5
10B
100
AcDbEntity
  8
Dimension
370
              -2
390
0
  6
Continuous
 62
               0
100
AcDbLine
 10
14.744963213334842
 20
-3.9730366933914745
 30
0.0
 11
16.244960215314336
 21
-3.9730366933914745
 31
0.0
  0
WIPEOUT
  5
10C
100
AcDbEntity
  8
Dimension
370
              -2
390
0
  6
Continuous
 62
               0
 92
        0
100
AcDbWipeout
 90
        0
 10
16.244960215314336
 20
-4.5815745267248067
 30
0.0
 11
4.9741509887907256
 21
0.0
 31
0.0
 12
0.0
 22
4.9741509887907256
 32
0.0
 13
1.0
 23
1.0
340
0
 70
               7
280
               1
281
              50
282
              50
283
               0
360
0
 71
               2
 91
        5
 14
-0.5
 24
0.5
 14
0.5
 24
0.5
 14
0.5
 24
0.2553191483847808
 14
-0.5
 24
0.2553191483847808
 14
-0.5
 24
0.5
  0
MTEXT
  5
10D
100
AcDbEntity
  8
Dimension
390
0
 62
               0
100
AcDbMText
 10
16.244960215314336
 20
-3.5590734069331402
 30
0.0
 40
0.7579186197916666
 41
0.0
 71
               1
 72
               1
  1
Ø 1.61mm
  7
Helvetica
 73
               1
 44
0.9673603504928806
  0
WIPEOUT
  5
10E
100
AcDbEntity
  8
Dimension
370
              -2
390
0
  6
Continuous
 62
               0
 92
        0
100
AcDbWipeout
 90
        0
 10
21.219111204105062
 20
-4.5815761933914727
 30
0.0
 11
4.434402765168084
 21
0.0
 31
0.0
 12
0.0
 22
4.434402765168084
 32
0.0
 13
1.0
 23
1.0
340
0
 70
               7
280
               1
281
              50
282
              50
283
               0
360
0
 71
               2
 91
        5
 14
-0.5
 24
0.5
 14
0.5
 24
0.5
 14
0.5
 24
0.2255369968736101
 14
-0.5
 24
0.2255369968736101
 14
-0.5
 24
0.5
  0
MTEXT
  5
10F
100
AcDbEntity
  8
Dimension
390
0
 62
               0
100
AcDbMText
 10
21.219111204105062
 20
-3.5590750735998062
 30
0.0
 40
0.7579186197916666
 41
0.0
 71
               1
 72
               1
  1
±0.05mm
  7
Helvetica
 73
               1
 44
0.9673603504928806
  0
WIPEOUT
  5
110
100
AcDbEntity
  8
Dimension
370
              -2
390
0
  6
Continuous
 62
               0
 92
        0
100
AcDbWipeout
 90
        0
 10
25.653513969273149
 20
-4.5815783600581401
 30
0.0
 11
2.1060832593176109
 21
0.0
 31
0.0
 12
0.0
 22
2.1060832593176109
 32
0.0
 13
1.0
 23
1.0
340
0
 70
               7
280
               1
281
              50
282
              50
283
               0
360
0
 71
               2
 91
        5
 14
-0.5
 24
0.5
 14
0.5
 24
0.5
 14
0.5
 24
-0.0778894675453992
 14
-0.5
 24
-0.0778894675453992
 14
-0.5
 24
0.5
  0
MTEXT
  5
111
100
AcDbEntity
  8
Dimension
390
0
 62
               0
100
AcDbMText
 10
25.653513969273149
 20
-3.5590740197803625
 30
0.0
 40
0.7579210069444442
 41
0.0
 71
               1
 72
               1
  1
 (x4)
  7
Helvetica
 73
               1
 44
0.9673603504928806
  0
POINT
  5
112
100
AcDbEntity
  8
Defpoints
370
               0
390
0
 62
               0
100
AcDbPoint
 10
7.4522199999999827
 20
-1.3853700000000018
 30
0.0
  0
POINT
  5
113
100
AcDbEntity
  8
Defpoints
370
               0
390
0
 62
               0
100
AcDbPoint
 10
8.969539999999995
 20
-1.9237499999999912
 30
0.0
  0
ENDBLK
  5
114
100
AcDbEntity
  8
Dimension
390
0
100
AcDbBlockEnd
  0
BLOCK
  5
115
100
AcDbEntity
  8
Dimension
390
0
100
AcDbBlockBegin
  2
*D17
 70
               1
 10
0.0
 20
0.0
 30
0.0
  3
*D17
  1

  0
LINE
  5
116
100
AcDbEntity
  8
Dimension
370
              -2
390
0
  6
Continuous
 62
               0
100
AcDbLine
 10
8.5472000000000037
 20
8.2706099999999978
 30
0.0
 11
13.278386045701154
 21
4.6154361733106128
 31
0.0
  0
SOLID
  5
117
100
AcDbEntity
  8
Dimension
370
              -2
390
0
 62
               0
100
AcDbTrace
 10
8.5472000000000037
 20
8.2706099999999978
 30
0.0
 11
9.051360413440845
 21
8.056606601164539
 31
0.0
 12
8.8768140262045083
 22
7.833197413391856
 32
0.0
 13
8.8768140262045083
 23
7.833197413391856
 33
0.0
  0
LINE
  5
118
100
AcDbEntity
  8
Dimension
370
              -2
390
0
  6
Continuous
 62
               0
100
AcDbLine
 10
13.278386045701154
 20
4.6154361733106128
 30
0.0
 11
14.778383047680649
 21
4.6154361733106128
 31
0.0
  0
WIPEOUT
  5
119
100
AcDbEntity
  8
Dimension
370
              -2
390
0
  6
Continuous
 62
               0
 92
        0
100
AcDbWipeout
 90
        0
 10
14.778383047680649
 20
4.0068983399772806
 30
0.0
 11
4.9741509887907256
 21
0.0
 31
0.0
 12
0.0
 22
4.9741509887907256
 32
0.0
 13
1.0
 23
1.0
340
0
 70
               7
280
               1
281
              50
282
              50
283
               0
360
0
 71
               2
 91
        5
 14
-0.5
 24
0.5
 14
0.5
 24
0.5
 14
0.5
 24
0.2553191483847808
 14
-0.5
 24
0.2553191483847808
 14
-0.5
 24
0.5
  0
MTEXT
  5
11A
100
AcDbEntity
  8
Dimension
390
0
 62
               0
100
AcDbMText
 10
14.778383047680649
 20
5.0293994597689471
 30
0.0
 40
0.7579186197916666
 41
0.0
 71
               1
 72
               1
  1
Ø 0.85mm
  7
Helvetica
 73
               1
 44
0.9673603504928806
  0
WIPEOUT
  5
11B
100
AcDbEntity
  8
Dimension
370
              -2
390
0
  6
Continuous
 62
               0
 92
        0
100
AcDbWipeout
 90
        0
 10
19.752534036471374
 20
4.0068966733106128
 30
0.0
 11
5.0270675208833495
 21
0.0
 31
0.0
 12
0.0
 22
5.0270675208833495
 32
0.0
 13
1.0
 23
1.0
340
0
 70
               7
280
               1
281
              50
282
              50
283
               0
360
0
 71
               2
 91
        5
 14
-0.5
 24
0.5
 14
0.5
 24
0.5
 14
0.5
 24
0.2578947378478544
 14
-0.5
 24
0.2578947378478544
 14
-0.5
 24
0.5
  0
MTEXT
  5
11C
100
AcDbEntity
  8
Dimension
390
0
 62
               0
100
AcDbMText
 10
19.752534036471374
 20
5.0293977931022793
 30
0.0
 40
0.7579186197916666
 41
0.0
 71
               1
 72
               1
  1
±0.025mm
  7
Helvetica
 73
               1
 44
0.9673603504928806
  0
WIPEOUT
  5
11D
100
AcDbEntity
  8
Dimension
370
              -2
390
0
  6
Continuous
 62
               0
 92
        0
100
AcDbWipeout
 90
        0
 10
24.779601557354724
 20
4.0068945066439472
 30
0.0
 11
2.1060832593176109
 21
0.0
 31
0.0
 12
0.0
 22
2.1060832593176109
 32
0.0
 13
1.0
 23
1.0
340
0
 70
               7
280
               1
281
              50
282
              50
283
               0
360
0
 71
               2
 91
        5
 14
-0.5
 24
0.5
 14
0.5
 24
0.5
 14
0.5
 24
-0.0778894675453992
 14
-0.5
 24
-0.0778894675453992
 14
-0.5
 24
0.5
  0
MTEXT
  5
11E
100
AcDbEntity
  8
Dimension
390
0
 62
               0
100
AcDbMText
 10
24.779601557354724
 20
5.0293988469217243
 30
0.0
 40
0.7579210069444442
 41
0.0
 71
               1
 72
               1
  1
 (x2)
  7
Helvetica
 73
               1
 44
0.9673603504928806
  0
POINT
  5
11F
100
AcDbEntity
  8
Defpoints
370
               0
390
0
 62
               0
100
AcDbPoint
 10
7.8745600000000024
 20
8.7902699999999996
 30
0.0
  0
POINT
  5
120
100
AcDbEntity
  8
Defpoints
370
               0
390
0
 62
               0
100
AcDbPoint
 10
8.5472000000000037
 20
8.2706099999999978
 30
0.0
  0
ENDBLK
  5
121
100
AcDbEntity
  8
Dimension
390
0
100
AcDbBlockEnd
  0
BLOCK
  5
122
100
AcDbEntity
  8
None
390
0
100
AcDbBlockBegin
  2
Group
 70
               0
 10
0.0
 20
0.0
 30
0.0
  3
Group
  1

  0
SOLID
  5
123
100
AcDbEntity
  8
None
370
              15
390
0
  6
Continuous
 62
               7
100
AcDbTrace
 10
-2.2916200000000231
 20
9.1979299999999995
 30
0.0
 11
-2.2916200000000231
 21
9.8879400000000004
 31
0.0
 12
-2.0116200000000219
 22
9.1979299999999995
 32
0.0
 13
-2.0116200000000219
 23
9.8879400000000004
 33
0.0
  0
SOLID
  5
124
100
AcDbEntity
  8
None
370
              15
390
0
  6
Continuous
 62
               7
100
AcDbTrace
 10
6.5883800000000008
 20
8.8179400000000001
 30
0.0
 11
6.5883800000000008
 21
9.0979400000000012
 31
0.0
 12
7.2783799999999985
 22
8.8179400000000001
 32
0.0
 13
7.2783799999999985
 23
9.0979400000000012
 33
0.0
  0
SOLID
  5
125
100
AcDbEntity
  8
None
370
              15
390
0
  6
Continuous
 62
               7
100
AcDbTrace
 10
-3.0816200000000151
 20
8.8179400000000001
 30
0.0
 11
-3.0816200000000151
 21
9.0979400000000012
 31
0.0
 12
-2.3916200000000174
 22
8.8179400000000001
 32
0.0
 13
-2.3916200000000174
 23
9.0979400000000012
 33
0.0
  0
SOLID
  5
126
100
AcDbEntity
  8
None
370
              15
390
0
  6
Continuous
 62
               7
100
AcDbTrace
 10
-3.0816200000000151
 20
8.3179299999999969
 30
0.0
 11
-3.0816200000000151
 21
8.5979299999999981
 31
0.0
 12
-2.3916200000000174
 22
8.3179299999999969
 32
0.0
 13
-2.3916200000000174
 23
8.5979299999999981
 33
0.0
  0
SOLID
  5
127
100
AcDbEntity
  8
None
370
              15
390
0
  6
Continuous
 62
               7
100
AcDbTrace
 10
-3.0816200000000151
 20
7.8179400000000001
 30
0.0
 11
-3.0816200000000151
 21
8.0979299999999981
 31
0.0
 12
-2.3916200000000174
 22
7.8179400000000001
 32
0.0
 13
-2.3916200000000174
 23
8.0979299999999981
 33
0.0
  0
SOLID
  5
128
100
AcDbEntity
  8
None
370
              15
390
0
  6
Continuous
 62
               7
100
AcDbTrace
 10
-3.0816200000000151
 20
7.317930000000004
 30
0.0
 11
-3.0816200000000151
 21
7.5979400000000012
 31
0.0
 12
-2.3916200000000174
 22
7.317930000000004
 32
0.0
 13
-2.3916200000000174
 23
7.5979400000000012
 33
0.0
  0
SOLID
  5
129
100
AcDbEntity
  8
None
370
              15
390
0
  6
Continuous
 62
               7
100
AcDbTrace
 10
-3.0816200000000151
 20
6.8179299999999969
 30
0.0
 11
-3.0816200000000151
 21
7.0979299999999981
 31
0.0
 12
-2.3916200000000174
 22
6.8179299999999969
 32
0.0
 13
-2.3916200000000174
 23
7.0979299999999981
 33
0.0
  0
SOLID
  5
12A
100
AcDbEntity
  8
None
370
              15
390
0
  6
Continuous
 62
               7
100
AcDbTrace
 10
-3.0816200000000151
 20
6.3179400000000001
 30
0.0
 11
-3.0816200000000151
 21
6.5979400000000012
 31
0.0
 12
-2.3916200000000174
 22
6.3179400000000001
 32
0.0
 13
-2.3916200000000174
 23
6.5979400000000012
 33
0.0
  0
SOLID
  5
12B
100
AcDbEntity
  8
None
370
              15
390
0
  6
Continuous
 62
               7
100
AcDbTrace
 10
-3.0816200000000151
 20
5.817930000000004
 30
0.0
 11
-3.0816200000000151
 21
6.0979299999999981
 31
0.0
 12
-2.3916200000000174
 22
5.817930000000004
 32
0.0
 13
-2.3916200000000174
 23
6.0979299999999981
 33
0.0
  0
SOLID
  5
12C
100
AcDbEntity
  8
None
370
              15
390
0
  6
Continuous
 62
               7
100
AcDbTrace
 10
-3.0816200000000151
 20
5.3179400000000001
 30
0.0
 11
-3.0816200000000151
 21
5.5979299999999981
 31
0.0
 12
-2.3916200000000174
 22
5.3179400000000001
 32
0.0
 13
-2.3916200000000174
 23
5.5979299999999981
 33
0.0
  0
SOLID
  5
12D
100
AcDbEntity
  8
None
370
              15
390
0
  6
Continuous
 62
               7
100
AcDbTrace
 10
-3.0816200000000151
 20
4.817930000000004
 30
0.0
 11
-3.0816200000000151
 21
5.0979400000000012
 31
0.0
 12
-2.3916200000000174
 22
4.817930000000004
 32
0.0
 13
-2.3916200000000174
 23
5.0979400000000012
 33
0.0
  0
SOLID
  5
12E
100
AcDbEntity
  8
None
370
              15
390
0
  6
Continuous
 62
               7
100
AcDbTrace
 10
-3.0816200000000151
 20
4.317930000000004
 30
0.0
 11
-3.0816200000000151
 21
4.5979299999999981
 31
0.0
 12
-2.3916200000000174
 22
4.317930000000004
 32
0.0
 13
-2.3916200000000174
 23
4.5979299999999981
 33
0.0
  0
SOLID
  5
12F
100
AcDbEntity
  8
None
370
              15
390
0
  6
Continuous
 62
               7
100
AcDbTrace
 10
-3.0816200000000151
 20
3.8179400000000001
 30
0.0
 11
-3.0816200000000151
 21
4.0979400000000012
 31
0.0
 12
-2.3916200000000174
 22
3.8179400000000001
 32
0.0
 13
-2.3916200000000174
 23
4.0979400000000012
 33
0.0
  0
SOLID
  5
130
100
AcDbEntity
  8
None
370
              15
390
0
  6
Continuous
 62
               7
100
AcDbTrace
 10
-3.0816200000000151
 20
3.3179299999999969
 30
0.0
 11
-3.0816200000000151
 21
3.5979299999999981
 31
0.0
 12
-2.3916200000000174
 22
3.3179299999999969
 32
0.0
 13
-2.3916200000000174
 23
3.5979299999999981
 33
0.0
  0
SOLID
  5
131
100
AcDbEntity
  8
None
370
              15
390
0
  6
Continuous
 62
               7
100
AcDbTrace
 10
-3.0816200000000151
 20
2.8179400000000001
 30
0.0
 11
-3.0816200000000151
 21
3.0979299999999981
 31
0.0
 12
-2.3916200000000174
 22
2.8179400000000001
 32
0.0
 13
-2.3916200000000174
 23
3.0979299999999981
 33
0.0
  0
SOLID
  5
132
100
AcDbEntity
  8
None
370
              15
390
0
  6
Continuous
 62
               7
100
AcDbTrace
 10
-3.0816200000000151
 20
2.3179299999999969
 30
0.0
 11
-3.0816200000000151
 21
2.5979400000000012
 31
0.0
 12
-2.3916200000000174
 22
2.3179299999999969
 32
0.0
 13
-2.3916200000000174
 23
2.5979400000000012
 33
0.0
  0
SOLID
  5
133
100
AcDbEntity
  8
None
370
              15
390
0
  6
Continuous
 62
               7
100
AcDbTrace
 10
-3.0816200000000151
 20
1.8179299999999969
 30
0.0
 11
-3.0816200000000151
 21
2.0979299999999981
 31
0.0
 12
-2.3916200000000174
 22
1.8179299999999969
 32
0.0
 13
-2.3916200000000174
 23
2.0979299999999981
 33
0.0
  0
SOLID
  5
134
100
AcDbEntity
  8
None
370
              15
390
0
  6
Continuous
 62
               7
100
AcDbTrace
 10
-3.0816200000000151
 20
1.3179400000000001
 30
0.0
 11
-3.0816200000000151
 21
1.5979299999999981
 31
0.0
 12
-2.3916200000000174
 22
1.3179400000000001
 32
0.0
 13
-2.3916200000000174
 23
1.5979299999999981
 33
0.0
  0
SOLID
  5
135
100
AcDbEntity
  8
None
370
              15
390
0
  6
Continuous
 62
               7
100
AcDbTrace
 10
-3.0816200000000151
 20
0.8179299999999969
 30
0.0
 11
-3.0816200000000151
 21
1.0979299999999981
 31
0.0
 12
-2.3916200000000174
 22
0.8179299999999969
 32
0.0
 13
-2.3916200000000174
 23
1.0979299999999981
 33
0.0
  0
SOLID
  5
136
100
AcDbEntity
  8
None
370
              15
390
0
  6
Continuous
 62
               7
100
AcDbTrace
 10
-3.0816200000000151
 20
0.3179299999999969
 30
0.0
 11
-3.0816200000000151
 21
0.5979299999999981
 31
0.0
 12
-2.3916200000000174
 22
0.3179299999999969
 32
0.0
 13
-2.3916200000000174
 23
0.5979299999999981
 33
0.0
  0
SOLID
  5
137
100
AcDbEntity
  8
None
370
              15
390
0
  6
Continuous
 62
               7
100
AcDbTrace
 10
6.5883800000000008
 20
8.3179299999999969
 30
0.0
 11
6.5883800000000008
 21
8.5979299999999981
 31
0.0
 12
7.2783799999999985
 22
8.3179299999999969
 32
0.0
 13
7.2783799999999985
 23
8.5979299999999981
 33
0.0
  0
SOLID
  5
138
100
AcDbEntity
  8
None
370
              15
390
0
  6
Continuous
 62
               7
100
AcDbTrace
 10
6.5883800000000008
 20
7.8179400000000001
 30
0.0
 11
6.5883800000000008
 21
8.0979299999999981
 31
0.0
 12
7.2783799999999985
 22
7.8179400000000001
 32
0.0
 13
7.2783799999999985
 23
8.0979299999999981
 33
0.0
  0
SOLID
  5
139
100
AcDbEntity
  8
None
370
              15
390
0
  6
Continuous
 62
               7
100
AcDbTrace
 10
6.5883800000000008
 20
7.317930000000004
 30
0.0
 11
6.5883800000000008
 21
7.5979400000000012
 31
0.0
 12
7.2783799999999985
 22
7.317930000000004
 32
0.0
 13
7.2783799999999985
 23
7.5979400000000012
 33
0.0
  0
SOLID
  5
13A
100
AcDbEntity
  8
None
370
              15
390
0
  6
Continuous
 62
               7
100
AcDbTrace
 10
6.5883800000000008
 20
6.8179299999999969
 30
0.0
 11
6.5883800000000008
 21
7.0979299999999981
 31
0.0
 12
7.2783799999999985
 22
6.8179299999999969
 32
0.0
 13
7.2783799999999985
 23
7.0979299999999981
 33
0.0
  0
SOLID
  5
13B
100
AcDbEntity
  8
None
370
              15
390
0
  6
Continuous
 62
               7
100
AcDbTrace
 10
6.5883800000000008
 20
6.3179400000000001
 30
0.0
 11
6.5883800000000008
 21
6.5979400000000012
 31
0.0
 12
7.2783799999999985
 22
6.3179400000000001
 32
0.0
 13
7.2783799999999985
 23
6.5979400000000012
 33
0.0
  0
SOLID
  5
13C
100
AcDbEntity
  8
None
370
              15
390
0
  6
Continuous
 62
               7
100
AcDbTrace
 10
6.5883800000000008
 20
5.817930000000004
 30
0.0
 11
6.5883800000000008
 21
6.0979299999999981
 31
0.0
 12
7.2783799999999985
 22
5.817930000000004
 32
0.0
 13
7.2783799999999985
 23
6.0979299999999981
 33
0.0
  0
SOLID
  5
13D
100
AcDbEntity
  8
None
370
              15
390
0
  6
Continuous
 62
               7
100
AcDbTrace
 10
6.5883800000000008
 20
5.3179400000000001
 30
0.0
 11
6.5883800000000008
 21
5.5979299999999981
 31
0.0
 12
7.2783799999999985
 22
5.3179400000000001
 32
0.0
 13
7.2783799999999985
 23
5.5979299999999981
 33
0.0
  0
SOLID
  5
13E
100
AcDbEntity
  8
None
370
              15
390
0
  6
Continuous
 62
               7
100
AcDbTrace
 10
6.5883800000000008
 20
4.817930000000004
 30
0.0
 11
6.5883800000000008
 21
5.0979400000000012
 31
0.0
 12
7.2783799999999985
 22
4.817930000000004
 32
0.0
 13
7.2783799999999985
 23
5.0979400000000012
 33
0.0
  0
SOLID
  5
13F
100
AcDbEntity
  8
None
370
              15
390
0
  6
Continuous
 62
               7
100
AcDbTrace
 10
6.5883800000000008
 20
4.317930000000004
 30
0.0
 11
6.5883800000000008
 21
4.5979299999999981
 31
0.0
 12
7.2783799999999985
 22
4.317930000000004
 32
0.0
 13
7.2783799999999985
 23
4.5979299999999981
 33
0.0
  0
SOLID
  5
140
100
AcDbEntity
  8
None
370
              15
390
0
  6
Continuous
 62
               7
100
AcDbTrace
 10
6.5883800000000008
 20
3.8179400000000001
 30
0.0
 11
6.5883800000000008
 21
4.0979400000000012
 31
0.0
 12
7.2783799999999985
 22
3.8179400000000001
 32
0.0
 13
7.2783799999999985
 23
4.0979400000000012
 33
0.0
  0
SOLID
  5
141
100
AcDbEntity
  8
None
370
              15
390
0
  6
Continuous
 62
               7
100
AcDbTrace
 10
6.5883800000000008
 20
3.3179299999999969
 30
0.0
 11
6.5883800000000008
 21
3.5979299999999981
 31
0.0
 12
7.2783799999999985
 22
3.3179299999999969
 32
0.0
 13
7.2783799999999985
 23
3.5979299999999981
 33
0.0
  0
SOLID
  5
142
100
AcDbEntity
  8
None
370
              15
390
0
  6
Continuous
 62
               7
100
AcDbTrace
 10
6.5883800000000008
 20
2.8179400000000001
 30
0.0
 11
6.5883800000000008
 21
3.0979299999999981
 31
0.0
 12
7.2783799999999985
 22
2.8179400000000001
 32
0.0
 13
7.2783799999999985
 23
3.0979299999999981
 33
0.0
  0
SOLID
  5
143
100
AcDbEntity
  8
None
370
              15
390
0
  6
Continuous
 62
               7
100
AcDbTrace
 10
6.5883800000000008
 20
2.3179299999999969
 30
0.0
 11
6.5883800000000008
 21
2.5979400000000012
 31
0.0
 12
7.2783799999999985
 22
2.3179299999999969
 32
0.0
 13
7.2783799999999985
 23
2.5979400000000012
 33
0.0
  0
SOLID
  5
144
100
AcDbEntity
  8
None
370
              15
390
0
  6
Continuous
 62
               7
100
AcDbTrace
 10
6.5883800000000008
 20
1.8179299999999969
 30
0.0
 11
6.5883800000000008
 21
2.0979299999999981
 31
0.0
 12
7.2783799999999985
 22
1.8179299999999969
 32
0.0
 13
7.2783799999999985
 23
2.0979299999999981
 33
0.0
  0
SOLID
  5
145
100
AcDbEntity
  8
None
370
              15
390
0
  6
Continuous
 62
               7
100
AcDbTrace
 10
6.5883800000000008
 20
1.3179400000000001
 30
0.0
 11
6.5883800000000008
 21
1.5979299999999981
 31
0.0
 12
7.2783799999999985
 22
1.3179400000000001
 32
0.0
 13
7.2783799999999985
 23
1.5979299999999981
 33
0.0
  0
SOLID
  5
146
100
AcDbEntity
  8
None
370
              15
390
0
  6
Continuous
 62
               7
100
AcDbTrace
 10
6.5883800000000008
 20
0.8179299999999969
 30
0.0
 11
6.5883800000000008
 21
1.0979299999999981
 31
0.0
 12
7.2783799999999985
 22
0.8179299999999969
 32
0.0
 13
7.2783799999999985
 23
1.0979299999999981
 33
0.0
  0
SOLID
  5
147
100
AcDbEntity
  8
None
370
              15
390
0
  6
Continuous
 62
               7
100
AcDbTrace
 10
6.5883800000000008
 20
0.3179299999999969
 30
0.0
 11
6.5883800000000008
 21
0.5979299999999981
 31
0.0
 12
7.2783799999999985
 22
0.3179299999999969
 32
0.0
 13
7.2783799999999985
 23
0.5979299999999981
 33
0.0
  0
SOLID
  5
148
100
AcDbEntity
  8
None
370
              15
390
0
  6
Continuous
 62
               7
100
AcDbTrace
 10
-1.7916200000000231
 20
9.1979299999999995
 30
0.0
 11
-1.7916200000000231
 21
9.8879400000000004
 31
0.0
 12
-1.5116200000000219
 22
9.1979299999999995
 32
0.0
 13
-1.5116200000000219
 23
9.8879400000000004
 33
0.0
  0
SOLID
  5
149
100
AcDbEntity
  8
None
370
              15
390
0
  6
Continuous
 62
               7
100
AcDbTrace
 10
-1.2916200000000231
 20
9.1979299999999995
 30
0.0
 11
-1.2916200000000231
 21
9.8879400000000004
 31
0.0
 12
-1.0116200000000219
 22
9.1979299999999995
 32
0.0
 13
-1.0116200000000219
 23
9.8879400000000004
 33
0.0
  0
SOLID
  5
14A
100
AcDbEntity
  8
None
370
              15
390
0
  6
Continuous
 62
               7
100
AcDbTrace
 10
-0.7916200000000231
 20
9.1979299999999995
 30
0.0
 11
-0.7916200000000231
 21
9.8879400000000004
 31
0.0
 12
-0.511620000000022
 22
9.1979299999999995
 32
0.0
 13
-0.511620000000022
 23
9.8879400000000004
 33
0.0
  0
SOLID
  5
14B
100
AcDbEntity
  8
None
370
              15
390
0
  6
Continuous
 62
               7
100
AcDbTrace
 10
-0.2916200000000231
 20
9.1979299999999995
 30
0.0
 11
-0.2916200000000231
 21
9.8879400000000004
 31
0.0
 12
-0.0116200000000219
 22
9.1979299999999995
 32
0.0
 13
-0.0116200000000219
 23
9.8879400000000004
 33
0.0
  0
SOLID
  5
14C
100
AcDbEntity
  8
None
370
              15
390
0
  6
Continuous
 62
               7
100
AcDbTrace
 10
0.2083799999999769
 20
9.1979299999999995
 30
0.0
 11
0.2083799999999769
 21
9.8879400000000004
 31
0.0
 12
0.4883799999999781
 22
9.1979299999999995
 32
0.0
 13
0.4883799999999781
 23
9.8879400000000004
 33
0.0
  0
SOLID
  5
14D
100
AcDbEntity
  8
None
370
              15
390
0
  6
Continuous
 62
               7
100
AcDbTrace
 10
0.7083799999999769
 20
9.1979299999999995
 30
0.0
 11
0.7083799999999769
 21
9.8879400000000004
 31
0.0
 12
0.9883799999999781
 22
9.1979299999999995
 32
0.0
 13
0.9883799999999781
 23
9.8879400000000004
 33
0.0
  0
SOLID
  5
14E
100
AcDbEntity
  8
None
370
              15
390
0
  6
Continuous
 62
               7
100
AcDbTrace
 10
1.2083799999999769
 20
9.1979299999999995
 30
0.0
 11
1.2083799999999769
 21
9.8879400000000004
 31
0.0
 12
1.4883799999999781
 22
9.1979299999999995
 32
0.0
 13
1.4883799999999781
 23
9.8879400000000004
 33
0.0
  0
SOLID
  5
14F
100
AcDbEntity
  8
None
370
              15
390
0
  6
Continuous
 62
               7
100
AcDbTrace
 10
1.7083799999999769
 20
9.1979299999999995
 30
0.0
 11
1.7083799999999769
 21
9.8879400000000004
 31
0.0
 12
1.9883799999999781
 22
9.1979299999999995
 32
0.0
 13
1.9883799999999781
 23
9.8879400000000004
 33
0.0
  0
SOLID
  5
150
100
AcDbEntity
  8
None
370
              15
390
0
  6
Continuous
 62
               7
100
AcDbTrace
 10
2.2083799999999769
 20
9.1979299999999995
 30
0.0
 11
2.2083799999999769
 21
9.8879400000000004
 31
0.0
 12
2.4883799999999781
 22
9.1979299999999995
 32
0.0
 13
2.4883799999999781
 23
9.8879400000000004
 33
0.0
  0
SOLID
  5
151
100
AcDbEntity
  8
None
370
              15
390
0
  6
Continuous
 62
               7
100
AcDbTrace
 10
2.7083799999999769
 20
9.1979299999999995
 30
0.0
 11
2.7083799999999769
 21
9.8879400000000004
 31
0.0
 12
2.9883799999999781
 22
9.1979299999999995
 32
0.0
 13
2.9883799999999781
 23
9.8879400000000004
 33
0.0
  0
SOLID
  5
152
100
AcDbEntity
  8
None
370
              15
390
0
  6
Continuous
 62
               7
100
AcDbTrace
 10
3.2083799999999769
 20
9.1979299999999995
 30
0.0
 11
3.2083799999999769
 21
9.8879400000000004
 31
0.0
 12
3.4883799999999781
 22
9.1979299999999995
 32
0.0
 13
3.4883799999999781
 23
9.8879400000000004
 33
0.0
  0
SOLID
  5
153
100
AcDbEntity
  8
None
370
              15
390
0
  6
Continuous
 62
               7
100
AcDbTrace
 10
3.7083799999999769
 20
9.1979299999999995
 30
0.0
 11
3.7083799999999769
 21
9.8879400000000004
 31
0.0
 12
3.9883799999999781
 22
9.1979299999999995
 32
0.0
 13
3.9883799999999781
 23
9.8879400000000004
 33
0.0
  0
SOLID
  5
154
100
AcDbEntity
  8
None
370
              15
390
0
  6
Continuous
 62
               7
100
AcDbTrace
 10
4.2083799999999769
 20
9.1979299999999995
 30
0.0
 11
4.2083799999999769
 21
9.8879400000000004
 31
0.0
 12
4.4883799999999781
 22
9.1979299999999995
 32
0.0
 13
4.4883799999999781
 23
9.8879400000000004
 33
0.0
  0
SOLID
  5
155
100
AcDbEntity
  8
None
370
              15
390
0
  6
Continuous
 62
               7
100
AcDbTrace
 10
4.7083799999999769
 20
9.1979299999999995
 30
0.0
 11
4.7083799999999769
 21
9.8879400000000004
 31
0.0
 12
4.9883799999999781
 22
9.1979299999999995
 32
0.0
 13
4.9883799999999781
 23
9.8879400000000004
 33
0.0
  0
SOLID
  5
156
100
AcDbEntity
  8
None
370
              15
390
0
  6
Continuous
 62
               7
100
AcDbTrace
 10
5.2083799999999769
 20
9.1979299999999995
 30
0.0
 11
5.2083799999999769
 21
9.8879400000000004
 31
0.0
 12
5.4883799999999781
 22
9.1979299999999995
 32
0.0
 13
5.4883799999999781
 23
9.8879400000000004
 33
0.0
  0
SOLID
  5
157
100
AcDbEntity
  8
None
370
              15
390
0
  6
Continuous
 62
               7
100
AcDbTrace
 10
5.7083799999999769
 20
9.1979299999999995
 30
0.0
 11
5.7083799999999769
 21
9.8879400000000004
 31
0.0
 12
5.9883799999999781
 22
9.1979299999999995
 32
0.0
 13
5.9883799999999781
 23
9.8879400000000004
 33
0.0
  0
SOLID
  5
158
100
AcDbEntity
  8
None
370
              15
390
0
  6
Continuous
 62
               7
100
AcDbTrace
 10
6.2083799999999769
 20
9.1979299999999995
 30
0.0
 11
6.2083799999999769
 21
9.8879400000000004
 31
0.0
 12
6.4883799999999781
 22
9.1979299999999995
 32
0.0
 13
6.4883799999999781
 23
9.8879400000000004
 33
0.0
  0
SOLID
  5
159
100
AcDbEntity
  8
None
370
              15
390
0
  6
Continuous
 62
               7
100
AcDbTrace
 10
-1.2916200000000231
 20
-0.4720599999999919
 30
0.0
 11
-1.2916200000000231
 21
0.2179300000000026
 31
0.0
 12
-1.0116200000000219
 22
-0.4720599999999919
 32
0.0
 13
-1.0116200000000219
 23
0.2179300000000026
 33
0.0
  0
SOLID
  5
15A
100
AcDbEntity
  8
None
370
              15
390
0
  6
Continuous
 62
               7
100
AcDbTrace
 10
-0.7916200000000231
 20
-0.4720599999999919
 30
0.0
 11
-0.7916200000000231
 21
0.2179300000000026
 31
0.0
 12
-0.511620000000022
 22
-0.4720599999999919
 32
0.0
 13
-0.511620000000022
 23
0.2179300000000026
 33
0.0
  0
SOLID
  5
15B
100
AcDbEntity
  8
None
370
              15
390
0
  6
Continuous
 62
               7
100
AcDbTrace
 10
-0.2916200000000231
 20
-0.4720599999999919
 30
0.0
 11
-0.2916200000000231
 21
0.2179300000000026
 31
0.0
 12
-0.0116200000000219
 22
-0.4720599999999919
 32
0.0
 13
-0.0116200000000219
 23
0.2179300000000026
 33
0.0
  0
SOLID
  5
15C
100
AcDbEntity
  8
None
370
              15
390
0
  6
Continuous
 62
               7
100
AcDbTrace
 10
0.2083799999999769
 20
-0.4720599999999919
 30
0.0
 11
0.2083799999999769
 21
0.2179300000000026
 31
0.0
 12
0.4883799999999781
 22
-0.4720599999999919
 32
0.0
 13
0.4883799999999781
 23
0.2179300000000026
 33
0.0
  0
SOLID
  5
15D
100
AcDbEntity
  8
None
370
              15
390
0
  6
Continuous
 62
               7
100
AcDbTrace
 10
0.7083799999999769
 20
-0.4720599999999919
 30
0.0
 11
0.7083799999999769
 21
0.2179300000000026
 31
0.0
 12
0.9883799999999781
 22
-0.4720599999999919
 32
0.0
 13
0.9883799999999781
 23
0.2179300000000026
 33
0.0
  0
SOLID
  5
15E
100
AcDbEntity
  8
None
370
              15
390
0
  6
Continuous
 62
               7
100
AcDbTrace
 10
1.2083799999999769
 20
-0.4720599999999919
 30
0.0
 11
1.2083799999999769
 21
0.2179300000000026
 31
0.0
 12
1.4883799999999781
 22
-0.4720599999999919
 32
0.0
 13
1.4883799999999781
 23
0.2179300000000026
 33
0.0
  0
SOLID
  5
15F
100
AcDbEntity
  8
None
370
              15
390
0
  6
Continuous
 62
               7
100
AcDbTrace
 10
1.7083799999999769
 20
-0.4720599999999919
 30
0.0
 11
1.7083799999999769
 21
0.2179300000000026
 31
0.0
 12
1.9883799999999781
 22
-0.4720599999999919
 32
0.0
 13
1.9883799999999781
 23
0.2179300000000026
 33
0.0
  0
SOLID
  5
160
100
AcDbEntity
  8
None
370
              15
390
0
  6
Continuous
 62
               7
100
AcDbTrace
 10
2.2083799999999769
 20
-0.4720599999999919
 30
0.0
 11
2.2083799999999769
 21
0.2179300000000026
 31
0.0
 12
2.4883799999999781
 22
-0.4720599999999919
 32
0.0
 13
2.4883799999999781
 23
0.2179300000000026
 33
0.0
  0
SOLID
  5
161
100
AcDbEntity
  8
None
370
              15
390
0
  6
Continuous
 62
               7
100
AcDbTrace
 10
2.7083799999999769
 20
-0.4720599999999919
 30
0.0
 11
2.7083799999999769
 21
0.2179300000000026
 31
0.0
 12
2.9883799999999781
 22
-0.4720599999999919
 32
0.0
 13
2.9883799999999781
 23
0.2179300000000026
 33
0.0
  0
SOLID
  5
162
100
AcDbEntity
  8
None
370
              15
390
0
  6
Continuous
 62
               7
100
AcDbTrace
 10
3.2083799999999769
 20
-0.4720599999999919
 30
0.0
 11
3.2083799999999769
 21
0.2179300000000026
 31
0.0
 12
3.4883799999999781
 22
-0.4720599999999919
 32
0.0
 13
3.4883799999999781
 23
0.2179300000000026
 33
0.0
  0
SOLID
  5
163
100
AcDbEntity
  8
None
370
              15
390
0
  6
Continuous
 62
               7
100
AcDbTrace
 10
3.7083799999999769
 20
-0.4720599999999919
 30
0.0
 11
3.7083799999999769
 21
0.2179300000000026
 31
0.0
 12
3.9883799999999781
 22
-0.4720599999999919
 32
0.0
 13
3.9883799999999781
 23
0.2179300000000026
 33
0.0
  0
SOLID
  5
164
100
AcDbEntity
  8
None
370
              15
390
0
  6
Continuous
 62
               7
100
AcDbTrace
 10
4.2083799999999769
 20
-0.4720599999999919
 30
0.0
 11
4.2083799999999769
 21
0.2179300000000026
 31
0.0
 12
4.4883799999999781
 22
-0.4720599999999919
 32
0.0
 13
4.4883799999999781
 23
0.2179300000000026
 33
0.0
  0
SOLID
  5
165
100
AcDbEntity
  8
None
370
              15
390
0
  6
Continuous
 62
               7
100
AcDbTrace
 10
4.7083799999999769
 20
-0.4720599999999919
 30
0.0
 11
4.7083799999999769
 21
0.2179300000000026
 31
0.0
 12
4.9883799999999781
 22
-0.4720599999999919
 32
0.0
 13
4.9883799999999781
 23
0.2179300000000026
 33
0.0
  0
SOLID
  5
166
100
AcDbEntity
  8
None
370
              15
390
0
  6
Continuous
 62
               7
100
AcDbTrace
 10
5.2083799999999769
 20
-0.4720599999999919
 30
0.0
 11
5.2083799999999769
 21
0.2179300000000026
 31
0.0
 12
5.4883799999999781
 22
-0.4720599999999919
 32
0.0
 13
5.4883799999999781
 23
0.2179300000000026
 33
0.0
  0
SOLID
  5
167
100
AcDbEntity
  8
None
370
              15
390
0
  6
Continuous
 62
               7
100
AcDbTrace
 10
5.7083799999999769
 20
-0.4720599999999919
 30
0.0
 11
5.7083799999999769
 21
0.2179300000000026
 31
0.0
 12
5.9883799999999781
 22
-0.4720599999999919
 32
0.0
 13
5.9883799999999781
 23
0.2179300000000026
 33
0.0
  0
SOLID
  5
168
100
AcDbEntity
  8
None
370
              15
390
0
  6
Continuous
 62
               7
100
AcDbTrace
 10
6.2083799999999769
 20
-0.4720599999999919
 30
0.0
 11
6.2083799999999769
 21
0.2179300000000026
 31
0.0
 12
6.4883799999999781
 22
-0.4720599999999919
 32
0.0
 13
6.4883799999999781
 23
0.2179300000000026
 33
0.0
  0
SOLID
  5
169
100
AcDbEntity
  8
None
370
              15
390
0
  6
Continuous
 62
               7
100
AcDbTrace
 10
-2.2916200000000231
 20
-0.4720599999999919
 30
0.0
 11
-2.2916200000000231
 21
0.2179300000000026
 31
0.0
 12
-2.0116200000000219
 22
-0.4720599999999919
 32
0.0
 13
-2.0116200000000219
 23
0.2179300000000026
 33
0.0
  0
SOLID
  5
16A
100
AcDbEntity
  8
None
370
              15
390
0
  6
Continuous
 62
               7
100
AcDbTrace
 10
-1.7916200000000231
 20
-0.4720599999999919
 30
0.0
 11
-1.7916200000000231
 21
0.2179300000000026
 31
0.0
 12
-1.5116200000000219
 22
-0.4720599999999919
 32
0.0
 13
-1.5116200000000219
 23
0.2179300000000026
 33
0.0
  0
POLYLINE
  5
16B
102
{ACAD_REACTORS
330
171
102
}
100
AcDbEntity
  8
None
370
               9
390
0
  6
Continuous
 62
               7
100
AcDb2dPolyline
 66
               1
 10
0.0
 20
0.0
 30
0.0
 70
               1
 75
               5
  0
VERTEX
  5
16C
100
AcDbEntity
  8
None
370
               9
390
0
  6
Continuous
 62
               7
100
AcDbVertex
100
AcDb2dVertex
 10
-2.1916200000000003
 20
8.9979399999999998
 30
0.0
  0
VERTEX
  5
16D
100
AcDbEntity
  8
None
370
               9
390
0
  6
Continuous
 62
               7
100
AcDbVertex
100
AcDb2dVertex
 10
6.3883799999999837
 20
8.9979399999999998
 30
0.0
  0
VERTEX
  5
16E
100
AcDbEntity
  8
None
370
               9
390
0
  6
Continuous
 62
               7
100
AcDbVertex
100
AcDb2dVertex
 10
6.3883799999999837
 20
0.4179400000000086
 30
0.0
  0
VERTEX
  5
16F
100
AcDbEntity
  8
None
370
               9
390
0
  6
Continuous
 62
               7
100
AcDbVertex
100
AcDb2dVertex
 10
-2.1916200000000003
 20
0.4179400000000086
 30
0.0
  0
SEQEND
  5
170
100
AcDbEntity
  8
None
370
               9
390
0
  6
Continuous
 62
               7
  0
HATCH
  5
171
100
AcDbEntity
  8
None
370
               0
390
0
  6
Continuous
 62
             253
100
AcDbHatch
 10
0.0
 20
0.0
 30
0.0
210
0.0
220
0.0
230
1.0
  2
SOLID
 70
               1
 71
               1
 91
        1
 92
        1
 93
        4
 72
               1
 10
-2.1916200000000003
 20
8.9979399999999998
 11
6.3883799999999837
 21
8.9979399999999998
 72
               1
 10
6.3883799999999837
 20
8.9979399999999998
 11
6.3883799999999837
 21
0.4179400000000086
 72
               1
 10
6.3883799999999837
 20
0.4179400000000086
 11
-2.1916200000000003
 21
0.4179400000000086
 72
               1
 10
-2.1916200000000003
 20
0.4179400000000086
 11
-2.1916200000000003
 21
8.9979399999999998
 97
        1
330
16B
 75
               0
 76
               1
 98
        1
 10
0.0
 20
0.0
  0
ENDBLK
  5
172
100
AcDbEntity
  8
None
390
0
100
AcDbBlockEnd
  0
BLOCK
  5
173
100
AcDbEntity
  8
Dimension
390
0
100
AcDbBlockBegin
  2
Group-1
 70
               0
 10
0.0
 20
0.0
 30
0.0
  3
Group-1
  1

  0
LINE
  5
174
100
AcDbEntity
  8
None
370
               5
390
0
  6
Continuous
 62
               1
100
AcDbLine
 10
1.2233799999999917
 20
4.7079400000000007
 30
0.0
 11
2.4733799999999917
 21
4.7079400000000007
 31
0.0
  0
LINE
  5
175
100
AcDbEntity
  8
None
370
               5
390
0
  6
Continuous
 62
               1
100
AcDbLine
 10
1.8483799999999917
 20
4.0829400000000007
 30
0.0
 11
1.8483799999999917
 21
5.3329400000000007
 31
0.0
  0
LINE
  5
176
100
AcDbEntity
  8
None
370
               5
390
0
  6
Continuous
 62
               1
100
AcDbLine
 10
-6.5141200000000197
 20
4.7079400000000007
 30
0.0
 11
0.7233799999999917
 21
4.7079400000000007
 31
0.0
  0
LINE
  5
177
100
AcDbEntity
  8
None
370
               5
390
0
  6
Continuous
 62
               1
100
AcDbLine
 10
2.9733799999999917
 20
4.7079400000000007
 30
0.0
 11
10.210880000000003
 21
4.7079400000000007
 31
0.0
  0
LINE
  5
178
100
AcDbEntity
  8
None
370
               5
390
0
  6
Continuous
 62
               1
100
AcDbLine
 10
1.8483799999999917
 20
13.070439999999998
 30
0.0
 11
1.8483799999999917
 21
5.8329400000000007
 31
0.0
  0
LINE
  5
179
100
AcDbEntity
  8
None
370
               5
390
0
  6
Continuous
 62
               1
100
AcDbLine
 10
1.8483799999999917
 20
3.5829400000000007
 30
0.0
 11
1.8483799999999917
 21
-3.6545599999999965
 31
0.0
  0
ENDBLK
  5
17A
100
AcDbEntity
  8
Dimension
390
0
100
AcDbBlockEnd
  0
ENDSEC
  0
SECTION
  2
ENTITIES
  0
WIPEOUT
  5
17B
100
AcDbEntity
  8
None
370
               9
390
0
  6
STYLE_11
 62
               7
 92
        0
100
AcDbWipeout
 90
        0
 10
-5.7641200000000197
 20
-2.9045599999999965
 30
0.0
 11
15.225000000000023
 21
0.0
 31
0.0
 12
0.0
 22
15.225000000000023
 32
0.0
 13
1.0
 23
1.0
340
0
 70
               7
280
               1
281
              50
282
              50
283
               0
360
0
 71
               2
 91
        5
 14
-0.5
 24
-0.4999999999999981
 14
0.5
 24
-0.4999999999999981
 14
0.5
 24
0.5
 14
-0.5
 24
0.5
 14
-0.5
 24
-0.4999999999999981
  0
POLYLINE
  5
17C
100
AcDbEntity
  8
None
370
               9
390
0
  6
STYLE_11
 62
               7
100
AcDb2dPolyline
 66
               1
 10
0.0
 20
0.0
 30
0.0
 70
               1
 75
               5
  0
VERTEX
  5
17D
100
AcDbEntity
  8
None
370
               9
390
0
  6
STYLE_11
 62
               7
100
AcDbVertex
100
AcDb2dVertex
 10
-5.7641200000000197
 20
12.320439999999998
 30
0.0
  0
VERTEX
  5
17E
100
AcDbEntity
  8
None
370
               9
390
0
  6
STYLE_11
 62
               7
100
AcDbVertex
100
AcDb2dVertex
 10
9.4608800000000031
 20
12.320439999999998
 30
0.0
  0
VERTEX
  5
17F
100
AcDbEntity
  8
None
370
               9
390
0
  6
STYLE_11
 62
               7
100
AcDbVertex
100
AcDb2dVertex
 10
9.4608800000000031
 20
-2.9045599999999965
 30
0.0
  0
VERTEX
  5
180
100
AcDbEntity
  8
None
370
               9
390
0
  6
STYLE_11
 62
               7
100
AcDbVertex
100
AcDb2dVertex
 10
-5.7641200000000197
 20
-2.9045599999999965
 30
0.0
  0
SEQEND
  5
181
100
AcDbEntity
  8
None
370
               9
390
0
  6
STYLE_11
 62
               7
  0
CIRCLE
  5
182
100
AcDbEntity
  8
None
370
               9
390
0
  6
Continuous
 62
               7
100
AcDbCircle
 10
-4.5141200000000197
 20
11.070439999999998
 30
0.0
 40
0.8050000000000068
  0
CIRCLE
  5
183
100
AcDbEntity
  8
None
370
               9
390
0
  6
Continuous
 62
               7
100
AcDbCircle
 10
8.2108800000000031
 20
8.5304400000000058
 30
0.0
 40
0.4249999999999972
  0
CIRCLE
  5
184
100
AcDbEntity
  8
None
370
               9
390
0
  6
Continuous
 62
               7
100
AcDbCircle
 10
8.2108800000000031
 20
11.070439999999998
 30
0.0
 40
0.8050000000000068
  0
CIRCLE
  5
185
100
AcDbEntity
  8
None
370
               9
390
0
  6
Continuous
 62
               7
100
AcDbCircle
 10
8.2108800000000031
 20
-1.6545599999999965
 30
0.0
 40
0.8050000000000068
  0
CIRCLE
  5
186
100
AcDbEntity
  8
None
370
               9
390
0
  6
Continuous
 62
               7
100
AcDbCircle
 10
-4.5141200000000197
 20
3.4254400000000018
 30
0.0
 40
0.4249999999999972
  0
CIRCLE
  5
187
100
AcDbEntity
  8
None
370
               9
390
0
  6
Continuous
 62
               7
100
AcDbCircle
 10
-4.5141200000000197
 20
-1.6545599999999965
 30
0.0
 40
0.8050000000000068
  0
CIRCLE
  5
188
102
{ACAD_REACTORS
330
189
102
}
100
AcDbEntity
  8
None
370
               5
390
0
  6
Continuous
 62
               7
100
AcDbCircle
 10
-2.3891200000000197
 20
10.645440000000001
 30
0.0
 40
0.2124400000000009
  0
HATCH
  5
189
100
AcDbEntity
  8
None
370
               0
390
0
  6
Continuous
 62
               7
100
AcDbHatch
 10
0.0
 20
0.0
 30
0.0
210
0.0
220
0.0
230
1.0
  2
SOLID
 70
               1
 71
               1
 91
        1
 92
        1
 93
        1
 72
               2
 10
-2.3891200000000197
 20
10.645440000000001
 40
0.2124400000000009
 50
0.0
 51
360.0
 73
               0
 97
        1
330
188
 75
               0
 76
               1
 98
        1
 10
0.0
 20
0.0
  0
WIPEOUT
  5
18A
100
AcDbEntity
  8
None
370
               5
390
0
  6
Continuous
 62
               1
 92
        0
100
AcDbWipeout
 90
        0
 10
-30.0
 20
3.0561704999999968
 30
0.0
 11
5.4186498002462429
 21
0.0
 31
0.0
 12
0.0
 22
5.4186498002462429
 32
0.0
 13
1.0
 23
1.0
340
0
 70
               7
280
               1
281
              50
282
              50
283
               0
360
0
 71
               2
 91
        5
 14
-0.5
 24
0.4999999999999999
 14
0.4999999999999993
 24
0.4999999999999999
 14
0.4999999999999993
 24
0.275390633300441
 14
-0.5
 24
0.275390633300441
 14
-0.5
 24
0.4999999999999999
  0
MTEXT
  5
18B
100
AcDbEntity
  8
None
390
0
 62
               1
100
AcDbMText
 10
-30.0
 20
4.0786716197916641
 30
0.0
 40
0.7579186197916666
 41
0.0
 71
               1
 72
               1
  1
{\C192;\lSocket size}
  7
New Century Schlbk
 73
               1
 44
0.9673603504928806
  0
WIPEOUT
  5
18C
100
AcDbEntity
  8
None
370
               5
390
0
  6
Continuous
 62
               1
 92
        0
100
AcDbWipeout
 90
        0
 10
-23.567229999999995
 20
20.782920499999999
 30
0.0
 11
7.8422253988126727
 21
0.0
 31
0.0
 12
0.0
 22
7.8422253988126727
 32
0.0
 13
1.0
 23
1.0
340
0
 70
               7
280
               1
281
              50
282
              50
283
               0
360
0
 71
               2
 91
        5
 14
-0.5
 24
0.5
 14
0.5000000000000004
 24
0.5
 14
0.5000000000000004
 24
0.3448043204440071
 14
-0.5
 24
0.3448043204440071
 14
-0.5
 24
0.5
  0
MTEXT
  5
18D
100
AcDbEntity
  8
None
390
0
 62
               1
100
AcDbMText
 10
-23.567229999999995
 20
21.805421619791666
 30
0.0
 40
0.7579186197916666
 41
0.0
 71
               1
 72
               1
  1
{\C192;\lOrientation Mark}
  7
New Century Schlbk
 73
               1
 44
0.9673603504928806
  0
WIPEOUT
  5
18E
100
AcDbEntity
  8
None
370
               5
390
0
  6
Continuous
 62
               1
 92
        0
100
AcDbWipeout
 90
        0
 10
15.661759999999987
 20
-6.2374094999999947
 30
0.0
 11
12.117878889991573
 21
0.0
 31
0.0
 12
0.0
 22
12.117878889991573
 32
0.0
 13
1.0
 23
1.0
340
0
 70
               7
280
               1
281
              50
282
              50
283
               0
360
0
 71
               2
 91
        5
 14
-0.5
 24
0.5
 14
0.4999999999999997
 24
0.5
 14
0.4999999999999997
 24
0.3995633220096618
 14
-0.5
 24
0.3995633220096618
 14
-0.5
 24
0.5
  0
MTEXT
  5
18F
100
AcDbEntity
  8
None
390
0
 62
               1
100
AcDbMText
 10
15.661759999999987
 20
-5.2149083802083274
 30
0.0
 40
0.7579186197916666
 41
0.0
 71
               1
 72
               1
  1
{\C192;\lNon plated mounting hole}
  7
Arial
 73
               1
 44
0.9673603504928806
  0
WIPEOUT
  5
190
100
AcDbEntity
  8
None
370
               5
390
0
  6
Continuous
 62
               1
 92
        0
100
AcDbWipeout
 90
        0
 10
14.09781000000001
 20
2.3107804999999964
 30
0.0
 11
12.350711488082311
 21
0.0
 31
0.0
 12
0.0
 22
12.350711488082311
 32
0.0
 13
1.0
 23
1.0
340
0
 70
               7
280
               1
281
              50
282
              50
283
               0
360
0
 71
               2
 91
        5
 14
-0.5
 24
0.4999999999999999
 14
0.5000000000000007
 24
0.4999999999999999
 14
0.5000000000000007
 24
0.4014567297459415
 14
-0.5
 24
0.4014567297459415
 14
-0.5
 24
0.4999999999999999
  0
MTEXT
  5
191
100
AcDbEntity
  8
None
390
0
 62
               1
100
AcDbMText
 10
14.09781000000001
 20
3.3332816197916637
 30
0.0
 40
0.7579186197916666
 41
0.0
 71
               1
 72
               1
  1
{\C192;\lNon plated alignment hole}
  7
Arial
 73
               1
 44
0.9673603504928806
  0
DIMENSION
  5
192
100
AcDbEntity
  8
Dimension
370
               5
390
0
  6
Continuous
 62
               1
100
AcDbDimension
  2
*D3
 10
-4.5141200000000197
 20
18.503979999999999
 30
0.0
 11
0.1813899999999773
 21
18.503979999999999
 31
0.0
 70
             128
 71
               5
 72
               1
 41
1.0
 42
0.0
  3
IE Standard
100
AcDbAlignedDimension
 13
-2.2916200000000231
 23
9.8879400000000004
 33
0.0
 14
-4.5141200000000197
 24
11.070439999999998
 34
0.0
100
AcDbRotatedDimension
1001
ACAD
1000
DSTYLE
1002
{
1070
             271
1070
               2
1070
             340
1005
35
1070
               3
1000
<>mm*
1070
             174
1070
               0
1070
             147
1040
0.09921875
1002
}
  0
DIMENSION
  5
193
100
AcDbEntity
  8
Dimension
370
               5
390
0
  6
Continuous
 62
               1
100
AcDbDimension
  2
*D4
 10
-8.0034200000000091
 20
9.8879400000000004
 30
0.0
 11
-8.0034200000000091
 21
10.479208043518065
 31
0.0
 70
             128
 71
               5
 72
               1
 41
1.0
 42
0.0
  3
IE Standard
100
AcDbAlignedDimension
 13
-4.5141200000000197
 23
11.070439999999998
 33
0.0
 14
-2.1516200000000083
 24
9.8879400000000004
 34
0.0
 50
90.0
100
AcDbRotatedDimension
1001
ACAD
1000
DSTYLE
1002
{
1070
             271
1070
               2
1070
             340
1005
35
1070
             147
1040
0.09921875
1002
}
  0
DIMENSION
  5
194
100
AcDbEntity
  8
Dimension
370
               5
390
0
  6
Continuous
 62
               1
100
AcDbDimension
  2
*D5
 10
4.3483799999999917
 20
15.465440000000001
 30
0.0
 11
6.8833799999999918
 21
15.465440000000001
 31
0.0
 70
             128
 71
               5
 72
               1
 41
1.0
 42
0.0
  3
IE Standard
100
AcDbAlignedDimension
 13
4.8483799999999917
 23
9.8879400000000004
 33
0.0
 14
4.3483799999999917
 24
9.8879400000000004
 34
0.0
100
AcDbRotatedDimension
1001
ACAD
1000
DSTYLE
1002
{
1070
             271
1070
               2
1070
             340
1005
35
1070
               3
1000
<>mm typ.
1070
             174
1070
               0
1070
             147
1040
0.09921875
1002
}
  0
DIMENSION
  5
195
100
AcDbEntity
  8
Dimension
370
               5
390
0
  6
Continuous
 62
               1
100
AcDbDimension
  2
*D6
 10
-8.9402800000000191
 20
-1.6545599999999965
 30
0.0
 11
-8.9402800000000191
 21
1.84545892089844
 31
0.0
 70
             128
 71
               5
 72
               1
 41
1.0
 42
0.0
  3
IE Standard
100
AcDbAlignedDimension
 13
-4.5141200000000197
 23
3.4254400000000018
 33
0.0
 14
-4.5141200000000197
 24
-1.6545599999999965
 34
0.0
 50
90.0
100
AcDbRotatedDimension
1001
ACAD
1000
DSTYLE
1002
{
1070
             271
1070
               2
1070
             340
1005
35
1070
             147
1040
0.09921875
1002
}
  0
DIMENSION
  5
196
100
AcDbEntity
  8
Dimension
370
               5
390
0
  6
Continuous
 62
               1
100
AcDbDimension
  2
*D7
 10
13.407770000000003
 20
8.5304400000000058
 30
0.0
 11
13.407770000000003
 21
9.8004400000000018
 31
0.0
 70
             128
 71
               5
 72
               1
 41
1.0
 42
0.0
  3
IE Standard
100
AcDbAlignedDimension
 13
8.2108800000000031
 23
11.070439999999998
 33
0.0
 14
8.2108800000000031
 24
8.5304400000000058
 34
0.0
 50
90.0
100
AcDbRotatedDimension
1001
ACAD
1000
DSTYLE
1002
{
1070
             271
1070
               2
1070
             340
1005
35
1070
             147
1040
0.09921875
1002
}
  0
DIMENSION
  5
197
100
AcDbEntity
  8
Dimension
370
               5
390
0
  6
Continuous
 62
               1
100
AcDbDimension
  2
*D8
 10
-4.5141200000000197
 20
-12.384559999999995
 30
0.0
 11
1.8283806866454997
 21
-12.384559999999995
 31
0.0
 70
             128
 71
               5
 72
               1
 41
1.0
 42
0.0
  3
IE Standard
100
AcDbAlignedDimension
 13
8.2108800000000031
 23
-1.6545599999999965
 33
0.0
 14
-4.5141200000000197
 24
-1.6545599999999965
 34
0.0
100
AcDbRotatedDimension
1001
ACAD
1000
DSTYLE
1002
{
1070
             271
1070
               3
1070
             340
1005
35
1070
              71
1070
               1
1070
              47
1040
0.125
1070
              48
1040
0.125
1070
               3
1000
<>mm (x4)
1070
             147
1040
0.09921875
1002
}
  0
DIMENSION
  5
198
100
AcDbEntity
  8
Dimension
370
               5
390
0
  6
Continuous
 62
               1
100
AcDbDimension
  2
*D9
 10
6.5683799999999906
 20
2.6229400000000069
 30
0.0
 11
14.353027685574183
 21
-0.1559871730181346
 31
0.0
 70
               3
 71
               5
 72
               1
 41
1.0
 42
0.0
  1
0.69 x 0.28 mm 
  3
IE Standard
100
AcDbDiametricDimension
 15
7.3033799999999758
 25
2.2979400000000041
 35
0.0
 40
6.0679799999999995
1001
ACAD
1000
DSTYLE
1002
{
1070
             271
1070
               4
1070
             172
1070
               0
1070
             289
1070
               0
1070
             342
1005
4A
1070
             340
1005
35
1070
              75
1070
               1
1070
              76
1070
               1
1070
             174
1070
               0
1070
             147
1040
0.09921875
1002
}
  0
DIMENSION
  5
199
100
AcDbEntity
  8
Dimension
370
               5
390
0
  6
Continuous
 62
               1
100
AcDbDimension
  2
*D10
 10
-3.0816200000000151
 20
-8.7845600000000008
 30
0.0
 11
2.3030949658203044
 21
-8.7845600000000008
 31
0.0
 70
             128
 71
               5
 72
               1
 41
1.0
 42
0.0
  3
IE Standard
100
AcDbAlignedDimension
 13
7.2783799999999985
 23
0.3179299999999969
 33
0.0
 14
-3.0816200000000151
 24
0.4579299999999975
 34
0.0
100
AcDbRotatedDimension
1001
ACAD
1000
DSTYLE
1002
{
1070
             271
1070
               2
1070
             340
1005
35
1070
             147
1040
0.09921875
1002
}
  0
DIMENSION
  5
19A
100
AcDbEntity
  8
Dimension
370
               5
390
0
  6
Continuous
 62
               1
100
AcDbDimension
  2
*D11
 10
-17.471619999999994
 20
9.8879400000000004
 30
0.0
 11
-17.471619999999994
 21
4.2182048925781297
 31
0.0
 70
             128
 71
               5
 72
               1
 41
1.0
 42
0.0
  3
IE Standard
100
AcDbAlignedDimension
 13
-2.2916199999999947
 23
-0.4720599999999919
 33
0.0
 14
-2.2916199999999947
 24
9.8879400000000004
 34
0.0
 50
90.0
100
AcDbRotatedDimension
1001
ACAD
1000
DSTYLE
1002
{
1070
             271
1070
               2
1070
             340
1005
35
1070
             147
1040
0.09921875
1002
}
  0
DIMENSION
  5
19B
100
AcDbEntity
  8
Dimension
370
               5
390
0
  6
Continuous
 62
               1
100
AcDbDimension
  2
*D12
 10
-12.021620000000015
 20
9.0979400000000012
 30
0.0
 11
-12.021620000000015
 21
4.536048512725829
 31
0.0
 70
             128
 71
               5
 72
               1
 41
1.0
 42
0.0
  3
IE Standard
100
AcDbAlignedDimension
 13
-3.0816200000000151
 23
0.3179299999999969
 33
0.0
 14
-3.0816200000000151
 24
9.0979400000000012
 34
0.0
 50
90.0
100
AcDbRotatedDimension
1001
ACAD
1000
DSTYLE
1002
{
1070
             271
1070
               2
1070
             340
1005
35
1070
             147
1040
0.09921875
1002
}
  0
DIMENSION
  5
19C
100
AcDbEntity
  8
Dimension
370
               5
390
0
  6
Continuous
 62
               1
100
AcDbDimension
  2
*D13
 10
-2.2916199999999947
 20
-5.9923999999999911
 30
0.0
 11
2.0630113476562419
 21
-5.9923999999999911
 31
0.0
 70
             128
 71
               5
 72
               1
 41
1.0
 42
0.0
  3
IE Standard
100
AcDbAlignedDimension
 13
6.4883799999999781
 23
-0.4720599999999919
 33
0.0
 14
-2.2916199999999947
 24
-0.4720599999999919
 34
0.0
100
AcDbRotatedDimension
1001
ACAD
1000
DSTYLE
1002
{
1070
             271
1070
               2
1070
             340
1005
35
1070
             147
1040
0.09921875
1002
}
  0
DIMENSION
  5
19D
100
AcDbEntity
  8
Dimension
370
               5
390
0
  6
Continuous
 62
               1
100
AcDbDimension
  2
*D14
 10
-4.5141200000000197
 20
20.86544
 30
0.0
 11
-2.52162000000002
 21
20.86544
 31
0.0
 70
             128
 71
               5
 72
               1
 41
1.0
 42
0.0
  3
IE Standard
100
AcDbAlignedDimension
 13
-5.7641200000000197
 23
12.320439999999998
 33
0.0
 14
-4.5141200000000197
 24
11.070439999999998
 34
0.0
100
AcDbRotatedDimension
1001
ACAD
1000
DSTYLE
1002
{
1070
             271
1070
               3
1070
             340
1005
35
1070
              71
1070
               1
1070
              47
1040
0.125
1070
              48
1040
0.125
1070
               3
1000
<>mm (x4)
1070
             174
1070
               0
1070
             147
1040
0.09921875
1002
}
  0
DIMENSION
  5
19E
100
AcDbEntity
  8
Dimension
370
               5
390
0
  6
Continuous
 62
               1
100
AcDbDimension
  2
*D15
 10
-16.121620000000021
 20
12.320439999999998
 30
0.0
 11
-16.121620000000021
 21
15.115439999999998
 31
0.0
 70
             128
 71
               5
 72
               1
 41
1.0
 42
0.0
  3
IE Standard
100
AcDbAlignedDimension
 13
-4.5141200000000197
 23
11.070439999999998
 33
0.0
 14
-5.7641200000000197
 24
12.320439999999998
 34
0.0
 50
90.0
100
AcDbRotatedDimension
1001
ACAD
1000
DSTYLE
1002
{
1070
             271
1070
               2
1070
             340
1005
35
1070
              71
1070
               1
1070
              47
1040
0.125
1070
              48
1040
0.125
1070
               3
1000
<>mm (x4)
1070
             174
1070
               0
1070
             147
1040
0.09921875
1002
}
  0
LINE
  5
19F
100
AcDbEntity
  8
None
370
               5
390
0
  6
Continuous
 62
               1
100
AcDbLine
 10
-13.221620000000001
 20
21.391460000000002
 30
0.0
 11
-2.3891200000000197
 21
10.857880000000002
 31
0.0
  0
SOLID
  5
1A0
100
AcDbEntity
  8
None
370
               5
390
0
 62
               1
100
AcDbTrace
 10
-2.3891200000000197
 20
10.857880000000002
 30
0.0
 11
-2.8446776366869226
 21
11.120896324172575
 31
0.0
 12
-2.6521363241725928
 22
11.313437636686904
 32
0.0
 13
-2.6521363241725928
 23
11.313437636686904
 33
0.0
  0
DIMENSION
  5
1A1
100
AcDbEntity
  8
Dimension
370
               5
390
0
  6
Continuous
 62
               1
100
AcDbDimension
  2
*D16
 10
7.4522199999999827
 20
-1.3853700000000018
 30
0.0
 11
16.244970195312675
 21
-3.9730064011722099
 31
0.0
 70
               3
 71
               5
 72
               1
 41
1.0
 42
0.0
  3
IE Standard
100
AcDbDiametricDimension
 15
8.969539999999995
 25
-1.9237499999999912
 35
0.0
 40
6.1282199999999998
1001
ACAD
1000
DSTYLE
1002
{
1070
             271
1070
               3
1070
             172
1070
               0
1070
             289
1070
               0
1070
             342
1005
4A
1070
             340
1005
35
1070
              75
1070
               1
1070
              76
1070
               1
1070
              71
1070
               1
1070
              47
1040
0.05
1070
              48
1040
0.05
1070
               3
1000
mm (x4)
1070
             174
1070
               0
1070
             147
1040
0.09921875
1002
}
  0
DIMENSION
  5
1A2
100
AcDbEntity
  8
Dimension
370
               5
390
0
  6
Continuous
 62
               1
100
AcDbDimension
  2
*D17
 10
7.8745600000000024
 20
8.7902699999999996
 30
0.0
 11
14.778386028840428
 21
4.615445737246441
 31
0.0
 70
               3
 71
               5
 72
               1
 41
1.0
 42
0.0
  3
IE Standard
100
AcDbDiametricDimension
 15
8.5472000000000037
 25
8.2706099999999978
 35
0.0
 40
5.9786599999999996
1001
ACAD
1000
DSTYLE
1002
{
1070
             271
1070
               3
1070
             172
1070
               0
1070
             289
1070
               0
1070
             342
1005
4A
1070
             340
1005
35
1070
              75
1070
               1
1070
              76
1070
               1
1070
              71
1070
               1
1070
              47
1040
0.025
1070
              48
1040
0.025
1070
               3
1000
mm (x2)
1070
             174
1070
               0
1070
             147
1040
0.09921875
1002
}
  0
WIPEOUT
  5
1A3
100
AcDbEntity
  8
None
370
               5
390
0
  6
Continuous
 62
               1
 92
        0
100
AcDbWipeout
 90
        0
 10
23.588380000000001
 20
-0.7516394999999925
 30
0.0
 11
4.7730682608602564
 21
0.0
 31
0.0
 12
0.0
 22
4.7730682608602564
 32
0.0
 13
1.0
 23
1.0
340
0
 70
               7
280
               1
281
              50
282
              50
283
               0
360
0
 71
               2
 91
        5
 14
-0.5
 24
0.4999999999999999
 14
0.4999999999999992
 24
0.4999999999999999
 14
0.4999999999999992
 24
0.2450110843835607
 14
-0.5
 24
0.2450110843835607
 14
-0.5
 24
0.4999999999999999
  0
MTEXT
  5
1A4
100
AcDbEntity
  8
None
390
0
 62
               1
100
AcDbMText
 10
23.588380000000001
 20
0.2708616197916747
 30
0.0
 40
0.7579186197916666
 41
0.0
 71
               1
 72
               1
  1
{\C192;\lpad (x 72)}
  7
Arial
 73
               1
 44
0.9673603504928806
  0
WIPEOUT
  5
1A5
100
AcDbEntity
  8
None
370
               5
390
0
  6
Continuous
 62
               7
 92
        0
100
AcDbWipeout
 90
        0
 10
-0.1137700000000166
 20
-16.104557999999997
 30
0.0
 11
4.4567370387441656
 21
0.0
 31
0.0
 12
0.0
 22
4.4567370387441656
 32
0.0
 13
1.0
 23
1.0
340
0
 70
               7
280
               1
281
              50
282
              50
283
               0
360
0
 71
               2
 91
        5
 14
-0.5
 24
0.5
 14
0.4999999999999996
 24
0.5
 14
0.4999999999999996
 24
0.196569937098856
 14
-0.5
 24
0.196569937098856
 14
-0.5
 24
0.5
  0
MTEXT
  5
1A6
100
AcDbEntity
  8
None
390
0
 62
               7
100
AcDbMText
 10
-0.1137700000000166
 20
-14.968447791666664
 30
0.0
 40
0.8421302083333332
 41
0.0
 71
               1
 72
               1
  1
MLF72A
  7
Arial
 73
               1
 44
0.9673603504928806
  0
LINE
  5
1A7
100
AcDbEntity
  8
None
370
               9
390
0
  6
Continuous
 62
               1
100
AcDbLine
 10
19.924189999999982
 20
-13.292059999999999
 30
0.0
 11
13.969609999999989
 21
-13.292059999999999
 31
0.0
  0
WIPEOUT
  5
1A8
100
AcDbEntity
  8
None
370
               9
390
0
  6
Continuous
 62
               1
 92
        0
100
AcDbWipeout
 90
        0
 10
19.824189999999987
 20
-13.900599499999995
 30
0.0
 11
17.674111670669561
 21
0.0
 31
0.0
 12
0.0
 22
17.674111670669561
 32
0.0
 13
1.0
 23
1.0
340
0
 70
               7
280
               1
281
              50
282
              50
283
               0
360
0
 71
               2
 91
        5
 14
-0.5
 24
0.5
 14
0.5
 24
0.5
 14
0.5
 24
0.4311377271639761
 14
-0.5
 24
0.4311377271639761
 14
-0.5
 24
0.5
  0
MTEXT
  5
1A9
100
AcDbEntity
  8
None
390
0
 62
               1
100
AcDbMText
 10
19.824189999999987
 20
-12.878098380208328
 30
0.0
 40
0.7579186197916666
 41
0.0
 71
               1
 72
               1
  1
{\C192;\l8.58mm x 8.58mm thermal /GND pad}
  7
Arial
 73
               1
 44
0.9673603504928806
  0
INSERT
  5
1AA
100
AcDbEntity
  8
None
390
0
 62
               7
100
AcDbBlockReference
  2
Group
 10
0.0
 20
0.0
 30
0.0
  0
INSERT
  5
1AB
100
AcDbEntity
  8
Dimension
390
0
 62
               7
100
AcDbBlockReference
  2
Group-1
 10
0.0
 20
0.0
 30
0.0
  0
LINE
  5
1AC
100
AcDbEntity
  8
None
370
               9
390
0
  6
Continuous
 62
               1
100
AcDbLine
 10
13.969609999999989
 20
-13.292059999999999
 30
0.0
 11
5.0073900000000151
 21
1.6152000000000086
 31
0.0
  0
SOLID
  5
1AD
100
AcDbEntity
  8
None
370
               9
390
0
 62
               1
100
AcDbTrace
 10
5.0073900000000151
 20
1.6152000000000086
 30
0.0
 11
5.5985078177235579
 21
1.0443641588359287
 31
0.0
 12
5.2338951261961828
 22
0.8252827512994853
 32
0.0
 13
5.2338951261961828
 23
0.8252827512994853
 33
0.0
  0
ENDSEC
  0
SECTION
  2
OBJECTS
  0
DICTIONARY
  5
19
100
AcDbDictionary
280
               0
281
               1
  3
ACAD_GROUP
350
1A
  3
ACAD_MLINESTYLE
350
1B
  3
ACAD_LAYOUT
350
1E
  3
ACAD_PLOTSETTINGS
350
22
  3
ACAD_PLOTSTYLENAME
350
1F
  3
ACAD_WIPEOUT_VARS
350
23
  0
DICTIONARY
  5
1A
102
{ACAD_REACTORS
330
19
102
}
100
AcDbDictionary
280
               0
281
               1
  0
DICTIONARY
  5
1B
102
{ACAD_REACTORS
330
19
102
}
100
AcDbDictionary
280
               0
281
               1
  3
Standard
350
1C
  0
MLINESTYLE
  5
1C
102
{ACAD_REACTORS
330
1B
102
}
100
AcDbMlineStyle
  2
Standard
 70
               0
  3

 62
               0
 51
90.0
 52
90.0
 71
               2
 49
0.5
 62
             256
  6
ByLayer
 49
-0.5
 62
             256
  6
ByLayer
  0
ACDBDICTIONARYWDFLT
  5
1F
102
{ACAD_REACTORS
330
19
102
}
100
AcDbDictionary
281
               1
  3
Normal
350
1D
100
AcDbDictionaryWithDefault
340
1D
  0
ACDBPLACEHOLDER
  5
1D
102
{ACAD_REACTORS
330
1F
102
}
  0
LAYOUT
  5
20
102
{ACAD_REACTORS
330
1E
102
}
100
AcDbPlotSettings
  1

  2

  4

  6

 40
0.0
 41
0.0
 42
0.0
 43
0.0
 44
0.0
 45
0.0
 46
0.0
 47
0.0
 48
0.0
 49
0.0
140
0.0
141
0.0
142
1.0
143
1.0
 70
            1024
 72
               0
 73
               0
 74
               0
  7

 75
               0
147
1.0
148
0.0
149
0.0
100
AcDbLayout
  1
Model
 70
               0
 71
               0
 10
0.0
 20
0.0
 11
0.0
 21
0.0
 12
0.0
 22
0.0
 32
0.0
 14
0.0
 24
0.0
 34
0.0
 15
0.0
 25
0.0
 35
0.0
146
0.0
 13
0.0
 23
0.0
 33
0.0
 16
0.0
 26
0.0
 36
0.0
 17
0.0
 27
0.0
 37
0.0
 76
               0
330
A
331
0
345
0
346
0
  0
LAYOUT
  5
21
102
{ACAD_REACTORS
330
1E
102
}
100
AcDbPlotSettings
  1

  2

  4

  6

 40
0.0
 41
0.0
 42
0.0
 43
0.0
 44
0.0
 45
0.0
 46
0.0
 47
0.0
 48
0.0
 49
0.0
140
0.0
141
0.0
142
1.0
143
1.0
 70
               0
 72
               0
 73
               0
 74
               0
  7

 75
               0
147
1.0
148
0.0
149
0.0
100
AcDbLayout
  1
Layout1
 70
               0
 71
               0
 10
0.0
 20
0.0
 11
0.0
 21
0.0
 12
0.0
 22
0.0
 32
0.0
 14
0.0
 24
0.0
 34
0.0
 15
0.0
 25
0.0
 35
0.0
146
0.0
 13
0.0
 23
0.0
 33
0.0
 16
0.0
 26
0.0
 36
0.0
 17
0.0
 27
0.0
 37
0.0
 76
               0
330
B
331
0
345
0
346
0
  0
DICTIONARY
  5
1E
102
{ACAD_REACTORS
330
19
102
}
100
AcDbDictionary
280
               0
281
               1
  3
Layout1
350
21
  3
Model
350
20
  0
DICTIONARY
  5
22
102
{ACAD_REACTORS
330
19
102
}
100
AcDbDictionary
280
               0
281
               1
  0
WIPEOUTVARIABLES
  5
23
100
AcDbWipeoutVariables
 70
               0
  0
ENDSEC
  0
EOF
