  0
SECTION
  2
HEADER
  9
$ACADVER
  1
AC1015
  9
$ACADMAINTVER
 70
               6
  9
$DWGCODEPAGE
  3
ANSI_1252
  9
$INSBASE
 10
0.0
 20
0.0
 30
0.0
  9
$EXTMIN
 10
-34.000000000000014
 20
-14.104557999999997
 30
-0.34925
  9
$EXTMAX
 10
33.351824090622358
 20
24.0
 30
0.34925
  9
$LIMMIN
 10
0.0
 20
0.0
  9
$LIMMAX
 10
0.0
 20
0.0
  9
$ORTHOMODE
 70
               0
  9
$REGENMODE
 70
               1
  9
$FILLMODE
 70
               1
  9
$QTEXTMODE
 70
               0
  9
$MIRRTEXT
 70
               1
  9
$LTSCALE
 40
1.27
  9
$ATTMODE
 70
               1
  9
$TEXTSIZE
 40
0.2
  9
$TRACEWID
 40
1.0
  9
$TEXTSTYLE
  7
Standard
  9
$CLAYER
  8
None
  9
$CELTYPE
  6
Continuous
  9
$CECOLOR
 62
             256
  9
$CELTSCALE
 40
1.0
  9
$DISPSILH
 70
               0
  9
$DIMSCALE
 40
1.0
  9
$DIMASZ
 40
0.5612060546875
  9
$DIMEXO
 40
0.396875
  9
$DIMDLI
 40
10.16
  9
$DIMRND
 40
0.0
  9
$DIMDLE
 40
1.5874999999999999
  9
$DIMEXE
 40
0.79375
  9
$DIMTP
 40
0.0
  9
$DIMTM
 40
0.0
  9
$DIMTXT
 40
0.7579186197916666
  9
$DIMCEN
 40
0.0
  9
$DIMTSZ
 40
0.0
  9
$DIMTOL
 70
               0
  9
$DIMLIM
 70
               0
  9
$DIMTIH
 70
               0
  9
$DIMTOH
 70
               0
  9
$DIMSE1
 70
               0
  9
$DIMSE2
 70
               0
  9
$DIMTAD
 70
               1
  9
$DIMZIN
 70
              11
  9
$DIMBLK
  1
VW_SLASH
  9
$DIMASO
 70
               1
  9
$DIMSHO
 70
               1
  9
$DIMPOST
  1
<>mm
  9
$DIMAPOST
  1
[]
  9
$DIMALT
 70
               0
  9
$DIMALTD
 70
               1
  9
$DIMALTF
 40
1.0
  9
$DIMLFAC
 40
1.0
  9
$DIMTOFL
 70
               1
  9
$DIMTVP
 40
0.0
  9
$DIMTIX
 70
               1
  9
$DIMSOXD
 70
               0
  9
$DIMSAH
 70
               0
  9
$DIMBLK1
  1

  9
$DIMBLK2
  1

  9
$DIMSTYLE
  2
Arch
  9
$DIMCLRD
 70
               0
  9
$DIMCLRE
 70
               0
  9
$DIMCLRT
 70
               0
  9
$DIMTFAC
 40
1.0
  9
$DIMGAP
 40
1.5874999999999999
  9
$DIMJUST
 70
               0
  9
$DIMSD1
 70
               0
  9
$DIMSD2
 70
               0
  9
$DIMTOLJ
 70
               1
  9
$DIMTZIN
 70
              11
  9
$DIMALTZ
 70
              11
  9
$DIMALTTZ
 70
              11
  9
$DIMUPT
 70
               0
  9
$DIMDEC
 70
               1
  9
$DIMTDEC
 70
               1
  9
$DIMALTU
 70
               2
  9
$DIMALTTD
 70
               2
  9
$DIMTXSTY
  7
Helvetica
  9
$DIMAUNIT
 70
               0
  9
$DIMADEC
 70
               2
  9
$DIMALTRND
 40
0.0
  9
$DIMAZIN
 70
               0
  9
$DIMDSEP
 70
              46
  9
$DIMATFIT
 70
               0
  9
$DIMFRAC
 70
               2
  9
$DIMLDRBLK
  1

  9
$DIMLUNIT
 70
               2
  9
$DIMLWD
 70
              -2
  9
$DIMLWE
 70
              -2
  9
$DIMTMOVE
 70
               0
  9
$LUNITS
 70
               2
  9
$LUPREC
 70
               4
  9
$SKETCHINC
 40
0.1
  9
$FILLETRAD
 40
0.0
  9
$AUNITS
 70
               0
  9
$AUPREC
 70
               0
  9
$MENU
  1
acad
  9
$ELEVATION
 40
0.0
  9
$PELEVATION
 40
0.0
  9
$THICKNESS
 40
0.0
  9
$LIMCHECK
 70
               0
  9
$CHAMFERA
 40
0.0
  9
$CHAMFERB
 40
0.0
  9
$CHAMFERC
 40
0.0
  9
$CHAMFERD
 40
0.0
  9
$SKPOLY
 70
               0
  9
$TDCREATE
 40
2454963.589270833
  9
$TDUCREATE
 40
0.000000000
  9
$TDUPDATE
 40
2454963.589270833
  9
$TDUUPDATE
 40
0.000000000
  9
$TDINDWG
 40
0.0000000000
  9
$TDUSRTIMER
 40
0.0000000000
  9
$USRTIMER
 70
               1
  9
$ANGBASE
 50
0.0
  9
$ANGDIR
 70
               0
  9
$PDMODE
 70
               1
  9
$PDSIZE
 40
-2.0
  9
$PLINEWID
 40
0.0
  9
$SPLFRAME
 70
               0
  9
$SPLINETYPE
 70
               6
  9
$SPLINESEGS
 70
               8
  9
$HANDSEED
  5
1D9
  9
$SURFTAB1
 70
               6
  9
$SURFTAB2
 70
               6
  9
$SURFTYPE
 70
               6
  9
$SURFU
 70
               6
  9
$SURFV
 70
               6
  9
$UCSBASE
  2

  9
$UCSNAME
  2

  9
$UCSORG
 10
0.0
 20
0.0
 30
0.0
  9
$UCSXDIR
 10
1.0
 20
0.0
 30
0.0
  9
$UCSYDIR
 10
0.0
 20
1.0
 30
0.0
  9
$UCSORTHOREF
  2

  9
$UCSORTHOVIEW
 70
               0
  9
$UCSORGTOP
 10
0.0
 20
0.0
 30
0.0
  9
$UCSORGBOTTOM
 10
0.0
 20
0.0
 30
0.0
  9
$UCSORGLEFT
 10
0.0
 20
0.0
 30
0.0
  9
$UCSORGRIGHT
 10
0.0
 20
0.0
 30
0.0
  9
$UCSORGFRONT
 10
0.0
 20
0.0
 30
0.0
  9
$UCSORGBACK
 10
0.0
 20
0.0
 30
0.0
  9
$PUCSBASE
  2

  9
$PUCSNAME
  2

  9
$PUCSORG
 10
0.0
 20
0.0
 30
0.0
  9
$PUCSXDIR
 10
1.0
 20
0.0
 30
0.0
  9
$PUCSYDIR
 10
0.0
 20
1.0
 30
0.0
  9
$PUCSORTHOREF
  2

  9
$PUCSORTHOVIEW
 70
               0
  9
$PUCSORGTOP
 10
0.0
 20
0.0
 30
0.0
  9
$PUCSORGBOTTOM
 10
0.0
 20
0.0
 30
0.0
  9
$PUCSORGLEFT
 10
0.0
 20
0.0
 30
0.0
  9
$PUCSORGRIGHT
 10
0.0
 20
0.0
 30
0.0
  9
$PUCSORGFRONT
 10
0.0
 20
0.0
 30
0.0
  9
$PUCSORGBACK
 10
0.0
 20
0.0
 30
0.0
  9
$USERI1
 70
               0
  9
$USERI2
 70
               0
  9
$USERI3
 70
               0
  9
$USERI4
 70
               0
  9
$USERI5
 70
               0
  9
$USERR1
 40
0.0
  9
$USERR2
 40
0.0
  9
$USERR3
 40
0.0
  9
$USERR4
 40
0.0
  9
$USERR5
 40
0.0
  9
$WORLDVIEW
 70
               1
  9
$SHADEDGE
 70
               3
  9
$SHADEDIF
 70
              70
  9
$TILEMODE
 70
               1
  9
$MAXACTVP
 70
              64
  9
$PINSBASE
 10
0.0
 20
0.0
 30
0.0
  9
$PLIMCHECK
 70
               0
  9
$PEXTMIN
 10
1.0000000000000000E+20
 20
1.0000000000000000E+20
 30
1.0000000000000000E+20
  9
$PEXTMAX
 10
-1.0000000000000000E+20
 20
-1.0000000000000000E+20
 30
-1.0000000000000000E+20
  9
$PLIMMIN
 10
0.0
 20
0.0
  9
$PLIMMAX
 10
12.0
 20
9.0
  9
$UNITMODE
 70
               0
  9
$VISRETAIN
 70
               0
  9
$PLINEGEN
 70
               1
  9
$PSLTSCALE
 70
               0
  9
$TREEDEPTH
 70
            3020
  9
$CMLSTYLE
  2
Standard
  9
$CMLJUST
 70
               0
  9
$CMLSCALE
 40
1.0
  9
$PROXYGRAPHICS
 70
               0
  9
$MEASUREMENT
 70
               1
  9
$CELWEIGHT
370
               0
  9
$ENDCAPS
280
               0
  9
$JOINSTYLE
280
               0
  9
$LWDISPLAY
290
               1
  9
$INSUNITS
 70
               4
  9
$HYPERLINKBASE
  1

  9
$STYLESHEET
  1

  9
$XEDIT
290
               1
  9
$CEPSNTYPE
380
               0
  9
$PSTYLEMODE
290
               1
  9
$FINGERPRINTGUID
  2

  9
$VERSIONGUID
  2

  9
$EXTNAMES
290
               1
  9
$PSVPSCALE
 40
0.0
  0
ENDSEC
  0
SECTION
  2
CLASSES
  0
CLASS
  1
LWPOLYLINE
  2
AcDbPolyline
  3
AutoCAD 2000
 90
        0
280
               0
281
               1
  0
CLASS
  1
IMAGE
  2
AcDbRasterImage
  3
ISM
 90
      127
280
               0
281
               1
  0
CLASS
  1
OLE2FRAME
  2
AcDbOle2Frame
  3
AutoCAD 2000
 90
        0
280
               0
281
               1
  0
CLASS
  1
HATCH
  2
AcDbHatch
  3
AutoCAD 2000
 90
        0
280
               0
281
               1
  0
CLASS
  1
DICTIONARYVAR
  2
AcDbDictionaryVar
  3
AutoCAD 2000
 90
        0
280
               0
281
               0
  0
CLASS
  1
RASTERVARIABLES
  2
AcDbRasterVariables
  3
ISM
 90
        0
280
               0
281
               0
  0
CLASS
  1
IMAGEDEF
  2
AcDbRasterImageDef
  3
ISM
 90
        0
280
               0
281
               0
  0
CLASS
  1
IMAGEDEF_REACTOR
  2
AcDbRasterImageDefReactor
  3
ISM
 90
        1
280
               0
281
               0
  0
CLASS
  1
IDBUFFER
  2
AcDbIdBuffer
  3
AutoCAD 2000
 90
        0
280
               0
281
               0
  0
CLASS
  1
SPATIAL_FILTER
  2
AcDbSpatialFilter
  3
AutoCAD 2000
 90
        0
280
               0
281
               0
  0
CLASS
  1
XRECORD
  2
AcDbXrecord
  3
AutoCAD 2000
 90
        0
280
               0
281
               0
  0
CLASS
  1
SORTENTSTABLE
  2
AcDbSortentsTable
  3
AutoCAD 2000
 90
        0
280
               0
281
               0
  0
CLASS
  1
LAYER_INDEX
  2
AcDbLayerIndex
  3
AutoCAD 2000
 90
        0
280
               0
281
               0
  0
CLASS
  1
SPATIAL_INDEX
  2
AcDbSpatialIndex
  3
AutoCAD 2000
 90
        0
280
               0
281
               0
  0
CLASS
  1
OBJECT_PTR
  2
CAseDLPNTableRecord
  3
"ASE-LPNTableRecord"
 90
        1
280
               0
281
               0
  0
CLASS
  1
LAYOUT
  2
AcDbLayout
  3
AutoCAD 2000
 90
        0
280
               0
281
               0
  0
CLASS
  1
PLOTSETTINGS
  2
AcDbPlotSettings
  3
AutoCAD 2000
 90
        0
280
               0
281
               0
  0
CLASS
  1
ACDBDICTIONARYWDFLT
  2
AcDbDictionaryWithDefault
  3
AutoCAD 2000
 90
        0
280
               0
281
               0
  0
CLASS
  1
ACDBPLACEHOLDER
  2
AcDbPlaceHolder
  3
AutoCAD 2000
 90
        0
280
               0
281
               0
  0
CLASS
  1
VBA_PROJECT
  2
AcDbVbaProject
  3
acadvba
 90
        0
280
               0
281
               0
  0
CLASS
  1
WIPEOUT
  2
AcDbWipeout
  3
WipeOut|AutoCAD Express Tool|expresstools@autodesk.com
 90
      127
280
               0
281
               1
  0
CLASS
  1
WIPEOUTVARIABLES
  2
AcDbWipeoutVariables
  3
WipeOut|AutoCAD Express Tool|expresstools@autodesk.com
 90
        0
280
               0
281
               0
  0
CLASS
  1
RTEXT
  2
RText
  3
RText|AutoCAD Express Tool|expresstools@autodesk.com
 90
        0
280
               0
281
               1
  0
CLASS
  1
ARCALIGNEDTEXT
  2
AcDbArcAlignedText
  3
ATEXT|AutoCAD Express Tool|expresstools@autodesk.com
 90
        0
280
               0
281
               1
  0
ENDSEC
  0
SECTION
  2
TABLES
  0
TABLE
  2
VPORT
  5
7
100
AcDbSymbolTable
 70
               1
  0
VPORT
  5
15
100
AcDbSymbolTableRecord
100
AcDbViewportTableRecord
  2
*ACTIVE
 70
               0
 10
0.0
 20
0.0
 11
1.0
 21
1.0
 12
-0.324087954688828
 22
4.9477210000000014
 13
0.0
 23
0.0
 14
1.0
 24
1.0
 15
0.0
 25
0.0
 16
0.0
 26
0.0
 36
1.0
 17
0.0
 27
0.0
 37
0.0
 40
38.104557999999997
 41
0.688564
 42
50.0
 43
0.0
 44
0.0
 50
0.0
 51
0.0
 71
               0
 72
            2000
 73
               1
 74
               1
 75
               0
 76
               0
 77
               0
 78
               0
281
               0
 65
               0
110
0.0
120
0.0
130
0.0
111
1.0
121
0.0
131
0.0
112
0.0
122
1.0
132
0.0
345
0
346
0
 79
               0
146
0.0
  0
ENDTAB
  0
TABLE
  2
LTYPE
  5
4
100
AcDbSymbolTable
 70
              14
  0
LTYPE
  5
11
100
AcDbSymbolTableRecord
100
AcDbLinetypeTableRecord
  2
ByBlock
 70
              64
  3

 72
              65
 73
               0
 40
0.0
  0
LTYPE
  5
12
100
AcDbSymbolTableRecord
100
AcDbLinetypeTableRecord
  2
ByLayer
 70
              64
  3

 72
              65
 73
               0
 40
0.0
  0
LTYPE
  5
13
100
AcDbSymbolTableRecord
100
AcDbLinetypeTableRecord
  2
Continuous
 70
              64
  3
Solid line
 72
              65
 73
               0
 40
0.0
  0
LTYPE
  5
39
100
AcDbSymbolTableRecord
100
AcDbLinetypeTableRecord
  2
STYLE_01
 70
               0
  3

 72
              65
 73
               2
 40
0.41664
 49
0.20828
 74
               0
 49
-0.20836
 74
               0
  0
LTYPE
  5
3A
100
AcDbSymbolTableRecord
100
AcDbLinetypeTableRecord
  2
STYLE_02
 70
               0
  3

 72
              65
 73
               2
 40
0.6944250000000001
 49
0.48607
 74
               0
 49
-0.2083550000000001
 74
               0
  0
LTYPE
  5
3B
100
AcDbSymbolTableRecord
100
AcDbLinetypeTableRecord
  2
STYLE_03
 70
               0
  3

 72
              65
 73
               2
 40
1.25
 49
1.0416400000000001
 74
               0
 49
-0.2083599999999999
 74
               0
  0
LTYPE
  5
3C
100
AcDbSymbolTableRecord
100
AcDbLinetypeTableRecord
  2
STYLE_04
 70
               0
  3

 72
              65
 73
               2
 40
1.5277099999999999
 49
1.3194249999999998
 74
               0
 49
-0.208285
 74
               0
  0
LTYPE
  5
3D
100
AcDbSymbolTableRecord
100
AcDbLinetypeTableRecord
  2
STYLE_05
 70
               0
  3

 72
              65
 73
               2
 40
0.20828
 49
0.069425
 74
               0
 49
-0.138855
 74
               0
  0
LTYPE
  5
3E
100
AcDbSymbolTableRecord
100
AcDbLinetypeTableRecord
  2
STYLE_06
 70
               0
  3

 72
              65
 73
               4
 40
1.0416400000000001
 49
0.625
 74
               0
 49
-0.20828
 74
               0
 49
0.06943
 74
               0
 49
-0.13893
 74
               0
  0
LTYPE
  5
3F
100
AcDbSymbolTableRecord
100
AcDbLinetypeTableRecord
  2
STYLE_07
 70
               0
  3

 72
              65
 73
               6
 40
1.875
 49
0.625
 74
               0
 49
-0.20828
 74
               0
 49
0.6250000000000001
 74
               0
 49
-0.2083599999999999
 74
               0
 49
0.06943
 74
               0
 49
-0.1389299999999999
 74
               0
  0
LTYPE
  5
40
100
AcDbSymbolTableRecord
100
AcDbLinetypeTableRecord
  2
STYLE_08
 70
               0
  3

 72
              65
 73
               6
 40
1.25
 49
0.625
 74
               0
 49
-0.20828
 74
               0
 49
0.06943
 74
               0
 49
-0.13893
 74
               0
 49
0.0694299999999999
 74
               0
 49
-0.13893
 74
               0
  0
LTYPE
  5
41
100
AcDbSymbolTableRecord
100
AcDbLinetypeTableRecord
  2
STYLE_09
 70
               0
  3

 72
              65
 73
               4
 40
5.0
 49
3.75
 74
               0
 49
-0.2777849999999998
 74
               0
 49
0.6944300000000003
 74
               0
 49
-0.2777849999999998
 74
               0
  0
LTYPE
  5
42
100
AcDbSymbolTableRecord
100
AcDbLinetypeTableRecord
  2
STYLE_10
 70
               0
  3

 72
              65
 73
               6
 40
5.9375
 49
3.75
 74
               0
 49
-0.2777849999999998
 74
               0
 49
0.6944300000000003
 74
               0
 49
-0.2777849999999998
 74
               0
 49
0.625
 74
               0
 49
-0.3125
 74
               0
  0
LTYPE
  5
43
100
AcDbSymbolTableRecord
100
AcDbLinetypeTableRecord
  2
STYLE_11
 70
               0
  3

 72
              65
 73
               2
 40
0.4166412353515625
 49
0.2777862548828125
 74
               0
 49
-0.13885498046875
 74
               0
  0
ENDTAB
  0
TABLE
  2
LAYER
  5
2
100
AcDbSymbolTable
 70
               4
  0
LAYER
  5
14
100
AcDbSymbolTableRecord
100
AcDbLayerTableRecord
  2
0
 70
               0
 62
               7
  6
Continuous
290
               1
370
              -3
390
1D
  0
LAYER
  5
44
100
AcDbSymbolTableRecord
100
AcDbLayerTableRecord
  2
Defpoints
 70
               0
 62
               7
  6
Continuous
290
               0
370
              -3
390
1D
  0
LAYER
  5
45
100
AcDbSymbolTableRecord
100
AcDbLayerTableRecord
  2
None
 70
               0
 62
               7
  6
Continuous
290
               1
370
               5
390
1D
  0
LAYER
  5
46
100
AcDbSymbolTableRecord
100
AcDbLayerTableRecord
  2
Dimension
 70
               0
 62
               7
  6
Continuous
290
               1
370
               5
390
1D
  0
ENDTAB
  0
TABLE
  2
STYLE
  5
3
100
AcDbSymbolTable
 70
               4
  0
STYLE
  5
17
100
AcDbSymbolTableRecord
100
AcDbTextStyleTableRecord
  2
Standard
 70
               0
 40
0.0
 41
1.0
 50
0.0
 71
               0
 42
0.0
  3
txt
  4

  0
STYLE
  5
36
100
AcDbSymbolTableRecord
100
AcDbTextStyleTableRecord
  2
Arial
 70
               0
 40
0.0
 41
1.0
 50
0.0
 71
               0
 42
0.0
  3
Arial
  4

1001
ACAD
1000
Arial
1071
        0
  0
STYLE
  5
37
100
AcDbSymbolTableRecord
100
AcDbTextStyleTableRecord
  2
Helvetica
 70
               0
 40
0.0
 41
1.0
 50
0.0
 71
               0
 42
0.0
  3
Helvetica
  4

1001
ACAD
1000
Helvetica
1071
        0
  0
STYLE
  5
38
100
AcDbSymbolTableRecord
100
AcDbTextStyleTableRecord
  2
New Century Schlbk
 70
               0
 40
0.0
 41
1.0
 50
0.0
 71
               0
 42
0.0
  3
New Century Schlbk
  4

1001
ACAD
1000
New Century Schlbk
1071
        0
  0
ENDTAB
  0
TABLE
  2
VIEW
  5
5
100
AcDbSymbolTable
 70
               0
  0
ENDTAB
  0
TABLE
  2
UCS
  5
6
100
AcDbSymbolTable
 70
               0
  0
ENDTAB
  0
TABLE
  2
APPID
  5
8
100
AcDbSymbolTable
 70
               1
  0
APPID
  5
16
100
AcDbSymbolTableRecord
100
AcDbRegAppTableRecord
  2
ACAD
 70
               0
  0
ENDTAB
  0
TABLE
  2
DIMSTYLE
  5
9
100
AcDbSymbolTable
 70
               3
100
AcDbDimStyleTable
 71
               0
  0
DIMSTYLE
105
18
100
AcDbSymbolTableRecord
100
AcDbDimStyleTableRecord
  2
Standard
 70
               0
  3

  4

 40
1.0
 41
0.18
 42
0.0625
 43
0.38
 44
0.18
 45
0.0
 46
0.0
 47
0.0
 48
0.0
 71
               0
 72
               0
 73
               1
 74
               1
 75
               0
 76
               0
 77
               0
 78
               0
 79
               0
140
0.18
141
0.09
142
0.0
143
25.399999999999999
144
1.0
145
0.0
146
1.0
147
0.09
148
0.0
170
               0
171
               2
172
               0
173
               0
174
               0
175
               0
176
               0
177
               0
178
               0
179
               0
271
               4
272
               4
273
               2
274
               2
275
               0
276
               0
277
               2
278
              46
279
               0
280
               0
281
               0
282
               0
283
               1
284
               0
285
               0
286
               0
288
               0
289
               3
340
17
341
0
342
0
343
0
344
0
371
              -2
372
              -2
  0
DIMSTYLE
105
4F
100
AcDbSymbolTableRecord
100
AcDbDimStyleTableRecord
  2
IE Standard
 70
               0
  3
<>mm
  4
[]
 40
1.0
 41
0.79375
 42
0.4762500011827797
 43
6.9999859934672708
 44
0.9525000023655593
 45
0.0
 46
0.0
 47
0.0
 48
0.0
 71
               0
 72
               0
 73
               1
 74
               1
 75
               0
 76
               0
 77
               0
 78
              11
 79
               0
140
0.7579186197916666
141
0.0
142
0.0
143
1.0
144
1.0
145
0.0
146
1.0
147
0.0
148
0.0
170
               0
171
               1
172
               1
173
               0
174
               1
175
               0
176
               0
177
               0
178
               0
179
               2
271
               1
272
               1
273
               2
274
               2
275
               0
276
               2
277
               2
278
              46
279
               0
280
               0
281
               0
282
               0
283
               1
284
              11
285
              11
286
              11
288
               0
289
               0
340
37
341
4B
342
47
343
0
344
0
371
              -2
372
              -2
  0
DIMSTYLE
105
55
100
AcDbSymbolTableRecord
100
AcDbDimStyleTableRecord
  2
Arch
 70
               0
  3
<>mm
  4
[]
 40
1.0
 41
0.5612060546875
 42
0.396875
 43
10.16
 44
0.79375
 45
0.0
 46
1.5874999999999999
 47
0.0
 48
0.0
 71
               0
 72
               0
 73
               0
 74
               0
 75
               0
 76
               0
 77
               1
 78
              11
 79
               0
140
0.7579186197916666
141
0.0
142
0.0
143
1.0
144
1.0
145
0.0
146
1.0
147
1.5874999999999999
148
0.0
170
               0
171
               1
172
               1
173
               0
174
               1
175
               0
176
               0
177
               0
178
               0
179
               2
271
               1
272
               1
273
               2
274
               2
275
               0
276
               2
277
               2
278
              46
279
               0
280
               0
281
               0
282
               0
283
               1
284
              11
285
              11
286
              11
288
               0
289
               0
340
37
341
47
342
50
343
0
344
0
371
              -2
372
              -2
  0
ENDTAB
  0
TABLE
  2
BLOCK_RECORD
  5
1
100
AcDbSymbolTable
 70
              21
  0
BLOCK_RECORD
  5
A
100
AcDbSymbolTableRecord
100
AcDbBlockTableRecord
  2
*MODEL_SPACE
340
20
  0
BLOCK_RECORD
  5
B
100
AcDbSymbolTableRecord
100
AcDbBlockTableRecord
  2
*PAPER_SPACE
340
21
  0
BLOCK_RECORD
  5
47
100
AcDbSymbolTableRecord
100
AcDbBlockTableRecord
  2
VW_FILLEDARROW
340
0
  0
BLOCK_RECORD
  5
4B
100
AcDbSymbolTableRecord
100
AcDbBlockTableRecord
  2
VW_FILLEDARROW-1
340
0
  0
BLOCK_RECORD
  5
50
100
AcDbSymbolTableRecord
100
AcDbBlockTableRecord
  2
VW_SLASH
340
0
  0
BLOCK_RECORD
  5
24
100
AcDbSymbolTableRecord
100
AcDbBlockTableRecord
  2
*D3
340
0
  0
BLOCK_RECORD
  5
25
100
AcDbSymbolTableRecord
100
AcDbBlockTableRecord
  2
Group
340
0
102
{BLKREFS
331
1AF
102
}
  0
BLOCK_RECORD
  5
26
100
AcDbSymbolTableRecord
100
AcDbBlockTableRecord
  2
*D5
340
0
  0
BLOCK_RECORD
  5
27
100
AcDbSymbolTableRecord
100
AcDbBlockTableRecord
  2
*D6
340
0
  0
BLOCK_RECORD
  5
28
100
AcDbSymbolTableRecord
100
AcDbBlockTableRecord
  2
*D7
340
0
  0
BLOCK_RECORD
  5
29
100
AcDbSymbolTableRecord
100
AcDbBlockTableRecord
  2
*D8
340
0
  0
BLOCK_RECORD
  5
2A
100
AcDbSymbolTableRecord
100
AcDbBlockTableRecord
  2
*D9
340
0
  0
BLOCK_RECORD
  5
2B
100
AcDbSymbolTableRecord
100
AcDbBlockTableRecord
  2
*D10
340
0
  0
BLOCK_RECORD
  5
2C
100
AcDbSymbolTableRecord
100
AcDbBlockTableRecord
  2
*D11
340
0
  0
BLOCK_RECORD
  5
2D
100
AcDbSymbolTableRecord
100
AcDbBlockTableRecord
  2
*D12
340
0
  0
BLOCK_RECORD
  5
2E
100
AcDbSymbolTableRecord
100
AcDbBlockTableRecord
  2
*D13
340
0
  0
BLOCK_RECORD
  5
2F
100
AcDbSymbolTableRecord
100
AcDbBlockTableRecord
  2
*D14
340
0
  0
BLOCK_RECORD
  5
30
100
AcDbSymbolTableRecord
100
AcDbBlockTableRecord
  2
*D15
340
0
  0
BLOCK_RECORD
  5
31
100
AcDbSymbolTableRecord
100
AcDbBlockTableRecord
  2
*D16
340
0
  0
BLOCK_RECORD
  5
32
100
AcDbSymbolTableRecord
100
AcDbBlockTableRecord
  2
*D17
340
0
  0
BLOCK_RECORD
  5
33
100
AcDbSymbolTableRecord
100
AcDbBlockTableRecord
  2
*D18
340
0
  0
BLOCK_RECORD
  5
34
100
AcDbSymbolTableRecord
100
AcDbBlockTableRecord
  2
*D19
340
0
  0
BLOCK_RECORD
  5
35
100
AcDbSymbolTableRecord
100
AcDbBlockTableRecord
  2
Group-1
340
0
102
{BLKREFS
331
1CA
102
}
  0
ENDTAB
  0
ENDSEC
  0
SECTION
  2
BLOCKS
  0
BLOCK
  5
D
100
AcDbEntity
  8
0
390
0
100
AcDbBlockBegin
  2
*MODEL_SPACE
 70
               0
 10
0.0
 20
0.0
 30
0.0
  3
*MODEL_SPACE
  1

  0
ENDBLK
  5
E
100
AcDbEntity
  8
0
390
0
100
AcDbBlockEnd
  0
BLOCK
  5
F
100
AcDbEntity
 67
               1
  8
0
390
0
100
AcDbBlockBegin
  2
*PAPER_SPACE
 70
               0
 10
0.0
 20
0.0
 30
0.0
  3
*PAPER_SPACE
  1

  0
ENDBLK
  5
10
100
AcDbEntity
 67
               1
  8
0
390
0
100
AcDbBlockEnd
  0
BLOCK
  5
48
100
AcDbEntity
  8
0
370
              -2
390
0
  6
ByBlock
 62
               0
100
AcDbBlockBegin
  2
VW_FILLEDARROW
 70
               0
 10
0.0
 20
0.0
 30
0.0
  3
VW_FILLEDARROW
  1

  0
SOLID
  5
49
100
AcDbEntity
  8
0
370
              -2
390
0
 62
               0
100
AcDbTrace
 10
0.0
 20
0.0
 30
0.0
 11
-0.9999389648437499
 21
-0.2679328381102956
 31
0.0
 12
-0.9999389648437499
 22
0.2679328381102958
 32
0.0
 13
-0.9999389648437499
 23
0.2679328381102958
 33
0.0
  0
ENDBLK
  5
4A
100
AcDbEntity
  8
0
390
0
100
AcDbBlockEnd
  0
BLOCK
  5
4C
100
AcDbEntity
  8
0
370
              -2
390
0
  6
ByBlock
 62
               0
100
AcDbBlockBegin
  2
VW_FILLEDARROW-1
 70
               0
 10
0.0
 20
0.0
 30
0.0
  3
VW_FILLEDARROW
  1

  0
SOLID
  5
4D
100
AcDbEntity
  8
0
370
              -2
390
0
 62
               0
100
AcDbTrace
 10
0.0
 20
0.0
 30
0.0
 11
-0.6662384033203125
 21
-0.1785180421362784
 31
0.0
 12
-0.6662384033203125
 22
0.1785180421362785
 32
0.0
 13
-0.6662384033203125
 23
0.1785180421362785
 33
0.0
  0
ENDBLK
  5
4E
100
AcDbEntity
  8
0
390
0
100
AcDbBlockEnd
  0
BLOCK
  5
51
100
AcDbEntity
  8
0
370
              -2
390
0
  6
ByBlock
 62
               0
100
AcDbBlockBegin
  2
VW_SLASH
 70
               0
 10
0.0
 20
0.0
 30
0.0
  3
VW_SLASH
  1

  0
LINE
  5
52
100
AcDbEntity
  8
0
370
              -2
390
0
  6
ByBlock
 62
               0
100
AcDbLine
 10
0.0
 20
0.0
 30
0.0
 11
-1.0
 21
0.0
 31
0.0
  0
LINE
  5
53
100
AcDbEntity
  8
0
370
              20
390
0
  6
ByBlock
 62
               0
100
AcDbLine
 10
-0.5000145658230796
 20
-0.5000145658230795
 30
0.0
 11
0.5000145658230796
 21
0.5000145658230795
 31
0.0
  0
ENDBLK
  5
54
100
AcDbEntity
  8
0
390
0
100
AcDbBlockEnd
  0
BLOCK
  5
56
100
AcDbEntity
  8
Dimension
390
0
100
AcDbBlockBegin
  2
*D3
 70
               1
 10
0.0
 20
0.0
 30
0.0
  3
*D3
  1

  0
LINE
  5
57
100
AcDbEntity
  8
Dimension
370
              -2
390
0
  6
Continuous
 62
               0
100
AcDbLine
 10
-6.909807581229984
 20
14.320439999999998
 30
0.0
 11
-28.893557582412768
 21
14.320439999999998
 31
0.0
  0
LINE
  5
58
100
AcDbEntity
  8
Dimension
370
              -2
390
0
  6
Continuous
 62
               0
100
AcDbLine
 10
-6.909807581229984
 20
-0.9045599999999965
 30
0.0
 11
-28.893557582412761
 21
-0.9045599999999965
 31
0.0
  0
LINE
  5
59
100
AcDbEntity
  8
Dimension
370
              -2
390
0
  6
Continuous
 62
               0
100
AcDbLine
 10
-27.9410575800472
 20
14.320439999999998
 30
0.0
 11
-27.9410575800472
 21
-0.9045599999999965
 31
0.0
  0
SOLID
  5
5A
100
AcDbEntity
  8
Dimension
370
              -2
390
0
 62
               0
100
AcDbTrace
 10
-27.9410575800472
 20
14.320439999999998
 30
0.0
 11
-27.728372908554999
 21
13.526689999999999
 31
0.0
 12
-28.153742251539406
 22
13.526689999999999
 32
0.0
 13
-28.153742251539406
 23
13.526689999999999
 33
0.0
  0
SOLID
  5
5B
100
AcDbEntity
  8
Dimension
370
              -2
390
0
 62
               0
100
AcDbTrace
 10
-27.9410575800472
 20
-0.9045599999999965
 30
0.0
 11
-28.153742251539406
 21
-0.1108099999999965
 31
0.0
 12
-27.728372908554995
 22
-0.1108099999999965
 32
0.0
 13
-27.728372908554995
 23
-0.1108099999999965
 33
0.0
  0
WIPEOUT
  5
5C
100
AcDbEntity
  8
Dimension
370
              -2
390
0
  6
Continuous
 62
               0
 92
        0
100
AcDbWipeout
 90
        0
 10
-34.000000000000014
 20
6.2069640410563069
 30
0.0
 11
5.0376507600148521
 21
0.0
 31
0.0
 12
0.0
 22
5.0376507600148521
 32
0.0
 13
1.0
 23
1.0
340
0
 70
               7
280
               1
281
              50
282
              50
283
               0
360
0
 71
               2
 91
        5
 14
-0.5
 24
0.5
 14
0.5
 24
0.5
 14
0.5
 24
0.2584033594269224
 14
-0.5
 24
0.2584033594269224
 14
-0.5
 24
0.5
  0
MTEXT
  5
5D
100
AcDbEntity
  8
Dimension
390
0
 62
               0
100
AcDbMText
 10
-34.000000000000014
 20
7.2294651608479734
 30
0.0
 40
0.7579186197916666
 41
0.0
 71
               1
 72
               1
  1
15.225mm
  7
Helvetica
 73
               1
 44
0.9673603504928806
  0
WIPEOUT
  5
5E
100
AcDbEntity
  8
Dimension
370
              -2
390
0
  6
Continuous
 62
               0
 92
        0
100
AcDbWipeout
 90
        0
 10
-28.962349239985159
 20
6.2069623743896445
 30
0.0
 11
5.0270675208833495
 21
0.0
 31
0.0
 12
0.0
 22
5.0270675208833495
 32
0.0
 13
1.0
 23
1.0
340
0
 70
               7
280
               1
281
              50
282
              50
283
               0
360
0
 71
               2
 91
        5
 14
-0.5
 24
0.5
 14
0.5
 24
0.5
 14
0.5
 24
0.2578947378478544
 14
-0.5
 24
0.2578947378478544
 14
-0.5
 24
0.5
  0
MTEXT
  5
5F
100
AcDbEntity
  8
Dimension
390
0
 62
               0
100
AcDbMText
 10
-28.962349239985159
 20
7.229463494181311
 30
0.0
 40
0.7579186197916666
 41
0.0
 71
               1
 72
               1
  1
±0.125mm
  7
Helvetica
 73
               1
 44
0.9673603504928806
  0
WIPEOUT
  5
60
100
AcDbEntity
  8
Dimension
370
              -2
390
0
  6
Continuous
 62
               0
 92
        0
100
AcDbWipeout
 90
        0
 10
-23.935281719101809
 20
6.2069602077229735
 30
0.0
 11
2.0531665590074333
 21
0.0
 31
0.0
 12
0.0
 22
2.0531665590074333
 32
0.0
 13
1.0
 23
1.0
340
0
 70
               7
280
               1
281
              50
282
              50
283
               0
360
0
 71
               2
 91
        5
 14
-0.5
 24
0.5
 14
0.5
 24
0.5
 14
0.5
 24
-0.0927835362376593
 14
-0.5
 24
-0.0927835362376593
 14
-0.5
 24
0.5
  0
MTEXT
  5
61
100
AcDbEntity
  8
Dimension
390
0
 62
               0
100
AcDbMText
 10
-23.935281719101809
 20
7.2294645480007507
 30
0.0
 40
0.7579210069444442
 41
0.0
 71
               1
 72
               1
  1
 sqr.
  7
Helvetica
 73
               1
 44
0.9673603504928806
  0
POINT
  5
62
100
AcDbEntity
  8
Defpoints
370
               0
390
0
 62
               0
100
AcDbPoint
 10
-6.4335575800472071
 20
-0.9045599999999965
 30
0.0
  0
POINT
  5
63
100
AcDbEntity
  8
Defpoints
370
               0
390
0
 62
               0
100
AcDbPoint
 10
-6.4335575800472071
 20
14.320439999999998
 30
0.0
  0
POINT
  5
64
100
AcDbEntity
  8
Defpoints
370
               0
390
0
 62
               0
100
AcDbPoint
 10
-27.941057580047204
 20
14.320439999999998
 30
0.0
  0
ENDBLK
  5
65
100
AcDbEntity
  8
Dimension
390
0
100
AcDbBlockEnd
  0
BLOCK
  5
66
100
AcDbEntity
  8
Dimension
390
0
100
AcDbBlockBegin
  2
Group
 70
               0
 10
0.0
 20
0.0
 30
0.0
  3
Group
  1

  0
LINE
  5
67
100
AcDbEntity
  8
None
370
               5
390
0
  6
Continuous
 62
               1
100
AcDbLine
 10
0.55394241995279
 20
6.7079400000000007
 30
0.0
 11
1.80394241995279
 21
6.7079400000000007
 31
0.0
  0
LINE
  5
68
100
AcDbEntity
  8
None
370
               5
390
0
  6
Continuous
 62
               1
100
AcDbLine
 10
1.17894241995279
 20
6.0829400000000007
 30
0.0
 11
1.17894241995279
 21
7.3329400000000007
 31
0.0
  0
LINE
  5
69
100
AcDbEntity
  8
None
370
               5
390
0
  6
Continuous
 62
               1
100
AcDbLine
 10
-7.1835575800472071
 20
6.7079400000000007
 30
0.0
 11
0.05394241995279
 21
6.7079400000000007
 31
0.0
  0
LINE
  5
6A
100
AcDbEntity
  8
None
370
               5
390
0
  6
Continuous
 62
               1
100
AcDbLine
 10
2.30394241995279
 20
6.7079400000000007
 30
0.0
 11
9.5414424199527872
 21
6.7079400000000007
 31
0.0
  0
LINE
  5
6B
100
AcDbEntity
  8
None
370
               5
390
0
  6
Continuous
 62
               1
100
AcDbLine
 10
1.17894241995279
 20
15.070439999999998
 30
0.0
 11
1.17894241995279
 21
7.8329400000000007
 31
0.0
  0
LINE
  5
6C
100
AcDbEntity
  8
None
370
               5
390
0
  6
Continuous
 62
               1
100
AcDbLine
 10
1.17894241995279
 20
5.5829400000000007
 30
0.0
 11
1.17894241995279
 21
-1.6545599999999965
 31
0.0
  0
ENDBLK
  5
6D
100
AcDbEntity
  8
Dimension
390
0
100
AcDbBlockEnd
  0
BLOCK
  5
6E
100
AcDbEntity
  8
Dimension
390
0
100
AcDbBlockBegin
  2
*D5
 70
               1
 10
0.0
 20
0.0
 30
0.0
  3
*D5
  1

  0
LINE
  5
6F
100
AcDbEntity
  8
Dimension
370
              -2
390
0
  6
Continuous
 62
               0
100
AcDbLine
 10
-5.1835575800472071
 20
13.546690001182775
 30
0.0
 11
-5.1835575800472071
 21
21.456480002365559
 31
0.0
  0
LINE
  5
70
100
AcDbEntity
  8
Dimension
370
              -2
390
0
  6
Continuous
 62
               0
100
AcDbLine
 10
-2.69605758004721
 20
12.364190001182777
 30
0.0
 11
-2.69605758004721
 21
21.456480002365559
 31
0.0
  0
LINE
  5
71
100
AcDbEntity
  8
Dimension
370
              -2
390
0
  6
Continuous
 62
               0
100
AcDbLine
 10
-2.69605758004721
 20
20.503979999999999
 30
0.0
 11
-5.1835575800472071
 21
20.503979999999999
 31
0.0
  0
LINE
  5
72
100
AcDbEntity
  8
Dimension
370
              -2
390
0
  6
Continuous
 62
               0
100
AcDbLine
 10
-5.1835575800472071
 20
20.503979999999999
 30
0.0
 11
-6.9335540784140193
 21
20.503979999999999
 31
0.0
  0
SOLID
  5
73
100
AcDbEntity
  8
Dimension
370
              -2
390
0
 62
               0
100
AcDbTrace
 10
-5.1835575800472071
 20
20.503979999999999
 30
0.0
 11
-5.9773075800472073
 21
20.291295328507793
 31
0.0
 12
-5.9773075800472073
 22
20.716664671492204
 32
0.0
 13
-5.9773075800472073
 23
20.716664671492204
 33
0.0
  0
LINE
  5
74
100
AcDbEntity
  8
Dimension
370
              -2
390
0
  6
Continuous
 62
               0
100
AcDbLine
 10
-2.69605758004721
 20
20.503979999999999
 30
0.0
 11
-0.2230475800472078
 21
20.503979999999999
 31
0.0
  0
SOLID
  5
75
100
AcDbEntity
  8
Dimension
370
              -2
390
0
 62
               0
100
AcDbTrace
 10
-2.69605758004721
 20
20.503979999999999
 30
0.0
 11
-1.90230758004721
 21
20.716664671492204
 31
0.0
 12
-1.90230758004721
 22
20.291295328507793
 32
0.0
 13
-1.90230758004721
 23
20.291295328507793
 33
0.0
  0
WIPEOUT
  5
76
100
AcDbEntity
  8
Dimension
370
              -2
390
0
  6
Continuous
 62
               0
 92
        0
100
AcDbWipeout
 90
        0
 10
-0.2230475800472078
 20
19.895440249999996
 30
0.0
 11
4.2650699297587078
 21
0.0
 31
0.0
 12
0.0
 22
4.2650699297587078
 32
0.0
 13
1.0
 23
1.0
340
0
 70
               7
280
               1
281
              50
282
              50
283
               0
360
0
 71
               2
 91
        5
 14
-0.5
 24
0.5
 14
0.5
 24
0.5
 14
0.5
 24
0.2146402005022094
 14
-0.5
 24
0.2146402005022094
 14
-0.5
 24
0.5
  0
MTEXT
  5
77
100
AcDbEntity
  8
Dimension
390
0
 62
               0
100
AcDbMText
 10
-0.2230475800472078
 20
20.917941369791663
 30
0.0
 40
0.7579186197916666
 41
0.0
 71
               1
 72
               1
  1
2.49mm*
  7
Helvetica
 73
               1
 44
0.9673603504928806
  0
POINT
  5
78
100
AcDbEntity
  8
Defpoints
370
               0
390
0
 62
               0
100
AcDbPoint
 10
-2.69605758004721
 20
11.88794
 30
0.0
  0
POINT
  5
79
100
AcDbEntity
  8
Defpoints
370
               0
390
0
 62
               0
100
AcDbPoint
 10
-5.1835575800472071
 20
13.070439999999998
 30
0.0
  0
POINT
  5
7A
100
AcDbEntity
  8
Defpoints
370
               0
390
0
 62
               0
100
AcDbPoint
 10
-5.1835575800472071
 20
20.503979999999999
 30
0.0
  0
ENDBLK
  5
7B
100
AcDbEntity
  8
Dimension
390
0
100
AcDbBlockEnd
  0
BLOCK
  5
7C
100
AcDbEntity
  8
Dimension
390
0
100
AcDbBlockBegin
  2
*D6
 70
               1
 10
0.0
 20
0.0
 30
0.0
  3
*D6
  1

  0
LINE
  5
7D
100
AcDbEntity
  8
Dimension
370
              -2
390
0
  6
Continuous
 62
               0
100
AcDbLine
 10
-3.1873075812299874
 20
11.88794
 30
0.0
 11
-9.6253575824127751
 21
11.88794
 31
0.0
  0
LINE
  5
7E
100
AcDbEntity
  8
Dimension
370
              -2
390
0
  6
Continuous
 62
               0
100
AcDbLine
 10
-5.659807581229984
 20
13.070439999999998
 30
0.0
 11
-9.6253575824127608
 21
13.070439999999998
 31
0.0
  0
LINE
  5
7F
100
AcDbEntity
  8
Dimension
370
              -2
390
0
  6
Continuous
 62
               0
100
AcDbLine
 10
-8.6728575800472072
 20
13.070439999999998
 30
0.0
 11
-8.6728575800472072
 21
11.88794
 31
0.0
  0
LINE
  5
80
100
AcDbEntity
  8
Dimension
370
              -2
390
0
  6
Continuous
 62
               0
100
AcDbLine
 10
-8.6728575800472072
 20
11.88794
 30
0.0
 11
-8.6728575800472072
 21
10.137943501633181
 31
0.0
  0
SOLID
  5
81
100
AcDbEntity
  8
Dimension
370
              -2
390
0
 62
               0
100
AcDbTrace
 10
-8.6728575800472072
 20
11.88794
 30
0.0
 11
-8.4601729085550037
 21
11.094190000000001
 31
0.0
 12
-8.8855422515394107
 22
11.094190000000001
 32
0.0
 13
-8.8855422515394107
 23
11.094190000000001
 33
0.0
  0
LINE
  5
82
100
AcDbEntity
  8
Dimension
370
              -2
390
0
  6
Continuous
 62
               0
100
AcDbLine
 10
-8.6728575800472072
 20
13.070439999999998
 30
0.0
 11
-8.6728575800472072
 21
14.820436498366817
 31
0.0
  0
SOLID
  5
83
100
AcDbEntity
  8
Dimension
370
              -2
390
0
 62
               0
100
AcDbTrace
 10
-8.6728575800472072
 20
13.070439999999998
 30
0.0
 11
-8.8855422515394107
 21
13.864189999999997
 31
0.0
 12
-8.4601729085550037
 22
13.864189999999997
 32
0.0
 13
-8.4601729085550037
 23
13.864189999999997
 33
0.0
  0
WIPEOUT
  5
84
100
AcDbEntity
  8
Dimension
370
              -2
390
0
  6
Continuous
 62
               0
 92
        0
100
AcDbWipeout
 90
        0
 10
-10.599018204339373
 20
11.870668293518062
 30
0.0
 11
3.8523212485843228
 21
0.0
 31
0.0
 12
0.0
 22
3.8523212485843228
 32
0.0
 13
1.0
 23
1.0
340
0
 70
               7
280
               1
281
              50
282
              50
283
               0
360
0
 71
               2
 91
        5
 14
-0.5
 24
0.5
 14
0.5
 24
0.5
 14
0.5
 24
0.1840659380503998
 14
-0.5
 24
0.1840659380503998
 14
-0.5
 24
0.5
  0
MTEXT
  5
85
100
AcDbEntity
  8
Dimension
390
0
 62
               0
100
AcDbMText
 10
-10.599018204339373
 20
12.893169413309728
 30
0.0
 40
0.7579186197916666
 41
0.0
 71
               1
 72
               1
  1
1.18mm
  7
Helvetica
 73
               1
 44
0.9673603504928806
  0
POINT
  5
86
100
AcDbEntity
  8
Defpoints
370
               0
390
0
 62
               0
100
AcDbPoint
 10
-5.1835575800472071
 20
13.070439999999998
 30
0.0
  0
POINT
  5
87
100
AcDbEntity
  8
Defpoints
370
               0
390
0
 62
               0
100
AcDbPoint
 10
-2.7110575800472105
 20
11.88794
 30
0.0
  0
POINT
  5
88
100
AcDbEntity
  8
Defpoints
370
               0
390
0
 62
               0
100
AcDbPoint
 10
-8.6728575800472107
 20
11.88794
 30
0.0
  0
ENDBLK
  5
89
100
AcDbEntity
  8
Dimension
390
0
100
AcDbBlockEnd
  0
BLOCK
  5
8A
100
AcDbEntity
  8
Dimension
390
0
100
AcDbBlockBegin
  2
*D7
 70
               1
 10
0.0
 20
0.0
 30
0.0
  3
*D7
  1

  0
LINE
  5
8B
100
AcDbEntity
  8
Dimension
370
              -2
390
0
  6
Continuous
 62
               0
100
AcDbLine
 10
3.42894241995279
 20
12.364190001182777
 30
0.0
 11
3.42894241995279
 21
18.417940002365562
 31
0.0
  0
LINE
  5
8C
100
AcDbEntity
  8
Dimension
370
              -2
390
0
  6
Continuous
 62
               0
100
AcDbLine
 10
3.8289424199527957
 20
12.364190001182777
 30
0.0
 11
3.8289424199527957
 21
18.417940002365562
 31
0.0
  0
LINE
  5
8D
100
AcDbEntity
  8
Dimension
370
              -2
390
0
  6
Continuous
 62
               0
100
AcDbLine
 10
3.8289424199527957
 20
17.465440000000001
 30
0.0
 11
3.42894241995279
 21
17.465440000000001
 31
0.0
  0
LINE
  5
8E
100
AcDbEntity
  8
Dimension
370
              -2
390
0
  6
Continuous
 62
               0
100
AcDbLine
 10
3.42894241995279
 20
17.465440000000001
 30
0.0
 11
1.6789459215859779
 21
17.465440000000001
 31
0.0
  0
SOLID
  5
8F
100
AcDbEntity
  8
Dimension
370
              -2
390
0
 62
               0
100
AcDbTrace
 10
3.42894241995279
 20
17.465440000000001
 30
0.0
 11
2.6351924199527899
 21
17.252755328507796
 31
0.0
 12
2.6351924199527903
 22
17.678124671492206
 32
0.0
 13
2.6351924199527903
 23
17.678124671492206
 33
0.0
  0
LINE
  5
90
100
AcDbEntity
  8
Dimension
370
              -2
390
0
  6
Continuous
 62
               0
100
AcDbLine
 10
3.8289424199527957
 20
17.465440000000001
 30
0.0
 11
5.8639424199527923
 21
17.465440000000001
 31
0.0
  0
SOLID
  5
91
100
AcDbEntity
  8
Dimension
370
              -2
390
0
 62
               0
100
AcDbTrace
 10
3.8289424199527957
 20
17.465440000000001
 30
0.0
 11
4.6226924199527959
 21
17.678124671492206
 31
0.0
 12
4.6226924199527959
 22
17.252755328507796
 32
0.0
 13
4.6226924199527959
 23
17.252755328507796
 33
0.0
  0
WIPEOUT
  5
92
100
AcDbEntity
  8
Dimension
370
              -2
390
0
  6
Continuous
 62
               0
 92
        0
100
AcDbWipeout
 90
        0
 10
5.8639424199527923
 20
16.856900249999999
 30
0.0
 11
5.2599001275168504
 21
0.0
 31
0.0
 12
0.0
 22
5.2599001275168504
 32
0.0
 13
1.0
 23
1.0
340
0
 70
               7
280
               1
281
              50
282
              50
283
               0
360
0
 71
               2
 91
        5
 14
-0.5
 24
0.5
 14
0.5
 24
0.5
 14
0.5
 24
0.2686116712306147
 14
-0.5
 24
0.2686116712306147
 14
-0.5
 24
0.5
  0
MTEXT
  5
93
100
AcDbEntity
  8
Dimension
390
0
 62
               0
100
AcDbMText
 10
5.8639424199527923
 20
17.879401369791665
 30
0.0
 40
0.7579186197916666
 41
0.0
 71
               1
 72
               1
  1
0.4mm typ.
  7
Helvetica
 73
               1
 44
0.9673603504928806
  0
POINT
  5
94
100
AcDbEntity
  8
Defpoints
370
               0
390
0
 62
               0
100
AcDbPoint
 10
3.8289424199527957
 20
11.88794
 30
0.0
  0
POINT
  5
95
100
AcDbEntity
  8
Defpoints
370
               0
390
0
 62
               0
100
AcDbPoint
 10
3.42894241995279
 20
11.88794
 30
0.0
  0
POINT
  5
96
100
AcDbEntity
  8
Defpoints
370
               0
390
0
 62
               0
100
AcDbPoint
 10
3.42894241995279
 20
17.465440000000001
 30
0.0
  0
ENDBLK
  5
97
100
AcDbEntity
  8
Dimension
390
0
100
AcDbBlockEnd
  0
BLOCK
  5
98
100
AcDbEntity
  8
Dimension
390
0
100
AcDbBlockBegin
  2
*D8
 70
               1
 10
0.0
 20
0.0
 30
0.0
  3
*D8
  1

  0
LINE
  5
99
100
AcDbEntity
  8
Dimension
370
              -2
390
0
  6
Continuous
 62
               0
100
AcDbLine
 10
-5.659807581229984
 20
0.3454400000000035
 30
0.0
 11
-10.562217582412771
 21
0.3454400000000035
 31
0.0
  0
LINE
  5
9A
100
AcDbEntity
  8
Dimension
370
              -2
390
0
  6
Continuous
 62
               0
100
AcDbLine
 10
-5.659807581229984
 20
5.4254400000000018
 30
0.0
 11
-10.562217582412757
 21
5.4254400000000018
 31
0.0
  0
LINE
  5
9B
100
AcDbEntity
  8
Dimension
370
              -2
390
0
  6
Continuous
 62
               0
100
AcDbLine
 10
-9.609717580047203
 20
0.3454400000000035
 30
0.0
 11
-9.609717580047203
 21
5.4254400000000018
 31
0.0
  0
SOLID
  5
9C
100
AcDbEntity
  8
Dimension
370
              -2
390
0
 62
               0
100
AcDbTrace
 10
-9.609717580047203
 20
0.3454400000000035
 30
0.0
 11
-9.8224022515394065
 21
1.1391900000000035
 31
0.0
 12
-9.3970329085549995
 22
1.1391900000000035
 32
0.0
 13
-9.3970329085549995
 23
1.1391900000000035
 33
0.0
  0
SOLID
  5
9D
100
AcDbEntity
  8
Dimension
370
              -2
390
0
 62
               0
100
AcDbTrace
 10
-9.609717580047203
 20
5.4254400000000018
 30
0.0
 11
-9.3970329085549995
 21
4.6316900000000016
 31
0.0
 12
-9.8224022515394065
 22
4.6316900000000016
 32
0.0
 13
-9.8224022515394065
 23
4.6316900000000016
 33
0.0
  0
WIPEOUT
  5
9E
100
AcDbEntity
  8
Dimension
370
              -2
390
0
  6
Continuous
 62
               0
 92
        0
100
AcDbWipeout
 90
        0
 10
-11.535878204339369
 20
3.2369191708984362
 30
0.0
 11
3.8523212485843228
 21
0.0
 31
0.0
 12
0.0
 22
3.8523212485843228
 32
0.0
 13
1.0
 23
1.0
340
0
 70
               7
280
               1
281
              50
282
              50
283
               0
360
0
 71
               2
 91
        5
 14
-0.5
 24
0.5
 14
0.5
 24
0.5
 14
0.5
 24
0.1840659380504001
 14
-0.5
 24
0.1840659380504001
 14
-0.5
 24
0.5
  0
MTEXT
  5
9F
100
AcDbEntity
  8
Dimension
390
0
 62
               0
100
AcDbMText
 10
-11.535878204339369
 20
4.2594202906901026
 30
0.0
 40
0.7579186197916666
 41
0.0
 71
               1
 72
               1
  1
5.08mm
  7
Helvetica
 73
               1
 44
0.9673603504928806
  0
POINT
  5
A0
100
AcDbEntity
  8
Defpoints
370
               0
390
0
 62
               0
100
AcDbPoint
 10
-5.1835575800472071
 20
5.4254400000000018
 30
0.0
  0
POINT
  5
A1
100
AcDbEntity
  8
Defpoints
370
               0
390
0
 62
               0
100
AcDbPoint
 10
-5.1835575800472071
 20
0.3454400000000035
 30
0.0
  0
POINT
  5
A2
100
AcDbEntity
  8
Defpoints
370
               0
390
0
 62
               0
100
AcDbPoint
 10
-9.6097175800472066
 20
0.3454400000000035
 30
0.0
  0
ENDBLK
  5
A3
100
AcDbEntity
  8
Dimension
390
0
100
AcDbBlockEnd
  0
BLOCK
  5
A4
100
AcDbEntity
  8
Dimension
390
0
100
AcDbBlockBegin
  2
*D9
 70
               1
 10
0.0
 20
0.0
 30
0.0
  3
*D9
  1

  0
LINE
  5
A5
100
AcDbEntity
  8
Dimension
370
              -2
390
0
  6
Continuous
 62
               0
100
AcDbLine
 10
8.017692421135564
 20
10.530439999999999
 30
0.0
 11
13.690832422318351
 21
10.530439999999999
 31
0.0
  0
LINE
  5
A6
100
AcDbEntity
  8
Dimension
370
              -2
390
0
  6
Continuous
 62
               0
100
AcDbLine
 10
8.017692421135564
 20
13.070439999999998
 30
0.0
 11
13.690832422318337
 21
13.070439999999998
 31
0.0
  0
LINE
  5
A7
100
AcDbEntity
  8
Dimension
370
              -2
390
0
  6
Continuous
 62
               0
100
AcDbLine
 10
12.738332419952783
 20
13.070439999999998
 30
0.0
 11
12.738332419952783
 21
10.530439999999999
 31
0.0
  0
LINE
  5
A8
100
AcDbEntity
  8
Dimension
370
              -2
390
0
  6
Continuous
 62
               0
100
AcDbLine
 10
12.738332419952783
 20
10.530439999999999
 30
0.0
 11
12.738332419952783
 21
8.7804435016331794
 31
0.0
  0
SOLID
  5
A9
100
AcDbEntity
  8
Dimension
370
              -2
390
0
 62
               0
100
AcDbTrace
 10
12.738332419952783
 20
10.530439999999999
 30
0.0
 11
12.951017091444987
 21
9.7366899999999994
 31
0.0
 12
12.52564774846058
 22
9.7366899999999994
 32
0.0
 13
12.52564774846058
 23
9.7366899999999994
 33
0.0
  0
LINE
  5
AA
100
AcDbEntity
  8
Dimension
370
              -2
390
0
  6
Continuous
 62
               0
100
AcDbLine
 10
12.738332419952783
 20
13.070439999999998
 30
0.0
 11
12.738332419952783
 21
14.820436498366817
 31
0.0
  0
SOLID
  5
AB
100
AcDbEntity
  8
Dimension
370
              -2
390
0
 62
               0
100
AcDbTrace
 10
12.738332419952783
 20
13.070439999999998
 30
0.0
 11
12.52564774846058
 21
13.864189999999997
 31
0.0
 12
12.951017091444987
 22
13.864189999999997
 32
0.0
 13
12.951017091444987
 23
13.864189999999997
 33
0.0
  0
WIPEOUT
  5
AC
100
AcDbEntity
  8
Dimension
370
              -2
390
0
  6
Continuous
 62
               0
 92
        0
100
AcDbWipeout
 90
        0
 10
10.812171795660618
 20
11.19190025
 30
0.0
 11
3.8523212485843228
 21
0.0
 31
0.0
 12
0.0
 22
3.8523212485843228
 32
0.0
 13
1.0
 23
1.0
340
0
 70
               7
280
               1
281
              50
282
              50
283
               0
360
0
 71
               2
 91
        5
 14
-0.5
 24
0.5
 14
0.5
 24
0.5
 14
0.5
 24
0.1840659380503998
 14
-0.5
 24
0.1840659380503998
 14
-0.5
 24
0.5
  0
MTEXT
  5
AD
100
AcDbEntity
  8
Dimension
390
0
 62
               0
100
AcDbMText
 10
10.812171795660618
 20
12.214401369791666
 30
0.0
 40
0.7579186197916666
 41
0.0
 71
               1
 72
               1
  1
2.54mm
  7
Helvetica
 73
               1
 44
0.9673603504928806
  0
POINT
  5
AE
100
AcDbEntity
  8
Defpoints
370
               0
390
0
 62
               0
100
AcDbPoint
 10
7.5414424199527872
 20
13.070439999999998
 30
0.0
  0
POINT
  5
AF
100
AcDbEntity
  8
Defpoints
370
               0
390
0
 62
               0
100
AcDbPoint
 10
7.5414424199527872
 20
10.530439999999999
 30
0.0
  0
POINT
  5
B0
100
AcDbEntity
  8
Defpoints
370
               0
390
0
 62
               0
100
AcDbPoint
 10
12.738332419952787
 20
10.530439999999999
 30
0.0
  0
ENDBLK
  5
B1
100
AcDbEntity
  8
Dimension
390
0
100
AcDbBlockEnd
  0
BLOCK
  5
B2
100
AcDbEntity
  8
Dimension
390
0
100
AcDbBlockBegin
  2
*D10
 70
               1
 10
0.0
 20
0.0
 30
0.0
  3
*D10
  1

  0
LINE
  5
B3
100
AcDbEntity
  8
Dimension
370
              -2
390
0
  6
Continuous
 62
               0
100
AcDbLine
 10
-5.1835575800472071
 20
-0.1308100011827733
 30
0.0
 11
-5.1835575800472071
 21
-11.337060002365554
 31
0.0
  0
LINE
  5
B4
100
AcDbEntity
  8
Dimension
370
              -2
390
0
  6
Continuous
 62
               0
100
AcDbLine
 10
7.5414424199527872
 20
-0.1308100011827733
 30
0.0
 11
7.5414424199527872
 21
-11.337060002365554
 31
0.0
  0
LINE
  5
B5
100
AcDbEntity
  8
Dimension
370
              -2
390
0
  6
Continuous
 62
               0
100
AcDbLine
 10
7.5414424199527872
 20
-10.384559999999993
 30
0.0
 11
-5.1835575800472071
 21
-10.384559999999993
 31
0.0
  0
LINE
  5
B6
100
AcDbEntity
  8
Dimension
370
              -2
390
0
  6
Continuous
 62
               0
100
AcDbLine
 10
-5.1835575800472071
 20
-10.384559999999993
 30
0.0
 11
-6.9335540784140193
 21
-10.384559999999993
 31
0.0
  0
SOLID
  5
B7
100
AcDbEntity
  8
Dimension
370
              -2
390
0
 62
               0
100
AcDbTrace
 10
-5.1835575800472071
 20
-10.384559999999993
 30
0.0
 11
-5.9773075800472073
 21
-10.597244671492197
 31
0.0
 12
-5.9773075800472073
 22
-10.17187532850779
 32
0.0
 13
-5.9773075800472073
 23
-10.17187532850779
 33
0.0
  0
LINE
  5
B8
100
AcDbEntity
  8
Dimension
370
              -2
390
0
  6
Continuous
 62
               0
100
AcDbLine
 10
7.5414424199527872
 20
-10.384559999999993
 30
0.0
 11
9.2914389183195993
 21
-10.384559999999993
 31
0.0
  0
SOLID
  5
B9
100
AcDbEntity
  8
Dimension
370
              -2
390
0
 62
               0
100
AcDbTrace
 10
7.5414424199527872
 20
-10.384559999999993
 30
0.0
 11
8.3351924199527865
 21
-10.17187532850779
 31
0.0
 12
8.3351924199527865
 22
-10.597244671492197
 32
0.0
 13
8.3351924199527865
 23
-10.597244671492197
 33
0.0
  0
WIPEOUT
  5
BA
100
AcDbEntity
  8
Dimension
370
              -2
390
0
  6
Continuous
 62
               0
 92
        0
100
AcDbWipeout
 90
        0
 10
-4.9264576635096091
 20
-10.993097833333326
 30
0.0
 11
5.0376507600148521
 21
0.0
 31
0.0
 12
0.0
 22
5.0376507600148521
 32
0.0
 13
1.0
 23
1.0
340
0
 70
               7
280
               1
281
              50
282
              50
283
               0
360
0
 71
               2
 91
        5
 14
-0.5
 24
0.5
 14
0.5
 24
0.5
 14
0.5
 24
0.2584033594269222
 14
-0.5
 24
0.2584033594269222
 14
-0.5
 24
0.5
  0
MTEXT
  5
BB
100
AcDbEntity
  8
Dimension
390
0
 62
               0
100
AcDbMText
 10
-4.9264576635096091
 20
-9.97059671354166
 30
0.0
 40
0.7579186197916666
 41
0.0
 71
               1
 72
               1
  1
12.725mm
  7
Helvetica
 73
               1
 44
0.9673603504928806
  0
WIPEOUT
  5
BC
100
AcDbEntity
  8
Dimension
370
              -2
390
0
  6
Continuous
 62
               0
 92
        0
100
AcDbWipeout
 90
        0
 10
0.1111930965052466
 20
-10.993099499999992
 30
0.0
 11
5.0270675208833486
 21
0.0
 31
0.0
 12
0.0
 22
5.0270675208833486
 32
0.0
 13
1.0
 23
1.0
340
0
 70
               7
280
               1
281
              50
282
              50
283
               0
360
0
 71
               2
 91
        5
 14
-0.5
 24
0.5
 14
0.5
 24
0.5
 14
0.5
 24
0.2578947378478542
 14
-0.5
 24
0.2578947378478542
 14
-0.5
 24
0.5
  0
MTEXT
  5
BD
100
AcDbEntity
  8
Dimension
390
0
 62
               0
100
AcDbMText
 10
0.1111930965052466
 20
-9.970598380208326
 30
0.0
 40
0.7579186197916666
 41
0.0
 71
               1
 72
               1
  1
±0.125mm
  7
Helvetica
 73
               1
 44
0.9673603504928806
  0
WIPEOUT
  5
BE
100
AcDbEntity
  8
Dimension
370
              -2
390
0
  6
Continuous
 62
               0
 92
        0
100
AcDbWipeout
 90
        0
 10
5.1382606173885961
 20
-10.993101666666659
 30
0.0
 11
2.10608325931761
 21
0.0
 31
0.0
 12
0.0
 22
2.10608325931761
 32
0.0
 13
1.0
 23
1.0
340
0
 70
               7
280
               1
281
              50
282
              50
283
               0
360
0
 71
               2
 91
        5
 14
-0.5
 24
0.5
 14
0.5
 24
0.5
 14
0.5
 24
-0.0778894675453995
 14
-0.5
 24
-0.0778894675453995
 14
-0.5
 24
0.5
  0
MTEXT
  5
BF
100
AcDbEntity
  8
Dimension
390
0
 62
               0
100
AcDbMText
 10
5.1382606173885961
 20
-9.9705973263888819
 30
0.0
 40
0.7579210069444442
 41
0.0
 71
               1
 72
               1
  1
 (x4)
  7
Helvetica
 73
               1
 44
0.9673603504928806
  0
POINT
  5
C0
100
AcDbEntity
  8
Defpoints
370
               0
390
0
 62
               0
100
AcDbPoint
 10
7.5414424199527872
 20
0.3454400000000035
 30
0.0
  0
POINT
  5
C1
100
AcDbEntity
  8
Defpoints
370
               0
390
0
 62
               0
100
AcDbPoint
 10
-5.1835575800472071
 20
0.3454400000000035
 30
0.0
  0
POINT
  5
C2
100
AcDbEntity
  8
Defpoints
370
               0
390
0
 62
               0
100
AcDbPoint
 10
-5.1835575800472071
 20
-10.384559999999995
 30
0.0
  0
ENDBLK
  5
C3
100
AcDbEntity
  8
Dimension
390
0
100
AcDbBlockEnd
  0
BLOCK
  5
C4
100
AcDbEntity
  8
Dimension
390
0
100
AcDbBlockBegin
  2
*D11
 70
               1
 10
0.0
 20
0.0
 30
0.0
  3
*D11
  1

  0
LINE
  5
C5
100
AcDbEntity
  8
Dimension
370
              -2
390
0
  6
Continuous
 62
               0
100
AcDbLine
 10
6.6339424199527883
 20
4.5629400000000047
 30
0.0
 11
12.383807772323223
 21
2.6240319196095925
 31
0.0
  0
SOLID
  5
C6
100
AcDbEntity
  8
Dimension
370
              -2
390
0
 62
               0
100
AcDbTrace
 10
6.6339424199527883
 20
4.5629400000000047
 30
0.0
 11
7.1803081475493542
 21
4.5247343865139804
 31
0.0
 12
7.0880062130655705
 22
4.2566701043556554
 32
0.0
 13
7.0880062130655705
 23
4.2566701043556554
 33
0.0
  0
LINE
  5
C7
100
AcDbEntity
  8
Dimension
370
              -2
390
0
  6
Continuous
 62
               0
100
AcDbLine
 10
12.383807772323223
 20
2.6240319196095925
 30
0.0
 11
13.883804774302718
 21
2.6240319196095925
 31
0.0
  0
WIPEOUT
  5
C8
100
AcDbEntity
  8
Dimension
370
              -2
390
0
  6
Continuous
 62
               0
 92
        0
100
AcDbWipeout
 90
        0
 10
13.883804774302718
 20
2.0154921696095913
 30
0.0
 11
7.6305594868130129
 21
0.0
 31
0.0
 12
0.0
 22
7.6305594868130129
 32
0.0
 13
1.0
 23
1.0
340
0
 70
               7
280
               1
281
              50
282
              50
283
               0
360
0
 71
               2
 91
        5
 14
-0.5
 24
0.5
 14
0.5
 24
0.5
 14
0.5
 24
0.3404993104236546
 14
-0.5
 24
0.3404993104236546
 14
-0.5
 24
0.5
  0
MTEXT
  5
C9
100
AcDbEntity
  8
Dimension
390
0
 62
               0
100
AcDbMText
 10
13.883804774302718
 20
3.0379932894012578
 30
0.0
 40
0.7579186197916666
 41
0.0
 71
               1
 72
               1
  1
0.81 x 0.25 mm 
  7
Helvetica
 73
               1
 44
0.9673603504928806
  0
POINT
  5
CA
100
AcDbEntity
  8
Defpoints
370
               0
390
0
 62
               0
100
AcDbPoint
 10
5.7739424199527889
 20
4.8529400000000038
 30
0.0
  0
POINT
  5
CB
100
AcDbEntity
  8
Defpoints
370
               0
390
0
 62
               0
100
AcDbPoint
 10
6.6339424199527883
 20
4.5629400000000047
 30
0.0
  0
ENDBLK
  5
CC
100
AcDbEntity
  8
Dimension
390
0
100
AcDbBlockEnd
  0
BLOCK
  5
CD
100
AcDbEntity
  8
Dimension
390
0
100
AcDbBlockBegin
  2
*D12
 70
               1
 10
0.0
 20
0.0
 30
0.0
  3
*D12
  1

  0
LINE
  5
CE
100
AcDbEntity
  8
Dimension
370
              -2
390
0
  6
Continuous
 62
               0
100
AcDbLine
 10
-3.7510575800472026
 20
2.0916899988172233
 30
0.0
 11
-3.7510575800472026
 21
-7.7370600023655598
 31
0.0
  0
LINE
  5
CF
100
AcDbEntity
  8
Dimension
370
              -2
390
0
  6
Continuous
 62
               0
100
AcDbLine
 10
6.6089424199527969
 20
2.0916899988172233
 30
0.0
 11
6.6089424199527969
 21
-7.7370600023655598
 31
0.0
  0
LINE
  5
D0
100
AcDbEntity
  8
Dimension
370
              -2
390
0
  6
Continuous
 62
               0
100
AcDbLine
 10
-3.7510575800472026
 20
-6.784559999999999
 30
0.0
 11
6.6089424199527969
 21
-6.784559999999999
 31
0.0
  0
SOLID
  5
D1
100
AcDbEntity
  8
Dimension
370
              -2
390
0
 62
               0
100
AcDbTrace
 10
-3.7510575800472026
 20
-6.784559999999999
 30
0.0
 11
-2.9573075800472024
 21
-6.5718753285077955
 31
0.0
 12
-2.9573075800472024
 22
-6.9972446714922025
 32
0.0
 13
-2.9573075800472024
 23
-6.9972446714922025
 33
0.0
  0
SOLID
  5
D2
100
AcDbEntity
  8
Dimension
370
              -2
390
0
 62
               0
100
AcDbTrace
 10
6.6089424199527969
 20
-6.784559999999999
 30
0.0
 11
5.8151924199527967
 21
-6.9972446714922025
 31
0.0
 12
5.8151924199527967
 22
-6.5718753285077955
 32
0.0
 13
5.8151924199527967
 23
-6.5718753285077955
 33
0.0
  0
WIPEOUT
  5
D3
100
AcDbEntity
  8
Dimension
370
              -2
390
0
  6
Continuous
 62
               0
 92
        0
100
AcDbWipeout
 90
        0
 10
-0.5888356163766844
 20
-7.3930997499999966
 30
0.0
 11
4.4449860042995875
 21
0.0
 31
0.0
 12
0.0
 22
4.4449860042995875
 32
0.0
 13
1.0
 23
1.0
340
0
 70
               7
280
               1
281
              50
282
              50
283
               0
360
0
 71
               2
 91
        5
 14
-0.5
 24
0.5
 14
0.5
 24
0.5
 14
0.5
 24
0.2261904764553293
 14
-0.5
 24
0.2261904764553293
 14
-0.5
 24
0.5
  0
MTEXT
  5
D4
100
AcDbEntity
  8
Dimension
390
0
 62
               0
100
AcDbMText
 10
-0.5888356163766844
 20
-6.3705986302083302
 30
0.0
 40
0.7579186197916666
 41
0.0
 71
               1
 72
               1
  1
10.36mm
  7
Helvetica
 73
               1
 44
0.9673603504928806
  0
POINT
  5
D5
100
AcDbEntity
  8
Defpoints
370
               0
390
0
 62
               0
100
AcDbPoint
 10
6.6089424199527969
 20
2.5679400000000001
 30
0.0
  0
POINT
  5
D6
100
AcDbEntity
  8
Defpoints
370
               0
390
0
 62
               0
100
AcDbPoint
 10
-3.7510575800472026
 20
2.5679400000000001
 30
0.0
  0
POINT
  5
D7
100
AcDbEntity
  8
Defpoints
370
               0
390
0
 62
               0
100
AcDbPoint
 10
-3.7510575800472026
 20
-6.784559999999999
 30
0.0
  0
ENDBLK
  5
D8
100
AcDbEntity
  8
Dimension
390
0
100
AcDbBlockEnd
  0
BLOCK
  5
D9
100
AcDbEntity
  8
Dimension
390
0
100
AcDbBlockBegin
  2
*D13
 70
               1
 10
0.0
 20
0.0
 30
0.0
  3
*D13
  1

  0
LINE
  5
DA
100
AcDbEntity
  8
Dimension
370
              -2
390
0
  6
Continuous
 62
               0
100
AcDbLine
 10
-3.1873075812299874
 20
11.88794
 30
0.0
 11
-19.093557582412771
 21
11.88794
 31
0.0
  0
LINE
  5
DB
100
AcDbEntity
  8
Dimension
370
              -2
390
0
  6
Continuous
 62
               0
100
AcDbLine
 10
-3.1873075812299874
 20
1.527940000000001
 30
0.0
 11
-19.093557582412757
 21
1.527940000000001
 31
0.0
  0
LINE
  5
DC
100
AcDbEntity
  8
Dimension
370
              -2
390
0
  6
Continuous
 62
               0
100
AcDbLine
 10
-18.141057580047203
 20
11.88794
 30
0.0
 11
-18.141057580047203
 21
1.527940000000001
 31
0.0
  0
SOLID
  5
DD
100
AcDbEntity
  8
Dimension
370
              -2
390
0
 62
               0
100
AcDbTrace
 10
-18.141057580047203
 20
11.88794
 30
0.0
 11
-17.928372908555001
 21
11.094190000000001
 31
0.0
 12
-18.353742251539408
 22
11.094190000000001
 32
0.0
 13
-18.353742251539408
 23
11.094190000000001
 33
0.0
  0
SOLID
  5
DE
100
AcDbEntity
  8
Dimension
370
              -2
390
0
 62
               0
100
AcDbTrace
 10
-18.141057580047203
 20
1.527940000000001
 30
0.0
 11
-18.353742251539408
 21
2.3216900000000011
 31
0.0
 12
-17.928372908554998
 22
2.3216900000000011
 32
0.0
 13
-17.928372908554998
 23
2.3216900000000011
 33
0.0
  0
WIPEOUT
  5
DF
100
AcDbEntity
  8
Dimension
370
              -2
390
0
  6
Continuous
 62
               0
 92
        0
100
AcDbWipeout
 90
        0
 10
-20.363550582196993
 20
5.6096651425781277
 30
0.0
 11
4.4449860042995866
 21
0.0
 31
0.0
 12
0.0
 22
4.4449860042995866
 32
0.0
 13
1.0
 23
1.0
340
0
 70
               7
280
               1
281
              50
282
              50
283
               0
360
0
 71
               2
 91
        5
 14
-0.5
 24
0.5
 14
0.5
 24
0.5
 14
0.5
 24
0.2261904764553293
 14
-0.5
 24
0.2261904764553293
 14
-0.5
 24
0.5
  0
MTEXT
  5
E0
100
AcDbEntity
  8
Dimension
390
0
 62
               0
100
AcDbMText
 10
-20.363550582196993
 20
6.6321662623697941
 30
0.0
 40
0.7579186197916666
 41
0.0
 71
               1
 72
               1
  1
10.36mm
  7
Helvetica
 73
               1
 44
0.9673603504928806
  0
POINT
  5
E1
100
AcDbEntity
  8
Defpoints
370
               0
390
0
 62
               0
100
AcDbPoint
 10
-2.7110575800472105
 20
1.527940000000001
 30
0.0
  0
POINT
  5
E2
100
AcDbEntity
  8
Defpoints
370
               0
390
0
 62
               0
100
AcDbPoint
 10
-2.7110575800472105
 20
11.88794
 30
0.0
  0
POINT
  5
E3
100
AcDbEntity
  8
Defpoints
370
               0
390
0
 62
               0
100
AcDbPoint
 10
-18.14105758004721
 20
11.88794
 30
0.0
  0
ENDBLK
  5
E4
100
AcDbEntity
  8
Dimension
390
0
100
AcDbBlockEnd
  0
BLOCK
  5
E5
100
AcDbEntity
  8
Dimension
390
0
100
AcDbBlockBegin
  2
*D14
 70
               1
 10
0.0
 20
0.0
 30
0.0
  3
*D14
  1

  0
LINE
  5
E6
100
AcDbEntity
  8
Dimension
370
              -2
390
0
  6
Continuous
 62
               0
100
AcDbLine
 10
-4.2273075812299794
 20
10.832940000000001
 30
0.0
 11
-13.643557582412768
 21
10.832940000000001
 31
0.0
  0
LINE
  5
E7
100
AcDbEntity
  8
Dimension
370
              -2
390
0
  6
Continuous
 62
               0
100
AcDbLine
 10
-4.2273075812299794
 20
2.5829400000000007
 30
0.0
 11
-13.643557582412754
 21
2.5829400000000007
 31
0.0
  0
LINE
  5
E8
100
AcDbEntity
  8
Dimension
370
              -2
390
0
  6
Continuous
 62
               0
100
AcDbLine
 10
-12.6910575800472
 20
10.832940000000001
 30
0.0
 11
-12.6910575800472
 21
2.5829400000000007
 31
0.0
  0
SOLID
  5
E9
100
AcDbEntity
  8
Dimension
370
              -2
390
0
 62
               0
100
AcDbTrace
 10
-12.6910575800472
 20
10.832940000000001
 30
0.0
 11
-12.478372908554997
 21
10.039190000000001
 31
0.0
 12
-12.903742251539404
 22
10.039190000000001
 32
0.0
 13
-12.903742251539404
 23
10.039190000000001
 33
0.0
  0
SOLID
  5
EA
100
AcDbEntity
  8
Dimension
370
              -2
390
0
 62
               0
100
AcDbTrace
 10
-12.6910575800472
 20
2.5829400000000007
 30
0.0
 11
-12.903742251539404
 21
3.3766900000000009
 31
0.0
 12
-12.478372908554997
 22
3.3766900000000009
 32
0.0
 13
-12.478372908554997
 23
3.3766900000000009
 33
0.0
  0
WIPEOUT
  5
EB
100
AcDbEntity
  8
Dimension
370
              -2
390
0
  6
Continuous
 62
               0
 92
        0
100
AcDbWipeout
 90
        0
 10
-14.617218204339366
 20
5.9378897824707026
 30
0.0
 11
3.8523212485843228
 21
0.0
 31
0.0
 12
0.0
 22
3.8523212485843228
 32
0.0
 13
1.0
 23
1.0
340
0
 70
               7
280
               1
281
              50
282
              50
283
               0
360
0
 71
               2
 91
        5
 14
-0.5
 24
0.5
 14
0.5
 24
0.5
 14
0.5
 24
0.1840659380504001
 14
-0.5
 24
0.1840659380504001
 14
-0.5
 24
0.5
  0
MTEXT
  5
EC
100
AcDbEntity
  8
Dimension
390
0
 62
               0
100
AcDbMText
 10
-14.617218204339366
 20
6.9603909022623691
 30
0.0
 40
0.7579186197916666
 41
0.0
 71
               1
 72
               1
  1
8.25mm
  7
Helvetica
 73
               1
 44
0.9673603504928806
  0
POINT
  5
ED
100
AcDbEntity
  8
Defpoints
370
               0
390
0
 62
               0
100
AcDbPoint
 10
-3.7510575800472026
 20
2.5829400000000007
 30
0.0
  0
POINT
  5
EE
100
AcDbEntity
  8
Defpoints
370
               0
390
0
 62
               0
100
AcDbPoint
 10
-3.7510575800472026
 20
10.832940000000001
 30
0.0
  0
POINT
  5
EF
100
AcDbEntity
  8
Defpoints
370
               0
390
0
 62
               0
100
AcDbPoint
 10
-12.691057580047202
 20
10.832940000000001
 30
0.0
  0
ENDBLK
  5
F0
100
AcDbEntity
  8
Dimension
390
0
100
AcDbBlockEnd
  0
BLOCK
  5
F1
100
AcDbEntity
  8
Dimension
390
0
100
AcDbBlockBegin
  2
*D15
 70
               1
 10
0.0
 20
0.0
 30
0.0
  3
*D15
  1

  0
LINE
  5
F2
100
AcDbEntity
  8
Dimension
370
              -2
390
0
  6
Continuous
 62
               0
100
AcDbLine
 10
-2.69605758004721
 20
1.0516899988172241
 30
0.0
 11
-2.69605758004721
 21
-4.9449000023655572
 31
0.0
  0
LINE
  5
F3
100
AcDbEntity
  8
Dimension
370
              -2
390
0
  6
Continuous
 62
               0
100
AcDbLine
 10
5.55394241995279
 20
1.0516899988172241
 30
0.0
 11
5.55394241995279
 21
-4.9449000023655572
 31
0.0
  0
LINE
  5
F4
100
AcDbEntity
  8
Dimension
370
              -2
390
0
  6
Continuous
 62
               0
100
AcDbLine
 10
-2.69605758004721
 20
-3.9923999999999964
 30
0.0
 11
5.55394241995279
 21
-3.9923999999999964
 31
0.0
  0
SOLID
  5
F5
100
AcDbEntity
  8
Dimension
370
              -2
390
0
 62
               0
100
AcDbTrace
 10
-2.69605758004721
 20
-3.9923999999999964
 30
0.0
 11
-1.90230758004721
 21
-3.7797153285077929
 31
0.0
 12
-1.90230758004721
 22
-4.2050846714921999
 32
0.0
 13
-1.90230758004721
 23
-4.2050846714921999
 33
0.0
  0
SOLID
  5
F6
100
AcDbEntity
  8
Dimension
370
              -2
390
0
 62
               0
100
AcDbTrace
 10
5.55394241995279
 20
-3.9923999999999964
 30
0.0
 11
4.7601924199527899
 21
-4.2050846714921999
 31
0.0
 12
4.7601924199527899
 22
-3.7797153285077925
 32
0.0
 13
4.7601924199527899
 23
-3.7797153285077925
 33
0.0
  0
WIPEOUT
  5
F7
100
AcDbEntity
  8
Dimension
370
              -2
390
0
  6
Continuous
 62
               0
 92
        0
100
AcDbWipeout
 90
        0
 10
-0.5304518469175008
 20
-4.6009397499999976
 30
0.0
 11
3.8523212485843232
 21
0.0
 31
0.0
 12
0.0
 22
3.8523212485843232
 32
0.0
 13
1.0
 23
1.0
340
0
 70
               7
280
               1
281
              50
282
              50
283
               0
360
0
 71
               2
 91
        5
 14
-0.5
 24
0.5
 14
0.5
 24
0.5
 14
0.5
 24
0.1840659380504001
 14
-0.5
 24
0.1840659380504001
 14
-0.5
 24
0.5
  0
MTEXT
  5
F8
100
AcDbEntity
  8
Dimension
390
0
 62
               0
100
AcDbMText
 10
-0.5304518469175008
 20
-3.5784386302083311
 30
0.0
 40
0.7579186197916666
 41
0.0
 71
               1
 72
               1
  1
8.25mm
  7
Helvetica
 73
               1
 44
0.9673603504928806
  0
POINT
  5
F9
100
AcDbEntity
  8
Defpoints
370
               0
390
0
 62
               0
100
AcDbPoint
 10
5.55394241995279
 20
1.527940000000001
 30
0.0
  0
POINT
  5
FA
100
AcDbEntity
  8
Defpoints
370
               0
390
0
 62
               0
100
AcDbPoint
 10
-2.69605758004721
 20
1.527940000000001
 30
0.0
  0
POINT
  5
FB
100
AcDbEntity
  8
Defpoints
370
               0
390
0
 62
               0
100
AcDbPoint
 10
-2.69605758004721
 20
-3.9923999999999982
 30
0.0
  0
ENDBLK
  5
FC
100
AcDbEntity
  8
Dimension
390
0
100
AcDbBlockEnd
  0
BLOCK
  5
FD
100
AcDbEntity
  8
Dimension
390
0
100
AcDbBlockBegin
  2
*D16
 70
               1
 10
0.0
 20
0.0
 30
0.0
  3
*D16
  1

  0
LINE
  5
FE
100
AcDbEntity
  8
Dimension
370
              -2
390
0
  6
Continuous
 62
               0
100
AcDbLine
 10
-5.1835575800472071
 20
13.546690001182775
 30
0.0
 11
-5.1835575800472071
 21
23.817940002365553
 31
0.0
  0
LINE
  5
FF
100
AcDbEntity
  8
Dimension
370
              -2
390
0
  6
Continuous
 62
               0
100
AcDbLine
 10
-6.4335575800472071
 20
14.796690001182775
 30
0.0
 11
-6.4335575800472071
 21
23.81794000236556
 31
0.0
  0
LINE
  5
100
100
AcDbEntity
  8
Dimension
370
              -2
390
0
  6
Continuous
 62
               0
100
AcDbLine
 10
-6.4335575800472071
 20
22.86544
 30
0.0
 11
-5.1835575800472071
 21
22.86544
 31
0.0
  0
LINE
  5
101
100
AcDbEntity
  8
Dimension
370
              -2
390
0
  6
Continuous
 62
               0
100
AcDbLine
 10
-5.1835575800472071
 20
22.86544
 30
0.0
 11
-3.1910575800472145
 21
22.86544
 31
0.0
  0
SOLID
  5
102
100
AcDbEntity
  8
Dimension
370
              -2
390
0
 62
               0
100
AcDbTrace
 10
-5.1835575800472071
 20
22.86544
 30
0.0
 11
-4.3898075800472069
 21
23.078124671492205
 31
0.0
 12
-4.3898075800472069
 22
22.652755328507794
 32
0.0
 13
-4.3898075800472069
 23
22.652755328507794
 33
0.0
  0
LINE
  5
103
100
AcDbEntity
  8
Dimension
370
              -2
390
0
  6
Continuous
 62
               0
100
AcDbLine
 10
-6.4335575800472071
 20
22.86544
 30
0.0
 11
-8.1835540784140193
 21
22.86544
 31
0.0
  0
SOLID
  5
104
100
AcDbEntity
  8
Dimension
370
              -2
390
0
 62
               0
100
AcDbTrace
 10
-6.4335575800472071
 20
22.86544
 30
0.0
 11
-7.2273075800472073
 21
22.652755328507794
 31
0.0
 12
-7.2273075800472073
 22
23.078124671492205
 32
0.0
 13
-7.2273075800472073
 23
23.078124671492205
 33
0.0
  0
WIPEOUT
  5
105
100
AcDbEntity
  8
Dimension
370
              -2
390
0
  6
Continuous
 62
               0
 92
        0
100
AcDbWipeout
 90
        0
 10
-3.1910575800472145
 20
22.256902166666659
 30
0.0
 11
3.8523212485843232
 21
0.0
 31
0.0
 12
0.0
 22
3.8523212485843232
 32
0.0
 13
1.0
 23
1.0
340
0
 70
               7
280
               1
281
              50
282
              50
283
               0
360
0
 71
               2
 91
        5
 14
-0.5
 24
0.5
 14
0.5
 24
0.5
 14
0.5
 24
0.1840659380503998
 14
-0.5
 24
0.1840659380503998
 14
-0.5
 24
0.5
  0
MTEXT
  5
106
100
AcDbEntity
  8
Dimension
390
0
 62
               0
100
AcDbMText
 10
-3.1910575800472145
 20
23.279403286458326
 30
0.0
 40
0.7579186197916666
 41
0.0
 71
               1
 72
               1
  1
1.25mm
  7
Helvetica
 73
               1
 44
0.9673603504928806
  0
WIPEOUT
  5
107
100
AcDbEntity
  8
Dimension
370
              -2
390
0
  6
Continuous
 62
               0
 92
        0
100
AcDbWipeout
 90
        0
 10
0.6612636685371029
 20
22.256900499999997
 30
0.0
 11
5.0270675208833486
 21
0.0
 31
0.0
 12
0.0
 22
5.0270675208833486
 32
0.0
 13
1.0
 23
1.0
340
0
 70
               7
280
               1
281
              50
282
              50
283
               0
360
0
 71
               2
 91
        5
 14
-0.5
 24
0.5
 14
0.5
 24
0.5
 14
0.5
 24
0.2578947378478542
 14
-0.5
 24
0.2578947378478542
 14
-0.5
 24
0.5
  0
MTEXT
  5
108
100
AcDbEntity
  8
Dimension
390
0
 62
               0
100
AcDbMText
 10
0.6612636685371029
 20
23.279401619791663
 30
0.0
 40
0.7579186197916666
 41
0.0
 71
               1
 72
               1
  1
±0.125mm
  7
Helvetica
 73
               1
 44
0.9673603504928806
  0
WIPEOUT
  5
109
100
AcDbEntity
  8
Dimension
370
              -2
390
0
  6
Continuous
 62
               0
 92
        0
100
AcDbWipeout
 90
        0
 10
5.6883311894204525
 20
22.256898333333329
 30
0.0
 11
2.10608325931761
 21
0.0
 31
0.0
 12
0.0
 22
2.10608325931761
 32
0.0
 13
1.0
 23
1.0
340
0
 70
               7
280
               1
281
              50
282
              50
283
               0
360
0
 71
               2
 91
        5
 14
-0.5
 24
0.5
 14
0.5
 24
0.5
 14
0.5
 24
-0.0778894675453986
 14
-0.5
 24
-0.0778894675453986
 14
-0.5
 24
0.5
  0
MTEXT
  5
10A
100
AcDbEntity
  8
Dimension
390
0
 62
               0
100
AcDbMText
 10
5.6883311894204525
 20
23.279402673611106
 30
0.0
 40
0.7579210069444442
 41
0.0
 71
               1
 72
               1
  1
 (x4)
  7
Helvetica
 73
               1
 44
0.9673603504928806
  0
POINT
  5
10B
100
AcDbEntity
  8
Defpoints
370
               0
390
0
 62
               0
100
AcDbPoint
 10
-6.4335575800472071
 20
14.320439999999998
 30
0.0
  0
POINT
  5
10C
100
AcDbEntity
  8
Defpoints
370
               0
390
0
 62
               0
100
AcDbPoint
 10
-5.1835575800472071
 20
13.070439999999998
 30
0.0
  0
POINT
  5
10D
100
AcDbEntity
  8
Defpoints
370
               0
390
0
 62
               0
100
AcDbPoint
 10
-5.1835575800472071
 20
22.86544
 30
0.0
  0
ENDBLK
  5
10E
100
AcDbEntity
  8
Dimension
390
0
100
AcDbBlockEnd
  0
BLOCK
  5
10F
100
AcDbEntity
  8
Dimension
390
0
100
AcDbBlockBegin
  2
*D17
 70
               1
 10
0.0
 20
0.0
 30
0.0
  3
*D17
  1

  0
LINE
  5
110
100
AcDbEntity
  8
Dimension
370
              -2
390
0
  6
Continuous
 62
               0
100
AcDbLine
 10
-6.909807581229984
 20
14.320439999999998
 30
0.0
 11
-17.743557582412762
 21
14.320439999999998
 31
0.0
  0
LINE
  5
111
100
AcDbEntity
  8
Dimension
370
              -2
390
0
  6
Continuous
 62
               0
100
AcDbLine
 10
-5.659807581229984
 20
13.070439999999998
 30
0.0
 11
-17.743557582412762
 21
13.070439999999998
 31
0.0
  0
LINE
  5
112
100
AcDbEntity
  8
Dimension
370
              -2
390
0
  6
Continuous
 62
               0
100
AcDbLine
 10
-16.791057580047209
 20
13.070439999999998
 30
0.0
 11
-16.791057580047209
 21
14.320439999999998
 31
0.0
  0
LINE
  5
113
100
AcDbEntity
  8
Dimension
370
              -2
390
0
  6
Continuous
 62
               0
100
AcDbLine
 10
-16.791057580047209
 20
14.320439999999998
 30
0.0
 11
-16.791057580047209
 21
17.11544
 31
0.0
  0
SOLID
  5
114
100
AcDbEntity
  8
Dimension
370
              -2
390
0
 62
               0
100
AcDbTrace
 10
-16.791057580047209
 20
14.320439999999998
 30
0.0
 11
-17.003742251539414
 21
15.114189999999997
 31
0.0
 12
-16.578372908555004
 22
15.114189999999997
 32
0.0
 13
-16.578372908555004
 23
15.114189999999997
 33
0.0
  0
LINE
  5
115
100
AcDbEntity
  8
Dimension
370
              -2
390
0
  6
Continuous
 62
               0
100
AcDbLine
 10
-16.791057580047209
 20
13.070439999999998
 30
0.0
 11
-16.791057580047209
 21
11.320443501633179
 31
0.0
  0
SOLID
  5
116
100
AcDbEntity
  8
Dimension
370
              -2
390
0
 62
               0
100
AcDbTrace
 10
-16.791057580047209
 20
13.070439999999998
 30
0.0
 11
-16.578372908555007
 21
12.276689999999999
 31
0.0
 12
-17.003742251539414
 22
12.276689999999999
 32
0.0
 13
-17.003742251539414
 23
12.276689999999999
 33
0.0
  0
WIPEOUT
  5
117
100
AcDbEntity
  8
Dimension
370
              -2
390
0
  6
Continuous
 62
               0
 92
        0
100
AcDbWipeout
 90
        0
 10
-21.987461216582219
 20
16.506902166666659
 30
0.0
 11
3.8523212485843246
 21
0.0
 31
0.0
 12
0.0
 22
3.8523212485843246
 32
0.0
 13
1.0
 23
1.0
340
0
 70
               7
280
               1
281
              50
282
              50
283
               0
360
0
 71
               2
 91
        5
 14
-0.5
 24
0.5
 14
0.5
 24
0.5
 14
0.5
 24
0.1840659380504
 14
-0.5
 24
0.1840659380504
 14
-0.5
 24
0.5
  0
MTEXT
  5
118
100
AcDbEntity
  8
Dimension
390
0
 62
               0
100
AcDbMText
 10
-21.987461216582219
 20
17.529403286458326
 30
0.0
 40
0.7579186197916666
 41
0.0
 71
               1
 72
               1
  1
1.25mm
  7
Helvetica
 73
               1
 44
0.9673603504928806
  0
WIPEOUT
  5
119
100
AcDbEntity
  8
Dimension
370
              -2
390
0
  6
Continuous
 62
               0
 92
        0
100
AcDbWipeout
 90
        0
 10
-18.135139967997901
 20
16.506900499999997
 30
0.0
 11
4.434402765168084
 21
0.0
 31
0.0
 12
0.0
 22
4.434402765168084
 32
0.0
 13
1.0
 23
1.0
340
0
 70
               7
280
               1
281
              50
282
              50
283
               0
360
0
 71
               2
 91
        5
 14
-0.5
 24
0.5
 14
0.5
 24
0.5
 14
0.5
 24
0.22553699687361
 14
-0.5
 24
0.22553699687361
 14
-0.5
 24
0.5
  0
MTEXT
  5
11A
100
AcDbEntity
  8
Dimension
390
0
 62
               0
100
AcDbMText
 10
-18.135139967997901
 20
17.529401619791663
 30
0.0
 40
0.7579186197916666
 41
0.0
 71
               1
 72
               1
  1
±0.13mm
  7
Helvetica
 73
               1
 44
0.9673603504928806
  0
WIPEOUT
  5
11B
100
AcDbEntity
  8
Dimension
370
              -2
390
0
  6
Continuous
 62
               0
 92
        0
100
AcDbWipeout
 90
        0
 10
-13.700737202829814
 20
16.506898333333329
 30
0.0
 11
2.1060832593176109
 21
0.0
 31
0.0
 12
0.0
 22
2.1060832593176109
 32
0.0
 13
1.0
 23
1.0
340
0
 70
               7
280
               1
281
              50
282
              50
283
               0
360
0
 71
               2
 91
        5
 14
-0.5
 24
0.5
 14
0.5
 24
0.5
 14
0.5
 24
-0.0778894675453984
 14
-0.5
 24
-0.0778894675453984
 14
-0.5
 24
0.5
  0
MTEXT
  5
11C
100
AcDbEntity
  8
Dimension
390
0
 62
               0
100
AcDbMText
 10
-13.700737202829814
 20
17.529402673611106
 30
0.0
 40
0.7579210069444442
 41
0.0
 71
               1
 72
               1
  1
 (x4)
  7
Helvetica
 73
               1
 44
0.9673603504928806
  0
POINT
  5
11D
100
AcDbEntity
  8
Defpoints
370
               0
390
0
 62
               0
100
AcDbPoint
 10
-5.1835575800472071
 20
13.070439999999998
 30
0.0
  0
POINT
  5
11E
100
AcDbEntity
  8
Defpoints
370
               0
390
0
 62
               0
100
AcDbPoint
 10
-6.4335575800472071
 20
14.320439999999998
 30
0.0
  0
POINT
  5
11F
100
AcDbEntity
  8
Defpoints
370
               0
390
0
 62
               0
100
AcDbPoint
 10
-16.791057580047209
 20
14.320439999999998
 30
0.0
  0
ENDBLK
  5
120
100
AcDbEntity
  8
Dimension
390
0
100
AcDbBlockEnd
  0
BLOCK
  5
121
100
AcDbEntity
  8
Dimension
390
0
100
AcDbBlockBegin
  2
*D18
 70
               1
 10
0.0
 20
0.0
 30
0.0
  3
*D18
  1

  0
LINE
  5
122
100
AcDbEntity
  8
Dimension
370
              -2
390
0
  6
Continuous
 62
               0
100
AcDbLine
 10
8.3001024199527933
 20
0.0762500000000017
 30
0.0
 11
14.07552563328764
 21
-1.9730366933914851
 31
0.0
  0
SOLID
  5
123
100
AcDbEntity
  8
Dimension
370
              -2
390
0
 62
               0
100
AcDbTrace
 10
8.3001024199527933
 20
0.0762500000000017
 30
0.0
 11
8.8457181535079208
 21
0.0285148086725469
 31
0.0
 12
8.7487519102522882
 22
-0.2378977551216484
 32
0.0
 13
8.7487519102522882
 23
-0.2378977551216484
 33
0.0
  0
LINE
  5
124
100
AcDbEntity
  8
Dimension
370
              -2
390
0
  6
Continuous
 62
               0
100
AcDbLine
 10
14.07552563328764
 20
-1.9730366933914851
 30
0.0
 11
15.575522635267134
 21
-1.9730366933914851
 31
0.0
  0
WIPEOUT
  5
125
100
AcDbEntity
  8
Dimension
370
              -2
390
0
  6
Continuous
 62
               0
 92
        0
100
AcDbWipeout
 90
        0
 10
13.649362010974983
 20
-2.5815747767248238
 30
0.0
 11
4.9741509887907256
 21
0.0
 31
0.0
 12
0.0
 22
4.9741509887907256
 32
0.0
 13
1.0
 23
1.0
340
0
 70
               7
280
               1
281
              50
282
              50
283
               0
360
0
 71
               2
 91
        5
 14
-0.5
 24
0.5
 14
0.5
 24
0.5
 14
0.5
 24
0.2553191483847808
 14
-0.5
 24
0.2553191483847808
 14
-0.5
 24
0.5
  0
MTEXT
  5
126
100
AcDbEntity
  8
Dimension
390
0
 62
               0
100
AcDbMText
 10
13.649362010974983
 20
-1.5590736569331576
 30
0.0
 40
0.7579186197916666
 41
0.0
 71
               1
 72
               1
  1
Ø 1.61mm
  7
Helvetica
 73
               1
 44
0.9673603504928806
  0
WIPEOUT
  5
127
100
AcDbEntity
  8
Dimension
370
              -2
390
0
  6
Continuous
 62
               0
 92
        0
100
AcDbWipeout
 90
        0
 10
18.623512999765701
 20
-2.0193385267248187
 30
0.0
 11
1.2170794999999996
 21
0.0
 31
0.0
 12
0.0
 22
1.2170794999999996
 32
0.0
 13
1.0
 23
1.0
340
0
 70
               7
280
               1
281
              50
282
              50
283
               0
360
0
 71
               2
 91
        5
 14
-0.5
 24
0.5
 14
0.0043478278911346
 24
0.5
 14
0.0043478278911346
 24
-0.5
 14
-0.5
 24
-0.5
 14
-0.5
 24
0.5
  0
MTEXT
  5
128
100
AcDbEntity
  8
Dimension
390
0
 62
               0
100
AcDbMText
 10
18.930428700863615
 20
-0.9968374069331525
 30
0.0
 40
0.7579186197916666
 41
0.0
 71
               2
 72
               1
  1
+
  7
Helvetica
 73
               1
 44
0.9673603504928806
  0
WIPEOUT
  5
129
100
AcDbEntity
  8
Dimension
370
              -2
390
0
  6
Continuous
 62
               0
 92
        0
100
AcDbWipeout
 90
        0
 10
18.755804245888488
 20
-3.1438143600581538
 30
0.0
 11
1.2170794999999996
 21
0.0
 31
0.0
 12
0.0
 22
1.2170794999999996
 32
0.0
 13
1.0
 23
1.0
340
0
 70
               7
280
               1
281
              50
282
              50
283
               0
360
0
 71
               2
 91
        5
 14
-0.5
 24
0.5
 14
-0.2130434700853519
 24
0.5
 14
-0.2130434700853519
 24
-0.5
 14
-0.5
 24
-0.5
 14
-0.5
 24
0.5
  0
MTEXT
  5
12A
100
AcDbEntity
  8
Dimension
390
0
 62
               0
100
AcDbMText
 10
18.930428700863615
 20
-2.1213132402664874
 30
0.0
 40
0.7579186197916666
 41
0.0
 71
               2
 72
               1
  1
-
  7
Helvetica
 73
               1
 44
0.9673603504928806
  0
WIPEOUT
  5
12B
100
AcDbEntity
  8
Dimension
370
              -2
390
0
  6
Continuous
 62
               0
 92
        0
100
AcDbWipeout
 90
        0
 10
19.237344401961536
 20
-2.0193385267248187
 30
0.0
 11
3.8523212485843246
 21
0.0
 31
0.0
 12
0.0
 22
3.8523212485843246
 32
0.0
 13
1.0
 23
1.0
340
0
 70
               7
280
               1
281
              50
282
              50
283
               0
360
0
 71
               2
 91
        5
 14
-0.5
 24
0.5
 14
0.5
 24
0.5
 14
0.5
 24
0.1840659380504002
 14
-0.5
 24
0.1840659380504002
 14
-0.5
 24
0.5
  0
MTEXT
  5
12C
100
AcDbEntity
  8
Dimension
390
0
 62
               0
100
AcDbMText
 10
19.237344401961536
 20
-0.9968374069331525
 30
0.0
 40
0.7579186197916666
 41
0.0
 71
               1
 72
               1
  1
0.05mm
  7
Helvetica
 73
               1
 44
0.9673603504928806
  0
WIPEOUT
  5
12D
100
AcDbEntity
  8
Dimension
370
              -2
390
0
  6
Continuous
 62
               0
 92
        0
100
AcDbWipeout
 90
        0
 10
19.237344401961536
 20
-3.1438143600581538
 30
0.0
 11
3.8523212485843246
 21
0.0
 31
0.0
 12
0.0
 22
3.8523212485843246
 32
0.0
 13
1.0
 23
1.0
340
0
 70
               7
280
               1
281
              50
282
              50
283
               0
360
0
 71
               2
 91
        5
 14
-0.5
 24
0.5
 14
0.5
 24
0.5
 14
0.5
 24
0.1840659380504002
 14
-0.5
 24
0.1840659380504002
 14
-0.5
 24
0.5
  0
MTEXT
  5
12E
100
AcDbEntity
  8
Dimension
390
0
 62
               0
100
AcDbMText
 10
19.237344401961536
 20
-2.1213132402664874
 30
0.0
 40
0.7579186197916666
 41
0.0
 71
               1
 72
               1
  1
0.05mm
  7
Helvetica
 73
               1
 44
0.9673603504928806
  0
WIPEOUT
  5
12F
100
AcDbEntity
  8
Dimension
370
              -2
390
0
  6
Continuous
 62
               0
 92
        0
100
AcDbWipeout
 90
        0
 10
23.089665650545854
 20
-2.5815786100581573
 30
0.0
 11
2.1060832593176109
 21
0.0
 31
0.0
 12
0.0
 22
2.1060832593176109
 32
0.0
 13
1.0
 23
1.0
340
0
 70
               7
280
               1
281
              50
282
              50
283
               0
360
0
 71
               2
 91
        5
 14
-0.5
 24
0.5
 14
0.5
 24
0.5
 14
0.5
 24
-0.0778894675453992
 14
-0.5
 24
-0.0778894675453992
 14
-0.5
 24
0.5
  0
MTEXT
  5
130
100
AcDbEntity
  8
Dimension
390
0
 62
               0
100
AcDbMText
 10
23.089665650545854
 20
-1.5590742697803797
 30
0.0
 40
0.7579210069444442
 41
0.0
 71
               1
 72
               1
  1
 (x4)
  7
Helvetica
 73
               1
 44
0.9673603504928806
  0
POINT
  5
131
100
AcDbEntity
  8
Defpoints
370
               0
390
0
 62
               0
100
AcDbPoint
 10
6.7827824199527953
 20
0.6146299999999982
 30
0.0
  0
POINT
  5
132
100
AcDbEntity
  8
Defpoints
370
               0
390
0
 62
               0
100
AcDbPoint
 10
8.3001024199527933
 20
0.0762500000000017
 30
0.0
  0
ENDBLK
  5
133
100
AcDbEntity
  8
Dimension
390
0
100
AcDbBlockEnd
  0
BLOCK
  5
134
100
AcDbEntity
  8
Dimension
390
0
100
AcDbBlockBegin
  2
*D19
 70
               1
 10
0.0
 20
0.0
 30
0.0
  3
*D19
  1

  0
LINE
  5
135
100
AcDbEntity
  8
Dimension
370
              -2
390
0
  6
Continuous
 62
               0
100
AcDbLine
 10
7.8777624199527878
 20
10.270609999999998
 30
0.0
 11
12.608948465653938
 21
6.6154361733106128
 31
0.0
  0
SOLID
  5
136
100
AcDbEntity
  8
Dimension
370
              -2
390
0
 62
               0
100
AcDbTrace
 10
7.8777624199527878
 20
10.270609999999998
 30
0.0
 11
8.3819228333936291
 21
10.056606601164539
 31
0.0
 12
8.2073764461572924
 22
9.833197413391856
 32
0.0
 13
8.2073764461572924
 23
9.833197413391856
 33
0.0
  0
LINE
  5
137
100
AcDbEntity
  8
Dimension
370
              -2
390
0
  6
Continuous
 62
               0
100
AcDbLine
 10
12.608948465653938
 20
6.6154361733106128
 30
0.0
 11
14.108945467633433
 21
6.6154361733106128
 31
0.0
  0
WIPEOUT
  5
138
100
AcDbEntity
  8
Dimension
370
              -2
390
0
  6
Continuous
 62
               0
 92
        0
100
AcDbWipeout
 90
        0
 10
11.886452465483643
 20
6.0068980899772741
 30
0.0
 11
4.9741509887907256
 21
0.0
 31
0.0
 12
0.0
 22
4.9741509887907256
 32
0.0
 13
1.0
 23
1.0
340
0
 70
               7
280
               1
281
              50
282
              50
283
               0
360
0
 71
               2
 91
        5
 14
-0.5
 24
0.5
 14
0.5
 24
0.5
 14
0.5
 24
0.2553191483847808
 14
-0.5
 24
0.2553191483847808
 14
-0.5
 24
0.5
  0
MTEXT
  5
139
100
AcDbEntity
  8
Dimension
390
0
 62
               0
100
AcDbMText
 10
11.886452465483643
 20
7.0293992097689406
 30
0.0
 40
0.7579186197916666
 41
0.0
 71
               1
 72
               1
  1
Ø 0.85mm
  7
Helvetica
 73
               1
 44
0.9673603504928806
  0
WIPEOUT
  5
13A
100
AcDbEntity
  8
Dimension
370
              -2
390
0
  6
Continuous
 62
               0
 92
        0
100
AcDbWipeout
 90
        0
 10
16.860603454274361
 20
6.5691343399772792
 30
0.0
 11
1.2170794999999996
 21
0.0
 31
0.0
 12
0.0
 22
1.2170794999999996
 32
0.0
 13
1.0
 23
1.0
340
0
 70
               7
280
               1
281
              50
282
              50
283
               0
360
0
 71
               2
 91
        5
 14
-0.5
 24
0.5
 14
0.0043478278911346
 24
0.5
 14
0.0043478278911346
 24
-0.5
 14
-0.5
 24
-0.5
 14
-0.5
 24
0.5
  0
MTEXT
  5
13B
100
AcDbEntity
  8
Dimension
390
0
 62
               0
100
AcDbMText
 10
17.167519155372275
 20
7.5916354597689457
 30
0.0
 40
0.7579186197916666
 41
0.0
 71
               2
 72
               1
  1
+
  7
Helvetica
 73
               1
 44
0.9673603504928806
  0
WIPEOUT
  5
13C
100
AcDbEntity
  8
Dimension
370
              -2
390
0
  6
Continuous
 62
               0
 92
        0
100
AcDbWipeout
 90
        0
 10
16.992894700397148
 20
5.4446585066439441
 30
0.0
 11
1.2170794999999996
 21
0.0
 31
0.0
 12
0.0
 22
1.2170794999999996
 32
0.0
 13
1.0
 23
1.0
340
0
 70
               7
280
               1
281
              50
282
              50
283
               0
360
0
 71
               2
 91
        5
 14
-0.5
 24
0.5
 14
-0.2130434700853519
 24
0.5
 14
-0.2130434700853519
 24
-0.5
 14
-0.5
 24
-0.5
 14
-0.5
 24
0.5
  0
MTEXT
  5
13D
100
AcDbEntity
  8
Dimension
390
0
 62
               0
100
AcDbMText
 10
17.167519155372275
 20
6.4671596264356106
 30
0.0
 40
0.7579186197916666
 41
0.0
 71
               2
 72
               1
  1
-
  7
Helvetica
 73
               1
 44
0.9673603504928806
  0
WIPEOUT
  5
13E
100
AcDbEntity
  8
Dimension
370
              -2
390
0
  6
Continuous
 62
               0
 92
        0
100
AcDbWipeout
 90
        0
 10
17.474434856470197
 20
6.5691343399772792
 30
0.0
 11
4.4449860042995866
 21
0.0
 31
0.0
 12
0.0
 22
4.4449860042995866
 32
0.0
 13
1.0
 23
1.0
340
0
 70
               7
280
               1
281
              50
282
              50
283
               0
360
0
 71
               2
 91
        5
 14
-0.5
 24
0.5
 14
0.5
 24
0.5
 14
0.5
 24
0.2261904764553293
 14
-0.5
 24
0.2261904764553293
 14
-0.5
 24
0.5
  0
MTEXT
  5
13F
100
AcDbEntity
  8
Dimension
390
0
 62
               0
100
AcDbMText
 10
17.474434856470197
 20
7.5916354597689457
 30
0.0
 40
0.7579186197916666
 41
0.0
 71
               1
 72
               1
  1
0.025mm
  7
Helvetica
 73
               1
 44
0.9673603504928806
  0
WIPEOUT
  5
140
100
AcDbEntity
  8
Dimension
370
              -2
390
0
  6
Continuous
 62
               0
 92
        0
100
AcDbWipeout
 90
        0
 10
17.474434856470197
 20
5.4446585066439441
 30
0.0
 11
4.4449860042995866
 21
0.0
 31
0.0
 12
0.0
 22
4.4449860042995866
 32
0.0
 13
1.0
 23
1.0
340
0
 70
               7
280
               1
281
              50
282
              50
283
               0
360
0
 71
               2
 91
        5
 14
-0.5
 24
0.5
 14
0.5
 24
0.5
 14
0.5
 24
0.2261904764553293
 14
-0.5
 24
0.2261904764553293
 14
-0.5
 24
0.5
  0
MTEXT
  5
141
100
AcDbEntity
  8
Dimension
390
0
 62
               0
100
AcDbMText
 10
17.474434856470197
 20
6.4671596264356106
 30
0.0
 40
0.7579186197916666
 41
0.0
 71
               1
 72
               1
  1
0.025mm
  7
Helvetica
 73
               1
 44
0.9673603504928806
  0
WIPEOUT
  5
142
100
AcDbEntity
  8
Dimension
370
              -2
390
0
  6
Continuous
 62
               0
 92
        0
100
AcDbWipeout
 90
        0
 10
21.919420860769776
 20
6.0068942566439407
 30
0.0
 11
2.1060832593176109
 21
0.0
 31
0.0
 12
0.0
 22
2.1060832593176109
 32
0.0
 13
1.0
 23
1.0
340
0
 70
               7
280
               1
281
              50
282
              50
283
               0
360
0
 71
               2
 91
        5
 14
-0.5
 24
0.5
 14
0.5
 24
0.5
 14
0.5
 24
-0.0778894675453992
 14
-0.5
 24
-0.0778894675453992
 14
-0.5
 24
0.5
  0
MTEXT
  5
143
100
AcDbEntity
  8
Dimension
390
0
 62
               0
100
AcDbMText
 10
21.919420860769776
 20
7.0293985969217179
 30
0.0
 40
0.7579210069444442
 41
0.0
 71
               1
 72
               1
  1
 (x2)
  7
Helvetica
 73
               1
 44
0.9673603504928806
  0
POINT
  5
144
100
AcDbEntity
  8
Defpoints
370
               0
390
0
 62
               0
100
AcDbPoint
 10
7.2051224199528008
 20
10.79027
 30
0.0
  0
POINT
  5
145
100
AcDbEntity
  8
Defpoints
370
               0
390
0
 62
               0
100
AcDbPoint
 10
7.8777624199527878
 20
10.270609999999998
 30
0.0
  0
ENDBLK
  5
146
100
AcDbEntity
  8
Dimension
390
0
100
AcDbBlockEnd
  0
BLOCK
  5
147
100
AcDbEntity
  8
None
390
0
100
AcDbBlockBegin
  2
Group-1
 70
               0
 10
0.0
 20
0.0
 30
0.0
  3
Group-1
  1

  0
SOLID
  5
148
100
AcDbEntity
  8
None
370
              15
390
0
  6
Continuous
 62
               7
100
AcDbTrace
 10
-2.69605758004721
 20
11.077939999999998
 30
0.0
 11
-2.69605758004721
 21
11.88794
 31
0.0
 12
-2.44605758004721
 22
11.077939999999998
 32
0.0
 13
-2.44605758004721
 23
11.88794
 33
0.0
  0
SOLID
  5
149
100
AcDbEntity
  8
None
370
              15
390
0
  6
Continuous
 62
               7
100
AcDbTrace
 10
-3.7510575800472026
 20
10.582940000000001
 30
0.0
 11
-3.7510575800472026
 21
10.832940000000001
 31
0.0
 12
-2.9410575800472003
 22
10.582940000000001
 32
0.0
 13
-2.9410575800472003
 23
10.832940000000001
 33
0.0
  0
SOLID
  5
14A
100
AcDbEntity
  8
None
370
              15
390
0
  6
Continuous
 62
               7
100
AcDbTrace
 10
-2.69605758004721
 20
1.527940000000001
 30
0.0
 11
-2.69605758004721
 21
2.3379400000000032
 31
0.0
 12
-2.44605758004721
 22
1.527940000000001
 32
0.0
 13
-2.44605758004721
 23
2.3379400000000032
 33
0.0
  0
SOLID
  5
14B
100
AcDbEntity
  8
None
370
              15
390
0
  6
Continuous
 62
               7
100
AcDbTrace
 10
-2.2960575800472043
 20
11.077939999999998
 30
0.0
 11
-2.2960575800472043
 21
11.88794
 31
0.0
 12
-2.0460575800472043
 22
11.077939999999998
 32
0.0
 13
-2.0460575800472043
 23
11.88794
 33
0.0
  0
SOLID
  5
14C
100
AcDbEntity
  8
None
370
              15
390
0
  6
Continuous
 62
               7
100
AcDbTrace
 10
-1.8960575800471986
 20
11.077939999999998
 30
0.0
 11
-1.8960575800471986
 21
11.88794
 31
0.0
 12
-1.6460575800471986
 22
11.077939999999998
 32
0.0
 13
-1.6460575800471986
 23
11.88794
 33
0.0
  0
SOLID
  5
14D
100
AcDbEntity
  8
None
370
              15
390
0
  6
Continuous
 62
               7
100
AcDbTrace
 10
-1.4960575800472071
 20
11.077939999999998
 30
0.0
 11
-1.4960575800472071
 21
11.88794
 31
0.0
 12
-1.2460575800472071
 22
11.077939999999998
 32
0.0
 13
-1.2460575800472071
 23
11.88794
 33
0.0
  0
SOLID
  5
14E
100
AcDbEntity
  8
None
370
              15
390
0
  6
Continuous
 62
               7
100
AcDbTrace
 10
-1.0960575800472014
 20
11.077939999999998
 30
0.0
 11
-1.0960575800472014
 21
11.88794
 31
0.0
 12
-0.8460575800472014
 22
11.077939999999998
 32
0.0
 13
-0.8460575800472014
 23
11.88794
 33
0.0
  0
SOLID
  5
14F
100
AcDbEntity
  8
None
370
              15
390
0
  6
Continuous
 62
               7
100
AcDbTrace
 10
-0.69605758004721
 20
11.077939999999998
 30
0.0
 11
-0.69605758004721
 21
11.88794
 31
0.0
 12
-0.44605758004721
 22
11.077939999999998
 32
0.0
 13
-0.44605758004721
 23
11.88794
 33
0.0
  0
SOLID
  5
150
100
AcDbEntity
  8
None
370
              15
390
0
  6
Continuous
 62
               7
100
AcDbTrace
 10
-0.2960575800472043
 20
11.077939999999998
 30
0.0
 11
-0.2960575800472043
 21
11.88794
 31
0.0
 12
-0.0460575800472043
 22
11.077939999999998
 32
0.0
 13
-0.0460575800472043
 23
11.88794
 33
0.0
  0
SOLID
  5
151
100
AcDbEntity
  8
None
370
              15
390
0
  6
Continuous
 62
               7
100
AcDbTrace
 10
0.1039424199528014
 20
11.077939999999998
 30
0.0
 11
0.1039424199528014
 21
11.88794
 31
0.0
 12
0.3539424199528014
 22
11.077939999999998
 32
0.0
 13
0.3539424199528014
 23
11.88794
 33
0.0
  0
SOLID
  5
152
100
AcDbEntity
  8
None
370
              15
390
0
  6
Continuous
 62
               7
100
AcDbTrace
 10
0.5039424199527929
 20
11.077939999999998
 30
0.0
 11
0.5039424199527929
 21
11.88794
 31
0.0
 12
0.7539424199527929
 22
11.077939999999998
 32
0.0
 13
0.7539424199527929
 23
11.88794
 33
0.0
  0
SOLID
  5
153
100
AcDbEntity
  8
None
370
              15
390
0
  6
Continuous
 62
               7
100
AcDbTrace
 10
0.9039424199527986
 20
11.077939999999998
 30
0.0
 11
0.9039424199527986
 21
11.88794
 31
0.0
 12
1.1539424199527986
 22
11.077939999999998
 32
0.0
 13
1.1539424199527986
 23
11.88794
 33
0.0
  0
SOLID
  5
154
100
AcDbEntity
  8
None
370
              15
390
0
  6
Continuous
 62
               7
100
AcDbTrace
 10
1.30394241995279
 20
11.077939999999998
 30
0.0
 11
1.30394241995279
 21
11.88794
 31
0.0
 12
1.55394241995279
 22
11.077939999999998
 32
0.0
 13
1.55394241995279
 23
11.88794
 33
0.0
  0
SOLID
  5
155
100
AcDbEntity
  8
None
370
              15
390
0
  6
Continuous
 62
               7
100
AcDbTrace
 10
1.7039424199527957
 20
11.077939999999998
 30
0.0
 11
1.7039424199527957
 21
11.88794
 31
0.0
 12
1.9539424199527957
 22
11.077939999999998
 32
0.0
 13
1.9539424199527957
 23
11.88794
 33
0.0
  0
SOLID
  5
156
100
AcDbEntity
  8
None
370
              15
390
0
  6
Continuous
 62
               7
100
AcDbTrace
 10
2.1039424199528014
 20
11.077939999999998
 30
0.0
 11
2.1039424199528014
 21
11.88794
 31
0.0
 12
2.3539424199528014
 22
11.077939999999998
 32
0.0
 13
2.3539424199528014
 23
11.88794
 33
0.0
  0
SOLID
  5
157
100
AcDbEntity
  8
None
370
              15
390
0
  6
Continuous
 62
               7
100
AcDbTrace
 10
2.5039424199527929
 20
11.077939999999998
 30
0.0
 11
2.5039424199527929
 21
11.88794
 31
0.0
 12
2.7539424199527929
 22
11.077939999999998
 32
0.0
 13
2.7539424199527929
 23
11.88794
 33
0.0
  0
SOLID
  5
158
100
AcDbEntity
  8
None
370
              15
390
0
  6
Continuous
 62
               7
100
AcDbTrace
 10
2.9039424199527986
 20
11.077939999999998
 30
0.0
 11
2.9039424199527986
 21
11.88794
 31
0.0
 12
3.1539424199527986
 22
11.077939999999998
 32
0.0
 13
3.1539424199527986
 23
11.88794
 33
0.0
  0
SOLID
  5
159
100
AcDbEntity
  8
None
370
              15
390
0
  6
Continuous
 62
               7
100
AcDbTrace
 10
3.30394241995279
 20
11.077939999999998
 30
0.0
 11
3.30394241995279
 21
11.88794
 31
0.0
 12
3.55394241995279
 22
11.077939999999998
 32
0.0
 13
3.55394241995279
 23
11.88794
 33
0.0
  0
SOLID
  5
15A
100
AcDbEntity
  8
None
370
              15
390
0
  6
Continuous
 62
               7
100
AcDbTrace
 10
3.7039424199527957
 20
11.077939999999998
 30
0.0
 11
3.7039424199527957
 21
11.88794
 31
0.0
 12
3.9539424199527957
 22
11.077939999999998
 32
0.0
 13
3.9539424199527957
 23
11.88794
 33
0.0
  0
SOLID
  5
15B
100
AcDbEntity
  8
None
370
              15
390
0
  6
Continuous
 62
               7
100
AcDbTrace
 10
4.1039424199528014
 20
11.077939999999998
 30
0.0
 11
4.1039424199528014
 21
11.88794
 31
0.0
 12
4.3539424199527872
 22
11.077939999999998
 32
0.0
 13
4.3539424199527872
 23
11.88794
 33
0.0
  0
SOLID
  5
15C
100
AcDbEntity
  8
None
370
              15
390
0
  6
Continuous
 62
               7
100
AcDbTrace
 10
4.5039424199527929
 20
11.077939999999998
 30
0.0
 11
4.5039424199527929
 21
11.88794
 31
0.0
 12
4.7539424199527929
 22
11.077939999999998
 32
0.0
 13
4.7539424199527929
 23
11.88794
 33
0.0
  0
SOLID
  5
15D
100
AcDbEntity
  8
None
370
              15
390
0
  6
Continuous
 62
               7
100
AcDbTrace
 10
4.9039424199527986
 20
11.077939999999998
 30
0.0
 11
4.9039424199527986
 21
11.88794
 31
0.0
 12
5.1539424199527986
 22
11.077939999999998
 32
0.0
 13
5.1539424199527986
 23
11.88794
 33
0.0
  0
SOLID
  5
15E
100
AcDbEntity
  8
None
370
              15
390
0
  6
Continuous
 62
               7
100
AcDbTrace
 10
5.30394241995279
 20
11.077939999999998
 30
0.0
 11
5.30394241995279
 21
11.88794
 31
0.0
 12
5.55394241995279
 22
11.077939999999998
 32
0.0
 13
5.55394241995279
 23
11.88794
 33
0.0
  0
SOLID
  5
15F
100
AcDbEntity
  8
None
370
              15
390
0
  6
Continuous
 62
               7
100
AcDbTrace
 10
-2.2960575800472043
 20
1.527940000000001
 30
0.0
 11
-2.2960575800472043
 21
2.3379400000000032
 31
0.0
 12
-2.0460575800472043
 22
1.527940000000001
 32
0.0
 13
-2.0460575800472043
 23
2.3379400000000032
 33
0.0
  0
SOLID
  5
160
100
AcDbEntity
  8
None
370
              15
390
0
  6
Continuous
 62
               7
100
AcDbTrace
 10
-1.8960575800471986
 20
1.527940000000001
 30
0.0
 11
-1.8960575800471986
 21
2.3379400000000032
 31
0.0
 12
-1.6460575800471986
 22
1.527940000000001
 32
0.0
 13
-1.6460575800471986
 23
2.3379400000000032
 33
0.0
  0
SOLID
  5
161
100
AcDbEntity
  8
None
370
              15
390
0
  6
Continuous
 62
               7
100
AcDbTrace
 10
-1.4960575800472071
 20
1.527940000000001
 30
0.0
 11
-1.4960575800472071
 21
2.3379400000000032
 31
0.0
 12
-1.2460575800472071
 22
1.527940000000001
 32
0.0
 13
-1.2460575800472071
 23
2.3379400000000032
 33
0.0
  0
SOLID
  5
162
100
AcDbEntity
  8
None
370
              15
390
0
  6
Continuous
 62
               7
100
AcDbTrace
 10
-1.0960575800472014
 20
1.527940000000001
 30
0.0
 11
-1.0960575800472014
 21
2.3379400000000032
 31
0.0
 12
-0.8460575800472014
 22
1.527940000000001
 32
0.0
 13
-0.8460575800472014
 23
2.3379400000000032
 33
0.0
  0
SOLID
  5
163
100
AcDbEntity
  8
None
370
              15
390
0
  6
Continuous
 62
               7
100
AcDbTrace
 10
-0.69605758004721
 20
1.527940000000001
 30
0.0
 11
-0.69605758004721
 21
2.3379400000000032
 31
0.0
 12
-0.44605758004721
 22
1.527940000000001
 32
0.0
 13
-0.44605758004721
 23
2.3379400000000032
 33
0.0
  0
SOLID
  5
164
100
AcDbEntity
  8
None
370
              15
390
0
  6
Continuous
 62
               7
100
AcDbTrace
 10
-0.2960575800472043
 20
1.527940000000001
 30
0.0
 11
-0.2960575800472043
 21
2.3379400000000032
 31
0.0
 12
-0.0460575800472043
 22
1.527940000000001
 32
0.0
 13
-0.0460575800472043
 23
2.3379400000000032
 33
0.0
  0
SOLID
  5
165
100
AcDbEntity
  8
None
370
              15
390
0
  6
Continuous
 62
               7
100
AcDbTrace
 10
0.1039424199528014
 20
1.527940000000001
 30
0.0
 11
0.1039424199528014
 21
2.3379400000000032
 31
0.0
 12
0.3539424199528014
 22
1.527940000000001
 32
0.0
 13
0.3539424199528014
 23
2.3379400000000032
 33
0.0
  0
SOLID
  5
166
100
AcDbEntity
  8
None
370
              15
390
0
  6
Continuous
 62
               7
100
AcDbTrace
 10
0.5039424199527929
 20
1.527940000000001
 30
0.0
 11
0.5039424199527929
 21
2.3379400000000032
 31
0.0
 12
0.7539424199527929
 22
1.527940000000001
 32
0.0
 13
0.7539424199527929
 23
2.3379400000000032
 33
0.0
  0
SOLID
  5
167
100
AcDbEntity
  8
None
370
              15
390
0
  6
Continuous
 62
               7
100
AcDbTrace
 10
0.9039424199527986
 20
1.527940000000001
 30
0.0
 11
0.9039424199527986
 21
2.3379400000000032
 31
0.0
 12
1.1539424199527986
 22
1.527940000000001
 32
0.0
 13
1.1539424199527986
 23
2.3379400000000032
 33
0.0
  0
SOLID
  5
168
100
AcDbEntity
  8
None
370
              15
390
0
  6
Continuous
 62
               7
100
AcDbTrace
 10
1.30394241995279
 20
1.527940000000001
 30
0.0
 11
1.30394241995279
 21
2.3379400000000032
 31
0.0
 12
1.55394241995279
 22
1.527940000000001
 32
0.0
 13
1.55394241995279
 23
2.3379400000000032
 33
0.0
  0
SOLID
  5
169
100
AcDbEntity
  8
None
370
              15
390
0
  6
Continuous
 62
               7
100
AcDbTrace
 10
1.7039424199527957
 20
1.527940000000001
 30
0.0
 11
1.7039424199527957
 21
2.3379400000000032
 31
0.0
 12
1.9539424199527957
 22
1.527940000000001
 32
0.0
 13
1.9539424199527957
 23
2.3379400000000032
 33
0.0
  0
SOLID
  5
16A
100
AcDbEntity
  8
None
370
              15
390
0
  6
Continuous
 62
               7
100
AcDbTrace
 10
2.1039424199528014
 20
1.527940000000001
 30
0.0
 11
2.1039424199528014
 21
2.3379400000000032
 31
0.0
 12
2.3539424199528014
 22
1.527940000000001
 32
0.0
 13
2.3539424199528014
 23
2.3379400000000032
 33
0.0
  0
SOLID
  5
16B
100
AcDbEntity
  8
None
370
              15
390
0
  6
Continuous
 62
               7
100
AcDbTrace
 10
2.5039424199527929
 20
1.527940000000001
 30
0.0
 11
2.5039424199527929
 21
2.3379400000000032
 31
0.0
 12
2.7539424199527929
 22
1.527940000000001
 32
0.0
 13
2.7539424199527929
 23
2.3379400000000032
 33
0.0
  0
SOLID
  5
16C
100
AcDbEntity
  8
None
370
              15
390
0
  6
Continuous
 62
               7
100
AcDbTrace
 10
2.9039424199527986
 20
1.527940000000001
 30
0.0
 11
2.9039424199527986
 21
2.3379400000000032
 31
0.0
 12
3.1539424199527986
 22
1.527940000000001
 32
0.0
 13
3.1539424199527986
 23
2.3379400000000032
 33
0.0
  0
SOLID
  5
16D
100
AcDbEntity
  8
None
370
              15
390
0
  6
Continuous
 62
               7
100
AcDbTrace
 10
3.30394241995279
 20
1.527940000000001
 30
0.0
 11
3.30394241995279
 21
2.3379400000000032
 31
0.0
 12
3.55394241995279
 22
1.527940000000001
 32
0.0
 13
3.55394241995279
 23
2.3379400000000032
 33
0.0
  0
SOLID
  5
16E
100
AcDbEntity
  8
None
370
              15
390
0
  6
Continuous
 62
               7
100
AcDbTrace
 10
3.7039424199527957
 20
1.527940000000001
 30
0.0
 11
3.7039424199527957
 21
2.3379400000000032
 31
0.0
 12
3.9539424199527957
 22
1.527940000000001
 32
0.0
 13
3.9539424199527957
 23
2.3379400000000032
 33
0.0
  0
SOLID
  5
16F
100
AcDbEntity
  8
None
370
              15
390
0
  6
Continuous
 62
               7
100
AcDbTrace
 10
4.1039424199528014
 20
1.527940000000001
 30
0.0
 11
4.1039424199528014
 21
2.3379400000000032
 31
0.0
 12
4.3539424199527872
 22
1.527940000000001
 32
0.0
 13
4.3539424199527872
 23
2.3379400000000032
 33
0.0
  0
SOLID
  5
170
100
AcDbEntity
  8
None
370
              15
390
0
  6
Continuous
 62
               7
100
AcDbTrace
 10
4.5039424199527929
 20
1.527940000000001
 30
0.0
 11
4.5039424199527929
 21
2.3379400000000032
 31
0.0
 12
4.7539424199527929
 22
1.527940000000001
 32
0.0
 13
4.7539424199527929
 23
2.3379400000000032
 33
0.0
  0
SOLID
  5
171
100
AcDbEntity
  8
None
370
              15
390
0
  6
Continuous
 62
               7
100
AcDbTrace
 10
4.9039424199527986
 20
1.527940000000001
 30
0.0
 11
4.9039424199527986
 21
2.3379400000000032
 31
0.0
 12
5.1539424199527986
 22
1.527940000000001
 32
0.0
 13
5.1539424199527986
 23
2.3379400000000032
 33
0.0
  0
SOLID
  5
172
100
AcDbEntity
  8
None
370
              15
390
0
  6
Continuous
 62
               7
100
AcDbTrace
 10
5.30394241995279
 20
1.527940000000001
 30
0.0
 11
5.30394241995279
 21
2.3379400000000032
 31
0.0
 12
5.55394241995279
 22
1.527940000000001
 32
0.0
 13
5.55394241995279
 23
2.3379400000000032
 33
0.0
  0
SOLID
  5
173
100
AcDbEntity
  8
None
370
              15
390
0
  6
Continuous
 62
               7
100
AcDbTrace
 10
-3.7510575800472026
 20
10.182940000000002
 30
0.0
 11
-3.7510575800472026
 21
10.432940000000002
 31
0.0
 12
-2.9410575800472003
 22
10.182940000000002
 32
0.0
 13
-2.9410575800472003
 23
10.432940000000002
 33
0.0
  0
SOLID
  5
174
100
AcDbEntity
  8
None
370
              15
390
0
  6
Continuous
 62
               7
100
AcDbTrace
 10
-3.7510575800472026
 20
9.7829400000000035
 30
0.0
 11
-3.7510575800472026
 21
10.032940000000004
 31
0.0
 12
-2.9410575800472003
 22
9.7829400000000035
 32
0.0
 13
-2.9410575800472003
 23
10.032940000000004
 33
0.0
  0
SOLID
  5
175
100
AcDbEntity
  8
None
370
              15
390
0
  6
Continuous
 62
               7
100
AcDbTrace
 10
-3.7510575800472026
 20
9.3829399999999978
 30
0.0
 11
-3.7510575800472026
 21
9.6329399999999978
 31
0.0
 12
-2.9410575800472003
 22
9.3829399999999978
 32
0.0
 13
-2.9410575800472003
 23
9.6329399999999978
 33
0.0
  0
SOLID
  5
176
100
AcDbEntity
  8
None
370
              15
390
0
  6
Continuous
 62
               7
100
AcDbTrace
 10
-3.7510575800472026
 20
8.9829399999999993
 30
0.0
 11
-3.7510575800472026
 21
9.2329399999999993
 31
0.0
 12
-2.9410575800472003
 22
8.9829399999999993
 32
0.0
 13
-2.9410575800472003
 23
9.2329399999999993
 33
0.0
  0
SOLID
  5
177
100
AcDbEntity
  8
None
370
              15
390
0
  6
Continuous
 62
               7
100
AcDbTrace
 10
-3.7510575800472026
 20
8.5829400000000007
 30
0.0
 11
-3.7510575800472026
 21
8.8329400000000007
 31
0.0
 12
-2.9410575800472003
 22
8.5829400000000007
 32
0.0
 13
-2.9410575800472003
 23
8.8329400000000007
 33
0.0
  0
SOLID
  5
178
100
AcDbEntity
  8
None
370
              15
390
0
  6
Continuous
 62
               7
100
AcDbTrace
 10
-3.7510575800472026
 20
8.1829400000000021
 30
0.0
 11
-3.7510575800472026
 21
8.4329400000000021
 31
0.0
 12
-2.9410575800472003
 22
8.1829400000000021
 32
0.0
 13
-2.9410575800472003
 23
8.4329400000000021
 33
0.0
  0
SOLID
  5
179
100
AcDbEntity
  8
None
370
              15
390
0
  6
Continuous
 62
               7
100
AcDbTrace
 10
-3.7510575800472026
 20
7.7829400000000035
 30
0.0
 11
-3.7510575800472026
 21
8.0329400000000035
 31
0.0
 12
-2.9410575800472003
 22
7.7829400000000035
 32
0.0
 13
-2.9410575800472003
 23
8.0329400000000035
 33
0.0
  0
SOLID
  5
17A
100
AcDbEntity
  8
None
370
              15
390
0
  6
Continuous
 62
               7
100
AcDbTrace
 10
-3.7510575800472026
 20
7.3829399999999978
 30
0.0
 11
-3.7510575800472026
 21
7.6329399999999978
 31
0.0
 12
-2.9410575800472003
 22
7.3829399999999978
 32
0.0
 13
-2.9410575800472003
 23
7.6329399999999978
 33
0.0
  0
SOLID
  5
17B
100
AcDbEntity
  8
None
370
              15
390
0
  6
Continuous
 62
               7
100
AcDbTrace
 10
-3.7510575800472026
 20
6.9829399999999993
 30
0.0
 11
-3.7510575800472026
 21
7.2329399999999993
 31
0.0
 12
-2.9410575800472003
 22
6.9829399999999993
 32
0.0
 13
-2.9410575800472003
 23
7.2329399999999993
 33
0.0
  0
SOLID
  5
17C
100
AcDbEntity
  8
None
370
              15
390
0
  6
Continuous
 62
               7
100
AcDbTrace
 10
-3.7510575800472026
 20
6.5829400000000007
 30
0.0
 11
-3.7510575800472026
 21
6.8329400000000007
 31
0.0
 12
-2.9410575800472003
 22
6.5829400000000007
 32
0.0
 13
-2.9410575800472003
 23
6.8329400000000007
 33
0.0
  0
SOLID
  5
17D
100
AcDbEntity
  8
None
370
              15
390
0
  6
Continuous
 62
               7
100
AcDbTrace
 10
-3.7510575800472026
 20
6.1829400000000021
 30
0.0
 11
-3.7510575800472026
 21
6.4329400000000021
 31
0.0
 12
-2.9410575800472003
 22
6.1829400000000021
 32
0.0
 13
-2.9410575800472003
 23
6.4329400000000021
 33
0.0
  0
SOLID
  5
17E
100
AcDbEntity
  8
None
370
              15
390
0
  6
Continuous
 62
               7
100
AcDbTrace
 10
-3.7510575800472026
 20
5.7829400000000035
 30
0.0
 11
-3.7510575800472026
 21
6.0329400000000035
 31
0.0
 12
-2.9410575800472003
 22
5.7829400000000035
 32
0.0
 13
-2.9410575800472003
 23
6.0329400000000035
 33
0.0
  0
SOLID
  5
17F
100
AcDbEntity
  8
None
370
              15
390
0
  6
Continuous
 62
               7
100
AcDbTrace
 10
-3.7510575800472026
 20
5.3829399999999978
 30
0.0
 11
-3.7510575800472026
 21
5.6329399999999978
 31
0.0
 12
-2.9410575800472003
 22
5.3829399999999978
 32
0.0
 13
-2.9410575800472003
 23
5.6329399999999978
 33
0.0
  0
SOLID
  5
180
100
AcDbEntity
  8
None
370
              15
390
0
  6
Continuous
 62
               7
100
AcDbTrace
 10
-3.7510575800472026
 20
4.9829399999999993
 30
0.0
 11
-3.7510575800472026
 21
5.2329399999999993
 31
0.0
 12
-2.9410575800472003
 22
4.9829399999999993
 32
0.0
 13
-2.9410575800472003
 23
5.2329399999999993
 33
0.0
  0
SOLID
  5
181
100
AcDbEntity
  8
None
370
              15
390
0
  6
Continuous
 62
               7
100
AcDbTrace
 10
-3.7510575800472026
 20
4.5829400000000007
 30
0.0
 11
-3.7510575800472026
 21
4.8329400000000007
 31
0.0
 12
-2.9410575800472003
 22
4.5829400000000007
 32
0.0
 13
-2.9410575800472003
 23
4.8329400000000007
 33
0.0
  0
SOLID
  5
182
100
AcDbEntity
  8
None
370
              15
390
0
  6
Continuous
 62
               7
100
AcDbTrace
 10
-3.7510575800472026
 20
4.1829400000000021
 30
0.0
 11
-3.7510575800472026
 21
4.4329400000000021
 31
0.0
 12
-2.9410575800472003
 22
4.1829400000000021
 32
0.0
 13
-2.9410575800472003
 23
4.4329400000000021
 33
0.0
  0
SOLID
  5
183
100
AcDbEntity
  8
None
370
              15
390
0
  6
Continuous
 62
               7
100
AcDbTrace
 10
-3.7510575800472026
 20
3.7829400000000035
 30
0.0
 11
-3.7510575800472026
 21
4.0329400000000035
 31
0.0
 12
-2.9410575800472003
 22
3.7829400000000035
 32
0.0
 13
-2.9410575800472003
 23
4.0329400000000035
 33
0.0
  0
SOLID
  5
184
100
AcDbEntity
  8
None
370
              15
390
0
  6
Continuous
 62
               7
100
AcDbTrace
 10
-3.7510575800472026
 20
3.3829399999999978
 30
0.0
 11
-3.7510575800472026
 21
3.6329399999999978
 31
0.0
 12
-2.9410575800472003
 22
3.3829399999999978
 32
0.0
 13
-2.9410575800472003
 23
3.6329399999999978
 33
0.0
  0
SOLID
  5
185
100
AcDbEntity
  8
None
370
              15
390
0
  6
Continuous
 62
               7
100
AcDbTrace
 10
-3.7510575800472026
 20
2.9829399999999993
 30
0.0
 11
-3.7510575800472026
 21
3.2329399999999993
 31
0.0
 12
-2.9410575800472003
 22
2.9829399999999993
 32
0.0
 13
-2.9410575800472003
 23
3.2329399999999993
 33
0.0
  0
SOLID
  5
186
100
AcDbEntity
  8
None
370
              15
390
0
  6
Continuous
 62
               7
100
AcDbTrace
 10
-3.7510575800472026
 20
2.5829400000000007
 30
0.0
 11
-3.7510575800472026
 21
2.8329400000000007
 31
0.0
 12
-2.9410575800472003
 22
2.5829400000000007
 32
0.0
 13
-2.9410575800472003
 23
2.8329400000000007
 33
0.0
  0
SOLID
  5
187
100
AcDbEntity
  8
None
370
              15
390
0
  6
Continuous
 62
               7
100
AcDbTrace
 10
5.7989424199527946
 20
10.582940000000001
 30
0.0
 11
5.7989424199527946
 21
10.832940000000001
 31
0.0
 12
6.6089424199527969
 22
10.582940000000001
 32
0.0
 13
6.6089424199527969
 23
10.832940000000001
 33
0.0
  0
SOLID
  5
188
100
AcDbEntity
  8
None
370
              15
390
0
  6
Continuous
 62
               7
100
AcDbTrace
 10
5.7989424199527946
 20
10.182940000000002
 30
0.0
 11
5.7989424199527946
 21
10.432940000000002
 31
0.0
 12
6.6089424199527969
 22
10.182940000000002
 32
0.0
 13
6.6089424199527969
 23
10.432940000000002
 33
0.0
  0
SOLID
  5
189
100
AcDbEntity
  8
None
370
              15
390
0
  6
Continuous
 62
               7
100
AcDbTrace
 10
5.7989424199527946
 20
9.7829400000000035
 30
0.0
 11
5.7989424199527946
 21
10.032940000000004
 31
0.0
 12
6.6089424199527969
 22
9.7829400000000035
 32
0.0
 13
6.6089424199527969
 23
10.032940000000004
 33
0.0
  0
SOLID
  5
18A
100
AcDbEntity
  8
None
370
              15
390
0
  6
Continuous
 62
               7
100
AcDbTrace
 10
5.7989424199527946
 20
9.3829399999999978
 30
0.0
 11
5.7989424199527946
 21
9.6329399999999978
 31
0.0
 12
6.6089424199527969
 22
9.3829399999999978
 32
0.0
 13
6.6089424199527969
 23
9.6329399999999978
 33
0.0
  0
SOLID
  5
18B
100
AcDbEntity
  8
None
370
              15
390
0
  6
Continuous
 62
               7
100
AcDbTrace
 10
5.7989424199527946
 20
8.9829399999999993
 30
0.0
 11
5.7989424199527946
 21
9.2329399999999993
 31
0.0
 12
6.6089424199527969
 22
8.9829399999999993
 32
0.0
 13
6.6089424199527969
 23
9.2329399999999993
 33
0.0
  0
SOLID
  5
18C
100
AcDbEntity
  8
None
370
              15
390
0
  6
Continuous
 62
               7
100
AcDbTrace
 10
5.7989424199527946
 20
8.5829400000000007
 30
0.0
 11
5.7989424199527946
 21
8.8329400000000007
 31
0.0
 12
6.6089424199527969
 22
8.5829400000000007
 32
0.0
 13
6.6089424199527969
 23
8.8329400000000007
 33
0.0
  0
SOLID
  5
18D
100
AcDbEntity
  8
None
370
              15
390
0
  6
Continuous
 62
               7
100
AcDbTrace
 10
5.7989424199527946
 20
8.1829400000000021
 30
0.0
 11
5.7989424199527946
 21
8.4329400000000021
 31
0.0
 12
6.6089424199527969
 22
8.1829400000000021
 32
0.0
 13
6.6089424199527969
 23
8.4329400000000021
 33
0.0
  0
SOLID
  5
18E
100
AcDbEntity
  8
None
370
              15
390
0
  6
Continuous
 62
               7
100
AcDbTrace
 10
5.7989424199527946
 20
7.7829400000000035
 30
0.0
 11
5.7989424199527946
 21
8.0329400000000035
 31
0.0
 12
6.6089424199527969
 22
7.7829400000000035
 32
0.0
 13
6.6089424199527969
 23
8.0329400000000035
 33
0.0
  0
SOLID
  5
18F
100
AcDbEntity
  8
None
370
              15
390
0
  6
Continuous
 62
               7
100
AcDbTrace
 10
5.7989424199527946
 20
7.3829399999999978
 30
0.0
 11
5.7989424199527946
 21
7.6329399999999978
 31
0.0
 12
6.6089424199527969
 22
7.3829399999999978
 32
0.0
 13
6.6089424199527969
 23
7.6329399999999978
 33
0.0
  0
SOLID
  5
190
100
AcDbEntity
  8
None
370
              15
390
0
  6
Continuous
 62
               7
100
AcDbTrace
 10
5.7989424199527946
 20
6.9829399999999993
 30
0.0
 11
5.7989424199527946
 21
7.2329399999999993
 31
0.0
 12
6.6089424199527969
 22
6.9829399999999993
 32
0.0
 13
6.6089424199527969
 23
7.2329399999999993
 33
0.0
  0
SOLID
  5
191
100
AcDbEntity
  8
None
370
              15
390
0
  6
Continuous
 62
               7
100
AcDbTrace
 10
5.7989424199527946
 20
6.5829400000000007
 30
0.0
 11
5.7989424199527946
 21
6.8329400000000007
 31
0.0
 12
6.6089424199527969
 22
6.5829400000000007
 32
0.0
 13
6.6089424199527969
 23
6.8329400000000007
 33
0.0
  0
SOLID
  5
192
100
AcDbEntity
  8
None
370
              15
390
0
  6
Continuous
 62
               7
100
AcDbTrace
 10
5.7989424199527946
 20
6.1829400000000021
 30
0.0
 11
5.7989424199527946
 21
6.4329400000000021
 31
0.0
 12
6.6089424199527969
 22
6.1829400000000021
 32
0.0
 13
6.6089424199527969
 23
6.4329400000000021
 33
0.0
  0
SOLID
  5
193
100
AcDbEntity
  8
None
370
              15
390
0
  6
Continuous
 62
               7
100
AcDbTrace
 10
5.7989424199527946
 20
5.7829400000000035
 30
0.0
 11
5.7989424199527946
 21
6.0329400000000035
 31
0.0
 12
6.6089424199527969
 22
5.7829400000000035
 32
0.0
 13
6.6089424199527969
 23
6.0329400000000035
 33
0.0
  0
SOLID
  5
194
100
AcDbEntity
  8
None
370
              15
390
0
  6
Continuous
 62
               7
100
AcDbTrace
 10
5.7989424199527946
 20
5.3829399999999978
 30
0.0
 11
5.7989424199527946
 21
5.6329399999999978
 31
0.0
 12
6.6089424199527969
 22
5.3829399999999978
 32
0.0
 13
6.6089424199527969
 23
5.6329399999999978
 33
0.0
  0
SOLID
  5
195
100
AcDbEntity
  8
None
370
              15
390
0
  6
Continuous
 62
               7
100
AcDbTrace
 10
5.7989424199527946
 20
4.9829399999999993
 30
0.0
 11
5.7989424199527946
 21
5.2329399999999993
 31
0.0
 12
6.6089424199527969
 22
4.9829399999999993
 32
0.0
 13
6.6089424199527969
 23
5.2329399999999993
 33
0.0
  0
SOLID
  5
196
100
AcDbEntity
  8
None
370
              15
390
0
  6
Continuous
 62
               7
100
AcDbTrace
 10
5.7989424199527946
 20
4.5829400000000007
 30
0.0
 11
5.7989424199527946
 21
4.8329400000000007
 31
0.0
 12
6.6089424199527969
 22
4.5829400000000007
 32
0.0
 13
6.6089424199527969
 23
4.8329400000000007
 33
0.0
  0
SOLID
  5
197
100
AcDbEntity
  8
None
370
              15
390
0
  6
Continuous
 62
               7
100
AcDbTrace
 10
5.7989424199527946
 20
4.1829400000000021
 30
0.0
 11
5.7989424199527946
 21
4.4329400000000021
 31
0.0
 12
6.6089424199527969
 22
4.1829400000000021
 32
0.0
 13
6.6089424199527969
 23
4.4329400000000021
 33
0.0
  0
SOLID
  5
198
100
AcDbEntity
  8
None
370
              15
390
0
  6
Continuous
 62
               7
100
AcDbTrace
 10
5.7989424199527946
 20
3.7829400000000035
 30
0.0
 11
5.7989424199527946
 21
4.0329400000000035
 31
0.0
 12
6.6089424199527969
 22
3.7829400000000035
 32
0.0
 13
6.6089424199527969
 23
4.0329400000000035
 33
0.0
  0
SOLID
  5
199
100
AcDbEntity
  8
None
370
              15
390
0
  6
Continuous
 62
               7
100
AcDbTrace
 10
5.7989424199527946
 20
3.3829399999999978
 30
0.0
 11
5.7989424199527946
 21
3.6329399999999978
 31
0.0
 12
6.6089424199527969
 22
3.3829399999999978
 32
0.0
 13
6.6089424199527969
 23
3.6329399999999978
 33
0.0
  0
SOLID
  5
19A
100
AcDbEntity
  8
None
370
              15
390
0
  6
Continuous
 62
               7
100
AcDbTrace
 10
5.7989424199527946
 20
2.9829399999999993
 30
0.0
 11
5.7989424199527946
 21
3.2329399999999993
 31
0.0
 12
6.6089424199527969
 22
2.9829399999999993
 32
0.0
 13
6.6089424199527969
 23
3.2329399999999993
 33
0.0
  0
SOLID
  5
19B
100
AcDbEntity
  8
None
370
              15
390
0
  6
Continuous
 62
               7
100
AcDbTrace
 10
5.7989424199527946
 20
2.5829400000000007
 30
0.0
 11
5.7989424199527946
 21
2.8329400000000007
 31
0.0
 12
6.6089424199527969
 22
2.5829400000000007
 32
0.0
 13
6.6089424199527969
 23
2.8329400000000007
 33
0.0
  0
ENDBLK
  5
19C
100
AcDbEntity
  8
None
390
0
100
AcDbBlockEnd
  0
ENDSEC
  0
SECTION
  2
ENTITIES
  0
WIPEOUT
  5
19D
100
AcDbEntity
  8
None
370
               9
390
0
  6
STYLE_11
 62
               7
 92
        0
100
AcDbWipeout
 90
        0
 10
-6.4335575800472071
 20
-0.9045599999999965
 30
0.0
 11
15.224999999999994
 21
0.0
 31
0.0
 12
0.0
 22
15.224999999999994
 32
0.0
 13
1.0
 23
1.0
340
0
 70
               7
280
               1
281
              50
282
              50
283
               0
360
0
 71
               2
 91
        5
 14
-0.5
 24
-0.5
 14
0.5
 24
-0.5
 14
0.5
 24
0.5
 14
-0.5
 24
0.5
 14
-0.5
 24
-0.5
  0
POLYLINE
  5
19E
100
AcDbEntity
  8
None
370
               9
390
0
  6
STYLE_11
 62
               7
100
AcDb2dPolyline
 66
               1
 10
0.0
 20
0.0
 30
0.0
 70
               1
 75
               5
  0
VERTEX
  5
19F
100
AcDbEntity
  8
None
370
               9
390
0
  6
STYLE_11
 62
               7
100
AcDbVertex
100
AcDb2dVertex
 10
-6.4335575800472071
 20
14.320439999999998
 30
0.0
  0
VERTEX
  5
1A0
100
AcDbEntity
  8
None
370
               9
390
0
  6
STYLE_11
 62
               7
100
AcDbVertex
100
AcDb2dVertex
 10
8.7914424199527872
 20
14.320439999999998
 30
0.0
  0
VERTEX
  5
1A1
100
AcDbEntity
  8
None
370
               9
390
0
  6
STYLE_11
 62
               7
100
AcDbVertex
100
AcDb2dVertex
 10
8.7914424199527872
 20
-0.9045599999999965
 30
0.0
  0
VERTEX
  5
1A2
100
AcDbEntity
  8
None
370
               9
390
0
  6
STYLE_11
 62
               7
100
AcDbVertex
100
AcDb2dVertex
 10
-6.4335575800472071
 20
-0.9045599999999965
 30
0.0
  0
SEQEND
  5
1A3
100
AcDbEntity
  8
None
370
               9
390
0
  6
STYLE_11
 62
               7
  0
CIRCLE
  5
1A4
100
AcDbEntity
  8
None
370
               9
390
0
  6
Continuous
 62
               7
100
AcDbCircle
 10
-5.1835575800472071
 20
13.070439999999998
 30
0.0
 40
0.8050000000000068
  0
CIRCLE
  5
1A5
100
AcDbEntity
  8
None
370
               9
390
0
  6
Continuous
 62
               7
100
AcDbCircle
 10
7.5414424199527872
 20
10.530439999999999
 30
0.0
 40
0.4250000000000043
  0
CIRCLE
  5
1A6
100
AcDbEntity
  8
None
370
               9
390
0
  6
Continuous
 62
               7
100
AcDbCircle
 10
7.5414424199527872
 20
13.070439999999998
 30
0.0
 40
0.8049999999999926
  0
CIRCLE
  5
1A7
100
AcDbEntity
  8
None
370
               9
390
0
  6
Continuous
 62
               7
100
AcDbCircle
 10
7.5414424199527872
 20
0.3454400000000035
 30
0.0
 40
0.8049999999999926
  0
CIRCLE
  5
1A8
100
AcDbEntity
  8
None
370
               9
390
0
  6
Continuous
 62
               7
100
AcDbCircle
 10
-5.1835575800472071
 20
5.4254400000000018
 30
0.0
 40
0.4250000000000043
  0
CIRCLE
  5
1A9
100
AcDbEntity
  8
None
370
               9
390
0
  6
Continuous
 62
               7
100
AcDbCircle
 10
-5.1835575800472071
 20
0.3454400000000035
 30
0.0
 40
0.8050000000000068
  0
CIRCLE
  5
1AA
102
{ACAD_REACTORS
330
1AB
102
}
100
AcDbEntity
  8
None
370
               5
390
0
  6
Continuous
 62
               7
100
AcDbCircle
 10
-3.0585575800472071
 20
12.645440000000001
 30
0.0
 40
0.2124400000000009
  0
HATCH
  5
1AB
100
AcDbEntity
  8
None
370
               0
390
0
  6
Continuous
 62
               7
100
AcDbHatch
 10
0.0
 20
0.0
 30
0.0
210
0.0
220
0.0
230
1.0
  2
SOLID
 70
               1
 71
               1
 91
        1
 92
        1
 93
        1
 72
               2
 10
-3.0585575800472071
 20
12.645440000000001
 40
0.2124400000000009
 50
0.0
 51
360.0
 73
               0
 97
        1
330
1AA
 75
               0
 76
               1
 98
        1
 10
0.0
 20
0.0
  0
DIMENSION
  5
1AC
100
AcDbEntity
  8
Dimension
370
               5
390
0
  6
Continuous
 62
               1
100
AcDbDimension
  2
*D3
 10
-27.941057580047204
 20
14.320439999999998
 30
0.0
 11
-27.941057580047204
 21
6.8155018743896489
 31
0.0
 70
             128
 71
               5
 72
               1
 41
1.0
 42
0.0
  3
IE Standard
100
AcDbAlignedDimension
 13
-6.4335575800472071
 23
-0.9045599999999965
 33
0.0
 14
-6.4335575800472071
 24
14.320439999999998
 34
0.0
 50
90.0
100
AcDbRotatedDimension
1001
ACAD
1000
DSTYLE
1002
{
1070
             271
1070
               3
1070
             340
1005
36
1070
              71
1070
               1
1070
              47
1040
0.125
1070
              48
1040
0.125
1070
               3
1000
<>mm sqr.
1070
             147
1040
0.09921875
1002
}
  0
WIPEOUT
  5
1AD
100
AcDbEntity
  8
None
370
               5
390
0
  6
Continuous
 62
               1
 92
        0
100
AcDbWipeout
 90
        0
 10
-30.669437580047202
 20
5.0561705000000075
 30
0.0
 11
5.4186498002462429
 21
0.0
 31
0.0
 12
0.0
 22
5.4186498002462429
 32
0.0
 13
1.0
 23
1.0
340
0
 70
               7
280
               1
281
              50
282
              50
283
               0
360
0
 71
               2
 91
        5
 14
-0.5
 24
0.5000000000000007
 14
0.4999999999999993
 24
0.5000000000000007
 14
0.4999999999999993
 24
0.2753906333004417
 14
-0.5
 24
0.2753906333004417
 14
-0.5
 24
0.5000000000000007
  0
MTEXT
  5
1AE
100
AcDbEntity
  8
None
390
0
 62
               1
100
AcDbMText
 10
-30.669437580047202
 20
6.0786716197916713
 30
0.0
 40
0.7579186197916666
 41
0.0
 71
               1
 72
               1
  1
{\C192;\lSocket size}
  7
New Century Schlbk
 73
               1
 44
0.9673603504928806
  0
INSERT
  5
1AF
100
AcDbEntity
  8
Dimension
390
0
 62
               7
100
AcDbBlockReference
  2
Group
 10
0.0
 20
0.0
 30
0.0
  0
WIPEOUT
  5
1B0
100
AcDbEntity
  8
None
370
               5
390
0
  6
Continuous
 62
               1
 92
        0
100
AcDbWipeout
 90
        0
 10
-24.236667580047204
 20
22.782920500000003
 30
0.0
 11
7.8422253988126798
 21
0.0
 31
0.0
 12
0.0
 22
7.8422253988126798
 32
0.0
 13
1.0
 23
1.0
340
0
 70
               7
280
               1
281
              50
282
              50
283
               0
360
0
 71
               2
 91
        5
 14
-0.5
 24
0.5000000000000004
 14
0.4999999999999996
 24
0.5000000000000004
 14
0.4999999999999996
 24
0.3448043204440077
 14
-0.5
 24
0.3448043204440077
 14
-0.5
 24
0.5000000000000004
  0
MTEXT
  5
1B1
100
AcDbEntity
  8
None
390
0
 62
               1
100
AcDbMText
 10
-24.236667580047204
 20
23.805421619791666
 30
0.0
 40
0.7579186197916666
 41
0.0
 71
               1
 72
               1
  1
{\C192;\lOrientation Mark}
  7
New Century Schlbk
 73
               1
 44
0.9673603504928806
  0
WIPEOUT
  5
1B2
100
AcDbEntity
  8
None
370
               5
390
0
  6
Continuous
 62
               1
 92
        0
100
AcDbWipeout
 90
        0
 10
14.992322419952799
 20
-4.2374094999999983
 30
0.0
 11
12.117878889991573
 21
0.0
 31
0.0
 12
0.0
 22
12.117878889991573
 32
0.0
 13
1.0
 23
1.0
340
0
 70
               7
280
               1
281
              50
282
              50
283
               0
360
0
 71
               2
 91
        5
 14
-0.5
 24
0.5000000000000003
 14
0.4999999999999997
 24
0.5000000000000003
 14
0.4999999999999997
 24
0.3995633220096621
 14
-0.5
 24
0.3995633220096621
 14
-0.5
 24
0.5000000000000003
  0
MTEXT
  5
1B3
100
AcDbEntity
  8
None
390
0
 62
               1
100
AcDbMText
 10
14.992322419952799
 20
-3.2149083802083345
 30
0.0
 40
0.7579186197916666
 41
0.0
 71
               1
 72
               1
  1
{\C192;\lNon plated mounting hole}
  7
Arial
 73
               1
 44
0.9673603504928806
  0
WIPEOUT
  5
1B4
100
AcDbEntity
  8
None
370
               5
390
0
  6
Continuous
 62
               1
 92
        0
100
AcDbWipeout
 90
        0
 10
13.428372419952794
 20
4.310780500000007
 30
0.0
 11
12.350711488082325
 21
0.0
 31
0.0
 12
0.0
 22
12.350711488082325
 32
0.0
 13
1.0
 23
1.0
340
0
 70
               7
280
               1
281
              50
282
              50
283
               0
360
0
 71
               2
 91
        5
 14
-0.5
 24
0.5000000000000003
 14
0.4999999999999994
 24
0.5000000000000003
 14
0.4999999999999994
 24
0.4014567297459419
 14
-0.5
 24
0.4014567297459419
 14
-0.5
 24
0.5000000000000003
  0
MTEXT
  5
1B5
100
AcDbEntity
  8
None
390
0
 62
               1
100
AcDbMText
 10
13.428372419952794
 20
5.3332816197916708
 30
0.0
 40
0.7579186197916666
 41
0.0
 71
               1
 72
               1
  1
{\C192;\lNon plated alignment hole}
  7
Arial
 73
               1
 44
0.9673603504928806
  0
DIMENSION
  5
1B6
100
AcDbEntity
  8
Dimension
370
               5
390
0
  6
Continuous
 62
               1
100
AcDbDimension
  2
*D5
 10
-5.1835575800472071
 20
20.503979999999999
 30
0.0
 11
-0.2230475800472096
 21
20.503979999999999
 31
0.0
 70
             128
 71
               5
 72
               1
 41
1.0
 42
0.0
  3
IE Standard
100
AcDbAlignedDimension
 13
-2.69605758004721
 23
11.88794
 33
0.0
 14
-5.1835575800472071
 24
13.070439999999998
 34
0.0
100
AcDbRotatedDimension
1001
ACAD
1000
DSTYLE
1002
{
1070
             271
1070
               2
1070
             340
1005
36
1070
               3
1000
<>mm*
1070
             174
1070
               0
1070
             147
1040
0.09921875
1002
}
  0
DIMENSION
  5
1B7
100
AcDbEntity
  8
Dimension
370
               5
390
0
  6
Continuous
 62
               1
100
AcDbDimension
  2
*D6
 10
-8.6728575800472107
 20
11.88794
 30
0.0
 11
-8.6728575800472107
 21
12.479208043518065
 31
0.0
 70
             128
 71
               5
 72
               1
 41
1.0
 42
0.0
  3
IE Standard
100
AcDbAlignedDimension
 13
-5.1835575800472071
 23
13.070439999999998
 33
0.0
 14
-2.7110575800472105
 24
11.88794
 34
0.0
 50
90.0
100
AcDbRotatedDimension
1001
ACAD
1000
DSTYLE
1002
{
1070
             271
1070
               2
1070
             340
1005
36
1070
             147
1040
0.09921875
1002
}
  0
DIMENSION
  5
1B8
100
AcDbEntity
  8
Dimension
370
               5
390
0
  6
Continuous
 62
               1
100
AcDbDimension
  2
*D7
 10
3.42894241995279
 20
17.465440000000001
 30
0.0
 11
5.8639424199527959
 21
17.465440000000001
 31
0.0
 70
             128
 71
               5
 72
               1
 41
1.0
 42
0.0
  3
IE Standard
100
AcDbAlignedDimension
 13
3.8289424199527957
 23
11.88794
 33
0.0
 14
3.42894241995279
 24
11.88794
 34
0.0
100
AcDbRotatedDimension
1001
ACAD
1000
DSTYLE
1002
{
1070
             271
1070
               2
1070
             340
1005
36
1070
               3
1000
<>mm typ.
1070
             174
1070
               0
1070
             147
1040
0.09921875
1002
}
  0
DIMENSION
  5
1B9
100
AcDbEntity
  8
Dimension
370
               5
390
0
  6
Continuous
 62
               1
100
AcDbDimension
  2
*D8
 10
-9.6097175800472066
 20
0.3454400000000035
 30
0.0
 11
-9.6097175800472066
 21
3.84545892089844
 31
0.0
 70
             128
 71
               5
 72
               1
 41
1.0
 42
0.0
  3
IE Standard
100
AcDbAlignedDimension
 13
-5.1835575800472071
 23
5.4254400000000018
 33
0.0
 14
-5.1835575800472071
 24
0.3454400000000035
 34
0.0
 50
90.0
100
AcDbRotatedDimension
1001
ACAD
1000
DSTYLE
1002
{
1070
             271
1070
               2
1070
             340
1005
36
1070
             147
1040
0.09921875
1002
}
  0
DIMENSION
  5
1BA
100
AcDbEntity
  8
Dimension
370
               5
390
0
  6
Continuous
 62
               1
100
AcDbDimension
  2
*D9
 10
12.738332419952787
 20
10.530439999999999
 30
0.0
 11
12.738332419952787
 21
11.800439999999998
 31
0.0
 70
             128
 71
               5
 72
               1
 41
1.0
 42
0.0
  3
IE Standard
100
AcDbAlignedDimension
 13
7.5414424199527872
 23
13.070439999999998
 33
0.0
 14
7.5414424199527872
 24
10.530439999999999
 34
0.0
 50
90.0
100
AcDbRotatedDimension
1001
ACAD
1000
DSTYLE
1002
{
1070
             271
1070
               2
1070
             340
1005
36
1070
             147
1040
0.09921875
1002
}
  0
DIMENSION
  5
1BB
100
AcDbEntity
  8
Dimension
370
               5
390
0
  6
Continuous
 62
               1
100
AcDbDimension
  2
*D10
 10
-5.1835575800472071
 20
-10.384559999999995
 30
0.0
 11
1.158943106598298
 21
-10.384559999999995
 31
0.0
 70
             128
 71
               5
 72
               1
 41
1.0
 42
0.0
  3
IE Standard
100
AcDbAlignedDimension
 13
7.5414424199527872
 23
0.3454400000000035
 33
0.0
 14
-5.1835575800472071
 24
0.3454400000000035
 34
0.0
100
AcDbRotatedDimension
1001
ACAD
1000
DSTYLE
1002
{
1070
             271
1070
               3
1070
             340
1005
36
1070
              71
1070
               1
1070
              47
1040
0.125
1070
              48
1040
0.125
1070
               3
1000
<>mm (x4)
1070
             147
1040
0.09921875
1002
}
  0
DIMENSION
  5
1BC
100
AcDbEntity
  8
Dimension
370
               5
390
0
  6
Continuous
 62
               1
100
AcDbDimension
  2
*D11
 10
5.7739424199527889
 20
4.8529400000000038
 30
0.0
 11
13.8838098613765
 21
2.6240302006525424
 31
0.0
 70
               3
 71
               5
 72
               1
 41
1.0
 42
0.0
  1
0.81 x 0.25 mm 
  3
IE Standard
100
AcDbDiametricDimension
 15
6.6339424199527883
 25
4.5629400000000047
 35
0.0
 40
6.0679799999999995
1001
ACAD
1000
DSTYLE
1002
{
1070
             271
1070
               4
1070
             172
1070
               0
1070
             289
1070
               0
1070
             342
1005
4B
1070
             340
1005
36
1070
              75
1070
               1
1070
              76
1070
               1
1070
             174
1070
               0
1070
             147
1040
0.09921875
1002
}
  0
DIMENSION
  5
1BD
100
AcDbEntity
  8
Dimension
370
               5
390
0
  6
Continuous
 62
               1
100
AcDbDimension
  2
*D12
 10
-3.7510575800472026
 20
-6.784559999999999
 30
0.0
 11
1.6336573857731098
 21
-6.784559999999999
 31
0.0
 70
             128
 71
               5
 72
               1
 41
1.0
 42
0.0
  3
IE Standard
100
AcDbAlignedDimension
 13
6.6089424199527969
 23
2.5679400000000001
 33
0.0
 14
-3.7510575800472026
 24
2.5679400000000001
 34
0.0
100
AcDbRotatedDimension
1001
ACAD
1000
DSTYLE
1002
{
1070
             271
1070
               2
1070
             340
1005
36
1070
             147
1040
0.09921875
1002
}
  0
DIMENSION
  5
1BE
100
AcDbEntity
  8
Dimension
370
               5
390
0
  6
Continuous
 62
               1
100
AcDbDimension
  2
*D13
 10
-18.14105758004721
 20
11.88794
 30
0.0
 11
-18.14105758004721
 21
6.2182048925781261
 31
0.0
 70
             128
 71
               5
 72
               1
 41
1.0
 42
0.0
  3
IE Standard
100
AcDbAlignedDimension
 13
-2.7110575800472105
 23
1.527940000000001
 33
0.0
 14
-2.7110575800472105
 24
11.88794
 34
0.0
 50
90.0
100
AcDbRotatedDimension
1001
ACAD
1000
DSTYLE
1002
{
1070
             271
1070
               2
1070
             340
1005
36
1070
             147
1040
0.09921875
1002
}
  0
DIMENSION
  5
1BF
100
AcDbEntity
  8
Dimension
370
               5
390
0
  6
Continuous
 62
               1
100
AcDbDimension
  2
*D14
 10
-12.691057580047202
 20
10.832940000000001
 30
0.0
 11
-12.691057580047202
 21
6.5464295324707038
 31
0.0
 70
             128
 71
               5
 72
               1
 41
1.0
 42
0.0
  3
IE Standard
100
AcDbAlignedDimension
 13
-3.7510575800472026
 23
2.5829400000000007
 33
0.0
 14
-3.7510575800472026
 24
10.832940000000001
 34
0.0
 50
90.0
100
AcDbRotatedDimension
1001
ACAD
1000
DSTYLE
1002
{
1070
             271
1070
               2
1070
             340
1005
36
1070
             147
1040
0.09921875
1002
}
  0
DIMENSION
  5
1C0
100
AcDbEntity
  8
Dimension
370
               5
390
0
  6
Continuous
 62
               1
100
AcDbDimension
  2
*D15
 10
-2.69605758004721
 20
-3.9923999999999982
 30
0.0
 11
1.395708777374665
 21
-3.9923999999999982
 31
0.0
 70
             128
 71
               5
 72
               1
 41
1.0
 42
0.0
  3
IE Standard
100
AcDbAlignedDimension
 13
5.55394241995279
 23
1.527940000000001
 33
0.0
 14
-2.69605758004721
 24
1.527940000000001
 34
0.0
100
AcDbRotatedDimension
1001
ACAD
1000
DSTYLE
1002
{
1070
             271
1070
               2
1070
             340
1005
36
1070
             147
1040
0.09921875
1002
}
  0
DIMENSION
  5
1C1
100
AcDbEntity
  8
Dimension
370
               5
390
0
  6
Continuous
 62
               1
100
AcDbDimension
  2
*D16
 10
-5.1835575800472071
 20
22.86544
 30
0.0
 11
-3.1910575800472074
 21
22.86544
 31
0.0
 70
             128
 71
               5
 72
               1
 41
1.0
 42
0.0
  3
IE Standard
100
AcDbAlignedDimension
 13
-6.4335575800472071
 23
14.320439999999998
 33
0.0
 14
-5.1835575800472071
 24
13.070439999999998
 34
0.0
100
AcDbRotatedDimension
1001
ACAD
1000
DSTYLE
1002
{
1070
             271
1070
               3
1070
             340
1005
36
1070
              71
1070
               1
1070
              47
1040
0.125
1070
              48
1040
0.125
1070
               3
1000
<>mm (x4)
1070
             174
1070
               0
1070
             147
1040
0.09921875
1002
}
  0
DIMENSION
  5
1C2
100
AcDbEntity
  8
Dimension
370
               5
390
0
  6
Continuous
 62
               1
100
AcDbDimension
  2
*D17
 10
-16.791057580047209
 20
14.320439999999998
 30
0.0
 11
-16.791057580047209
 21
17.11544
 31
0.0
 70
             128
 71
               5
 72
               1
 41
1.0
 42
0.0
  3
IE Standard
100
AcDbAlignedDimension
 13
-5.1835575800472071
 23
13.070439999999998
 33
0.0
 14
-6.4335575800472071
 24
14.320439999999998
 34
0.0
 50
90.0
100
AcDbRotatedDimension
1001
ACAD
1000
DSTYLE
1002
{
1070
             271
1070
               2
1070
             340
1005
36
1070
              71
1070
               1
1070
              47
1040
0.125
1070
              48
1040
0.125
1070
               3
1000
<>mm (x4)
1070
             174
1070
               0
1070
             147
1040
0.09921875
1002
}
  0
LINE
  5
1C3
100
AcDbEntity
  8
None
370
               5
390
0
  6
Continuous
 62
               1
100
AcDbLine
 10
-16.394447580047199
 20
23.391460000000002
 30
0.0
 11
-13.891057580047203
 21
23.391460000000002
 31
0.0
  0
LINE
  5
1C4
100
AcDbEntity
  8
None
370
               5
390
0
  6
Continuous
 62
               1
100
AcDbLine
 10
-13.891057580047203
 20
23.391460000000002
 30
0.0
 11
-3.0585575800472071
 21
12.857880000000002
 31
0.0
  0
SOLID
  5
1C5
100
AcDbEntity
  8
None
370
               5
390
0
 62
               1
100
AcDbTrace
 10
-3.0585575800472071
 20
12.857880000000002
 30
0.0
 11
-3.5141152167341101
 21
13.120896324172575
 31
0.0
 12
-3.3215739042197803
 22
13.313437636686904
 32
0.0
 13
-3.3215739042197803
 23
13.313437636686904
 33
0.0
  0
DIMENSION
  5
1C6
100
AcDbEntity
  8
Dimension
370
               5
390
0
  6
Continuous
 62
               1
100
AcDbDimension
  2
*D18
 10
6.7827824199527953
 20
0.6146299999999982
 30
0.0
 11
15.575532615265457
 21
-1.9730064011722579
 31
0.0
 70
               3
 71
               5
 72
               1
 41
1.0
 42
0.0
  3
IE Standard
100
AcDbDiametricDimension
 15
8.3001024199527933
 25
0.0762500000000017
 35
0.0
 40
6.1282199999999998
1001
ACAD
1000
DSTYLE
1002
{
1070
             271
1070
               3
1070
             172
1070
               0
1070
             289
1070
               0
1070
             342
1005
4B
1070
             340
1005
36
1070
              75
1070
               1
1070
              76
1070
               1
1070
              71
1070
               1
1070
              47
1040
0.05
1070
              48
1040
0.05
1070
               3
1000
mm (x4)
1070
             174
1070
               0
1070
             147
1040
0.09921875
1002
}
  0
DIMENSION
  5
1C7
100
AcDbEntity
  8
Dimension
370
               5
390
0
  6
Continuous
 62
               1
100
AcDbDimension
  2
*D19
 10
7.2051224199528008
 20
10.79027
 30
0.0
 11
14.108948448793177
 21
6.6154457372463922
 31
0.0
 70
               3
 71
               5
 72
               1
 41
1.0
 42
0.0
  3
IE Standard
100
AcDbDiametricDimension
 15
7.8777624199527878
 25
10.270609999999998
 35
0.0
 40
5.9786599999999996
1001
ACAD
1000
DSTYLE
1002
{
1070
             271
1070
               3
1070
             172
1070
               0
1070
             289
1070
               0
1070
             342
1005
4B
1070
             340
1005
36
1070
              75
1070
               1
1070
              76
1070
               1
1070
              71
1070
               1
1070
              47
1040
0.025
1070
              48
1040
0.025
1070
               3
1000
mm (x2)
1070
             174
1070
               0
1070
             147
1040
0.09921875
1002
}
  0
WIPEOUT
  5
1C8
100
AcDbEntity
  8
None
370
               5
390
0
  6
Continuous
 62
               7
 92
        0
100
AcDbWipeout
 90
        0
 10
-0.783207580047204
 20
-14.104557999999997
 30
0.0
 11
4.4567370387441656
 21
0.0
 31
0.0
 12
0.0
 22
4.4567370387441656
 32
0.0
 13
1.0
 23
1.0
340
0
 70
               7
280
               1
281
              50
282
              50
283
               0
360
0
 71
               2
 91
        5
 14
-0.5
 24
0.5
 14
0.4999999999999996
 24
0.5
 14
0.4999999999999996
 24
0.196569937098856
 14
-0.5
 24
0.196569937098856
 14
-0.5
 24
0.5
  0
MTEXT
  5
1C9
100
AcDbEntity
  8
None
390
0
 62
               7
100
AcDbMText
 10
-0.783207580047204
 20
-12.968447791666664
 30
0.0
 40
0.8421302083333332
 41
0.0
 71
               1
 72
               1
  1
MLF84A
  7
Arial
 73
               1
 44
0.9673603504928806
  0
INSERT
  5
1CA
100
AcDbEntity
  8
None
390
0
 62
               7
100
AcDbBlockReference
  2
Group-1
 10
0.0
 20
0.0
 30
0.0
  0
POLYLINE
  5
1CB
102
{ACAD_REACTORS
330
1D1
102
}
100
AcDbEntity
  8
None
370
               5
390
0
  6
Continuous
 62
               7
100
AcDb2dPolyline
 66
               1
 10
0.0
 20
0.0
 30
0.0
 70
               1
 75
               5
  0
VERTEX
  5
1CC
100
AcDbEntity
  8
None
370
               5
390
0
  6
Continuous
 62
               7
100
AcDbVertex
100
AcDb2dVertex
 10
-2.7410575800472117
 20
10.877940000000002
 30
0.0
  0
VERTEX
  5
1CD
100
AcDbEntity
  8
None
370
               5
390
0
  6
Continuous
 62
               7
100
AcDbVertex
100
AcDb2dVertex
 10
5.5989424199527917
 20
10.877940000000002
 30
0.0
  0
VERTEX
  5
1CE
100
AcDbEntity
  8
None
370
               5
390
0
  6
Continuous
 62
               7
100
AcDbVertex
100
AcDb2dVertex
 10
5.5989424199527917
 20
2.537939999999999
 30
0.0
  0
VERTEX
  5
1CF
100
AcDbEntity
  8
None
370
               5
390
0
  6
Continuous
 62
               7
100
AcDbVertex
100
AcDb2dVertex
 10
-2.7410575800472117
 20
2.537939999999999
 30
0.0
  0
SEQEND
  5
1D0
100
AcDbEntity
  8
None
370
               5
390
0
  6
Continuous
 62
               7
  0
HATCH
  5
1D1
100
AcDbEntity
  8
None
370
               0
390
0
  6
Continuous
 62
             253
100
AcDbHatch
 10
0.0
 20
0.0
 30
0.0
210
0.0
220
0.0
230
1.0
  2
SOLID
 70
               1
 71
               1
 91
        1
 92
        1
 93
        4
 72
               1
 10
-2.7410575800472117
 20
10.877940000000002
 11
5.5989424199527917
 21
10.877940000000002
 72
               1
 10
5.5989424199527917
 20
10.877940000000002
 11
5.5989424199527917
 21
2.537939999999999
 72
               1
 10
5.5989424199527917
 20
2.537939999999999
 11
-2.7410575800472117
 21
2.537939999999999
 72
               1
 10
-2.7410575800472117
 20
2.537939999999999
 11
-2.7410575800472117
 21
10.877940000000002
 97
        1
330
1CB
 75
               0
 76
               1
 98
        1
 10
0.0
 20
0.0
  0
LINE
  5
1D2
100
AcDbEntity
  8
None
370
               9
390
0
  6
Continuous
 62
               1
100
AcDbLine
 10
15.677712419952798
 20
-7.890119999999996
 30
0.0
 11
12.200172419952793
 21
-7.890119999999996
 31
0.0
  0
WIPEOUT
  5
1D3
100
AcDbEntity
  8
None
370
               9
390
0
  6
Continuous
 62
               1
 92
        0
100
AcDbWipeout
 90
        0
 10
15.677712419952798
 20
-8.4986594999999987
 30
0.0
 11
17.674111670669561
 21
0.0
 31
0.0
 12
0.0
 22
17.674111670669561
 32
0.0
 13
1.0
 23
1.0
340
0
 70
               7
280
               1
281
              50
282
              50
283
               0
360
0
 71
               2
 91
        5
 14
-0.5
 24
0.5
 14
0.5
 24
0.5
 14
0.5
 24
0.4311377271639761
 14
-0.5
 24
0.4311377271639761
 14
-0.5
 24
0.5
  0
MTEXT
  5
1D4
100
AcDbEntity
  8
None
390
0
 62
               1
100
AcDbMText
 10
15.677712419952798
 20
-7.4761583802083313
 30
0.0
 40
0.7579186197916666
 41
0.0
 71
               1
 72
               1
  1
{\C192;\l8.34mm x 8.34mm thermal /GND pad}
  7
Arial
 73
               1
 44
0.9673603504928806
  0
LINE
  5
1D5
100
AcDbEntity
  8
None
370
               9
390
0
  6
Continuous
 62
               1
100
AcDbLine
 10
12.400772419952787
 20
-7.890119999999996
 30
0.0
 11
2.9379524199527935
 21
4.5801999999999978
 31
0.0
  0
SOLID
  5
1D6
100
AcDbEntity
  8
None
370
               9
390
0
 62
               1
100
AcDbTrace
 10
2.9379524199527935
 20
4.5801999999999978
 30
0.0
 11
3.5855006256761488
 21
4.074279894398126
 31
0.0
 12
3.2457855634833148
 22
3.8182862334017926
 32
0.0
 13
3.2457855634833148
 23
3.8182862334017926
 33
0.0
  0
WIPEOUT
  5
1D7
100
AcDbEntity
  8
None
370
               5
390
0
  6
Continuous
 62
               1
 92
        0
100
AcDbWipeout
 90
        0
 10
22.199201072913141
 20
2.14473982380634
 30
0.0
 11
4.7730682608602564
 21
0.0
 31
0.0
 12
0.0
 22
4.7730682608602564
 32
0.0
 13
1.0
 23
1.0
340
0
 70
               7
280
               1
281
              50
282
              50
283
               0
360
0
 71
               2
 91
        5
 14
-0.5
 24
0.5000000000000007
 14
0.4999999999999992
 24
0.5000000000000007
 14
0.4999999999999992
 24
0.2450110843835615
 14
-0.5
 24
0.2450110843835615
 14
-0.5
 24
0.5000000000000007
  0
MTEXT
  5
1D8
100
AcDbEntity
  8
None
390
0
 62
               1
100
AcDbMText
 10
22.199201072913141
 20
3.1672409435980038
 30
0.0
 40
0.7579186197916666
 41
0.0
 71
               1
 72
               1
  1
{\C192;\lpad (x 84)}
  7
Arial
 73
               1
 44
0.9673603504928806
  0
ENDSEC
  0
SECTION
  2
OBJECTS
  0
DICTIONARY
  5
19
100
AcDbDictionary
280
               0
281
               1
  3
ACAD_GROUP
350
1A
  3
ACAD_MLINESTYLE
350
1B
  3
ACAD_LAYOUT
350
1E
  3
ACAD_PLOTSETTINGS
350
22
  3
ACAD_PLOTSTYLENAME
350
1F
  3
ACAD_WIPEOUT_VARS
350
23
  0
DICTIONARY
  5
1A
102
{ACAD_REACTORS
330
19
102
}
100
AcDbDictionary
280
               0
281
               1
  0
DICTIONARY
  5
1B
102
{ACAD_REACTORS
330
19
102
}
100
AcDbDictionary
280
               0
281
               1
  3
Standard
350
1C
  0
MLINESTYLE
  5
1C
102
{ACAD_REACTORS
330
1B
102
}
100
AcDbMlineStyle
  2
Standard
 70
               0
  3

 62
               0
 51
90.0
 52
90.0
 71
               2
 49
0.5
 62
             256
  6
ByLayer
 49
-0.5
 62
             256
  6
ByLayer
  0
ACDBDICTIONARYWDFLT
  5
1F
102
{ACAD_REACTORS
330
19
102
}
100
AcDbDictionary
281
               1
  3
Normal
350
1D
100
AcDbDictionaryWithDefault
340
1D
  0
ACDBPLACEHOLDER
  5
1D
102
{ACAD_REACTORS
330
1F
102
}
  0
LAYOUT
  5
20
102
{ACAD_REACTORS
330
1E
102
}
100
AcDbPlotSettings
  1

  2

  4

  6

 40
0.0
 41
0.0
 42
0.0
 43
0.0
 44
0.0
 45
0.0
 46
0.0
 47
0.0
 48
0.0
 49
0.0
140
0.0
141
0.0
142
1.0
143
1.0
 70
            1024
 72
               0
 73
               0
 74
               0
  7

 75
               0
147
1.0
148
0.0
149
0.0
100
AcDbLayout
  1
Model
 70
               0
 71
               0
 10
0.0
 20
0.0
 11
0.0
 21
0.0
 12
0.0
 22
0.0
 32
0.0
 14
0.0
 24
0.0
 34
0.0
 15
0.0
 25
0.0
 35
0.0
146
0.0
 13
0.0
 23
0.0
 33
0.0
 16
0.0
 26
0.0
 36
0.0
 17
0.0
 27
0.0
 37
0.0
 76
               0
330
A
331
0
345
0
346
0
  0
LAYOUT
  5
21
102
{ACAD_REACTORS
330
1E
102
}
100
AcDbPlotSettings
  1

  2

  4

  6

 40
0.0
 41
0.0
 42
0.0
 43
0.0
 44
0.0
 45
0.0
 46
0.0
 47
0.0
 48
0.0
 49
0.0
140
0.0
141
0.0
142
1.0
143
1.0
 70
               0
 72
               0
 73
               0
 74
               0
  7

 75
               0
147
1.0
148
0.0
149
0.0
100
AcDbLayout
  1
Layout1
 70
               0
 71
               0
 10
0.0
 20
0.0
 11
0.0
 21
0.0
 12
0.0
 22
0.0
 32
0.0
 14
0.0
 24
0.0
 34
0.0
 15
0.0
 25
0.0
 35
0.0
146
0.0
 13
0.0
 23
0.0
 33
0.0
 16
0.0
 26
0.0
 36
0.0
 17
0.0
 27
0.0
 37
0.0
 76
               0
330
B
331
0
345
0
346
0
  0
DICTIONARY
  5
1E
102
{ACAD_REACTORS
330
19
102
}
100
AcDbDictionary
280
               0
281
               1
  3
Layout1
350
21
  3
Model
350
20
  0
DICTIONARY
  5
22
102
{ACAD_REACTORS
330
19
102
}
100
AcDbDictionary
280
               0
281
               1
  0
WIPEOUTVARIABLES
  5
23
100
AcDbWipeoutVariables
 70
               0
  0
ENDSEC
  0
EOF
