  0
SECTION
  2
HEADER
  9
$ACADVER
  1
AC1015
  9
$ACADMAINTVER
 70
               6
  9
$DWGCODEPAGE
  3
ANSI_1252
  9
$INSBASE
 10
0.0
 20
0.0
 30
0.0
  9
$EXTMIN
 10
-25.483328963191852
 20
-18.914972703368456
 30
-0.34925
  9
$EXTMAX
 10
25.703890013265294
 20
19.134920379565763
 30
0.34925
  9
$LIMMIN
 10
0.0
 20
0.0
  9
$LIMMAX
 10
0.0
 20
0.0
  9
$ORTHOMODE
 70
               0
  9
$REGENMODE
 70
               1
  9
$FILLMODE
 70
               1
  9
$QTEXTMODE
 70
               0
  9
$MIRRTEXT
 70
               1
  9
$LTSCALE
 40
1.27
  9
$ATTMODE
 70
               1
  9
$TEXTSIZE
 40
0.2
  9
$TRACEWID
 40
1.0
  9
$TEXTSTYLE
  7
Standard
  9
$CLAYER
  8
None
  9
$CELTYPE
  6
Continuous
  9
$CECOLOR
 62
             256
  9
$CELTSCALE
 40
1.0
  9
$DISPSILH
 70
               0
  9
$DIMSCALE
 40
1.0
  9
$DIMASZ
 40
0.5612060546875
  9
$DIMEXO
 40
0.396875
  9
$DIMDLI
 40
10.16
  9
$DIMRND
 40
0.0
  9
$DIMDLE
 40
1.5874999999999999
  9
$DIMEXE
 40
0.79375
  9
$DIMTP
 40
0.0
  9
$DIMTM
 40
0.0
  9
$DIMTXT
 40
0.7579202490234376
  9
$DIMCEN
 40
0.0
  9
$DIMTSZ
 40
0.0
  9
$DIMTOL
 70
               0
  9
$DIMLIM
 70
               0
  9
$DIMTIH
 70
               0
  9
$DIMTOH
 70
               0
  9
$DIMSE1
 70
               0
  9
$DIMSE2
 70
               0
  9
$DIMTAD
 70
               1
  9
$DIMZIN
 70
              11
  9
$DIMBLK
  1
VW_SLASH
  9
$DIMASO
 70
               1
  9
$DIMSHO
 70
               1
  9
$DIMPOST
  1
<>mm
  9
$DIMAPOST
  1
[]
  9
$DIMALT
 70
               0
  9
$DIMALTD
 70
               1
  9
$DIMALTF
 40
1.0
  9
$DIMLFAC
 40
1.0
  9
$DIMTOFL
 70
               1
  9
$DIMTVP
 40
0.0
  9
$DIMTIX
 70
               1
  9
$DIMSOXD
 70
               0
  9
$DIMSAH
 70
               0
  9
$DIMBLK1
  1

  9
$DIMBLK2
  1

  9
$DIMSTYLE
  2
Arch
  9
$DIMCLRD
 70
               0
  9
$DIMCLRE
 70
               0
  9
$DIMCLRT
 70
               0
  9
$DIMTFAC
 40
1.0
  9
$DIMGAP
 40
1.5874999999999999
  9
$DIMJUST
 70
               0
  9
$DIMSD1
 70
               0
  9
$DIMSD2
 70
               0
  9
$DIMTOLJ
 70
               1
  9
$DIMTZIN
 70
              11
  9
$DIMALTZ
 70
              11
  9
$DIMALTTZ
 70
              11
  9
$DIMUPT
 70
               0
  9
$DIMDEC
 70
               1
  9
$DIMTDEC
 70
               1
  9
$DIMALTU
 70
               2
  9
$DIMALTTD
 70
               2
  9
$DIMTXSTY
  7
Helvetica
  9
$DIMAUNIT
 70
               0
  9
$DIMADEC
 70
               2
  9
$DIMALTRND
 40
0.0
  9
$DIMAZIN
 70
               0
  9
$DIMDSEP
 70
              46
  9
$DIMATFIT
 70
               0
  9
$DIMFRAC
 70
               2
  9
$DIMLDRBLK
  1

  9
$DIMLUNIT
 70
               2
  9
$DIMLWD
 70
              -2
  9
$DIMLWE
 70
              -2
  9
$DIMTMOVE
 70
               0
  9
$LUNITS
 70
               2
  9
$LUPREC
 70
               4
  9
$SKETCHINC
 40
0.1
  9
$FILLETRAD
 40
0.0
  9
$AUNITS
 70
               0
  9
$AUPREC
 70
               0
  9
$MENU
  1
acad
  9
$ELEVATION
 40
0.0
  9
$PELEVATION
 40
0.0
  9
$THICKNESS
 40
0.0
  9
$LIMCHECK
 70
               0
  9
$CHAMFERA
 40
0.0
  9
$CHAMFERB
 40
0.0
  9
$CHAMFERC
 40
0.0
  9
$CHAMFERD
 40
0.0
  9
$SKPOLY
 70
               0
  9
$TDCREATE
 40
2454963.595960648
  9
$TDUCREATE
 40
0.000000000
  9
$TDUPDATE
 40
2454963.595960648
  9
$TDUUPDATE
 40
0.000000000
  9
$TDINDWG
 40
0.0000000000
  9
$TDUSRTIMER
 40
0.0000000000
  9
$USRTIMER
 70
               1
  9
$ANGBASE
 50
0.0
  9
$ANGDIR
 70
               0
  9
$PDMODE
 70
               1
  9
$PDSIZE
 40
-2.0
  9
$PLINEWID
 40
0.0
  9
$SPLFRAME
 70
               0
  9
$SPLINETYPE
 70
               6
  9
$SPLINESEGS
 70
               8
  9
$HANDSEED
  5
1BB
  9
$SURFTAB1
 70
               6
  9
$SURFTAB2
 70
               6
  9
$SURFTYPE
 70
               6
  9
$SURFU
 70
               6
  9
$SURFV
 70
               6
  9
$UCSBASE
  2

  9
$UCSNAME
  2

  9
$UCSORG
 10
0.0
 20
0.0
 30
0.0
  9
$UCSXDIR
 10
1.0
 20
0.0
 30
0.0
  9
$UCSYDIR
 10
0.0
 20
1.0
 30
0.0
  9
$UCSORTHOREF
  2

  9
$UCSORTHOVIEW
 70
               0
  9
$UCSORGTOP
 10
0.0
 20
0.0
 30
0.0
  9
$UCSORGBOTTOM
 10
0.0
 20
0.0
 30
0.0
  9
$UCSORGLEFT
 10
0.0
 20
0.0
 30
0.0
  9
$UCSORGRIGHT
 10
0.0
 20
0.0
 30
0.0
  9
$UCSORGFRONT
 10
0.0
 20
0.0
 30
0.0
  9
$UCSORGBACK
 10
0.0
 20
0.0
 30
0.0
  9
$PUCSBASE
  2

  9
$PUCSNAME
  2

  9
$PUCSORG
 10
0.0
 20
0.0
 30
0.0
  9
$PUCSXDIR
 10
1.0
 20
0.0
 30
0.0
  9
$PUCSYDIR
 10
0.0
 20
1.0
 30
0.0
  9
$PUCSORTHOREF
  2

  9
$PUCSORTHOVIEW
 70
               0
  9
$PUCSORGTOP
 10
0.0
 20
0.0
 30
0.0
  9
$PUCSORGBOTTOM
 10
0.0
 20
0.0
 30
0.0
  9
$PUCSORGLEFT
 10
0.0
 20
0.0
 30
0.0
  9
$PUCSORGRIGHT
 10
0.0
 20
0.0
 30
0.0
  9
$PUCSORGFRONT
 10
0.0
 20
0.0
 30
0.0
  9
$PUCSORGBACK
 10
0.0
 20
0.0
 30
0.0
  9
$USERI1
 70
               0
  9
$USERI2
 70
               0
  9
$USERI3
 70
               0
  9
$USERI4
 70
               0
  9
$USERI5
 70
               0
  9
$USERR1
 40
0.0
  9
$USERR2
 40
0.0
  9
$USERR3
 40
0.0
  9
$USERR4
 40
0.0
  9
$USERR5
 40
0.0
  9
$WORLDVIEW
 70
               1
  9
$SHADEDGE
 70
               3
  9
$SHADEDIF
 70
              70
  9
$TILEMODE
 70
               1
  9
$MAXACTVP
 70
              64
  9
$PINSBASE
 10
0.0
 20
0.0
 30
0.0
  9
$PLIMCHECK
 70
               0
  9
$PEXTMIN
 10
1.0000000000000000E+20
 20
1.0000000000000000E+20
 30
1.0000000000000000E+20
  9
$PEXTMAX
 10
-1.0000000000000000E+20
 20
-1.0000000000000000E+20
 30
-1.0000000000000000E+20
  9
$PLIMMIN
 10
0.0
 20
0.0
  9
$PLIMMAX
 10
12.0
 20
9.0
  9
$UNITMODE
 70
               0
  9
$VISRETAIN
 70
               0
  9
$PLINEGEN
 70
               1
  9
$PSLTSCALE
 70
               0
  9
$TREEDEPTH
 70
            3020
  9
$CMLSTYLE
  2
Standard
  9
$CMLJUST
 70
               0
  9
$CMLSCALE
 40
1.0
  9
$PROXYGRAPHICS
 70
               0
  9
$MEASUREMENT
 70
               1
  9
$CELWEIGHT
370
               0
  9
$ENDCAPS
280
               0
  9
$JOINSTYLE
280
               0
  9
$LWDISPLAY
290
               1
  9
$INSUNITS
 70
               4
  9
$HYPERLINKBASE
  1

  9
$STYLESHEET
  1

  9
$XEDIT
290
               1
  9
$CEPSNTYPE
380
               0
  9
$PSTYLEMODE
290
               1
  9
$FINGERPRINTGUID
  2

  9
$VERSIONGUID
  2

  9
$EXTNAMES
290
               1
  9
$PSVPSCALE
 40
0.0
  0
ENDSEC
  0
SECTION
  2
CLASSES
  0
CLASS
  1
LWPOLYLINE
  2
AcDbPolyline
  3
AutoCAD 2000
 90
        0
280
               0
281
               1
  0
CLASS
  1
IMAGE
  2
AcDbRasterImage
  3
ISM
 90
      127
280
               0
281
               1
  0
CLASS
  1
OLE2FRAME
  2
AcDbOle2Frame
  3
AutoCAD 2000
 90
        0
280
               0
281
               1
  0
CLASS
  1
HATCH
  2
AcDbHatch
  3
AutoCAD 2000
 90
        0
280
               0
281
               1
  0
CLASS
  1
DICTIONARYVAR
  2
AcDbDictionaryVar
  3
AutoCAD 2000
 90
        0
280
               0
281
               0
  0
CLASS
  1
RASTERVARIABLES
  2
AcDbRasterVariables
  3
ISM
 90
        0
280
               0
281
               0
  0
CLASS
  1
IMAGEDEF
  2
AcDbRasterImageDef
  3
ISM
 90
        0
280
               0
281
               0
  0
CLASS
  1
IMAGEDEF_REACTOR
  2
AcDbRasterImageDefReactor
  3
ISM
 90
        1
280
               0
281
               0
  0
CLASS
  1
IDBUFFER
  2
AcDbIdBuffer
  3
AutoCAD 2000
 90
        0
280
               0
281
               0
  0
CLASS
  1
SPATIAL_FILTER
  2
AcDbSpatialFilter
  3
AutoCAD 2000
 90
        0
280
               0
281
               0
  0
CLASS
  1
XRECORD
  2
AcDbXrecord
  3
AutoCAD 2000
 90
        0
280
               0
281
               0
  0
CLASS
  1
SORTENTSTABLE
  2
AcDbSortentsTable
  3
AutoCAD 2000
 90
        0
280
               0
281
               0
  0
CLASS
  1
LAYER_INDEX
  2
AcDbLayerIndex
  3
AutoCAD 2000
 90
        0
280
               0
281
               0
  0
CLASS
  1
SPATIAL_INDEX
  2
AcDbSpatialIndex
  3
AutoCAD 2000
 90
        0
280
               0
281
               0
  0
CLASS
  1
OBJECT_PTR
  2
CAseDLPNTableRecord
  3
"ASE-LPNTableRecord"
 90
        1
280
               0
281
               0
  0
CLASS
  1
LAYOUT
  2
AcDbLayout
  3
AutoCAD 2000
 90
        0
280
               0
281
               0
  0
CLASS
  1
PLOTSETTINGS
  2
AcDbPlotSettings
  3
AutoCAD 2000
 90
        0
280
               0
281
               0
  0
CLASS
  1
ACDBDICTIONARYWDFLT
  2
AcDbDictionaryWithDefault
  3
AutoCAD 2000
 90
        0
280
               0
281
               0
  0
CLASS
  1
ACDBPLACEHOLDER
  2
AcDbPlaceHolder
  3
AutoCAD 2000
 90
        0
280
               0
281
               0
  0
CLASS
  1
VBA_PROJECT
  2
AcDbVbaProject
  3
acadvba
 90
        0
280
               0
281
               0
  0
CLASS
  1
WIPEOUT
  2
AcDbWipeout
  3
WipeOut|AutoCAD Express Tool|expresstools@autodesk.com
 90
      127
280
               0
281
               1
  0
CLASS
  1
WIPEOUTVARIABLES
  2
AcDbWipeoutVariables
  3
WipeOut|AutoCAD Express Tool|expresstools@autodesk.com
 90
        0
280
               0
281
               0
  0
CLASS
  1
RTEXT
  2
RText
  3
RText|AutoCAD Express Tool|expresstools@autodesk.com
 90
        0
280
               0
281
               1
  0
CLASS
  1
ARCALIGNEDTEXT
  2
AcDbArcAlignedText
  3
ATEXT|AutoCAD Express Tool|expresstools@autodesk.com
 90
        0
280
               0
281
               1
  0
ENDSEC
  0
SECTION
  2
TABLES
  0
TABLE
  2
VPORT
  5
7
100
AcDbSymbolTable
 70
               1
  0
VPORT
  5
15
100
AcDbSymbolTableRecord
100
AcDbViewportTableRecord
  2
*ACTIVE
 70
               0
 10
0.0
 20
0.0
 11
1.0
 21
1.0
 12
0.1102805250367211
 22
0.1099738380986537
 13
0.0
 23
0.0
 14
1.0
 24
1.0
 15
0.0
 25
0.0
 16
0.0
 26
0.0
 36
1.0
 17
0.0
 27
0.0
 37
0.0
 40
38.049893082934219
 41
0.688564
 42
50.0
 43
0.0
 44
0.0
 50
0.0
 51
0.0
 71
               0
 72
            2000
 73
               1
 74
               1
 75
               0
 76
               0
 77
               0
 78
               0
281
               0
 65
               0
110
0.0
120
0.0
130
0.0
111
1.0
121
0.0
131
0.0
112
0.0
122
1.0
132
0.0
345
0
346
0
 79
               0
146
0.0
  0
ENDTAB
  0
TABLE
  2
LTYPE
  5
4
100
AcDbSymbolTable
 70
              15
  0
LTYPE
  5
11
100
AcDbSymbolTableRecord
100
AcDbLinetypeTableRecord
  2
ByBlock
 70
              64
  3

 72
              65
 73
               0
 40
0.0
  0
LTYPE
  5
12
100
AcDbSymbolTableRecord
100
AcDbLinetypeTableRecord
  2
ByLayer
 70
              64
  3

 72
              65
 73
               0
 40
0.0
  0
LTYPE
  5
13
100
AcDbSymbolTableRecord
100
AcDbLinetypeTableRecord
  2
Continuous
 70
              64
  3
Solid line
 72
              65
 73
               0
 40
0.0
  0
LTYPE
  5
35
100
AcDbSymbolTableRecord
100
AcDbLinetypeTableRecord
  2
STYLE_01
 70
               0
  3

 72
              65
 73
               2
 40
0.41664
 49
0.20828
 74
               0
 49
-0.20836
 74
               0
  0
LTYPE
  5
36
100
AcDbSymbolTableRecord
100
AcDbLinetypeTableRecord
  2
STYLE_02
 70
               0
  3

 72
              65
 73
               2
 40
0.6944250000000001
 49
0.48607
 74
               0
 49
-0.2083550000000001
 74
               0
  0
LTYPE
  5
37
100
AcDbSymbolTableRecord
100
AcDbLinetypeTableRecord
  2
STYLE_03
 70
               0
  3

 72
              65
 73
               2
 40
1.25
 49
1.0416400000000001
 74
               0
 49
-0.2083599999999999
 74
               0
  0
LTYPE
  5
38
100
AcDbSymbolTableRecord
100
AcDbLinetypeTableRecord
  2
STYLE_04
 70
               0
  3

 72
              65
 73
               2
 40
1.5277099999999999
 49
1.3194249999999998
 74
               0
 49
-0.208285
 74
               0
  0
LTYPE
  5
39
100
AcDbSymbolTableRecord
100
AcDbLinetypeTableRecord
  2
STYLE_05
 70
               0
  3

 72
              65
 73
               2
 40
0.20828
 49
0.069425
 74
               0
 49
-0.138855
 74
               0
  0
LTYPE
  5
3A
100
AcDbSymbolTableRecord
100
AcDbLinetypeTableRecord
  2
STYLE_06
 70
               0
  3

 72
              65
 73
               4
 40
1.0416400000000001
 49
0.625
 74
               0
 49
-0.20828
 74
               0
 49
0.06943
 74
               0
 49
-0.13893
 74
               0
  0
LTYPE
  5
3B
100
AcDbSymbolTableRecord
100
AcDbLinetypeTableRecord
  2
STYLE_07
 70
               0
  3

 72
              65
 73
               6
 40
1.875
 49
0.625
 74
               0
 49
-0.20828
 74
               0
 49
0.6250000000000001
 74
               0
 49
-0.2083599999999999
 74
               0
 49
0.06943
 74
               0
 49
-0.1389299999999999
 74
               0
  0
LTYPE
  5
3C
100
AcDbSymbolTableRecord
100
AcDbLinetypeTableRecord
  2
STYLE_08
 70
               0
  3

 72
              65
 73
               6
 40
1.25
 49
0.625
 74
               0
 49
-0.20828
 74
               0
 49
0.06943
 74
               0
 49
-0.13893
 74
               0
 49
0.0694299999999999
 74
               0
 49
-0.13893
 74
               0
  0
LTYPE
  5
3D
100
AcDbSymbolTableRecord
100
AcDbLinetypeTableRecord
  2
STYLE_09
 70
               0
  3

 72
              65
 73
               4
 40
5.0
 49
3.75
 74
               0
 49
-0.2777849999999998
 74
               0
 49
0.6944300000000003
 74
               0
 49
-0.2777849999999998
 74
               0
  0
LTYPE
  5
3E
100
AcDbSymbolTableRecord
100
AcDbLinetypeTableRecord
  2
STYLE_10
 70
               0
  3

 72
              65
 73
               6
 40
5.9375
 49
3.75
 74
               0
 49
-0.2777849999999998
 74
               0
 49
0.6944300000000003
 74
               0
 49
-0.2777849999999998
 74
               0
 49
0.625
 74
               0
 49
-0.3125
 74
               0
  0
LTYPE
  5
3F
100
AcDbSymbolTableRecord
100
AcDbLinetypeTableRecord
  2
STYLE_11
 70
               0
  3

 72
              65
 73
               2
 40
0.4166412353515625
 49
0.2777862548828125
 74
               0
 49
-0.13885498046875
 74
               0
  0
LTYPE
  5
40
100
AcDbSymbolTableRecord
100
AcDbLinetypeTableRecord
  2
STYLE_12
 70
               0
  3

 72
              65
 73
               2
 40
0.48614501953125
 49
0.2777862548828125
 74
               0
 49
-0.2083587646484375
 74
               0
  0
ENDTAB
  0
TABLE
  2
LAYER
  5
2
100
AcDbSymbolTable
 70
               4
  0
LAYER
  5
14
100
AcDbSymbolTableRecord
100
AcDbLayerTableRecord
  2
0
 70
               0
 62
               7
  6
Continuous
290
               1
370
              -3
390
1D
  0
LAYER
  5
41
100
AcDbSymbolTableRecord
100
AcDbLayerTableRecord
  2
Defpoints
 70
               0
 62
               7
  6
Continuous
290
               0
370
              -3
390
1D
  0
LAYER
  5
42
100
AcDbSymbolTableRecord
100
AcDbLayerTableRecord
  2
None
 70
               0
 62
               7
  6
Continuous
290
               1
370
               5
390
1D
  0
LAYER
  5
43
100
AcDbSymbolTableRecord
100
AcDbLayerTableRecord
  2
Dimension
 70
               0
 62
               7
  6
Continuous
290
               1
370
               5
390
1D
  0
ENDTAB
  0
TABLE
  2
STYLE
  5
3
100
AcDbSymbolTable
 70
               3
  0
STYLE
  5
17
100
AcDbSymbolTableRecord
100
AcDbTextStyleTableRecord
  2
Standard
 70
               0
 40
0.0
 41
1.0
 50
0.0
 71
               0
 42
0.0
  3
txt
  4

  0
STYLE
  5
33
100
AcDbSymbolTableRecord
100
AcDbTextStyleTableRecord
  2
Arial
 70
               0
 40
0.0
 41
1.0
 50
0.0
 71
               0
 42
0.0
  3
Arial
  4

1001
ACAD
1000
Arial
1071
        0
  0
STYLE
  5
34
100
AcDbSymbolTableRecord
100
AcDbTextStyleTableRecord
  2
Helvetica
 70
               0
 40
0.0
 41
1.0
 50
0.0
 71
               0
 42
0.0
  3
Helvetica
  4

1001
ACAD
1000
Helvetica
1071
        0
  0
ENDTAB
  0
TABLE
  2
VIEW
  5
5
100
AcDbSymbolTable
 70
               0
  0
ENDTAB
  0
TABLE
  2
UCS
  5
6
100
AcDbSymbolTable
 70
               0
  0
ENDTAB
  0
TABLE
  2
APPID
  5
8
100
AcDbSymbolTable
 70
               1
  0
APPID
  5
16
100
AcDbSymbolTableRecord
100
AcDbRegAppTableRecord
  2
ACAD
 70
               0
  0
ENDTAB
  0
TABLE
  2
DIMSTYLE
  5
9
100
AcDbSymbolTable
 70
               3
100
AcDbDimStyleTable
 71
               0
  0
DIMSTYLE
105
18
100
AcDbSymbolTableRecord
100
AcDbDimStyleTableRecord
  2
Standard
 70
               0
  3

  4

 40
1.0
 41
0.18
 42
0.0625
 43
0.38
 44
0.18
 45
0.0
 46
0.0
 47
0.0
 48
0.0
 71
               0
 72
               0
 73
               1
 74
               1
 75
               0
 76
               0
 77
               0
 78
               0
 79
               0
140
0.18
141
0.09
142
0.0
143
25.399999999999999
144
1.0
145
0.0
146
1.0
147
0.09
148
0.0
170
               0
171
               2
172
               0
173
               0
174
               0
175
               0
176
               0
177
               0
178
               0
179
               0
271
               4
272
               4
273
               2
274
               2
275
               0
276
               0
277
               2
278
              46
279
               0
280
               0
281
               0
282
               0
283
               1
284
               0
285
               0
286
               0
288
               0
289
               3
340
17
341
0
342
0
343
0
344
0
371
              -2
372
              -2
  0
DIMSTYLE
105
4C
100
AcDbSymbolTableRecord
100
AcDbDimStyleTableRecord
  2
IE Standard
 70
               0
  3
<>mm
  4
[]
 40
1.0
 41
0.79375
 42
0.4762500011827797
 43
6.9999859934672708
 44
0.9525000023655593
 45
0.0
 46
0.0
 47
0.0
 48
0.0
 71
               0
 72
               0
 73
               1
 74
               1
 75
               0
 76
               0
 77
               0
 78
              11
 79
               0
140
0.7579202490234376
141
0.0
142
0.0
143
1.0
144
1.0
145
0.0
146
1.0
147
0.0
148
0.0
170
               0
171
               1
172
               1
173
               0
174
               1
175
               0
176
               0
177
               0
178
               0
179
               2
271
               1
272
               1
273
               2
274
               2
275
               0
276
               2
277
               2
278
              46
279
               0
280
               0
281
               0
282
               0
283
               1
284
              11
285
              11
286
              11
288
               0
289
               0
340
34
341
48
342
44
343
0
344
0
371
              -2
372
              -2
  0
DIMSTYLE
105
52
100
AcDbSymbolTableRecord
100
AcDbDimStyleTableRecord
  2
Arch
 70
               0
  3
<>mm
  4
[]
 40
1.0
 41
0.5612060546875
 42
0.396875
 43
10.16
 44
0.79375
 45
0.0
 46
1.5874999999999999
 47
0.0
 48
0.0
 71
               0
 72
               0
 73
               0
 74
               0
 75
               0
 76
               0
 77
               1
 78
              11
 79
               0
140
0.7579202490234376
141
0.0
142
0.0
143
1.0
144
1.0
145
0.0
146
1.0
147
1.5874999999999999
148
0.0
170
               0
171
               1
172
               1
173
               0
174
               1
175
               0
176
               0
177
               0
178
               0
179
               2
271
               1
272
               1
273
               2
274
               2
275
               0
276
               2
277
               2
278
              46
279
               0
280
               0
281
               0
282
               0
283
               1
284
              11
285
              11
286
              11
288
               0
289
               0
340
34
341
44
342
4D
343
0
344
0
371
              -2
372
              -2
  0
ENDTAB
  0
TABLE
  2
BLOCK_RECORD
  5
1
100
AcDbSymbolTable
 70
              18
  0
BLOCK_RECORD
  5
A
100
AcDbSymbolTableRecord
100
AcDbBlockTableRecord
  2
*MODEL_SPACE
340
20
  0
BLOCK_RECORD
  5
B
100
AcDbSymbolTableRecord
100
AcDbBlockTableRecord
  2
*PAPER_SPACE
340
21
  0
BLOCK_RECORD
  5
44
100
AcDbSymbolTableRecord
100
AcDbBlockTableRecord
  2
VW_FILLEDARROW
340
0
  0
BLOCK_RECORD
  5
48
100
AcDbSymbolTableRecord
100
AcDbBlockTableRecord
  2
VW_FILLEDARROW-1
340
0
  0
BLOCK_RECORD
  5
4D
100
AcDbSymbolTableRecord
100
AcDbBlockTableRecord
  2
VW_SLASH
340
0
  0
BLOCK_RECORD
  5
24
100
AcDbSymbolTableRecord
100
AcDbBlockTableRecord
  2
Group
340
0
102
{BLKREFS
331
12B
102
}
  0
BLOCK_RECORD
  5
25
100
AcDbSymbolTableRecord
100
AcDbBlockTableRecord
  2
*D4
340
0
  0
BLOCK_RECORD
  5
26
100
AcDbSymbolTableRecord
100
AcDbBlockTableRecord
  2
*D5
340
0
  0
BLOCK_RECORD
  5
27
100
AcDbSymbolTableRecord
100
AcDbBlockTableRecord
  2
*D6
340
0
  0
BLOCK_RECORD
  5
28
100
AcDbSymbolTableRecord
100
AcDbBlockTableRecord
  2
*D7
340
0
  0
BLOCK_RECORD
  5
29
100
AcDbSymbolTableRecord
100
AcDbBlockTableRecord
  2
*D8
340
0
  0
BLOCK_RECORD
  5
2A
100
AcDbSymbolTableRecord
100
AcDbBlockTableRecord
  2
*D9
340
0
  0
BLOCK_RECORD
  5
2B
100
AcDbSymbolTableRecord
100
AcDbBlockTableRecord
  2
*D10
340
0
  0
BLOCK_RECORD
  5
2C
100
AcDbSymbolTableRecord
100
AcDbBlockTableRecord
  2
*D11
340
0
  0
BLOCK_RECORD
  5
2D
100
AcDbSymbolTableRecord
100
AcDbBlockTableRecord
  2
*D12
340
0
  0
BLOCK_RECORD
  5
2E
100
AcDbSymbolTableRecord
100
AcDbBlockTableRecord
  2
*D13
340
0
  0
BLOCK_RECORD
  5
2F
100
AcDbSymbolTableRecord
100
AcDbBlockTableRecord
  2
*D14
340
0
  0
BLOCK_RECORD
  5
30
100
AcDbSymbolTableRecord
100
AcDbBlockTableRecord
  2
*D15
340
0
  0
BLOCK_RECORD
  5
31
100
AcDbSymbolTableRecord
100
AcDbBlockTableRecord
  2
*D16
340
0
  0
BLOCK_RECORD
  5
32
100
AcDbSymbolTableRecord
100
AcDbBlockTableRecord
  2
*D17
340
0
  0
ENDTAB
  0
ENDSEC
  0
SECTION
  2
BLOCKS
  0
BLOCK
  5
D
100
AcDbEntity
  8
0
390
0
100
AcDbBlockBegin
  2
*MODEL_SPACE
 70
               0
 10
0.0
 20
0.0
 30
0.0
  3
*MODEL_SPACE
  1

  0
ENDBLK
  5
E
100
AcDbEntity
  8
0
390
0
100
AcDbBlockEnd
  0
BLOCK
  5
F
100
AcDbEntity
 67
               1
  8
0
390
0
100
AcDbBlockBegin
  2
*PAPER_SPACE
 70
               0
 10
0.0
 20
0.0
 30
0.0
  3
*PAPER_SPACE
  1

  0
ENDBLK
  5
10
100
AcDbEntity
 67
               1
  8
0
390
0
100
AcDbBlockEnd
  0
BLOCK
  5
45
100
AcDbEntity
  8
0
370
              -2
390
0
  6
ByBlock
 62
               0
100
AcDbBlockBegin
  2
VW_FILLEDARROW
 70
               0
 10
0.0
 20
0.0
 30
0.0
  3
VW_FILLEDARROW
  1

  0
SOLID
  5
46
100
AcDbEntity
  8
0
370
              -2
390
0
 62
               0
100
AcDbTrace
 10
0.0
 20
0.0
 30
0.0
 11
-0.9999389648437499
 21
-0.2679328381102956
 31
0.0
 12
-0.9999389648437499
 22
0.2679328381102958
 32
0.0
 13
-0.9999389648437499
 23
0.2679328381102958
 33
0.0
  0
ENDBLK
  5
47
100
AcDbEntity
  8
0
390
0
100
AcDbBlockEnd
  0
BLOCK
  5
49
100
AcDbEntity
  8
0
370
              -2
390
0
  6
ByBlock
 62
               0
100
AcDbBlockBegin
  2
VW_FILLEDARROW-1
 70
               0
 10
0.0
 20
0.0
 30
0.0
  3
VW_FILLEDARROW
  1

  0
SOLID
  5
4A
100
AcDbEntity
  8
0
370
              -2
390
0
 62
               0
100
AcDbTrace
 10
0.0
 20
0.0
 30
0.0
 11
-0.6662384033203125
 21
-0.1785180421362784
 31
0.0
 12
-0.6662384033203125
 22
0.1785180421362785
 32
0.0
 13
-0.6662384033203125
 23
0.1785180421362785
 33
0.0
  0
ENDBLK
  5
4B
100
AcDbEntity
  8
0
390
0
100
AcDbBlockEnd
  0
BLOCK
  5
4E
100
AcDbEntity
  8
0
370
              -2
390
0
  6
ByBlock
 62
               0
100
AcDbBlockBegin
  2
VW_SLASH
 70
               0
 10
0.0
 20
0.0
 30
0.0
  3
VW_SLASH
  1

  0
LINE
  5
4F
100
AcDbEntity
  8
0
370
              -2
390
0
  6
ByBlock
 62
               0
100
AcDbLine
 10
0.0
 20
0.0
 30
0.0
 11
-1.0
 21
0.0
 31
0.0
  0
LINE
  5
50
100
AcDbEntity
  8
0
370
              20
390
0
  6
ByBlock
 62
               0
100
AcDbLine
 10
-0.5000145658230796
 20
-0.5000145658230795
 30
0.0
 11
0.5000145658230796
 21
0.5000145658230795
 31
0.0
  0
ENDBLK
  5
51
100
AcDbEntity
  8
0
390
0
100
AcDbBlockEnd
  0
BLOCK
  5
53
100
AcDbEntity
  8
Dimension
390
0
100
AcDbBlockBegin
  2
Group
 70
               0
 10
0.0
 20
0.0
 30
0.0
  3
Group
  1

  0
LINE
  5
54
100
AcDbEntity
  8
None
370
               5
390
0
  6
Continuous
 62
               1
100
AcDbLine
 10
-3.8499887595042139
 20
3.4498407591315399
 30
0.0
 11
-2.1833270932631592
 21
3.4498407591315399
 31
0.0
  0
LINE
  5
55
100
AcDbEntity
  8
None
370
               5
390
0
  6
Continuous
 62
               1
100
AcDbLine
 10
-3.0166579263836866
 20
2.6165099260110196
 30
0.0
 11
-3.0166579263836866
 21
4.2831715922520601
 31
0.0
  0
LINE
  5
56
100
AcDbEntity
  8
None
370
               5
390
0
  6
Continuous
 62
               1
100
AcDbLine
 10
-11.629154927705372
 20
3.4498407591315399
 30
0.0
 11
-4.5166534244235947
 21
3.4498407591315399
 31
0.0
  0
LINE
  5
57
100
AcDbEntity
  8
None
370
               5
390
0
  6
Continuous
 62
               1
100
AcDbLine
 10
-1.5166624283437784
 20
3.4498407591315399
 30
0.0
 11
5.5958390749379987
 21
3.4498407591315399
 31
0.0
  0
LINE
  5
58
100
AcDbEntity
  8
None
370
               5
390
0
  6
Continuous
 62
               1
100
AcDbLine
 10
-3.0166579263836866
 20
12.062337760453204
 30
0.0
 11
-3.0166579263836866
 21
4.9498362571714409
 31
0.0
  0
LINE
  5
59
100
AcDbEntity
  8
None
370
               5
390
0
  6
Continuous
 62
               1
100
AcDbLine
 10
-3.0166579263836866
 20
1.9498452610916388
 30
0.0
 11
-3.0166579263836866
 21
-5.1626562421901312
 31
0.0
  0
ENDBLK
  5
5A
100
AcDbEntity
  8
Dimension
390
0
100
AcDbBlockEnd
  0
BLOCK
  5
5B
100
AcDbEntity
  8
Dimension
390
0
100
AcDbBlockBegin
  2
*D4
 70
               1
 10
0.0
 20
0.0
 30
0.0
  3
*D4
  1

  0
LINE
  5
5C
100
AcDbEntity
  8
Dimension
370
              -2
390
0
  6
Continuous
 62
               0
100
AcDbLine
 10
-9.3791579263836979
 20
10.288590760314307
 30
0.0
 11
-9.3791579263836979
 21
16.092918176987666
 31
0.0
  0
LINE
  5
5D
100
AcDbEntity
  8
Dimension
370
              -2
390
0
  6
Continuous
 62
               0
100
AcDbLine
 10
-7.0916579263836752
 20
9.1060907603143093
 30
0.0
 11
-7.0916579263836752
 21
16.092918176987666
 31
0.0
  0
LINE
  5
5E
100
AcDbEntity
  8
Dimension
370
              -2
390
0
  6
Continuous
 62
               0
100
AcDbLine
 10
-7.0916579263836752
 20
15.140418174622106
 30
0.0
 11
-9.3791579263836979
 21
15.140418174622106
 31
0.0
  0
LINE
  5
5F
100
AcDbEntity
  8
Dimension
370
              -2
390
0
  6
Continuous
 62
               0
100
AcDbLine
 10
-9.3791579263836979
 20
15.140418174622106
 30
0.0
 11
-11.12915442475051
 21
15.140418174622106
 31
0.0
  0
SOLID
  5
60
100
AcDbEntity
  8
Dimension
370
              -2
390
0
 62
               0
100
AcDbTrace
 10
-9.3791579263836979
 20
15.140418174622106
 30
0.0
 11
-10.172907926383697
 21
14.927733503129902
 31
0.0
 12
-10.172907926383697
 22
15.353102846114309
 32
0.0
 13
-10.172907926383697
 23
15.353102846114309
 33
0.0
  0
LINE
  5
61
100
AcDbEntity
  8
Dimension
370
              -2
390
0
  6
Continuous
 62
               0
100
AcDbLine
 10
-7.0916579263836752
 20
15.140418174622106
 30
0.0
 11
-4.7583315952232397
 21
15.140418174622106
 31
0.0
  0
SOLID
  5
62
100
AcDbEntity
  8
Dimension
370
              -2
390
0
 62
               0
100
AcDbTrace
 10
-7.0916579263836752
 20
15.140418174622106
 30
0.0
 11
-6.297907926383675
 21
15.353102846114309
 31
0.0
 12
-6.297907926383675
 22
14.927733503129902
 32
0.0
 13
-6.297907926383675
 23
14.927733503129902
 33
0.0
  0
WIPEOUT
  5
63
100
AcDbEntity
  8
Dimension
370
              -2
390
0
  6
Continuous
 62
               0
 92
        0
100
AcDbWipeout
 90
        0
 10
-4.7583315952232397
 20
14.531877116497105
 30
0.0
 11
4.265079013506571
 21
0.0
 31
0.0
 12
0.0
 22
4.265079013506571
 32
0.0
 13
1.0
 23
1.0
340
0
 70
               7
280
               1
281
              50
282
              50
283
               0
360
0
 71
               2
 91
        5
 14
-0.5
 24
0.5
 14
0.5
 24
0.5
 14
0.5
 24
0.2146401948484971
 14
-0.5
 24
0.2146401948484971
 14
-0.5
 24
0.5
  0
MTEXT
  5
64
100
AcDbEntity
  8
Dimension
390
0
 62
               0
100
AcDbMText
 10
-4.7583315952232397
 20
15.554380434270541
 30
0.0
 40
0.7579202490234376
 41
0.0
 71
               1
 72
               1
  1
2.29mm*
  7
Helvetica
 73
               1
 44
0.9673603504928806
  0
POINT
  5
65
100
AcDbEntity
  8
Defpoints
370
               0
390
0
 62
               0
100
AcDbPoint
 10
-7.0916579263836752
 20
8.6298407591315325
 30
0.0
  0
POINT
  5
66
100
AcDbEntity
  8
Defpoints
370
               0
390
0
 62
               0
100
AcDbPoint
 10
-9.3791579263836979
 20
9.8123407591315299
 30
0.0
  0
POINT
  5
67
100
AcDbEntity
  8
Defpoints
370
               0
390
0
 62
               0
100
AcDbPoint
 10
-9.3791579263836979
 20
15.140418174622106
 30
0.0
  0
ENDBLK
  5
68
100
AcDbEntity
  8
Dimension
390
0
100
AcDbBlockEnd
  0
BLOCK
  5
69
100
AcDbEntity
  8
Dimension
390
0
100
AcDbBlockBegin
  2
*D5
 70
               1
 10
0.0
 20
0.0
 30
0.0
  3
*D5
  1

  0
LINE
  5
6A
100
AcDbEntity
  8
Dimension
370
              -2
390
0
  6
Continuous
 62
               0
100
AcDbLine
 10
-9.3791579263836979
 20
10.288590760314307
 30
0.0
 11
-9.3791579263836979
 21
19.134920379565763
 31
0.0
  0
LINE
  5
6B
100
AcDbEntity
  8
Dimension
370
              -2
390
0
  6
Continuous
 62
               0
100
AcDbLine
 10
-10.629157926383698
 20
11.538590760314314
 30
0.0
 11
-10.629157926383698
 21
19.134920379565763
 31
0.0
  0
LINE
  5
6C
100
AcDbEntity
  8
Dimension
370
              -2
390
0
  6
Continuous
 62
               0
100
AcDbLine
 10
-10.629157926383698
 20
18.182420377200209
 30
0.0
 11
-9.3791579263836979
 21
18.182420377200209
 31
0.0
  0
LINE
  5
6D
100
AcDbEntity
  8
Dimension
370
              -2
390
0
  6
Continuous
 62
               0
100
AcDbLine
 10
-9.3791579263836979
 20
18.182420377200209
 30
0.0
 11
-3.486916579344097
 21
18.182420377200209
 31
0.0
  0
SOLID
  5
6E
100
AcDbEntity
  8
Dimension
370
              -2
390
0
 62
               0
100
AcDbTrace
 10
-9.3791579263836979
 20
18.182420377200209
 30
0.0
 11
-8.5854079263836987
 21
18.395105048692415
 31
0.0
 12
-8.5854079263836987
 22
17.969735705708004
 32
0.0
 13
-8.5854079263836987
 23
17.969735705708004
 33
0.0
  0
LINE
  5
6F
100
AcDbEntity
  8
Dimension
370
              -2
390
0
  6
Continuous
 62
               0
100
AcDbLine
 10
-10.629157926383698
 20
18.182420377200209
 30
0.0
 11
-12.37915442475051
 21
18.182420377200209
 31
0.0
  0
SOLID
  5
70
100
AcDbEntity
  8
Dimension
370
              -2
390
0
 62
               0
100
AcDbTrace
 10
-10.629157926383698
 20
18.182420377200209
 30
0.0
 11
-11.422907926383697
 21
17.969735705708004
 31
0.0
 12
-11.422907926383697
 22
18.395105048692415
 32
0.0
 13
-11.422907926383697
 23
18.395105048692415
 33
0.0
  0
WIPEOUT
  5
71
100
AcDbEntity
  8
Dimension
370
              -2
390
0
  6
Continuous
 62
               0
 92
        0
100
AcDbWipeout
 90
        0
 10
-3.486916579344097
 20
17.573879927616876
 30
0.0
 11
3.8523293230268685
 21
0.0
 31
0.0
 12
0.0
 22
3.8523293230268685
 32
0.0
 13
1.0
 23
1.0
340
0
 70
               7
280
               1
281
              50
282
              50
283
               0
360
0
 71
               2
 91
        5
 14
-0.5
 24
0.5
 14
0.5
 24
0.5
 14
0.5
 24
0.1840659211103711
 14
-0.5
 24
0.1840659211103711
 14
-0.5
 24
0.5
  0
MTEXT
  5
72
100
AcDbEntity
  8
Dimension
390
0
 62
               0
100
AcDbMText
 10
-3.486916579344097
 20
18.596383245390314
 30
0.0
 40
0.7579202490234376
 41
0.0
 71
               1
 72
               1
  1
1.25mm
  7
Helvetica
 73
               1
 44
0.9673603504928806
  0
WIPEOUT
  5
73
100
AcDbEntity
  8
Dimension
370
              -2
390
0
  6
Continuous
 62
               0
 92
        0
100
AcDbWipeout
 90
        0
 10
0.3654127436827821
 20
17.573879398450206
 30
0.0
 11
4.4344121853510536
 21
0.0
 31
0.0
 12
0.0
 22
4.4344121853510536
 32
0.0
 13
1.0
 23
1.0
340
0
 70
               7
280
               1
281
              50
282
              50
283
               0
360
0
 71
               2
 91
        5
 14
-0.5
 24
0.5
 14
0.5
 24
0.5
 14
0.5
 24
0.2255369899373371
 14
-0.5
 24
0.2255369899373371
 14
-0.5
 24
0.5
  0
MTEXT
  5
74
100
AcDbEntity
  8
Dimension
390
0
 62
               0
100
AcDbMText
 10
0.3654127436827821
 20
18.596382716223644
 30
0.0
 40
0.7579202490234376
 41
0.0
 71
               1
 72
               1
  1
±0.13mm
  7
Helvetica
 73
               1
 44
0.9673603504928806
  0
WIPEOUT
  5
75
100
AcDbEntity
  8
Dimension
370
              -2
390
0
  6
Continuous
 62
               0
 92
        0
100
AcDbWipeout
 90
        0
 10
4.7998249290338322
 20
17.573878710533545
 30
0.0
 11
2.10608325931761
 21
0.0
 31
0.0
 12
0.0
 22
2.10608325931761
 32
0.0
 13
1.0
 23
1.0
340
0
 70
               7
280
               1
281
              50
282
              50
283
               0
360
0
 71
               2
 91
        5
 14
-0.5
 24
0.5
 14
0.5
 24
0.5
 14
0.5
 24
-0.0778894675453986
 14
-0.5
 24
-0.0778894675453986
 14
-0.5
 24
0.5
  0
MTEXT
  5
76
100
AcDbEntity
  8
Dimension
390
0
 62
               0
100
AcDbMText
 10
4.7998249290338322
 20
18.596383050811323
 30
0.0
 40
0.7579210069444442
 41
0.0
 71
               1
 72
               1
  1
 (x4)
  7
Helvetica
 73
               1
 44
0.9673603504928806
  0
POINT
  5
77
100
AcDbEntity
  8
Defpoints
370
               0
390
0
 62
               0
100
AcDbPoint
 10
-10.629157926383698
 20
11.062340759131537
 30
0.0
  0
POINT
  5
78
100
AcDbEntity
  8
Defpoints
370
               0
390
0
 62
               0
100
AcDbPoint
 10
-9.3791579263836979
 20
9.8123407591315299
 30
0.0
  0
POINT
  5
79
100
AcDbEntity
  8
Defpoints
370
               0
390
0
 62
               0
100
AcDbPoint
 10
-9.3791579263836979
 20
18.182420377200209
 30
0.0
  0
ENDBLK
  5
7A
100
AcDbEntity
  8
Dimension
390
0
100
AcDbBlockEnd
  0
BLOCK
  5
7B
100
AcDbEntity
  8
Dimension
390
0
100
AcDbBlockBegin
  2
*D6
 70
               1
 10
0.0
 20
0.0
 30
0.0
  3
*D6
  1

  0
LINE
  5
7C
100
AcDbEntity
  8
Dimension
370
              -2
390
0
  6
Continuous
 62
               0
100
AcDbLine
 10
-9.855407927566489
 20
9.8123407591315299
 30
0.0
 11
-15.710278604942928
 21
9.8123407591315299
 31
0.0
  0
LINE
  5
7D
100
AcDbEntity
  8
Dimension
370
              -2
390
0
  6
Continuous
 62
               0
100
AcDbLine
 10
-7.5679079275664662
 20
8.6298407591315325
 30
0.0
 11
-15.710278604942928
 21
8.6298407591315325
 31
0.0
  0
LINE
  5
7E
100
AcDbEntity
  8
Dimension
370
              -2
390
0
  6
Continuous
 62
               0
100
AcDbLine
 10
-14.757778602577375
 20
8.6298407591315325
 30
0.0
 11
-14.757778602577375
 21
9.8123407591315299
 31
0.0
  0
LINE
  5
7F
100
AcDbEntity
  8
Dimension
370
              -2
390
0
  6
Continuous
 62
               0
100
AcDbLine
 10
-14.757778602577375
 20
9.8123407591315299
 30
0.0
 11
-14.757778602577375
 21
13.790961435325208
 31
0.0
  0
SOLID
  5
80
100
AcDbEntity
  8
Dimension
370
              -2
390
0
 62
               0
100
AcDbTrace
 10
-14.757778602577375
 20
9.8123407591315299
 30
0.0
 11
-14.970463274069578
 21
10.606090759131529
 31
0.0
 12
-14.545093931085171
 22
10.606090759131529
 32
0.0
 13
-14.545093931085171
 23
10.606090759131529
 33
0.0
  0
LINE
  5
81
100
AcDbEntity
  8
Dimension
370
              -2
390
0
  6
Continuous
 62
               0
100
AcDbLine
 10
-14.757778602577375
 20
8.6298407591315325
 30
0.0
 11
-14.757778602577375
 21
6.8798442607647132
 31
0.0
  0
SOLID
  5
82
100
AcDbEntity
  8
Dimension
370
              -2
390
0
 62
               0
100
AcDbTrace
 10
-14.757778602577375
 20
8.6298407591315325
 30
0.0
 11
-14.545093931085171
 21
7.8360907591315323
 31
0.0
 12
-14.970463274069578
 22
7.8360907591315323
 32
0.0
 13
-14.970463274069578
 23
7.8360907591315323
 33
0.0
  0
WIPEOUT
  5
83
100
AcDbEntity
  8
Dimension
370
              -2
390
0
  6
Continuous
 62
               0
 92
        0
100
AcDbWipeout
 90
        0
 10
-16.683943264090814
 20
13.182420377200208
 30
0.0
 11
3.8523293230268685
 21
0.0
 31
0.0
 12
0.0
 22
3.8523293230268685
 32
0.0
 13
1.0
 23
1.0
340
0
 70
               7
280
               1
281
              50
282
              50
283
               0
360
0
 71
               2
 91
        5
 14
-0.5
 24
0.5
 14
0.5
 24
0.5
 14
0.5
 24
0.1840659211103716
 14
-0.5
 24
0.1840659211103716
 14
-0.5
 24
0.5
  0
MTEXT
  5
84
100
AcDbEntity
  8
Dimension
390
0
 62
               0
100
AcDbMText
 10
-16.683943264090814
 20
14.204923694973644
 30
0.0
 40
0.7579202490234376
 41
0.0
 71
               1
 72
               1
  1
1.18mm
  7
Helvetica
 73
               1
 44
0.9673603504928806
  0
POINT
  5
85
100
AcDbEntity
  8
Defpoints
370
               0
390
0
 62
               0
100
AcDbPoint
 10
-7.0916579263836752
 20
8.6298407591315325
 30
0.0
  0
POINT
  5
86
100
AcDbEntity
  8
Defpoints
370
               0
390
0
 62
               0
100
AcDbPoint
 10
-9.3791579263836979
 20
9.8123407591315299
 30
0.0
  0
POINT
  5
87
100
AcDbEntity
  8
Defpoints
370
               0
390
0
 62
               0
100
AcDbPoint
 10
-14.757778602577375
 20
9.8123407591315299
 30
0.0
  0
ENDBLK
  5
88
100
AcDbEntity
  8
Dimension
390
0
100
AcDbBlockEnd
  0
BLOCK
  5
89
100
AcDbEntity
  8
Dimension
390
0
100
AcDbBlockBegin
  2
*D7
 70
               1
 10
0.0
 20
0.0
 30
0.0
  3
*D7
  1

  0
LINE
  5
8A
100
AcDbEntity
  8
Dimension
370
              -2
390
0
  6
Continuous
 62
               0
100
AcDbLine
 10
-11.105407927566489
 20
11.062340759131537
 30
0.0
 11
-21.239416581709634
 21
11.062340759131537
 31
0.0
  0
LINE
  5
8B
100
AcDbEntity
  8
Dimension
370
              -2
390
0
  6
Continuous
 62
               0
100
AcDbLine
 10
-9.855407927566489
 20
9.8123407591315299
 30
0.0
 11
-21.239416581709634
 21
9.8123407591315299
 31
0.0
  0
LINE
  5
8C
100
AcDbEntity
  8
Dimension
370
              -2
390
0
  6
Continuous
 62
               0
100
AcDbLine
 10
-20.28691657934408
 20
9.8123407591315299
 30
0.0
 11
-20.28691657934408
 21
11.062340759131537
 31
0.0
  0
LINE
  5
8D
100
AcDbEntity
  8
Dimension
370
              -2
390
0
  6
Continuous
 62
               0
100
AcDbLine
 10
-20.28691657934408
 20
11.062340759131537
 30
0.0
 11
-20.28691657934408
 21
15.590961435325205
 31
0.0
  0
SOLID
  5
8E
100
AcDbEntity
  8
Dimension
370
              -2
390
0
 62
               0
100
AcDbTrace
 10
-20.28691657934408
 20
11.062340759131537
 30
0.0
 11
-20.499601250836285
 21
11.856090759131536
 31
0.0
 12
-20.074231907851875
 22
11.856090759131536
 32
0.0
 13
-20.074231907851875
 23
11.856090759131536
 33
0.0
  0
LINE
  5
8F
100
AcDbEntity
  8
Dimension
370
              -2
390
0
  6
Continuous
 62
               0
100
AcDbLine
 10
-20.28691657934408
 20
9.8123407591315299
 30
0.0
 11
-20.28691657934408
 21
8.0623442607647107
 31
0.0
  0
SOLID
  5
90
100
AcDbEntity
  8
Dimension
370
              -2
390
0
 62
               0
100
AcDbTrace
 10
-20.28691657934408
 20
9.8123407591315299
 30
0.0
 11
-20.074231907851878
 21
9.0185907591315306
 31
0.0
 12
-20.499601250836285
 22
9.0185907591315306
 32
0.0
 13
-20.499601250836285
 23
9.0185907591315306
 33
0.0
  0
WIPEOUT
  5
91
100
AcDbEntity
  8
Dimension
370
              -2
390
0
  6
Continuous
 62
               0
 92
        0
100
AcDbWipeout
 90
        0
 10
-25.483328963191852
 20
14.982420985741873
 30
0.0
 11
3.8523293230268685
 21
0.0
 31
0.0
 12
0.0
 22
3.8523293230268685
 32
0.0
 13
1.0
 23
1.0
340
0
 70
               7
280
               1
281
              50
282
              50
283
               0
360
0
 71
               2
 91
        5
 14
-0.5
 24
0.5
 14
0.5
 24
0.5
 14
0.5
 24
0.1840659211103716
 14
-0.5
 24
0.1840659211103716
 14
-0.5
 24
0.5
  0
MTEXT
  5
92
100
AcDbEntity
  8
Dimension
390
0
 62
               0
100
AcDbMText
 10
-25.483328963191852
 20
16.00492430351531
 30
0.0
 40
0.7579202490234376
 41
0.0
 71
               1
 72
               1
  1
1.25mm
  7
Helvetica
 73
               1
 44
0.9673603504928806
  0
WIPEOUT
  5
93
100
AcDbEntity
  8
Dimension
370
              -2
390
0
  6
Continuous
 62
               0
 92
        0
100
AcDbWipeout
 90
        0
 10
-21.630999640164987
 20
14.982420456575211
 30
0.0
 11
4.4344121853510536
 21
0.0
 31
0.0
 12
0.0
 22
4.4344121853510536
 32
0.0
 13
1.0
 23
1.0
340
0
 70
               7
280
               1
281
              50
282
              50
283
               0
360
0
 71
               2
 91
        5
 14
-0.5
 24
0.5
 14
0.5
 24
0.5
 14
0.5
 24
0.2255369899373375
 14
-0.5
 24
0.2255369899373375
 14
-0.5
 24
0.5
  0
MTEXT
  5
94
100
AcDbEntity
  8
Dimension
390
0
 62
               0
100
AcDbMText
 10
-21.630999640164987
 20
16.004923774348647
 30
0.0
 40
0.7579202490234376
 41
0.0
 71
               1
 72
               1
  1
±0.13mm
  7
Helvetica
 73
               1
 44
0.9673603504928806
  0
WIPEOUT
  5
95
100
AcDbEntity
  8
Dimension
370
              -2
390
0
  6
Continuous
 62
               0
 92
        0
100
AcDbWipeout
 90
        0
 10
-17.196587454813937
 20
14.98241976865854
 30
0.0
 11
2.1060832593176109
 21
0.0
 31
0.0
 12
0.0
 22
2.1060832593176109
 32
0.0
 13
1.0
 23
1.0
340
0
 70
               7
280
               1
281
              50
282
              50
283
               0
360
0
 71
               2
 91
        5
 14
-0.5
 24
0.5
 14
0.5
 24
0.5
 14
0.5
 24
-0.0778894675453992
 14
-0.5
 24
-0.0778894675453992
 14
-0.5
 24
0.5
  0
MTEXT
  5
96
100
AcDbEntity
  8
Dimension
390
0
 62
               0
100
AcDbMText
 10
-17.196587454813937
 20
16.004924108936319
 30
0.0
 40
0.7579210069444442
 41
0.0
 71
               1
 72
               1
  1
 (x4)
  7
Helvetica
 73
               1
 44
0.9673603504928806
  0
POINT
  5
97
100
AcDbEntity
  8
Defpoints
370
               0
390
0
 62
               0
100
AcDbPoint
 10
-9.3791579263836979
 20
9.8123407591315299
 30
0.0
  0
POINT
  5
98
100
AcDbEntity
  8
Defpoints
370
               0
390
0
 62
               0
100
AcDbPoint
 10
-10.629157926383698
 20
11.062340759131537
 30
0.0
  0
POINT
  5
99
100
AcDbEntity
  8
Defpoints
370
               0
390
0
 62
               0
100
AcDbPoint
 10
-20.28691657934408
 20
11.062340759131537
 30
0.0
  0
ENDBLK
  5
9A
100
AcDbEntity
  8
Dimension
390
0
100
AcDbBlockEnd
  0
BLOCK
  5
9B
100
AcDbEntity
  8
Dimension
390
0
100
AcDbBlockBegin
  2
*D8
 70
               1
 10
0.0
 20
0.0
 30
0.0
  3
*D8
  1

  0
LINE
  5
9C
100
AcDbEntity
  8
Dimension
370
              -2
390
0
  6
Continuous
 62
               0
100
AcDbLine
 10
-8.4229079275664844
 20
7.7748407591315285
 30
0.0
 11
-16.716918624777776
 21
7.7748407591315285
 31
0.0
  0
LINE
  5
9D
100
AcDbEntity
  8
Dimension
370
              -2
390
0
  6
Continuous
 62
               0
100
AcDbLine
 10
-8.4229079275664844
 20
-0.8751592408684772
 30
0.0
 11
-16.716918624777776
 21
-0.8751592408684772
 31
0.0
  0
LINE
  5
9E
100
AcDbEntity
  8
Dimension
370
              -2
390
0
  6
Continuous
 62
               0
100
AcDbLine
 10
-15.764418622412222
 20
7.7748407591315285
 30
0.0
 11
-15.764418622412222
 21
-0.8751592408684772
 31
0.0
  0
SOLID
  5
9F
100
AcDbEntity
  8
Dimension
370
              -2
390
0
 62
               0
100
AcDbTrace
 10
-15.764418622412222
 20
7.7748407591315285
 30
0.0
 11
-15.551733950920019
 21
6.9810907591315283
 31
0.0
 12
-15.977103293904426
 22
6.9810907591315283
 32
0.0
 13
-15.977103293904426
 23
6.9810907591315283
 33
0.0
  0
SOLID
  5
A0
100
AcDbEntity
  8
Dimension
370
              -2
390
0
 62
               0
100
AcDbTrace
 10
-15.764418622412222
 20
-0.8751592408684772
 30
0.0
 11
-15.977103293904426
 21
-0.0814092408684772
 31
0.0
 12
-15.551733950920019
 22
-0.0814092408684772
 32
0.0
 13
-15.551733950920019
 23
-0.0814092408684772
 33
0.0
  0
WIPEOUT
  5
A1
100
AcDbEntity
  8
Dimension
370
              -2
390
0
  6
Continuous
 62
               0
 92
        0
100
AcDbWipeout
 90
        0
 10
-17.690583283925662
 20
2.8412997010065242
 30
0.0
 11
3.8523293230268685
 21
0.0
 31
0.0
 12
0.0
 22
3.8523293230268685
 32
0.0
 13
1.0
 23
1.0
340
0
 70
               7
280
               1
281
              50
282
              50
283
               0
360
0
 71
               2
 91
        5
 14
-0.5
 24
0.5
 14
0.5
 24
0.5
 14
0.5
 24
0.1840659211103714
 14
-0.5
 24
0.1840659211103714
 14
-0.5
 24
0.5
  0
MTEXT
  5
A2
100
AcDbEntity
  8
Dimension
390
0
 62
               0
100
AcDbMText
 10
-17.690583283925662
 20
3.8638030187799619
 30
0.0
 40
0.7579202490234376
 41
0.0
 71
               1
 72
               1
  1
8.65mm
  7
Helvetica
 73
               1
 44
0.9673603504928806
  0
POINT
  5
A3
100
AcDbEntity
  8
Defpoints
370
               0
390
0
 62
               0
100
AcDbPoint
 10
-7.9466579263836934
 20
-0.8751592408684772
 30
0.0
  0
POINT
  5
A4
100
AcDbEntity
  8
Defpoints
370
               0
390
0
 62
               0
100
AcDbPoint
 10
-7.9466579263836934
 20
7.7748407591315285
 30
0.0
  0
POINT
  5
A5
100
AcDbEntity
  8
Defpoints
370
               0
390
0
 62
               0
100
AcDbPoint
 10
-15.764418622412222
 20
7.7748407591315285
 30
0.0
  0
ENDBLK
  5
A6
100
AcDbEntity
  8
Dimension
390
0
100
AcDbBlockEnd
  0
BLOCK
  5
A7
100
AcDbEntity
  8
Dimension
390
0
100
AcDbBlockBegin
  2
*D9
 70
               1
 10
0.0
 20
0.0
 30
0.0
  3
*D9
  1

  0
LINE
  5
A8
100
AcDbEntity
  8
Dimension
370
              -2
390
0
  6
Continuous
 62
               0
100
AcDbLine
 10
-7.5679079275664662
 20
8.6298407591315325
 30
0.0
 11
-22.739416581709634
 21
8.6298407591315325
 31
0.0
  0
LINE
  5
A9
100
AcDbEntity
  8
Dimension
370
              -2
390
0
  6
Continuous
 62
               0
100
AcDbLine
 10
-7.5679079275664662
 20
-1.7301592408684741
 30
0.0
 11
-22.739416581709634
 21
-1.7301592408684741
 31
0.0
  0
LINE
  5
AA
100
AcDbEntity
  8
Dimension
370
              -2
390
0
  6
Continuous
 62
               0
100
AcDbLine
 10
-21.78691657934408
 20
8.6298407591315325
 30
0.0
 11
-21.78691657934408
 21
-1.7301592408684741
 31
0.0
  0
SOLID
  5
AB
100
AcDbEntity
  8
Dimension
370
              -2
390
0
 62
               0
100
AcDbTrace
 10
-21.78691657934408
 20
8.6298407591315325
 30
0.0
 11
-21.574231907851878
 21
7.8360907591315323
 31
0.0
 12
-21.999601250836285
 22
7.8360907591315323
 32
0.0
 13
-21.999601250836285
 23
7.8360907591315323
 33
0.0
  0
SOLID
  5
AC
100
AcDbEntity
  8
Dimension
370
              -2
390
0
 62
               0
100
AcDbTrace
 10
-21.78691657934408
 20
-1.7301592408684741
 30
0.0
 11
-21.999601250836285
 21
-0.9364092408684741
 31
0.0
 12
-21.574231907851875
 22
-0.9364092408684741
 32
0.0
 13
-21.574231907851875
 23
-0.9364092408684741
 33
0.0
  0
WIPEOUT
  5
AD
100
AcDbEntity
  8
Dimension
370
              -2
390
0
  6
Continuous
 62
               0
 92
        0
100
AcDbWipeout
 90
        0
 10
-24.009414291585358
 20
2.5824203772002052
 30
0.0
 11
4.4449954244825562
 21
0.0
 31
0.0
 12
0.0
 22
4.4449954244825562
 32
0.0
 13
1.0
 23
1.0
340
0
 70
               7
280
               1
281
              50
282
              50
283
               0
360
0
 71
               2
 91
        5
 14
-0.5
 24
0.5
 14
0.5
 24
0.5
 14
0.5
 24
0.226190468150666
 14
-0.5
 24
0.226190468150666
 14
-0.5
 24
0.5
  0
MTEXT
  5
AE
100
AcDbEntity
  8
Dimension
390
0
 62
               0
100
AcDbMText
 10
-24.009414291585358
 20
3.604923694973643
 30
0.0
 40
0.7579202490234376
 41
0.0
 71
               1
 72
               1
  1
10.36mm
  7
Helvetica
 73
               1
 44
0.9673603504928806
  0
POINT
  5
AF
100
AcDbEntity
  8
Defpoints
370
               0
390
0
 62
               0
100
AcDbPoint
 10
-7.0916579263836752
 20
-1.7301592408684741
 30
0.0
  0
POINT
  5
B0
100
AcDbEntity
  8
Defpoints
370
               0
390
0
 62
               0
100
AcDbPoint
 10
-7.0916579263836752
 20
8.6298407591315325
 30
0.0
  0
POINT
  5
B1
100
AcDbEntity
  8
Defpoints
370
               0
390
0
 62
               0
100
AcDbPoint
 10
-21.78691657934408
 20
8.6298407591315325
 30
0.0
  0
ENDBLK
  5
B2
100
AcDbEntity
  8
Dimension
390
0
100
AcDbBlockEnd
  0
BLOCK
  5
B3
100
AcDbEntity
  8
Dimension
390
0
100
AcDbBlockBegin
  2
*D10
 70
               1
 10
0.0
 20
0.0
 30
0.0
  3
*D10
  1

  0
LINE
  5
B4
100
AcDbEntity
  8
Dimension
370
              -2
390
0
  6
Continuous
 62
               0
100
AcDbLine
 10
-9.855407927566489
 20
-2.9126592408684644
 30
0.0
 11
-13.539416581709645
 21
-2.9126592408684644
 31
0.0
  0
LINE
  5
B5
100
AcDbEntity
  8
Dimension
370
              -2
390
0
  6
Continuous
 62
               0
100
AcDbLine
 10
-9.855407927566489
 20
2.1673407591315339
 30
0.0
 11
-13.539416581709645
 21
2.1673407591315339
 31
0.0
  0
LINE
  5
B6
100
AcDbEntity
  8
Dimension
370
              -2
390
0
  6
Continuous
 62
               0
100
AcDbLine
 10
-12.586916579344091
 20
-2.9126592408684644
 30
0.0
 11
-12.586916579344091
 21
2.1673407591315339
 31
0.0
  0
SOLID
  5
B7
100
AcDbEntity
  8
Dimension
370
              -2
390
0
 62
               0
100
AcDbTrace
 10
-12.586916579344091
 20
-2.9126592408684644
 30
0.0
 11
-12.799601250836295
 21
-2.1189092408684642
 31
0.0
 12
-12.374231907851888
 22
-2.1189092408684642
 32
0.0
 13
-12.374231907851888
 23
-2.1189092408684642
 33
0.0
  0
SOLID
  5
B8
100
AcDbEntity
  8
Dimension
370
              -2
390
0
 62
               0
100
AcDbTrace
 10
-12.586916579344091
 20
2.1673407591315339
 30
0.0
 11
-12.374231907851888
 21
1.3735907591315337
 31
0.0
 12
-12.799601250836295
 22
1.3735907591315339
 32
0.0
 13
-12.799601250836295
 23
1.3735907591315339
 33
0.0
  0
WIPEOUT
  5
B9
100
AcDbEntity
  8
Dimension
370
              -2
390
0
  6
Continuous
 62
               0
 92
        0
100
AcDbWipeout
 90
        0
 10
-14.513081240857531
 20
-0.9812002989934665
 30
0.0
 11
3.8523293230268685
 21
0.0
 31
0.0
 12
0.0
 22
3.8523293230268685
 32
0.0
 13
1.0
 23
1.0
340
0
 70
               7
280
               1
281
              50
282
              50
283
               0
360
0
 71
               2
 91
        5
 14
-0.5
 24
0.5
 14
0.5
 24
0.5
 14
0.5
 24
0.1840659211103715
 14
-0.5
 24
0.1840659211103715
 14
-0.5
 24
0.5
  0
MTEXT
  5
BA
100
AcDbEntity
  8
Dimension
390
0
 62
               0
100
AcDbMText
 10
-14.513081240857531
 20
0.0413030187799709
 30
0.0
 40
0.7579202490234376
 41
0.0
 71
               1
 72
               1
  1
5.08mm
  7
Helvetica
 73
               1
 44
0.9673603504928806
  0
POINT
  5
BB
100
AcDbEntity
  8
Defpoints
370
               0
390
0
 62
               0
100
AcDbPoint
 10
-9.3791579263836979
 20
2.1673407591315339
 30
0.0
  0
POINT
  5
BC
100
AcDbEntity
  8
Defpoints
370
               0
390
0
 62
               0
100
AcDbPoint
 10
-9.3791579263836979
 20
-2.9126592408684644
 30
0.0
  0
POINT
  5
BD
100
AcDbEntity
  8
Defpoints
370
               0
390
0
 62
               0
100
AcDbPoint
 10
-12.586916579344091
 20
-2.9126592408684644
 30
0.0
  0
ENDBLK
  5
BE
100
AcDbEntity
  8
Dimension
390
0
100
AcDbBlockEnd
  0
BLOCK
  5
BF
100
AcDbEntity
  8
Dimension
390
0
100
AcDbBlockBegin
  2
*D11
 70
               1
 10
0.0
 20
0.0
 30
0.0
  3
*D11
  1

  0
LINE
  5
C0
100
AcDbEntity
  8
Dimension
370
              -2
390
0
  6
Continuous
 62
               0
100
AcDbLine
 10
-7.0916579263836752
 20
-2.2064092420512509
 30
0.0
 11
-7.0916579263836752
 21
-7.6615385670403526
 31
0.0
  0
LINE
  5
C1
100
AcDbEntity
  8
Dimension
370
              -2
390
0
  6
Continuous
 62
               0
100
AcDbLine
 10
1.5583420736163021
 20
-2.2064092420512509
 30
0.0
 11
1.5583420736163021
 21
-7.6615385670403526
 31
0.0
  0
LINE
  5
C2
100
AcDbEntity
  8
Dimension
370
              -2
390
0
  6
Continuous
 62
               0
100
AcDbLine
 10
-7.0916579263836752
 20
-6.7090385646747919
 30
0.0
 11
1.5583420736163021
 21
-6.7090385646747919
 31
0.0
  0
SOLID
  5
C3
100
AcDbEntity
  8
Dimension
370
              -2
390
0
 62
               0
100
AcDbTrace
 10
-7.0916579263836752
 20
-6.7090385646747919
 30
0.0
 11
-6.297907926383675
 21
-6.4963538931825884
 31
0.0
 12
-6.297907926383675
 22
-6.9217232361669954
 32
0.0
 13
-6.297907926383675
 23
-6.9217232361669954
 33
0.0
  0
SOLID
  5
C4
100
AcDbEntity
  8
Dimension
370
              -2
390
0
 62
               0
100
AcDbTrace
 10
1.5583420736163021
 20
-6.7090385646747919
 30
0.0
 11
0.7645920736163021
 21
-6.9217232361669954
 31
0.0
 12
0.7645920736163022
 22
-6.4963538931825884
 32
0.0
 13
0.7645920736163022
 23
-6.4963538931825884
 33
0.0
  0
WIPEOUT
  5
C5
100
AcDbEntity
  8
Dimension
370
              -2
390
0
  6
Continuous
 62
               0
 92
        0
100
AcDbWipeout
 90
        0
 10
-4.6928225878971261
 20
-7.3175796227997933
 30
0.0
 11
3.8523293230268685
 21
0.0
 31
0.0
 12
0.0
 22
3.8523293230268685
 32
0.0
 13
1.0
 23
1.0
340
0
 70
               7
280
               1
281
              50
282
              50
283
               0
360
0
 71
               2
 91
        5
 14
-0.5
 24
0.5
 14
0.5
 24
0.5
 14
0.5
 24
0.1840659211103714
 14
-0.5
 24
0.1840659211103714
 14
-0.5
 24
0.5
  0
MTEXT
  5
C6
100
AcDbEntity
  8
Dimension
390
0
 62
               0
100
AcDbMText
 10
-4.6928225878971261
 20
-6.2950763050263561
 30
0.0
 40
0.7579202490234376
 41
0.0
 71
               1
 72
               1
  1
8.65mm
  7
Helvetica
 73
               1
 44
0.9673603504928806
  0
POINT
  5
C7
100
AcDbEntity
  8
Defpoints
370
               0
390
0
 62
               0
100
AcDbPoint
 10
1.5583420736163021
 20
-1.7301592408684741
 30
0.0
  0
POINT
  5
C8
100
AcDbEntity
  8
Defpoints
370
               0
390
0
 62
               0
100
AcDbPoint
 10
-7.0916579263836752
 20
-1.7301592408684741
 30
0.0
  0
POINT
  5
C9
100
AcDbEntity
  8
Defpoints
370
               0
390
0
 62
               0
100
AcDbPoint
 10
-7.0916579263836752
 20
-6.7090385646747919
 30
0.0
  0
ENDBLK
  5
CA
100
AcDbEntity
  8
Dimension
390
0
100
AcDbBlockEnd
  0
BLOCK
  5
CB
100
AcDbEntity
  8
Dimension
390
0
100
AcDbBlockBegin
  2
*D12
 70
               1
 10
0.0
 20
0.0
 30
0.0
  3
*D12
  1

  0
LINE
  5
CC
100
AcDbEntity
  8
Dimension
370
              -2
390
0
  6
Continuous
 62
               0
100
AcDbLine
 10
-7.9466579263836934
 20
-1.351409242051254
 30
0.0
 11
-7.9466579263836934
 21
-11.061538567040358
 31
0.0
  0
LINE
  5
CD
100
AcDbEntity
  8
Dimension
370
              -2
390
0
  6
Continuous
 62
               0
100
AcDbLine
 10
2.4133420736162634
 20
-1.351409242051254
 30
0.0
 11
2.4133420736162634
 21
-11.061538567040358
 31
0.0
  0
LINE
  5
CE
100
AcDbEntity
  8
Dimension
370
              -2
390
0
  6
Continuous
 62
               0
100
AcDbLine
 10
-7.9466579263836934
 20
-10.109038564674798
 30
0.0
 11
2.4133420736162634
 21
-10.109038564674798
 31
0.0
  0
SOLID
  5
CF
100
AcDbEntity
  8
Dimension
370
              -2
390
0
 62
               0
100
AcDbTrace
 10
-7.9466579263836934
 20
-10.109038564674798
 30
0.0
 11
-7.1529079263836932
 21
-9.8963538931825941
 31
0.0
 12
-7.1529079263836932
 22
-10.321723236167001
 32
0.0
 13
-7.1529079263836932
 23
-10.321723236167001
 33
0.0
  0
SOLID
  5
D0
100
AcDbEntity
  8
Dimension
370
              -2
390
0
 62
               0
100
AcDbTrace
 10
2.4133420736162634
 20
-10.109038564674798
 30
0.0
 11
1.6195920736162635
 21
-10.321723236167001
 31
0.0
 12
1.6195920736162637
 22
-9.8963538931825941
 32
0.0
 13
1.6195920736162637
 23
-9.8963538931825941
 33
0.0
  0
WIPEOUT
  5
D1
100
AcDbEntity
  8
Dimension
370
              -2
390
0
  6
Continuous
 62
               0
 92
        0
100
AcDbWipeout
 90
        0
 10
-4.9891556386249931
 20
-10.717579622799798
 30
0.0
 11
4.4449954244825571
 21
0.0
 31
0.0
 12
0.0
 22
4.4449954244825571
 32
0.0
 13
1.0
 23
1.0
340
0
 70
               7
280
               1
281
              50
282
              50
283
               0
360
0
 71
               2
 91
        5
 14
-0.5
 24
0.5
 14
0.5
 24
0.5
 14
0.5
 24
0.2261904681506663
 14
-0.5
 24
0.2261904681506663
 14
-0.5
 24
0.5
  0
MTEXT
  5
D2
100
AcDbEntity
  8
Dimension
390
0
 62
               0
100
AcDbMText
 10
-4.9891556386249931
 20
-9.6950763050263618
 30
0.0
 40
0.7579202490234376
 41
0.0
 71
               1
 72
               1
  1
10.36mm
  7
Helvetica
 73
               1
 44
0.9673603504928806
  0
POINT
  5
D3
100
AcDbEntity
  8
Defpoints
370
               0
390
0
 62
               0
100
AcDbPoint
 10
2.4133420736162634
 20
-0.8751592408684772
 30
0.0
  0
POINT
  5
D4
100
AcDbEntity
  8
Defpoints
370
               0
390
0
 62
               0
100
AcDbPoint
 10
-7.9466579263836934
 20
-0.8751592408684772
 30
0.0
  0
POINT
  5
D5
100
AcDbEntity
  8
Defpoints
370
               0
390
0
 62
               0
100
AcDbPoint
 10
-7.9466579263836934
 20
-10.109038564674798
 30
0.0
  0
ENDBLK
  5
D6
100
AcDbEntity
  8
Dimension
390
0
100
AcDbBlockEnd
  0
BLOCK
  5
D7
100
AcDbEntity
  8
Dimension
390
0
100
AcDbBlockBegin
  2
*D13
 70
               1
 10
0.0
 20
0.0
 30
0.0
  3
*D13
  1

  0
LINE
  5
D8
100
AcDbEntity
  8
Dimension
370
              -2
390
0
  6
Continuous
 62
               0
100
AcDbLine
 10
-9.3791579263836979
 20
-3.3889092420512412
 30
0.0
 11
-9.3791579263836979
 21
-13.961538567040357
 31
0.0
  0
LINE
  5
D9
100
AcDbEntity
  8
Dimension
370
              -2
390
0
  6
Continuous
 62
               0
100
AcDbLine
 10
3.3458420736163248
 20
-3.3889092420512412
 30
0.0
 11
3.3458420736163248
 21
-13.961538567040357
 31
0.0
  0
LINE
  5
DA
100
AcDbEntity
  8
Dimension
370
              -2
390
0
  6
Continuous
 62
               0
100
AcDbLine
 10
3.3458420736163248
 20
-13.009038564674796
 30
0.0
 11
-9.3791579263836979
 21
-13.009038564674796
 31
0.0
  0
LINE
  5
DB
100
AcDbEntity
  8
Dimension
370
              -2
390
0
  6
Continuous
 62
               0
100
AcDbLine
 10
-9.3791579263836979
 20
-13.009038564674796
 30
0.0
 11
-11.12915442475051
 21
-13.009038564674796
 31
0.0
  0
SOLID
  5
DC
100
AcDbEntity
  8
Dimension
370
              -2
390
0
 62
               0
100
AcDbTrace
 10
-9.3791579263836979
 20
-13.009038564674796
 30
0.0
 11
-10.172907926383697
 21
-13.221723236167
 31
0.0
 12
-10.172907926383697
 22
-12.796353893182593
 32
0.0
 13
-10.172907926383697
 23
-12.796353893182593
 33
0.0
  0
LINE
  5
DD
100
AcDbEntity
  8
Dimension
370
              -2
390
0
  6
Continuous
 62
               0
100
AcDbLine
 10
3.3458420736163248
 20
-13.009038564674796
 30
0.0
 11
5.0958385719831369
 21
-13.009038564674796
 31
0.0
  0
SOLID
  5
DE
100
AcDbEntity
  8
Dimension
370
              -2
390
0
 62
               0
100
AcDbTrace
 10
3.3458420736163248
 20
-13.009038564674796
 30
0.0
 11
4.139592073616325
 21
-12.796353893182593
 31
0.0
 12
4.139592073616325
 22
-13.221723236167
 32
0.0
 13
4.139592073616325
 23
-13.221723236167
 33
0.0
  0
WIPEOUT
  5
DF
100
AcDbEntity
  8
Dimension
370
              -2
390
0
  6
Continuous
 62
               0
 92
        0
100
AcDbWipeout
 90
        0
 10
-8.8057364116871497
 20
-13.617579014258128
 30
0.0
 11
5.0376615259382458
 21
0.0
 31
0.0
 12
0.0
 22
5.0376615259382458
 32
0.0
 13
1.0
 23
1.0
340
0
 70
               7
280
               1
281
              50
282
              50
283
               0
360
0
 71
               2
 91
        5
 14
-0.5
 24
0.5
 14
0.5
 24
0.5
 14
0.5
 24
0.2584033564018928
 14
-0.5
 24
0.2584033564018928
 14
-0.5
 24
0.5
  0
MTEXT
  5
E0
100
AcDbEntity
  8
Dimension
390
0
 62
               0
100
AcDbMText
 10
-8.8057364116871497
 20
-12.595075696484692
 30
0.0
 40
0.7579202490234376
 41
0.0
 71
               1
 72
               1
  1
12.725mm
  7
Helvetica
 73
               1
 44
0.9673603504928806
  0
WIPEOUT
  5
E1
100
AcDbEntity
  8
Dimension
370
              -2
390
0
  6
Continuous
 62
               0
 92
        0
100
AcDbWipeout
 90
        0
 10
-3.7680748857489164
 20
-13.617579543424791
 30
0.0
 11
4.4344121853510536
 21
0.0
 31
0.0
 12
0.0
 22
4.4344121853510536
 32
0.0
 13
1.0
 23
1.0
340
0
 70
               7
280
               1
281
              50
282
              50
283
               0
360
0
 71
               2
 91
        5
 14
-0.5
 24
0.5
 14
0.5
 24
0.5
 14
0.5
 24
0.2255369899373375
 14
-0.5
 24
0.2255369899373375
 14
-0.5
 24
0.5
  0
MTEXT
  5
E2
100
AcDbEntity
  8
Dimension
390
0
 62
               0
100
AcDbMText
 10
-3.7680748857489164
 20
-12.595076225651354
 30
0.0
 40
0.7579202490234376
 41
0.0
 71
               1
 72
               1
  1
±0.13mm
  7
Helvetica
 73
               1
 44
0.9673603504928806
  0
WIPEOUT
  5
E3
100
AcDbEntity
  8
Dimension
370
              -2
390
0
  6
Continuous
 62
               0
 92
        0
100
AcDbWipeout
 90
        0
 10
0.6663372996021622
 20
-13.617580231341462
 30
0.0
 11
2.10608325931761
 21
0.0
 31
0.0
 12
0.0
 22
2.10608325931761
 32
0.0
 13
1.0
 23
1.0
340
0
 70
               7
280
               1
281
              50
282
              50
283
               0
360
0
 71
               2
 91
        5
 14
-0.5
 24
0.5
 14
0.5
 24
0.5
 14
0.5
 24
-0.0778894675453995
 14
-0.5
 24
-0.0778894675453995
 14
-0.5
 24
0.5
  0
MTEXT
  5
E4
100
AcDbEntity
  8
Dimension
390
0
 62
               0
100
AcDbMText
 10
0.6663372996021622
 20
-12.595075891063685
 30
0.0
 40
0.7579210069444442
 41
0.0
 71
               1
 72
               1
  1
 (x4)
  7
Helvetica
 73
               1
 44
0.9673603504928806
  0
POINT
  5
E5
100
AcDbEntity
  8
Defpoints
370
               0
390
0
 62
               0
100
AcDbPoint
 10
3.3458420736163248
 20
-2.9126592408684644
 30
0.0
  0
POINT
  5
E6
100
AcDbEntity
  8
Defpoints
370
               0
390
0
 62
               0
100
AcDbPoint
 10
-9.3791579263836979
 20
-2.9126592408684644
 30
0.0
  0
POINT
  5
E7
100
AcDbEntity
  8
Defpoints
370
               0
390
0
 62
               0
100
AcDbPoint
 10
-9.3791579263836979
 20
-13.009038564674796
 30
0.0
  0
ENDBLK
  5
E8
100
AcDbEntity
  8
Dimension
390
0
100
AcDbBlockEnd
  0
BLOCK
  5
E9
100
AcDbEntity
  8
Dimension
390
0
100
AcDbBlockBegin
  2
*D14
 70
               1
 10
0.0
 20
0.0
 30
0.0
  3
*D14
  1

  0
LINE
  5
EA
100
AcDbEntity
  8
Dimension
370
              -2
390
0
  6
Continuous
 62
               0
100
AcDbLine
 10
-0.9666579263836752
 20
9.1060907603143093
 30
0.0
 11
-0.9666579263836752
 21
13.943461437690765
 31
0.0
  0
LINE
  5
EB
100
AcDbEntity
  8
Dimension
370
              -2
390
0
  6
Continuous
 62
               0
100
AcDbLine
 10
-0.5666579263836979
 20
9.1060907603143093
 30
0.0
 11
-0.5666579263836979
 21
13.943461437690765
 31
0.0
  0
LINE
  5
EC
100
AcDbEntity
  8
Dimension
370
              -2
390
0
  6
Continuous
 62
               0
100
AcDbLine
 10
-0.5666579263836979
 20
12.990961435325204
 30
0.0
 11
-0.9666579263836752
 21
12.990961435325204
 31
0.0
  0
LINE
  5
ED
100
AcDbEntity
  8
Dimension
370
              -2
390
0
  6
Continuous
 62
               0
100
AcDbLine
 10
-0.9666579263836752
 20
12.990961435325204
 30
0.0
 11
-2.7166544247504874
 21
12.990961435325204
 31
0.0
  0
SOLID
  5
EE
100
AcDbEntity
  8
Dimension
370
              -2
390
0
 62
               0
100
AcDbTrace
 10
-0.9666579263836752
 20
12.990961435325204
 30
0.0
 11
-1.7604079263836752
 21
12.778276763833
 31
0.0
 12
-1.7604079263836749
 22
13.203646106817407
 32
0.0
 13
-1.7604079263836749
 23
13.203646106817407
 33
0.0
  0
LINE
  5
EF
100
AcDbEntity
  8
Dimension
370
              -2
390
0
  6
Continuous
 62
               0
100
AcDbLine
 10
-0.5666579263836979
 20
12.990961435325204
 30
0.0
 11
2.013083420655903
 21
12.990961435325204
 31
0.0
  0
SOLID
  5
F0
100
AcDbEntity
  8
Dimension
370
              -2
390
0
 62
               0
100
AcDbTrace
 10
-0.5666579263836979
 20
12.990961435325204
 30
0.0
 11
0.227092073616302
 21
13.203646106817407
 31
0.0
 12
0.227092073616302
 22
12.778276763833
 32
0.0
 13
0.227092073616302
 23
12.778276763833
 33
0.0
  0
WIPEOUT
  5
F1
100
AcDbEntity
  8
Dimension
370
              -2
390
0
  6
Continuous
 62
               0
 92
        0
100
AcDbWipeout
 90
        0
 10
2.013083420655903
 20
12.382420377200203
 30
0.0
 11
5.2599112298753523
 21
0.0
 31
0.0
 12
0.0
 22
5.2599112298753523
 32
0.0
 13
1.0
 23
1.0
340
0
 70
               7
280
               1
281
              50
282
              50
283
               0
360
0
 71
               2
 91
        5
 14
-0.5
 24
0.5
 14
0.5
 24
0.5
 14
0.5
 24
0.2686116622392425
 14
-0.5
 24
0.2686116622392425
 14
-0.5
 24
0.5
  0
MTEXT
  5
F2
100
AcDbEntity
  8
Dimension
390
0
 62
               0
100
AcDbMText
 10
2.013083420655903
 20
13.40492369497364
 30
0.0
 40
0.7579202490234376
 41
0.0
 71
               1
 72
               1
  1
0.4mm typ.
  7
Helvetica
 73
               1
 44
0.9673603504928806
  0
POINT
  5
F3
100
AcDbEntity
  8
Defpoints
370
               0
390
0
 62
               0
100
AcDbPoint
 10
-0.5666579263836979
 20
8.6298407591315325
 30
0.0
  0
POINT
  5
F4
100
AcDbEntity
  8
Defpoints
370
               0
390
0
 62
               0
100
AcDbPoint
 10
-0.9666579263836752
 20
8.6298407591315325
 30
0.0
  0
POINT
  5
F5
100
AcDbEntity
  8
Defpoints
370
               0
390
0
 62
               0
100
AcDbPoint
 10
-0.9666579263836752
 20
12.990961435325204
 30
0.0
  0
ENDBLK
  5
F6
100
AcDbEntity
  8
Dimension
390
0
100
AcDbBlockEnd
  0
BLOCK
  5
F7
100
AcDbEntity
  8
Dimension
390
0
100
AcDbBlockBegin
  2
*D15
 70
               1
 10
0.0
 20
0.0
 30
0.0
  3
*D15
  1

  0
LINE
  5
F8
100
AcDbEntity
  8
Dimension
370
              -2
390
0
  6
Continuous
 62
               0
100
AcDbLine
 10
3.6457675236054001
 20
6.9712266205646003
 30
0.0
 11
6.9130834206559086
 21
3.6909614353252067
 31
0.0
  0
SOLID
  5
F9
100
AcDbEntity
  8
Dimension
370
              -2
390
0
 62
               0
100
AcDbTrace
 10
3.6457675236054001
 20
6.9712266205646003
 30
0.0
 11
4.1152379659274887
 21
6.6891403199758077
 31
0.0
 12
3.9112977026878495
 22
6.4921974970340885
 32
0.0
 13
3.9112977026878495
 23
6.4921974970340885
 33
0.0
  0
LINE
  5
FA
100
AcDbEntity
  8
Dimension
370
              -2
390
0
  6
Continuous
 62
               0
100
AcDbLine
 10
6.9130834206559086
 20
3.6909614353252067
 30
0.0
 11
8.413080422635403
 21
3.6909614353252067
 31
0.0
  0
WIPEOUT
  5
FB
100
AcDbEntity
  8
Dimension
370
              -2
390
0
  6
Continuous
 62
               0
 92
        0
100
AcDbWipeout
 90
        0
 10
6.4869157611219634
 20
3.0824209063668677
 30
0.0
 11
4.9741617547141175
 21
0.0
 31
0.0
 12
0.0
 22
4.9741617547141175
 32
0.0
 13
1.0
 23
1.0
340
0
 70
               7
280
               1
281
              50
282
              50
283
               0
360
0
 71
               2
 91
        5
 14
-0.5
 24
0.5
 14
0.5
 24
0.5
 14
0.5
 24
0.2553191519965056
 14
-0.5
 24
0.2553191519965056
 14
-0.5
 24
0.5
  0
MTEXT
  5
FC
100
AcDbEntity
  8
Dimension
390
0
 62
               0
100
AcDbMText
 10
6.4869157611219634
 20
4.104924224140305
 30
0.0
 40
0.7579202490234376
 41
0.0
 71
               1
 72
               1
  1
Ø 0.85mm
  7
Helvetica
 73
               1
 44
0.9673603504928806
  0
WIPEOUT
  5
FD
100
AcDbEntity
  8
Dimension
370
              -2
390
0
  6
Continuous
 62
               0
 92
        0
100
AcDbWipeout
 90
        0
 10
11.461077515836081
 20
3.6446594313668728
 30
0.0
 11
1.2170821162500003
 21
0.0
 31
0.0
 12
0.0
 22
1.2170821162500003
 32
0.0
 13
1.0
 23
1.0
340
0
 70
               7
280
               1
281
              50
282
              50
283
               0
360
0
 71
               2
 91
        5
 14
-0.5
 24
0.5
 14
0.0043478148977868
 24
0.5
 14
0.0043478148977868
 24
-0.5
 14
-0.5
 24
-0.5
 14
-0.5
 24
0.5
  0
MTEXT
  5
FE
100
AcDbEntity
  8
Dimension
390
0
 62
               0
100
AcDbMText
 10
11.767993868777012
 20
4.66716274914031
 30
0.0
 40
0.7579202490234376
 41
0.0
 71
               2
 72
               1
  1
+
  7
Helvetica
 73
               1
 44
0.9673603504928806
  0
WIPEOUT
  5
FF
100
AcDbEntity
  8
Dimension
370
              -2
390
0
  6
Continuous
 62
               0
 92
        0
100
AcDbWipeout
 90
        0
 10
11.593369045825986
 20
2.5201813230335377
 30
0.0
 11
1.2170821162500003
 21
0.0
 31
0.0
 12
0.0
 22
1.2170821162500003
 32
0.0
 13
1.0
 23
1.0
340
0
 70
               7
280
               1
281
              50
282
              50
283
               0
360
0
 71
               2
 91
        5
 14
-0.5
 24
0.5
 14
-0.2130434822441241
 24
0.5
 14
-0.2130434822441241
 24
-0.5
 14
-0.5
 24
-0.5
 14
-0.5
 24
0.5
  0
MTEXT
  5
100
100
AcDbEntity
  8
Dimension
390
0
 62
               0
100
AcDbMText
 10
11.767993868777012
 20
3.5426846408069754
 30
0.0
 40
0.7579202490234376
 41
0.0
 71
               2
 72
               1
  1
-
  7
Helvetica
 73
               1
 44
0.9673603504928806
  0
WIPEOUT
  5
101
100
AcDbEntity
  8
Dimension
370
              -2
390
0
  6
Continuous
 62
               0
 92
        0
100
AcDbWipeout
 90
        0
 10
12.074910221717943
 20
3.6446594313668728
 30
0.0
 11
3.8523293230268685
 21
0.0
 31
0.0
 12
0.0
 22
3.8523293230268685
 32
0.0
 13
1.0
 23
1.0
340
0
 70
               7
280
               1
281
              50
282
              50
283
               0
360
0
 71
               2
 91
        5
 14
-0.5
 24
0.5
 14
0.5
 24
0.5
 14
0.5
 24
0.1840659211103714
 14
-0.5
 24
0.1840659211103714
 14
-0.5
 24
0.5
  0
MTEXT
  5
102
100
AcDbEntity
  8
Dimension
390
0
 62
               0
100
AcDbMText
 10
12.074910221717943
 20
4.66716274914031
 30
0.0
 40
0.7579202490234376
 41
0.0
 71
               1
 72
               1
  1
0.03mm
  7
Helvetica
 73
               1
 44
0.9673603504928806
  0
WIPEOUT
  5
103
100
AcDbEntity
  8
Dimension
370
              -2
390
0
  6
Continuous
 62
               0
 92
        0
100
AcDbWipeout
 90
        0
 10
12.074910221717943
 20
2.5201813230335377
 30
0.0
 11
3.8523293230268685
 21
0.0
 31
0.0
 12
0.0
 22
3.8523293230268685
 32
0.0
 13
1.0
 23
1.0
340
0
 70
               7
280
               1
281
              50
282
              50
283
               0
360
0
 71
               2
 91
        5
 14
-0.5
 24
0.5
 14
0.5
 24
0.5
 14
0.5
 24
0.1840659211103714
 14
-0.5
 24
0.1840659211103714
 14
-0.5
 24
0.5
  0
MTEXT
  5
104
100
AcDbEntity
  8
Dimension
390
0
 62
               0
100
AcDbMText
 10
12.074910221717943
 20
3.5426846408069754
 30
0.0
 40
0.7579202490234376
 41
0.0
 71
               1
 72
               1
  1
0.03mm
  7
Helvetica
 73
               1
 44
0.9673603504928806
  0
WIPEOUT
  5
105
100
AcDbEntity
  8
Dimension
370
              -2
390
0
  6
Continuous
 62
               0
 92
        0
100
AcDbWipeout
 90
        0
 10
15.927239544744822
 20
3.0824196892835349
 30
0.0
 11
2.1060832593176109
 21
0.0
 31
0.0
 12
0.0
 22
2.1060832593176109
 32
0.0
 13
1.0
 23
1.0
340
0
 70
               7
280
               1
281
              50
282
              50
283
               0
360
0
 71
               2
 91
        5
 14
-0.5
 24
0.5
 14
0.5
 24
0.5
 14
0.5
 24
-0.0778894675453992
 14
-0.5
 24
-0.0778894675453992
 14
-0.5
 24
0.5
  0
MTEXT
  5
106
100
AcDbEntity
  8
Dimension
390
0
 62
               0
100
AcDbMText
 10
15.927239544744822
 20
4.1049240295613121
 30
0.0
 40
0.7579210069444442
 41
0.0
 71
               1
 72
               1
  1
 (x2)
  7
Helvetica
 73
               1
 44
0.9673603504928806
  0
POINT
  5
107
100
AcDbEntity
  8
Defpoints
370
               0
390
0
 62
               0
100
AcDbPoint
 10
3.045916623627221
 20
7.5734548976985181
 30
0.0
  0
POINT
  5
108
100
AcDbEntity
  8
Defpoints
370
               0
390
0
 62
               0
100
AcDbPoint
 10
3.6457675236054001
 20
6.9712266205646003
 30
0.0
  0
ENDBLK
  5
109
100
AcDbEntity
  8
Dimension
390
0
100
AcDbBlockEnd
  0
BLOCK
  5
10A
100
AcDbEntity
  8
Dimension
390
0
100
AcDbBlockBegin
  2
*D16
 70
               1
 10
0.0
 20
0.0
 30
0.0
  3
*D16
  1

  0
LINE
  5
10B
100
AcDbEntity
  8
Dimension
370
              -2
390
0
  6
Continuous
 62
               0
100
AcDbLine
 10
3.8913745143348706
 20
-3.5046215336923652
 30
0.0
 11
7.21308342065592
 21
-7.1090385646748047
 31
0.0
  0
SOLID
  5
10C
100
AcDbEntity
  8
Dimension
370
              -2
390
0
 62
               0
100
AcDbTrace
 10
3.8913745143348706
 20
-3.5046215336923652
 30
0.0
 11
4.3507142980309439
 21
-3.8029202770822974
 31
0.0
 12
4.1400250642895529
 22
-3.9926257152330584
 32
0.0
 13
4.1400250642895529
 23
-3.9926257152330584
 33
0.0
  0
LINE
  5
10D
100
AcDbEntity
  8
Dimension
370
              -2
390
0
  6
Continuous
 62
               0
100
AcDbLine
 10
7.21308342065592
 20
-7.1090385646748047
 30
0.0
 11
8.7130804226354144
 21
-7.1090385646748047
 31
0.0
  0
WIPEOUT
  5
10E
100
AcDbEntity
  8
Dimension
370
              -2
390
0
  6
Continuous
 62
               0
 92
        0
100
AcDbWipeout
 90
        0
 10
6.7869157611219748
 20
-7.7175790936331436
 30
0.0
 11
4.9741617547141175
 21
0.0
 31
0.0
 12
0.0
 22
4.9741617547141175
 32
0.0
 13
1.0
 23
1.0
340
0
 70
               7
280
               1
281
              50
282
              50
283
               0
360
0
 71
               2
 91
        5
 14
-0.5
 24
0.5
 14
0.5
 24
0.5
 14
0.5
 24
0.2553191519965056
 14
-0.5
 24
0.2553191519965056
 14
-0.5
 24
0.5
  0
MTEXT
  5
10F
100
AcDbEntity
  8
Dimension
390
0
 62
               0
100
AcDbMText
 10
6.7869157611219748
 20
-6.6950757758597064
 30
0.0
 40
0.7579202490234376
 41
0.0
 71
               1
 72
               1
  1
Ø 1.61mm
  7
Helvetica
 73
               1
 44
0.9673603504928806
  0
WIPEOUT
  5
110
100
AcDbEntity
  8
Dimension
370
              -2
390
0
  6
Continuous
 62
               0
 92
        0
100
AcDbWipeout
 90
        0
 10
11.761077515836092
 20
-7.1553405686331386
 30
0.0
 11
1.2170821162500003
 21
0.0
 31
0.0
 12
0.0
 22
1.2170821162500003
 32
0.0
 13
1.0
 23
1.0
340
0
 70
               7
280
               1
281
              50
282
              50
283
               0
360
0
 71
               2
 91
        5
 14
-0.5
 24
0.5
 14
0.0043478148977868
 24
0.5
 14
0.0043478148977868
 24
-0.5
 14
-0.5
 24
-0.5
 14
-0.5
 24
0.5
  0
MTEXT
  5
111
100
AcDbEntity
  8
Dimension
390
0
 62
               0
100
AcDbMText
 10
12.067993868777023
 20
-6.1328372508597013
 30
0.0
 40
0.7579202490234376
 41
0.0
 71
               2
 72
               1
  1
+
  7
Helvetica
 73
               1
 44
0.9673603504928806
  0
WIPEOUT
  5
112
100
AcDbEntity
  8
Dimension
370
              -2
390
0
  6
Continuous
 62
               0
 92
        0
100
AcDbWipeout
 90
        0
 10
11.893369045825997
 20
-8.2798186769664728
 30
0.0
 11
1.2170821162499994
 21
0.0
 31
0.0
 12
0.0
 22
1.2170821162499994
 32
0.0
 13
1.0
 23
1.0
340
0
 70
               7
280
               1
281
              50
282
              50
283
               0
360
0
 71
               2
 91
        5
 14
-0.5
 24
0.5
 14
-0.2130434822441239
 24
0.5
 14
-0.2130434822441239
 24
-0.5
 14
-0.5
 24
-0.5
 14
-0.5
 24
0.5
  0
MTEXT
  5
113
100
AcDbEntity
  8
Dimension
390
0
 62
               0
100
AcDbMText
 10
12.067993868777023
 20
-7.2573153591930364
 30
0.0
 40
0.7579202490234376
 41
0.0
 71
               2
 72
               1
  1
-
  7
Helvetica
 73
               1
 44
0.9673603504928806
  0
WIPEOUT
  5
114
100
AcDbEntity
  8
Dimension
370
              -2
390
0
  6
Continuous
 62
               0
 92
        0
100
AcDbWipeout
 90
        0
 10
12.374910221717954
 20
-7.1553405686331386
 30
0.0
 11
3.8523293230268685
 21
0.0
 31
0.0
 12
0.0
 22
3.8523293230268685
 32
0.0
 13
1.0
 23
1.0
340
0
 70
               7
280
               1
281
              50
282
              50
283
               0
360
0
 71
               2
 91
        5
 14
-0.5
 24
0.5
 14
0.5
 24
0.5
 14
0.5
 24
0.1840659211103714
 14
-0.5
 24
0.1840659211103714
 14
-0.5
 24
0.5
  0
MTEXT
  5
115
100
AcDbEntity
  8
Dimension
390
0
 62
               0
100
AcDbMText
 10
12.374910221717954
 20
-6.1328372508597013
 30
0.0
 40
0.7579202490234376
 41
0.0
 71
               1
 72
               1
  1
0.05mm
  7
Helvetica
 73
               1
 44
0.9673603504928806
  0
WIPEOUT
  5
116
100
AcDbEntity
  8
Dimension
370
              -2
390
0
  6
Continuous
 62
               0
 92
        0
100
AcDbWipeout
 90
        0
 10
12.374910221717954
 20
-8.2798186769664728
 30
0.0
 11
3.8523293230268685
 21
0.0
 31
0.0
 12
0.0
 22
3.8523293230268685
 32
0.0
 13
1.0
 23
1.0
340
0
 70
               7
280
               1
281
              50
282
              50
283
               0
360
0
 71
               2
 91
        5
 14
-0.5
 24
0.5
 14
0.5
 24
0.5
 14
0.5
 24
0.1840659211103716
 14
-0.5
 24
0.1840659211103716
 14
-0.5
 24
0.5
  0
MTEXT
  5
117
100
AcDbEntity
  8
Dimension
390
0
 62
               0
100
AcDbMText
 10
12.374910221717954
 20
-7.2573153591930364
 30
0.0
 40
0.7579202490234376
 41
0.0
 71
               1
 72
               1
  1
0.05mm
  7
Helvetica
 73
               1
 44
0.9673603504928806
  0
WIPEOUT
  5
118
100
AcDbEntity
  8
Dimension
370
              -2
390
0
  6
Continuous
 62
               0
 92
        0
100
AcDbWipeout
 90
        0
 10
16.227239544744833
 20
-7.7175803107164764
 30
0.0
 11
2.1060832593176109
 21
0.0
 31
0.0
 12
0.0
 22
2.1060832593176109
 32
0.0
 13
1.0
 23
1.0
340
0
 70
               7
280
               1
281
              50
282
              50
283
               0
360
0
 71
               2
 91
        5
 14
-0.5
 24
0.5
 14
0.5
 24
0.5
 14
0.5
 24
-0.0778894675453992
 14
-0.5
 24
-0.0778894675453992
 14
-0.5
 24
0.5
  0
MTEXT
  5
119
100
AcDbEntity
  8
Dimension
390
0
 62
               0
100
AcDbMText
 10
16.227239544744833
 20
-6.6950759704386993
 30
0.0
 40
0.7579210069444442
 41
0.0
 71
               1
 72
               1
  1
 (x4)
  7
Helvetica
 73
               1
 44
0.9673603504928806
  0
POINT
  5
11A
100
AcDbEntity
  8
Defpoints
370
               0
390
0
 62
               0
100
AcDbPoint
 10
2.800309632897779
 20
-2.3206969480445778
 30
0.0
  0
POINT
  5
11B
100
AcDbEntity
  8
Defpoints
370
               0
390
0
 62
               0
100
AcDbPoint
 10
3.8913745143348706
 20
-3.5046215336923652
 30
0.0
  0
ENDBLK
  5
11C
100
AcDbEntity
  8
Dimension
390
0
100
AcDbBlockEnd
  0
BLOCK
  5
11D
100
AcDbEntity
  8
Dimension
390
0
100
AcDbBlockBegin
  2
*D17
 70
               1
 10
0.0
 20
0.0
 30
0.0
  3
*D17
  1

  0
LINE
  5
11E
100
AcDbEntity
  8
Dimension
370
              -2
390
0
  6
Continuous
 62
               0
100
AcDbLine
 10
3.8220920747991158
 20
7.2723407591315308
 30
0.0
 11
9.1655834230214737
 21
7.2723407591315308
 31
0.0
  0
LINE
  5
11F
100
AcDbEntity
  8
Dimension
370
              -2
390
0
  6
Continuous
 62
               0
100
AcDbLine
 10
3.8220920747991158
 20
9.8123407591315299
 30
0.0
 11
9.1655834230214737
 21
9.8123407591315299
 31
0.0
  0
LINE
  5
120
100
AcDbEntity
  8
Dimension
370
              -2
390
0
  6
Continuous
 62
               0
100
AcDbLine
 10
8.21308342065592
 20
9.8123407591315299
 30
0.0
 11
8.21308342065592
 21
7.2723407591315308
 31
0.0
  0
LINE
  5
121
100
AcDbEntity
  8
Dimension
370
              -2
390
0
  6
Continuous
 62
               0
100
AcDbLine
 10
8.21308342065592
 20
7.2723407591315308
 30
0.0
 11
8.21308342065592
 21
5.5223442607647115
 31
0.0
  0
SOLID
  5
122
100
AcDbEntity
  8
Dimension
370
              -2
390
0
 62
               0
100
AcDbTrace
 10
8.21308342065592
 20
7.2723407591315308
 30
0.0
 11
8.4257680921481235
 21
6.4785907591315306
 31
0.0
 12
8.0003987491637165
 22
6.4785907591315306
 32
0.0
 13
8.0003987491637165
 23
6.4785907591315306
 33
0.0
  0
LINE
  5
123
100
AcDbEntity
  8
Dimension
370
              -2
390
0
  6
Continuous
 62
               0
100
AcDbLine
 10
8.21308342065592
 20
9.8123407591315299
 30
0.0
 11
8.21308342065592
 21
11.562337257498349
 31
0.0
  0
SOLID
  5
124
100
AcDbEntity
  8
Dimension
370
              -2
390
0
 62
               0
100
AcDbTrace
 10
8.21308342065592
 20
9.8123407591315299
 30
0.0
 11
8.0003987491637165
 21
10.606090759131529
 31
0.0
 12
8.4257680921481235
 22
10.606090759131529
 32
0.0
 13
8.4257680921481235
 23
10.606090759131529
 33
0.0
  0
WIPEOUT
  5
125
100
AcDbEntity
  8
Dimension
370
              -2
390
0
  6
Continuous
 62
               0
 92
        0
100
AcDbWipeout
 90
        0
 10
6.2869187591424804
 20
7.9337997010065253
 30
0.0
 11
3.8523293230268685
 21
0.0
 31
0.0
 12
0.0
 22
3.8523293230268685
 32
0.0
 13
1.0
 23
1.0
340
0
 70
               7
280
               1
281
              50
282
              50
283
               0
360
0
 71
               2
 91
        5
 14
-0.5
 24
0.5
 14
0.5
 24
0.5
 14
0.5
 24
0.1840659211103714
 14
-0.5
 24
0.1840659211103714
 14
-0.5
 24
0.5
  0
MTEXT
  5
126
100
AcDbEntity
  8
Dimension
390
0
 62
               0
100
AcDbMText
 10
6.2869187591424804
 20
8.9563030187799626
 30
0.0
 40
0.7579202490234376
 41
0.0
 71
               1
 72
               1
  1
2.54mm
  7
Helvetica
 73
               1
 44
0.9673603504928806
  0
POINT
  5
127
100
AcDbEntity
  8
Defpoints
370
               0
390
0
 62
               0
100
AcDbPoint
 10
3.3458420736163248
 20
9.8123407591315299
 30
0.0
  0
POINT
  5
128
100
AcDbEntity
  8
Defpoints
370
               0
390
0
 62
               0
100
AcDbPoint
 10
3.3458420736163248
 20
7.2723407591315308
 30
0.0
  0
POINT
  5
129
100
AcDbEntity
  8
Defpoints
370
               0
390
0
 62
               0
100
AcDbPoint
 10
8.21308342065592
 20
7.2723407591315308
 30
0.0
  0
ENDBLK
  5
12A
100
AcDbEntity
  8
Dimension
390
0
100
AcDbBlockEnd
  0
ENDSEC
  0
SECTION
  2
ENTITIES
  0
INSERT
  5
12B
100
AcDbEntity
  8
Dimension
390
0
 62
               7
100
AcDbBlockReference
  2
Group
 10
0.0
 20
0.0
 30
0.0
  0
LINE
  5
12C
100
AcDbEntity
  8
None
370
               5
390
0
  6
Continuous
 62
               1
100
AcDbLine
 10
-3.8499887595041855
 20
3.4498407591315399
 30
0.0
 11
-2.1833270932631308
 21
3.4498407591315399
 31
0.0
  0
LINE
  5
12D
100
AcDbEntity
  8
None
370
               5
390
0
  6
Continuous
 62
               1
100
AcDbLine
 10
-3.0166579263836866
 20
2.6165099260110196
 30
0.0
 11
-3.0166579263836866
 21
4.2831715922520601
 31
0.0
  0
WIPEOUT
  5
12E
100
AcDbEntity
  8
None
370
               5
390
0
  6
Continuous
 62
               7
 92
        0
100
AcDbWipeout
 90
        0
 10
-5.0466579263837161
 20
-18.914972703368456
 30
0.0
 11
4.7860138222159492
 21
0.0
 31
0.0
 12
0.0
 22
4.7860138222159492
 32
0.0
 13
1.0
 23
1.0
340
0
 70
               7
280
               1
281
              50
282
              50
283
               0
360
0
 71
               2
 91
        5
 14
-0.5
 24
0.5
 14
0.499999999999998
 24
0.5
 14
0.499999999999998
 24
0.2174447227413414
 14
-0.5
 24
0.2174447227413414
 14
-0.5
 24
0.5
  0
MTEXT
  5
12F
100
AcDbEntity
  8
None
390
0
 62
               7
100
AcDbMText
 10
-5.0466579263837161
 20
-17.778857905842415
 30
0.0
 40
0.8421336100260418
 41
0.0
 71
               1
 72
               1
  1
MLF 88A
  7
Arial
 73
               1
 44
0.9673603504928808
  0
CIRCLE
  5
130
100
AcDbEntity
  8
None
370
               9
390
0
  6
Continuous
 62
               7
100
AcDbCircle
 10
-9.3791579263836979
 20
9.8123407591315299
 30
0.0
 40
0.8050000000000068
  0
CIRCLE
  5
131
100
AcDbEntity
  8
None
370
               9
390
0
  6
Continuous
 62
               7
100
AcDbCircle
 10
3.3458420736163248
 20
7.2723407591315308
 30
0.0
 40
0.4250000000000043
  0
CIRCLE
  5
132
100
AcDbEntity
  8
None
370
               9
390
0
  6
Continuous
 62
               7
100
AcDbCircle
 10
3.3458420736163248
 20
9.8123407591315299
 30
0.0
 40
0.8050000000000068
  0
CIRCLE
  5
133
100
AcDbEntity
  8
None
370
               9
390
0
  6
Continuous
 62
               7
100
AcDbCircle
 10
3.3458420736163248
 20
-2.9126592408684644
 30
0.0
 40
0.8050000000000068
  0
CIRCLE
  5
134
100
AcDbEntity
  8
None
370
               9
390
0
  6
Continuous
 62
               7
100
AcDbCircle
 10
-9.3791579263836979
 20
2.1673407591315339
 30
0.0
 40
0.4250000000000043
  0
CIRCLE
  5
135
100
AcDbEntity
  8
None
370
               9
390
0
  6
Continuous
 62
               7
100
AcDbCircle
 10
-9.3791579263836979
 20
-2.9126592408684644
 30
0.0
 40
0.8050000000000068
  0
SOLID
  5
136
100
AcDbEntity
  8
None
370
               9
390
0
  6
Continuous
 62
               7
100
AcDbTrace
 10
1.3083420736163021
 20
-1.7301592408684741
 30
0.0
 11
1.3083420736163021
 21
-0.9701592408684761
 31
0.0
 12
1.5583420736163021
 22
-1.7301592408684741
 32
0.0
 13
1.5583420736163021
 23
-0.9701592408684761
 33
0.0
  0
SOLID
  5
137
100
AcDbEntity
  8
None
370
               9
390
0
  6
Continuous
 62
               7
100
AcDbTrace
 10
0.9083420736163248
 20
-1.7301592408684741
 30
0.0
 11
0.9083420736163248
 21
-0.9701592408684761
 31
0.0
 12
1.1583420736163248
 22
-1.7301592408684741
 32
0.0
 13
1.1583420736163248
 23
-0.9701592408684761
 33
0.0
  0
SOLID
  5
138
100
AcDbEntity
  8
None
370
               9
390
0
  6
Continuous
 62
               7
100
AcDbTrace
 10
0.5083420736162907
 20
-1.7301592408684741
 30
0.0
 11
0.5083420736162907
 21
-0.9701592408684761
 31
0.0
 12
0.7583420736162907
 22
-1.7301592408684741
 32
0.0
 13
0.7583420736162907
 23
-0.9701592408684761
 33
0.0
  0
SOLID
  5
139
100
AcDbEntity
  8
None
370
               9
390
0
  6
Continuous
 62
               7
100
AcDbTrace
 10
0.1083420736163134
 20
-1.7301592408684741
 30
0.0
 11
0.1083420736163134
 21
-0.9701592408684761
 31
0.0
 12
0.3583420736163134
 22
-1.7301592408684741
 32
0.0
 13
0.3583420736163134
 23
-0.9701592408684761
 33
0.0
  0
SOLID
  5
13A
100
AcDbEntity
  8
None
370
               9
390
0
  6
Continuous
 62
               7
100
AcDbTrace
 10
-0.2916579263836638
 20
-1.7301592408684741
 30
0.0
 11
-0.2916579263836638
 21
-0.9701592408684761
 31
0.0
 12
-0.0416579263836638
 22
-1.7301592408684741
 32
0.0
 13
-0.0416579263836638
 23
-0.9701592408684761
 33
0.0
  0
SOLID
  5
13B
100
AcDbEntity
  8
None
370
               9
390
0
  6
Continuous
 62
               7
100
AcDbTrace
 10
-0.6916579263836979
 20
-1.7301592408684741
 30
0.0
 11
-0.6916579263836979
 21
-0.9701592408684761
 31
0.0
 12
-0.4416579263836979
 22
-1.7301592408684741
 32
0.0
 13
-0.4416579263836979
 23
-0.9701592408684761
 33
0.0
  0
SOLID
  5
13C
100
AcDbEntity
  8
None
370
               9
390
0
  6
Continuous
 62
               7
100
AcDbTrace
 10
-1.0916579263836752
 20
-1.7301592408684741
 30
0.0
 11
-1.0916579263836752
 21
-0.9701592408684761
 31
0.0
 12
-0.8416579263836752
 22
-1.7301592408684741
 32
0.0
 13
-0.8416579263836752
 23
-0.9701592408684761
 33
0.0
  0
SOLID
  5
13D
100
AcDbEntity
  8
None
370
               9
390
0
  6
Continuous
 62
               7
100
AcDbTrace
 10
-1.4916579263837093
 20
-1.7301592408684741
 30
0.0
 11
-1.4916579263837093
 21
-0.9701592408684761
 31
0.0
 12
-1.2416579263837093
 22
-1.7301592408684741
 32
0.0
 13
-1.2416579263837093
 23
-0.9701592408684761
 33
0.0
  0
SOLID
  5
13E
100
AcDbEntity
  8
None
370
               9
390
0
  6
Continuous
 62
               7
100
AcDbTrace
 10
-1.8916579263836866
 20
-1.7301592408684741
 30
0.0
 11
-1.8916579263836866
 21
-0.9701592408684761
 31
0.0
 12
-1.6416579263836866
 22
-1.7301592408684741
 32
0.0
 13
-1.6416579263836866
 23
-0.9701592408684761
 33
0.0
  0
SOLID
  5
13F
100
AcDbEntity
  8
None
370
               9
390
0
  6
Continuous
 62
               7
100
AcDbTrace
 10
-2.2916579263836638
 20
-1.7301592408684741
 30
0.0
 11
-2.2916579263836638
 21
-0.9701592408684761
 31
0.0
 12
-2.0416579263836638
 22
-1.7301592408684741
 32
0.0
 13
-2.0416579263836638
 23
-0.9701592408684761
 33
0.0
  0
SOLID
  5
140
100
AcDbEntity
  8
None
370
               9
390
0
  6
Continuous
 62
               7
100
AcDbTrace
 10
-2.6916579263836979
 20
-1.7301592408684741
 30
0.0
 11
-2.6916579263836979
 21
-0.9701592408684761
 31
0.0
 12
-2.4416579263836979
 22
-1.7301592408684741
 32
0.0
 13
-2.4416579263836979
 23
-0.9701592408684761
 33
0.0
  0
SOLID
  5
141
100
AcDbEntity
  8
None
370
               9
390
0
  6
Continuous
 62
               7
100
AcDbTrace
 10
-3.0916579263836752
 20
-1.7301592408684741
 30
0.0
 11
-3.0916579263836752
 21
-0.9701592408684761
 31
0.0
 12
-2.8416579263836752
 22
-1.7301592408684741
 32
0.0
 13
-2.8416579263836752
 23
-0.9701592408684761
 33
0.0
  0
SOLID
  5
142
100
AcDbEntity
  8
None
370
               9
390
0
  6
Continuous
 62
               7
100
AcDbTrace
 10
-3.4916579263837093
 20
-1.7301592408684741
 30
0.0
 11
-3.4916579263837093
 21
-0.9701592408684761
 31
0.0
 12
-3.2416579263837093
 22
-1.7301592408684741
 32
0.0
 13
-3.2416579263837093
 23
-0.9701592408684761
 33
0.0
  0
SOLID
  5
143
100
AcDbEntity
  8
None
370
               9
390
0
  6
Continuous
 62
               7
100
AcDbTrace
 10
-3.8916579263836866
 20
-1.7301592408684741
 30
0.0
 11
-3.8916579263836866
 21
-0.9701592408684761
 31
0.0
 12
-3.6416579263836866
 22
-1.7301592408684741
 32
0.0
 13
-3.6416579263836866
 23
-0.9701592408684761
 33
0.0
  0
SOLID
  5
144
100
AcDbEntity
  8
None
370
               9
390
0
  6
Continuous
 62
               7
100
AcDbTrace
 10
-4.2916579263836638
 20
-1.7301592408684741
 30
0.0
 11
-4.2916579263836638
 21
-0.9701592408684761
 31
0.0
 12
-4.0416579263836638
 22
-1.7301592408684741
 32
0.0
 13
-4.0416579263836638
 23
-0.9701592408684761
 33
0.0
  0
SOLID
  5
145
100
AcDbEntity
  8
None
370
               9
390
0
  6
Continuous
 62
               7
100
AcDbTrace
 10
-4.6916579263836979
 20
-1.7301592408684741
 30
0.0
 11
-4.6916579263836979
 21
-0.9701592408684761
 31
0.0
 12
-4.4416579263836979
 22
-1.7301592408684741
 32
0.0
 13
-4.4416579263836979
 23
-0.9701592408684761
 33
0.0
  0
SOLID
  5
146
100
AcDbEntity
  8
None
370
               9
390
0
  6
Continuous
 62
               7
100
AcDbTrace
 10
-5.0916579263836752
 20
-1.7301592408684741
 30
0.0
 11
-5.0916579263836752
 21
-0.9701592408684761
 31
0.0
 12
-4.8416579263836752
 22
-1.7301592408684741
 32
0.0
 13
-4.8416579263836752
 23
-0.9701592408684761
 33
0.0
  0
SOLID
  5
147
100
AcDbEntity
  8
None
370
               9
390
0
  6
Continuous
 62
               7
100
AcDbTrace
 10
-5.4916579263837093
 20
-1.7301592408684741
 30
0.0
 11
-5.4916579263837093
 21
-0.9701592408684761
 31
0.0
 12
-5.2416579263837093
 22
-1.7301592408684741
 32
0.0
 13
-5.2416579263837093
 23
-0.9701592408684761
 33
0.0
  0
SOLID
  5
148
100
AcDbEntity
  8
None
370
               9
390
0
  6
Continuous
 62
               7
100
AcDbTrace
 10
-5.8916579263836866
 20
-1.7301592408684741
 30
0.0
 11
-5.8916579263836866
 21
-0.9701592408684761
 31
0.0
 12
-5.6416579263836866
 22
-1.7301592408684741
 32
0.0
 13
-5.6416579263836866
 23
-0.9701592408684761
 33
0.0
  0
SOLID
  5
149
100
AcDbEntity
  8
None
370
               9
390
0
  6
Continuous
 62
               7
100
AcDbTrace
 10
-6.2916579263836638
 20
-1.7301592408684741
 30
0.0
 11
-6.2916579263836638
 21
-0.9701592408684761
 31
0.0
 12
-6.0416579263836638
 22
-1.7301592408684741
 32
0.0
 13
-6.0416579263836638
 23
-0.9701592408684761
 33
0.0
  0
SOLID
  5
14A
100
AcDbEntity
  8
None
370
               9
390
0
  6
Continuous
 62
               7
100
AcDbTrace
 10
-6.6916579263836979
 20
-1.7301592408684741
 30
0.0
 11
-6.6916579263836979
 21
-0.9701592408684761
 31
0.0
 12
-6.4416579263836979
 22
-1.7301592408684741
 32
0.0
 13
-6.4416579263836979
 23
-0.9701592408684761
 33
0.0
  0
SOLID
  5
14B
100
AcDbEntity
  8
None
370
               9
390
0
  6
Continuous
 62
               7
100
AcDbTrace
 10
-7.0916579263836752
 20
-1.7301592408684741
 30
0.0
 11
-7.0916579263836752
 21
-0.9701592408684761
 31
0.0
 12
-6.8416579263836752
 22
-1.7301592408684741
 32
0.0
 13
-6.8416579263836752
 23
-0.9701592408684761
 33
0.0
  0
SOLID
  5
14C
100
AcDbEntity
  8
None
370
               9
390
0
  6
Continuous
 62
               7
100
AcDbTrace
 10
1.3083420736163021
 20
7.8698407591315345
 30
0.0
 11
1.3083420736163021
 21
8.6298407591315325
 31
0.0
 12
1.5583420736163021
 22
7.8698407591315345
 32
0.0
 13
1.5583420736163021
 23
8.6298407591315325
 33
0.0
  0
SOLID
  5
14D
100
AcDbEntity
  8
None
370
               9
390
0
  6
Continuous
 62
               7
100
AcDbTrace
 10
0.9083420736163248
 20
7.8698407591315345
 30
0.0
 11
0.9083420736163248
 21
8.6298407591315325
 31
0.0
 12
1.1583420736163248
 22
7.8698407591315345
 32
0.0
 13
1.1583420736163248
 23
8.6298407591315325
 33
0.0
  0
SOLID
  5
14E
100
AcDbEntity
  8
None
370
               9
390
0
  6
Continuous
 62
               7
100
AcDbTrace
 10
0.5083420736162907
 20
7.8698407591315345
 30
0.0
 11
0.5083420736162907
 21
8.6298407591315325
 31
0.0
 12
0.7583420736162907
 22
7.8698407591315345
 32
0.0
 13
0.7583420736162907
 23
8.6298407591315325
 33
0.0
  0
SOLID
  5
14F
100
AcDbEntity
  8
None
370
               9
390
0
  6
Continuous
 62
               7
100
AcDbTrace
 10
0.1083420736163134
 20
7.8698407591315345
 30
0.0
 11
0.1083420736163134
 21
8.6298407591315325
 31
0.0
 12
0.3583420736163134
 22
7.8698407591315345
 32
0.0
 13
0.3583420736163134
 23
8.6298407591315325
 33
0.0
  0
SOLID
  5
150
100
AcDbEntity
  8
None
370
               9
390
0
  6
Continuous
 62
               7
100
AcDbTrace
 10
-0.2916579263836638
 20
7.8698407591315345
 30
0.0
 11
-0.2916579263836638
 21
8.6298407591315325
 31
0.0
 12
-0.0416579263836638
 22
7.8698407591315345
 32
0.0
 13
-0.0416579263836638
 23
8.6298407591315325
 33
0.0
  0
SOLID
  5
151
100
AcDbEntity
  8
None
370
               9
390
0
  6
Continuous
 62
               7
100
AcDbTrace
 10
-0.6916579263836979
 20
7.8698407591315345
 30
0.0
 11
-0.6916579263836979
 21
8.6298407591315325
 31
0.0
 12
-0.4416579263836979
 22
7.8698407591315345
 32
0.0
 13
-0.4416579263836979
 23
8.6298407591315325
 33
0.0
  0
SOLID
  5
152
100
AcDbEntity
  8
None
370
               9
390
0
  6
Continuous
 62
               7
100
AcDbTrace
 10
-1.0916579263836752
 20
7.8698407591315345
 30
0.0
 11
-1.0916579263836752
 21
8.6298407591315325
 31
0.0
 12
-0.8416579263836752
 22
7.8698407591315345
 32
0.0
 13
-0.8416579263836752
 23
8.6298407591315325
 33
0.0
  0
SOLID
  5
153
100
AcDbEntity
  8
None
370
               9
390
0
  6
Continuous
 62
               7
100
AcDbTrace
 10
-1.4916579263837093
 20
7.8698407591315345
 30
0.0
 11
-1.4916579263837093
 21
8.6298407591315325
 31
0.0
 12
-1.2416579263837093
 22
7.8698407591315345
 32
0.0
 13
-1.2416579263837093
 23
8.6298407591315325
 33
0.0
  0
SOLID
  5
154
100
AcDbEntity
  8
None
370
               9
390
0
  6
Continuous
 62
               7
100
AcDbTrace
 10
-1.8916579263836866
 20
7.8698407591315345
 30
0.0
 11
-1.8916579263836866
 21
8.6298407591315325
 31
0.0
 12
-1.6416579263836866
 22
7.8698407591315345
 32
0.0
 13
-1.6416579263836866
 23
8.6298407591315325
 33
0.0
  0
SOLID
  5
155
100
AcDbEntity
  8
None
370
               9
390
0
  6
Continuous
 62
               7
100
AcDbTrace
 10
-2.2916579263836638
 20
7.8698407591315345
 30
0.0
 11
-2.2916579263836638
 21
8.6298407591315325
 31
0.0
 12
-2.0416579263836638
 22
7.8698407591315345
 32
0.0
 13
-2.0416579263836638
 23
8.6298407591315325
 33
0.0
  0
SOLID
  5
156
100
AcDbEntity
  8
None
370
               9
390
0
  6
Continuous
 62
               7
100
AcDbTrace
 10
-2.6916579263836979
 20
7.8698407591315345
 30
0.0
 11
-2.6916579263836979
 21
8.6298407591315325
 31
0.0
 12
-2.4416579263836979
 22
7.8698407591315345
 32
0.0
 13
-2.4416579263836979
 23
8.6298407591315325
 33
0.0
  0
SOLID
  5
157
100
AcDbEntity
  8
None
370
               9
390
0
  6
Continuous
 62
               7
100
AcDbTrace
 10
-3.0916579263836752
 20
7.8698407591315345
 30
0.0
 11
-3.0916579263836752
 21
8.6298407591315325
 31
0.0
 12
-2.8416579263836752
 22
7.8698407591315345
 32
0.0
 13
-2.8416579263836752
 23
8.6298407591315325
 33
0.0
  0
SOLID
  5
158
100
AcDbEntity
  8
None
370
               9
390
0
  6
Continuous
 62
               7
100
AcDbTrace
 10
-3.4916579263837093
 20
7.8698407591315345
 30
0.0
 11
-3.4916579263837093
 21
8.6298407591315325
 31
0.0
 12
-3.2416579263837093
 22
7.8698407591315345
 32
0.0
 13
-3.2416579263837093
 23
8.6298407591315325
 33
0.0
  0
SOLID
  5
159
100
AcDbEntity
  8
None
370
               9
390
0
  6
Continuous
 62
               7
100
AcDbTrace
 10
-3.8916579263836866
 20
7.8698407591315345
 30
0.0
 11
-3.8916579263836866
 21
8.6298407591315325
 31
0.0
 12
-3.6416579263836866
 22
7.8698407591315345
 32
0.0
 13
-3.6416579263836866
 23
8.6298407591315325
 33
0.0
  0
SOLID
  5
15A
100
AcDbEntity
  8
None
370
               9
390
0
  6
Continuous
 62
               7
100
AcDbTrace
 10
-4.2916579263836638
 20
7.8698407591315345
 30
0.0
 11
-4.2916579263836638
 21
8.6298407591315325
 31
0.0
 12
-4.0416579263836638
 22
7.8698407591315345
 32
0.0
 13
-4.0416579263836638
 23
8.6298407591315325
 33
0.0
  0
SOLID
  5
15B
100
AcDbEntity
  8
None
370
               9
390
0
  6
Continuous
 62
               7
100
AcDbTrace
 10
-4.6916579263836979
 20
7.8698407591315345
 30
0.0
 11
-4.6916579263836979
 21
8.6298407591315325
 31
0.0
 12
-4.4416579263836979
 22
7.8698407591315345
 32
0.0
 13
-4.4416579263836979
 23
8.6298407591315325
 33
0.0
  0
SOLID
  5
15C
100
AcDbEntity
  8
None
370
               9
390
0
  6
Continuous
 62
               7
100
AcDbTrace
 10
-5.0916579263836752
 20
7.8698407591315345
 30
0.0
 11
-5.0916579263836752
 21
8.6298407591315325
 31
0.0
 12
-4.8416579263836752
 22
7.8698407591315345
 32
0.0
 13
-4.8416579263836752
 23
8.6298407591315325
 33
0.0
  0
SOLID
  5
15D
100
AcDbEntity
  8
None
370
               9
390
0
  6
Continuous
 62
               7
100
AcDbTrace
 10
-5.4916579263837093
 20
7.8698407591315345
 30
0.0
 11
-5.4916579263837093
 21
8.6298407591315325
 31
0.0
 12
-5.2416579263837093
 22
7.8698407591315345
 32
0.0
 13
-5.2416579263837093
 23
8.6298407591315325
 33
0.0
  0
SOLID
  5
15E
100
AcDbEntity
  8
None
370
               9
390
0
  6
Continuous
 62
               7
100
AcDbTrace
 10
-5.8916579263836866
 20
7.8698407591315345
 30
0.0
 11
-5.8916579263836866
 21
8.6298407591315325
 31
0.0
 12
-5.6416579263836866
 22
7.8698407591315345
 32
0.0
 13
-5.6416579263836866
 23
8.6298407591315325
 33
0.0
  0
SOLID
  5
15F
100
AcDbEntity
  8
None
370
               9
390
0
  6
Continuous
 62
               7
100
AcDbTrace
 10
-6.2916579263836638
 20
7.8698407591315345
 30
0.0
 11
-6.2916579263836638
 21
8.6298407591315325
 31
0.0
 12
-6.0416579263836638
 22
7.8698407591315345
 32
0.0
 13
-6.0416579263836638
 23
8.6298407591315325
 33
0.0
  0
SOLID
  5
160
100
AcDbEntity
  8
None
370
               9
390
0
  6
Continuous
 62
               7
100
AcDbTrace
 10
-6.6916579263836979
 20
7.8698407591315345
 30
0.0
 11
-6.6916579263836979
 21
8.6298407591315325
 31
0.0
 12
-6.4416579263836979
 22
7.8698407591315345
 32
0.0
 13
-6.4416579263836979
 23
8.6298407591315325
 33
0.0
  0
SOLID
  5
161
100
AcDbEntity
  8
None
370
               9
390
0
  6
Continuous
 62
               7
100
AcDbTrace
 10
-7.0916579263836752
 20
7.8698407591315345
 30
0.0
 11
-7.0916579263836752
 21
8.6298407591315325
 31
0.0
 12
-6.8416579263836752
 22
7.8698407591315345
 32
0.0
 13
-6.8416579263836752
 23
8.6298407591315325
 33
0.0
  0
SOLID
  5
162
100
AcDbEntity
  8
None
370
               9
390
0
  6
Continuous
 62
               7
100
AcDbTrace
 10
1.6533420736162725
 20
7.5248407591315285
 30
0.0
 11
1.6533420736162725
 21
7.7748407591315285
 31
0.0
 12
2.4133420736162634
 22
7.5248407591315285
 32
0.0
 13
2.4133420736162634
 23
7.7748407591315285
 33
0.0
  0
SOLID
  5
163
100
AcDbEntity
  8
None
370
               9
390
0
  6
Continuous
 62
               7
100
AcDbTrace
 10
1.6533420736162725
 20
7.1248407591315299
 30
0.0
 11
1.6533420736162725
 21
7.3748407591315299
 31
0.0
 12
2.4133420736162634
 22
7.1248407591315299
 32
0.0
 13
2.4133420736162634
 23
7.3748407591315299
 33
0.0
  0
SOLID
  5
164
100
AcDbEntity
  8
None
370
               9
390
0
  6
Continuous
 62
               7
100
AcDbTrace
 10
1.6533420736162725
 20
6.7248407591315313
 30
0.0
 11
1.6533420736162725
 21
6.9748407591315313
 31
0.0
 12
2.4133420736162634
 22
6.7248407591315313
 32
0.0
 13
2.4133420736162634
 23
6.9748407591315313
 33
0.0
  0
SOLID
  5
165
100
AcDbEntity
  8
None
370
               9
390
0
  6
Continuous
 62
               7
100
AcDbTrace
 10
1.6533420736162725
 20
6.3248407591315257
 30
0.0
 11
1.6533420736162725
 21
6.5748407591315257
 31
0.0
 12
2.4133420736162634
 22
6.3248407591315257
 32
0.0
 13
2.4133420736162634
 23
6.5748407591315257
 33
0.0
  0
SOLID
  5
166
100
AcDbEntity
  8
None
370
               9
390
0
  6
Continuous
 62
               7
100
AcDbTrace
 10
1.6533420736162725
 20
5.9248407591315271
 30
0.0
 11
1.6533420736162725
 21
6.1748407591315271
 31
0.0
 12
2.4133420736162634
 22
5.9248407591315271
 32
0.0
 13
2.4133420736162634
 23
6.1748407591315271
 33
0.0
  0
SOLID
  5
167
100
AcDbEntity
  8
None
370
               9
390
0
  6
Continuous
 62
               7
100
AcDbTrace
 10
1.6533420736162725
 20
5.5248407591315285
 30
0.0
 11
1.6533420736162725
 21
5.7748407591315285
 31
0.0
 12
2.4133420736162634
 22
5.5248407591315285
 32
0.0
 13
2.4133420736162634
 23
5.7748407591315285
 33
0.0
  0
SOLID
  5
168
100
AcDbEntity
  8
None
370
               9
390
0
  6
Continuous
 62
               7
100
AcDbTrace
 10
1.6533420736162725
 20
5.1248407591315299
 30
0.0
 11
1.6533420736162725
 21
5.3748407591315299
 31
0.0
 12
2.4133420736162634
 22
5.1248407591315299
 32
0.0
 13
2.4133420736162634
 23
5.3748407591315299
 33
0.0
  0
SOLID
  5
169
100
AcDbEntity
  8
None
370
               9
390
0
  6
Continuous
 62
               7
100
AcDbTrace
 10
1.6533420736162725
 20
4.7248407591315313
 30
0.0
 11
1.6533420736162725
 21
4.9748407591315313
 31
0.0
 12
2.4133420736162634
 22
4.7248407591315313
 32
0.0
 13
2.4133420736162634
 23
4.9748407591315313
 33
0.0
  0
SOLID
  5
16A
100
AcDbEntity
  8
None
370
               9
390
0
  6
Continuous
 62
               7
100
AcDbTrace
 10
1.6533420736162725
 20
4.3248407591315257
 30
0.0
 11
1.6533420736162725
 21
4.5748407591315257
 31
0.0
 12
2.4133420736162634
 22
4.3248407591315257
 32
0.0
 13
2.4133420736162634
 23
4.5748407591315257
 33
0.0
  0
SOLID
  5
16B
100
AcDbEntity
  8
None
370
               9
390
0
  6
Continuous
 62
               7
100
AcDbTrace
 10
1.6533420736162725
 20
3.9248407591315271
 30
0.0
 11
1.6533420736162725
 21
4.1748407591315271
 31
0.0
 12
2.4133420736162634
 22
3.9248407591315271
 32
0.0
 13
2.4133420736162634
 23
4.1748407591315271
 33
0.0
  0
SOLID
  5
16C
100
AcDbEntity
  8
None
370
               9
390
0
  6
Continuous
 62
               7
100
AcDbTrace
 10
1.6533420736162725
 20
3.5248407591315285
 30
0.0
 11
1.6533420736162725
 21
3.7748407591315285
 31
0.0
 12
2.4133420736162634
 22
3.5248407591315285
 32
0.0
 13
2.4133420736162634
 23
3.7748407591315285
 33
0.0
  0
SOLID
  5
16D
100
AcDbEntity
  8
None
370
               9
390
0
  6
Continuous
 62
               7
100
AcDbTrace
 10
1.6533420736162725
 20
3.1248407591315299
 30
0.0
 11
1.6533420736162725
 21
3.3748407591315299
 31
0.0
 12
2.4133420736162634
 22
3.1248407591315299
 32
0.0
 13
2.4133420736162634
 23
3.3748407591315299
 33
0.0
  0
SOLID
  5
16E
100
AcDbEntity
  8
None
370
               9
390
0
  6
Continuous
 62
               7
100
AcDbTrace
 10
1.6533420736162725
 20
2.7248407591315313
 30
0.0
 11
1.6533420736162725
 21
2.9748407591315313
 31
0.0
 12
2.4133420736162634
 22
2.7248407591315313
 32
0.0
 13
2.4133420736162634
 23
2.9748407591315313
 33
0.0
  0
SOLID
  5
16F
100
AcDbEntity
  8
None
370
               9
390
0
  6
Continuous
 62
               7
100
AcDbTrace
 10
1.6533420736162725
 20
2.3248407591315257
 30
0.0
 11
1.6533420736162725
 21
2.5748407591315257
 31
0.0
 12
2.4133420736162634
 22
2.3248407591315257
 32
0.0
 13
2.4133420736162634
 23
2.5748407591315257
 33
0.0
  0
SOLID
  5
170
100
AcDbEntity
  8
None
370
               9
390
0
  6
Continuous
 62
               7
100
AcDbTrace
 10
1.6533420736162725
 20
1.9248407591315271
 30
0.0
 11
1.6533420736162725
 21
2.1748407591315271
 31
0.0
 12
2.4133420736162634
 22
1.9248407591315271
 32
0.0
 13
2.4133420736162634
 23
2.1748407591315271
 33
0.0
  0
SOLID
  5
171
100
AcDbEntity
  8
None
370
               9
390
0
  6
Continuous
 62
               7
100
AcDbTrace
 10
1.6533420736162725
 20
1.5248407591315285
 30
0.0
 11
1.6533420736162725
 21
1.7748407591315285
 31
0.0
 12
2.4133420736162634
 22
1.5248407591315285
 32
0.0
 13
2.4133420736162634
 23
1.7748407591315285
 33
0.0
  0
SOLID
  5
172
100
AcDbEntity
  8
None
370
               9
390
0
  6
Continuous
 62
               7
100
AcDbTrace
 10
1.6533420736162725
 20
1.1248407591315299
 30
0.0
 11
1.6533420736162725
 21
1.3748407591315299
 31
0.0
 12
2.4133420736162634
 22
1.1248407591315299
 32
0.0
 13
2.4133420736162634
 23
1.3748407591315299
 33
0.0
  0
SOLID
  5
173
100
AcDbEntity
  8
None
370
               9
390
0
  6
Continuous
 62
               7
100
AcDbTrace
 10
1.6533420736162725
 20
0.7248407591315242
 30
0.0
 11
1.6533420736162725
 21
0.9748407591315242
 31
0.0
 12
2.4133420736162634
 22
0.7248407591315242
 32
0.0
 13
2.4133420736162634
 23
0.9748407591315242
 33
0.0
  0
SOLID
  5
174
100
AcDbEntity
  8
None
370
               9
390
0
  6
Continuous
 62
               7
100
AcDbTrace
 10
1.6533420736162725
 20
0.3248407591315257
 30
0.0
 11
1.6533420736162725
 21
0.5748407591315257
 31
0.0
 12
2.4133420736162634
 22
0.3248407591315257
 32
0.0
 13
2.4133420736162634
 23
0.5748407591315257
 33
0.0
  0
SOLID
  5
175
100
AcDbEntity
  8
None
370
               9
390
0
  6
Continuous
 62
               7
100
AcDbTrace
 10
1.6533420736162725
 20
-0.0751592408684729
 30
0.0
 11
1.6533420736162725
 21
0.1748407591315271
 31
0.0
 12
2.4133420736162634
 22
-0.0751592408684729
 32
0.0
 13
2.4133420736162634
 23
0.1748407591315271
 33
0.0
  0
SOLID
  5
176
100
AcDbEntity
  8
None
370
               9
390
0
  6
Continuous
 62
               7
100
AcDbTrace
 10
1.6533420736162725
 20
-0.4751592408684715
 30
0.0
 11
1.6533420736162725
 21
-0.2251592408684715
 31
0.0
 12
2.4133420736162634
 22
-0.4751592408684715
 32
0.0
 13
2.4133420736162634
 23
-0.2251592408684715
 33
0.0
  0
SOLID
  5
177
100
AcDbEntity
  8
None
370
               9
390
0
  6
Continuous
 62
               7
100
AcDbTrace
 10
1.6533420736162725
 20
-0.8751592408684772
 30
0.0
 11
1.6533420736162725
 21
-0.6251592408684772
 31
0.0
 12
2.4133420736162634
 22
-0.8751592408684772
 32
0.0
 13
2.4133420736162634
 23
-0.6251592408684772
 33
0.0
  0
SOLID
  5
178
100
AcDbEntity
  8
None
370
               9
390
0
  6
Continuous
 62
               7
100
AcDbTrace
 10
-7.9466579263836934
 20
7.5248407591315285
 30
0.0
 11
-7.9466579263836934
 21
7.7748407591315285
 31
0.0
 12
-7.1866579263837025
 22
7.5248407591315285
 32
0.0
 13
-7.1866579263837025
 23
7.7748407591315285
 33
0.0
  0
SOLID
  5
179
100
AcDbEntity
  8
None
370
               9
390
0
  6
Continuous
 62
               7
100
AcDbTrace
 10
-7.9466579263836934
 20
7.1248407591315299
 30
0.0
 11
-7.9466579263836934
 21
7.3748407591315299
 31
0.0
 12
-7.1866579263837025
 22
7.1248407591315299
 32
0.0
 13
-7.1866579263837025
 23
7.3748407591315299
 33
0.0
  0
SOLID
  5
17A
100
AcDbEntity
  8
None
370
               9
390
0
  6
Continuous
 62
               7
100
AcDbTrace
 10
-7.9466579263836934
 20
6.7248407591315313
 30
0.0
 11
-7.9466579263836934
 21
6.9748407591315313
 31
0.0
 12
-7.1866579263837025
 22
6.7248407591315313
 32
0.0
 13
-7.1866579263837025
 23
6.9748407591315313
 33
0.0
  0
SOLID
  5
17B
100
AcDbEntity
  8
None
370
               9
390
0
  6
Continuous
 62
               7
100
AcDbTrace
 10
-7.9466579263836934
 20
6.3248407591315257
 30
0.0
 11
-7.9466579263836934
 21
6.5748407591315257
 31
0.0
 12
-7.1866579263837025
 22
6.3248407591315257
 32
0.0
 13
-7.1866579263837025
 23
6.5748407591315257
 33
0.0
  0
SOLID
  5
17C
100
AcDbEntity
  8
None
370
               9
390
0
  6
Continuous
 62
               7
100
AcDbTrace
 10
-7.9466579263836934
 20
5.9248407591315271
 30
0.0
 11
-7.9466579263836934
 21
6.1748407591315271
 31
0.0
 12
-7.1866579263837025
 22
5.9248407591315271
 32
0.0
 13
-7.1866579263837025
 23
6.1748407591315271
 33
0.0
  0
SOLID
  5
17D
100
AcDbEntity
  8
None
370
               9
390
0
  6
Continuous
 62
               7
100
AcDbTrace
 10
-7.9466579263836934
 20
5.5248407591315285
 30
0.0
 11
-7.9466579263836934
 21
5.7748407591315285
 31
0.0
 12
-7.1866579263837025
 22
5.5248407591315285
 32
0.0
 13
-7.1866579263837025
 23
5.7748407591315285
 33
0.0
  0
SOLID
  5
17E
100
AcDbEntity
  8
None
370
               9
390
0
  6
Continuous
 62
               7
100
AcDbTrace
 10
-7.9466579263836934
 20
5.1248407591315299
 30
0.0
 11
-7.9466579263836934
 21
5.3748407591315299
 31
0.0
 12
-7.1866579263837025
 22
5.1248407591315299
 32
0.0
 13
-7.1866579263837025
 23
5.3748407591315299
 33
0.0
  0
SOLID
  5
17F
100
AcDbEntity
  8
None
370
               9
390
0
  6
Continuous
 62
               7
100
AcDbTrace
 10
-7.9466579263836934
 20
4.7248407591315313
 30
0.0
 11
-7.9466579263836934
 21
4.9748407591315313
 31
0.0
 12
-7.1866579263837025
 22
4.7248407591315313
 32
0.0
 13
-7.1866579263837025
 23
4.9748407591315313
 33
0.0
  0
SOLID
  5
180
100
AcDbEntity
  8
None
370
               9
390
0
  6
Continuous
 62
               7
100
AcDbTrace
 10
-7.9466579263836934
 20
4.3248407591315257
 30
0.0
 11
-7.9466579263836934
 21
4.5748407591315257
 31
0.0
 12
-7.1866579263837025
 22
4.3248407591315257
 32
0.0
 13
-7.1866579263837025
 23
4.5748407591315257
 33
0.0
  0
SOLID
  5
181
100
AcDbEntity
  8
None
370
               9
390
0
  6
Continuous
 62
               7
100
AcDbTrace
 10
-7.9466579263836934
 20
3.9248407591315271
 30
0.0
 11
-7.9466579263836934
 21
4.1748407591315271
 31
0.0
 12
-7.1866579263837025
 22
3.9248407591315271
 32
0.0
 13
-7.1866579263837025
 23
4.1748407591315271
 33
0.0
  0
SOLID
  5
182
100
AcDbEntity
  8
None
370
               9
390
0
  6
Continuous
 62
               7
100
AcDbTrace
 10
-7.9466579263836934
 20
3.5248407591315285
 30
0.0
 11
-7.9466579263836934
 21
3.7748407591315285
 31
0.0
 12
-7.1866579263837025
 22
3.5248407591315285
 32
0.0
 13
-7.1866579263837025
 23
3.7748407591315285
 33
0.0
  0
SOLID
  5
183
100
AcDbEntity
  8
None
370
               9
390
0
  6
Continuous
 62
               7
100
AcDbTrace
 10
-7.9466579263836934
 20
3.1248407591315299
 30
0.0
 11
-7.9466579263836934
 21
3.3748407591315299
 31
0.0
 12
-7.1866579263837025
 22
3.1248407591315299
 32
0.0
 13
-7.1866579263837025
 23
3.3748407591315299
 33
0.0
  0
SOLID
  5
184
100
AcDbEntity
  8
None
370
               9
390
0
  6
Continuous
 62
               7
100
AcDbTrace
 10
-7.9466579263836934
 20
2.7248407591315313
 30
0.0
 11
-7.9466579263836934
 21
2.9748407591315313
 31
0.0
 12
-7.1866579263837025
 22
2.7248407591315313
 32
0.0
 13
-7.1866579263837025
 23
2.9748407591315313
 33
0.0
  0
SOLID
  5
185
100
AcDbEntity
  8
None
370
               9
390
0
  6
Continuous
 62
               7
100
AcDbTrace
 10
-7.9466579263836934
 20
2.3248407591315257
 30
0.0
 11
-7.9466579263836934
 21
2.5748407591315257
 31
0.0
 12
-7.1866579263837025
 22
2.3248407591315257
 32
0.0
 13
-7.1866579263837025
 23
2.5748407591315257
 33
0.0
  0
SOLID
  5
186
100
AcDbEntity
  8
None
370
               9
390
0
  6
Continuous
 62
               7
100
AcDbTrace
 10
-7.9466579263836934
 20
1.9248407591315271
 30
0.0
 11
-7.9466579263836934
 21
2.1748407591315271
 31
0.0
 12
-7.1866579263837025
 22
1.9248407591315271
 32
0.0
 13
-7.1866579263837025
 23
2.1748407591315271
 33
0.0
  0
SOLID
  5
187
100
AcDbEntity
  8
None
370
               9
390
0
  6
Continuous
 62
               7
100
AcDbTrace
 10
-7.9466579263836934
 20
1.5248407591315285
 30
0.0
 11
-7.9466579263836934
 21
1.7748407591315285
 31
0.0
 12
-7.1866579263837025
 22
1.5248407591315285
 32
0.0
 13
-7.1866579263837025
 23
1.7748407591315285
 33
0.0
  0
SOLID
  5
188
100
AcDbEntity
  8
None
370
               9
390
0
  6
Continuous
 62
               7
100
AcDbTrace
 10
-7.9466579263836934
 20
1.1248407591315299
 30
0.0
 11
-7.9466579263836934
 21
1.3748407591315299
 31
0.0
 12
-7.1866579263837025
 22
1.1248407591315299
 32
0.0
 13
-7.1866579263837025
 23
1.3748407591315299
 33
0.0
  0
SOLID
  5
189
100
AcDbEntity
  8
None
370
               9
390
0
  6
Continuous
 62
               7
100
AcDbTrace
 10
-7.9466579263836934
 20
0.7248407591315242
 30
0.0
 11
-7.9466579263836934
 21
0.9748407591315242
 31
0.0
 12
-7.1866579263837025
 22
0.7248407591315242
 32
0.0
 13
-7.1866579263837025
 23
0.9748407591315242
 33
0.0
  0
SOLID
  5
18A
100
AcDbEntity
  8
None
370
               9
390
0
  6
Continuous
 62
               7
100
AcDbTrace
 10
-7.9466579263836934
 20
0.3248407591315257
 30
0.0
 11
-7.9466579263836934
 21
0.5748407591315257
 31
0.0
 12
-7.1866579263837025
 22
0.3248407591315257
 32
0.0
 13
-7.1866579263837025
 23
0.5748407591315257
 33
0.0
  0
SOLID
  5
18B
100
AcDbEntity
  8
None
370
               9
390
0
  6
Continuous
 62
               7
100
AcDbTrace
 10
-7.9466579263836934
 20
-0.0751592408684729
 30
0.0
 11
-7.9466579263836934
 21
0.1748407591315271
 31
0.0
 12
-7.1866579263837025
 22
-0.0751592408684729
 32
0.0
 13
-7.1866579263837025
 23
0.1748407591315271
 33
0.0
  0
SOLID
  5
18C
100
AcDbEntity
  8
None
370
               9
390
0
  6
Continuous
 62
               7
100
AcDbTrace
 10
-7.9466579263836934
 20
-0.4751592408684715
 30
0.0
 11
-7.9466579263836934
 21
-0.2251592408684715
 31
0.0
 12
-7.1866579263837025
 22
-0.4751592408684715
 32
0.0
 13
-7.1866579263837025
 23
-0.2251592408684715
 33
0.0
  0
SOLID
  5
18D
100
AcDbEntity
  8
None
370
               9
390
0
  6
Continuous
 62
               7
100
AcDbTrace
 10
-7.9466579263836934
 20
-0.8751592408684772
 30
0.0
 11
-7.9466579263836934
 21
-0.6251592408684772
 31
0.0
 12
-7.1866579263837025
 22
-0.8751592408684772
 32
0.0
 13
-7.1866579263837025
 23
-0.6251592408684772
 33
0.0
  0
POLYLINE
  5
18E
100
AcDbEntity
  8
None
370
               9
390
0
  6
STYLE_12
 62
               7
100
AcDb2dPolyline
 66
               1
 10
0.0
 20
0.0
 30
0.0
 70
               1
 75
               5
  0
VERTEX
  5
18F
100
AcDbEntity
  8
None
370
               9
390
0
  6
STYLE_12
 62
               7
100
AcDbVertex
100
AcDb2dVertex
 10
-10.629157926383698
 20
11.062340759131537
 30
0.0
  0
VERTEX
  5
190
100
AcDbEntity
  8
None
370
               9
390
0
  6
STYLE_12
 62
               7
100
AcDbVertex
100
AcDb2dVertex
 10
4.5958420736163248
 20
11.062340759131537
 30
0.0
  0
VERTEX
  5
191
100
AcDbEntity
  8
None
370
               9
390
0
  6
STYLE_12
 62
               7
100
AcDbVertex
100
AcDb2dVertex
 10
4.5958420736163248
 20
-4.1626592408684644
 30
0.0
  0
VERTEX
  5
192
100
AcDbEntity
  8
None
370
               9
390
0
  6
STYLE_12
 62
               7
100
AcDbVertex
100
AcDb2dVertex
 10
-10.629157926383698
 20
-4.1626592408684644
 30
0.0
  0
SEQEND
  5
193
100
AcDbEntity
  8
None
370
               9
390
0
  6
STYLE_12
 62
               7
  0
POLYLINE
  5
194
102
{ACAD_REACTORS
330
19A
102
}
100
AcDbEntity
  8
None
370
               9
390
0
  6
Continuous
 62
               7
100
AcDb2dPolyline
 66
               1
 10
0.0
 20
0.0
 30
0.0
 70
               1
 75
               5
  0
VERTEX
  5
195
100
AcDbEntity
  8
None
370
               9
390
0
  6
Continuous
 62
               7
100
AcDbVertex
100
AcDb2dVertex
 10
-6.8666579263837093
 20
7.5498407591315342
 30
0.0
  0
VERTEX
  5
196
100
AcDbEntity
  8
None
370
               9
390
0
  6
Continuous
 62
               7
100
AcDbVertex
100
AcDb2dVertex
 10
1.3333420736162793
 20
7.5498407591315342
 30
0.0
  0
VERTEX
  5
197
100
AcDbEntity
  8
None
370
               9
390
0
  6
Continuous
 62
               7
100
AcDbVertex
100
AcDb2dVertex
 10
1.3333420736162793
 20
-0.6501592408684687
 30
0.0
  0
VERTEX
  5
198
100
AcDbEntity
  8
None
370
               9
390
0
  6
Continuous
 62
               7
100
AcDbVertex
100
AcDb2dVertex
 10
-6.8666579263837093
 20
-0.6501592408684687
 30
0.0
  0
SEQEND
  5
199
100
AcDbEntity
  8
None
370
               9
390
0
  6
Continuous
 62
               7
  0
HATCH
  5
19A
100
AcDbEntity
  8
None
370
               0
390
0
  6
Continuous
 62
             253
100
AcDbHatch
 10
0.0
 20
0.0
 30
0.0
210
0.0
220
0.0
230
1.0
  2
SOLID
 70
               1
 71
               1
 91
        1
 92
        1
 93
        4
 72
               1
 10
-6.8666579263837093
 20
7.5498407591315342
 11
1.3333420736162793
 21
7.5498407591315342
 72
               1
 10
1.3333420736162793
 20
7.5498407591315342
 11
1.3333420736162793
 21
-0.6501592408684687
 72
               1
 10
1.3333420736162793
 20
-0.6501592408684687
 11
-6.8666579263837093
 21
-0.6501592408684687
 72
               1
 10
-6.8666579263837093
 20
-0.6501592408684687
 11
-6.8666579263837093
 21
7.5498407591315342
 97
        1
330
194
 75
               0
 76
               1
 98
        1
 10
0.0
 20
0.0
  0
WIPEOUT
  5
19B
100
AcDbEntity
  8
None
370
               5
390
0
  6
Continuous
 62
               1
 92
        0
100
AcDbWipeout
 90
        0
 10
7.2279863295751738
 20
1.3202612591315415
 30
0.0
 11
12.350711488082311
 21
0.0
 31
0.0
 12
0.0
 22
12.350711488082311
 32
0.0
 13
1.0
 23
1.0
340
0
 70
               7
280
               1
281
              50
282
              50
283
               0
360
0
 71
               2
 91
        5
 14
-0.5
 24
0.5000000000000002
 14
0.5000000000000007
 24
0.5000000000000002
 14
0.5000000000000007
 24
0.4014567297459418
 14
-0.5
 24
0.4014567297459418
 14
-0.5
 24
0.5000000000000002
  0
MTEXT
  5
19C
100
AcDbEntity
  8
None
390
0
 62
               1
100
AcDbMText
 10
7.2279863295751738
 20
2.3427623789232053
 30
0.0
 40
0.7579186197916666
 41
0.0
 71
               1
 72
               1
  1
{\C192;\lNon plated alignment hole}
  7
Arial
 73
               1
 44
0.9673603504928806
  0
LINE
  5
19D
100
AcDbEntity
  8
Dimension
370
               5
390
0
  6
Continuous
 62
               1
100
AcDbLine
 10
2.469916145876482
 20
1.3992533686649509
 30
0.0
 11
7.1533420736162725
 21
-1.0808312770979356
 31
0.0
  0
SOLID
  5
19E
100
AcDbEntity
  8
Dimension
370
               5
390
0
 62
               1
100
AcDbTrace
 10
2.469916145876482
 20
1.3992533686649509
 30
0.0
 11
3.0035785300171689
 21
1.276047699366635
 31
0.0
 12
2.8704784929373286
 22
1.0257229370920016
 32
0.0
 13
2.8704784929373286
 23
1.0257229370920016
 33
0.0
  0
LINE
  5
19F
100
AcDbEntity
  8
Dimension
370
               5
390
0
  6
Continuous
 62
               1
100
AcDbLine
 10
7.1533420736162725
 20
-1.0808312770979356
 30
0.0
 11
9.1533360762596203
 21
-1.0808312770979356
 31
0.0
  0
WIPEOUT
  5
1A0
100
AcDbEntity
  8
Dimension
370
               5
390
0
  6
Continuous
 62
               1
 92
        0
100
AcDbWipeout
 90
        0
 10
9.1533360762596203
 20
-1.6893723352229344
 30
0.0
 11
7.6305756309772619
 21
0.0
 31
0.0
 12
0.0
 22
7.6305756309772619
 32
0.0
 13
1.0
 23
1.0
340
0
 70
               7
280
               1
281
              50
282
              50
283
               0
360
0
 71
               2
 91
        5
 14
-0.5
 24
0.5000000000000003
 14
0.4999999999999986
 24
0.5000000000000003
 14
0.4999999999999986
 24
0.3404993050184703
 14
-0.5
 24
0.3404993050184703
 14
-0.5
 24
0.5000000000000003
  0
MTEXT
  5
1A1
100
AcDbEntity
  8
Dimension
390
0
 62
               1
100
AcDbMText
 10
9.1533360762596203
 20
-0.6668690174494995
 30
0.0
 40
0.7579202490234376
 41
0.0
 71
               1
 72
               1
  1
{\C192;\l0.76 x 0.25 mm }
  7
Helvetica
 73
               1
 44
0.9673603504928806
  0
WIPEOUT
  5
1A2
100
AcDbEntity
  8
None
370
               5
390
0
  6
Continuous
 62
               1
 92
        0
100
AcDbWipeout
 90
        0
 10
6.9630961989768707
 20
-9.4797387408684557
 30
0.0
 11
12.117878889991573
 21
0.0
 31
0.0
 12
0.0
 22
12.117878889991573
 32
0.0
 13
1.0
 23
1.0
340
0
 70
               7
280
               1
281
              50
282
              50
283
               0
360
0
 71
               2
 91
        5
 14
-0.5
 24
0.5000000000000003
 14
0.4999999999999997
 24
0.5000000000000003
 14
0.4999999999999997
 24
0.3995633220096621
 14
-0.5
 24
0.3995633220096621
 14
-0.5
 24
0.5000000000000003
  0
MTEXT
  5
1A3
100
AcDbEntity
  8
None
390
0
 62
               1
100
AcDbMText
 10
6.9630961989768707
 20
-8.4572376210767928
 30
0.0
 40
0.7579186197916666
 41
0.0
 71
               1
 72
               1
  1
{\C192;\lNon plated mounting hole}
  7
Arial
 73
               1
 44
0.9673603504928806
  0
LINE
  5
1A4
100
AcDbEntity
  8
None
370
               9
390
0
  6
Continuous
 62
               1
100
AcDbLine
 10
10.743102073616285
 20
-12.012659240868466
 30
0.0
 11
7.2655620736162518
 21
-12.012659240868466
 31
0.0
  0
WIPEOUT
  5
1A5
100
AcDbEntity
  8
None
370
               9
390
0
  6
Continuous
 62
               1
 92
        0
100
AcDbWipeout
 90
        0
 10
10.993102073616285
 20
-12.641518740868449
 30
0.0
 11
14.710787939649009
 21
0.0
 31
0.0
 12
0.0
 22
14.710787939649009
 32
0.0
 13
1.0
 23
1.0
340
0
 70
               7
280
               1
281
              50
282
              50
283
               0
360
0
 71
               2
 91
        5
 14
-0.5
 24
0.5000000000000002
 14
0.5000000000000002
 24
0.5000000000000002
 14
0.5000000000000002
 24
0.4172661923349678
 14
-0.5
 24
0.4172661923349678
 14
-0.5
 24
0.5000000000000002
  0
MTEXT
  5
1A6
100
AcDbEntity
  8
None
390
0
 62
               1
100
AcDbMText
 10
10.993102073616285
 20
-11.619017621076786
 30
0.0
 40
0.7579186197916666
 41
0.0
 71
               1
 72
               1
  1
{\C192;\l8.2 x 8.2mm thermal /GND pad}
  7
Arial
 73
               1
 44
0.9673603504928806
  0
LINE
  5
1A7
100
AcDbEntity
  8
None
370
               9
390
0
  6
Continuous
 62
               1
100
AcDbLine
 10
7.2655620736162518
 20
-12.012659240868466
 30
0.0
 11
-1.9966579263837616
 21
2.8373407591315427
 31
0.0
  0
SOLID
  5
1A8
100
AcDbEntity
  8
None
370
               9
390
0
 62
               1
100
AcDbTrace
 10
-1.9966579263837616
 20
2.8373407591315427
 30
0.0
 11
-1.4055401086602188
 21
2.2665049179674628
 31
0.0
 12
-1.7701528001875937
 22
2.0474235104310194
 32
0.0
 13
-1.7701528001875937
 23
2.0474235104310194
 33
0.0
  0
LINE
  5
1A9
100
AcDbEntity
  8
Dimension
370
               5
390
0
  6
Continuous
 62
               1
100
AcDbLine
 10
-10.014157292960761
 20
9.8123407591315299
 30
0.0
 11
-16.105251072385713
 21
9.8123407591315299
 31
0.0
  0
LINE
  5
1AA
100
AcDbEntity
  8
Dimension
370
               5
390
0
  6
Continuous
 62
               1
100
AcDbLine
 10
-7.6016572929607378
 20
8.6298407591315325
 30
0.0
 11
-16.105251072385713
 21
8.6298407591315325
 31
0.0
  0
WIPEOUT
  5
1AB
100
AcDbEntity
  8
None
370
               5
390
0
  6
Continuous
 62
               1
 92
        0
100
AcDbWipeout
 90
        0
 10
16.828718406388305
 20
-1.5858998179400317
 30
0.0
 11
4.7730682608602422
 21
0.0
 31
0.0
 12
0.0
 22
4.7730682608602422
 32
0.0
 13
1.0
 23
1.0
340
0
 70
               7
280
               1
281
              50
282
              50
283
               0
360
0
 71
               2
 91
        5
 14
-0.5
 24
0.5000000000000007
 14
0.5000000000000022
 24
0.5000000000000007
 14
0.5000000000000022
 24
0.2450110843835607
 14
-0.5
 24
0.2450110843835607
 14
-0.5
 24
0.5000000000000007
  0
MTEXT
  5
1AC
100
AcDbEntity
  8
None
390
0
 62
               1
100
AcDbMText
 10
16.828718406388305
 20
-0.5633986981483681
 30
0.0
 40
0.7579186197916666
 41
0.0
 71
               1
 72
               1
  1
{\C192;\lpad (x 88)}
  7
Arial
 73
               1
 44
0.9673603504928806
  0
DIMENSION
  5
1AD
100
AcDbEntity
  8
Dimension
370
               5
390
0
  6
Continuous
 62
               1
100
AcDbDimension
  2
*D4
 10
-9.3791579263836979
 20
15.140418174622106
 30
0.0
 11
-4.7583315952232397
 21
15.140418174622106
 31
0.0
 70
             128
 71
               5
 72
               1
 41
1.0
 42
0.0
  3
IE Standard
100
AcDbAlignedDimension
 13
-7.0916579263836752
 23
8.6298407591315325
 33
0.0
 14
-9.3791579263836979
 24
9.8123407591315299
 34
0.0
100
AcDbRotatedDimension
1001
ACAD
1000
DSTYLE
1002
{
1070
             271
1070
               2
1070
             340
1005
33
1070
               3
1000
<>mm*
1070
             174
1070
               0
1070
             147
1040
0.09921875
1002
}
  0
DIMENSION
  5
1AE
100
AcDbEntity
  8
Dimension
370
               5
390
0
  6
Continuous
 62
               1
100
AcDbDimension
  2
*D5
 10
-9.3791579263836979
 20
18.182420377200209
 30
0.0
 11
-3.486916579344097
 21
18.182420377200209
 31
0.0
 70
             128
 71
               5
 72
               1
 41
1.0
 42
0.0
  3
IE Standard
100
AcDbAlignedDimension
 13
-10.629157926383698
 23
11.062340759131537
 33
0.0
 14
-9.3791579263836979
 24
9.8123407591315299
 34
0.0
100
AcDbRotatedDimension
1001
ACAD
1000
DSTYLE
1002
{
1070
             271
1070
               2
1070
             340
1005
33
1070
              71
1070
               1
1070
              47
1040
0.13
1070
              48
1040
0.13
1070
               3
1000
<>mm (x4)
1070
             174
1070
               0
1070
             147
1040
0.09921875
1002
}
  0
DIMENSION
  5
1AF
100
AcDbEntity
  8
Dimension
370
               5
390
0
  6
Continuous
 62
               1
100
AcDbDimension
  2
*D6
 10
-14.757778602577375
 20
9.8123407591315299
 30
0.0
 11
-14.757778602577375
 21
13.790961435325208
 31
0.0
 70
             128
 71
               5
 72
               1
 41
1.0
 42
0.0
  3
IE Standard
100
AcDbAlignedDimension
 13
-7.0916579263836752
 23
8.6298407591315325
 33
0.0
 14
-9.3791579263836979
 24
9.8123407591315299
 34
0.0
 50
90.0
100
AcDbRotatedDimension
1001
ACAD
1000
DSTYLE
1002
{
1070
             271
1070
               2
1070
             340
1005
33
1070
             174
1070
               0
1070
             147
1040
0.09921875
1002
}
  0
DIMENSION
  5
1B0
100
AcDbEntity
  8
Dimension
370
               5
390
0
  6
Continuous
 62
               1
100
AcDbDimension
  2
*D7
 10
-20.28691657934408
 20
11.062340759131537
 30
0.0
 11
-20.28691657934408
 21
15.590961435325205
 31
0.0
 70
             128
 71
               5
 72
               1
 41
1.0
 42
0.0
  3
IE Standard
100
AcDbAlignedDimension
 13
-9.3791579263836979
 23
9.8123407591315299
 33
0.0
 14
-10.629157926383698
 24
11.062340759131537
 34
0.0
 50
90.0
100
AcDbRotatedDimension
1001
ACAD
1000
DSTYLE
1002
{
1070
             271
1070
               2
1070
             340
1005
33
1070
              71
1070
               1
1070
              47
1040
0.13
1070
              48
1040
0.13
1070
               3
1000
<>mm (x4)
1070
             174
1070
               0
1070
             147
1040
0.09921875
1002
}
  0
DIMENSION
  5
1B1
100
AcDbEntity
  8
Dimension
370
               5
390
0
  6
Continuous
 62
               1
100
AcDbDimension
  2
*D8
 10
-15.764418622412222
 20
7.7748407591315285
 30
0.0
 11
-15.764418622412222
 21
3.4498407591315257
 31
0.0
 70
             128
 71
               5
 72
               1
 41
1.0
 42
0.0
  3
IE Standard
100
AcDbAlignedDimension
 13
-7.9466579263836934
 23
-0.8751592408684772
 33
0.0
 14
-7.9466579263836934
 24
7.7748407591315285
 34
0.0
 50
90.0
100
AcDbRotatedDimension
1001
ACAD
1000
DSTYLE
1002
{
1070
             271
1070
               2
1070
             340
1005
33
1070
             147
1040
0.09921875
1002
}
  0
DIMENSION
  5
1B2
100
AcDbEntity
  8
Dimension
370
               5
390
0
  6
Continuous
 62
               1
100
AcDbDimension
  2
*D9
 10
-21.78691657934408
 20
8.6298407591315325
 30
0.0
 11
-21.78691657934408
 21
3.1909614353252067
 31
0.0
 70
             128
 71
               5
 72
               1
 41
1.0
 42
0.0
  3
IE Standard
100
AcDbAlignedDimension
 13
-7.0916579263836752
 23
-1.7301592408684741
 33
0.0
 14
-7.0916579263836752
 24
8.6298407591315325
 34
0.0
 50
90.0
100
AcDbRotatedDimension
1001
ACAD
1000
DSTYLE
1002
{
1070
             271
1070
               2
1070
             340
1005
33
1070
             147
1040
0.09921875
1002
}
  0
DIMENSION
  5
1B3
100
AcDbEntity
  8
Dimension
370
               5
390
0
  6
Continuous
 62
               1
100
AcDbDimension
  2
*D10
 10
-12.586916579344091
 20
-2.9126592408684644
 30
0.0
 11
-12.586916579344091
 21
-0.3726592408684653
 31
0.0
 71
               5
 72
               1
 41
1.0
 42
0.0
  3
IE Standard
100
AcDbAlignedDimension
 13
-9.3791579263836979
 23
2.1673407591315339
 33
0.0
 14
-9.3791579263836979
 24
-2.9126592408684644
 34
0.0
 50
90.0
100
AcDbRotatedDimension
1001
ACAD
1000
DSTYLE
1002
{
1070
             271
1070
               2
1070
             340
1005
33
1070
             147
1040
0.09921875
1002
}
  0
DIMENSION
  5
1B4
100
AcDbEntity
  8
Dimension
370
               5
390
0
  6
Continuous
 62
               1
100
AcDbDimension
  2
*D11
 10
-7.0916579263836752
 20
-6.7090385646747919
 30
0.0
 11
-2.7666579263836866
 21
-6.7090385646747919
 31
0.0
 71
               5
 72
               1
 41
1.0
 42
0.0
  3
IE Standard
100
AcDbAlignedDimension
 13
1.5583420736163021
 23
-1.7301592408684741
 33
0.0
 14
-7.0916579263836752
 24
-1.7301592408684741
 34
0.0
100
AcDbRotatedDimension
1001
ACAD
1000
DSTYLE
1002
{
1070
             271
1070
               2
1070
             340
1005
33
1070
             147
1040
0.09921875
1002
}
  0
DIMENSION
  5
1B5
100
AcDbEntity
  8
Dimension
370
               5
390
0
  6
Continuous
 62
               1
100
AcDbDimension
  2
*D12
 10
-7.9466579263836934
 20
-10.109038564674798
 30
0.0
 11
-2.766657926383715
 21
-10.109038564674798
 31
0.0
 71
               5
 72
               1
 41
1.0
 42
0.0
  3
IE Standard
100
AcDbAlignedDimension
 13
2.4133420736162634
 23
-0.8751592408684772
 33
0.0
 14
-7.9466579263836934
 24
-0.8751592408684772
 34
0.0
100
AcDbRotatedDimension
1001
ACAD
1000
DSTYLE
1002
{
1070
             271
1070
               2
1070
             340
1005
33
1070
             147
1040
0.09921875
1002
}
  0
DIMENSION
  5
1B6
100
AcDbEntity
  8
Dimension
370
               5
390
0
  6
Continuous
 62
               1
100
AcDbDimension
  2
*D13
 10
-9.3791579263836979
 20
-13.009038564674796
 30
0.0
 11
-3.0166579263836866
 21
-13.009038564674796
 31
0.0
 71
               5
 72
               1
 41
1.0
 42
0.0
  3
IE Standard
100
AcDbAlignedDimension
 13
3.3458420736163248
 23
-2.9126592408684644
 33
0.0
 14
-9.3791579263836979
 24
-2.9126592408684644
 34
0.0
100
AcDbRotatedDimension
1001
ACAD
1000
DSTYLE
1002
{
1070
             271
1070
               3
1070
             340
1005
33
1070
              71
1070
               1
1070
              47
1040
0.13
1070
              48
1040
0.13
1070
               3
1000
<>mm (x4)
1070
             147
1040
0.09921875
1002
}
  0
DIMENSION
  5
1B7
100
AcDbEntity
  8
Dimension
370
               5
390
0
  6
Continuous
 62
               1
100
AcDbDimension
  2
*D14
 10
-0.9666579263836752
 20
12.990961435325204
 30
0.0
 11
2.013083420655903
 21
12.990961435325204
 31
0.0
 70
             128
 71
               5
 72
               1
 41
1.0
 42
0.0
  3
IE Standard
100
AcDbAlignedDimension
 13
-0.5666579263836979
 23
8.6298407591315325
 33
0.0
 14
-0.9666579263836752
 24
8.6298407591315325
 34
0.0
100
AcDbRotatedDimension
1001
ACAD
1000
DSTYLE
1002
{
1070
             271
1070
               2
1070
             340
1005
33
1070
               3
1000
<>mm typ.
1070
             174
1070
               0
1070
             147
1040
0.09921875
1002
}
  0
DIMENSION
  5
1B8
100
AcDbEntity
  8
Dimension
370
               5
390
0
  6
Continuous
 62
               1
100
AcDbDimension
  2
*D15
 10
3.045916623627221
 20
7.5734548976985181
 30
0.0
 11
8.4130804226353657
 21
3.6909614353251654
 31
0.0
 70
               3
 71
               5
 72
               1
 41
1.0
 42
0.0
  3
IE Standard
100
AcDbDiametricDimension
 15
3.6457675236054001
 25
6.9712266205646003
 35
0.0
 40
4.6298480381771281
1001
ACAD
1000
DSTYLE
1002
{
1070
             271
1070
               2
1070
             172
1070
               0
1070
             289
1070
               0
1070
             342
1005
48
1070
             340
1005
33
1070
              75
1070
               1
1070
              76
1070
               1
1070
              71
1070
               1
1070
              47
1040
0.03
1070
              48
1040
0.03
1070
               3
1000
mm (x2)
1070
             174
1070
               0
1070
             147
1040
0.09921875
1002
}
  0
DIMENSION
  5
1B9
100
AcDbEntity
  8
Dimension
370
               5
390
0
  6
Continuous
 62
               1
100
AcDbDimension
  2
*D16
 10
2.800309632897779
 20
-2.3206969480445778
 30
0.0
 11
8.7130804226354055
 21
-7.1090385646748109
 31
0.0
 70
               3
 71
               5
 72
               1
 41
1.0
 42
0.0
  3
IE Standard
100
AcDbDiametricDimension
 15
3.8913745143348706
 25
-3.5046215336923652
 35
0.0
 40
4.9015887415784682
1001
ACAD
1000
DSTYLE
1002
{
1070
             271
1070
               2
1070
             172
1070
               0
1070
             289
1070
               0
1070
             342
1005
48
1070
             340
1005
33
1070
              75
1070
               1
1070
              76
1070
               1
1070
              71
1070
               1
1070
              47
1040
0.05
1070
              48
1040
0.05
1070
               3
1000
mm (x4)
1070
             174
1070
               0
1070
             147
1040
0.09921875
1002
}
  0
DIMENSION
  5
1BA
100
AcDbEntity
  8
Dimension
370
               5
390
0
  6
Continuous
 62
               1
100
AcDbDimension
  2
*D17
 10
8.21308342065592
 20
7.2723407591315308
 30
0.0
 11
8.21308342065592
 21
8.5423407591315303
 31
0.0
 71
               5
 72
               1
 41
1.0
 42
0.0
  3
IE Standard
100
AcDbAlignedDimension
 13
3.3458420736163248
 23
9.8123407591315299
 33
0.0
 14
3.3458420736163248
 24
7.2723407591315308
 34
0.0
 50
90.0
100
AcDbRotatedDimension
1001
ACAD
1000
DSTYLE
1002
{
1070
             271
1070
               2
1070
             340
1005
33
1070
             147
1040
0.09921875
1002
}
  0
ENDSEC
  0
SECTION
  2
OBJECTS
  0
DICTIONARY
  5
19
100
AcDbDictionary
280
               0
281
               1
  3
ACAD_GROUP
350
1A
  3
ACAD_MLINESTYLE
350
1B
  3
ACAD_LAYOUT
350
1E
  3
ACAD_PLOTSETTINGS
350
22
  3
ACAD_PLOTSTYLENAME
350
1F
  3
ACAD_WIPEOUT_VARS
350
23
  0
DICTIONARY
  5
1A
102
{ACAD_REACTORS
330
19
102
}
100
AcDbDictionary
280
               0
281
               1
  0
DICTIONARY
  5
1B
102
{ACAD_REACTORS
330
19
102
}
100
AcDbDictionary
280
               0
281
               1
  3
Standard
350
1C
  0
MLINESTYLE
  5
1C
102
{ACAD_REACTORS
330
1B
102
}
100
AcDbMlineStyle
  2
Standard
 70
               0
  3

 62
               0
 51
90.0
 52
90.0
 71
               2
 49
0.5
 62
             256
  6
ByLayer
 49
-0.5
 62
             256
  6
ByLayer
  0
ACDBDICTIONARYWDFLT
  5
1F
102
{ACAD_REACTORS
330
19
102
}
100
AcDbDictionary
281
               1
  3
Normal
350
1D
100
AcDbDictionaryWithDefault
340
1D
  0
ACDBPLACEHOLDER
  5
1D
102
{ACAD_REACTORS
330
1F
102
}
  0
LAYOUT
  5
20
102
{ACAD_REACTORS
330
1E
102
}
100
AcDbPlotSettings
  1

  2

  4

  6

 40
0.0
 41
0.0
 42
0.0
 43
0.0
 44
0.0
 45
0.0
 46
0.0
 47
0.0
 48
0.0
 49
0.0
140
0.0
141
0.0
142
1.0
143
1.0
 70
            1024
 72
               0
 73
               0
 74
               0
  7

 75
               0
147
1.0
148
0.0
149
0.0
100
AcDbLayout
  1
Model
 70
               0
 71
               0
 10
0.0
 20
0.0
 11
0.0
 21
0.0
 12
0.0
 22
0.0
 32
0.0
 14
0.0
 24
0.0
 34
0.0
 15
0.0
 25
0.0
 35
0.0
146
0.0
 13
0.0
 23
0.0
 33
0.0
 16
0.0
 26
0.0
 36
0.0
 17
0.0
 27
0.0
 37
0.0
 76
               0
330
A
331
0
345
0
346
0
  0
LAYOUT
  5
21
102
{ACAD_REACTORS
330
1E
102
}
100
AcDbPlotSettings
  1

  2

  4

  6

 40
0.0
 41
0.0
 42
0.0
 43
0.0
 44
0.0
 45
0.0
 46
0.0
 47
0.0
 48
0.0
 49
0.0
140
0.0
141
0.0
142
1.0
143
1.0
 70
               0
 72
               0
 73
               0
 74
               0
  7

 75
               0
147
1.0
148
0.0
149
0.0
100
AcDbLayout
  1
Layout1
 70
               0
 71
               0
 10
0.0
 20
0.0
 11
0.0
 21
0.0
 12
0.0
 22
0.0
 32
0.0
 14
0.0
 24
0.0
 34
0.0
 15
0.0
 25
0.0
 35
0.0
146
0.0
 13
0.0
 23
0.0
 33
0.0
 16
0.0
 26
0.0
 36
0.0
 17
0.0
 27
0.0
 37
0.0
 76
               0
330
B
331
0
345
0
346
0
  0
DICTIONARY
  5
1E
102
{ACAD_REACTORS
330
19
102
}
100
AcDbDictionary
280
               0
281
               1
  3
Layout1
350
21
  3
Model
350
20
  0
DICTIONARY
  5
22
102
{ACAD_REACTORS
330
19
102
}
100
AcDbDictionary
280
               0
281
               1
  0
WIPEOUTVARIABLES
  5
23
100
AcDbWipeoutVariables
 70
               0
  0
ENDSEC
  0
EOF
