  0
SECTION
  2
HEADER
  9
$ACADVER
  1
AC1015
  9
$ACADMAINTVER
 70
               6
  9
$DWGCODEPAGE
  3
ANSI_1252
  9
$INSBASE
 10
0.0
 20
0.0
 30
0.0
  9
$EXTMIN
 10
-24.0
 20
-19.276153999999998
 30
-0.34925
  9
$EXTMAX
 10
24.595001488082318
 20
20.0
 30
0.34925
  9
$LIMMIN
 10
0.0
 20
0.0
  9
$LIMMAX
 10
0.0
 20
0.0
  9
$ORTHOMODE
 70
               0
  9
$REGENMODE
 70
               1
  9
$FILLMODE
 70
               1
  9
$QTEXTMODE
 70
               0
  9
$MIRRTEXT
 70
               1
  9
$LTSCALE
 40
1.27
  9
$ATTMODE
 70
               1
  9
$TEXTSIZE
 40
0.2
  9
$TRACEWID
 40
1.0
  9
$TEXTSTYLE
  7
Standard
  9
$CLAYER
  8
None
  9
$CELTYPE
  6
Continuous
  9
$CECOLOR
 62
             256
  9
$CELTSCALE
 40
1.0
  9
$DISPSILH
 70
               0
  9
$DIMSCALE
 40
1.0
  9
$DIMASZ
 40
0.5612060546875
  9
$DIMEXO
 40
0.396875
  9
$DIMDLI
 40
10.16
  9
$DIMRND
 40
0.0
  9
$DIMDLE
 40
1.5874999999999999
  9
$DIMEXE
 40
0.79375
  9
$DIMTP
 40
0.0
  9
$DIMTM
 40
0.0
  9
$DIMTXT
 40
0.7579186197916666
  9
$DIMCEN
 40
0.0
  9
$DIMTSZ
 40
0.0
  9
$DIMTOL
 70
               0
  9
$DIMLIM
 70
               0
  9
$DIMTIH
 70
               0
  9
$DIMTOH
 70
               0
  9
$DIMSE1
 70
               0
  9
$DIMSE2
 70
               0
  9
$DIMTAD
 70
               1
  9
$DIMZIN
 70
              11
  9
$DIMBLK
  1
VW_SLASH
  9
$DIMASO
 70
               1
  9
$DIMSHO
 70
               1
  9
$DIMPOST
  1
<>mm
  9
$DIMAPOST
  1
[]
  9
$DIMALT
 70
               0
  9
$DIMALTD
 70
               1
  9
$DIMALTF
 40
1.0
  9
$DIMLFAC
 40
1.0
  9
$DIMTOFL
 70
               1
  9
$DIMTVP
 40
0.0
  9
$DIMTIX
 70
               1
  9
$DIMSOXD
 70
               0
  9
$DIMSAH
 70
               0
  9
$DIMBLK1
  1

  9
$DIMBLK2
  1

  9
$DIMSTYLE
  2
Arch
  9
$DIMCLRD
 70
               0
  9
$DIMCLRE
 70
               0
  9
$DIMCLRT
 70
               0
  9
$DIMTFAC
 40
1.0
  9
$DIMGAP
 40
1.5874999999999999
  9
$DIMJUST
 70
               0
  9
$DIMSD1
 70
               0
  9
$DIMSD2
 70
               0
  9
$DIMTOLJ
 70
               1
  9
$DIMTZIN
 70
              11
  9
$DIMALTZ
 70
              11
  9
$DIMALTTZ
 70
              11
  9
$DIMUPT
 70
               0
  9
$DIMDEC
 70
               1
  9
$DIMTDEC
 70
               1
  9
$DIMALTU
 70
               2
  9
$DIMALTTD
 70
               2
  9
$DIMTXSTY
  7
Arial
  9
$DIMAUNIT
 70
               0
  9
$DIMADEC
 70
               2
  9
$DIMALTRND
 40
0.0
  9
$DIMAZIN
 70
               0
  9
$DIMDSEP
 70
              46
  9
$DIMATFIT
 70
               0
  9
$DIMFRAC
 70
               2
  9
$DIMLDRBLK
  1

  9
$DIMLUNIT
 70
               2
  9
$DIMLWD
 70
              -2
  9
$DIMLWE
 70
              -2
  9
$DIMTMOVE
 70
               0
  9
$LUNITS
 70
               2
  9
$LUPREC
 70
               4
  9
$SKETCHINC
 40
0.1
  9
$FILLETRAD
 40
0.0
  9
$AUNITS
 70
               0
  9
$AUPREC
 70
               0
  9
$MENU
  1
acad
  9
$ELEVATION
 40
0.0
  9
$PELEVATION
 40
0.0
  9
$THICKNESS
 40
0.0
  9
$LIMCHECK
 70
               0
  9
$CHAMFERA
 40
0.0
  9
$CHAMFERB
 40
0.0
  9
$CHAMFERC
 40
0.0
  9
$CHAMFERD
 40
0.0
  9
$SKPOLY
 70
               0
  9
$TDCREATE
 40
2454964.494189815
  9
$TDUCREATE
 40
0.000000000
  9
$TDUPDATE
 40
2454964.494189815
  9
$TDUUPDATE
 40
0.000000000
  9
$TDINDWG
 40
0.0000000000
  9
$TDUSRTIMER
 40
0.0000000000
  9
$USRTIMER
 70
               1
  9
$ANGBASE
 50
0.0
  9
$ANGDIR
 70
               0
  9
$PDMODE
 70
               1
  9
$PDSIZE
 40
-2.0
  9
$PLINEWID
 40
0.0
  9
$SPLFRAME
 70
               0
  9
$SPLINETYPE
 70
               6
  9
$SPLINESEGS
 70
               8
  9
$HANDSEED
  5
196
  9
$SURFTAB1
 70
               6
  9
$SURFTAB2
 70
               6
  9
$SURFTYPE
 70
               6
  9
$SURFU
 70
               6
  9
$SURFV
 70
               6
  9
$UCSBASE
  2

  9
$UCSNAME
  2

  9
$UCSORG
 10
0.0
 20
0.0
 30
0.0
  9
$UCSXDIR
 10
1.0
 20
0.0
 30
0.0
  9
$UCSYDIR
 10
0.0
 20
1.0
 30
0.0
  9
$UCSORTHOREF
  2

  9
$UCSORTHOVIEW
 70
               0
  9
$UCSORGTOP
 10
0.0
 20
0.0
 30
0.0
  9
$UCSORGBOTTOM
 10
0.0
 20
0.0
 30
0.0
  9
$UCSORGLEFT
 10
0.0
 20
0.0
 30
0.0
  9
$UCSORGRIGHT
 10
0.0
 20
0.0
 30
0.0
  9
$UCSORGFRONT
 10
0.0
 20
0.0
 30
0.0
  9
$UCSORGBACK
 10
0.0
 20
0.0
 30
0.0
  9
$PUCSBASE
  2

  9
$PUCSNAME
  2

  9
$PUCSORG
 10
0.0
 20
0.0
 30
0.0
  9
$PUCSXDIR
 10
1.0
 20
0.0
 30
0.0
  9
$PUCSYDIR
 10
0.0
 20
1.0
 30
0.0
  9
$PUCSORTHOREF
  2

  9
$PUCSORTHOVIEW
 70
               0
  9
$PUCSORGTOP
 10
0.0
 20
0.0
 30
0.0
  9
$PUCSORGBOTTOM
 10
0.0
 20
0.0
 30
0.0
  9
$PUCSORGLEFT
 10
0.0
 20
0.0
 30
0.0
  9
$PUCSORGRIGHT
 10
0.0
 20
0.0
 30
0.0
  9
$PUCSORGFRONT
 10
0.0
 20
0.0
 30
0.0
  9
$PUCSORGBACK
 10
0.0
 20
0.0
 30
0.0
  9
$USERI1
 70
               0
  9
$USERI2
 70
               0
  9
$USERI3
 70
               0
  9
$USERI4
 70
               0
  9
$USERI5
 70
               0
  9
$USERR1
 40
0.0
  9
$USERR2
 40
0.0
  9
$USERR3
 40
0.0
  9
$USERR4
 40
0.0
  9
$USERR5
 40
0.0
  9
$WORLDVIEW
 70
               1
  9
$SHADEDGE
 70
               3
  9
$SHADEDIF
 70
              70
  9
$TILEMODE
 70
               1
  9
$MAXACTVP
 70
              64
  9
$PINSBASE
 10
0.0
 20
0.0
 30
0.0
  9
$PLIMCHECK
 70
               0
  9
$PEXTMIN
 10
1.0000000000000000E+20
 20
1.0000000000000000E+20
 30
1.0000000000000000E+20
  9
$PEXTMAX
 10
-1.0000000000000000E+20
 20
-1.0000000000000000E+20
 30
-1.0000000000000000E+20
  9
$PLIMMIN
 10
0.0
 20
0.0
  9
$PLIMMAX
 10
12.0
 20
9.0
  9
$UNITMODE
 70
               0
  9
$VISRETAIN
 70
               0
  9
$PLINEGEN
 70
               1
  9
$PSLTSCALE
 70
               0
  9
$TREEDEPTH
 70
            3020
  9
$CMLSTYLE
  2
Standard
  9
$CMLJUST
 70
               0
  9
$CMLSCALE
 40
1.0
  9
$PROXYGRAPHICS
 70
               0
  9
$MEASUREMENT
 70
               1
  9
$CELWEIGHT
370
               0
  9
$ENDCAPS
280
               0
  9
$JOINSTYLE
280
               0
  9
$LWDISPLAY
290
               1
  9
$INSUNITS
 70
               4
  9
$HYPERLINKBASE
  1

  9
$STYLESHEET
  1

  9
$XEDIT
290
               1
  9
$CEPSNTYPE
380
               0
  9
$PSTYLEMODE
290
               1
  9
$FINGERPRINTGUID
  2

  9
$VERSIONGUID
  2

  9
$EXTNAMES
290
               1
  9
$PSVPSCALE
 40
0.0
  0
ENDSEC
  0
SECTION
  2
CLASSES
  0
CLASS
  1
LWPOLYLINE
  2
AcDbPolyline
  3
AutoCAD 2000
 90
        0
280
               0
281
               1
  0
CLASS
  1
IMAGE
  2
AcDbRasterImage
  3
ISM
 90
      127
280
               0
281
               1
  0
CLASS
  1
OLE2FRAME
  2
AcDbOle2Frame
  3
AutoCAD 2000
 90
        0
280
               0
281
               1
  0
CLASS
  1
HATCH
  2
AcDbHatch
  3
AutoCAD 2000
 90
        0
280
               0
281
               1
  0
CLASS
  1
DICTIONARYVAR
  2
AcDbDictionaryVar
  3
AutoCAD 2000
 90
        0
280
               0
281
               0
  0
CLASS
  1
RASTERVARIABLES
  2
AcDbRasterVariables
  3
ISM
 90
        0
280
               0
281
               0
  0
CLASS
  1
IMAGEDEF
  2
AcDbRasterImageDef
  3
ISM
 90
        0
280
               0
281
               0
  0
CLASS
  1
IMAGEDEF_REACTOR
  2
AcDbRasterImageDefReactor
  3
ISM
 90
        1
280
               0
281
               0
  0
CLASS
  1
IDBUFFER
  2
AcDbIdBuffer
  3
AutoCAD 2000
 90
        0
280
               0
281
               0
  0
CLASS
  1
SPATIAL_FILTER
  2
AcDbSpatialFilter
  3
AutoCAD 2000
 90
        0
280
               0
281
               0
  0
CLASS
  1
XRECORD
  2
AcDbXrecord
  3
AutoCAD 2000
 90
        0
280
               0
281
               0
  0
CLASS
  1
SORTENTSTABLE
  2
AcDbSortentsTable
  3
AutoCAD 2000
 90
        0
280
               0
281
               0
  0
CLASS
  1
LAYER_INDEX
  2
AcDbLayerIndex
  3
AutoCAD 2000
 90
        0
280
               0
281
               0
  0
CLASS
  1
SPATIAL_INDEX
  2
AcDbSpatialIndex
  3
AutoCAD 2000
 90
        0
280
               0
281
               0
  0
CLASS
  1
OBJECT_PTR
  2
CAseDLPNTableRecord
  3
"ASE-LPNTableRecord"
 90
        1
280
               0
281
               0
  0
CLASS
  1
LAYOUT
  2
AcDbLayout
  3
AutoCAD 2000
 90
        0
280
               0
281
               0
  0
CLASS
  1
PLOTSETTINGS
  2
AcDbPlotSettings
  3
AutoCAD 2000
 90
        0
280
               0
281
               0
  0
CLASS
  1
ACDBDICTIONARYWDFLT
  2
AcDbDictionaryWithDefault
  3
AutoCAD 2000
 90
        0
280
               0
281
               0
  0
CLASS
  1
ACDBPLACEHOLDER
  2
AcDbPlaceHolder
  3
AutoCAD 2000
 90
        0
280
               0
281
               0
  0
CLASS
  1
VBA_PROJECT
  2
AcDbVbaProject
  3
acadvba
 90
        0
280
               0
281
               0
  0
CLASS
  1
WIPEOUT
  2
AcDbWipeout
  3
WipeOut|AutoCAD Express Tool|expresstools@autodesk.com
 90
      127
280
               0
281
               1
  0
CLASS
  1
WIPEOUTVARIABLES
  2
AcDbWipeoutVariables
  3
WipeOut|AutoCAD Express Tool|expresstools@autodesk.com
 90
        0
280
               0
281
               0
  0
CLASS
  1
RTEXT
  2
RText
  3
RText|AutoCAD Express Tool|expresstools@autodesk.com
 90
        0
280
               0
281
               1
  0
CLASS
  1
ARCALIGNEDTEXT
  2
AcDbArcAlignedText
  3
ATEXT|AutoCAD Express Tool|expresstools@autodesk.com
 90
        0
280
               0
281
               1
  0
ENDSEC
  0
SECTION
  2
TABLES
  0
TABLE
  2
VPORT
  5
7
100
AcDbSymbolTable
 70
               1
  0
VPORT
  5
15
100
AcDbSymbolTableRecord
100
AcDbViewportTableRecord
  2
*ACTIVE
 70
               0
 10
0.0
 20
0.0
 11
1.0
 21
1.0
 12
0.2975007440411588
 22
0.3619230000000009
 13
0.0
 23
0.0
 14
1.0
 24
1.0
 15
0.0
 25
0.0
 16
0.0
 26
0.0
 36
1.0
 17
0.0
 27
0.0
 37
0.0
 40
39.276153999999998
 41
0.688564
 42
50.0
 43
0.0
 44
0.0
 50
0.0
 51
0.0
 71
               0
 72
            2000
 73
               1
 74
               1
 75
               0
 76
               0
 77
               0
 78
               0
281
               0
 65
               0
110
0.0
120
0.0
130
0.0
111
1.0
121
0.0
131
0.0
112
0.0
122
1.0
132
0.0
345
0
346
0
 79
               0
146
0.0
  0
ENDTAB
  0
TABLE
  2
LTYPE
  5
4
100
AcDbSymbolTable
 70
              16
  0
LTYPE
  5
11
100
AcDbSymbolTableRecord
100
AcDbLinetypeTableRecord
  2
ByBlock
 70
              64
  3

 72
              65
 73
               0
 40
0.0
  0
LTYPE
  5
12
100
AcDbSymbolTableRecord
100
AcDbLinetypeTableRecord
  2
ByLayer
 70
              64
  3

 72
              65
 73
               0
 40
0.0
  0
LTYPE
  5
13
100
AcDbSymbolTableRecord
100
AcDbLinetypeTableRecord
  2
Continuous
 70
              64
  3
Solid line
 72
              65
 73
               0
 40
0.0
  0
LTYPE
  5
37
100
AcDbSymbolTableRecord
100
AcDbLinetypeTableRecord
  2
STYLE_01
 70
               0
  3

 72
              65
 73
               2
 40
0.41664
 49
0.20828
 74
               0
 49
-0.20836
 74
               0
  0
LTYPE
  5
38
100
AcDbSymbolTableRecord
100
AcDbLinetypeTableRecord
  2
STYLE_02
 70
               0
  3

 72
              65
 73
               2
 40
0.6944250000000001
 49
0.48607
 74
               0
 49
-0.2083550000000001
 74
               0
  0
LTYPE
  5
39
100
AcDbSymbolTableRecord
100
AcDbLinetypeTableRecord
  2
STYLE_03
 70
               0
  3

 72
              65
 73
               2
 40
1.25
 49
1.0416400000000001
 74
               0
 49
-0.2083599999999999
 74
               0
  0
LTYPE
  5
3A
100
AcDbSymbolTableRecord
100
AcDbLinetypeTableRecord
  2
STYLE_04
 70
               0
  3

 72
              65
 73
               2
 40
1.5277099999999999
 49
1.3194249999999998
 74
               0
 49
-0.208285
 74
               0
  0
LTYPE
  5
3B
100
AcDbSymbolTableRecord
100
AcDbLinetypeTableRecord
  2
STYLE_05
 70
               0
  3

 72
              65
 73
               2
 40
0.20828
 49
0.069425
 74
               0
 49
-0.138855
 74
               0
  0
LTYPE
  5
3C
100
AcDbSymbolTableRecord
100
AcDbLinetypeTableRecord
  2
STYLE_06
 70
               0
  3

 72
              65
 73
               4
 40
1.0416400000000001
 49
0.625
 74
               0
 49
-0.20828
 74
               0
 49
0.06943
 74
               0
 49
-0.13893
 74
               0
  0
LTYPE
  5
3D
100
AcDbSymbolTableRecord
100
AcDbLinetypeTableRecord
  2
STYLE_07
 70
               0
  3

 72
              65
 73
               6
 40
1.875
 49
0.625
 74
               0
 49
-0.20828
 74
               0
 49
0.6250000000000001
 74
               0
 49
-0.2083599999999999
 74
               0
 49
0.06943
 74
               0
 49
-0.1389299999999999
 74
               0
  0
LTYPE
  5
3E
100
AcDbSymbolTableRecord
100
AcDbLinetypeTableRecord
  2
STYLE_08
 70
               0
  3

 72
              65
 73
               6
 40
1.25
 49
0.625
 74
               0
 49
-0.20828
 74
               0
 49
0.06943
 74
               0
 49
-0.13893
 74
               0
 49
0.0694299999999999
 74
               0
 49
-0.13893
 74
               0
  0
LTYPE
  5
3F
100
AcDbSymbolTableRecord
100
AcDbLinetypeTableRecord
  2
STYLE_09
 70
               0
  3

 72
              65
 73
               4
 40
5.0
 49
3.75
 74
               0
 49
-0.2777849999999998
 74
               0
 49
0.6944300000000003
 74
               0
 49
-0.2777849999999998
 74
               0
  0
LTYPE
  5
40
100
AcDbSymbolTableRecord
100
AcDbLinetypeTableRecord
  2
STYLE_10
 70
               0
  3

 72
              65
 73
               6
 40
5.9375
 49
3.75
 74
               0
 49
-0.2777849999999998
 74
               0
 49
0.6944300000000003
 74
               0
 49
-0.2777849999999998
 74
               0
 49
0.625
 74
               0
 49
-0.3125
 74
               0
  0
LTYPE
  5
41
100
AcDbSymbolTableRecord
100
AcDbLinetypeTableRecord
  2
STYLE_11
 70
               0
  3

 72
              65
 73
               2
 40
0.4166412353515625
 49
0.2777862548828125
 74
               0
 49
-0.13885498046875
 74
               0
  0
LTYPE
  5
42
100
AcDbSymbolTableRecord
100
AcDbLinetypeTableRecord
  2
STYLE_12
 70
               0
  3

 72
              65
 73
               4
 40
2.1527862548828125
 49
1.180572509765625
 74
               0
 49
-0.4166412353515625
 74
               0
 49
0.069427490234375
 74
               0
 49
-0.48614501953125
 74
               0
  0
LTYPE
  5
43
100
AcDbSymbolTableRecord
100
AcDbLinetypeTableRecord
  2
STYLE_13
 70
               0
  3

 72
              65
 73
               2
 40
1.875
 49
1.25
 74
               0
 49
-0.625
 74
               0
  0
ENDTAB
  0
TABLE
  2
LAYER
  5
2
100
AcDbSymbolTable
 70
               5
  0
LAYER
  5
14
100
AcDbSymbolTableRecord
100
AcDbLayerTableRecord
  2
0
 70
               0
 62
               7
  6
Continuous
290
               1
370
              -3
390
1D
  0
LAYER
  5
44
100
AcDbSymbolTableRecord
100
AcDbLayerTableRecord
  2
Defpoints
 70
               0
 62
               7
  6
Continuous
290
               0
370
              -3
390
1D
  0
LAYER
  5
45
100
AcDbSymbolTableRecord
100
AcDbLayerTableRecord
  2
None
 70
               0
 62
               7
  6
Continuous
290
               1
370
               5
390
1D
  0
LAYER
  5
46
100
AcDbSymbolTableRecord
100
AcDbLayerTableRecord
  2
Dimension
 70
               0
 62
               7
  6
Continuous
290
               1
370
               5
390
1D
  0
LAYER
  5
47
100
AcDbSymbolTableRecord
100
AcDbLayerTableRecord
  2
OUTLINE_PHO
 70
               0
 62
               4
  6
Continuous
290
               1
370
              15
390
1D
  0
ENDTAB
  0
TABLE
  2
STYLE
  5
3
100
AcDbSymbolTable
 70
               3
  0
STYLE
  5
17
100
AcDbSymbolTableRecord
100
AcDbTextStyleTableRecord
  2
Standard
 70
               0
 40
0.0
 41
1.0
 50
0.0
 71
               0
 42
0.0
  3
txt
  4

  0
STYLE
  5
35
100
AcDbSymbolTableRecord
100
AcDbTextStyleTableRecord
  2
Arial
 70
               0
 40
0.0
 41
1.0
 50
0.0
 71
               0
 42
0.0
  3
Arial
  4

1001
ACAD
1000
Arial
1071
        0
  0
STYLE
  5
36
100
AcDbSymbolTableRecord
100
AcDbTextStyleTableRecord
  2
New Century Schlbk
 70
               0
 40
0.0
 41
1.0
 50
0.0
 71
               0
 42
0.0
  3
New Century Schlbk
  4

1001
ACAD
1000
New Century Schlbk
1071
        0
  0
ENDTAB
  0
TABLE
  2
VIEW
  5
5
100
AcDbSymbolTable
 70
               0
  0
ENDTAB
  0
TABLE
  2
UCS
  5
6
100
AcDbSymbolTable
 70
               0
  0
ENDTAB
  0
TABLE
  2
APPID
  5
8
100
AcDbSymbolTable
 70
               1
  0
APPID
  5
16
100
AcDbSymbolTableRecord
100
AcDbRegAppTableRecord
  2
ACAD
 70
               0
  0
ENDTAB
  0
TABLE
  2
DIMSTYLE
  5
9
100
AcDbSymbolTable
 70
               3
100
AcDbDimStyleTable
 71
               0
  0
DIMSTYLE
105
18
100
AcDbSymbolTableRecord
100
AcDbDimStyleTableRecord
  2
Standard
 70
               0
  3

  4

 40
1.0
 41
0.18
 42
0.0625
 43
0.38
 44
0.18
 45
0.0
 46
0.0
 47
0.0
 48
0.0
 71
               0
 72
               0
 73
               1
 74
               1
 75
               0
 76
               0
 77
               0
 78
               0
 79
               0
140
0.18
141
0.09
142
0.0
143
25.399999999999999
144
1.0
145
0.0
146
1.0
147
0.09
148
0.0
170
               0
171
               2
172
               0
173
               0
174
               0
175
               0
176
               0
177
               0
178
               0
179
               0
271
               4
272
               4
273
               2
274
               2
275
               0
276
               0
277
               2
278
              46
279
               0
280
               0
281
               0
282
               0
283
               1
284
               0
285
               0
286
               0
288
               0
289
               3
340
17
341
0
342
0
343
0
344
0
371
              -2
372
              -2
  0
DIMSTYLE
105
50
100
AcDbSymbolTableRecord
100
AcDbDimStyleTableRecord
  2
IE Standard
 70
               0
  3
<>mm
  4
[]
 40
1.0
 41
0.79375
 42
0.4762500011827797
 43
6.9999859934672708
 44
0.9525000023655593
 45
0.0
 46
0.0
 47
0.0
 48
0.0
 71
               0
 72
               0
 73
               1
 74
               1
 75
               0
 76
               0
 77
               0
 78
              11
 79
               0
140
0.7579186197916666
141
0.0
142
0.0
143
1.0
144
1.0
145
0.0
146
1.0
147
0.0
148
0.0
170
               0
171
               1
172
               1
173
               0
174
               1
175
               0
176
               0
177
               0
178
               0
179
               2
271
               1
272
               1
273
               2
274
               2
275
               0
276
               2
277
               2
278
              46
279
               0
280
               0
281
               0
282
               0
283
               1
284
              11
285
              11
286
              11
288
               0
289
               0
340
35
341
4C
342
48
343
0
344
0
371
              -2
372
              -2
  0
DIMSTYLE
105
56
100
AcDbSymbolTableRecord
100
AcDbDimStyleTableRecord
  2
Arch
 70
               0
  3
<>mm
  4
[]
 40
1.0
 41
0.5612060546875
 42
0.396875
 43
10.16
 44
0.79375
 45
0.0
 46
1.5874999999999999
 47
0.0
 48
0.0
 71
               0
 72
               0
 73
               0
 74
               0
 75
               0
 76
               0
 77
               1
 78
              11
 79
               0
140
0.7579186197916666
141
0.0
142
0.0
143
1.0
144
1.0
145
0.0
146
1.0
147
1.5874999999999999
148
0.0
170
               0
171
               1
172
               1
173
               0
174
               1
175
               0
176
               0
177
               0
178
               0
179
               2
271
               1
272
               1
273
               2
274
               2
275
               0
276
               2
277
               2
278
              46
279
               0
280
               0
281
               0
282
               0
283
               1
284
              11
285
              11
286
              11
288
               0
289
               0
340
35
341
48
342
51
343
0
344
0
371
              -2
372
              -2
  0
ENDTAB
  0
TABLE
  2
BLOCK_RECORD
  5
1
100
AcDbSymbolTable
 70
              20
  0
BLOCK_RECORD
  5
A
100
AcDbSymbolTableRecord
100
AcDbBlockTableRecord
  2
*MODEL_SPACE
340
20
  0
BLOCK_RECORD
  5
B
100
AcDbSymbolTableRecord
100
AcDbBlockTableRecord
  2
*PAPER_SPACE
340
21
  0
BLOCK_RECORD
  5
48
100
AcDbSymbolTableRecord
100
AcDbBlockTableRecord
  2
VW_FILLEDARROW
340
0
  0
BLOCK_RECORD
  5
4C
100
AcDbSymbolTableRecord
100
AcDbBlockTableRecord
  2
VW_FILLEDARROW-1
340
0
  0
BLOCK_RECORD
  5
51
100
AcDbSymbolTableRecord
100
AcDbBlockTableRecord
  2
VW_SLASH
340
0
  0
BLOCK_RECORD
  5
24
100
AcDbSymbolTableRecord
100
AcDbBlockTableRecord
  2
*D3
340
0
  0
BLOCK_RECORD
  5
25
100
AcDbSymbolTableRecord
100
AcDbBlockTableRecord
  2
*D4
340
0
  0
BLOCK_RECORD
  5
26
100
AcDbSymbolTableRecord
100
AcDbBlockTableRecord
  2
*D5
340
0
  0
BLOCK_RECORD
  5
27
100
AcDbSymbolTableRecord
100
AcDbBlockTableRecord
  2
*D6
340
0
  0
BLOCK_RECORD
  5
28
100
AcDbSymbolTableRecord
100
AcDbBlockTableRecord
  2
*D7
340
0
  0
BLOCK_RECORD
  5
29
100
AcDbSymbolTableRecord
100
AcDbBlockTableRecord
  2
*D8
340
0
  0
BLOCK_RECORD
  5
2A
100
AcDbSymbolTableRecord
100
AcDbBlockTableRecord
  2
*D9
340
0
  0
BLOCK_RECORD
  5
2B
100
AcDbSymbolTableRecord
100
AcDbBlockTableRecord
  2
*D10
340
0
  0
BLOCK_RECORD
  5
2C
100
AcDbSymbolTableRecord
100
AcDbBlockTableRecord
  2
*D11
340
0
  0
BLOCK_RECORD
  5
2D
100
AcDbSymbolTableRecord
100
AcDbBlockTableRecord
  2
*D12
340
0
  0
BLOCK_RECORD
  5
2E
100
AcDbSymbolTableRecord
100
AcDbBlockTableRecord
  2
*D13
340
0
  0
BLOCK_RECORD
  5
2F
100
AcDbSymbolTableRecord
100
AcDbBlockTableRecord
  2
*D14
340
0
  0
BLOCK_RECORD
  5
30
100
AcDbSymbolTableRecord
100
AcDbBlockTableRecord
  2
*D15
340
0
  0
BLOCK_RECORD
  5
31
100
AcDbSymbolTableRecord
100
AcDbBlockTableRecord
  2
*D16
340
0
  0
BLOCK_RECORD
  5
32
100
AcDbSymbolTableRecord
100
AcDbBlockTableRecord
  2
*D17
340
0
  0
BLOCK_RECORD
  5
33
100
AcDbSymbolTableRecord
100
AcDbBlockTableRecord
  2
*D18
340
0
  0
BLOCK_RECORD
  5
34
100
AcDbSymbolTableRecord
100
AcDbBlockTableRecord
  2
Group
340
0
102
{BLKREFS
331
18E
102
}
  0
ENDTAB
  0
ENDSEC
  0
SECTION
  2
BLOCKS
  0
BLOCK
  5
D
100
AcDbEntity
  8
0
390
0
100
AcDbBlockBegin
  2
*MODEL_SPACE
 70
               0
 10
0.0
 20
0.0
 30
0.0
  3
*MODEL_SPACE
  1

  0
ENDBLK
  5
E
100
AcDbEntity
  8
0
390
0
100
AcDbBlockEnd
  0
BLOCK
  5
F
100
AcDbEntity
 67
               1
  8
0
390
0
100
AcDbBlockBegin
  2
*PAPER_SPACE
 70
               0
 10
0.0
 20
0.0
 30
0.0
  3
*PAPER_SPACE
  1

  0
ENDBLK
  5
10
100
AcDbEntity
 67
               1
  8
0
390
0
100
AcDbBlockEnd
  0
BLOCK
  5
49
100
AcDbEntity
  8
0
370
              -2
390
0
  6
ByBlock
 62
               0
100
AcDbBlockBegin
  2
VW_FILLEDARROW
 70
               0
 10
0.0
 20
0.0
 30
0.0
  3
VW_FILLEDARROW
  1

  0
SOLID
  5
4A
100
AcDbEntity
  8
0
370
              -2
390
0
 62
               0
100
AcDbTrace
 10
0.0
 20
0.0
 30
0.0
 11
-0.9999389648437499
 21
-0.2679328381102956
 31
0.0
 12
-0.9999389648437499
 22
0.2679328381102958
 32
0.0
 13
-0.9999389648437499
 23
0.2679328381102958
 33
0.0
  0
ENDBLK
  5
4B
100
AcDbEntity
  8
0
390
0
100
AcDbBlockEnd
  0
BLOCK
  5
4D
100
AcDbEntity
  8
0
370
              -2
390
0
  6
ByBlock
 62
               0
100
AcDbBlockBegin
  2
VW_FILLEDARROW-1
 70
               0
 10
0.0
 20
0.0
 30
0.0
  3
VW_FILLEDARROW
  1

  0
SOLID
  5
4E
100
AcDbEntity
  8
0
370
              -2
390
0
 62
               0
100
AcDbTrace
 10
0.0
 20
0.0
 30
0.0
 11
-0.6662384033203125
 21
-0.1785180421362784
 31
0.0
 12
-0.6662384033203125
 22
0.1785180421362785
 32
0.0
 13
-0.6662384033203125
 23
0.1785180421362785
 33
0.0
  0
ENDBLK
  5
4F
100
AcDbEntity
  8
0
390
0
100
AcDbBlockEnd
  0
BLOCK
  5
52
100
AcDbEntity
  8
0
370
              -2
390
0
  6
ByBlock
 62
               0
100
AcDbBlockBegin
  2
VW_SLASH
 70
               0
 10
0.0
 20
0.0
 30
0.0
  3
VW_SLASH
  1

  0
LINE
  5
53
100
AcDbEntity
  8
0
370
              -2
390
0
  6
ByBlock
 62
               0
100
AcDbLine
 10
0.0
 20
0.0
 30
0.0
 11
-1.0
 21
0.0
 31
0.0
  0
LINE
  5
54
100
AcDbEntity
  8
0
370
              20
390
0
  6
ByBlock
 62
               0
100
AcDbLine
 10
-0.5000145658230796
 20
-0.5000145658230795
 30
0.0
 11
0.5000145658230796
 21
0.5000145658230795
 31
0.0
  0
ENDBLK
  5
55
100
AcDbEntity
  8
0
390
0
100
AcDbBlockEnd
  0
BLOCK
  5
57
100
AcDbEntity
  8
Dimension
390
0
100
AcDbBlockBegin
  2
*D3
 70
               1
 10
0.0
 20
0.0
 30
0.0
  3
*D3
  1

  0
LINE
  5
58
100
AcDbEntity
  8
Dimension
370
              -2
390
0
  6
Continuous
 62
               0
100
AcDbLine
 10
-9.263719999999978
 20
-3.088360001182803
 30
0.0
 11
-9.263719999999978
 21
-14.064610002365578
 31
0.0
  0
LINE
  5
59
100
AcDbEntity
  8
Dimension
370
              -2
390
0
  6
Continuous
 62
               0
100
AcDbLine
 10
2.9612800000000163
 20
-3.088360001182803
 30
0.0
 11
2.9612800000000163
 21
-14.064610002365582
 31
0.0
  0
LINE
  5
5A
100
AcDbEntity
  8
Dimension
370
              -2
390
0
  6
Continuous
 62
               0
100
AcDbLine
 10
2.9612800000000163
 20
-13.112110000000021
 30
0.0
 11
-9.263719999999978
 21
-13.112110000000021
 31
0.0
  0
LINE
  5
5B
100
AcDbEntity
  8
Dimension
370
              -2
390
0
  6
Continuous
 62
               0
100
AcDbLine
 10
-9.263719999999978
 20
-13.112110000000021
 30
0.0
 11
-11.01371649836679
 21
-13.112110000000021
 31
0.0
  0
SOLID
  5
5C
100
AcDbEntity
  8
Dimension
370
              -2
390
0
 62
               0
100
AcDbTrace
 10
-9.263719999999978
 20
-13.112110000000021
 30
0.0
 11
-10.057469999999977
 21
-13.324794671492224
 31
0.0
 12
-10.057469999999977
 22
-12.899425328507817
 32
0.0
 13
-10.057469999999977
 23
-12.899425328507817
 33
0.0
  0
LINE
  5
5D
100
AcDbEntity
  8
Dimension
370
              -2
390
0
  6
Continuous
 62
               0
100
AcDbLine
 10
2.9612800000000163
 20
-13.112110000000021
 30
0.0
 11
4.7112764983668285
 21
-13.112110000000021
 31
0.0
  0
SOLID
  5
5E
100
AcDbEntity
  8
Dimension
370
              -2
390
0
 62
               0
100
AcDbTrace
 10
2.9612800000000163
 20
-13.112110000000021
 30
0.0
 11
3.7550300000000165
 21
-12.899425328507817
 31
0.0
 12
3.7550300000000165
 22
-13.324794671492224
 32
0.0
 13
3.7550300000000165
 23
-13.324794671492224
 33
0.0
  0
WIPEOUT
  5
5F
100
AcDbEntity
  8
Dimension
370
              -2
390
0
  6
Continuous
 62
               0
 92
        0
100
AcDbWipeout
 90
        0
 10
-9.3681305509916513
 20
-13.720647833333354
 30
0.0
 11
5.0376507600148521
 21
0.0
 31
0.0
 12
0.0
 22
5.0376507600148521
 32
0.0
 13
1.0
 23
1.0
340
0
 70
               7
280
               1
281
              50
282
              50
283
               0
360
0
 71
               2
 91
        5
 14
-0.5
 24
0.5
 14
0.5
 24
0.5
 14
0.5
 24
0.2584033594269222
 14
-0.5
 24
0.2584033594269222
 14
-0.5
 24
0.5
  0
MTEXT
  5
60
100
AcDbEntity
  8
Dimension
390
0
 62
               0
100
AcDbMText
 10
-9.3681305509916513
 20
-12.698146713541687
 30
0.0
 40
0.7579186197916666
 41
0.0
 71
               1
 72
               1
  1
12.225mm
  7
Arial
 73
               1
 44
0.9673603504928806
  0
WIPEOUT
  5
61
100
AcDbEntity
  8
Dimension
370
              -2
390
0
  6
Continuous
 62
               0
 92
        0
100
AcDbWipeout
 90
        0
 10
-4.3304797909767956
 20
-13.72064950000002
 30
0.0
 11
5.0270675208833486
 21
0.0
 31
0.0
 12
0.0
 22
5.0270675208833486
 32
0.0
 13
1.0
 23
1.0
340
0
 70
               7
280
               1
281
              50
282
              50
283
               0
360
0
 71
               2
 91
        5
 14
-0.5
 24
0.5
 14
0.5
 24
0.5
 14
0.5
 24
0.2578947378478542
 14
-0.5
 24
0.2578947378478542
 14
-0.5
 24
0.5
  0
MTEXT
  5
62
100
AcDbEntity
  8
Dimension
390
0
 62
               0
100
AcDbMText
 10
-4.3304797909767956
 20
-12.698148380208353
 30
0.0
 40
0.7579186197916666
 41
0.0
 71
               1
 72
               1
  1
±0.125mm
  7
Arial
 73
               1
 44
0.9673603504928806
  0
WIPEOUT
  5
63
100
AcDbEntity
  8
Dimension
370
              -2
390
0
  6
Continuous
 62
               0
 92
        0
100
AcDbWipeout
 90
        0
 10
0.6965877299065539
 20
-13.720651666666686
 30
0.0
 11
2.10608325931761
 21
0.0
 31
0.0
 12
0.0
 22
2.10608325931761
 32
0.0
 13
1.0
 23
1.0
340
0
 70
               7
280
               1
281
              50
282
              50
283
               0
360
0
 71
               2
 91
        5
 14
-0.5
 24
0.5
 14
0.5
 24
0.5
 14
0.5
 24
-0.0778894675453995
 14
-0.5
 24
-0.0778894675453995
 14
-0.5
 24
0.5
  0
MTEXT
  5
64
100
AcDbEntity
  8
Dimension
390
0
 62
               0
100
AcDbMText
 10
0.6965877299065539
 20
-12.698147326388909
 30
0.0
 40
0.7579210069444442
 41
0.0
 71
               1
 72
               1
  1
 (x4)
  7
Arial
 73
               1
 44
0.9673603504928806
  0
POINT
  5
65
100
AcDbEntity
  8
Defpoints
370
               0
390
0
 62
               0
100
AcDbPoint
 10
2.9612800000000163
 20
-2.6121100000000226
 30
0.0
  0
POINT
  5
66
100
AcDbEntity
  8
Defpoints
370
               0
390
0
 62
               0
100
AcDbPoint
 10
-9.263719999999978
 20
-2.6121100000000226
 30
0.0
  0
POINT
  5
67
100
AcDbEntity
  8
Defpoints
370
               0
390
0
 62
               0
100
AcDbPoint
 10
-9.263719999999978
 20
-13.112110000000021
 30
0.0
  0
ENDBLK
  5
68
100
AcDbEntity
  8
Dimension
390
0
100
AcDbBlockEnd
  0
BLOCK
  5
69
100
AcDbEntity
  8
Dimension
390
0
100
AcDbBlockBegin
  2
*D4
 70
               1
 10
0.0
 20
0.0
 30
0.0
  3
*D4
  1

  0
LINE
  5
6A
100
AcDbEntity
  8
Dimension
370
              -2
390
0
  6
Continuous
 62
               0
100
AcDbLine
 10
-8.489970001182769
 20
-1.3621100000000297
 30
0.0
 11
-12.891220002365543
 21
-1.3621100000000297
 31
0.0
  0
LINE
  5
6B
100
AcDbEntity
  8
Dimension
370
              -2
390
0
  6
Continuous
 62
               0
100
AcDbLine
 10
-8.489970001182769
 20
1.6378899999999792
 30
0.0
 11
-12.891220002365543
 21
1.6378899999999792
 31
0.0
  0
LINE
  5
6C
100
AcDbEntity
  8
Dimension
370
              -2
390
0
  6
Continuous
 62
               0
100
AcDbLine
 10
-11.938719999999989
 20
1.6378899999999792
 30
0.0
 11
-11.938719999999989
 21
-1.3621100000000297
 31
0.0
  0
LINE
  5
6D
100
AcDbEntity
  8
Dimension
370
              -2
390
0
  6
Continuous
 62
               0
100
AcDbLine
 10
-11.938719999999989
 20
-1.3621100000000297
 30
0.0
 11
-11.938719999999989
 21
-3.1121064983668472
 31
0.0
  0
SOLID
  5
6E
100
AcDbEntity
  8
Dimension
370
              -2
390
0
 62
               0
100
AcDbTrace
 10
-11.938719999999989
 20
-1.3621100000000297
 30
0.0
 11
-11.726035328507786
 21
-2.1558600000000299
 31
0.0
 12
-12.151404671492193
 22
-2.1558600000000299
 32
0.0
 13
-12.151404671492193
 23
-2.1558600000000299
 33
0.0
  0
LINE
  5
6F
100
AcDbEntity
  8
Dimension
370
              -2
390
0
  6
Continuous
 62
               0
100
AcDbLine
 10
-11.938719999999989
 20
1.6378899999999792
 30
0.0
 11
-11.938719999999989
 21
3.3878864983667967
 31
0.0
  0
SOLID
  5
70
100
AcDbEntity
  8
Dimension
370
              -2
390
0
 62
               0
100
AcDbTrace
 10
-11.938719999999989
 20
1.6378899999999792
 30
0.0
 11
-12.151404671492193
 21
2.4316399999999794
 31
0.0
 12
-11.726035328507786
 22
2.4316399999999794
 32
0.0
 13
-11.726035328507786
 23
2.4316399999999794
 33
0.0
  0
WIPEOUT
  5
71
100
AcDbEntity
  8
Dimension
370
              -2
390
0
  6
Continuous
 62
               0
 92
        0
100
AcDbWipeout
 90
        0
 10
-13.124049595539304
 20
-0.6144333193359632
 30
0.0
 11
2.3706591910786088
 21
0.0
 31
0.0
 12
0.0
 22
2.3706591910786088
 32
0.0
 13
1.0
 23
1.0
340
0
 70
               7
280
               1
281
              50
282
              50
283
               0
360
0
 71
               2
 91
        5
 14
-0.5
 24
0.5
 14
0.5
 24
0.5
 14
0.5
 24
-0.0133928590748845
 14
-0.5
 24
-0.0133928590748845
 14
-0.5
 24
0.5
  0
MTEXT
  5
72
100
AcDbEntity
  8
Dimension
390
0
 62
               0
100
AcDbMText
 10
-13.124049595539304
 20
0.4080678004557032
 30
0.0
 40
0.7579186197916666
 41
0.0
 71
               1
 72
               1
  1
3mm
  7
Arial
 73
               1
 44
0.9673603504928806
  0
POINT
  5
73
100
AcDbEntity
  8
Defpoints
370
               0
390
0
 62
               0
100
AcDbPoint
 10
-8.013719999999978
 20
1.6378899999999792
 30
0.0
  0
POINT
  5
74
100
AcDbEntity
  8
Defpoints
370
               0
390
0
 62
               0
100
AcDbPoint
 10
-8.013719999999978
 20
-1.3621100000000297
 30
0.0
  0
POINT
  5
75
100
AcDbEntity
  8
Defpoints
370
               0
390
0
 62
               0
100
AcDbPoint
 10
-11.938719999999979
 20
-1.3621100000000297
 30
0.0
  0
ENDBLK
  5
76
100
AcDbEntity
  8
Dimension
390
0
100
AcDbBlockEnd
  0
BLOCK
  5
77
100
AcDbEntity
  8
Dimension
390
0
100
AcDbBlockBegin
  2
*D5
 70
               1
 10
0.0
 20
0.0
 30
0.0
  3
*D5
  1

  0
LINE
  5
78
100
AcDbEntity
  8
Dimension
370
              -2
390
0
  6
Continuous
 62
               0
100
AcDbLine
 10
2.1875300011828074
 20
8.3628900000000019
 30
0.0
 11
7.9872800023655657
 21
8.3628900000000019
 31
0.0
  0
LINE
  5
79
100
AcDbEntity
  8
Dimension
370
              -2
390
0
  6
Continuous
 62
               0
100
AcDbLine
 10
2.1875300011828074
 20
6.3628900000000002
 30
0.0
 11
7.9872800023655657
 21
6.3628900000000002
 31
0.0
  0
LINE
  5
7A
100
AcDbEntity
  8
Dimension
370
              -2
390
0
  6
Continuous
 62
               0
100
AcDbLine
 10
7.034780000000012
 20
6.3628900000000002
 30
0.0
 11
7.034780000000012
 21
8.3628900000000019
 31
0.0
  0
LINE
  5
7B
100
AcDbEntity
  8
Dimension
370
              -2
390
0
  6
Continuous
 62
               0
100
AcDbLine
 10
7.034780000000012
 20
8.3628900000000019
 30
0.0
 11
7.034780000000012
 21
10.112886498366819
 31
0.0
  0
SOLID
  5
7C
100
AcDbEntity
  8
Dimension
370
              -2
390
0
 62
               0
100
AcDbTrace
 10
7.034780000000012
 20
8.3628900000000019
 30
0.0
 11
6.8220953285078085
 21
9.1566400000000012
 31
0.0
 12
7.2474646714922155
 22
9.1566400000000012
 32
0.0
 13
7.2474646714922155
 23
9.1566400000000012
 33
0.0
  0
LINE
  5
7D
100
AcDbEntity
  8
Dimension
370
              -2
390
0
  6
Continuous
 62
               0
100
AcDbLine
 10
7.034780000000012
 20
6.3628900000000002
 30
0.0
 11
7.034780000000012
 21
4.6128935016331827
 31
0.0
  0
SOLID
  5
7E
100
AcDbEntity
  8
Dimension
370
              -2
390
0
 62
               0
100
AcDbTrace
 10
7.034780000000012
 20
6.3628900000000002
 30
0.0
 11
7.2474646714922155
 21
5.56914
 31
0.0
 12
6.8220953285078085
 22
5.56914
 32
0.0
 13
6.8220953285078085
 23
5.56914
 33
0.0
  0
WIPEOUT
  5
7F
100
AcDbEntity
  8
Dimension
370
              -2
390
0
  6
Continuous
 62
               0
 92
        0
100
AcDbWipeout
 90
        0
 10
5.849450404460697
 20
6.7543502500000017
 30
0.0
 11
2.3706591910786088
 21
0.0
 31
0.0
 12
0.0
 22
2.3706591910786088
 32
0.0
 13
1.0
 23
1.0
340
0
 70
               7
280
               1
281
              50
282
              50
283
               0
360
0
 71
               2
 91
        5
 14
-0.5
 24
0.5
 14
0.5
 24
0.5
 14
0.5
 24
-0.0133928590748844
 14
-0.5
 24
-0.0133928590748844
 14
-0.5
 24
0.5
  0
MTEXT
  5
80
100
AcDbEntity
  8
Dimension
390
0
 62
               0
100
AcDbMText
 10
5.849450404460697
 20
7.7768513697916681
 30
0.0
 40
0.7579186197916666
 41
0.0
 71
               1
 72
               1
  1
2mm
  7
Arial
 73
               1
 44
0.9673603504928806
  0
POINT
  5
81
100
AcDbEntity
  8
Defpoints
370
               0
390
0
 62
               0
100
AcDbPoint
 10
1.7112800000000163
 20
6.3628900000000002
 30
0.0
  0
POINT
  5
82
100
AcDbEntity
  8
Defpoints
370
               0
390
0
 62
               0
100
AcDbPoint
 10
1.7112800000000163
 20
8.3628900000000019
 30
0.0
  0
POINT
  5
83
100
AcDbEntity
  8
Defpoints
370
               0
390
0
 62
               0
100
AcDbPoint
 10
7.0347800000000156
 20
8.3628900000000019
 30
0.0
  0
ENDBLK
  5
84
100
AcDbEntity
  8
Dimension
390
0
100
AcDbBlockEnd
  0
BLOCK
  5
85
100
AcDbEntity
  8
Dimension
390
0
100
AcDbBlockBegin
  2
*D6
 70
               1
 10
0.0
 20
0.0
 30
0.0
  3
*D6
  1

  0
LINE
  5
86
100
AcDbEntity
  8
Dimension
370
              -2
390
0
  6
Continuous
 62
               0
100
AcDbLine
 10
-9.263719999999978
 20
10.089140001182781
 30
0.0
 11
-9.263719999999978
 21
15.62388000236556
 31
0.0
  0
LINE
  5
87
100
AcDbEntity
  8
Dimension
370
              -2
390
0
  6
Continuous
 62
               0
100
AcDbLine
 10
-8.013719999999978
 20
8.8391400011827823
 30
0.0
 11
-8.013719999999978
 21
15.62388000236556
 31
0.0
  0
LINE
  5
88
100
AcDbEntity
  8
Dimension
370
              -2
390
0
  6
Continuous
 62
               0
100
AcDbLine
 10
-8.013719999999978
 20
14.671379999999999
 30
0.0
 11
-9.263719999999978
 21
14.671379999999999
 31
0.0
  0
LINE
  5
89
100
AcDbEntity
  8
Dimension
370
              -2
390
0
  6
Continuous
 62
               0
100
AcDbLine
 10
-9.263719999999978
 20
14.671379999999999
 30
0.0
 11
-12.326989999999967
 21
14.671379999999999
 31
0.0
  0
SOLID
  5
8A
100
AcDbEntity
  8
Dimension
370
              -2
390
0
 62
               0
100
AcDbTrace
 10
-9.263719999999978
 20
14.671379999999999
 30
0.0
 11
-10.057469999999977
 21
14.458695328507796
 31
0.0
 12
-10.057469999999977
 22
14.884064671492203
 32
0.0
 13
-10.057469999999977
 23
14.884064671492203
 33
0.0
  0
LINE
  5
8B
100
AcDbEntity
  8
Dimension
370
              -2
390
0
  6
Continuous
 62
               0
100
AcDbLine
 10
-8.013719999999978
 20
14.671379999999999
 30
0.0
 11
-6.2637235016331658
 21
14.671379999999999
 31
0.0
  0
SOLID
  5
8C
100
AcDbEntity
  8
Dimension
370
              -2
390
0
 62
               0
100
AcDbTrace
 10
-8.013719999999978
 20
14.671379999999999
 30
0.0
 11
-7.2199699999999778
 21
14.884064671492203
 31
0.0
 12
-7.2199699999999778
 22
14.458695328507796
 32
0.0
 13
-7.2199699999999778
 23
14.458695328507796
 33
0.0
  0
WIPEOUT
  5
8D
100
AcDbEntity
  8
Dimension
370
              -2
390
0
  6
Continuous
 62
               0
 92
        0
100
AcDbWipeout
 90
        0
 10
-23.312462028785262
 20
14.062842166666666
 30
0.0
 11
3.8523212485843246
 21
0.0
 31
0.0
 12
0.0
 22
3.8523212485843246
 32
0.0
 13
1.0
 23
1.0
340
0
 70
               7
280
               1
281
              50
282
              50
283
               0
360
0
 71
               2
 91
        5
 14
-0.5
 24
0.5
 14
0.5
 24
0.5
 14
0.5
 24
0.1840659380504
 14
-0.5
 24
0.1840659380504
 14
-0.5
 24
0.5
  0
MTEXT
  5
8E
100
AcDbEntity
  8
Dimension
390
0
 62
               0
100
AcDbMText
 10
-23.312462028785262
 20
15.085343286458333
 30
0.0
 40
0.7579186197916666
 41
0.0
 71
               1
 72
               1
  1
1.25mm
  7
Arial
 73
               1
 44
0.9673603504928806
  0
WIPEOUT
  5
8F
100
AcDbEntity
  8
Dimension
370
              -2
390
0
  6
Continuous
 62
               0
 92
        0
100
AcDbWipeout
 90
        0
 10
-19.460140780200931
 20
14.0628405
 30
0.0
 11
5.0270675208833495
 21
0.0
 31
0.0
 12
0.0
 22
5.0270675208833495
 32
0.0
 13
1.0
 23
1.0
340
0
 70
               7
280
               1
281
              50
282
              50
283
               0
360
0
 71
               2
 91
        5
 14
-0.5
 24
0.5
 14
0.5
 24
0.5
 14
0.5
 24
0.2578947378478543
 14
-0.5
 24
0.2578947378478543
 14
-0.5
 24
0.5
  0
MTEXT
  5
90
100
AcDbEntity
  8
Dimension
390
0
 62
               0
100
AcDbMText
 10
-19.460140780200931
 20
15.085341619791667
 30
0.0
 40
0.7579186197916666
 41
0.0
 71
               1
 72
               1
  1
±0.125mm
  7
Arial
 73
               1
 44
0.9673603504928806
  0
WIPEOUT
  5
91
100
AcDbEntity
  8
Dimension
370
              -2
390
0
  6
Continuous
 62
               0
 92
        0
100
AcDbWipeout
 90
        0
 10
-14.433073259317581
 20
14.062838333333334
 30
0.0
 11
2.1060832593176109
 21
0.0
 31
0.0
 12
0.0
 22
2.1060832593176109
 32
0.0
 13
1.0
 23
1.0
340
0
 70
               7
280
               1
281
              50
282
              50
283
               0
360
0
 71
               2
 91
        5
 14
-0.5
 24
0.5
 14
0.5
 24
0.5
 14
0.5
 24
-0.0778894675453992
 14
-0.5
 24
-0.0778894675453992
 14
-0.5
 24
0.5
  0
MTEXT
  5
92
100
AcDbEntity
  8
Dimension
390
0
 62
               0
100
AcDbMText
 10
-14.433073259317581
 20
15.085342673611111
 30
0.0
 40
0.7579210069444442
 41
0.0
 71
               1
 72
               1
  1
 (x4)
  7
Arial
 73
               1
 44
0.9673603504928806
  0
POINT
  5
93
100
AcDbEntity
  8
Defpoints
370
               0
390
0
 62
               0
100
AcDbPoint
 10
-8.013719999999978
 20
8.3628900000000019
 30
0.0
  0
POINT
  5
94
100
AcDbEntity
  8
Defpoints
370
               0
390
0
 62
               0
100
AcDbPoint
 10
-9.263719999999978
 20
9.6128900000000002
 30
0.0
  0
POINT
  5
95
100
AcDbEntity
  8
Defpoints
370
               0
390
0
 62
               0
100
AcDbPoint
 10
-9.263719999999978
 20
14.671379999999999
 30
0.0
  0
ENDBLK
  5
96
100
AcDbEntity
  8
Dimension
390
0
100
AcDbBlockEnd
  0
BLOCK
  5
97
100
AcDbEntity
  8
Dimension
390
0
100
AcDbBlockBegin
  2
*D7
 70
               1
 10
0.0
 20
0.0
 30
0.0
  3
*D7
  1

  0
LINE
  5
98
100
AcDbEntity
  8
Dimension
370
              -2
390
0
  6
Continuous
 62
               0
100
AcDbLine
 10
-9.739970001182769
 20
9.6128900000000002
 30
0.0
 11
-18.441220002365526
 21
9.6128900000000002
 31
0.0
  0
LINE
  5
99
100
AcDbEntity
  8
Dimension
370
              -2
390
0
  6
Continuous
 62
               0
100
AcDbLine
 10
-8.489970001182769
 20
8.3628900000000019
 30
0.0
 11
-18.441220002365526
 21
8.3628900000000019
 31
0.0
  0
LINE
  5
9A
100
AcDbEntity
  8
Dimension
370
              -2
390
0
  6
Continuous
 62
               0
100
AcDbLine
 10
-17.488719999999972
 20
8.3628900000000019
 30
0.0
 11
-17.488719999999972
 21
9.6128900000000002
 31
0.0
  0
LINE
  5
9B
100
AcDbEntity
  8
Dimension
370
              -2
390
0
  6
Continuous
 62
               0
100
AcDbLine
 10
-17.488719999999972
 20
9.6128900000000002
 30
0.0
 11
-17.488719999999972
 21
11.82138
 31
0.0
  0
SOLID
  5
9C
100
AcDbEntity
  8
Dimension
370
              -2
390
0
 62
               0
100
AcDbTrace
 10
-17.488719999999972
 20
9.6128900000000002
 30
0.0
 11
-17.701404671492178
 21
10.406639999999999
 31
0.0
 12
-17.276035328507767
 22
10.406639999999999
 32
0.0
 13
-17.276035328507767
 23
10.406639999999999
 33
0.0
  0
LINE
  5
9D
100
AcDbEntity
  8
Dimension
370
              -2
390
0
  6
Continuous
 62
               0
100
AcDbLine
 10
-17.488719999999972
 20
8.3628900000000019
 30
0.0
 11
-17.488719999999972
 21
6.6128935016331845
 31
0.0
  0
SOLID
  5
9E
100
AcDbEntity
  8
Dimension
370
              -2
390
0
 62
               0
100
AcDbTrace
 10
-17.488719999999972
 20
8.3628900000000019
 30
0.0
 11
-17.276035328507771
 21
7.5691400000000018
 31
0.0
 12
-17.701404671492178
 22
7.5691400000000018
 32
0.0
 13
-17.701404671492178
 23
7.5691400000000018
 33
0.0
  0
WIPEOUT
  5
9F
100
AcDbEntity
  8
Dimension
370
              -2
390
0
  6
Continuous
 62
               0
 92
        0
100
AcDbWipeout
 90
        0
 10
-22.98145601439262
 20
11.212842166666666
 30
0.0
 11
3.8523212485843246
 21
0.0
 31
0.0
 12
0.0
 22
3.8523212485843246
 32
0.0
 13
1.0
 23
1.0
340
0
 70
               7
280
               1
281
              50
282
              50
283
               0
360
0
 71
               2
 91
        5
 14
-0.5
 24
0.5
 14
0.5
 24
0.5
 14
0.5
 24
0.1840659380504
 14
-0.5
 24
0.1840659380504
 14
-0.5
 24
0.5
  0
MTEXT
  5
A0
100
AcDbEntity
  8
Dimension
390
0
 62
               0
100
AcDbMText
 10
-22.98145601439262
 20
12.235343286458333
 30
0.0
 40
0.7579186197916666
 41
0.0
 71
               1
 72
               1
  1
1.25mm
  7
Arial
 73
               1
 44
0.9673603504928806
  0
WIPEOUT
  5
A1
100
AcDbEntity
  8
Dimension
370
              -2
390
0
  6
Continuous
 62
               0
 92
        0
100
AcDbWipeout
 90
        0
 10
-19.129134765808288
 20
11.212840499999999
 30
0.0
 11
5.0270675208833495
 21
0.0
 31
0.0
 12
0.0
 22
5.0270675208833495
 32
0.0
 13
1.0
 23
1.0
340
0
 70
               7
280
               1
281
              50
282
              50
283
               0
360
0
 71
               2
 91
        5
 14
-0.5
 24
0.5
 14
0.5
 24
0.5
 14
0.5
 24
0.2578947378478543
 14
-0.5
 24
0.2578947378478543
 14
-0.5
 24
0.5
  0
MTEXT
  5
A2
100
AcDbEntity
  8
Dimension
390
0
 62
               0
100
AcDbMText
 10
-19.129134765808288
 20
12.235341619791665
 30
0.0
 40
0.7579186197916666
 41
0.0
 71
               1
 72
               1
  1
±0.125mm
  7
Arial
 73
               1
 44
0.9673603504928806
  0
WIPEOUT
  5
A3
100
AcDbEntity
  8
Dimension
370
              -2
390
0
  6
Continuous
 62
               0
 92
        0
100
AcDbWipeout
 90
        0
 10
-14.102067244924939
 20
11.212838333333334
 30
0.0
 11
2.1060832593176109
 21
0.0
 31
0.0
 12
0.0
 22
2.1060832593176109
 32
0.0
 13
1.0
 23
1.0
340
0
 70
               7
280
               1
281
              50
282
              50
283
               0
360
0
 71
               2
 91
        5
 14
-0.5
 24
0.5
 14
0.5
 24
0.5
 14
0.5
 24
-0.0778894675453992
 14
-0.5
 24
-0.0778894675453992
 14
-0.5
 24
0.5
  0
MTEXT
  5
A4
100
AcDbEntity
  8
Dimension
390
0
 62
               0
100
AcDbMText
 10
-14.102067244924939
 20
12.235342673611111
 30
0.0
 40
0.7579210069444442
 41
0.0
 71
               1
 72
               1
  1
 (x4)
  7
Arial
 73
               1
 44
0.9673603504928806
  0
POINT
  5
A5
100
AcDbEntity
  8
Defpoints
370
               0
390
0
 62
               0
100
AcDbPoint
 10
-8.013719999999978
 20
8.3628900000000019
 30
0.0
  0
POINT
  5
A6
100
AcDbEntity
  8
Defpoints
370
               0
390
0
 62
               0
100
AcDbPoint
 10
-9.263719999999978
 20
9.6128900000000002
 30
0.0
  0
POINT
  5
A7
100
AcDbEntity
  8
Defpoints
370
               0
390
0
 62
               0
100
AcDbPoint
 10
-17.488719999999979
 20
9.6128900000000002
 30
0.0
  0
ENDBLK
  5
A8
100
AcDbEntity
  8
Dimension
390
0
100
AcDbBlockEnd
  0
BLOCK
  5
A9
100
AcDbEntity
  8
Dimension
390
0
100
AcDbBlockBegin
  2
*D8
 70
               1
 10
0.0
 20
0.0
 30
0.0
  3
*D8
  1

  0
LINE
  5
AA
100
AcDbEntity
  8
Dimension
370
              -2
390
0
  6
Continuous
 62
               0
100
AcDbLine
 10
-8.489970001182769
 20
8.3628900000000019
 30
0.0
 11
-12.891220002365543
 21
8.3628900000000019
 31
0.0
  0
LINE
  5
AB
100
AcDbEntity
  8
Dimension
370
              -2
390
0
  6
Continuous
 62
               0
100
AcDbLine
 10
-5.0174700011827724
 20
6.1803899999999992
 30
0.0
 11
-12.891220002365543
 21
6.1803899999999992
 31
0.0
  0
LINE
  5
AC
100
AcDbEntity
  8
Dimension
370
              -2
390
0
  6
Continuous
 62
               0
100
AcDbLine
 10
-11.938719999999989
 20
6.1803899999999992
 30
0.0
 11
-11.938719999999989
 21
8.3628900000000019
 31
0.0
  0
LINE
  5
AD
100
AcDbEntity
  8
Dimension
370
              -2
390
0
  6
Continuous
 62
               0
100
AcDbLine
 10
-11.938719999999989
 20
8.3628900000000019
 30
0.0
 11
-11.938719999999989
 21
10.112886498366819
 31
0.0
  0
SOLID
  5
AE
100
AcDbEntity
  8
Dimension
370
              -2
390
0
 62
               0
100
AcDbTrace
 10
-11.938719999999989
 20
8.3628900000000019
 30
0.0
 11
-12.151404671492193
 21
9.1566400000000012
 31
0.0
 12
-11.726035328507786
 22
9.1566400000000012
 32
0.0
 13
-11.726035328507786
 23
9.1566400000000012
 33
0.0
  0
LINE
  5
AF
100
AcDbEntity
  8
Dimension
370
              -2
390
0
  6
Continuous
 62
               0
100
AcDbLine
 10
-11.938719999999989
 20
6.1803899999999992
 30
0.0
 11
-11.938719999999989
 21
4.4303935016331817
 31
0.0
  0
SOLID
  5
B0
100
AcDbEntity
  8
Dimension
370
              -2
390
0
 62
               0
100
AcDbTrace
 10
-11.938719999999989
 20
6.1803899999999992
 30
0.0
 11
-11.726035328507786
 21
5.386639999999999
 31
0.0
 12
-12.151404671492193
 22
5.386639999999999
 32
0.0
 13
-12.151404671492193
 23
5.386639999999999
 33
0.0
  0
WIPEOUT
  5
B1
100
AcDbEntity
  8
Dimension
370
              -2
390
0
  6
Continuous
 62
               0
 92
        0
100
AcDbWipeout
 90
        0
 10
-13.864880624292141
 20
6.6631002500000012
 30
0.0
 11
3.8523212485843228
 21
0.0
 31
0.0
 12
0.0
 22
3.8523212485843228
 32
0.0
 13
1.0
 23
1.0
340
0
 70
               7
280
               1
281
              50
282
              50
283
               0
360
0
 71
               2
 91
        5
 14
-0.5
 24
0.5
 14
0.5
 24
0.5
 14
0.5
 24
0.1840659380504001
 14
-0.5
 24
0.1840659380504001
 14
-0.5
 24
0.5
  0
MTEXT
  5
B2
100
AcDbEntity
  8
Dimension
390
0
 62
               0
100
AcDbMText
 10
-13.864880624292141
 20
7.6856013697916676
 30
0.0
 40
0.7579186197916666
 41
0.0
 71
               1
 72
               1
  1
2.18mm
  7
Arial
 73
               1
 44
0.9673603504928806
  0
POINT
  5
B3
100
AcDbEntity
  8
Defpoints
370
               0
390
0
 62
               0
100
AcDbPoint
 10
-4.5412199999999814
 20
6.1803899999999992
 30
0.0
  0
POINT
  5
B4
100
AcDbEntity
  8
Defpoints
370
               0
390
0
 62
               0
100
AcDbPoint
 10
-8.013719999999978
 20
8.3628900000000019
 30
0.0
  0
POINT
  5
B5
100
AcDbEntity
  8
Defpoints
370
               0
390
0
 62
               0
100
AcDbPoint
 10
-11.938719999999979
 20
8.3628900000000019
 30
0.0
  0
ENDBLK
  5
B6
100
AcDbEntity
  8
Dimension
390
0
100
AcDbBlockEnd
  0
BLOCK
  5
B7
100
AcDbEntity
  8
Dimension
390
0
100
AcDbBlockBegin
  2
*D9
 70
               1
 10
0.0
 20
0.0
 30
0.0
  3
*D9
  1

  0
LINE
  5
B8
100
AcDbEntity
  8
Dimension
370
              -2
390
0
  6
Continuous
 62
               0
100
AcDbLine
 10
-8.013719999999978
 20
-1.8383600011828101
 30
0.0
 11
-8.013719999999978
 21
-11.664610002365587
 31
0.0
  0
LINE
  5
B9
100
AcDbEntity
  8
Dimension
370
              -2
390
0
  6
Continuous
 62
               0
100
AcDbLine
 10
1.7112800000000163
 20
-1.8383600011828101
 30
0.0
 11
1.7112800000000163
 21
-11.66461000236559
 31
0.0
  0
LINE
  5
BA
100
AcDbEntity
  8
Dimension
370
              -2
390
0
  6
Continuous
 62
               0
100
AcDbLine
 10
1.7112800000000163
 20
-10.712110000000029
 30
0.0
 11
-8.013719999999978
 21
-10.712110000000029
 31
0.0
  0
LINE
  5
BB
100
AcDbEntity
  8
Dimension
370
              -2
390
0
  6
Continuous
 62
               0
100
AcDbLine
 10
-8.013719999999978
 20
-10.712110000000029
 30
0.0
 11
-9.7637164983667901
 21
-10.712110000000029
 31
0.0
  0
SOLID
  5
BC
100
AcDbEntity
  8
Dimension
370
              -2
390
0
 62
               0
100
AcDbTrace
 10
-8.013719999999978
 20
-10.712110000000029
 30
0.0
 11
-8.8074699999999773
 21
-10.924794671492233
 31
0.0
 12
-8.8074699999999773
 22
-10.499425328507826
 32
0.0
 13
-8.8074699999999773
 23
-10.499425328507826
 33
0.0
  0
LINE
  5
BD
100
AcDbEntity
  8
Dimension
370
              -2
390
0
  6
Continuous
 62
               0
100
AcDbLine
 10
1.7112800000000163
 20
-10.712110000000029
 30
0.0
 11
3.4612764983668285
 21
-10.712110000000029
 31
0.0
  0
SOLID
  5
BE
100
AcDbEntity
  8
Dimension
370
              -2
390
0
 62
               0
100
AcDbTrace
 10
1.7112800000000163
 20
-10.712110000000029
 30
0.0
 11
2.5050300000000165
 21
-10.499425328507826
 31
0.0
 12
2.5050300000000165
 22
-10.924794671492233
 32
0.0
 13
2.5050300000000165
 23
-10.924794671492233
 33
0.0
  0
WIPEOUT
  5
BF
100
AcDbEntity
  8
Dimension
370
              -2
390
0
  6
Continuous
 62
               0
 92
        0
100
AcDbWipeout
 90
        0
 10
-6.1416910186852078
 20
-11.320649750000028
 30
0.0
 11
6.5510630395677349
 21
0.0
 31
0.0
 12
0.0
 22
6.5510630395677349
 32
0.0
 13
1.0
 23
1.0
340
0
 70
               7
280
               1
281
              50
282
              50
283
               0
360
0
 71
               2
 91
        5
 14
-0.5
 24
0.5
 14
0.5
 24
0.5
 14
0.5
 24
0.3142164878205311
 14
-0.5
 24
0.3142164878205311
 14
-0.5
 24
0.5
  0
MTEXT
  5
C0
100
AcDbEntity
  8
Dimension
390
0
 62
               0
100
AcDbMText
 10
-6.1416910186852078
 20
-10.298148630208361
 30
0.0
 40
0.7579186197916666
 41
0.0
 71
               1
 72
               1
  1
9.725mm (x4)
  7
Arial
 73
               1
 44
0.9673603504928806
  0
POINT
  5
C1
100
AcDbEntity
  8
Defpoints
370
               0
390
0
 62
               0
100
AcDbPoint
 10
1.7112800000000163
 20
-1.3621100000000297
 30
0.0
  0
POINT
  5
C2
100
AcDbEntity
  8
Defpoints
370
               0
390
0
 62
               0
100
AcDbPoint
 10
-8.013719999999978
 20
-1.3621100000000297
 30
0.0
  0
POINT
  5
C3
100
AcDbEntity
  8
Defpoints
370
               0
390
0
 62
               0
100
AcDbPoint
 10
-8.013719999999978
 20
-10.712110000000029
 30
0.0
  0
ENDBLK
  5
C4
100
AcDbEntity
  8
Dimension
390
0
100
AcDbBlockEnd
  0
BLOCK
  5
C5
100
AcDbEntity
  8
Dimension
390
0
100
AcDbBlockBegin
  2
*D10
 70
               1
 10
0.0
 20
0.0
 30
0.0
  3
*D10
  1

  0
LINE
  5
C6
100
AcDbEntity
  8
Dimension
370
              -2
390
0
  6
Continuous
 62
               0
100
AcDbLine
 10
2.0743000000000222
 20
6.5838900000000002
 30
0.0
 11
9.3008833017821075
 21
11.010648346385647
 31
0.0
  0
SOLID
  5
C7
100
AcDbEntity
  8
Dimension
370
              -2
390
0
 62
               0
100
AcDbTrace
 10
2.0743000000000222
 20
6.5838900000000002
 30
0.0
 11
2.4547643179633858
 21
6.9778723345667171
 31
0.0
 12
2.6007829318731739
 22
6.7348565513953957
 32
0.0
 13
2.6007829318731739
 23
6.7348565513953957
 33
0.0
  0
LINE
  5
C8
100
AcDbEntity
  8
Dimension
370
              -2
390
0
  6
Continuous
 62
               0
100
AcDbLine
 10
9.3008833017821075
 20
11.010648346385647
 30
0.0
 11
10.800880303761602
 21
11.010648346385647
 31
0.0
  0
WIPEOUT
  5
C9
100
AcDbEntity
  8
Dimension
370
              -2
390
0
  6
Continuous
 62
               0
 92
        0
100
AcDbWipeout
 90
        0
 10
10.800880303761602
 20
10.402110513052314
 30
0.0
 11
4.9741509887907238
 21
0.0
 31
0.0
 12
0.0
 22
4.9741509887907238
 32
0.0
 13
1.0
 23
1.0
340
0
 70
               7
280
               1
281
              50
282
              50
283
               0
360
0
 71
               2
 91
        5
 14
-0.5
 24
0.5
 14
0.5
 24
0.5
 14
0.5
 24
0.2553191483847805
 14
-0.5
 24
0.2553191483847805
 14
-0.5
 24
0.5
  0
MTEXT
  5
CA
100
AcDbEntity
  8
Dimension
390
0
 62
               0
100
AcDbMText
 10
10.800880303761602
 20
11.42461163284398
 30
0.0
 40
0.7579186197916666
 41
0.0
 71
               1
 72
               1
  1
Ø 0.85mm
  7
Arial
 73
               1
 44
0.9673603504928806
  0
WIPEOUT
  5
CB
100
AcDbEntity
  8
Dimension
370
              -2
390
0
  6
Continuous
 62
               0
 92
        0
100
AcDbWipeout
 90
        0
 10
15.775031292552313
 20
10.402108846385648
 30
0.0
 11
5.0270675208833495
 21
0.0
 31
0.0
 12
0.0
 22
5.0270675208833495
 32
0.0
 13
1.0
 23
1.0
340
0
 70
               7
280
               1
281
              50
282
              50
283
               0
360
0
 71
               2
 91
        5
 14
-0.5
 24
0.5
 14
0.5
 24
0.5
 14
0.5
 24
0.2578947378478543
 14
-0.5
 24
0.2578947378478543
 14
-0.5
 24
0.5
  0
MTEXT
  5
CC
100
AcDbEntity
  8
Dimension
390
0
 62
               0
100
AcDbMText
 10
15.775031292552313
 20
11.424609966177314
 30
0.0
 40
0.7579186197916666
 41
0.0
 71
               1
 72
               1
  1
±0.025mm
  7
Arial
 73
               1
 44
0.9673603504928806
  0
WIPEOUT
  5
CD
100
AcDbEntity
  8
Dimension
370
              -2
390
0
  6
Continuous
 62
               0
 92
        0
100
AcDbWipeout
 90
        0
 10
20.802098813435663
 20
10.402106679718981
 30
0.0
 11
2.1060832593176109
 21
0.0
 31
0.0
 12
0.0
 22
2.1060832593176109
 32
0.0
 13
1.0
 23
1.0
340
0
 70
               7
280
               1
281
              50
282
              50
283
               0
360
0
 71
               2
 91
        5
 14
-0.5
 24
0.5
 14
0.5
 24
0.5
 14
0.5
 24
-0.0778894675453992
 14
-0.5
 24
-0.0778894675453992
 14
-0.5
 24
0.5
  0
MTEXT
  5
CE
100
AcDbEntity
  8
Dimension
390
0
 62
               0
100
AcDbMText
 10
20.802098813435663
 20
11.424611019996759
 30
0.0
 40
0.7579210069444442
 41
0.0
 71
               1
 72
               1
  1
 (x2)
  7
Arial
 73
               1
 44
0.9673603504928806
  0
POINT
  5
CF
100
AcDbEntity
  8
Defpoints
370
               0
390
0
 62
               0
100
AcDbPoint
 10
1.3494799999999998
 20
6.1398899999999976
 30
0.0
  0
POINT
  5
D0
100
AcDbEntity
  8
Defpoints
370
               0
390
0
 62
               0
100
AcDbPoint
 10
2.0743000000000222
 20
6.5838900000000002
 30
0.0
  0
ENDBLK
  5
D1
100
AcDbEntity
  8
Dimension
390
0
100
AcDbBlockEnd
  0
BLOCK
  5
D2
100
AcDbEntity
  8
Dimension
390
0
100
AcDbBlockBegin
  2
*D11
 70
               1
 10
0.0
 20
0.0
 30
0.0
  3
*D11
  1

  0
LINE
  5
D3
100
AcDbEntity
  8
Dimension
370
              -2
390
0
  6
Continuous
 62
               0
100
AcDbLine
 10
2.3949500000000228
 20
-1.7871100000000268
 30
0.0
 11
5.3549461637070692
 21
-3.6574695107386166
 31
0.0
  0
SOLID
  5
D4
100
AcDbEntity
  8
Dimension
370
              -2
390
0
 62
               0
100
AcDbTrace
 10
2.3949500000000228
 20
-1.7871100000000268
 30
0.0
 11
2.9158435560335585
 21
-1.9563585759961217
 31
0.0
 12
2.7614327641946299
 22
-2.1941303443837543
 32
0.0
 13
2.7614327641946299
 23
-2.1941303443837543
 33
0.0
  0
LINE
  5
D5
100
AcDbEntity
  8
Dimension
370
              -2
390
0
  6
Continuous
 62
               0
100
AcDbLine
 10
5.3549461637070692
 20
-3.6574695107386166
 30
0.0
 11
6.8549431656865636
 21
-3.6574695107386166
 31
0.0
  0
WIPEOUT
  5
D6
100
AcDbEntity
  8
Dimension
370
              -2
390
0
  6
Continuous
 62
               0
 92
        0
100
AcDbWipeout
 90
        0
 10
6.8549431656865636
 20
-4.2660073440719488
 30
0.0
 11
4.9741509887907238
 21
0.0
 31
0.0
 12
0.0
 22
4.9741509887907238
 32
0.0
 13
1.0
 23
1.0
340
0
 70
               7
280
               1
281
              50
282
              50
283
               0
360
0
 71
               2
 91
        5
 14
-0.5
 24
0.5
 14
0.5
 24
0.5
 14
0.5
 24
0.2553191483847807
 14
-0.5
 24
0.2553191483847807
 14
-0.5
 24
0.5
  0
MTEXT
  5
D7
100
AcDbEntity
  8
Dimension
390
0
 62
               0
100
AcDbMText
 10
6.8549431656865636
 20
-3.2435062242802823
 30
0.0
 40
0.7579186197916666
 41
0.0
 71
               1
 72
               1
  1
Ø 1.61mm
  7
Arial
 73
               1
 44
0.9673603504928806
  0
WIPEOUT
  5
D8
100
AcDbEntity
  8
Dimension
370
              -2
390
0
  6
Continuous
 62
               0
 92
        0
100
AcDbWipeout
 90
        0
 10
11.829094154477275
 20
-4.2660090107386166
 30
0.0
 11
4.434402765168084
 21
0.0
 31
0.0
 12
0.0
 22
4.434402765168084
 32
0.0
 13
1.0
 23
1.0
340
0
 70
               7
280
               1
281
              50
282
              50
283
               0
360
0
 71
               2
 91
        5
 14
-0.5
 24
0.5
 14
0.5
 24
0.5
 14
0.5
 24
0.2255369968736101
 14
-0.5
 24
0.2255369968736101
 14
-0.5
 24
0.5
  0
MTEXT
  5
D9
100
AcDbEntity
  8
Dimension
390
0
 62
               0
100
AcDbMText
 10
11.829094154477275
 20
-3.2435078909469501
 30
0.0
 40
0.7579186197916666
 41
0.0
 71
               1
 72
               1
  1
±0.05mm
  7
Arial
 73
               1
 44
0.9673603504928806
  0
WIPEOUT
  5
DA
100
AcDbEntity
  8
Dimension
370
              -2
390
0
  6
Continuous
 62
               0
 92
        0
100
AcDbWipeout
 90
        0
 10
16.263496919645377
 20
-4.2660111774052822
 30
0.0
 11
1.8097500403722115
 21
0.0
 31
0.0
 12
0.0
 22
1.8097500403722115
 32
0.0
 13
1.0
 23
1.0
340
0
 70
               7
280
               1
281
              50
282
              50
283
               0
360
0
 71
               2
 91
        5
 14
-0.5
 24
0.5
 14
0.5
 24
0.5
 14
0.5
 24
-0.1725146048804703
 14
-0.5
 24
-0.1725146048804703
 14
-0.5
 24
0.5
  0
MTEXT
  5
DB
100
AcDbEntity
  8
Dimension
390
0
 62
               0
100
AcDbMText
 10
16.263496919645377
 20
-3.2435068371275046
 30
0.0
 40
0.7579210069444442
 41
0.0
 71
               1
 72
               1
  1
(x4)
  7
Arial
 73
               1
 44
0.9673603504928806
  0
POINT
  5
DC
100
AcDbEntity
  8
Defpoints
370
               0
390
0
 62
               0
100
AcDbPoint
 10
1.033929999999998
 20
-0.9271100000000292
 30
0.0
  0
POINT
  5
DD
100
AcDbEntity
  8
Defpoints
370
               0
390
0
 62
               0
100
AcDbPoint
 10
2.3949500000000228
 20
-1.7871100000000268
 30
0.0
  0
ENDBLK
  5
DE
100
AcDbEntity
  8
Dimension
390
0
100
AcDbBlockEnd
  0
BLOCK
  5
DF
100
AcDbEntity
  8
Dimension
390
0
100
AcDbBlockBegin
  2
*D12
 70
               1
 10
0.0
 20
0.0
 30
0.0
  3
*D12
  1

  0
LINE
  5
E0
100
AcDbEntity
  8
Dimension
370
              -2
390
0
  6
Continuous
 62
               0
100
AcDbLine
 10
-8.013719999999978
 20
8.8391400011827823
 30
0.0
 11
-8.013719999999978
 21
18.352500002365559
 31
0.0
  0
LINE
  5
E1
100
AcDbEntity
  8
Dimension
370
              -2
390
0
  6
Continuous
 62
               0
100
AcDbLine
 10
-4.5412199999999814
 20
6.6566400011827787
 30
0.0
 11
-4.5412199999999814
 21
18.352500002365559
 31
0.0
  0
LINE
  5
E2
100
AcDbEntity
  8
Dimension
370
              -2
390
0
  6
Continuous
 62
               0
100
AcDbLine
 10
-4.5412199999999814
 20
17.399999999999999
 30
0.0
 11
-8.013719999999978
 21
17.399999999999999
 31
0.0
  0
LINE
  5
E3
100
AcDbEntity
  8
Dimension
370
              -2
390
0
  6
Continuous
 62
               0
100
AcDbLine
 10
-8.013719999999978
 20
17.399999999999999
 30
0.0
 11
-9.7637164983667901
 21
17.399999999999999
 31
0.0
  0
SOLID
  5
E4
100
AcDbEntity
  8
Dimension
370
              -2
390
0
 62
               0
100
AcDbTrace
 10
-8.013719999999978
 20
17.399999999999999
 30
0.0
 11
-8.8074699999999773
 21
17.187315328507793
 31
0.0
 12
-8.8074699999999773
 22
17.612684671492204
 32
0.0
 13
-8.8074699999999773
 23
17.612684671492204
 33
0.0
  0
LINE
  5
E5
100
AcDbEntity
  8
Dimension
370
              -2
390
0
  6
Continuous
 62
               0
100
AcDbLine
 10
-4.5412199999999814
 20
17.399999999999999
 30
0.0
 11
-1.5278099999999881
 21
17.399999999999999
 31
0.0
  0
SOLID
  5
E6
100
AcDbEntity
  8
Dimension
370
              -2
390
0
 62
               0
100
AcDbTrace
 10
-4.5412199999999814
 20
17.399999999999999
 30
0.0
 11
-3.7474699999999812
 21
17.612684671492204
 31
0.0
 12
-3.7474699999999812
 22
17.187315328507793
 32
0.0
 13
-3.7474699999999812
 23
17.187315328507793
 33
0.0
  0
WIPEOUT
  5
E7
100
AcDbEntity
  8
Dimension
370
              -2
390
0
  6
Continuous
 62
               0
 92
        0
100
AcDbWipeout
 90
        0
 10
-1.5278099999999881
 20
16.79146025
 30
0.0
 11
3.8523212485843232
 21
0.0
 31
0.0
 12
0.0
 22
3.8523212485843232
 32
0.0
 13
1.0
 23
1.0
340
0
 70
               7
280
               1
281
              50
282
              50
283
               0
360
0
 71
               2
 91
        5
 14
-0.5
 24
0.5
 14
0.5
 24
0.5
 14
0.5
 24
0.1840659380503998
 14
-0.5
 24
0.1840659380503998
 14
-0.5
 24
0.5
  0
MTEXT
  5
E8
100
AcDbEntity
  8
Dimension
390
0
 62
               0
100
AcDbMText
 10
-1.5278099999999881
 20
17.813961369791667
 30
0.0
 40
0.7579186197916666
 41
0.0
 71
               1
 72
               1
  1
3.47mm
  7
Arial
 73
               1
 44
0.9673603504928806
  0
POINT
  5
E9
100
AcDbEntity
  8
Defpoints
370
               0
390
0
 62
               0
100
AcDbPoint
 10
-4.5412199999999814
 20
6.1803899999999992
 30
0.0
  0
POINT
  5
EA
100
AcDbEntity
  8
Defpoints
370
               0
390
0
 62
               0
100
AcDbPoint
 10
-8.013719999999978
 20
8.3628900000000019
 30
0.0
  0
POINT
  5
EB
100
AcDbEntity
  8
Defpoints
370
               0
390
0
 62
               0
100
AcDbPoint
 10
-8.013719999999978
 20
17.399999999999999
 30
0.0
  0
ENDBLK
  5
EC
100
AcDbEntity
  8
Dimension
390
0
100
AcDbBlockEnd
  0
BLOCK
  5
ED
100
AcDbEntity
  8
Dimension
390
0
100
AcDbBlockBegin
  2
*D13
 70
               1
 10
0.0
 20
0.0
 30
0.0
  3
*D13
  1

  0
LINE
  5
EE
100
AcDbEntity
  8
Dimension
370
              -2
390
0
  6
Continuous
 62
               0
100
AcDbLine
 10
-0.2162199999999928
 20
3.3603899999999856
 30
0.0
 11
5.5992213629475884
 21
1.6281308732566089
 31
0.0
  0
SOLID
  5
EF
100
AcDbEntity
  8
Dimension
370
              -2
390
0
 62
               0
100
AcDbTrace
 10
-0.2162199999999928
 20
3.3603899999999856
 30
0.0
 11
0.3311462530395015
 21
3.3412755492500317
 31
0.0
 12
0.2482558549315335
 22
3.0701532735513917
 32
0.0
 13
0.2482558549315335
 23
3.0701532735513917
 33
0.0
  0
LINE
  5
F0
100
AcDbEntity
  8
Dimension
370
              -2
390
0
  6
Continuous
 62
               0
100
AcDbLine
 10
5.5992213629475884
 20
1.6281308732566089
 30
0.0
 11
7.0992183649270828
 21
1.6281308732566089
 31
0.0
  0
WIPEOUT
  5
F1
100
AcDbEntity
  8
Dimension
370
              -2
390
0
  6
Continuous
 62
               0
 92
        0
100
AcDbWipeout
 90
        0
 10
7.0992183649270828
 20
1.0195911232566093
 30
0.0
 11
7.0378947310977509
 21
0.0
 31
0.0
 12
0.0
 22
7.0378947310977509
 32
0.0
 13
1.0
 23
1.0
340
0
 70
               7
280
               1
281
              50
282
              50
283
               0
360
0
 71
               2
 91
        5
 14
-0.5
 24
0.5
 14
0.5
 24
0.5
 14
0.5
 24
0.3270676748513737
 14
-0.5
 24
0.3270676748513737
 14
-0.5
 24
0.5
  0
MTEXT
  5
F2
100
AcDbEntity
  8
Dimension
390
0
 62
               0
100
AcDbMText
 10
7.0992183649270828
 20
2.042092243048276
 30
0.0
 40
0.7579186197916666
 41
0.0
 71
               1
 72
               1
  1
0.28 x 0.94mm
  7
Arial
 73
               1
 44
0.9673603504928806
  0
POINT
  5
F3
100
AcDbEntity
  8
Defpoints
370
               0
390
0
 62
               0
100
AcDbPoint
 10
-1.1562199999999905
 20
3.6403899999999867
 30
0.0
  0
POINT
  5
F4
100
AcDbEntity
  8
Defpoints
370
               0
390
0
 62
               0
100
AcDbPoint
 10
-0.2162199999999928
 20
3.3603899999999856
 30
0.0
  0
ENDBLK
  5
F5
100
AcDbEntity
  8
Dimension
390
0
100
AcDbBlockEnd
  0
BLOCK
  5
F6
100
AcDbEntity
  8
Dimension
390
0
100
AcDbBlockBegin
  2
*D14
 70
               1
 10
0.0
 20
0.0
 30
0.0
  3
*D14
  1

  0
LINE
  5
F7
100
AcDbEntity
  8
Dimension
370
              -2
390
0
  6
Continuous
 62
               0
100
AcDbLine
 10
-2.401219999999995
 20
6.6566400011827787
 30
0.0
 11
-2.401219999999995
 21
12.533880002365557
 31
0.0
  0
LINE
  5
F8
100
AcDbEntity
  8
Dimension
370
              -2
390
0
  6
Continuous
 62
               0
100
AcDbLine
 10
-1.901219999999995
 20
6.6566400011827787
 30
0.0
 11
-1.901219999999995
 21
12.533880002365558
 31
0.0
  0
LINE
  5
F9
100
AcDbEntity
  8
Dimension
370
              -2
390
0
  6
Continuous
 62
               0
100
AcDbLine
 10
-1.901219999999995
 20
11.581379999999999
 30
0.0
 11
-2.401219999999995
 21
11.581379999999999
 31
0.0
  0
LINE
  5
FA
100
AcDbEntity
  8
Dimension
370
              -2
390
0
  6
Continuous
 62
               0
100
AcDbLine
 10
-2.401219999999995
 20
11.581379999999999
 30
0.0
 11
-4.1512164983668072
 21
11.581379999999999
 31
0.0
  0
SOLID
  5
FB
100
AcDbEntity
  8
Dimension
370
              -2
390
0
 62
               0
100
AcDbTrace
 10
-2.401219999999995
 20
11.581379999999999
 30
0.0
 11
-3.1949699999999952
 21
11.368695328507796
 31
0.0
 12
-3.1949699999999948
 22
11.794064671492203
 32
0.0
 13
-3.1949699999999948
 23
11.794064671492203
 33
0.0
  0
LINE
  5
FC
100
AcDbEntity
  8
Dimension
370
              -2
390
0
  6
Continuous
 62
               0
100
AcDbLine
 10
-1.901219999999995
 20
11.581379999999999
 30
0.0
 11
0.4321099999999944
 21
11.581379999999999
 31
0.0
  0
SOLID
  5
FD
100
AcDbEntity
  8
Dimension
370
              -2
390
0
 62
               0
100
AcDbTrace
 10
-1.901219999999995
 20
11.581379999999999
 30
0.0
 11
-1.1074699999999951
 21
11.794064671492203
 31
0.0
 12
-1.1074699999999951
 22
11.368695328507796
 32
0.0
 13
-1.1074699999999951
 23
11.368695328507796
 33
0.0
  0
WIPEOUT
  5
FE
100
AcDbEntity
  8
Dimension
370
              -2
390
0
  6
Continuous
 62
               0
 92
        0
100
AcDbWipeout
 90
        0
 10
0.4321099999999944
 20
10.972840249999997
 30
0.0
 11
3.2596564928690595
 21
0.0
 31
0.0
 12
0.0
 22
3.2596564928690595
 32
0.0
 13
1.0
 23
1.0
340
0
 70
               7
280
               1
281
              50
282
              50
283
               0
360
0
 71
               2
 91
        5
 14
-0.5
 24
0.5
 14
0.5
 24
0.5
 14
0.5
 24
0.1266233872610421
 14
-0.5
 24
0.1266233872610421
 14
-0.5
 24
0.5
  0
MTEXT
  5
FF
100
AcDbEntity
  8
Dimension
390
0
 62
               0
100
AcDbMText
 10
0.4321099999999944
 20
11.995341369791664
 30
0.0
 40
0.7579186197916666
 41
0.0
 71
               1
 72
               1
  1
0.5mm
  7
Arial
 73
               1
 44
0.9673603504928806
  0
POINT
  5
100
100
AcDbEntity
  8
Defpoints
370
               0
390
0
 62
               0
100
AcDbPoint
 10
-1.901219999999995
 20
6.1803899999999992
 30
0.0
  0
POINT
  5
101
100
AcDbEntity
  8
Defpoints
370
               0
390
0
 62
               0
100
AcDbPoint
 10
-2.401219999999995
 20
6.1803899999999992
 30
0.0
  0
POINT
  5
102
100
AcDbEntity
  8
Defpoints
370
               0
390
0
 62
               0
100
AcDbPoint
 10
-2.401219999999995
 20
11.581379999999999
 30
0.0
  0
ENDBLK
  5
103
100
AcDbEntity
  8
Dimension
390
0
100
AcDbBlockEnd
  0
BLOCK
  5
104
100
AcDbEntity
  8
Dimension
390
0
100
AcDbBlockBegin
  2
*D15
 70
               1
 10
0.0
 20
0.0
 30
0.0
  3
*D15
  1

  0
LINE
  5
105
100
AcDbEntity
  8
Dimension
370
              -2
390
0
  6
Continuous
 62
               0
100
AcDbLine
 10
-6.0574700011827929
 20
5.1403899999999929
 30
0.0
 11
-16.899060002365559
 21
5.1403899999999929
 31
0.0
  0
LINE
  5
106
100
AcDbEntity
  8
Dimension
370
              -2
390
0
  6
Continuous
 62
               0
100
AcDbLine
 10
-6.0574700011827929
 20
1.8603899999999793
 30
0.0
 11
-16.899060002365559
 21
1.8603899999999793
 31
0.0
  0
LINE
  5
107
100
AcDbEntity
  8
Dimension
370
              -2
390
0
  6
Continuous
 62
               0
100
AcDbLine
 10
-15.946560000000005
 20
1.8603899999999793
 30
0.0
 11
-15.946560000000005
 21
5.1403899999999929
 31
0.0
  0
LINE
  5
108
100
AcDbEntity
  8
Dimension
370
              -2
390
0
  6
Continuous
 62
               0
100
AcDbLine
 10
-15.946560000000005
 20
5.1403899999999929
 30
0.0
 11
-15.946560000000005
 21
6.8903864983668104
 31
0.0
  0
SOLID
  5
109
100
AcDbEntity
  8
Dimension
370
              -2
390
0
 62
               0
100
AcDbTrace
 10
-15.946560000000005
 20
5.1403899999999929
 30
0.0
 11
-16.15924467149221
 21
5.9341399999999931
 31
0.0
 12
-15.733875328507802
 22
5.9341399999999931
 32
0.0
 13
-15.733875328507802
 23
5.9341399999999931
 33
0.0
  0
LINE
  5
10A
100
AcDbEntity
  8
Dimension
370
              -2
390
0
  6
Continuous
 62
               0
100
AcDbLine
 10
-15.946560000000005
 20
1.8603899999999793
 30
0.0
 11
-15.946560000000005
 21
-1.4486200000000213
 31
0.0
  0
SOLID
  5
10B
100
AcDbEntity
  8
Dimension
370
              -2
390
0
 62
               0
100
AcDbTrace
 10
-15.946560000000005
 20
1.8603899999999793
 30
0.0
 11
-15.733875328507802
 21
1.0666399999999792
 31
0.0
 12
-16.15924467149221
 22
1.0666399999999794
 32
0.0
 13
-16.15924467149221
 23
1.0666399999999794
 33
0.0
  0
WIPEOUT
  5
10C
100
AcDbEntity
  8
Dimension
370
              -2
390
0
  6
Continuous
 62
               0
 92
        0
100
AcDbWipeout
 90
        0
 10
-17.872720624292157
 20
-2.0571597500000207
 30
0.0
 11
3.8523212485843228
 21
0.0
 31
0.0
 12
0.0
 22
3.8523212485843228
 32
0.0
 13
1.0
 23
1.0
340
0
 70
               7
280
               1
281
              50
282
              50
283
               0
360
0
 71
               2
 91
        5
 14
-0.5
 24
0.5
 14
0.5
 24
0.5
 14
0.5
 24
0.1840659380504001
 14
-0.5
 24
0.1840659380504001
 14
-0.5
 24
0.5
  0
MTEXT
  5
10D
100
AcDbEntity
  8
Dimension
390
0
 62
               0
100
AcDbMText
 10
-17.872720624292157
 20
-1.0346586302083545
 30
0.0
 40
0.7579186197916666
 41
0.0
 71
               1
 72
               1
  1
3.28mm
  7
Arial
 73
               1
 44
0.9673603504928806
  0
POINT
  5
10E
100
AcDbEntity
  8
Defpoints
370
               0
390
0
 62
               0
100
AcDbPoint
 10
-5.5812200000000018
 20
1.8603899999999793
 30
0.0
  0
POINT
  5
10F
100
AcDbEntity
  8
Defpoints
370
               0
390
0
 62
               0
100
AcDbPoint
 10
-5.5812200000000018
 20
5.1403899999999929
 30
0.0
  0
POINT
  5
110
100
AcDbEntity
  8
Defpoints
370
               0
390
0
 62
               0
100
AcDbPoint
 10
-15.946560000000002
 20
5.1403899999999929
 30
0.0
  0
ENDBLK
  5
111
100
AcDbEntity
  8
Dimension
390
0
100
AcDbBlockEnd
  0
BLOCK
  5
112
100
AcDbEntity
  8
Dimension
390
0
100
AcDbBlockBegin
  2
*D16
 70
               1
 10
0.0
 20
0.0
 30
0.0
  3
*D16
  1

  0
LINE
  5
113
100
AcDbEntity
  8
Dimension
370
              -2
390
0
  6
Continuous
 62
               0
100
AcDbLine
 10
-5.0174700011827724
 20
6.1803899999999992
 30
0.0
 11
-20.39906000236553
 21
6.1803899999999992
 31
0.0
  0
LINE
  5
114
100
AcDbEntity
  8
Dimension
370
              -2
390
0
  6
Continuous
 62
               0
100
AcDbLine
 10
-5.0174700011827724
 20
0.8203899999999749
 30
0.0
 11
-20.39906000236553
 21
0.8203899999999749
 31
0.0
  0
LINE
  5
115
100
AcDbEntity
  8
Dimension
370
              -2
390
0
  6
Continuous
 62
               0
100
AcDbLine
 10
-19.446559999999977
 20
6.1803899999999992
 30
0.0
 11
-19.446559999999977
 21
0.8203899999999749
 31
0.0
  0
SOLID
  5
116
100
AcDbEntity
  8
Dimension
370
              -2
390
0
 62
               0
100
AcDbTrace
 10
-19.446559999999977
 20
6.1803899999999992
 30
0.0
 11
-19.233875328507775
 21
5.386639999999999
 31
0.0
 12
-19.659244671492182
 22
5.386639999999999
 32
0.0
 13
-19.659244671492182
 23
5.386639999999999
 33
0.0
  0
SOLID
  5
117
100
AcDbEntity
  8
Dimension
370
              -2
390
0
 62
               0
100
AcDbTrace
 10
-19.446559999999977
 20
0.8203899999999749
 30
0.0
 11
-19.659244671492182
 21
1.6141399999999748
 31
0.0
 12
-19.233875328507771
 22
1.6141399999999748
 32
0.0
 13
-19.233875328507771
 23
1.6141399999999748
 33
0.0
  0
WIPEOUT
  5
118
100
AcDbEntity
  8
Dimension
370
              -2
390
0
  6
Continuous
 62
               0
 92
        0
100
AcDbWipeout
 90
        0
 10
-21.372720624292128
 20
2.8918502499999867
 30
0.0
 11
3.8523212485843246
 21
0.0
 31
0.0
 12
0.0
 22
3.8523212485843246
 32
0.0
 13
1.0
 23
1.0
340
0
 70
               7
280
               1
281
              50
282
              50
283
               0
360
0
 71
               2
 91
        5
 14
-0.5
 24
0.5
 14
0.5
 24
0.5
 14
0.5
 24
0.1840659380504002
 14
-0.5
 24
0.1840659380504002
 14
-0.5
 24
0.5
  0
MTEXT
  5
119
100
AcDbEntity
  8
Dimension
390
0
 62
               0
100
AcDbMText
 10
-21.372720624292128
 20
3.9143513697916532
 30
0.0
 40
0.7579186197916666
 41
0.0
 71
               1
 72
               1
  1
5.36mm
  7
Arial
 73
               1
 44
0.9673603504928806
  0
POINT
  5
11A
100
AcDbEntity
  8
Defpoints
370
               0
390
0
 62
               0
100
AcDbPoint
 10
-4.5412199999999814
 20
0.8203899999999749
 30
0.0
  0
POINT
  5
11B
100
AcDbEntity
  8
Defpoints
370
               0
390
0
 62
               0
100
AcDbPoint
 10
-4.5412199999999814
 20
6.1803899999999992
 30
0.0
  0
POINT
  5
11C
100
AcDbEntity
  8
Defpoints
370
               0
390
0
 62
               0
100
AcDbPoint
 10
-19.44655999999998
 20
6.1803899999999992
 30
0.0
  0
ENDBLK
  5
11D
100
AcDbEntity
  8
Dimension
390
0
100
AcDbBlockEnd
  0
BLOCK
  5
11E
100
AcDbEntity
  8
Dimension
390
0
100
AcDbBlockBegin
  2
*D17
 70
               1
 10
0.0
 20
0.0
 30
0.0
  3
*D17
  1

  0
LINE
  5
11F
100
AcDbEntity
  8
Dimension
370
              -2
390
0
  6
Continuous
 62
               0
100
AcDbLine
 10
-4.5412199999999814
 20
0.3441399988171945
 30
0.0
 11
-4.5412199999999814
 21
-7.0211200023655831
 31
0.0
  0
LINE
  5
120
100
AcDbEntity
  8
Dimension
370
              -2
390
0
  6
Continuous
 62
               0
100
AcDbLine
 10
-1.2612199999999802
 20
0.3441399988171945
 30
0.0
 11
-1.2612199999999802
 21
-7.0211200023655866
 31
0.0
  0
LINE
  5
121
100
AcDbEntity
  8
Dimension
370
              -2
390
0
  6
Continuous
 62
               0
100
AcDbLine
 10
-1.2612199999999802
 20
-6.0686200000000259
 30
0.0
 11
-4.5412199999999814
 21
-6.0686200000000259
 31
0.0
  0
LINE
  5
122
100
AcDbEntity
  8
Dimension
370
              -2
390
0
  6
Continuous
 62
               0
100
AcDbLine
 10
-4.5412199999999814
 20
-6.0686200000000259
 30
0.0
 11
-7.0162199999999757
 21
-6.0686200000000259
 31
0.0
  0
SOLID
  5
123
100
AcDbEntity
  8
Dimension
370
              -2
390
0
 62
               0
100
AcDbTrace
 10
-4.5412199999999814
 20
-6.0686200000000259
 30
0.0
 11
-5.3349699999999816
 21
-6.2813046714922294
 31
0.0
 12
-5.3349699999999816
 22
-5.8559353285078224
 32
0.0
 13
-5.3349699999999816
 23
-5.8559353285078224
 33
0.0
  0
LINE
  5
124
100
AcDbEntity
  8
Dimension
370
              -2
390
0
  6
Continuous
 62
               0
100
AcDbLine
 10
-1.2612199999999802
 20
-6.0686200000000259
 30
0.0
 11
0.4887764983668319
 21
-6.0686200000000259
 31
0.0
  0
SOLID
  5
125
100
AcDbEntity
  8
Dimension
370
              -2
390
0
 62
               0
100
AcDbTrace
 10
-1.2612199999999802
 20
-6.0686200000000259
 30
0.0
 11
-0.4674699999999803
 21
-5.8559353285078224
 31
0.0
 12
-0.4674699999999803
 22
-6.2813046714922294
 32
0.0
 13
-0.4674699999999803
 23
-6.2813046714922294
 33
0.0
  0
WIPEOUT
  5
126
100
AcDbEntity
  8
Dimension
370
              -2
390
0
  6
Continuous
 62
               0
 92
        0
100
AcDbWipeout
 90
        0
 10
-10.868541248584307
 20
-6.6771597500000235
 30
0.0
 11
3.8523212485843228
 21
0.0
 31
0.0
 12
0.0
 22
3.8523212485843228
 32
0.0
 13
1.0
 23
1.0
340
0
 70
               7
280
               1
281
              50
282
              50
283
               0
360
0
 71
               2
 91
        5
 14
-0.5
 24
0.5
 14
0.5
 24
0.5
 14
0.5
 24
0.1840659380504001
 14
-0.5
 24
0.1840659380504001
 14
-0.5
 24
0.5
  0
MTEXT
  5
127
100
AcDbEntity
  8
Dimension
390
0
 62
               0
100
AcDbMText
 10
-10.868541248584307
 20
-5.654658630208357
 30
0.0
 40
0.7579186197916666
 41
0.0
 71
               1
 72
               1
  1
3.28mm
  7
Arial
 73
               1
 44
0.9673603504928806
  0
POINT
  5
128
100
AcDbEntity
  8
Defpoints
370
               0
390
0
 62
               0
100
AcDbPoint
 10
-1.2612199999999802
 20
0.8203899999999749
 30
0.0
  0
POINT
  5
129
100
AcDbEntity
  8
Defpoints
370
               0
390
0
 62
               0
100
AcDbPoint
 10
-4.5412199999999814
 20
0.8203899999999749
 30
0.0
  0
POINT
  5
12A
100
AcDbEntity
  8
Defpoints
370
               0
390
0
 62
               0
100
AcDbPoint
 10
-4.5412199999999814
 20
-6.0686200000000241
 30
0.0
  0
ENDBLK
  5
12B
100
AcDbEntity
  8
Dimension
390
0
100
AcDbBlockEnd
  0
BLOCK
  5
12C
100
AcDbEntity
  8
Dimension
390
0
100
AcDbBlockBegin
  2
*D18
 70
               1
 10
0.0
 20
0.0
 30
0.0
  3
*D18
  1

  0
LINE
  5
12D
100
AcDbEntity
  8
Dimension
370
              -2
390
0
  6
Continuous
 62
               0
100
AcDbLine
 10
-5.5812200000000018
 20
1.384139998817199
 30
0.0
 11
-5.5812200000000018
 21
-8.871120002365581
 31
0.0
  0
LINE
  5
12E
100
AcDbEntity
  8
Dimension
370
              -2
390
0
  6
Continuous
 62
               0
100
AcDbLine
 10
-0.2212199999999882
 20
1.384139998817199
 30
0.0
 11
-0.2212199999999882
 21
-8.871120002365581
 31
0.0
  0
LINE
  5
12F
100
AcDbEntity
  8
Dimension
370
              -2
390
0
  6
Continuous
 62
               0
100
AcDbLine
 10
-0.2212199999999882
 20
-7.9186200000000202
 30
0.0
 11
-5.5812200000000018
 21
-7.9186200000000202
 31
0.0
  0
LINE
  5
130
100
AcDbEntity
  8
Dimension
370
              -2
390
0
  6
Continuous
 62
               0
100
AcDbLine
 10
-5.5812200000000018
 20
-7.9186200000000202
 30
0.0
 11
-7.331216498366814
 21
-7.9186200000000202
 31
0.0
  0
SOLID
  5
131
100
AcDbEntity
  8
Dimension
370
              -2
390
0
 62
               0
100
AcDbTrace
 10
-5.5812200000000018
 20
-7.9186200000000202
 30
0.0
 11
-6.374970000000002
 21
-8.1313046714922237
 31
0.0
 12
-6.374970000000002
 22
-7.7059353285078167
 32
0.0
 13
-6.374970000000002
 23
-7.7059353285078167
 33
0.0
  0
LINE
  5
132
100
AcDbEntity
  8
Dimension
370
              -2
390
0
  6
Continuous
 62
               0
100
AcDbLine
 10
-0.2212199999999882
 20
-7.9186200000000202
 30
0.0
 11
1.5287764983668239
 21
-7.9186200000000202
 31
0.0
  0
SOLID
  5
133
100
AcDbEntity
  8
Dimension
370
              -2
390
0
 62
               0
100
AcDbTrace
 10
-0.2212199999999882
 20
-7.9186200000000202
 30
0.0
 11
0.5725300000000118
 21
-7.7059353285078167
 31
0.0
 12
0.5725300000000118
 22
-8.1313046714922237
 32
0.0
 13
0.5725300000000118
 23
-8.1313046714922237
 33
0.0
  0
WIPEOUT
  5
134
100
AcDbEntity
  8
Dimension
370
              -2
390
0
  6
Continuous
 62
               0
 92
        0
100
AcDbWipeout
 90
        0
 10
-4.5999306731202694
 20
-8.5271597500000187
 30
0.0
 11
3.8523212485843232
 21
0.0
 31
0.0
 12
0.0
 22
3.8523212485843232
 32
0.0
 13
1.0
 23
1.0
340
0
 70
               7
280
               1
281
              50
282
              50
283
               0
360
0
 71
               2
 91
        5
 14
-0.5
 24
0.5
 14
0.5
 24
0.5
 14
0.5
 24
0.1840659380503998
 14
-0.5
 24
0.1840659380503998
 14
-0.5
 24
0.5
  0
MTEXT
  5
135
100
AcDbEntity
  8
Dimension
390
0
 62
               0
100
AcDbMText
 10
-4.5999306731202694
 20
-7.5046586302083513
 30
0.0
 40
0.7579186197916666
 41
0.0
 71
               1
 72
               1
  1
5.36mm
  7
Arial
 73
               1
 44
0.9673603504928806
  0
POINT
  5
136
100
AcDbEntity
  8
Defpoints
370
               0
390
0
 62
               0
100
AcDbPoint
 10
-0.2212199999999882
 20
1.8603899999999793
 30
0.0
  0
POINT
  5
137
100
AcDbEntity
  8
Defpoints
370
               0
390
0
 62
               0
100
AcDbPoint
 10
-5.5812200000000018
 20
1.8603899999999793
 30
0.0
  0
POINT
  5
138
100
AcDbEntity
  8
Defpoints
370
               0
390
0
 62
               0
100
AcDbPoint
 10
-5.5812200000000018
 20
-7.9186200000000202
 30
0.0
  0
ENDBLK
  5
139
100
AcDbEntity
  8
Dimension
390
0
100
AcDbBlockEnd
  0
BLOCK
  5
13A
100
AcDbEntity
  8
None
390
0
100
AcDbBlockBegin
  2
Group
 70
               0
 10
0.0
 20
0.0
 30
0.0
  3
Group
  1

  0
SOLID
  5
13B
100
AcDbEntity
  8
None
370
               5
390
0
  6
Continuous
 62
               7
100
AcDbTrace
 10
-5.5812200000000018
 20
4.8603899999999918
 30
0.0
 11
-5.5812200000000018
 21
5.1403899999999929
 31
0.0
 12
-4.6412199999999757
 22
4.8603899999999918
 32
0.0
 13
-4.6412199999999757
 23
5.1403899999999929
 33
0.0
  0
SOLID
  5
13C
100
AcDbEntity
  8
None
370
               5
390
0
  6
Continuous
 62
               7
100
AcDbTrace
 10
-5.5812200000000018
 20
4.36038999999999
 30
0.0
 11
-5.5812200000000018
 21
4.6403899999999911
 31
0.0
 12
-4.6412199999999757
 22
4.36038999999999
 32
0.0
 13
-4.6412199999999757
 23
4.6403899999999911
 33
0.0
  0
SOLID
  5
13D
100
AcDbEntity
  8
None
370
               5
390
0
  6
Continuous
 62
               7
100
AcDbTrace
 10
-5.5812200000000018
 20
3.8603899999999873
 30
0.0
 11
-5.5812200000000018
 21
4.1403899999999876
 31
0.0
 12
-4.6412199999999757
 22
3.8603899999999873
 32
0.0
 13
-4.6412199999999757
 23
4.1403899999999876
 33
0.0
  0
SOLID
  5
13E
100
AcDbEntity
  8
None
370
               5
390
0
  6
Continuous
 62
               7
100
AcDbTrace
 10
-5.5812200000000018
 20
3.3603899999999856
 30
0.0
 11
-5.5812200000000018
 21
3.6403899999999867
 31
0.0
 12
-4.6412199999999757
 22
3.3603899999999856
 32
0.0
 13
-4.6412199999999757
 23
3.6403899999999867
 33
0.0
  0
SOLID
  5
13F
100
AcDbEntity
  8
None
370
               5
390
0
  6
Continuous
 62
               7
100
AcDbTrace
 10
-5.5812200000000018
 20
2.8603899999999838
 30
0.0
 11
-5.5812200000000018
 21
3.1403899999999849
 31
0.0
 12
-4.6412199999999757
 22
2.8603899999999838
 32
0.0
 13
-4.6412199999999757
 23
3.1403899999999849
 33
0.0
  0
SOLID
  5
140
100
AcDbEntity
  8
None
370
               5
390
0
  6
Continuous
 62
               7
100
AcDbTrace
 10
-5.5812200000000018
 20
2.3603899999999811
 30
0.0
 11
-5.5812200000000018
 21
2.6403899999999831
 31
0.0
 12
-4.6412199999999757
 22
2.3603899999999811
 32
0.0
 13
-4.6412199999999757
 23
2.6403899999999831
 33
0.0
  0
SOLID
  5
141
100
AcDbEntity
  8
None
370
               5
390
0
  6
Continuous
 62
               7
100
AcDbTrace
 10
-5.5812200000000018
 20
1.8603899999999793
 30
0.0
 11
-5.5812200000000018
 21
2.1403899999999805
 31
0.0
 12
-4.6412199999999757
 22
1.8603899999999793
 32
0.0
 13
-4.6412199999999757
 23
2.1403899999999805
 33
0.0
  0
SOLID
  5
142
100
AcDbEntity
  8
None
370
               5
390
0
  6
Continuous
 62
               7
100
AcDbTrace
 10
-1.1612199999999859
 20
4.8603899999999918
 30
0.0
 11
-1.1612199999999859
 21
5.1403899999999929
 31
0.0
 12
-0.2212199999999882
 22
4.8603899999999918
 32
0.0
 13
-0.2212199999999882
 23
5.1403899999999929
 33
0.0
  0
SOLID
  5
143
100
AcDbEntity
  8
None
370
               5
390
0
  6
Continuous
 62
               7
100
AcDbTrace
 10
-1.1612199999999859
 20
4.36038999999999
 30
0.0
 11
-1.1612199999999859
 21
4.6403899999999911
 31
0.0
 12
-0.2212199999999882
 22
4.36038999999999
 32
0.0
 13
-0.2212199999999882
 23
4.6403899999999911
 33
0.0
  0
SOLID
  5
144
100
AcDbEntity
  8
None
370
               5
390
0
  6
Continuous
 62
               7
100
AcDbTrace
 10
-1.1612199999999859
 20
3.8603899999999873
 30
0.0
 11
-1.1612199999999859
 21
4.1403899999999876
 31
0.0
 12
-0.2212199999999882
 22
3.8603899999999873
 32
0.0
 13
-0.2212199999999882
 23
4.1403899999999876
 33
0.0
  0
SOLID
  5
145
100
AcDbEntity
  8
None
370
               5
390
0
  6
Continuous
 62
               7
100
AcDbTrace
 10
-1.1612199999999859
 20
3.3603899999999856
 30
0.0
 11
-1.1612199999999859
 21
3.6403899999999867
 31
0.0
 12
-0.2212199999999882
 22
3.3603899999999856
 32
0.0
 13
-0.2212199999999882
 23
3.6403899999999867
 33
0.0
  0
SOLID
  5
146
100
AcDbEntity
  8
None
370
               5
390
0
  6
Continuous
 62
               7
100
AcDbTrace
 10
-1.1612199999999859
 20
2.8603899999999838
 30
0.0
 11
-1.1612199999999859
 21
3.1403899999999849
 31
0.0
 12
-0.2212199999999882
 22
2.8603899999999838
 32
0.0
 13
-0.2212199999999882
 23
3.1403899999999849
 33
0.0
  0
SOLID
  5
147
100
AcDbEntity
  8
None
370
               5
390
0
  6
Continuous
 62
               7
100
AcDbTrace
 10
-1.1612199999999859
 20
2.3603899999999811
 30
0.0
 11
-1.1612199999999859
 21
2.6403899999999831
 31
0.0
 12
-0.2212199999999882
 22
2.3603899999999811
 32
0.0
 13
-0.2212199999999882
 23
2.6403899999999831
 33
0.0
  0
SOLID
  5
148
100
AcDbEntity
  8
None
370
               5
390
0
  6
Continuous
 62
               7
100
AcDbTrace
 10
-1.1612199999999859
 20
1.8603899999999793
 30
0.0
 11
-1.1612199999999859
 21
2.1403899999999805
 31
0.0
 12
-0.2212199999999882
 22
1.8603899999999793
 32
0.0
 13
-0.2212199999999882
 23
2.1403899999999805
 33
0.0
  0
SOLID
  5
149
100
AcDbEntity
  8
None
370
               5
390
0
  6
Continuous
 62
               7
100
AcDbTrace
 10
-1.5412199999999814
 20
5.2403899999999943
 30
0.0
 11
-1.5412199999999814
 21
6.1803899999999992
 31
0.0
 12
-1.2612199999999802
 22
5.2403899999999943
 32
0.0
 13
-1.2612199999999802
 23
6.1803899999999992
 33
0.0
  0
SOLID
  5
14A
100
AcDbEntity
  8
None
370
               5
390
0
  6
Continuous
 62
               7
100
AcDbTrace
 10
-2.0412199999999814
 20
5.2403899999999943
 30
0.0
 11
-2.0412199999999814
 21
6.1803899999999992
 31
0.0
 12
-1.7612199999999802
 22
5.2403899999999943
 32
0.0
 13
-1.7612199999999802
 23
6.1803899999999992
 33
0.0
  0
SOLID
  5
14B
100
AcDbEntity
  8
None
370
               5
390
0
  6
Continuous
 62
               7
100
AcDbTrace
 10
-2.5412199999999814
 20
5.2403899999999943
 30
0.0
 11
-2.5412199999999814
 21
6.1803899999999992
 31
0.0
 12
-2.2612199999999802
 22
5.2403899999999943
 32
0.0
 13
-2.2612199999999802
 23
6.1803899999999992
 33
0.0
  0
SOLID
  5
14C
100
AcDbEntity
  8
None
370
               5
390
0
  6
Continuous
 62
               7
100
AcDbTrace
 10
-3.0412199999999814
 20
5.2403899999999943
 30
0.0
 11
-3.0412199999999814
 21
6.1803899999999992
 31
0.0
 12
-2.7612199999999802
 22
5.2403899999999943
 32
0.0
 13
-2.7612199999999802
 23
6.1803899999999992
 33
0.0
  0
SOLID
  5
14D
100
AcDbEntity
  8
None
370
               5
390
0
  6
Continuous
 62
               7
100
AcDbTrace
 10
-3.5412199999999814
 20
5.2403899999999943
 30
0.0
 11
-3.5412199999999814
 21
6.1803899999999992
 31
0.0
 12
-3.2612199999999802
 22
5.2403899999999943
 32
0.0
 13
-3.2612199999999802
 23
6.1803899999999992
 33
0.0
  0
SOLID
  5
14E
100
AcDbEntity
  8
None
370
               5
390
0
  6
Continuous
 62
               7
100
AcDbTrace
 10
-4.0412199999999814
 20
5.2403899999999943
 30
0.0
 11
-4.0412199999999814
 21
6.1803899999999992
 31
0.0
 12
-3.7612199999999802
 22
5.2403899999999943
 32
0.0
 13
-3.7612199999999802
 23
6.1803899999999992
 33
0.0
  0
SOLID
  5
14F
100
AcDbEntity
  8
None
370
               5
390
0
  6
Continuous
 62
               7
100
AcDbTrace
 10
-4.5412199999999814
 20
5.2403899999999943
 30
0.0
 11
-4.5412199999999814
 21
6.1803899999999992
 31
0.0
 12
-4.2612199999999802
 22
5.2403899999999943
 32
0.0
 13
-4.2612199999999802
 23
6.1803899999999992
 33
0.0
  0
SOLID
  5
150
100
AcDbEntity
  8
None
370
               5
390
0
  6
Continuous
 62
               7
100
AcDbTrace
 10
-1.5412199999999814
 20
0.8203899999999749
 30
0.0
 11
-1.5412199999999814
 21
1.7603899999999797
 31
0.0
 12
-1.2612199999999802
 22
0.8203899999999749
 32
0.0
 13
-1.2612199999999802
 23
1.7603899999999797
 33
0.0
  0
SOLID
  5
151
100
AcDbEntity
  8
None
370
               5
390
0
  6
Continuous
 62
               7
100
AcDbTrace
 10
-2.0412199999999814
 20
0.8203899999999749
 30
0.0
 11
-2.0412199999999814
 21
1.7603899999999797
 31
0.0
 12
-1.7612199999999802
 22
0.8203899999999749
 32
0.0
 13
-1.7612199999999802
 23
1.7603899999999797
 33
0.0
  0
SOLID
  5
152
100
AcDbEntity
  8
None
370
               5
390
0
  6
Continuous
 62
               7
100
AcDbTrace
 10
-2.5412199999999814
 20
0.8203899999999749
 30
0.0
 11
-2.5412199999999814
 21
1.7603899999999797
 31
0.0
 12
-2.2612199999999802
 22
0.8203899999999749
 32
0.0
 13
-2.2612199999999802
 23
1.7603899999999797
 33
0.0
  0
SOLID
  5
153
100
AcDbEntity
  8
None
370
               5
390
0
  6
Continuous
 62
               7
100
AcDbTrace
 10
-3.0412199999999814
 20
0.8203899999999749
 30
0.0
 11
-3.0412199999999814
 21
1.7603899999999797
 31
0.0
 12
-2.7612199999999802
 22
0.8203899999999749
 32
0.0
 13
-2.7612199999999802
 23
1.7603899999999797
 33
0.0
  0
SOLID
  5
154
100
AcDbEntity
  8
None
370
               5
390
0
  6
Continuous
 62
               7
100
AcDbTrace
 10
-3.5412199999999814
 20
0.8203899999999749
 30
0.0
 11
-3.5412199999999814
 21
1.7603899999999797
 31
0.0
 12
-3.2612199999999802
 22
0.8203899999999749
 32
0.0
 13
-3.2612199999999802
 23
1.7603899999999797
 33
0.0
  0
SOLID
  5
155
100
AcDbEntity
  8
None
370
               5
390
0
  6
Continuous
 62
               7
100
AcDbTrace
 10
-4.0412199999999814
 20
0.8203899999999749
 30
0.0
 11
-4.0412199999999814
 21
1.7603899999999797
 31
0.0
 12
-3.7612199999999802
 22
0.8203899999999749
 32
0.0
 13
-3.7612199999999802
 23
1.7603899999999797
 33
0.0
  0
SOLID
  5
156
100
AcDbEntity
  8
None
370
               5
390
0
  6
Continuous
 62
               7
100
AcDbTrace
 10
-4.5412199999999814
 20
0.8203899999999749
 30
0.0
 11
-4.5412199999999814
 21
1.7603899999999797
 31
0.0
 12
-4.2612199999999802
 22
0.8203899999999749
 32
0.0
 13
-4.2612199999999802
 23
1.7603899999999797
 33
0.0
  0
ENDBLK
  5
157
100
AcDbEntity
  8
None
390
0
100
AcDbBlockEnd
  0
ENDSEC
  0
SECTION
  2
ENTITIES
  0
WIPEOUT
  5
158
100
AcDbEntity
  8
None
370
               5
390
0
  6
Continuous
 62
               7
 92
        0
100
AcDbWipeout
 90
        0
 10
-5.9855764138322343
 20
-19.276153999999998
 30
0.0
 11
4.4567370387441656
 21
0.0
 31
0.0
 12
0.0
 22
4.4567370387441656
 32
0.0
 13
1.0
 23
1.0
340
0
 70
               7
280
               1
281
              50
282
              50
283
               0
360
0
 71
               2
 91
        5
 14
-0.5
 24
0.5
 14
0.4999999999999996
 24
0.5
 14
0.4999999999999996
 24
0.196569937098856
 14
-0.5
 24
0.196569937098856
 14
-0.5
 24
0.5
  0
MTEXT
  5
159
100
AcDbEntity
  8
None
390
0
 62
               7
100
AcDbMText
 10
-5.9855764138322343
 20
-18.140043791666663
 30
0.0
 40
0.8421302083333332
 41
0.0
 71
               1
 72
               1
  1
MLF28A
  7
Arial
 73
               1
 44
0.9673603504928806
  0
WIPEOUT
  5
15A
100
AcDbEntity
  8
None
370
               9
390
0
  6
STYLE_11
 62
               7
 92
        0
100
AcDbWipeout
 90
        0
 10
-9.263719999999978
 20
-2.6121100000000226
 30
0.0
 11
12.225000000000023
 21
0.0
 31
0.0
 12
0.0
 22
12.225000000000023
 32
0.0
 13
1.0
 23
1.0
340
0
 70
               7
280
               1
281
              50
282
              50
283
               0
360
0
 71
               2
 91
        5
 14
-0.5
 24
-0.5
 14
0.4999999999999977
 24
-0.5
 14
0.4999999999999977
 24
0.5
 14
-0.5
 24
0.5
 14
-0.5
 24
-0.5
  0
POLYLINE
  5
15B
100
AcDbEntity
  8
None
370
               9
390
0
  6
STYLE_11
 62
               7
100
AcDb2dPolyline
 66
               1
 10
0.0
 20
0.0
 30
0.0
 70
               1
 75
               5
  0
VERTEX
  5
15C
100
AcDbEntity
  8
None
370
               9
390
0
  6
STYLE_11
 62
               7
100
AcDbVertex
100
AcDb2dVertex
 10
-9.263719999999978
 20
9.6128900000000002
 30
0.0
  0
VERTEX
  5
15D
100
AcDbEntity
  8
None
370
               9
390
0
  6
STYLE_11
 62
               7
100
AcDbVertex
100
AcDb2dVertex
 10
2.9612800000000163
 20
9.6128900000000002
 30
0.0
  0
VERTEX
  5
15E
100
AcDbEntity
  8
None
370
               9
390
0
  6
STYLE_11
 62
               7
100
AcDbVertex
100
AcDb2dVertex
 10
2.9612800000000163
 20
-2.6121100000000226
 30
0.0
  0
VERTEX
  5
15F
100
AcDbEntity
  8
None
370
               9
390
0
  6
STYLE_11
 62
               7
100
AcDbVertex
100
AcDb2dVertex
 10
-9.263719999999978
 20
-2.6121100000000226
 30
0.0
  0
SEQEND
  5
160
100
AcDbEntity
  8
None
370
               9
390
0
  6
STYLE_11
 62
               7
  0
CIRCLE
  5
161
102
{ACAD_REACTORS
330
162
102
}
100
AcDbEntity
  8
None
370
              15
390
0
  6
Continuous
 62
             180
100
AcDbCircle
 10
-6.2465599999999881
 20
8.5951500000000003
 30
0.0
 40
0.2500014851955843
  0
HATCH
  5
162
100
AcDbEntity
  8
None
370
               0
390
0
  6
Continuous
 62
             180
100
AcDbHatch
 10
0.0
 20
0.0
 30
0.0
210
0.0
220
0.0
230
1.0
  2
SOLID
 70
               1
 71
               1
 91
        1
 92
        1
 93
        1
 72
               2
 10
-6.2465599999999881
 20
8.5951500000000003
 40
0.2500014851955843
 50
0.0
 51
360.0
 73
               0
 97
        1
330
161
 75
               0
 76
               1
 98
        1
 10
0.0
 20
0.0
  0
WIPEOUT
  5
163
100
AcDbEntity
  8
None
370
               9
390
0
  6
Continuous
 62
               7
 92
        0
100
AcDbWipeout
 90
        0
 10
-8.8187199999999564
 20
7.5578900000000235
 30
0.0
 11
1.6099999999999568
 21
0.0
 31
0.0
 12
0.0
 22
1.6099999999999568
 32
0.0
 13
1.0
 23
1.0
340
0
 70
               7
280
               1
281
              50
282
              50
283
               0
360
0
 71
               2
 91
        9
 14
0.5
 24
0.0
 14
0.353553390593274
 24
0.353553390593274
 14
0.0
 24
0.5
 14
-0.3535533905932734
 24
0.353553390593274
 14
-0.5
 24
0.0
 14
-0.3535533905932734
 24
-0.3535533905932734
 14
0.0
 24
-0.5
 14
0.353553390593274
 24
-0.3535533905932734
 14
0.5
 24
0.0
  0
CIRCLE
  5
164
100
AcDbEntity
  8
None
370
               9
390
0
  6
Continuous
 62
               7
100
AcDbCircle
 10
-8.013719999999978
 20
8.3628900000000019
 30
0.0
 40
0.8049999999999784
  0
WIPEOUT
  5
165
100
AcDbEntity
  8
None
370
               9
390
0
  6
Continuous
 62
               7
 92
        0
100
AcDbWipeout
 90
        0
 10
0.9062800000000095
 20
-2.1671100000000365
 30
0.0
 11
1.6100000000000136
 21
0.0
 31
0.0
 12
0.0
 22
1.6100000000000136
 32
0.0
 13
1.0
 23
1.0
340
0
 70
               7
280
               1
281
              50
282
              50
283
               0
360
0
 71
               2
 91
        9
 14
-0.5
 24
0.0
 14
-0.3535533905932737
 24
-0.3535533905932738
 14
0.0
 24
-0.5
 14
0.3535533905932736
 24
-0.3535533905932738
 14
0.5
 24
0.0
 14
0.3535533905932736
 24
0.3535533905932738
 14
0.0
 24
0.5
 14
-0.3535533905932737
 24
0.3535533905932738
 14
-0.5
 24
0.0
  0
CIRCLE
  5
166
100
AcDbEntity
  8
None
370
               9
390
0
  6
Continuous
 62
               7
100
AcDbCircle
 10
1.7112800000000163
 20
-1.3621100000000297
 30
0.0
 40
0.8050000000000068
  0
WIPEOUT
  5
167
100
AcDbEntity
  8
None
370
               9
390
0
  6
Continuous
 62
               7
 92
        0
100
AcDbWipeout
 90
        0
 10
-8.8187199999999564
 20
-2.1671100000000081
 30
0.0
 11
1.6099999999999568
 21
0.0
 31
0.0
 12
0.0
 22
1.6099999999999568
 32
0.0
 13
1.0
 23
1.0
340
0
 70
               7
280
               1
281
              50
282
              50
283
               0
360
0
 71
               2
 91
        9
 14
0.5
 24
0.0
 14
0.353553390593274
 24
0.3535533905932738
 14
0.0
 24
0.5
 14
-0.3535533905932734
 24
0.3535533905932738
 14
-0.5
 24
0.0
 14
-0.3535533905932734
 24
-0.3535533905932738
 14
0.0
 24
-0.5
 14
0.353553390593274
 24
-0.3535533905932738
 14
0.5
 24
0.0
  0
CIRCLE
  5
168
100
AcDbEntity
  8
None
370
               9
390
0
  6
Continuous
 62
               7
100
AcDbCircle
 10
-8.013719999999978
 20
-1.3621100000000297
 30
0.0
 40
0.8049999999999784
  0
WIPEOUT
  5
169
100
AcDbEntity
  8
None
370
               9
390
0
  6
Continuous
 62
               7
 92
        0
100
AcDbWipeout
 90
        0
 10
0.9062800000000095
 20
7.5578899999999951
 30
0.0
 11
1.6100000000000136
 21
0.0
 31
0.0
 12
0.0
 22
1.6100000000000136
 32
0.0
 13
1.0
 23
1.0
340
0
 70
               7
280
               1
281
              50
282
              50
283
               0
360
0
 71
               2
 91
        9
 14
-0.5
 24
0.0
 14
-0.3535533905932737
 24
-0.3535533905932742
 14
0.0
 24
-0.5
 14
0.3535533905932736
 24
-0.3535533905932742
 14
0.5
 24
0.0
 14
0.3535533905932736
 24
0.3535533905932736
 14
0.0
 24
0.5
 14
-0.3535533905932737
 24
0.3535533905932736
 14
-0.5
 24
0.0
  0
CIRCLE
  5
16A
100
AcDbEntity
  8
None
370
               9
390
0
  6
Continuous
 62
               7
100
AcDbCircle
 10
1.7112800000000163
 20
8.3628900000000019
 30
0.0
 40
0.8050000000000068
  0
WIPEOUT
  5
16B
100
AcDbEntity
  8
None
370
               9
390
0
  6
Continuous
 62
               7
 92
        0
100
AcDbWipeout
 90
        0
 10
1.2862800000000334
 20
5.9378900000000172
 30
0.0
 11
0.8499999999999659
 21
0.0
 31
0.0
 12
0.0
 22
0.8499999999999659
 32
0.0
 13
1.0
 23
1.0
340
0
 70
               7
280
               1
281
              50
282
              50
283
               0
360
0
 71
               2
 91
        9
 14
0.5
 24
0.0
 14
0.3535533905932736
 24
0.3535533905932737
 14
0.0
 24
0.5
 14
-0.3535533905932737
 24
0.3535533905932737
 14
-0.5
 24
0.0
 14
-0.3535533905932737
 24
-0.3535533905932736
 14
0.0
 24
-0.5
 14
0.3535533905932736
 24
-0.3535533905932736
 14
0.5
 24
0.0
  0
CIRCLE
  5
16C
100
AcDbEntity
  8
None
370
               9
390
0
  6
Continuous
 62
               7
100
AcDbCircle
 10
1.7112800000000163
 20
6.3628900000000002
 30
0.0
 40
0.424999999999983
  0
WIPEOUT
  5
16D
100
AcDbEntity
  8
None
370
               9
390
0
  6
Continuous
 62
               7
 92
        0
100
AcDbWipeout
 90
        0
 10
-8.4387199999999609
 20
1.2128899999999962
 30
0.0
 11
0.8499999999999659
 21
0.0
 31
0.0
 12
0.0
 22
0.8499999999999659
 32
0.0
 13
1.0
 23
1.0
340
0
 70
               7
280
               1
281
              50
282
              50
283
               0
360
0
 71
               2
 91
        9
 14
0.5
 24
0.0
 14
0.3535533905932736
 24
0.3535533905932737
 14
0.0
 24
0.5
 14
-0.3535533905932737
 24
0.3535533905932737
 14
-0.5
 24
0.0
 14
-0.3535533905932737
 24
-0.3535533905932736
 14
0.0
 24
-0.5
 14
0.3535533905932736
 24
-0.3535533905932736
 14
0.5
 24
0.0
  0
CIRCLE
  5
16E
100
AcDbEntity
  8
None
370
               9
390
0
  6
Continuous
 62
               7
100
AcDbCircle
 10
-8.013719999999978
 20
1.6378899999999792
 30
0.0
 40
0.424999999999983
  0
LINE
  5
16F
100
AcDbEntity
  8
None
370
              15
390
0
  6
STYLE_13
 62
             180
100
AcDbLine
 10
-3.151219999999995
 20
-3.9996100000000165
 30
0.0
 11
-3.151219999999995
 21
11.000390000000001
 31
0.0
  0
LINE
  5
170
100
AcDbEntity
  8
None
370
              15
390
0
  6
STYLE_13
 62
             180
100
AcDbLine
 10
4.348780000000005
 20
3.5003899999999861
 30
0.0
 11
-10.651219999999995
 21
3.5003899999999861
 31
0.0
  0
DIMENSION
  5
171
100
AcDbEntity
  8
Dimension
370
               5
390
0
  6
Continuous
 62
               1
100
AcDbDimension
  2
*D3
 10
-9.263719999999978
 20
-13.112110000000021
 30
0.0
 11
-3.2827297808837699
 21
-13.112110000000021
 31
0.0
 70
             128
 71
               5
 72
               1
 41
1.0
 42
0.0
  3
IE Standard
100
AcDbAlignedDimension
 13
2.9612800000000163
 23
-2.6121100000000226
 33
0.0
 14
-9.263719999999978
 24
-2.6121100000000226
 34
0.0
100
AcDbRotatedDimension
1001
ACAD
1000
DSTYLE
1002
{
1070
             271
1070
               3
1070
             340
1005
35
1070
              71
1070
               1
1070
              47
1040
0.125
1070
              48
1040
0.125
1070
               3
1000
<>mm (x4)
1070
             147
1040
0.09921875
1002
}
  0
DIMENSION
  5
172
100
AcDbEntity
  8
Dimension
370
               5
390
0
  6
Continuous
 62
               1
100
AcDbDimension
  2
*D4
 10
-11.938719999999979
 20
-1.3621100000000297
 30
0.0
 11
-11.938719999999979
 21
-0.0058935693359632
 31
0.0
 70
             128
 71
               5
 72
               1
 41
1.0
 42
0.0
  3
IE Standard
100
AcDbAlignedDimension
 13
-8.013719999999978
 23
1.6378899999999792
 33
0.0
 14
-8.013719999999978
 24
-1.3621100000000297
 34
0.0
 50
90.0
100
AcDbRotatedDimension
1001
ACAD
1000
DSTYLE
1002
{
1070
             271
1070
               2
1070
             340
1005
35
1070
             147
1040
0.09921875
1002
}
  0
DIMENSION
  5
173
100
AcDbEntity
  8
Dimension
370
               5
390
0
  6
Continuous
 62
               1
100
AcDbDimension
  2
*D5
 10
7.0347800000000156
 20
8.3628900000000019
 30
0.0
 11
7.0347800000000156
 21
7.362890000000001
 31
0.0
 70
             128
 71
               5
 72
               1
 41
1.0
 42
0.0
  3
IE Standard
100
AcDbAlignedDimension
 13
1.7112800000000163
 23
6.3628900000000002
 33
0.0
 14
1.7112800000000163
 24
8.3628900000000019
 34
0.0
 50
90.0
100
AcDbRotatedDimension
1001
ACAD
1000
DSTYLE
1002
{
1070
             271
1070
               2
1070
             340
1005
35
1070
             147
1040
0.09921875
1002
}
  0
DIMENSION
  5
174
100
AcDbEntity
  8
Dimension
370
               5
390
0
  6
Continuous
 62
               1
100
AcDbDimension
  2
*D6
 10
-9.263719999999978
 20
14.671379999999999
 30
0.0
 11
-12.326989999999977
 21
14.671379999999999
 31
0.0
 70
             128
 71
               5
 72
               1
 41
1.0
 42
0.0
  3
IE Standard
100
AcDbAlignedDimension
 13
-8.013719999999978
 23
8.3628900000000019
 33
0.0
 14
-9.263719999999978
 24
9.6128900000000002
 34
0.0
100
AcDbRotatedDimension
1001
ACAD
1000
DSTYLE
1002
{
1070
             271
1070
               3
1070
             340
1005
35
1070
              71
1070
               1
1070
              47
1040
0.125
1070
              48
1040
0.125
1070
               3
1000
<>mm (x4)
1070
             174
1070
               0
1070
             147
1040
0.09921875
1002
}
  0
DIMENSION
  5
175
100
AcDbEntity
  8
Dimension
370
               5
390
0
  6
Continuous
 62
               1
100
AcDbDimension
  2
*D7
 10
-17.488719999999979
 20
9.6128900000000002
 30
0.0
 11
-17.488719999999979
 21
11.82138
 31
0.0
 70
             128
 71
               5
 72
               1
 41
1.0
 42
0.0
  3
IE Standard
100
AcDbAlignedDimension
 13
-8.013719999999978
 23
8.3628900000000019
 33
0.0
 14
-9.263719999999978
 24
9.6128900000000002
 34
0.0
 50
90.0
100
AcDbRotatedDimension
1001
ACAD
1000
DSTYLE
1002
{
1070
             271
1070
               3
1070
             340
1005
35
1070
              71
1070
               1
1070
              47
1040
0.125
1070
              48
1040
0.125
1070
               3
1000
<>mm (x4)
1070
             174
1070
               0
1070
             147
1040
0.09921875
1002
}
  0
DIMENSION
  5
176
100
AcDbEntity
  8
Dimension
370
               5
390
0
  6
Continuous
 62
               1
100
AcDbDimension
  2
*D8
 10
-11.938719999999979
 20
8.3628900000000019
 30
0.0
 11
-11.938719999999979
 21
7.2716400000000005
 31
0.0
 70
             128
 71
               5
 72
               1
 41
1.0
 42
0.0
  3
IE Standard
100
AcDbAlignedDimension
 13
-4.5412199999999814
 23
6.1803899999999992
 33
0.0
 14
-8.013719999999978
 24
8.3628900000000019
 34
0.0
 50
90.0
100
AcDbRotatedDimension
1001
ACAD
1000
DSTYLE
1002
{
1070
             271
1070
               2
1070
             340
1005
35
1070
             147
1040
0.09921875
1002
}
  0
DIMENSION
  5
177
100
AcDbEntity
  8
Dimension
370
               5
390
0
  6
Continuous
 62
               1
100
AcDbDimension
  2
*D9
 10
-8.013719999999978
 20
-10.712110000000029
 30
0.0
 11
-2.8661594989013484
 21
-10.712110000000029
 31
0.0
 70
             128
 71
               5
 72
               1
 41
1.0
 42
0.0
  3
IE Standard
100
AcDbAlignedDimension
 13
1.7112800000000163
 23
-1.3621100000000297
 33
0.0
 14
-8.013719999999978
 24
-1.3621100000000297
 34
0.0
100
AcDbRotatedDimension
1001
ACAD
1000
DSTYLE
1002
{
1070
             271
1070
               3
1070
             340
1005
35
1070
               3
1000
<>mm (x4)
1070
             147
1040
0.09921875
1002
}
  0
DIMENSION
  5
178
100
AcDbEntity
  8
Dimension
370
               5
390
0
  6
Continuous
 62
               1
100
AcDbDimension
  2
*D10
 10
1.3494799999999998
 20
6.1398899999999976
 30
0.0
 11
10.800880149355839
 21
11.01064825368368
 31
0.0
 70
               3
 71
               5
 72
               1
 41
1.0
 42
0.0
  3
IE Standard
100
AcDbDiametricDimension
 15
2.0743000000000222
 25
6.5838900000000002
 35
0.0
 40
8.4746499999999987
1001
ACAD
1000
DSTYLE
1002
{
1070
             271
1070
               3
1070
             172
1070
               0
1070
             289
1070
               0
1070
             342
1005
4C
1070
             340
1005
35
1070
              75
1070
               1
1070
              76
1070
               1
1070
              71
1070
               1
1070
              47
1040
0.025
1070
              48
1040
0.025
1070
               3
1000
mm (x2)
1070
             174
1070
               0
1070
             147
1040
0.09921875
1002
}
  0
DIMENSION
  5
179
100
AcDbEntity
  8
Dimension
370
               5
390
0
  6
Continuous
 62
               1
100
AcDbDimension
  2
*D11
 10
1.033929999999998
 20
-0.9271100000000292
 30
0.0
 11
6.854940748020665
 21
-3.6574679826860486
 31
0.0
 70
               3
 71
               5
 72
               1
 41
1.0
 42
0.0
  3
IE Standard
100
AcDbDiametricDimension
 15
2.3949500000000228
 25
-1.7871100000000268
 35
0.0
 40
3.5013999999999998
1001
ACAD
1000
DSTYLE
1002
{
1070
             271
1070
               3
1070
             172
1070
               0
1070
             289
1070
               0
1070
             342
1005
4C
1070
             340
1005
35
1070
              75
1070
               1
1070
              76
1070
               1
1070
              71
1070
               1
1070
              47
1040
0.05
1070
              48
1040
0.05
1070
               3
1000
mm(x4)
1070
             174
1070
               0
1070
             147
1040
0.09921875
1002
}
  0
LINE
  5
17A
100
AcDbEntity
  8
None
370
               5
390
0
  6
Continuous
 62
               1
100
AcDbLine
 10
-12.567649999999986
 20
19.543590000000002
 30
0.0
 11
-18.11830999999998
 21
19.543590000000002
 31
0.0
  0
LINE
  5
17B
100
AcDbEntity
  8
None
370
               5
390
0
  6
Continuous
 62
               1
100
AcDbLine
 10
-6.3715599999999881
 20
8.8116600000000016
 30
0.0
 11
-12.567649999999986
 21
19.543590000000002
 31
0.0
  0
SOLID
  5
17C
100
AcDbEntity
  8
None
370
               5
390
0
 62
               1
100
AcDbTrace
 10
-6.3715599999999881
 20
8.8116600000000016
 30
0.0
 11
-6.7435212527703596
 21
9.183621252770374
 31
0.0
 12
-6.5077072677374295
 22
9.3197685205078145
 32
0.0
 13
-6.5077072677374295
 23
9.3197685205078145
 33
0.0
  0
WIPEOUT
  5
17D
100
AcDbEntity
  8
None
370
               5
390
0
  6
Continuous
 62
               1
 92
        0
100
AcDbWipeout
 90
        0
 10
-24.0
 20
18.782920500000003
 30
0.0
 11
7.8422253988127011
 21
0.0
 31
0.0
 12
0.0
 22
7.8422253988127011
 32
0.0
 13
1.0
 23
1.0
340
0
 70
               7
280
               1
281
              50
282
              50
283
               0
360
0
 71
               2
 91
        5
 14
-0.5
 24
0.5000000000000004
 14
0.4999999999999968
 24
0.5000000000000004
 14
0.4999999999999968
 24
0.3448043204440081
 14
-0.5
 24
0.3448043204440081
 14
-0.5
 24
0.5000000000000004
  0
MTEXT
  5
17E
100
AcDbEntity
  8
None
390
0
 62
               1
100
AcDbMText
 10
-24.0
 20
19.805421619791666
 30
0.0
 40
0.7579186197916666
 41
0.0
 71
               1
 72
               1
  1
{\C192;\lOrientation Mark}
  7
New Century Schlbk
 73
               1
 44
0.9673603504928806
  0
WIPEOUT
  5
17F
100
AcDbEntity
  8
None
370
              15
390
0
  6
Continuous
 62
               1
 92
        0
100
AcDbWipeout
 90
        0
 10
12.244290000000007
 20
8.4972405000000002
 30
0.0
 11
12.350711488082311
 21
0.0
 31
0.0
 12
0.0
 22
12.350711488082311
 32
0.0
 13
1.0
 23
1.0
340
0
 70
               7
280
               1
281
              50
282
              50
283
               0
360
0
 71
               2
 91
        5
 14
-0.5
 24
0.5
 14
0.5000000000000007
 24
0.5
 14
0.5000000000000007
 24
0.4014567297459415
 14
-0.5
 24
0.4014567297459415
 14
-0.5
 24
0.5
  0
MTEXT
  5
180
100
AcDbEntity
  8
None
390
0
 62
               1
100
AcDbMText
 10
12.244290000000007
 20
9.5197416197916667
 30
0.0
 40
0.7579186197916666
 41
0.0
 71
               1
 72
               1
  1
{\C192;\lNon plated alignment hole}
  7
Arial
 73
               1
 44
0.9673603504928806
  0
WIPEOUT
  5
181
100
AcDbEntity
  8
None
370
              15
390
0
  6
Continuous
 62
               1
 92
        0
100
AcDbWipeout
 90
        0
 10
8.3231800000000078
 20
-5.8528895000000158
 30
0.0
 11
12.117878889991573
 21
0.0
 31
0.0
 12
0.0
 22
12.117878889991573
 32
0.0
 13
1.0
 23
1.0
340
0
 70
               7
280
               1
281
              50
282
              50
283
               0
360
0
 71
               2
 91
        5
 14
-0.5
 24
0.4999999999999998
 14
0.4999999999999997
 24
0.4999999999999998
 14
0.4999999999999997
 24
0.3995633220096617
 14
-0.5
 24
0.3995633220096617
 14
-0.5
 24
0.4999999999999998
  0
MTEXT
  5
182
100
AcDbEntity
  8
None
390
0
 62
               1
100
AcDbMText
 10
8.3231800000000078
 20
-4.8303883802083467
 30
0.0
 40
0.7579186197916666
 41
0.0
 71
               1
 72
               1
  1
{\C192;\lNon plated mounting hole}
  7
Arial
 73
               1
 44
0.9673603504928806
  0
DIMENSION
  5
183
100
AcDbEntity
  8
Dimension
370
               5
390
0
  6
Continuous
 62
               1
100
AcDbDimension
  2
*D12
 10
-8.013719999999978
 20
17.399999999999999
 30
0.0
 11
-1.5278099999999881
 21
17.399999999999999
 31
0.0
 70
             128
 71
               5
 72
               1
 41
1.0
 42
0.0
  3
IE Standard
100
AcDbAlignedDimension
 13
-4.5412199999999814
 23
6.1803899999999992
 33
0.0
 14
-8.013719999999978
 24
8.3628900000000019
 34
0.0
100
AcDbRotatedDimension
1001
ACAD
1000
DSTYLE
1002
{
1070
             271
1070
               2
1070
             340
1005
35
1070
             174
1070
               0
1070
             147
1040
0.09921875
1002
}
  0
DIMENSION
  5
184
100
AcDbEntity
  8
Dimension
370
               5
390
0
  6
Continuous
 62
               1
100
AcDbDimension
  2
*D13
 10
-1.1562199999999905
 20
3.6403899999999867
 30
0.0
 11
7.0992421622673065
 21
1.6281237820419063
 31
0.0
 70
               3
 71
               5
 72
               1
 41
1.0
 42
0.0
  1
0.28 x 0.94mm
  3
IE Standard
100
AcDbDiametricDimension
 15
-0.2162199999999928
 25
3.3603899999999856
 35
0.0
 40
6.0679799999999995
1001
ACAD
1000
DSTYLE
1002
{
1070
             271
1070
               4
1070
             172
1070
               0
1070
             289
1070
               0
1070
             342
1005
4C
1070
             340
1005
35
1070
              75
1070
               1
1070
              76
1070
               1
1070
             174
1070
               0
1070
             147
1040
0.09921875
1002
}
  0
WIPEOUT
  5
185
100
AcDbEntity
  8
None
370
               5
390
0
  6
Continuous
 62
               1
 92
        0
100
AcDbWipeout
 90
        0
 10
-24.0
 20
18.782920500000003
 30
0.0
 11
7.8422253988127011
 21
0.0
 31
0.0
 12
0.0
 22
7.8422253988127011
 32
0.0
 13
1.0
 23
1.0
340
0
 70
               7
280
               1
281
              50
282
              50
283
               0
360
0
 71
               2
 91
        5
 14
-0.5
 24
0.5000000000000004
 14
0.4999999999999968
 24
0.5000000000000004
 14
0.4999999999999968
 24
0.3448043204440081
 14
-0.5
 24
0.3448043204440081
 14
-0.5
 24
0.5000000000000004
  0
MTEXT
  5
186
100
AcDbEntity
  8
None
390
0
 62
               1
100
AcDbMText
 10
-24.0
 20
19.805421619791666
 30
0.0
 40
0.7579186197916666
 41
0.0
 71
               1
 72
               1
  1
{\C192;\lOrientation Mark}
  7
New Century Schlbk
 73
               1
 44
0.9673603504928806
  0
DIMENSION
  5
187
100
AcDbEntity
  8
Dimension
370
               5
390
0
  6
Continuous
 62
               1
100
AcDbDimension
  2
*D14
 10
-2.401219999999995
 20
11.581379999999999
 30
0.0
 11
0.4321100000000047
 21
11.581379999999999
 31
0.0
 70
             128
 71
               5
 72
               1
 41
1.0
 42
0.0
  3
IE Standard
100
AcDbAlignedDimension
 13
-1.901219999999995
 23
6.1803899999999992
 33
0.0
 14
-2.401219999999995
 24
6.1803899999999992
 34
0.0
100
AcDbRotatedDimension
1001
ACAD
1000
DSTYLE
1002
{
1070
             271
1070
               2
1070
             340
1005
35
1070
             174
1070
               0
1070
             147
1040
0.09921875
1002
}
  0
DIMENSION
  5
188
100
AcDbEntity
  8
Dimension
370
               5
390
0
  6
Continuous
 62
               1
100
AcDbDimension
  2
*D15
 10
-15.946560000000002
 20
5.1403899999999929
 30
0.0
 11
-15.946560000000002
 21
-1.4486200000000204
 31
0.0
 70
             128
 71
               5
 72
               1
 41
1.0
 42
0.0
  3
IE Standard
100
AcDbAlignedDimension
 13
-5.5812200000000018
 23
1.8603899999999793
 33
0.0
 14
-5.5812200000000018
 24
5.1403899999999929
 34
0.0
 50
90.0
100
AcDbRotatedDimension
1001
ACAD
1000
DSTYLE
1002
{
1070
             271
1070
               2
1070
             340
1005
35
1070
             174
1070
               0
1070
             147
1040
0.09921875
1002
}
  0
DIMENSION
  5
189
100
AcDbEntity
  8
Dimension
370
               5
390
0
  6
Continuous
 62
               1
100
AcDbDimension
  2
*D16
 10
-19.44655999999998
 20
6.1803899999999992
 30
0.0
 11
-19.44655999999998
 21
3.500389999999987
 31
0.0
 70
             128
 71
               5
 72
               1
 41
1.0
 42
0.0
  3
IE Standard
100
AcDbAlignedDimension
 13
-4.5412199999999814
 23
0.8203899999999749
 33
0.0
 14
-4.5412199999999814
 24
6.1803899999999992
 34
0.0
 50
90.0
100
AcDbRotatedDimension
1001
ACAD
1000
DSTYLE
1002
{
1070
             271
1070
               2
1070
             340
1005
35
1070
             147
1040
0.09921875
1002
}
  0
DIMENSION
  5
18A
100
AcDbEntity
  8
Dimension
370
               5
390
0
  6
Continuous
 62
               1
100
AcDbDimension
  2
*D17
 10
-4.5412199999999814
 20
-6.0686200000000241
 30
0.0
 11
-7.016219999999981
 21
-6.0686200000000241
 31
0.0
 70
             128
 71
               5
 72
               1
 41
1.0
 42
0.0
  3
IE Standard
100
AcDbAlignedDimension
 13
-1.2612199999999802
 23
0.8203899999999749
 33
0.0
 14
-4.5412199999999814
 24
0.8203899999999749
 34
0.0
100
AcDbRotatedDimension
1001
ACAD
1000
DSTYLE
1002
{
1070
             271
1070
               2
1070
             340
1005
35
1070
             174
1070
               0
1070
             147
1040
0.09921875
1002
}
  0
DIMENSION
  5
18B
100
AcDbEntity
  8
Dimension
370
               5
390
0
  6
Continuous
 62
               1
100
AcDbDimension
  2
*D18
 10
-5.5812200000000018
 20
-7.9186200000000202
 30
0.0
 11
-2.6737700488281195
 21
-7.9186200000000202
 31
0.0
 70
             128
 71
               5
 72
               1
 41
1.0
 42
0.0
  3
IE Standard
100
AcDbAlignedDimension
 13
-0.2212199999999882
 23
1.8603899999999793
 33
0.0
 14
-5.5812200000000018
 24
1.8603899999999793
 34
0.0
100
AcDbRotatedDimension
1001
ACAD
1000
DSTYLE
1002
{
1070
             271
1070
               2
1070
             340
1005
35
1070
             147
1040
0.09921875
1002
}
  0
WIPEOUT
  5
18C
100
AcDbEntity
  8
None
370
               5
390
0
  6
Continuous
 62
               1
 92
        0
100
AcDbWipeout
 90
        0
 10
15.313780000000008
 20
1.0308104999999816
 30
0.0
 11
4.7730682608602422
 21
0.0
 31
0.0
 12
0.0
 22
4.7730682608602422
 32
0.0
 13
1.0
 23
1.0
340
0
 70
               7
280
               1
281
              50
282
              50
283
               0
360
0
 71
               2
 91
        5
 14
-0.5
 24
0.4999999999999999
 14
0.5000000000000022
 24
0.4999999999999999
 14
0.5000000000000022
 24
0.24501108438356
 14
-0.5
 24
0.24501108438356
 14
-0.5
 24
0.4999999999999999
  0
MTEXT
  5
18D
100
AcDbEntity
  8
None
390
0
 62
               1
100
AcDbMText
 10
15.313780000000008
 20
2.053311619791649
 30
0.0
 40
0.7579186197916666
 41
0.0
 71
               1
 72
               1
  1
{\C192;\lpad (x 28)}
  7
Arial
 73
               1
 44
0.9673603504928806
  0
INSERT
  5
18E
100
AcDbEntity
  8
None
390
0
 62
               7
100
AcDbBlockReference
  2
Group
 10
0.0
 20
0.0
 30
0.0
  0
POLYLINE
  5
18F
102
{ACAD_REACTORS
330
195
102
}
100
AcDbEntity
  8
None
370
               9
390
0
  6
Continuous
 62
               7
100
AcDb2dPolyline
 66
               1
 10
0.0
 20
0.0
 30
0.0
 70
               1
 75
               5
  0
VERTEX
  5
190
100
AcDbEntity
  8
None
370
               9
390
0
  6
Continuous
 62
               7
100
AcDbVertex
100
AcDb2dVertex
 10
-4.4412199999999871
 20
5.0403899999999933
 30
0.0
  0
VERTEX
  5
191
100
AcDbEntity
  8
None
370
               9
390
0
  6
Continuous
 62
               7
100
AcDbVertex
100
AcDb2dVertex
 10
-1.361220000000003
 20
5.0403899999999933
 30
0.0
  0
VERTEX
  5
192
100
AcDbEntity
  8
None
370
               9
390
0
  6
Continuous
 62
               7
100
AcDbVertex
100
AcDb2dVertex
 10
-1.361220000000003
 20
1.9603899999999808
 30
0.0
  0
VERTEX
  5
193
100
AcDbEntity
  8
None
370
               9
390
0
  6
Continuous
 62
               7
100
AcDbVertex
100
AcDb2dVertex
 10
-4.4412199999999871
 20
1.9603899999999808
 30
0.0
  0
SEQEND
  5
194
100
AcDbEntity
  8
None
370
               9
390
0
  6
Continuous
 62
               7
  0
HATCH
  5
195
100
AcDbEntity
  8
None
370
               0
390
0
  6
Continuous
 62
             253
100
AcDbHatch
 10
0.0
 20
0.0
 30
0.0
210
0.0
220
0.0
230
1.0
  2
SOLID
 70
               1
 71
               1
 91
        1
 92
        1
 93
        4
 72
               1
 10
-4.4412199999999871
 20
5.0403899999999933
 11
-1.361220000000003
 21
5.0403899999999933
 72
               1
 10
-1.361220000000003
 20
5.0403899999999933
 11
-1.361220000000003
 21
1.9603899999999808
 72
               1
 10
-1.361220000000003
 20
1.9603899999999808
 11
-4.4412199999999871
 21
1.9603899999999808
 72
               1
 10
-4.4412199999999871
 20
1.9603899999999808
 11
-4.4412199999999871
 21
5.0403899999999933
 97
        1
330
18F
 75
               0
 76
               1
 98
        1
 10
0.0
 20
0.0
  0
ENDSEC
  0
SECTION
  2
OBJECTS
  0
DICTIONARY
  5
19
100
AcDbDictionary
280
               0
281
               1
  3
ACAD_GROUP
350
1A
  3
ACAD_MLINESTYLE
350
1B
  3
ACAD_LAYOUT
350
1E
  3
ACAD_PLOTSETTINGS
350
22
  3
ACAD_PLOTSTYLENAME
350
1F
  3
ACAD_WIPEOUT_VARS
350
23
  0
DICTIONARY
  5
1A
102
{ACAD_REACTORS
330
19
102
}
100
AcDbDictionary
280
               0
281
               1
  0
DICTIONARY
  5
1B
102
{ACAD_REACTORS
330
19
102
}
100
AcDbDictionary
280
               0
281
               1
  3
Standard
350
1C
  0
MLINESTYLE
  5
1C
102
{ACAD_REACTORS
330
1B
102
}
100
AcDbMlineStyle
  2
Standard
 70
               0
  3

 62
               0
 51
90.0
 52
90.0
 71
               2
 49
0.5
 62
             256
  6
ByLayer
 49
-0.5
 62
             256
  6
ByLayer
  0
ACDBDICTIONARYWDFLT
  5
1F
102
{ACAD_REACTORS
330
19
102
}
100
AcDbDictionary
281
               1
  3
Normal
350
1D
100
AcDbDictionaryWithDefault
340
1D
  0
ACDBPLACEHOLDER
  5
1D
102
{ACAD_REACTORS
330
1F
102
}
  0
LAYOUT
  5
20
102
{ACAD_REACTORS
330
1E
102
}
100
AcDbPlotSettings
  1

  2

  4

  6

 40
0.0
 41
0.0
 42
0.0
 43
0.0
 44
0.0
 45
0.0
 46
0.0
 47
0.0
 48
0.0
 49
0.0
140
0.0
141
0.0
142
1.0
143
1.0
 70
            1024
 72
               0
 73
               0
 74
               0
  7

 75
               0
147
1.0
148
0.0
149
0.0
100
AcDbLayout
  1
Model
 70
               0
 71
               0
 10
0.0
 20
0.0
 11
0.0
 21
0.0
 12
0.0
 22
0.0
 32
0.0
 14
0.0
 24
0.0
 34
0.0
 15
0.0
 25
0.0
 35
0.0
146
0.0
 13
0.0
 23
0.0
 33
0.0
 16
0.0
 26
0.0
 36
0.0
 17
0.0
 27
0.0
 37
0.0
 76
               0
330
A
331
0
345
0
346
0
  0
LAYOUT
  5
21
102
{ACAD_REACTORS
330
1E
102
}
100
AcDbPlotSettings
  1

  2

  4

  6

 40
0.0
 41
0.0
 42
0.0
 43
0.0
 44
0.0
 45
0.0
 46
0.0
 47
0.0
 48
0.0
 49
0.0
140
0.0
141
0.0
142
1.0
143
1.0
 70
               0
 72
               0
 73
               0
 74
               0
  7

 75
               0
147
1.0
148
0.0
149
0.0
100
AcDbLayout
  1
Layout1
 70
               0
 71
               0
 10
0.0
 20
0.0
 11
0.0
 21
0.0
 12
0.0
 22
0.0
 32
0.0
 14
0.0
 24
0.0
 34
0.0
 15
0.0
 25
0.0
 35
0.0
146
0.0
 13
0.0
 23
0.0
 33
0.0
 16
0.0
 26
0.0
 36
0.0
 17
0.0
 27
0.0
 37
0.0
 76
               0
330
B
331
0
345
0
346
0
  0
DICTIONARY
  5
1E
102
{ACAD_REACTORS
330
19
102
}
100
AcDbDictionary
280
               0
281
               1
  3
Layout1
350
21
  3
Model
350
20
  0
DICTIONARY
  5
22
102
{ACAD_REACTORS
330
19
102
}
100
AcDbDictionary
280
               0
281
               1
  0
WIPEOUTVARIABLES
  5
23
100
AcDbWipeoutVariables
 70
               0
  0
ENDSEC
  0
EOF
