  0
SECTION
  2
HEADER
  9
$ACADVER
  1
AC1015
  9
$ACADMAINTVER
 70
               6
  9
$DWGCODEPAGE
  3
ANSI_1252
  9
$INSBASE
 10
0.0
 20
0.0
 30
0.0
  9
$EXTMIN
 10
-27.999999999999986
 20
-13.134982438851608
 30
-0.34925
  9
$EXTMAX
 10
28.445282895988811
 20
26.0
 30
0.34925
  9
$LIMMIN
 10
0.0
 20
0.0
  9
$LIMMAX
 10
0.0
 20
0.0
  9
$ORTHOMODE
 70
               0
  9
$REGENMODE
 70
               1
  9
$FILLMODE
 70
               1
  9
$QTEXTMODE
 70
               0
  9
$MIRRTEXT
 70
               1
  9
$LTSCALE
 40
1.27
  9
$ATTMODE
 70
               1
  9
$TEXTSIZE
 40
0.2
  9
$TRACEWID
 40
1.0
  9
$TEXTSTYLE
  7
Standard
  9
$CLAYER
  8
None
  9
$CELTYPE
  6
Continuous
  9
$CECOLOR
 62
             256
  9
$CELTSCALE
 40
1.0
  9
$DISPSILH
 70
               0
  9
$DIMSCALE
 40
1.0
  9
$DIMASZ
 40
0.5612060546875
  9
$DIMEXO
 40
0.396875
  9
$DIMDLI
 40
10.16
  9
$DIMRND
 40
0.0
  9
$DIMDLE
 40
1.5874999999999999
  9
$DIMEXE
 40
0.79375
  9
$DIMTP
 40
0.0
  9
$DIMTM
 40
0.0
  9
$DIMTXT
 40
0.7579186197916666
  9
$DIMCEN
 40
0.0
  9
$DIMTSZ
 40
0.0
  9
$DIMTOL
 70
               0
  9
$DIMLIM
 70
               0
  9
$DIMTIH
 70
               0
  9
$DIMTOH
 70
               0
  9
$DIMSE1
 70
               0
  9
$DIMSE2
 70
               0
  9
$DIMTAD
 70
               1
  9
$DIMZIN
 70
              11
  9
$DIMBLK
  1
VW_SLASH
  9
$DIMASO
 70
               1
  9
$DIMSHO
 70
               1
  9
$DIMPOST
  1
<>mm
  9
$DIMAPOST
  1
[]
  9
$DIMALT
 70
               0
  9
$DIMALTD
 70
               1
  9
$DIMALTF
 40
1.0
  9
$DIMLFAC
 40
1.0
  9
$DIMTOFL
 70
               1
  9
$DIMTVP
 40
0.0
  9
$DIMTIX
 70
               1
  9
$DIMSOXD
 70
               0
  9
$DIMSAH
 70
               0
  9
$DIMBLK1
  1

  9
$DIMBLK2
  1

  9
$DIMSTYLE
  2
Arch
  9
$DIMCLRD
 70
               0
  9
$DIMCLRE
 70
               0
  9
$DIMCLRT
 70
               0
  9
$DIMTFAC
 40
1.0
  9
$DIMGAP
 40
1.5874999999999999
  9
$DIMJUST
 70
               0
  9
$DIMSD1
 70
               0
  9
$DIMSD2
 70
               0
  9
$DIMTOLJ
 70
               1
  9
$DIMTZIN
 70
              11
  9
$DIMALTZ
 70
              11
  9
$DIMALTTZ
 70
              11
  9
$DIMUPT
 70
               0
  9
$DIMDEC
 70
               1
  9
$DIMTDEC
 70
               1
  9
$DIMALTU
 70
               2
  9
$DIMALTTD
 70
               2
  9
$DIMTXSTY
  7
Arial
  9
$DIMAUNIT
 70
               0
  9
$DIMADEC
 70
               2
  9
$DIMALTRND
 40
0.0
  9
$DIMAZIN
 70
               0
  9
$DIMDSEP
 70
              46
  9
$DIMATFIT
 70
               0
  9
$DIMFRAC
 70
               2
  9
$DIMLDRBLK
  1

  9
$DIMLUNIT
 70
               2
  9
$DIMLWD
 70
              -2
  9
$DIMLWE
 70
              -2
  9
$DIMTMOVE
 70
               0
  9
$LUNITS
 70
               2
  9
$LUPREC
 70
               4
  9
$SKETCHINC
 40
0.1
  9
$FILLETRAD
 40
0.0
  9
$AUNITS
 70
               0
  9
$AUPREC
 70
               0
  9
$MENU
  1
acad
  9
$ELEVATION
 40
0.0
  9
$PELEVATION
 40
0.0
  9
$THICKNESS
 40
0.0
  9
$LIMCHECK
 70
               0
  9
$CHAMFERA
 40
0.0
  9
$CHAMFERB
 40
0.0
  9
$CHAMFERC
 40
0.0
  9
$CHAMFERD
 40
0.0
  9
$SKPOLY
 70
               0
  9
$TDCREATE
 40
2454964.492002315
  9
$TDUCREATE
 40
0.000000000
  9
$TDUPDATE
 40
2454964.492002315
  9
$TDUUPDATE
 40
0.000000000
  9
$TDINDWG
 40
0.0000000000
  9
$TDUSRTIMER
 40
0.0000000000
  9
$USRTIMER
 70
               1
  9
$ANGBASE
 50
0.0
  9
$ANGDIR
 70
               0
  9
$PDMODE
 70
               1
  9
$PDSIZE
 40
-2.0
  9
$PLINEWID
 40
0.0
  9
$SPLFRAME
 70
               0
  9
$SPLINETYPE
 70
               6
  9
$SPLINESEGS
 70
               8
  9
$HANDSEED
  5
1BC
  9
$SURFTAB1
 70
               6
  9
$SURFTAB2
 70
               6
  9
$SURFTYPE
 70
               6
  9
$SURFU
 70
               6
  9
$SURFV
 70
               6
  9
$UCSBASE
  2

  9
$UCSNAME
  2

  9
$UCSORG
 10
0.0
 20
0.0
 30
0.0
  9
$UCSXDIR
 10
1.0
 20
0.0
 30
0.0
  9
$UCSYDIR
 10
0.0
 20
1.0
 30
0.0
  9
$UCSORTHOREF
  2

  9
$UCSORTHOVIEW
 70
               0
  9
$UCSORGTOP
 10
0.0
 20
0.0
 30
0.0
  9
$UCSORGBOTTOM
 10
0.0
 20
0.0
 30
0.0
  9
$UCSORGLEFT
 10
0.0
 20
0.0
 30
0.0
  9
$UCSORGRIGHT
 10
0.0
 20
0.0
 30
0.0
  9
$UCSORGFRONT
 10
0.0
 20
0.0
 30
0.0
  9
$UCSORGBACK
 10
0.0
 20
0.0
 30
0.0
  9
$PUCSBASE
  2

  9
$PUCSNAME
  2

  9
$PUCSORG
 10
0.0
 20
0.0
 30
0.0
  9
$PUCSXDIR
 10
1.0
 20
0.0
 30
0.0
  9
$PUCSYDIR
 10
0.0
 20
1.0
 30
0.0
  9
$PUCSORTHOREF
  2

  9
$PUCSORTHOVIEW
 70
               0
  9
$PUCSORGTOP
 10
0.0
 20
0.0
 30
0.0
  9
$PUCSORGBOTTOM
 10
0.0
 20
0.0
 30
0.0
  9
$PUCSORGLEFT
 10
0.0
 20
0.0
 30
0.0
  9
$PUCSORGRIGHT
 10
0.0
 20
0.0
 30
0.0
  9
$PUCSORGFRONT
 10
0.0
 20
0.0
 30
0.0
  9
$PUCSORGBACK
 10
0.0
 20
0.0
 30
0.0
  9
$USERI1
 70
               0
  9
$USERI2
 70
               0
  9
$USERI3
 70
               0
  9
$USERI4
 70
               0
  9
$USERI5
 70
               0
  9
$USERR1
 40
0.0
  9
$USERR2
 40
0.0
  9
$USERR3
 40
0.0
  9
$USERR4
 40
0.0
  9
$USERR5
 40
0.0
  9
$WORLDVIEW
 70
               1
  9
$SHADEDGE
 70
               3
  9
$SHADEDIF
 70
              70
  9
$TILEMODE
 70
               1
  9
$MAXACTVP
 70
              64
  9
$PINSBASE
 10
0.0
 20
0.0
 30
0.0
  9
$PLIMCHECK
 70
               0
  9
$PEXTMIN
 10
1.0000000000000000E+20
 20
1.0000000000000000E+20
 30
1.0000000000000000E+20
  9
$PEXTMAX
 10
-1.0000000000000000E+20
 20
-1.0000000000000000E+20
 30
-1.0000000000000000E+20
  9
$PLIMMIN
 10
0.0
 20
0.0
  9
$PLIMMAX
 10
12.0
 20
9.0
  9
$UNITMODE
 70
               0
  9
$VISRETAIN
 70
               0
  9
$PLINEGEN
 70
               1
  9
$PSLTSCALE
 70
               0
  9
$TREEDEPTH
 70
            3020
  9
$CMLSTYLE
  2
Standard
  9
$CMLJUST
 70
               0
  9
$CMLSCALE
 40
1.0
  9
$PROXYGRAPHICS
 70
               0
  9
$MEASUREMENT
 70
               1
  9
$CELWEIGHT
370
               0
  9
$ENDCAPS
280
               0
  9
$JOINSTYLE
280
               0
  9
$LWDISPLAY
290
               1
  9
$INSUNITS
 70
               4
  9
$HYPERLINKBASE
  1

  9
$STYLESHEET
  1

  9
$XEDIT
290
               1
  9
$CEPSNTYPE
380
               0
  9
$PSTYLEMODE
290
               1
  9
$FINGERPRINTGUID
  2

  9
$VERSIONGUID
  2

  9
$EXTNAMES
290
               1
  9
$PSVPSCALE
 40
0.0
  0
ENDSEC
  0
SECTION
  2
CLASSES
  0
CLASS
  1
LWPOLYLINE
  2
AcDbPolyline
  3
AutoCAD 2000
 90
        0
280
               0
281
               1
  0
CLASS
  1
IMAGE
  2
AcDbRasterImage
  3
ISM
 90
      127
280
               0
281
               1
  0
CLASS
  1
OLE2FRAME
  2
AcDbOle2Frame
  3
AutoCAD 2000
 90
        0
280
               0
281
               1
  0
CLASS
  1
HATCH
  2
AcDbHatch
  3
AutoCAD 2000
 90
        0
280
               0
281
               1
  0
CLASS
  1
DICTIONARYVAR
  2
AcDbDictionaryVar
  3
AutoCAD 2000
 90
        0
280
               0
281
               0
  0
CLASS
  1
RASTERVARIABLES
  2
AcDbRasterVariables
  3
ISM
 90
        0
280
               0
281
               0
  0
CLASS
  1
IMAGEDEF
  2
AcDbRasterImageDef
  3
ISM
 90
        0
280
               0
281
               0
  0
CLASS
  1
IMAGEDEF_REACTOR
  2
AcDbRasterImageDefReactor
  3
ISM
 90
        1
280
               0
281
               0
  0
CLASS
  1
IDBUFFER
  2
AcDbIdBuffer
  3
AutoCAD 2000
 90
        0
280
               0
281
               0
  0
CLASS
  1
SPATIAL_FILTER
  2
AcDbSpatialFilter
  3
AutoCAD 2000
 90
        0
280
               0
281
               0
  0
CLASS
  1
XRECORD
  2
AcDbXrecord
  3
AutoCAD 2000
 90
        0
280
               0
281
               0
  0
CLASS
  1
SORTENTSTABLE
  2
AcDbSortentsTable
  3
AutoCAD 2000
 90
        0
280
               0
281
               0
  0
CLASS
  1
LAYER_INDEX
  2
AcDbLayerIndex
  3
AutoCAD 2000
 90
        0
280
               0
281
               0
  0
CLASS
  1
SPATIAL_INDEX
  2
AcDbSpatialIndex
  3
AutoCAD 2000
 90
        0
280
               0
281
               0
  0
CLASS
  1
OBJECT_PTR
  2
CAseDLPNTableRecord
  3
"ASE-LPNTableRecord"
 90
        1
280
               0
281
               0
  0
CLASS
  1
LAYOUT
  2
AcDbLayout
  3
AutoCAD 2000
 90
        0
280
               0
281
               0
  0
CLASS
  1
PLOTSETTINGS
  2
AcDbPlotSettings
  3
AutoCAD 2000
 90
        0
280
               0
281
               0
  0
CLASS
  1
ACDBDICTIONARYWDFLT
  2
AcDbDictionaryWithDefault
  3
AutoCAD 2000
 90
        0
280
               0
281
               0
  0
CLASS
  1
ACDBPLACEHOLDER
  2
AcDbPlaceHolder
  3
AutoCAD 2000
 90
        0
280
               0
281
               0
  0
CLASS
  1
VBA_PROJECT
  2
AcDbVbaProject
  3
acadvba
 90
        0
280
               0
281
               0
  0
CLASS
  1
WIPEOUT
  2
AcDbWipeout
  3
WipeOut|AutoCAD Express Tool|expresstools@autodesk.com
 90
      127
280
               0
281
               1
  0
CLASS
  1
WIPEOUTVARIABLES
  2
AcDbWipeoutVariables
  3
WipeOut|AutoCAD Express Tool|expresstools@autodesk.com
 90
        0
280
               0
281
               0
  0
CLASS
  1
RTEXT
  2
RText
  3
RText|AutoCAD Express Tool|expresstools@autodesk.com
 90
        0
280
               0
281
               1
  0
CLASS
  1
ARCALIGNEDTEXT
  2
AcDbArcAlignedText
  3
ATEXT|AutoCAD Express Tool|expresstools@autodesk.com
 90
        0
280
               0
281
               1
  0
ENDSEC
  0
SECTION
  2
TABLES
  0
TABLE
  2
VPORT
  5
7
100
AcDbSymbolTable
 70
               1
  0
VPORT
  5
15
100
AcDbSymbolTableRecord
100
AcDbViewportTableRecord
  2
*ACTIVE
 70
               0
 10
0.0
 20
0.0
 11
1.0
 21
1.0
 12
0.2226414479944125
 22
6.4325087805741958
 13
0.0
 23
0.0
 14
1.0
 24
1.0
 15
0.0
 25
0.0
 16
0.0
 26
0.0
 36
1.0
 17
0.0
 27
0.0
 37
0.0
 40
39.134982438851608
 41
0.688564
 42
50.0
 43
0.0
 44
0.0
 50
0.0
 51
0.0
 71
               0
 72
            2000
 73
               1
 74
               1
 75
               0
 76
               0
 77
               0
 78
               0
281
               0
 65
               0
110
0.0
120
0.0
130
0.0
111
1.0
121
0.0
131
0.0
112
0.0
122
1.0
132
0.0
345
0
346
0
 79
               0
146
0.0
  0
ENDTAB
  0
TABLE
  2
LTYPE
  5
4
100
AcDbSymbolTable
 70
              16
  0
LTYPE
  5
11
100
AcDbSymbolTableRecord
100
AcDbLinetypeTableRecord
  2
ByBlock
 70
              64
  3

 72
              65
 73
               0
 40
0.0
  0
LTYPE
  5
12
100
AcDbSymbolTableRecord
100
AcDbLinetypeTableRecord
  2
ByLayer
 70
              64
  3

 72
              65
 73
               0
 40
0.0
  0
LTYPE
  5
13
100
AcDbSymbolTableRecord
100
AcDbLinetypeTableRecord
  2
Continuous
 70
              64
  3
Solid line
 72
              65
 73
               0
 40
0.0
  0
LTYPE
  5
38
100
AcDbSymbolTableRecord
100
AcDbLinetypeTableRecord
  2
STYLE_01
 70
               0
  3

 72
              65
 73
               2
 40
0.41664
 49
0.20828
 74
               0
 49
-0.20836
 74
               0
  0
LTYPE
  5
39
100
AcDbSymbolTableRecord
100
AcDbLinetypeTableRecord
  2
STYLE_02
 70
               0
  3

 72
              65
 73
               2
 40
0.6944250000000001
 49
0.48607
 74
               0
 49
-0.2083550000000001
 74
               0
  0
LTYPE
  5
3A
100
AcDbSymbolTableRecord
100
AcDbLinetypeTableRecord
  2
STYLE_03
 70
               0
  3

 72
              65
 73
               2
 40
1.25
 49
1.0416400000000001
 74
               0
 49
-0.2083599999999999
 74
               0
  0
LTYPE
  5
3B
100
AcDbSymbolTableRecord
100
AcDbLinetypeTableRecord
  2
STYLE_04
 70
               0
  3

 72
              65
 73
               2
 40
1.5277099999999999
 49
1.3194249999999998
 74
               0
 49
-0.208285
 74
               0
  0
LTYPE
  5
3C
100
AcDbSymbolTableRecord
100
AcDbLinetypeTableRecord
  2
STYLE_05
 70
               0
  3

 72
              65
 73
               2
 40
0.20828
 49
0.069425
 74
               0
 49
-0.138855
 74
               0
  0
LTYPE
  5
3D
100
AcDbSymbolTableRecord
100
AcDbLinetypeTableRecord
  2
STYLE_06
 70
               0
  3

 72
              65
 73
               4
 40
1.0416400000000001
 49
0.625
 74
               0
 49
-0.20828
 74
               0
 49
0.06943
 74
               0
 49
-0.13893
 74
               0
  0
LTYPE
  5
3E
100
AcDbSymbolTableRecord
100
AcDbLinetypeTableRecord
  2
STYLE_07
 70
               0
  3

 72
              65
 73
               6
 40
1.875
 49
0.625
 74
               0
 49
-0.20828
 74
               0
 49
0.6250000000000001
 74
               0
 49
-0.2083599999999999
 74
               0
 49
0.06943
 74
               0
 49
-0.1389299999999999
 74
               0
  0
LTYPE
  5
3F
100
AcDbSymbolTableRecord
100
AcDbLinetypeTableRecord
  2
STYLE_08
 70
               0
  3

 72
              65
 73
               6
 40
1.25
 49
0.625
 74
               0
 49
-0.20828
 74
               0
 49
0.06943
 74
               0
 49
-0.13893
 74
               0
 49
0.0694299999999999
 74
               0
 49
-0.13893
 74
               0
  0
LTYPE
  5
40
100
AcDbSymbolTableRecord
100
AcDbLinetypeTableRecord
  2
STYLE_09
 70
               0
  3

 72
              65
 73
               4
 40
5.0
 49
3.75
 74
               0
 49
-0.2777849999999998
 74
               0
 49
0.6944300000000003
 74
               0
 49
-0.2777849999999998
 74
               0
  0
LTYPE
  5
41
100
AcDbSymbolTableRecord
100
AcDbLinetypeTableRecord
  2
STYLE_10
 70
               0
  3

 72
              65
 73
               6
 40
5.9375
 49
3.75
 74
               0
 49
-0.2777849999999998
 74
               0
 49
0.6944300000000003
 74
               0
 49
-0.2777849999999998
 74
               0
 49
0.625
 74
               0
 49
-0.3125
 74
               0
  0
LTYPE
  5
42
100
AcDbSymbolTableRecord
100
AcDbLinetypeTableRecord
  2
STYLE_11
 70
               0
  3

 72
              65
 73
               2
 40
0.4166412353515625
 49
0.2777862548828125
 74
               0
 49
-0.13885498046875
 74
               0
  0
LTYPE
  5
43
100
AcDbSymbolTableRecord
100
AcDbLinetypeTableRecord
  2
STYLE_12
 70
               0
  3

 72
              65
 73
               4
 40
2.1527862548828125
 49
1.180572509765625
 74
               0
 49
-0.4166412353515625
 74
               0
 49
0.069427490234375
 74
               0
 49
-0.48614501953125
 74
               0
  0
LTYPE
  5
44
100
AcDbSymbolTableRecord
100
AcDbLinetypeTableRecord
  2
STYLE_13
 70
               0
  3

 72
              65
 73
               2
 40
1.875
 49
1.25
 74
               0
 49
-0.625
 74
               0
  0
ENDTAB
  0
TABLE
  2
LAYER
  5
2
100
AcDbSymbolTable
 70
               5
  0
LAYER
  5
14
100
AcDbSymbolTableRecord
100
AcDbLayerTableRecord
  2
0
 70
               0
 62
               7
  6
Continuous
290
               1
370
              -3
390
1D
  0
LAYER
  5
45
100
AcDbSymbolTableRecord
100
AcDbLayerTableRecord
  2
Defpoints
 70
               0
 62
               7
  6
Continuous
290
               0
370
              -3
390
1D
  0
LAYER
  5
46
100
AcDbSymbolTableRecord
100
AcDbLayerTableRecord
  2
None
 70
               0
 62
               7
  6
Continuous
290
               1
370
               5
390
1D
  0
LAYER
  5
47
100
AcDbSymbolTableRecord
100
AcDbLayerTableRecord
  2
Dimension
 70
               0
 62
               7
  6
Continuous
290
               1
370
               5
390
1D
  0
LAYER
  5
48
100
AcDbSymbolTableRecord
100
AcDbLayerTableRecord
  2
OUTLINE_PHO
 70
               0
 62
               4
  6
Continuous
290
               1
370
              15
390
1D
  0
ENDTAB
  0
TABLE
  2
STYLE
  5
3
100
AcDbSymbolTable
 70
               3
  0
STYLE
  5
17
100
AcDbSymbolTableRecord
100
AcDbTextStyleTableRecord
  2
Standard
 70
               0
 40
0.0
 41
1.0
 50
0.0
 71
               0
 42
0.0
  3
txt
  4

  0
STYLE
  5
36
100
AcDbSymbolTableRecord
100
AcDbTextStyleTableRecord
  2
Arial
 70
               0
 40
0.0
 41
1.0
 50
0.0
 71
               0
 42
0.0
  3
Arial
  4

1001
ACAD
1000
Arial
1071
        0
  0
STYLE
  5
37
100
AcDbSymbolTableRecord
100
AcDbTextStyleTableRecord
  2
New Century Schlbk
 70
               0
 40
0.0
 41
1.0
 50
0.0
 71
               0
 42
0.0
  3
New Century Schlbk
  4

1001
ACAD
1000
New Century Schlbk
1071
        0
  0
ENDTAB
  0
TABLE
  2
VIEW
  5
5
100
AcDbSymbolTable
 70
               0
  0
ENDTAB
  0
TABLE
  2
UCS
  5
6
100
AcDbSymbolTable
 70
               0
  0
ENDTAB
  0
TABLE
  2
APPID
  5
8
100
AcDbSymbolTable
 70
               1
  0
APPID
  5
16
100
AcDbSymbolTableRecord
100
AcDbRegAppTableRecord
  2
ACAD
 70
               0
  0
ENDTAB
  0
TABLE
  2
DIMSTYLE
  5
9
100
AcDbSymbolTable
 70
               3
100
AcDbDimStyleTable
 71
               0
  0
DIMSTYLE
105
18
100
AcDbSymbolTableRecord
100
AcDbDimStyleTableRecord
  2
Standard
 70
               0
  3

  4

 40
1.0
 41
0.18
 42
0.0625
 43
0.38
 44
0.18
 45
0.0
 46
0.0
 47
0.0
 48
0.0
 71
               0
 72
               0
 73
               1
 74
               1
 75
               0
 76
               0
 77
               0
 78
               0
 79
               0
140
0.18
141
0.09
142
0.0
143
25.399999999999999
144
1.0
145
0.0
146
1.0
147
0.09
148
0.0
170
               0
171
               2
172
               0
173
               0
174
               0
175
               0
176
               0
177
               0
178
               0
179
               0
271
               4
272
               4
273
               2
274
               2
275
               0
276
               0
277
               2
278
              46
279
               0
280
               0
281
               0
282
               0
283
               1
284
               0
285
               0
286
               0
288
               0
289
               3
340
17
341
0
342
0
343
0
344
0
371
              -2
372
              -2
  0
DIMSTYLE
105
51
100
AcDbSymbolTableRecord
100
AcDbDimStyleTableRecord
  2
IE Standard
 70
               0
  3
<>mm
  4
[]
 40
1.0
 41
0.79375
 42
0.4762500011827797
 43
6.9999859934672708
 44
0.9525000023655593
 45
0.0
 46
0.0
 47
0.0
 48
0.0
 71
               0
 72
               0
 73
               1
 74
               1
 75
               0
 76
               0
 77
               0
 78
              11
 79
               0
140
0.7579186197916666
141
0.0
142
0.0
143
1.0
144
1.0
145
0.0
146
1.0
147
0.0
148
0.0
170
               0
171
               1
172
               1
173
               0
174
               1
175
               0
176
               0
177
               0
178
               0
179
               2
271
               1
272
               1
273
               2
274
               2
275
               0
276
               2
277
               2
278
              46
279
               0
280
               0
281
               0
282
               0
283
               1
284
              11
285
              11
286
              11
288
               0
289
               0
340
36
341
4D
342
49
343
0
344
0
371
              -2
372
              -2
  0
DIMSTYLE
105
57
100
AcDbSymbolTableRecord
100
AcDbDimStyleTableRecord
  2
Arch
 70
               0
  3
<>mm
  4
[]
 40
1.0
 41
0.5612060546875
 42
0.396875
 43
10.16
 44
0.79375
 45
0.0
 46
1.5874999999999999
 47
0.0
 48
0.0
 71
               0
 72
               0
 73
               0
 74
               0
 75
               0
 76
               0
 77
               1
 78
              11
 79
               0
140
0.7579186197916666
141
0.0
142
0.0
143
1.0
144
1.0
145
0.0
146
1.0
147
1.5874999999999999
148
0.0
170
               0
171
               1
172
               1
173
               0
174
               1
175
               0
176
               0
177
               0
178
               0
179
               2
271
               1
272
               1
273
               2
274
               2
275
               0
276
               2
277
               2
278
              46
279
               0
280
               0
281
               0
282
               0
283
               1
284
              11
285
              11
286
              11
288
               0
289
               0
340
36
341
49
342
52
343
0
344
0
371
              -2
372
              -2
  0
ENDTAB
  0
TABLE
  2
BLOCK_RECORD
  5
1
100
AcDbSymbolTable
 70
              21
  0
BLOCK_RECORD
  5
A
100
AcDbSymbolTableRecord
100
AcDbBlockTableRecord
  2
*MODEL_SPACE
340
20
  0
BLOCK_RECORD
  5
B
100
AcDbSymbolTableRecord
100
AcDbBlockTableRecord
  2
*PAPER_SPACE
340
21
  0
BLOCK_RECORD
  5
49
100
AcDbSymbolTableRecord
100
AcDbBlockTableRecord
  2
VW_FILLEDARROW
340
0
  0
BLOCK_RECORD
  5
4D
100
AcDbSymbolTableRecord
100
AcDbBlockTableRecord
  2
VW_FILLEDARROW-1
340
0
  0
BLOCK_RECORD
  5
52
100
AcDbSymbolTableRecord
100
AcDbBlockTableRecord
  2
VW_SLASH
340
0
  0
BLOCK_RECORD
  5
24
100
AcDbSymbolTableRecord
100
AcDbBlockTableRecord
  2
*D3
340
0
  0
BLOCK_RECORD
  5
25
100
AcDbSymbolTableRecord
100
AcDbBlockTableRecord
  2
*D4
340
0
  0
BLOCK_RECORD
  5
26
100
AcDbSymbolTableRecord
100
AcDbBlockTableRecord
  2
*D5
340
0
  0
BLOCK_RECORD
  5
27
100
AcDbSymbolTableRecord
100
AcDbBlockTableRecord
  2
*D6
340
0
  0
BLOCK_RECORD
  5
28
100
AcDbSymbolTableRecord
100
AcDbBlockTableRecord
  2
*D7
340
0
  0
BLOCK_RECORD
  5
29
100
AcDbSymbolTableRecord
100
AcDbBlockTableRecord
  2
*D8
340
0
  0
BLOCK_RECORD
  5
2A
100
AcDbSymbolTableRecord
100
AcDbBlockTableRecord
  2
*D9
340
0
  0
BLOCK_RECORD
  5
2B
100
AcDbSymbolTableRecord
100
AcDbBlockTableRecord
  2
*D10
340
0
  0
BLOCK_RECORD
  5
2C
100
AcDbSymbolTableRecord
100
AcDbBlockTableRecord
  2
*D11
340
0
  0
BLOCK_RECORD
  5
2D
100
AcDbSymbolTableRecord
100
AcDbBlockTableRecord
  2
*D12
340
0
  0
BLOCK_RECORD
  5
2E
100
AcDbSymbolTableRecord
100
AcDbBlockTableRecord
  2
*D13
340
0
  0
BLOCK_RECORD
  5
2F
100
AcDbSymbolTableRecord
100
AcDbBlockTableRecord
  2
*D14
340
0
  0
BLOCK_RECORD
  5
30
100
AcDbSymbolTableRecord
100
AcDbBlockTableRecord
  2
*D15
340
0
  0
BLOCK_RECORD
  5
31
100
AcDbSymbolTableRecord
100
AcDbBlockTableRecord
  2
*D16
340
0
  0
BLOCK_RECORD
  5
32
100
AcDbSymbolTableRecord
100
AcDbBlockTableRecord
  2
*D17
340
0
  0
BLOCK_RECORD
  5
33
100
AcDbSymbolTableRecord
100
AcDbBlockTableRecord
  2
*D18
340
0
  0
BLOCK_RECORD
  5
34
100
AcDbSymbolTableRecord
100
AcDbBlockTableRecord
  2
Group
340
0
102
{BLKREFS
331
172
102
}
  0
BLOCK_RECORD
  5
35
100
AcDbSymbolTableRecord
100
AcDbBlockTableRecord
  2
Group-1
340
0
102
{BLKREFS
331
1B9
102
}
  0
ENDTAB
  0
ENDSEC
  0
SECTION
  2
BLOCKS
  0
BLOCK
  5
D
100
AcDbEntity
  8
0
390
0
100
AcDbBlockBegin
  2
*MODEL_SPACE
 70
               0
 10
0.0
 20
0.0
 30
0.0
  3
*MODEL_SPACE
  1

  0
ENDBLK
  5
E
100
AcDbEntity
  8
0
390
0
100
AcDbBlockEnd
  0
BLOCK
  5
F
100
AcDbEntity
 67
               1
  8
0
390
0
100
AcDbBlockBegin
  2
*PAPER_SPACE
 70
               0
 10
0.0
 20
0.0
 30
0.0
  3
*PAPER_SPACE
  1

  0
ENDBLK
  5
10
100
AcDbEntity
 67
               1
  8
0
390
0
100
AcDbBlockEnd
  0
BLOCK
  5
4A
100
AcDbEntity
  8
0
370
              -2
390
0
  6
ByBlock
 62
               0
100
AcDbBlockBegin
  2
VW_FILLEDARROW
 70
               0
 10
0.0
 20
0.0
 30
0.0
  3
VW_FILLEDARROW
  1

  0
SOLID
  5
4B
100
AcDbEntity
  8
0
370
              -2
390
0
 62
               0
100
AcDbTrace
 10
0.0
 20
0.0
 30
0.0
 11
-0.9999389648437499
 21
-0.2679328381102956
 31
0.0
 12
-0.9999389648437499
 22
0.2679328381102958
 32
0.0
 13
-0.9999389648437499
 23
0.2679328381102958
 33
0.0
  0
ENDBLK
  5
4C
100
AcDbEntity
  8
0
390
0
100
AcDbBlockEnd
  0
BLOCK
  5
4E
100
AcDbEntity
  8
0
370
              -2
390
0
  6
ByBlock
 62
               0
100
AcDbBlockBegin
  2
VW_FILLEDARROW-1
 70
               0
 10
0.0
 20
0.0
 30
0.0
  3
VW_FILLEDARROW
  1

  0
SOLID
  5
4F
100
AcDbEntity
  8
0
370
              -2
390
0
 62
               0
100
AcDbTrace
 10
0.0
 20
0.0
 30
0.0
 11
-0.6662384033203125
 21
-0.1785180421362784
 31
0.0
 12
-0.6662384033203125
 22
0.1785180421362785
 32
0.0
 13
-0.6662384033203125
 23
0.1785180421362785
 33
0.0
  0
ENDBLK
  5
50
100
AcDbEntity
  8
0
390
0
100
AcDbBlockEnd
  0
BLOCK
  5
53
100
AcDbEntity
  8
0
370
              -2
390
0
  6
ByBlock
 62
               0
100
AcDbBlockBegin
  2
VW_SLASH
 70
               0
 10
0.0
 20
0.0
 30
0.0
  3
VW_SLASH
  1

  0
LINE
  5
54
100
AcDbEntity
  8
0
370
              -2
390
0
  6
ByBlock
 62
               0
100
AcDbLine
 10
0.0
 20
0.0
 30
0.0
 11
-1.0
 21
0.0
 31
0.0
  0
LINE
  5
55
100
AcDbEntity
  8
0
370
              20
390
0
  6
ByBlock
 62
               0
100
AcDbLine
 10
-0.5000145658230796
 20
-0.5000145658230795
 30
0.0
 11
0.5000145658230796
 21
0.5000145658230795
 31
0.0
  0
ENDBLK
  5
56
100
AcDbEntity
  8
0
390
0
100
AcDbBlockEnd
  0
BLOCK
  5
58
100
AcDbEntity
  8
Dimension
390
0
100
AcDbBlockBegin
  2
*D3
 70
               1
 10
0.0
 20
0.0
 30
0.0
  3
*D3
  1

  0
LINE
  5
59
100
AcDbEntity
  8
Dimension
370
              -2
390
0
  6
Continuous
 62
               0
100
AcDbLine
 10
-6.7542700000000053
 20
2.9116399988172077
 30
0.0
 11
-6.7542700000000053
 21
-8.0646100023655691
 31
0.0
  0
LINE
  5
5A
100
AcDbEntity
  8
Dimension
370
              -2
390
0
  6
Continuous
 62
               0
100
AcDbLine
 10
5.4707299999999606
 20
2.9116399988172077
 30
0.0
 11
5.4707299999999606
 21
-8.0646100023655691
 31
0.0
  0
LINE
  5
5B
100
AcDbEntity
  8
Dimension
370
              -2
390
0
  6
Continuous
 62
               0
100
AcDbLine
 10
5.4707299999999606
 20
-7.1121100000000155
 30
0.0
 11
-6.7542700000000053
 21
-7.1121100000000155
 31
0.0
  0
LINE
  5
5C
100
AcDbEntity
  8
Dimension
370
              -2
390
0
  6
Continuous
 62
               0
100
AcDbLine
 10
-6.7542700000000053
 20
-7.1121100000000155
 30
0.0
 11
-8.5042664983668175
 21
-7.1121100000000155
 31
0.0
  0
SOLID
  5
5D
100
AcDbEntity
  8
Dimension
370
              -2
390
0
 62
               0
100
AcDbTrace
 10
-6.7542700000000053
 20
-7.1121100000000155
 30
0.0
 11
-7.5480200000000055
 21
-7.324794671492219
 31
0.0
 12
-7.5480200000000055
 22
-6.899425328507812
 32
0.0
 13
-7.5480200000000055
 23
-6.899425328507812
 33
0.0
  0
LINE
  5
5E
100
AcDbEntity
  8
Dimension
370
              -2
390
0
  6
Continuous
 62
               0
100
AcDbLine
 10
5.4707299999999606
 20
-7.1121100000000155
 30
0.0
 11
7.2207264983667727
 21
-7.1121100000000155
 31
0.0
  0
SOLID
  5
5F
100
AcDbEntity
  8
Dimension
370
              -2
390
0
 62
               0
100
AcDbTrace
 10
5.4707299999999606
 20
-7.1121100000000155
 30
0.0
 11
6.2644799999999607
 21
-6.899425328507812
 31
0.0
 12
6.2644799999999607
 22
-7.324794671492219
 32
0.0
 13
6.2644799999999607
 23
-7.324794671492219
 33
0.0
  0
WIPEOUT
  5
60
100
AcDbEntity
  8
Dimension
370
              -2
390
0
  6
Continuous
 62
               0
 92
        0
100
AcDbWipeout
 90
        0
 10
-6.8586805509917212
 20
-7.7206478333333477
 30
0.0
 11
5.0376507600148521
 21
0.0
 31
0.0
 12
0.0
 22
5.0376507600148521
 32
0.0
 13
1.0
 23
1.0
340
0
 70
               7
280
               1
281
              50
282
              50
283
               0
360
0
 71
               2
 91
        5
 14
-0.5
 24
0.5
 14
0.5
 24
0.5
 14
0.5
 24
0.2584033594269224
 14
-0.5
 24
0.2584033594269224
 14
-0.5
 24
0.5
  0
MTEXT
  5
61
100
AcDbEntity
  8
Dimension
390
0
 62
               0
100
AcDbMText
 10
-6.8586805509917212
 20
-6.6981467135416812
 30
0.0
 40
0.7579186197916666
 41
0.0
 71
               1
 72
               1
  1
12.225mm
  7
Arial
 73
               1
 44
0.9673603504928806
  0
WIPEOUT
  5
62
100
AcDbEntity
  8
Dimension
370
              -2
390
0
  6
Continuous
 62
               0
 92
        0
100
AcDbWipeout
 90
        0
 10
-1.8210297909768656
 20
-7.7206495000000102
 30
0.0
 11
5.0270675208833486
 21
0.0
 31
0.0
 12
0.0
 22
5.0270675208833486
 32
0.0
 13
1.0
 23
1.0
340
0
 70
               7
280
               1
281
              50
282
              50
283
               0
360
0
 71
               2
 91
        5
 14
-0.5
 24
0.5
 14
0.5
 24
0.5
 14
0.5
 24
0.2578947378478544
 14
-0.5
 24
0.2578947378478544
 14
-0.5
 24
0.5
  0
MTEXT
  5
63
100
AcDbEntity
  8
Dimension
390
0
 62
               0
100
AcDbMText
 10
-1.8210297909768656
 20
-6.6981483802083437
 30
0.0
 40
0.7579186197916666
 41
0.0
 71
               1
 72
               1
  1
±0.125mm
  7
Arial
 73
               1
 44
0.9673603504928806
  0
WIPEOUT
  5
64
100
AcDbEntity
  8
Dimension
370
              -2
390
0
  6
Continuous
 62
               0
 92
        0
100
AcDbWipeout
 90
        0
 10
3.2060377299064839
 20
-7.7206516666666811
 30
0.0
 11
2.10608325931761
 21
0.0
 31
0.0
 12
0.0
 22
2.10608325931761
 32
0.0
 13
1.0
 23
1.0
340
0
 70
               7
280
               1
281
              50
282
              50
283
               0
360
0
 71
               2
 91
        5
 14
-0.5
 24
0.5
 14
0.5
 24
0.5
 14
0.5
 24
-0.0778894675453995
 14
-0.5
 24
-0.0778894675453995
 14
-0.5
 24
0.5
  0
MTEXT
  5
65
100
AcDbEntity
  8
Dimension
390
0
 62
               0
100
AcDbMText
 10
3.2060377299064839
 20
-6.698147326388904
 30
0.0
 40
0.7579210069444442
 41
0.0
 71
               1
 72
               1
  1
 (x4)
  7
Arial
 73
               1
 44
0.9673603504928806
  0
POINT
  5
66
100
AcDbEntity
  8
Defpoints
370
               0
390
0
 62
               0
100
AcDbPoint
 10
5.4707299999999606
 20
3.3878899999999845
 30
0.0
  0
POINT
  5
67
100
AcDbEntity
  8
Defpoints
370
               0
390
0
 62
               0
100
AcDbPoint
 10
-6.7542700000000053
 20
3.3878899999999845
 30
0.0
  0
POINT
  5
68
100
AcDbEntity
  8
Defpoints
370
               0
390
0
 62
               0
100
AcDbPoint
 10
-6.7542700000000053
 20
-7.1121100000000137
 30
0.0
  0
ENDBLK
  5
69
100
AcDbEntity
  8
Dimension
390
0
100
AcDbBlockEnd
  0
BLOCK
  5
6A
100
AcDbEntity
  8
Dimension
390
0
100
AcDbBlockBegin
  2
*D4
 70
               1
 10
0.0
 20
0.0
 30
0.0
  3
*D4
  1

  0
LINE
  5
6B
100
AcDbEntity
  8
Dimension
370
              -2
390
0
  6
Continuous
 62
               0
100
AcDbLine
 10
-5.9805200011827822
 20
4.6378899999999845
 30
0.0
 11
-10.38177000236557
 21
4.6378899999999845
 31
0.0
  0
LINE
  5
6C
100
AcDbEntity
  8
Dimension
370
              -2
390
0
  6
Continuous
 62
               0
100
AcDbLine
 10
-5.9805200011827822
 20
7.6378899999999987
 30
0.0
 11
-10.381770002365556
 21
7.6378899999999987
 31
0.0
  0
LINE
  5
6D
100
AcDbEntity
  8
Dimension
370
              -2
390
0
  6
Continuous
 62
               0
100
AcDbLine
 10
-9.4292700000000025
 20
7.6378899999999987
 30
0.0
 11
-9.4292700000000025
 21
4.6378899999999845
 31
0.0
  0
LINE
  5
6E
100
AcDbEntity
  8
Dimension
370
              -2
390
0
  6
Continuous
 62
               0
100
AcDbLine
 10
-9.4292700000000025
 20
4.6378899999999845
 30
0.0
 11
-9.4292700000000025
 21
2.8878935016331724
 31
0.0
  0
SOLID
  5
6F
100
AcDbEntity
  8
Dimension
370
              -2
390
0
 62
               0
100
AcDbTrace
 10
-9.4292700000000025
 20
4.6378899999999845
 30
0.0
 11
-9.216585328507799
 21
3.8441399999999843
 31
0.0
 12
-9.641954671492206
 22
3.8441399999999843
 32
0.0
 13
-9.641954671492206
 23
3.8441399999999843
 33
0.0
  0
LINE
  5
70
100
AcDbEntity
  8
Dimension
370
              -2
390
0
  6
Continuous
 62
               0
100
AcDbLine
 10
-9.4292700000000025
 20
7.6378899999999987
 30
0.0
 11
-9.4292700000000025
 21
9.387886498366818
 31
0.0
  0
SOLID
  5
71
100
AcDbEntity
  8
Dimension
370
              -2
390
0
 62
               0
100
AcDbTrace
 10
-9.4292700000000025
 20
7.6378899999999987
 30
0.0
 11
-9.641954671492206
 21
8.431639999999998
 31
0.0
 12
-9.216585328507799
 22
8.431639999999998
 32
0.0
 13
-9.216585328507799
 23
8.431639999999998
 33
0.0
  0
WIPEOUT
  5
72
100
AcDbEntity
  8
Dimension
370
              -2
390
0
  6
Continuous
 62
               0
 92
        0
100
AcDbWipeout
 90
        0
 10
-10.614599595539303
 20
5.3855666806640388
 30
0.0
 11
2.3706591910786088
 21
0.0
 31
0.0
 12
0.0
 22
2.3706591910786088
 32
0.0
 13
1.0
 23
1.0
340
0
 70
               7
280
               1
281
              50
282
              50
283
               0
360
0
 71
               2
 91
        5
 14
-0.5
 24
0.5
 14
0.5
 24
0.5
 14
0.5
 24
-0.0133928590748844
 14
-0.5
 24
-0.0133928590748844
 14
-0.5
 24
0.5
  0
MTEXT
  5
73
100
AcDbEntity
  8
Dimension
390
0
 62
               0
100
AcDbMText
 10
-10.614599595539303
 20
6.4080678004557052
 30
0.0
 40
0.7579186197916666
 41
0.0
 71
               1
 72
               1
  1
3mm
  7
Arial
 73
               1
 44
0.9673603504928806
  0
POINT
  5
74
100
AcDbEntity
  8
Defpoints
370
               0
390
0
 62
               0
100
AcDbPoint
 10
-5.5042700000000053
 20
7.6378899999999987
 30
0.0
  0
POINT
  5
75
100
AcDbEntity
  8
Defpoints
370
               0
390
0
 62
               0
100
AcDbPoint
 10
-5.5042700000000053
 20
4.6378899999999845
 30
0.0
  0
POINT
  5
76
100
AcDbEntity
  8
Defpoints
370
               0
390
0
 62
               0
100
AcDbPoint
 10
-9.429270000000006
 20
4.6378899999999845
 30
0.0
  0
ENDBLK
  5
77
100
AcDbEntity
  8
Dimension
390
0
100
AcDbBlockEnd
  0
BLOCK
  5
78
100
AcDbEntity
  8
Dimension
390
0
100
AcDbBlockBegin
  2
*D5
 70
               1
 10
0.0
 20
0.0
 30
0.0
  3
*D5
  1

  0
LINE
  5
79
100
AcDbEntity
  8
Dimension
370
              -2
390
0
  6
Continuous
 62
               0
100
AcDbLine
 10
4.6969800011827374
 20
14.36289
 30
0.0
 11
10.496730002365524
 21
14.36289
 31
0.0
  0
LINE
  5
7A
100
AcDbEntity
  8
Dimension
370
              -2
390
0
  6
Continuous
 62
               0
100
AcDbLine
 10
4.6969800011827374
 20
12.36289
 30
0.0
 11
10.49673000236551
 21
12.36289
 31
0.0
  0
LINE
  5
7B
100
AcDbEntity
  8
Dimension
370
              -2
390
0
  6
Continuous
 62
               0
100
AcDbLine
 10
9.5442299999999562
 20
12.36289
 30
0.0
 11
9.5442299999999562
 21
14.36289
 31
0.0
  0
LINE
  5
7C
100
AcDbEntity
  8
Dimension
370
              -2
390
0
  6
Continuous
 62
               0
100
AcDbLine
 10
9.5442299999999562
 20
14.36289
 30
0.0
 11
9.5442299999999562
 21
16.112886498366819
 31
0.0
  0
SOLID
  5
7D
100
AcDbEntity
  8
Dimension
370
              -2
390
0
 62
               0
100
AcDbTrace
 10
9.5442299999999562
 20
14.36289
 30
0.0
 11
9.3315453285077528
 21
15.156639999999999
 31
0.0
 12
9.7569146714921597
 22
15.156639999999999
 32
0.0
 13
9.7569146714921597
 23
15.156639999999999
 33
0.0
  0
LINE
  5
7E
100
AcDbEntity
  8
Dimension
370
              -2
390
0
  6
Continuous
 62
               0
100
AcDbLine
 10
9.5442299999999562
 20
12.36289
 30
0.0
 11
9.5442299999999562
 21
10.612893501633181
 31
0.0
  0
SOLID
  5
7F
100
AcDbEntity
  8
Dimension
370
              -2
390
0
 62
               0
100
AcDbTrace
 10
9.5442299999999562
 20
12.36289
 30
0.0
 11
9.7569146714921597
 21
11.569140000000001
 31
0.0
 12
9.3315453285077528
 22
11.569140000000001
 32
0.0
 13
9.3315453285077528
 23
11.569140000000001
 33
0.0
  0
WIPEOUT
  5
80
100
AcDbEntity
  8
Dimension
370
              -2
390
0
  6
Continuous
 62
               0
 92
        0
100
AcDbWipeout
 90
        0
 10
8.3589004044606554
 20
12.754350249999998
 30
0.0
 11
2.3706591910786088
 21
0.0
 31
0.0
 12
0.0
 22
2.3706591910786088
 32
0.0
 13
1.0
 23
1.0
340
0
 70
               7
280
               1
281
              50
282
              50
283
               0
360
0
 71
               2
 91
        5
 14
-0.5
 24
0.5
 14
0.5
 24
0.5
 14
0.5
 24
-0.0133928590748847
 14
-0.5
 24
-0.0133928590748847
 14
-0.5
 24
0.5
  0
MTEXT
  5
81
100
AcDbEntity
  8
Dimension
390
0
 62
               0
100
AcDbMText
 10
8.3589004044606554
 20
13.776851369791665
 30
0.0
 40
0.7579186197916666
 41
0.0
 71
               1
 72
               1
  1
2mm
  7
Arial
 73
               1
 44
0.9673603504928806
  0
POINT
  5
82
100
AcDbEntity
  8
Defpoints
370
               0
390
0
 62
               0
100
AcDbPoint
 10
4.2207299999999606
 20
12.36289
 30
0.0
  0
POINT
  5
83
100
AcDbEntity
  8
Defpoints
370
               0
390
0
 62
               0
100
AcDbPoint
 10
4.2207299999999606
 20
14.36289
 30
0.0
  0
POINT
  5
84
100
AcDbEntity
  8
Defpoints
370
               0
390
0
 62
               0
100
AcDbPoint
 10
9.5442299999999598
 20
14.36289
 30
0.0
  0
ENDBLK
  5
85
100
AcDbEntity
  8
Dimension
390
0
100
AcDbBlockEnd
  0
BLOCK
  5
86
100
AcDbEntity
  8
Dimension
390
0
100
AcDbBlockBegin
  2
*D6
 70
               1
 10
0.0
 20
0.0
 30
0.0
  3
*D6
  1

  0
LINE
  5
87
100
AcDbEntity
  8
Dimension
370
              -2
390
0
  6
Continuous
 62
               0
100
AcDbLine
 10
-6.7542700000000053
 20
16.089140001182777
 30
0.0
 11
-6.7542700000000053
 21
21.62388000236556
 31
0.0
  0
LINE
  5
88
100
AcDbEntity
  8
Dimension
370
              -2
390
0
  6
Continuous
 62
               0
100
AcDbLine
 10
-5.5042700000000053
 20
14.839140001182777
 30
0.0
 11
-5.5042700000000053
 21
21.62388000236556
 31
0.0
  0
LINE
  5
89
100
AcDbEntity
  8
Dimension
370
              -2
390
0
  6
Continuous
 62
               0
100
AcDbLine
 10
-5.5042700000000053
 20
20.671379999999999
 30
0.0
 11
-6.7542700000000053
 21
20.671379999999999
 31
0.0
  0
LINE
  5
8A
100
AcDbEntity
  8
Dimension
370
              -2
390
0
  6
Continuous
 62
               0
100
AcDbLine
 10
-6.7542700000000053
 20
20.671379999999999
 30
0.0
 11
-9.8175400000000081
 21
20.671379999999999
 31
0.0
  0
SOLID
  5
8B
100
AcDbEntity
  8
Dimension
370
              -2
390
0
 62
               0
100
AcDbTrace
 10
-6.7542700000000053
 20
20.671379999999999
 30
0.0
 11
-7.5480200000000055
 21
20.458695328507794
 31
0.0
 12
-7.5480200000000055
 22
20.884064671492204
 32
0.0
 13
-7.5480200000000055
 23
20.884064671492204
 33
0.0
  0
LINE
  5
8C
100
AcDbEntity
  8
Dimension
370
              -2
390
0
  6
Continuous
 62
               0
100
AcDbLine
 10
-5.5042700000000053
 20
20.671379999999999
 30
0.0
 11
-3.7542735016331932
 21
20.671379999999999
 31
0.0
  0
SOLID
  5
8D
100
AcDbEntity
  8
Dimension
370
              -2
390
0
 62
               0
100
AcDbTrace
 10
-5.5042700000000053
 20
20.671379999999999
 30
0.0
 11
-4.7105200000000051
 21
20.884064671492204
 31
0.0
 12
-4.7105200000000051
 22
20.458695328507794
 32
0.0
 13
-4.7105200000000051
 23
20.458695328507794
 33
0.0
  0
WIPEOUT
  5
8E
100
AcDbEntity
  8
Dimension
370
              -2
390
0
  6
Continuous
 62
               0
 92
        0
100
AcDbWipeout
 90
        0
 10
-20.80301202878529
 20
20.062842166666659
 30
0.0
 11
3.8523212485843246
 21
0.0
 31
0.0
 12
0.0
 22
3.8523212485843246
 32
0.0
 13
1.0
 23
1.0
340
0
 70
               7
280
               1
281
              50
282
              50
283
               0
360
0
 71
               2
 91
        5
 14
-0.5
 24
0.5
 14
0.5
 24
0.5
 14
0.5
 24
0.1840659380504
 14
-0.5
 24
0.1840659380504
 14
-0.5
 24
0.5
  0
MTEXT
  5
8F
100
AcDbEntity
  8
Dimension
390
0
 62
               0
100
AcDbMText
 10
-20.80301202878529
 20
21.085343286458325
 30
0.0
 40
0.7579186197916666
 41
0.0
 71
               1
 72
               1
  1
1.25mm
  7
Arial
 73
               1
 44
0.9673603504928806
  0
WIPEOUT
  5
90
100
AcDbEntity
  8
Dimension
370
              -2
390
0
  6
Continuous
 62
               0
 92
        0
100
AcDbWipeout
 90
        0
 10
-16.950690780200972
 20
20.062840499999997
 30
0.0
 11
5.0270675208833495
 21
0.0
 31
0.0
 12
0.0
 22
5.0270675208833495
 32
0.0
 13
1.0
 23
1.0
340
0
 70
               7
280
               1
281
              50
282
              50
283
               0
360
0
 71
               2
 91
        5
 14
-0.5
 24
0.5
 14
0.5
 24
0.5
 14
0.5
 24
0.2578947378478543
 14
-0.5
 24
0.2578947378478543
 14
-0.5
 24
0.5
  0
MTEXT
  5
91
100
AcDbEntity
  8
Dimension
390
0
 62
               0
100
AcDbMText
 10
-16.950690780200972
 20
21.085341619791663
 30
0.0
 40
0.7579186197916666
 41
0.0
 71
               1
 72
               1
  1
±0.125mm
  7
Arial
 73
               1
 44
0.9673603504928806
  0
WIPEOUT
  5
92
100
AcDbEntity
  8
Dimension
370
              -2
390
0
  6
Continuous
 62
               0
 92
        0
100
AcDbWipeout
 90
        0
 10
-11.923623259317623
 20
20.062838333333328
 30
0.0
 11
2.1060832593176109
 21
0.0
 31
0.0
 12
0.0
 22
2.1060832593176109
 32
0.0
 13
1.0
 23
1.0
340
0
 70
               7
280
               1
281
              50
282
              50
283
               0
360
0
 71
               2
 91
        5
 14
-0.5
 24
0.5
 14
0.5
 24
0.5
 14
0.5
 24
-0.0778894675453984
 14
-0.5
 24
-0.0778894675453984
 14
-0.5
 24
0.5
  0
MTEXT
  5
93
100
AcDbEntity
  8
Dimension
390
0
 62
               0
100
AcDbMText
 10
-11.923623259317623
 20
21.085342673611105
 30
0.0
 40
0.7579210069444442
 41
0.0
 71
               1
 72
               1
  1
 (x4)
  7
Arial
 73
               1
 44
0.9673603504928806
  0
POINT
  5
94
100
AcDbEntity
  8
Defpoints
370
               0
390
0
 62
               0
100
AcDbPoint
 10
-5.5042700000000053
 20
14.36289
 30
0.0
  0
POINT
  5
95
100
AcDbEntity
  8
Defpoints
370
               0
390
0
 62
               0
100
AcDbPoint
 10
-6.7542700000000053
 20
15.61289
 30
0.0
  0
POINT
  5
96
100
AcDbEntity
  8
Defpoints
370
               0
390
0
 62
               0
100
AcDbPoint
 10
-6.7542700000000053
 20
20.671379999999999
 30
0.0
  0
ENDBLK
  5
97
100
AcDbEntity
  8
Dimension
390
0
100
AcDbBlockEnd
  0
BLOCK
  5
98
100
AcDbEntity
  8
Dimension
390
0
100
AcDbBlockBegin
  2
*D7
 70
               1
 10
0.0
 20
0.0
 30
0.0
  3
*D7
  1

  0
LINE
  5
99
100
AcDbEntity
  8
Dimension
370
              -2
390
0
  6
Continuous
 62
               0
100
AcDbLine
 10
-7.2305200011827822
 20
15.61289
 30
0.0
 11
-15.931770002365568
 21
15.61289
 31
0.0
  0
LINE
  5
9A
100
AcDbEntity
  8
Dimension
370
              -2
390
0
  6
Continuous
 62
               0
100
AcDbLine
 10
-5.9805200011827822
 20
14.36289
 30
0.0
 11
-15.931770002365553
 21
14.36289
 31
0.0
  0
LINE
  5
9B
100
AcDbEntity
  8
Dimension
370
              -2
390
0
  6
Continuous
 62
               0
100
AcDbLine
 10
-14.97927
 20
14.36289
 30
0.0
 11
-14.97927
 21
15.61289
 31
0.0
  0
LINE
  5
9C
100
AcDbEntity
  8
Dimension
370
              -2
390
0
  6
Continuous
 62
               0
100
AcDbLine
 10
-14.97927
 20
15.61289
 30
0.0
 11
-14.97927
 21
17.821379999999998
 31
0.0
  0
SOLID
  5
9D
100
AcDbEntity
  8
Dimension
370
              -2
390
0
 62
               0
100
AcDbTrace
 10
-14.97927
 20
15.61289
 30
0.0
 11
-15.191954671492203
 21
16.406639999999999
 31
0.0
 12
-14.766585328507796
 22
16.406639999999999
 32
0.0
 13
-14.766585328507796
 23
16.406639999999999
 33
0.0
  0
LINE
  5
9E
100
AcDbEntity
  8
Dimension
370
              -2
390
0
  6
Continuous
 62
               0
100
AcDbLine
 10
-14.97927
 20
14.36289
 30
0.0
 11
-14.97927
 21
12.612893501633181
 31
0.0
  0
SOLID
  5
9F
100
AcDbEntity
  8
Dimension
370
              -2
390
0
 62
               0
100
AcDbTrace
 10
-14.97927
 20
14.36289
 30
0.0
 11
-14.766585328507796
 21
13.569140000000001
 31
0.0
 12
-15.191954671492203
 22
13.569140000000001
 32
0.0
 13
-15.191954671492203
 23
13.569140000000001
 33
0.0
  0
WIPEOUT
  5
A0
100
AcDbEntity
  8
Dimension
370
              -2
390
0
  6
Continuous
 62
               0
 92
        0
100
AcDbWipeout
 90
        0
 10
-20.472006014392647
 20
17.212842166666658
 30
0.0
 11
3.8523212485843246
 21
0.0
 31
0.0
 12
0.0
 22
3.8523212485843246
 32
0.0
 13
1.0
 23
1.0
340
0
 70
               7
280
               1
281
              50
282
              50
283
               0
360
0
 71
               2
 91
        5
 14
-0.5
 24
0.5
 14
0.5
 24
0.5
 14
0.5
 24
0.1840659380504
 14
-0.5
 24
0.1840659380504
 14
-0.5
 24
0.5
  0
MTEXT
  5
A1
100
AcDbEntity
  8
Dimension
390
0
 62
               0
100
AcDbMText
 10
-20.472006014392647
 20
18.235343286458324
 30
0.0
 40
0.7579186197916666
 41
0.0
 71
               1
 72
               1
  1
1.25mm
  7
Arial
 73
               1
 44
0.9673603504928806
  0
WIPEOUT
  5
A2
100
AcDbEntity
  8
Dimension
370
              -2
390
0
  6
Continuous
 62
               0
 92
        0
100
AcDbWipeout
 90
        0
 10
-16.61968476580833
 20
17.212840499999995
 30
0.0
 11
5.0270675208833495
 21
0.0
 31
0.0
 12
0.0
 22
5.0270675208833495
 32
0.0
 13
1.0
 23
1.0
340
0
 70
               7
280
               1
281
              50
282
              50
283
               0
360
0
 71
               2
 91
        5
 14
-0.5
 24
0.5
 14
0.5
 24
0.5
 14
0.5
 24
0.2578947378478543
 14
-0.5
 24
0.2578947378478543
 14
-0.5
 24
0.5
  0
MTEXT
  5
A3
100
AcDbEntity
  8
Dimension
390
0
 62
               0
100
AcDbMText
 10
-16.61968476580833
 20
18.235341619791662
 30
0.0
 40
0.7579186197916666
 41
0.0
 71
               1
 72
               1
  1
±0.125mm
  7
Arial
 73
               1
 44
0.9673603504928806
  0
WIPEOUT
  5
A4
100
AcDbEntity
  8
Dimension
370
              -2
390
0
  6
Continuous
 62
               0
 92
        0
100
AcDbWipeout
 90
        0
 10
-11.59261724492498
 20
17.212838333333327
 30
0.0
 11
2.1060832593176109
 21
0.0
 31
0.0
 12
0.0
 22
2.1060832593176109
 32
0.0
 13
1.0
 23
1.0
340
0
 70
               7
280
               1
281
              50
282
              50
283
               0
360
0
 71
               2
 91
        5
 14
-0.5
 24
0.5
 14
0.5
 24
0.5
 14
0.5
 24
-0.0778894675453984
 14
-0.5
 24
-0.0778894675453984
 14
-0.5
 24
0.5
  0
MTEXT
  5
A5
100
AcDbEntity
  8
Dimension
390
0
 62
               0
100
AcDbMText
 10
-11.59261724492498
 20
18.235342673611104
 30
0.0
 40
0.7579210069444442
 41
0.0
 71
               1
 72
               1
  1
 (x4)
  7
Arial
 73
               1
 44
0.9673603504928806
  0
POINT
  5
A6
100
AcDbEntity
  8
Defpoints
370
               0
390
0
 62
               0
100
AcDbPoint
 10
-5.5042700000000053
 20
14.36289
 30
0.0
  0
POINT
  5
A7
100
AcDbEntity
  8
Defpoints
370
               0
390
0
 62
               0
100
AcDbPoint
 10
-6.7542700000000053
 20
15.61289
 30
0.0
  0
POINT
  5
A8
100
AcDbEntity
  8
Defpoints
370
               0
390
0
 62
               0
100
AcDbPoint
 10
-14.979270000000005
 20
15.61289
 30
0.0
  0
ENDBLK
  5
A9
100
AcDbEntity
  8
Dimension
390
0
100
AcDbBlockEnd
  0
BLOCK
  5
AA
100
AcDbEntity
  8
Dimension
390
0
100
AcDbBlockBegin
  2
*D8
 70
               1
 10
0.0
 20
0.0
 30
0.0
  3
*D8
  1

  0
LINE
  5
AB
100
AcDbEntity
  8
Dimension
370
              -2
390
0
  6
Continuous
 62
               0
100
AcDbLine
 10
-5.5042700000000053
 20
4.1616399988172077
 30
0.0
 11
-5.5042700000000053
 21
-5.6646100023655777
 31
0.0
  0
LINE
  5
AC
100
AcDbEntity
  8
Dimension
370
              -2
390
0
  6
Continuous
 62
               0
100
AcDbLine
 10
4.2207299999999606
 20
4.1616399988172077
 30
0.0
 11
4.2207299999999606
 21
-5.6646100023655634
 31
0.0
  0
LINE
  5
AD
100
AcDbEntity
  8
Dimension
370
              -2
390
0
  6
Continuous
 62
               0
100
AcDbLine
 10
4.2207299999999606
 20
-4.7121100000000098
 30
0.0
 11
-5.5042700000000053
 21
-4.7121100000000098
 31
0.0
  0
LINE
  5
AE
100
AcDbEntity
  8
Dimension
370
              -2
390
0
  6
Continuous
 62
               0
100
AcDbLine
 10
-5.5042700000000053
 20
-4.7121100000000098
 30
0.0
 11
-7.2542664983668175
 21
-4.7121100000000098
 31
0.0
  0
SOLID
  5
AF
100
AcDbEntity
  8
Dimension
370
              -2
390
0
 62
               0
100
AcDbTrace
 10
-5.5042700000000053
 20
-4.7121100000000098
 30
0.0
 11
-6.2980200000000055
 21
-4.9247946714922133
 31
0.0
 12
-6.2980200000000055
 22
-4.4994253285078063
 32
0.0
 13
-6.2980200000000055
 23
-4.4994253285078063
 33
0.0
  0
LINE
  5
B0
100
AcDbEntity
  8
Dimension
370
              -2
390
0
  6
Continuous
 62
               0
100
AcDbLine
 10
4.2207299999999606
 20
-4.7121100000000098
 30
0.0
 11
5.9707264983667727
 21
-4.7121100000000098
 31
0.0
  0
SOLID
  5
B1
100
AcDbEntity
  8
Dimension
370
              -2
390
0
 62
               0
100
AcDbTrace
 10
4.2207299999999606
 20
-4.7121100000000098
 30
0.0
 11
5.0144799999999607
 21
-4.4994253285078063
 31
0.0
 12
5.0144799999999607
 22
-4.9247946714922133
 32
0.0
 13
5.0144799999999607
 23
-4.9247946714922133
 33
0.0
  0
WIPEOUT
  5
B2
100
AcDbEntity
  8
Dimension
370
              -2
390
0
  6
Continuous
 62
               0
 92
        0
100
AcDbWipeout
 90
        0
 10
-3.6322410186852636
 20
-5.3206497500000181
 30
0.0
 11
6.5510630395677349
 21
0.0
 31
0.0
 12
0.0
 22
6.5510630395677349
 32
0.0
 13
1.0
 23
1.0
340
0
 70
               7
280
               1
281
              50
282
              50
283
               0
360
0
 71
               2
 91
        5
 14
-0.5
 24
0.5
 14
0.5
 24
0.5
 14
0.5
 24
0.3142164878205312
 14
-0.5
 24
0.3142164878205312
 14
-0.5
 24
0.5
  0
MTEXT
  5
B3
100
AcDbEntity
  8
Dimension
390
0
 62
               0
100
AcDbMText
 10
-3.6322410186852636
 20
-4.2981486302083516
 30
0.0
 40
0.7579186197916666
 41
0.0
 71
               1
 72
               1
  1
9.725mm (x4)
  7
Arial
 73
               1
 44
0.9673603504928806
  0
POINT
  5
B4
100
AcDbEntity
  8
Defpoints
370
               0
390
0
 62
               0
100
AcDbPoint
 10
4.2207299999999606
 20
4.6378899999999845
 30
0.0
  0
POINT
  5
B5
100
AcDbEntity
  8
Defpoints
370
               0
390
0
 62
               0
100
AcDbPoint
 10
-5.5042700000000053
 20
4.6378899999999845
 30
0.0
  0
POINT
  5
B6
100
AcDbEntity
  8
Defpoints
370
               0
390
0
 62
               0
100
AcDbPoint
 10
-5.5042700000000053
 20
-4.7121100000000151
 30
0.0
  0
ENDBLK
  5
B7
100
AcDbEntity
  8
Dimension
390
0
100
AcDbBlockEnd
  0
BLOCK
  5
B8
100
AcDbEntity
  8
Dimension
390
0
100
AcDbBlockBegin
  2
*D9
 70
               1
 10
0.0
 20
0.0
 30
0.0
  3
*D9
  1

  0
LINE
  5
B9
100
AcDbEntity
  8
Dimension
370
              -2
390
0
  6
Continuous
 62
               0
100
AcDbLine
 10
4.5837499999999523
 20
12.583889999999997
 30
0.0
 11
11.810333301782052
 21
17.010648346385643
 31
0.0
  0
SOLID
  5
BA
100
AcDbEntity
  8
Dimension
370
              -2
390
0
 62
               0
100
AcDbTrace
 10
4.5837499999999523
 20
12.583889999999997
 30
0.0
 11
4.9642143179633162
 21
12.977872334566714
 31
0.0
 12
5.1102329318731039
 22
12.734856551395392
 32
0.0
 13
5.1102329318731039
 23
12.734856551395392
 33
0.0
  0
LINE
  5
BB
100
AcDbEntity
  8
Dimension
370
              -2
390
0
  6
Continuous
 62
               0
100
AcDbLine
 10
11.810333301782052
 20
17.010648346385643
 30
0.0
 11
13.310330303761546
 21
17.010648346385643
 31
0.0
  0
WIPEOUT
  5
BC
100
AcDbEntity
  8
Dimension
370
              -2
390
0
  6
Continuous
 62
               0
 92
        0
100
AcDbWipeout
 90
        0
 10
11.087837301611756
 20
16.402110263052304
 30
0.0
 11
4.9741509887907256
 21
0.0
 31
0.0
 12
0.0
 22
4.9741509887907256
 32
0.0
 13
1.0
 23
1.0
340
0
 70
               7
280
               1
281
              50
282
              50
283
               0
360
0
 71
               2
 91
        5
 14
-0.5
 24
0.5
 14
0.5
 24
0.5
 14
0.5
 24
0.2553191483847805
 14
-0.5
 24
0.2553191483847805
 14
-0.5
 24
0.5
  0
MTEXT
  5
BD
100
AcDbEntity
  8
Dimension
390
0
 62
               0
100
AcDbMText
 10
11.087837301611756
 20
17.42461138284397
 30
0.0
 40
0.7579186197916666
 41
0.0
 71
               1
 72
               1
  1
Ø 0.85mm
  7
Arial
 73
               1
 44
0.9673603504928806
  0
WIPEOUT
  5
BE
100
AcDbEntity
  8
Dimension
370
              -2
390
0
  6
Continuous
 62
               0
 92
        0
100
AcDbWipeout
 90
        0
 10
16.061988290402475
 20
16.964346513052309
 30
0.0
 11
1.2170795000000005
 21
0.0
 31
0.0
 12
0.0
 22
1.2170795000000005
 32
0.0
 13
1.0
 23
1.0
340
0
 70
               7
280
               1
281
              50
282
              50
283
               0
360
0
 71
               2
 91
        5
 14
-0.5
 24
0.5
 14
0.0043478278911342
 24
0.5
 14
0.0043478278911342
 24
-0.5
 14
-0.5
 24
-0.5
 14
-0.5
 24
0.5
  0
MTEXT
  5
BF
100
AcDbEntity
  8
Dimension
390
0
 62
               0
100
AcDbMText
 10
16.368903991500389
 20
17.986847632843975
 30
0.0
 40
0.7579186197916666
 41
0.0
 71
               2
 72
               1
  1
+
  7
Arial
 73
               1
 44
0.9673603504928806
  0
WIPEOUT
  5
C0
100
AcDbEntity
  8
Dimension
370
              -2
390
0
  6
Continuous
 62
               0
 92
        0
100
AcDbWipeout
 90
        0
 10
16.194279536525261
 20
15.839870679718974
 30
0.0
 11
1.2170795000000005
 21
0.0
 31
0.0
 12
0.0
 22
1.2170795000000005
 32
0.0
 13
1.0
 23
1.0
340
0
 70
               7
280
               1
281
              50
282
              50
283
               0
360
0
 71
               2
 91
        5
 14
-0.5
 24
0.5
 14
-0.2130434700853521
 24
0.5
 14
-0.2130434700853521
 24
-0.5
 14
-0.5
 24
-0.5
 14
-0.5
 24
0.5
  0
MTEXT
  5
C1
100
AcDbEntity
  8
Dimension
390
0
 62
               0
100
AcDbMText
 10
16.368903991500389
 20
16.86237179951064
 30
0.0
 40
0.7579186197916666
 41
0.0
 71
               2
 72
               1
  1
-
  7
Arial
 73
               1
 44
0.9673603504928806
  0
WIPEOUT
  5
C2
100
AcDbEntity
  8
Dimension
370
              -2
390
0
  6
Continuous
 62
               0
 92
        0
100
AcDbWipeout
 90
        0
 10
16.67581969259831
 20
16.964346513052309
 30
0.0
 11
4.4449860042995866
 21
0.0
 31
0.0
 12
0.0
 22
4.4449860042995866
 32
0.0
 13
1.0
 23
1.0
340
0
 70
               7
280
               1
281
              50
282
              50
283
               0
360
0
 71
               2
 91
        5
 14
-0.5
 24
0.5
 14
0.5
 24
0.5
 14
0.5
 24
0.226190476455329
 14
-0.5
 24
0.226190476455329
 14
-0.5
 24
0.5
  0
MTEXT
  5
C3
100
AcDbEntity
  8
Dimension
390
0
 62
               0
100
AcDbMText
 10
16.67581969259831
 20
17.986847632843975
 30
0.0
 40
0.7579186197916666
 41
0.0
 71
               1
 72
               1
  1
0.025mm
  7
Arial
 73
               1
 44
0.9673603504928806
  0
WIPEOUT
  5
C4
100
AcDbEntity
  8
Dimension
370
              -2
390
0
  6
Continuous
 62
               0
 92
        0
100
AcDbWipeout
 90
        0
 10
16.67581969259831
 20
15.839870679718974
 30
0.0
 11
4.4449860042995866
 21
0.0
 31
0.0
 12
0.0
 22
4.4449860042995866
 32
0.0
 13
1.0
 23
1.0
340
0
 70
               7
280
               1
281
              50
282
              50
283
               0
360
0
 71
               2
 91
        5
 14
-0.5
 24
0.5
 14
0.5
 24
0.5
 14
0.5
 24
0.226190476455329
 14
-0.5
 24
0.226190476455329
 14
-0.5
 24
0.5
  0
MTEXT
  5
C5
100
AcDbEntity
  8
Dimension
390
0
 62
               0
100
AcDbMText
 10
16.67581969259831
 20
16.86237179951064
 30
0.0
 40
0.7579186197916666
 41
0.0
 71
               1
 72
               1
  1
0.025mm
  7
Arial
 73
               1
 44
0.9673603504928806
  0
WIPEOUT
  5
C6
100
AcDbEntity
  8
Dimension
370
              -2
390
0
  6
Continuous
 62
               0
 92
        0
100
AcDbWipeout
 90
        0
 10
21.120805696897889
 20
16.402106429718973
 30
0.0
 11
2.1060832593176109
 21
0.0
 31
0.0
 12
0.0
 22
2.1060832593176109
 32
0.0
 13
1.0
 23
1.0
340
0
 70
               7
280
               1
281
              50
282
              50
283
               0
360
0
 71
               2
 91
        5
 14
-0.5
 24
0.5
 14
0.5
 24
0.5
 14
0.5
 24
-0.0778894675453984
 14
-0.5
 24
-0.0778894675453984
 14
-0.5
 24
0.5
  0
MTEXT
  5
C7
100
AcDbEntity
  8
Dimension
390
0
 62
               0
100
AcDbMText
 10
21.120805696897889
 20
17.42461076999675
 30
0.0
 40
0.7579210069444442
 41
0.0
 71
               1
 72
               1
  1
 (x2)
  7
Arial
 73
               1
 44
0.9673603504928806
  0
POINT
  5
C8
100
AcDbEntity
  8
Defpoints
370
               0
390
0
 62
               0
100
AcDbPoint
 10
3.8589299999999582
 20
12.139890000000001
 30
0.0
  0
POINT
  5
C9
100
AcDbEntity
  8
Defpoints
370
               0
390
0
 62
               0
100
AcDbPoint
 10
4.5837499999999523
 20
12.583889999999997
 30
0.0
  0
ENDBLK
  5
CA
100
AcDbEntity
  8
Dimension
390
0
100
AcDbBlockEnd
  0
BLOCK
  5
CB
100
AcDbEntity
  8
Dimension
390
0
100
AcDbBlockBegin
  2
*D10
 70
               1
 10
0.0
 20
0.0
 30
0.0
  3
*D10
  1

  0
LINE
  5
CC
100
AcDbEntity
  8
Dimension
370
              -2
390
0
  6
Continuous
 62
               0
100
AcDbLine
 10
4.9043999999999528
 20
4.2128899999999874
 30
0.0
 11
7.8643961637069992
 21
2.3425304892613923
 31
0.0
  0
SOLID
  5
CD
100
AcDbEntity
  8
Dimension
370
              -2
390
0
 62
               0
100
AcDbTrace
 10
4.9043999999999528
 20
4.2128899999999874
 30
0.0
 11
5.4252935560334885
 21
4.0436414240038925
 31
0.0
 12
5.2708827641945604
 22
3.8058696556162599
 32
0.0
 13
5.2708827641945604
 23
3.8058696556162599
 33
0.0
  0
LINE
  5
CE
100
AcDbEntity
  8
Dimension
370
              -2
390
0
  6
Continuous
 62
               0
100
AcDbLine
 10
7.8643961637069992
 20
2.3425304892613923
 30
0.0
 11
9.3643931656864936
 21
2.3425304892613923
 31
0.0
  0
WIPEOUT
  5
CF
100
AcDbEntity
  8
Dimension
370
              -2
390
0
  6
Continuous
 62
               0
 92
        0
100
AcDbWipeout
 90
        0
 10
7.4382325413943278
 20
1.7339924059280605
 30
0.0
 11
4.9741509887907238
 21
0.0
 31
0.0
 12
0.0
 22
4.9741509887907238
 32
0.0
 13
1.0
 23
1.0
340
0
 70
               7
280
               1
281
              50
282
              50
283
               0
360
0
 71
               2
 91
        5
 14
-0.5
 24
0.5
 14
0.5
 24
0.5
 14
0.5
 24
0.2553191483847807
 14
-0.5
 24
0.2553191483847807
 14
-0.5
 24
0.5
  0
MTEXT
  5
D0
100
AcDbEntity
  8
Dimension
390
0
 62
               0
100
AcDbMText
 10
7.4382325413943278
 20
2.7564935257197272
 30
0.0
 40
0.7579186197916666
 41
0.0
 71
               1
 72
               1
  1
Ø 1.61mm
  7
Arial
 73
               1
 44
0.9673603504928806
  0
WIPEOUT
  5
D1
100
AcDbEntity
  8
Dimension
370
              -2
390
0
  6
Continuous
 62
               0
 92
        0
100
AcDbWipeout
 90
        0
 10
12.412383530185048
 20
2.2962286559280587
 30
0.0
 11
1.2170794999999996
 21
0.0
 31
0.0
 12
0.0
 22
1.2170794999999996
 32
0.0
 13
1.0
 23
1.0
340
0
 70
               7
280
               1
281
              50
282
              50
283
               0
360
0
 71
               2
 91
        5
 14
-0.5
 24
0.5
 14
0.0043478278911316
 24
0.5
 14
0.0043478278911316
 24
-0.5
 14
-0.5
 24
-0.5
 14
-0.5
 24
0.5
  0
MTEXT
  5
D2
100
AcDbEntity
  8
Dimension
390
0
 62
               0
100
AcDbMText
 10
12.71929923128296
 20
3.3187297757197252
 30
0.0
 40
0.7579186197916666
 41
0.0
 71
               2
 72
               1
  1
+
  7
Arial
 73
               1
 44
0.9673603504928806
  0
WIPEOUT
  5
D3
100
AcDbEntity
  8
Dimension
370
              -2
390
0
  6
Continuous
 62
               0
 92
        0
100
AcDbWipeout
 90
        0
 10
12.544674776307833
 20
1.1717528225947234
 30
0.0
 11
1.2170794999999999
 21
0.0
 31
0.0
 12
0.0
 22
1.2170794999999999
 32
0.0
 13
1.0
 23
1.0
340
0
 70
               7
280
               1
281
              50
282
              50
283
               0
360
0
 71
               2
 91
        5
 14
-0.5
 24
0.5
 14
-0.2130434700853519
 24
0.5
 14
-0.2130434700853519
 24
-0.5
 14
-0.5
 24
-0.5
 14
-0.5
 24
0.5
  0
MTEXT
  5
D4
100
AcDbEntity
  8
Dimension
390
0
 62
               0
100
AcDbMText
 10
12.71929923128296
 20
2.19425394238639
 30
0.0
 40
0.7579186197916666
 41
0.0
 71
               2
 72
               1
  1
-
  7
Arial
 73
               1
 44
0.9673603504928806
  0
WIPEOUT
  5
D5
100
AcDbEntity
  8
Dimension
370
              -2
390
0
  6
Continuous
 62
               0
 92
        0
100
AcDbWipeout
 90
        0
 10
13.026214932380881
 20
2.2962286559280587
 30
0.0
 11
3.8523212485843246
 21
0.0
 31
0.0
 12
0.0
 22
3.8523212485843246
 32
0.0
 13
1.0
 23
1.0
340
0
 70
               7
280
               1
281
              50
282
              50
283
               0
360
0
 71
               2
 91
        5
 14
-0.5
 24
0.5
 14
0.5
 24
0.5
 14
0.5
 24
0.1840659380504002
 14
-0.5
 24
0.1840659380504002
 14
-0.5
 24
0.5
  0
MTEXT
  5
D6
100
AcDbEntity
  8
Dimension
390
0
 62
               0
100
AcDbMText
 10
13.026214932380881
 20
3.3187297757197252
 30
0.0
 40
0.7579186197916666
 41
0.0
 71
               1
 72
               1
  1
0.05mm
  7
Arial
 73
               1
 44
0.9673603504928806
  0
WIPEOUT
  5
D7
100
AcDbEntity
  8
Dimension
370
              -2
390
0
  6
Continuous
 62
               0
 92
        0
100
AcDbWipeout
 90
        0
 10
13.026214932380881
 20
1.1717528225947234
 30
0.0
 11
3.8523212485843246
 21
0.0
 31
0.0
 12
0.0
 22
3.8523212485843246
 32
0.0
 13
1.0
 23
1.0
340
0
 70
               7
280
               1
281
              50
282
              50
283
               0
360
0
 71
               2
 91
        5
 14
-0.5
 24
0.5
 14
0.5
 24
0.5
 14
0.5
 24
0.1840659380504002
 14
-0.5
 24
0.1840659380504002
 14
-0.5
 24
0.5
  0
MTEXT
  5
D8
100
AcDbEntity
  8
Dimension
390
0
 62
               0
100
AcDbMText
 10
13.026214932380881
 20
2.19425394238639
 30
0.0
 40
0.7579186197916666
 41
0.0
 71
               1
 72
               1
  1
0.05mm
  7
Arial
 73
               1
 44
0.9673603504928806
  0
WIPEOUT
  5
D9
100
AcDbEntity
  8
Dimension
370
              -2
390
0
  6
Continuous
 62
               0
 92
        0
100
AcDbWipeout
 90
        0
 10
16.878536180965199
 20
1.7339885725947275
 30
0.0
 11
1.8097500403722115
 21
0.0
 31
0.0
 12
0.0
 22
1.8097500403722115
 32
0.0
 13
1.0
 23
1.0
340
0
 70
               7
280
               1
281
              50
282
              50
283
               0
360
0
 71
               2
 91
        5
 14
-0.5
 24
0.5
 14
0.5
 24
0.5
 14
0.5
 24
-0.1725146048804702
 14
-0.5
 24
-0.1725146048804702
 14
-0.5
 24
0.5
  0
MTEXT
  5
DA
100
AcDbEntity
  8
Dimension
390
0
 62
               0
100
AcDbMText
 10
16.878536180965199
 20
2.7564929128725049
 30
0.0
 40
0.7579210069444442
 41
0.0
 71
               1
 72
               1
  1
(x4)
  7
Arial
 73
               1
 44
0.9673603504928806
  0
POINT
  5
DB
100
AcDbEntity
  8
Defpoints
370
               0
390
0
 62
               0
100
AcDbPoint
 10
3.5433799999999565
 20
5.0728899999999868
 30
0.0
  0
POINT
  5
DC
100
AcDbEntity
  8
Defpoints
370
               0
390
0
 62
               0
100
AcDbPoint
 10
4.9043999999999528
 20
4.2128899999999874
 30
0.0
  0
ENDBLK
  5
DD
100
AcDbEntity
  8
Dimension
390
0
100
AcDbBlockEnd
  0
BLOCK
  5
DE
100
AcDbEntity
  8
Dimension
390
0
100
AcDbBlockBegin
  2
*D11
 70
               1
 10
0.0
 20
0.0
 30
0.0
  3
*D11
  1

  0
LINE
  5
DF
100
AcDbEntity
  8
Dimension
370
              -2
390
0
  6
Continuous
 62
               0
100
AcDbLine
 10
2.788229999999956
 20
9.1103899999999953
 30
0.0
 11
8.4108798314716609
 21
6.8287349962521304
 31
0.0
  0
SOLID
  5
E0
100
AcDbEntity
  8
Dimension
370
              -2
390
0
 62
               0
100
AcDbTrace
 10
2.788229999999956
 20
9.1103899999999953
 30
0.0
 11
3.3305997192703258
 21
9.0341649069364358
 31
0.0
 12
3.2198234085997512
 22
8.7731922733659342
 32
0.0
 13
3.2198234085997512
 23
8.7731922733659342
 33
0.0
  0
LINE
  5
E1
100
AcDbEntity
  8
Dimension
370
              -2
390
0
  6
Continuous
 62
               0
100
AcDbLine
 10
8.4108798314716609
 20
6.8287349962521304
 30
0.0
 11
9.9108768334511552
 21
6.8287349962521304
 31
0.0
  0
WIPEOUT
  5
E2
100
AcDbEntity
  8
Dimension
370
              -2
390
0
  6
Continuous
 62
               0
 92
        0
100
AcDbWipeout
 90
        0
 10
9.9108768334511552
 20
6.2201952462521293
 30
0.0
 11
5.2599001275168522
 21
0.0
 31
0.0
 12
0.0
 22
5.2599001275168522
 32
0.0
 13
1.0
 23
1.0
340
0
 70
               7
280
               1
281
              50
282
              50
283
               0
360
0
 71
               2
 91
        5
 14
-0.5
 24
0.5
 14
0.5
 24
0.5
 14
0.5
 24
0.268611671230615
 14
-0.5
 24
0.268611671230615
 14
-0.5
 24
0.5
  0
MTEXT
  5
E3
100
AcDbEntity
  8
Dimension
390
0
 62
               0
100
AcDbMText
 10
9.9108768334511552
 20
7.2426963660437957
 30
0.0
 40
0.7579186197916666
 41
0.0
 71
               1
 72
               1
  1
0.81 x 0.24
  7
Arial
 73
               1
 44
0.9673603504928806
  0
POINT
  5
E4
100
AcDbEntity
  8
Defpoints
370
               0
390
0
 62
               0
100
AcDbPoint
 10
2.0982299999999583
 20
9.3903899999999965
 30
0.0
  0
POINT
  5
E5
100
AcDbEntity
  8
Defpoints
370
               0
390
0
 62
               0
100
AcDbPoint
 10
2.788229999999956
 20
9.1103899999999953
 30
0.0
  0
ENDBLK
  5
E6
100
AcDbEntity
  8
Dimension
390
0
100
AcDbBlockEnd
  0
BLOCK
  5
E7
100
AcDbEntity
  8
Dimension
390
0
100
AcDbBlockBegin
  2
*D12
 70
               1
 10
0.0
 20
0.0
 30
0.0
  3
*D12
  1

  0
LINE
  5
E8
100
AcDbEntity
  8
Dimension
370
              -2
390
0
  6
Continuous
 62
               0
100
AcDbLine
 10
-5.5042700000000053
 20
14.839140001182777
 30
0.0
 11
-5.5042700000000053
 21
22.442890002365559
 31
0.0
  0
LINE
  5
E9
100
AcDbEntity
  8
Dimension
370
              -2
390
0
  6
Continuous
 62
               0
100
AcDbLine
 10
-2.3167700000000195
 20
12.551640001182761
 30
0.0
 11
-2.3167700000000195
 21
22.442890002365559
 31
0.0
  0
LINE
  5
EA
100
AcDbEntity
  8
Dimension
370
              -2
390
0
  6
Continuous
 62
               0
100
AcDbLine
 10
-2.3167700000000195
 20
21.490389999999998
 30
0.0
 11
-5.5042700000000053
 21
21.490389999999998
 31
0.0
  0
LINE
  5
EB
100
AcDbEntity
  8
Dimension
370
              -2
390
0
  6
Continuous
 62
               0
100
AcDbLine
 10
-5.5042700000000053
 20
21.490389999999998
 30
0.0
 11
-7.2542664983668175
 21
21.490389999999998
 31
0.0
  0
SOLID
  5
EC
100
AcDbEntity
  8
Dimension
370
              -2
390
0
 62
               0
100
AcDbTrace
 10
-5.5042700000000053
 20
21.490389999999998
 30
0.0
 11
-6.2980200000000055
 21
21.277705328507793
 31
0.0
 12
-6.2980200000000055
 22
21.703074671492203
 32
0.0
 13
-6.2980200000000055
 23
21.703074671492203
 33
0.0
  0
LINE
  5
ED
100
AcDbEntity
  8
Dimension
370
              -2
390
0
  6
Continuous
 62
               0
100
AcDbLine
 10
-2.3167700000000195
 20
21.490389999999998
 30
0.0
 11
-0.1266000000000247
 21
21.490389999999998
 31
0.0
  0
SOLID
  5
EE
100
AcDbEntity
  8
Dimension
370
              -2
390
0
 62
               0
100
AcDbTrace
 10
-2.3167700000000195
 20
21.490389999999998
 30
0.0
 11
-1.5230200000000196
 21
21.703074671492203
 31
0.0
 12
-1.5230200000000196
 22
21.277705328507793
 32
0.0
 13
-1.5230200000000196
 23
21.277705328507793
 33
0.0
  0
WIPEOUT
  5
EF
100
AcDbEntity
  8
Dimension
370
              -2
390
0
  6
Continuous
 62
               0
 92
        0
100
AcDbWipeout
 90
        0
 10
-0.1266000000000247
 20
20.881850249999996
 30
0.0
 11
3.8523212485843232
 21
0.0
 31
0.0
 12
0.0
 22
3.8523212485843232
 32
0.0
 13
1.0
 23
1.0
340
0
 70
               7
280
               1
281
              50
282
              50
283
               0
360
0
 71
               2
 91
        5
 14
-0.5
 24
0.5
 14
0.5
 24
0.5
 14
0.5
 24
0.1840659380503998
 14
-0.5
 24
0.1840659380503998
 14
-0.5
 24
0.5
  0
MTEXT
  5
F0
100
AcDbEntity
  8
Dimension
390
0
 62
               0
100
AcDbMText
 10
-0.1266000000000247
 20
21.904351369791662
 30
0.0
 40
0.7579186197916666
 41
0.0
 71
               1
 72
               1
  1
3.19mm
  7
Arial
 73
               1
 44
0.9673603504928806
  0
POINT
  5
F1
100
AcDbEntity
  8
Defpoints
370
               0
390
0
 62
               0
100
AcDbPoint
 10
-2.3167700000000195
 20
12.075389999999985
 30
0.0
  0
POINT
  5
F2
100
AcDbEntity
  8
Defpoints
370
               0
390
0
 62
               0
100
AcDbPoint
 10
-5.5042700000000053
 20
14.36289
 30
0.0
  0
POINT
  5
F3
100
AcDbEntity
  8
Defpoints
370
               0
390
0
 62
               0
100
AcDbPoint
 10
-5.5042700000000053
 20
21.490389999999998
 30
0.0
  0
ENDBLK
  5
F4
100
AcDbEntity
  8
Dimension
390
0
100
AcDbBlockEnd
  0
BLOCK
  5
F5
100
AcDbEntity
  8
Dimension
390
0
100
AcDbBlockBegin
  2
*D13
 70
               1
 10
0.0
 20
0.0
 30
0.0
  3
*D13
  1

  0
LINE
  5
F6
100
AcDbEntity
  8
Dimension
370
              -2
390
0
  6
Continuous
 62
               0
100
AcDbLine
 10
-5.9805200011827822
 20
14.36289
 30
0.0
 11
-10.484270002365562
 21
14.36289
 31
0.0
  0
LINE
  5
F7
100
AcDbEntity
  8
Dimension
370
              -2
390
0
  6
Continuous
 62
               0
100
AcDbLine
 10
-2.7930200011827964
 20
12.480389999999986
 30
0.0
 11
-10.484270002365562
 21
12.480389999999986
 31
0.0
  0
LINE
  5
F8
100
AcDbEntity
  8
Dimension
370
              -2
390
0
  6
Continuous
 62
               0
100
AcDbLine
 10
-9.5317700000000087
 20
12.480389999999986
 30
0.0
 11
-9.5317700000000087
 21
14.36289
 31
0.0
  0
LINE
  5
F9
100
AcDbEntity
  8
Dimension
370
              -2
390
0
  6
Continuous
 62
               0
100
AcDbLine
 10
-9.5317700000000087
 20
14.36289
 30
0.0
 11
-9.5317700000000087
 21
16.112886498366819
 31
0.0
  0
SOLID
  5
FA
100
AcDbEntity
  8
Dimension
370
              -2
390
0
 62
               0
100
AcDbTrace
 10
-9.5317700000000087
 20
14.36289
 30
0.0
 11
-9.7444546714922122
 21
15.156639999999999
 31
0.0
 12
-9.3190853285078052
 22
15.156639999999999
 32
0.0
 13
-9.3190853285078052
 23
15.156639999999999
 33
0.0
  0
LINE
  5
FB
100
AcDbEntity
  8
Dimension
370
              -2
390
0
  6
Continuous
 62
               0
100
AcDbLine
 10
-9.5317700000000087
 20
12.480389999999986
 30
0.0
 11
-9.5317700000000087
 21
10.730393501633166
 31
0.0
  0
SOLID
  5
FC
100
AcDbEntity
  8
Dimension
370
              -2
390
0
 62
               0
100
AcDbTrace
 10
-9.5317700000000087
 20
12.480389999999986
 30
0.0
 11
-9.3190853285078052
 21
11.686639999999986
 31
0.0
 12
-9.7444546714922122
 22
11.686639999999986
 32
0.0
 13
-9.7444546714922122
 23
11.686639999999986
 33
0.0
  0
WIPEOUT
  5
FD
100
AcDbEntity
  8
Dimension
370
              -2
390
0
  6
Continuous
 62
               0
 92
        0
100
AcDbWipeout
 90
        0
 10
-11.457930624292175
 20
12.786156509155266
 30
0.0
 11
3.8523212485843228
 21
0.0
 31
0.0
 12
0.0
 22
3.8523212485843228
 32
0.0
 13
1.0
 23
1.0
340
0
 70
               7
280
               1
281
              50
282
              50
283
               0
360
0
 71
               2
 91
        5
 14
-0.5
 24
0.5
 14
0.5
 24
0.5
 14
0.5
 24
0.1840659380503998
 14
-0.5
 24
0.1840659380503998
 14
-0.5
 24
0.5
  0
MTEXT
  5
FE
100
AcDbEntity
  8
Dimension
390
0
 62
               0
100
AcDbMText
 10
-11.457930624292175
 20
13.808657628946932
 30
0.0
 40
0.7579186197916666
 41
0.0
 71
               1
 72
               1
  1
1.88mm
  7
Arial
 73
               1
 44
0.9673603504928806
  0
POINT
  5
FF
100
AcDbEntity
  8
Defpoints
370
               0
390
0
 62
               0
100
AcDbPoint
 10
-2.3167700000000195
 20
12.480389999999986
 30
0.0
  0
POINT
  5
100
100
AcDbEntity
  8
Defpoints
370
               0
390
0
 62
               0
100
AcDbPoint
 10
-5.5042700000000053
 20
14.36289
 30
0.0
  0
POINT
  5
101
100
AcDbEntity
  8
Defpoints
370
               0
390
0
 62
               0
100
AcDbPoint
 10
-9.5317700000000052
 20
14.36289
 30
0.0
  0
ENDBLK
  5
102
100
AcDbEntity
  8
Dimension
390
0
100
AcDbBlockEnd
  0
BLOCK
  5
103
100
AcDbEntity
  8
Dimension
390
0
100
AcDbBlockBegin
  2
*D14
 70
               1
 10
0.0
 20
0.0
 30
0.0
  3
*D14
  1

  0
LINE
  5
104
100
AcDbEntity
  8
Dimension
370
              -2
390
0
  6
Continuous
 62
               0
100
AcDbLine
 10
-2.6680200011827964
 20
12.480389999999986
 30
0.0
 11
-18.604270002365595
 21
12.480389999999986
 31
0.0
  0
LINE
  5
105
100
AcDbEntity
  8
Dimension
370
              -2
390
0
  6
Continuous
 62
               0
100
AcDbLine
 10
-2.7930200011827964
 20
6.5203899999999919
 30
0.0
 11
-18.604270002365581
 21
6.5203899999999919
 31
0.0
  0
LINE
  5
106
100
AcDbEntity
  8
Dimension
370
              -2
390
0
  6
Continuous
 62
               0
100
AcDbLine
 10
-17.651770000000027
 20
12.480389999999986
 30
0.0
 11
-17.651770000000027
 21
6.5203899999999919
 31
0.0
  0
SOLID
  5
107
100
AcDbEntity
  8
Dimension
370
              -2
390
0
 62
               0
100
AcDbTrace
 10
-17.651770000000027
 20
12.480389999999986
 30
0.0
 11
-17.439085328507826
 21
11.686639999999986
 31
0.0
 12
-17.864454671492233
 22
11.686639999999986
 32
0.0
 13
-17.864454671492233
 23
11.686639999999986
 33
0.0
  0
SOLID
  5
108
100
AcDbEntity
  8
Dimension
370
              -2
390
0
 62
               0
100
AcDbTrace
 10
-17.651770000000027
 20
6.5203899999999919
 30
0.0
 11
-17.864454671492233
 21
7.3141399999999921
 31
0.0
 12
-17.439085328507822
 22
7.3141399999999921
 32
0.0
 13
-17.439085328507822
 23
7.3141399999999921
 33
0.0
  0
WIPEOUT
  5
109
100
AcDbEntity
  8
Dimension
370
              -2
390
0
  6
Continuous
 62
               0
 92
        0
100
AcDbWipeout
 90
        0
 10
-19.577930624292193
 20
8.8918502499999867
 30
0.0
 11
3.8523212485843228
 21
0.0
 31
0.0
 12
0.0
 22
3.8523212485843228
 32
0.0
 13
1.0
 23
1.0
340
0
 70
               7
280
               1
281
              50
282
              50
283
               0
360
0
 71
               2
 91
        5
 14
-0.5
 24
0.5
 14
0.5
 24
0.5
 14
0.5
 24
0.1840659380503998
 14
-0.5
 24
0.1840659380503998
 14
-0.5
 24
0.5
  0
MTEXT
  5
10A
100
AcDbEntity
  8
Dimension
390
0
 62
               0
100
AcDbMText
 10
-19.577930624292193
 20
9.9143513697916532
 30
0.0
 40
0.7579186197916666
 41
0.0
 71
               1
 72
               1
  1
5.96mm
  7
Arial
 73
               1
 44
0.9673603504928806
  0
POINT
  5
10B
100
AcDbEntity
  8
Defpoints
370
               0
390
0
 62
               0
100
AcDbPoint
 10
-2.3167700000000195
 20
6.5203899999999919
 30
0.0
  0
POINT
  5
10C
100
AcDbEntity
  8
Defpoints
370
               0
390
0
 62
               0
100
AcDbPoint
 10
-2.1917700000000195
 20
12.480389999999986
 30
0.0
  0
POINT
  5
10D
100
AcDbEntity
  8
Defpoints
370
               0
390
0
 62
               0
100
AcDbPoint
 10
-17.651770000000027
 20
12.480389999999986
 30
0.0
  0
ENDBLK
  5
10E
100
AcDbEntity
  8
Dimension
390
0
100
AcDbBlockEnd
  0
BLOCK
  5
10F
100
AcDbEntity
  8
Dimension
390
0
100
AcDbBlockBegin
  2
*D15
 70
               1
 10
0.0
 20
0.0
 30
0.0
  3
*D15
  1

  0
LINE
  5
110
100
AcDbEntity
  8
Dimension
370
              -2
390
0
  6
Continuous
 62
               0
100
AcDbLine
 10
-3.8480200011827606
 20
11.425389999999993
 30
0.0
 11
-13.654270002365564
 21
11.425389999999993
 31
0.0
  0
LINE
  5
111
100
AcDbEntity
  8
Dimension
370
              -2
390
0
  6
Continuous
 62
               0
100
AcDbLine
 10
-3.8480200011827606
 20
7.5753899999999987
 30
0.0
 11
-13.654270002365564
 21
7.5753899999999987
 31
0.0
  0
LINE
  5
112
100
AcDbEntity
  8
Dimension
370
              -2
390
0
  6
Continuous
 62
               0
100
AcDbLine
 10
-12.70177000000001
 20
7.5753899999999987
 30
0.0
 11
-12.70177000000001
 21
11.425389999999993
 31
0.0
  0
LINE
  5
113
100
AcDbEntity
  8
Dimension
370
              -2
390
0
  6
Continuous
 62
               0
100
AcDbLine
 10
-12.70177000000001
 20
11.425389999999993
 30
0.0
 11
-12.70177000000001
 21
13.175386498366812
 31
0.0
  0
SOLID
  5
114
100
AcDbEntity
  8
Dimension
370
              -2
390
0
 62
               0
100
AcDbTrace
 10
-12.70177000000001
 20
11.425389999999993
 30
0.0
 11
-12.914454671492214
 21
12.219139999999992
 31
0.0
 12
-12.489085328507807
 22
12.219139999999992
 32
0.0
 13
-12.489085328507807
 23
12.219139999999992
 33
0.0
  0
LINE
  5
115
100
AcDbEntity
  8
Dimension
370
              -2
390
0
  6
Continuous
 62
               0
100
AcDbLine
 10
-12.70177000000001
 20
7.5753899999999987
 30
0.0
 11
-12.70177000000001
 21
5.8253935016331866
 31
0.0
  0
SOLID
  5
116
100
AcDbEntity
  8
Dimension
370
              -2
390
0
 62
               0
100
AcDbTrace
 10
-12.70177000000001
 20
7.5753899999999987
 30
0.0
 11
-12.489085328507807
 21
6.7816399999999986
 31
0.0
 12
-12.914454671492214
 22
6.7816399999999986
 32
0.0
 13
-12.914454671492214
 23
6.7816399999999986
 33
0.0
  0
WIPEOUT
  5
117
100
AcDbEntity
  8
Dimension
370
              -2
390
0
  6
Continuous
 62
               0
 92
        0
100
AcDbWipeout
 90
        0
 10
-14.627930624292176
 20
8.9427833249511686
 30
0.0
 11
3.8523212485843228
 21
0.0
 31
0.0
 12
0.0
 22
3.8523212485843228
 32
0.0
 13
1.0
 23
1.0
340
0
 70
               7
280
               1
281
              50
282
              50
283
               0
360
0
 71
               2
 91
        5
 14
-0.5
 24
0.5
 14
0.5
 24
0.5
 14
0.5
 24
0.1840659380503998
 14
-0.5
 24
0.1840659380503998
 14
-0.5
 24
0.5
  0
MTEXT
  5
118
100
AcDbEntity
  8
Dimension
390
0
 62
               0
100
AcDbMText
 10
-14.627930624292176
 20
9.965284444742835
 30
0.0
 40
0.7579186197916666
 41
0.0
 71
               1
 72
               1
  1
3.85mm
  7
Arial
 73
               1
 44
0.9673603504928806
  0
POINT
  5
119
100
AcDbEntity
  8
Defpoints
370
               0
390
0
 62
               0
100
AcDbPoint
 10
-3.3717699999999837
 20
7.5753899999999987
 30
0.0
  0
POINT
  5
11A
100
AcDbEntity
  8
Defpoints
370
               0
390
0
 62
               0
100
AcDbPoint
 10
-3.3717699999999837
 20
11.425389999999993
 30
0.0
  0
POINT
  5
11B
100
AcDbEntity
  8
Defpoints
370
               0
390
0
 62
               0
100
AcDbPoint
 10
-12.70177000000001
 20
11.425389999999993
 30
0.0
  0
ENDBLK
  5
11C
100
AcDbEntity
  8
Dimension
390
0
100
AcDbBlockEnd
  0
BLOCK
  5
11D
100
AcDbEntity
  8
Dimension
390
0
100
AcDbBlockBegin
  2
*D16
 70
               1
 10
0.0
 20
0.0
 30
0.0
  3
*D16
  1

  0
LINE
  5
11E
100
AcDbEntity
  8
Dimension
370
              -2
390
0
  6
Continuous
 62
               0
100
AcDbLine
 10
-3.3717699999999837
 20
7.0991399988172219
 30
0.0
 11
-3.3717699999999837
 21
-1.812110002365543
 31
0.0
  0
LINE
  5
11F
100
AcDbEntity
  8
Dimension
370
              -2
390
0
  6
Continuous
 62
               0
100
AcDbLine
 10
2.5882299999999674
 20
7.0991399988172219
 30
0.0
 11
2.5882299999999674
 21
-1.812110002365543
 31
0.0
  0
LINE
  5
120
100
AcDbEntity
  8
Dimension
370
              -2
390
0
  6
Continuous
 62
               0
100
AcDbLine
 10
2.5882299999999674
 20
-0.8596099999999893
 30
0.0
 11
-3.3717699999999837
 21
-0.8596099999999893
 31
0.0
  0
LINE
  5
121
100
AcDbEntity
  8
Dimension
370
              -2
390
0
  6
Continuous
 62
               0
100
AcDbLine
 10
-3.3717699999999837
 20
-0.8596099999999893
 30
0.0
 11
-5.1217664983667959
 21
-0.8596099999999893
 31
0.0
  0
SOLID
  5
122
100
AcDbEntity
  8
Dimension
370
              -2
390
0
 62
               0
100
AcDbTrace
 10
-3.3717699999999837
 20
-0.8596099999999893
 30
0.0
 11
-4.1655199999999839
 21
-1.072294671492193
 31
0.0
 12
-4.1655199999999839
 22
-0.6469253285077855
 32
0.0
 13
-4.1655199999999839
 23
-0.6469253285077855
 33
0.0
  0
LINE
  5
123
100
AcDbEntity
  8
Dimension
370
              -2
390
0
  6
Continuous
 62
               0
100
AcDbLine
 10
2.5882299999999674
 20
-0.8596099999999893
 30
0.0
 11
4.3382264983667795
 21
-0.8596099999999893
 31
0.0
  0
SOLID
  5
124
100
AcDbEntity
  8
Dimension
370
              -2
390
0
 62
               0
100
AcDbTrace
 10
2.5882299999999674
 20
-0.8596099999999893
 30
0.0
 11
3.3819799999999676
 21
-0.6469253285077857
 31
0.0
 12
3.3819799999999676
 22
-1.0722946714921928
 32
0.0
 13
3.3819799999999676
 23
-1.0722946714921928
 33
0.0
  0
WIPEOUT
  5
125
100
AcDbEntity
  8
Dimension
370
              -2
390
0
  6
Continuous
 62
               0
 92
        0
100
AcDbWipeout
 90
        0
 10
-2.2511789153078041
 20
-1.4681497499999978
 30
0.0
 11
3.8523212485843232
 21
0.0
 31
0.0
 12
0.0
 22
3.8523212485843232
 32
0.0
 13
1.0
 23
1.0
340
0
 70
               7
280
               1
281
              50
282
              50
283
               0
360
0
 71
               2
 91
        5
 14
-0.5
 24
0.5
 14
0.5
 24
0.5
 14
0.5
 24
0.1840659380504001
 14
-0.5
 24
0.1840659380504001
 14
-0.5
 24
0.5
  0
MTEXT
  5
126
100
AcDbEntity
  8
Dimension
390
0
 62
               0
100
AcDbMText
 10
-2.2511789153078041
 20
-0.4456486302083313
 30
0.0
 40
0.7579186197916666
 41
0.0
 71
               1
 72
               1
  1
5.96mm
  7
Arial
 73
               1
 44
0.9673603504928806
  0
POINT
  5
127
100
AcDbEntity
  8
Defpoints
370
               0
390
0
 62
               0
100
AcDbPoint
 10
2.5882299999999674
 20
7.5753899999999987
 30
0.0
  0
POINT
  5
128
100
AcDbEntity
  8
Defpoints
370
               0
390
0
 62
               0
100
AcDbPoint
 10
-3.3717699999999837
 20
7.5753899999999987
 30
0.0
  0
POINT
  5
129
100
AcDbEntity
  8
Defpoints
370
               0
390
0
 62
               0
100
AcDbPoint
 10
-3.3717699999999837
 20
-0.8596099999999893
 30
0.0
  0
ENDBLK
  5
12A
100
AcDbEntity
  8
Dimension
390
0
100
AcDbBlockEnd
  0
BLOCK
  5
12B
100
AcDbEntity
  8
Dimension
390
0
100
AcDbBlockBegin
  2
*D17
 70
               1
 10
0.0
 20
0.0
 30
0.0
  3
*D17
  1

  0
LINE
  5
12C
100
AcDbEntity
  8
Dimension
370
              -2
390
0
  6
Continuous
 62
               0
100
AcDbLine
 10
-2.3167700000000195
 20
6.0441399988172151
 30
0.0
 11
-2.3167700000000195
 21
1.0878899976344485
 31
0.0
  0
LINE
  5
12D
100
AcDbEntity
  8
Dimension
370
              -2
390
0
  6
Continuous
 62
               0
100
AcDbLine
 10
1.5332299999999606
 20
6.0441399988172151
 30
0.0
 11
1.5332299999999606
 21
1.0878899976344485
 31
0.0
  0
LINE
  5
12E
100
AcDbEntity
  8
Dimension
370
              -2
390
0
  6
Continuous
 62
               0
100
AcDbLine
 10
1.5332299999999606
 20
2.0403900000000021
 30
0.0
 11
-2.3167700000000195
 21
2.0403900000000021
 31
0.0
  0
LINE
  5
12F
100
AcDbEntity
  8
Dimension
370
              -2
390
0
  6
Continuous
 62
               0
100
AcDbLine
 10
-2.3167700000000195
 20
2.0403900000000021
 30
0.0
 11
-4.0667664983668317
 21
2.0403900000000021
 31
0.0
  0
SOLID
  5
130
100
AcDbEntity
  8
Dimension
370
              -2
390
0
 62
               0
100
AcDbTrace
 10
-2.3167700000000195
 20
2.0403900000000021
 30
0.0
 11
-3.1105200000000197
 21
1.8277053285077984
 31
0.0
 12
-3.1105200000000193
 22
2.2530746714922061
 32
0.0
 13
-3.1105200000000193
 23
2.2530746714922061
 33
0.0
  0
LINE
  5
131
100
AcDbEntity
  8
Dimension
370
              -2
390
0
  6
Continuous
 62
               0
100
AcDbLine
 10
1.5332299999999606
 20
2.0403900000000021
 30
0.0
 11
3.2832264983667727
 21
2.0403900000000021
 31
0.0
  0
SOLID
  5
132
100
AcDbEntity
  8
Dimension
370
              -2
390
0
 62
               0
100
AcDbTrace
 10
1.5332299999999606
 20
2.0403900000000021
 30
0.0
 11
2.3269799999999607
 21
2.2530746714922056
 31
0.0
 12
2.3269799999999607
 22
1.8277053285077987
 32
0.0
 13
2.3269799999999607
 23
1.8277053285077987
 33
0.0
  0
WIPEOUT
  5
133
100
AcDbEntity
  8
Dimension
370
              -2
390
0
  6
Continuous
 62
               0
 92
        0
100
AcDbWipeout
 90
        0
 10
-2.2568344328859524
 20
1.4318502499999937
 30
0.0
 11
3.8523212485843232
 21
0.0
 31
0.0
 12
0.0
 22
3.8523212485843232
 32
0.0
 13
1.0
 23
1.0
340
0
 70
               7
280
               1
281
              50
282
              50
283
               0
360
0
 71
               2
 91
        5
 14
-0.5
 24
0.5
 14
0.5
 24
0.5
 14
0.5
 24
0.1840659380504001
 14
-0.5
 24
0.1840659380504001
 14
-0.5
 24
0.5
  0
MTEXT
  5
134
100
AcDbEntity
  8
Dimension
390
0
 62
               0
100
AcDbMText
 10
-2.2568344328859524
 20
2.4543513697916604
 30
0.0
 40
0.7579186197916666
 41
0.0
 71
               1
 72
               1
  1
3.85mm
  7
Arial
 73
               1
 44
0.9673603504928806
  0
POINT
  5
135
100
AcDbEntity
  8
Defpoints
370
               0
390
0
 62
               0
100
AcDbPoint
 10
1.5332299999999606
 20
6.5203899999999919
 30
0.0
  0
POINT
  5
136
100
AcDbEntity
  8
Defpoints
370
               0
390
0
 62
               0
100
AcDbPoint
 10
-2.3167700000000195
 20
6.5203899999999919
 30
0.0
  0
POINT
  5
137
100
AcDbEntity
  8
Defpoints
370
               0
390
0
 62
               0
100
AcDbPoint
 10
-2.3167700000000195
 20
2.0403900000000021
 30
0.0
  0
ENDBLK
  5
138
100
AcDbEntity
  8
Dimension
390
0
100
AcDbBlockEnd
  0
BLOCK
  5
139
100
AcDbEntity
  8
Dimension
390
0
100
AcDbBlockBegin
  2
*D18
 70
               1
 10
0.0
 20
0.0
 30
0.0
  3
*D18
  1

  0
LINE
  5
13A
100
AcDbEntity
  8
Dimension
370
              -2
390
0
  6
Continuous
 62
               0
100
AcDbLine
 10
0.6082299999999776
 20
12.956640001182762
 30
0.0
 11
0.6082299999999776
 21
19.082890002365552
 31
0.0
  0
LINE
  5
13B
100
AcDbEntity
  8
Dimension
370
              -2
390
0
  6
Continuous
 62
               0
100
AcDbLine
 10
1.0082299999999833
 20
12.956640001182762
 30
0.0
 11
1.0082299999999833
 21
19.082890002365552
 31
0.0
  0
LINE
  5
13C
100
AcDbEntity
  8
Dimension
370
              -2
390
0
  6
Continuous
 62
               0
100
AcDbLine
 10
1.0082299999999833
 20
18.130389999999991
 30
0.0
 11
0.6082299999999776
 21
18.130389999999991
 31
0.0
  0
LINE
  5
13D
100
AcDbEntity
  8
Dimension
370
              -2
390
0
  6
Continuous
 62
               0
100
AcDbLine
 10
0.6082299999999776
 20
18.130389999999991
 30
0.0
 11
-1.1417664983668345
 21
18.130389999999991
 31
0.0
  0
SOLID
  5
13E
100
AcDbEntity
  8
Dimension
370
              -2
390
0
 62
               0
100
AcDbTrace
 10
0.6082299999999776
 20
18.130389999999991
 30
0.0
 11
-0.1855200000000223
 21
17.917705328507786
 31
0.0
 12
-0.1855200000000222
 22
18.343074671492197
 32
0.0
 13
-0.1855200000000222
 23
18.343074671492197
 33
0.0
  0
LINE
  5
13F
100
AcDbEntity
  8
Dimension
370
              -2
390
0
  6
Continuous
 62
               0
100
AcDbLine
 10
1.0082299999999833
 20
18.130389999999991
 30
0.0
 11
3.2182299999999771
 21
18.130389999999991
 31
0.0
  0
SOLID
  5
140
100
AcDbEntity
  8
Dimension
370
              -2
390
0
 62
               0
100
AcDbTrace
 10
1.0082299999999833
 20
18.130389999999991
 30
0.0
 11
1.8019799999999833
 21
18.343074671492197
 31
0.0
 12
1.8019799999999833
 22
17.917705328507786
 32
0.0
 13
1.8019799999999833
 23
17.917705328507786
 33
0.0
  0
WIPEOUT
  5
141
100
AcDbEntity
  8
Dimension
370
              -2
390
0
  6
Continuous
 62
               0
 92
        0
100
AcDbWipeout
 90
        0
 10
3.2182299999999771
 20
17.521850249999989
 30
0.0
 11
5.2599001275168504
 21
0.0
 31
0.0
 12
0.0
 22
5.2599001275168504
 32
0.0
 13
1.0
 23
1.0
340
0
 70
               7
280
               1
281
              50
282
              50
283
               0
360
0
 71
               2
 91
        5
 14
-0.5
 24
0.5
 14
0.5
 24
0.5
 14
0.5
 24
0.2686116712306147
 14
-0.5
 24
0.2686116712306147
 14
-0.5
 24
0.5
  0
MTEXT
  5
142
100
AcDbEntity
  8
Dimension
390
0
 62
               0
100
AcDbMText
 10
3.2182299999999771
 20
18.544351369791656
 30
0.0
 40
0.7579186197916666
 41
0.0
 71
               1
 72
               1
  1
0.4mm typ.
  7
Arial
 73
               1
 44
0.9673603504928806
  0
POINT
  5
143
100
AcDbEntity
  8
Defpoints
370
               0
390
0
 62
               0
100
AcDbPoint
 10
1.0082299999999833
 20
12.480389999999986
 30
0.0
  0
POINT
  5
144
100
AcDbEntity
  8
Defpoints
370
               0
390
0
 62
               0
100
AcDbPoint
 10
0.6082299999999776
 20
12.480389999999986
 30
0.0
  0
POINT
  5
145
100
AcDbEntity
  8
Defpoints
370
               0
390
0
 62
               0
100
AcDbPoint
 10
0.6082299999999776
 20
18.130389999999995
 30
0.0
  0
ENDBLK
  5
146
100
AcDbEntity
  8
Dimension
390
0
100
AcDbBlockEnd
  0
BLOCK
  5
147
100
AcDbEntity
  8
None
390
0
100
AcDbBlockBegin
  2
Group
 70
               0
 10
0.0
 20
0.0
 30
0.0
  3
Group
  1

  0
SOLID
  5
148
100
AcDbEntity
  8
None
370
              15
390
0
  6
Continuous
 62
               7
100
AcDbTrace
 10
-2.3167700000000195
 20
11.670389999999983
 30
0.0
 11
-2.3167700000000195
 21
12.480389999999986
 31
0.0
 12
-2.0667700000000195
 22
11.670389999999983
 32
0.0
 13
-2.0667700000000195
 23
12.480389999999986
 33
0.0
  0
SOLID
  5
149
100
AcDbEntity
  8
None
370
              15
390
0
  6
Continuous
 62
               7
100
AcDbTrace
 10
-3.3717699999999837
 20
11.175389999999993
 30
0.0
 11
-3.3717699999999837
 21
11.425389999999993
 31
0.0
 12
-2.5617699999999957
 22
11.175389999999993
 32
0.0
 13
-2.5617699999999957
 23
11.425389999999993
 33
0.0
  0
SOLID
  5
14A
100
AcDbEntity
  8
None
370
              15
390
0
  6
Continuous
 62
               7
100
AcDbTrace
 10
-2.3167700000000195
 20
6.5203899999999919
 30
0.0
 11
-2.3167700000000195
 21
7.3303899999999942
 31
0.0
 12
-2.0667700000000195
 22
6.5203899999999919
 32
0.0
 13
-2.0667700000000195
 23
7.3303899999999942
 33
0.0
  0
SOLID
  5
14B
100
AcDbEntity
  8
None
370
              15
390
0
  6
Continuous
 62
               7
100
AcDbTrace
 10
-1.9167700000000139
 20
11.670389999999983
 30
0.0
 11
-1.9167700000000139
 21
12.480389999999986
 31
0.0
 12
-1.6667700000000139
 22
11.670389999999983
 32
0.0
 13
-1.6667700000000139
 23
12.480389999999986
 33
0.0
  0
SOLID
  5
14C
100
AcDbEntity
  8
None
370
              15
390
0
  6
Continuous
 62
               7
100
AcDbTrace
 10
-1.5167700000000082
 20
11.670389999999983
 30
0.0
 11
-1.5167700000000082
 21
12.480389999999986
 31
0.0
 12
-1.2667700000000082
 22
11.670389999999983
 32
0.0
 13
-1.2667700000000082
 23
12.480389999999986
 33
0.0
  0
SOLID
  5
14D
100
AcDbEntity
  8
None
370
              15
390
0
  6
Continuous
 62
               7
100
AcDbTrace
 10
-1.1167700000000025
 20
11.670389999999983
 30
0.0
 11
-1.1167700000000025
 21
12.480389999999986
 31
0.0
 12
-0.8667700000000025
 22
11.670389999999983
 32
0.0
 13
-0.8667700000000025
 23
12.480389999999986
 33
0.0
  0
SOLID
  5
14E
100
AcDbEntity
  8
None
370
              15
390
0
  6
Continuous
 62
               7
100
AcDbTrace
 10
-0.7167700000000252
 20
11.670389999999983
 30
0.0
 11
-0.7167700000000252
 21
12.480389999999986
 31
0.0
 12
-0.4667700000000252
 22
11.670389999999983
 32
0.0
 13
-0.4667700000000252
 23
12.480389999999986
 33
0.0
  0
SOLID
  5
14F
100
AcDbEntity
  8
None
370
              15
390
0
  6
Continuous
 62
               7
100
AcDbTrace
 10
-0.3167700000000195
 20
11.670389999999983
 30
0.0
 11
-0.3167700000000195
 21
12.480389999999986
 31
0.0
 12
-0.0667700000000195
 22
11.670389999999983
 32
0.0
 13
-0.0667700000000195
 23
12.480389999999986
 33
0.0
  0
SOLID
  5
150
100
AcDbEntity
  8
None
370
              15
390
0
  6
Continuous
 62
               7
100
AcDbTrace
 10
0.0832299999999861
 20
11.670389999999983
 30
0.0
 11
0.0832299999999861
 21
12.480389999999986
 31
0.0
 12
0.3332299999999719
 22
11.670389999999983
 32
0.0
 13
0.3332299999999719
 23
12.480389999999986
 33
0.0
  0
SOLID
  5
151
100
AcDbEntity
  8
None
370
              15
390
0
  6
Continuous
 62
               7
100
AcDbTrace
 10
0.4832299999999776
 20
11.670389999999983
 30
0.0
 11
0.4832299999999776
 21
12.480389999999986
 31
0.0
 12
0.7332299999999776
 22
11.670389999999983
 32
0.0
 13
0.7332299999999776
 23
12.480389999999986
 33
0.0
  0
SOLID
  5
152
100
AcDbEntity
  8
None
370
              15
390
0
  6
Continuous
 62
               7
100
AcDbTrace
 10
0.8832299999999833
 20
11.670389999999983
 30
0.0
 11
0.8832299999999833
 21
12.480389999999986
 31
0.0
 12
1.1332299999999833
 22
11.670389999999983
 32
0.0
 13
1.1332299999999833
 23
12.480389999999986
 33
0.0
  0
SOLID
  5
153
100
AcDbEntity
  8
None
370
              15
390
0
  6
Continuous
 62
               7
100
AcDbTrace
 10
1.2832299999999606
 20
11.670389999999983
 30
0.0
 11
1.2832299999999606
 21
12.480389999999986
 31
0.0
 12
1.5332299999999606
 22
11.670389999999983
 32
0.0
 13
1.5332299999999606
 23
12.480389999999986
 33
0.0
  0
SOLID
  5
154
100
AcDbEntity
  8
None
370
              15
390
0
  6
Continuous
 62
               7
100
AcDbTrace
 10
-1.9167700000000139
 20
6.5203899999999919
 30
0.0
 11
-1.9167700000000139
 21
7.3303899999999942
 31
0.0
 12
-1.6667700000000139
 22
6.5203899999999919
 32
0.0
 13
-1.6667700000000139
 23
7.3303899999999942
 33
0.0
  0
SOLID
  5
155
100
AcDbEntity
  8
None
370
              15
390
0
  6
Continuous
 62
               7
100
AcDbTrace
 10
-1.5167700000000082
 20
6.5203899999999919
 30
0.0
 11
-1.5167700000000082
 21
7.3303899999999942
 31
0.0
 12
-1.2667700000000082
 22
6.5203899999999919
 32
0.0
 13
-1.2667700000000082
 23
7.3303899999999942
 33
0.0
  0
SOLID
  5
156
100
AcDbEntity
  8
None
370
              15
390
0
  6
Continuous
 62
               7
100
AcDbTrace
 10
-1.1167700000000025
 20
6.5203899999999919
 30
0.0
 11
-1.1167700000000025
 21
7.3303899999999942
 31
0.0
 12
-0.8667700000000025
 22
6.5203899999999919
 32
0.0
 13
-0.8667700000000025
 23
7.3303899999999942
 33
0.0
  0
SOLID
  5
157
100
AcDbEntity
  8
None
370
              15
390
0
  6
Continuous
 62
               7
100
AcDbTrace
 10
-0.7167700000000252
 20
6.5203899999999919
 30
0.0
 11
-0.7167700000000252
 21
7.3303899999999942
 31
0.0
 12
-0.4667700000000252
 22
6.5203899999999919
 32
0.0
 13
-0.4667700000000252
 23
7.3303899999999942
 33
0.0
  0
SOLID
  5
158
100
AcDbEntity
  8
None
370
              15
390
0
  6
Continuous
 62
               7
100
AcDbTrace
 10
-0.3167700000000195
 20
6.5203899999999919
 30
0.0
 11
-0.3167700000000195
 21
7.3303899999999942
 31
0.0
 12
-0.0667700000000195
 22
6.5203899999999919
 32
0.0
 13
-0.0667700000000195
 23
7.3303899999999942
 33
0.0
  0
SOLID
  5
159
100
AcDbEntity
  8
None
370
              15
390
0
  6
Continuous
 62
               7
100
AcDbTrace
 10
0.0832299999999861
 20
6.5203899999999919
 30
0.0
 11
0.0832299999999861
 21
7.3303899999999942
 31
0.0
 12
0.3332299999999719
 22
6.5203899999999919
 32
0.0
 13
0.3332299999999719
 23
7.3303899999999942
 33
0.0
  0
SOLID
  5
15A
100
AcDbEntity
  8
None
370
              15
390
0
  6
Continuous
 62
               7
100
AcDbTrace
 10
0.4832299999999776
 20
6.5203899999999919
 30
0.0
 11
0.4832299999999776
 21
7.3303899999999942
 31
0.0
 12
0.7332299999999776
 22
6.5203899999999919
 32
0.0
 13
0.7332299999999776
 23
7.3303899999999942
 33
0.0
  0
SOLID
  5
15B
100
AcDbEntity
  8
None
370
              15
390
0
  6
Continuous
 62
               7
100
AcDbTrace
 10
0.8832299999999833
 20
6.5203899999999919
 30
0.0
 11
0.8832299999999833
 21
7.3303899999999942
 31
0.0
 12
1.1332299999999833
 22
6.5203899999999919
 32
0.0
 13
1.1332299999999833
 23
7.3303899999999942
 33
0.0
  0
SOLID
  5
15C
100
AcDbEntity
  8
None
370
              15
390
0
  6
Continuous
 62
               7
100
AcDbTrace
 10
1.2832299999999606
 20
6.5203899999999919
 30
0.0
 11
1.2832299999999606
 21
7.3303899999999942
 31
0.0
 12
1.5332299999999606
 22
6.5203899999999919
 32
0.0
 13
1.5332299999999606
 23
7.3303899999999942
 33
0.0
  0
SOLID
  5
15D
100
AcDbEntity
  8
None
370
              15
390
0
  6
Continuous
 62
               7
100
AcDbTrace
 10
-3.3717699999999837
 20
10.775389999999987
 30
0.0
 11
-3.3717699999999837
 21
11.025389999999987
 31
0.0
 12
-2.5617699999999957
 22
10.775389999999987
 32
0.0
 13
-2.5617699999999957
 23
11.025389999999987
 33
0.0
  0
SOLID
  5
15E
100
AcDbEntity
  8
None
370
              15
390
0
  6
Continuous
 62
               7
100
AcDbTrace
 10
-3.3717699999999837
 20
10.375389999999996
 30
0.0
 11
-3.3717699999999837
 21
10.625389999999982
 31
0.0
 12
-2.5617699999999957
 22
10.375389999999996
 32
0.0
 13
-2.5617699999999957
 23
10.625389999999982
 33
0.0
  0
SOLID
  5
15F
100
AcDbEntity
  8
None
370
              15
390
0
  6
Continuous
 62
               7
100
AcDbTrace
 10
-3.3717699999999837
 20
9.9753899999999902
 30
0.0
 11
-3.3717699999999837
 21
10.22538999999999
 31
0.0
 12
-2.5617699999999957
 22
9.9753899999999902
 32
0.0
 13
-2.5617699999999957
 23
10.22538999999999
 33
0.0
  0
SOLID
  5
160
100
AcDbEntity
  8
None
370
              15
390
0
  6
Continuous
 62
               7
100
AcDbTrace
 10
-3.3717699999999837
 20
9.5753899999999987
 30
0.0
 11
-3.3717699999999837
 21
9.8253899999999987
 31
0.0
 12
-2.5617699999999957
 22
9.5753899999999987
 32
0.0
 13
-2.5617699999999957
 23
9.8253899999999987
 33
0.0
  0
SOLID
  5
161
100
AcDbEntity
  8
None
370
              15
390
0
  6
Continuous
 62
               7
100
AcDbTrace
 10
-3.3717699999999837
 20
9.1753899999999931
 30
0.0
 11
-3.3717699999999837
 21
9.4253899999999931
 31
0.0
 12
-2.5617699999999957
 22
9.1753899999999931
 32
0.0
 13
-2.5617699999999957
 23
9.4253899999999931
 33
0.0
  0
SOLID
  5
162
100
AcDbEntity
  8
None
370
              15
390
0
  6
Continuous
 62
               7
100
AcDbTrace
 10
-3.3717699999999837
 20
8.7753899999999874
 30
0.0
 11
-3.3717699999999837
 21
9.0253899999999874
 31
0.0
 12
-2.5617699999999957
 22
8.7753899999999874
 32
0.0
 13
-2.5617699999999957
 23
9.0253899999999874
 33
0.0
  0
SOLID
  5
163
100
AcDbEntity
  8
None
370
              15
390
0
  6
Continuous
 62
               7
100
AcDbTrace
 10
-3.3717699999999837
 20
8.3753899999999959
 30
0.0
 11
-3.3717699999999837
 21
8.6253899999999959
 31
0.0
 12
-2.5617699999999957
 22
8.3753899999999959
 32
0.0
 13
-2.5617699999999957
 23
8.6253899999999959
 33
0.0
  0
SOLID
  5
164
100
AcDbEntity
  8
None
370
              15
390
0
  6
Continuous
 62
               7
100
AcDbTrace
 10
-3.3717699999999837
 20
7.9753899999999902
 30
0.0
 11
-3.3717699999999837
 21
8.2253899999999902
 31
0.0
 12
-2.5617699999999957
 22
7.9753899999999902
 32
0.0
 13
-2.5617699999999957
 23
8.2253899999999902
 33
0.0
  0
SOLID
  5
165
100
AcDbEntity
  8
None
370
              15
390
0
  6
Continuous
 62
               7
100
AcDbTrace
 10
-3.3717699999999837
 20
7.5753899999999987
 30
0.0
 11
-3.3717699999999837
 21
7.8253899999999987
 31
0.0
 12
-2.5617699999999957
 22
7.5753899999999987
 32
0.0
 13
-2.5617699999999957
 23
7.8253899999999987
 33
0.0
  0
SOLID
  5
166
100
AcDbEntity
  8
None
370
              15
390
0
  6
Continuous
 62
               7
100
AcDbTrace
 10
1.7782299999999651
 20
11.175389999999993
 30
0.0
 11
1.7782299999999651
 21
11.425389999999993
 31
0.0
 12
2.5882299999999674
 22
11.175389999999993
 32
0.0
 13
2.5882299999999674
 23
11.425389999999993
 33
0.0
  0
SOLID
  5
167
100
AcDbEntity
  8
None
370
              15
390
0
  6
Continuous
 62
               7
100
AcDbTrace
 10
1.7782299999999651
 20
10.775389999999987
 30
0.0
 11
1.7782299999999651
 21
11.025389999999987
 31
0.0
 12
2.5882299999999674
 22
10.775389999999987
 32
0.0
 13
2.5882299999999674
 23
11.025389999999987
 33
0.0
  0
SOLID
  5
168
100
AcDbEntity
  8
None
370
              15
390
0
  6
Continuous
 62
               7
100
AcDbTrace
 10
1.7782299999999651
 20
10.375389999999996
 30
0.0
 11
1.7782299999999651
 21
10.625389999999982
 31
0.0
 12
2.5882299999999674
 22
10.375389999999996
 32
0.0
 13
2.5882299999999674
 23
10.625389999999982
 33
0.0
  0
SOLID
  5
169
100
AcDbEntity
  8
None
370
              15
390
0
  6
Continuous
 62
               7
100
AcDbTrace
 10
1.7782299999999651
 20
9.9753899999999902
 30
0.0
 11
1.7782299999999651
 21
10.22538999999999
 31
0.0
 12
2.5882299999999674
 22
9.9753899999999902
 32
0.0
 13
2.5882299999999674
 23
10.22538999999999
 33
0.0
  0
SOLID
  5
16A
100
AcDbEntity
  8
None
370
              15
390
0
  6
Continuous
 62
               7
100
AcDbTrace
 10
1.7782299999999651
 20
9.5753899999999987
 30
0.0
 11
1.7782299999999651
 21
9.8253899999999987
 31
0.0
 12
2.5882299999999674
 22
9.5753899999999987
 32
0.0
 13
2.5882299999999674
 23
9.8253899999999987
 33
0.0
  0
SOLID
  5
16B
100
AcDbEntity
  8
None
370
              15
390
0
  6
Continuous
 62
               7
100
AcDbTrace
 10
1.7782299999999651
 20
9.1753899999999931
 30
0.0
 11
1.7782299999999651
 21
9.4253899999999931
 31
0.0
 12
2.5882299999999674
 22
9.1753899999999931
 32
0.0
 13
2.5882299999999674
 23
9.4253899999999931
 33
0.0
  0
SOLID
  5
16C
100
AcDbEntity
  8
None
370
              15
390
0
  6
Continuous
 62
               7
100
AcDbTrace
 10
1.7782299999999651
 20
8.7753899999999874
 30
0.0
 11
1.7782299999999651
 21
9.0253899999999874
 31
0.0
 12
2.5882299999999674
 22
8.7753899999999874
 32
0.0
 13
2.5882299999999674
 23
9.0253899999999874
 33
0.0
  0
SOLID
  5
16D
100
AcDbEntity
  8
None
370
              15
390
0
  6
Continuous
 62
               7
100
AcDbTrace
 10
1.7782299999999651
 20
8.3753899999999959
 30
0.0
 11
1.7782299999999651
 21
8.6253899999999959
 31
0.0
 12
2.5882299999999674
 22
8.3753899999999959
 32
0.0
 13
2.5882299999999674
 23
8.6253899999999959
 33
0.0
  0
SOLID
  5
16E
100
AcDbEntity
  8
None
370
              15
390
0
  6
Continuous
 62
               7
100
AcDbTrace
 10
1.7782299999999651
 20
7.9753899999999902
 30
0.0
 11
1.7782299999999651
 21
8.2253899999999902
 31
0.0
 12
2.5882299999999674
 22
7.9753899999999902
 32
0.0
 13
2.5882299999999674
 23
8.2253899999999902
 33
0.0
  0
SOLID
  5
16F
100
AcDbEntity
  8
None
370
              15
390
0
  6
Continuous
 62
               7
100
AcDbTrace
 10
1.7782299999999651
 20
7.5753899999999987
 30
0.0
 11
1.7782299999999651
 21
7.8253899999999987
 31
0.0
 12
2.5882299999999674
 22
7.5753899999999987
 32
0.0
 13
2.5882299999999674
 23
7.8253899999999987
 33
0.0
  0
ENDBLK
  5
170
100
AcDbEntity
  8
None
390
0
100
AcDbBlockEnd
  0
BLOCK
  5
171
100
AcDbEntity
  8
None
390
0
100
AcDbBlockBegin
  2
Group-1
 70
               0
 10
0.0
 20
0.0
 30
0.0
  3
Group-1
  1

  0
INSERT
  5
172
100
AcDbEntity
  8
None
390
0
 62
               7
100
AcDbBlockReference
  2
Group
 10
0.0
 20
0.0
 30
0.0
  0
POLYLINE
  5
173
102
{ACAD_REACTORS
330
179
102
}
100
AcDbEntity
  8
None
370
               9
390
0
  6
Continuous
 62
               7
100
AcDb2dPolyline
 66
               1
 10
0.0
 20
0.0
 30
0.0
 70
               1
 75
               5
  0
VERTEX
  5
174
100
AcDbEntity
  8
None
370
               9
390
0
  6
Continuous
 62
               7
100
AcDbVertex
100
AcDb2dVertex
 10
-2.0917700000000252
 20
11.200389999999999
 30
0.0
  0
VERTEX
  5
175
100
AcDbEntity
  8
None
370
               9
390
0
  6
Continuous
 62
               7
100
AcDbVertex
100
AcDb2dVertex
 10
1.3082299999999663
 20
11.200389999999999
 30
0.0
  0
VERTEX
  5
176
100
AcDbEntity
  8
None
370
               9
390
0
  6
Continuous
 62
               7
100
AcDbVertex
100
AcDb2dVertex
 10
1.3082299999999663
 20
7.8003899999999931
 30
0.0
  0
VERTEX
  5
177
100
AcDbEntity
  8
None
370
               9
390
0
  6
Continuous
 62
               7
100
AcDbVertex
100
AcDb2dVertex
 10
-2.0917700000000252
 20
7.8003899999999931
 30
0.0
  0
SEQEND
  5
178
100
AcDbEntity
  8
None
370
               9
390
0
  6
Continuous
 62
               7
  0
HATCH
  5
179
100
AcDbEntity
  8
None
370
               0
390
0
  6
Continuous
 62
             253
100
AcDbHatch
 10
0.0
 20
0.0
 30
0.0
210
0.0
220
0.0
230
1.0
  2
SOLID
 70
               1
 71
               1
 91
        1
 92
        1
 93
        4
 72
               1
 10
-2.0917700000000252
 20
11.200389999999999
 11
1.3082299999999663
 21
11.200389999999999
 72
               1
 10
1.3082299999999663
 20
11.200389999999999
 11
1.3082299999999663
 21
7.8003899999999931
 72
               1
 10
1.3082299999999663
 20
7.8003899999999931
 11
-2.0917700000000252
 21
7.8003899999999931
 72
               1
 10
-2.0917700000000252
 20
7.8003899999999931
 11
-2.0917700000000252
 21
11.200389999999999
 97
        1
330
173
 75
               0
 76
               1
 98
        1
 10
0.0
 20
0.0
  0
ENDBLK
  5
17A
100
AcDbEntity
  8
None
390
0
100
AcDbBlockEnd
  0
ENDSEC
  0
SECTION
  2
ENTITIES
  0
WIPEOUT
  5
17B
100
AcDbEntity
  8
None
370
               9
390
0
  6
STYLE_11
 62
               7
 92
        0
100
AcDbWipeout
 90
        0
 10
-6.7542700000000053
 20
3.3878899999999845
 30
0.0
 11
12.225000000000016
 21
0.0
 31
0.0
 12
0.0
 22
12.225000000000016
 32
0.0
 13
1.0
 23
1.0
340
0
 70
               7
280
               1
281
              50
282
              50
283
               0
360
0
 71
               2
 91
        5
 14
-0.5
 24
-0.5
 14
0.4999999999999959
 24
-0.5
 14
0.4999999999999959
 24
0.5
 14
-0.5
 24
0.5
 14
-0.5
 24
-0.5
  0
POLYLINE
  5
17C
100
AcDbEntity
  8
None
370
               9
390
0
  6
STYLE_11
 62
               7
100
AcDb2dPolyline
 66
               1
 10
0.0
 20
0.0
 30
0.0
 70
               1
 75
               5
  0
VERTEX
  5
17D
100
AcDbEntity
  8
None
370
               9
390
0
  6
STYLE_11
 62
               7
100
AcDbVertex
100
AcDb2dVertex
 10
-6.7542700000000053
 20
15.61289
 30
0.0
  0
VERTEX
  5
17E
100
AcDbEntity
  8
None
370
               9
390
0
  6
STYLE_11
 62
               7
100
AcDbVertex
100
AcDb2dVertex
 10
5.4707299999999606
 20
15.61289
 30
0.0
  0
VERTEX
  5
17F
100
AcDbEntity
  8
None
370
               9
390
0
  6
STYLE_11
 62
               7
100
AcDbVertex
100
AcDb2dVertex
 10
5.4707299999999606
 20
3.3878899999999845
 30
0.0
  0
VERTEX
  5
180
100
AcDbEntity
  8
None
370
               9
390
0
  6
STYLE_11
 62
               7
100
AcDbVertex
100
AcDb2dVertex
 10
-6.7542700000000053
 20
3.3878899999999845
 30
0.0
  0
SEQEND
  5
181
100
AcDbEntity
  8
None
370
               9
390
0
  6
STYLE_11
 62
               7
  0
CIRCLE
  5
182
102
{ACAD_REACTORS
330
183
102
}
100
AcDbEntity
  8
None
370
              15
390
0
  6
Continuous
 62
             180
100
AcDbCircle
 10
-3.7371100000000155
 20
14.595149999999997
 30
0.0
 40
0.2500014851955927
  0
HATCH
  5
183
100
AcDbEntity
  8
None
370
               0
390
0
  6
Continuous
 62
             180
100
AcDbHatch
 10
0.0
 20
0.0
 30
0.0
210
0.0
220
0.0
230
1.0
  2
SOLID
 70
               1
 71
               1
 91
        1
 92
        1
 93
        1
 72
               2
 10
-3.7371100000000155
 20
14.595149999999997
 40
0.2500014851955927
 50
0.0
 51
360.0
 73
               0
 97
        1
330
182
 75
               0
 76
               1
 98
        1
 10
0.0
 20
0.0
  0
WIPEOUT
  5
184
100
AcDbEntity
  8
None
370
               9
390
0
  6
Continuous
 62
               7
 92
        0
100
AcDbWipeout
 90
        0
 10
-6.3092699999999979
 20
13.557890000000008
 30
0.0
 11
1.6099999999999852
 21
0.0
 31
0.0
 12
0.0
 22
1.6099999999999852
 32
0.0
 13
1.0
 23
1.0
340
0
 70
               7
280
               1
281
              50
282
              50
283
               0
360
0
 71
               2
 91
        9
 14
0.5
 24
0.0
 14
0.3535533905932737
 24
0.3535533905932738
 14
0.0
 24
0.5
 14
-0.3535533905932738
 24
0.3535533905932738
 14
-0.5
 24
0.0
 14
-0.3535533905932738
 24
-0.3535533905932737
 14
0.0
 24
-0.5
 14
0.3535533905932737
 24
-0.3535533905932737
 14
0.5
 24
0.0
  0
CIRCLE
  5
185
100
AcDbEntity
  8
None
370
               9
390
0
  6
Continuous
 62
               7
100
AcDbCircle
 10
-5.5042700000000053
 20
14.36289
 30
0.0
 40
0.8049999999999926
  0
WIPEOUT
  5
186
100
AcDbEntity
  8
None
370
               9
390
0
  6
Continuous
 62
               7
 92
        0
100
AcDbWipeout
 90
        0
 10
3.4157299999999537
 20
3.8328899999999777
 30
0.0
 11
1.6100000000000136
 21
0.0
 31
0.0
 12
0.0
 22
1.6100000000000136
 32
0.0
 13
1.0
 23
1.0
340
0
 70
               7
280
               1
281
              50
282
              50
283
               0
360
0
 71
               2
 91
        9
 14
-0.5
 24
0.0
 14
-0.3535533905932736
 24
-0.3535533905932736
 14
0.0
 24
-0.5
 14
0.3535533905932736
 24
-0.3535533905932736
 14
0.5
 24
0.0
 14
0.3535533905932736
 24
0.3535533905932736
 14
0.0
 24
0.5
 14
-0.3535533905932736
 24
0.3535533905932736
 14
-0.5
 24
0.0
  0
CIRCLE
  5
187
100
AcDbEntity
  8
None
370
               9
390
0
  6
Continuous
 62
               7
100
AcDbCircle
 10
4.2207299999999606
 20
4.6378899999999845
 30
0.0
 40
0.8050000000000068
  0
WIPEOUT
  5
188
100
AcDbEntity
  8
None
370
               9
390
0
  6
Continuous
 62
               7
 92
        0
100
AcDbWipeout
 90
        0
 10
-6.3092699999999979
 20
3.8328899999999919
 30
0.0
 11
1.6099999999999852
 21
0.0
 31
0.0
 12
0.0
 22
1.6099999999999852
 32
0.0
 13
1.0
 23
1.0
340
0
 70
               7
280
               1
281
              50
282
              50
283
               0
360
0
 71
               2
 91
        9
 14
0.5
 24
0.0
 14
0.3535533905932737
 24
0.3535533905932738
 14
0.0
 24
0.5
 14
-0.3535533905932738
 24
0.3535533905932738
 14
-0.5
 24
0.0
 14
-0.3535533905932738
 24
-0.3535533905932737
 14
0.0
 24
-0.5
 14
0.3535533905932737
 24
-0.3535533905932737
 14
0.5
 24
0.0
  0
CIRCLE
  5
189
100
AcDbEntity
  8
None
370
               9
390
0
  6
Continuous
 62
               7
100
AcDbCircle
 10
-5.5042700000000053
 20
4.6378899999999845
 30
0.0
 40
0.8049999999999926
  0
WIPEOUT
  5
18A
100
AcDbEntity
  8
None
370
               9
390
0
  6
Continuous
 62
               7
 92
        0
100
AcDbWipeout
 90
        0
 10
3.4157299999999537
 20
13.557889999999993
 30
0.0
 11
1.6100000000000136
 21
0.0
 31
0.0
 12
0.0
 22
1.6100000000000136
 32
0.0
 13
1.0
 23
1.0
340
0
 70
               7
280
               1
281
              50
282
              50
283
               0
360
0
 71
               2
 91
        9
 14
-0.5
 24
0.0
 14
-0.3535533905932736
 24
-0.3535533905932742
 14
0.0
 24
-0.5
 14
0.3535533905932736
 24
-0.3535533905932742
 14
0.5
 24
0.0
 14
0.3535533905932736
 24
0.3535533905932742
 14
0.0
 24
0.5
 14
-0.3535533905932736
 24
0.3535533905932742
 14
-0.5
 24
0.0
  0
CIRCLE
  5
18B
100
AcDbEntity
  8
None
370
               9
390
0
  6
Continuous
 62
               7
100
AcDbCircle
 10
4.2207299999999606
 20
14.36289
 30
0.0
 40
0.8050000000000068
  0
WIPEOUT
  5
18C
100
AcDbEntity
  8
None
370
               9
390
0
  6
Continuous
 62
               7
 92
        0
100
AcDbWipeout
 90
        0
 10
3.7957299999999634
 20
11.937890000000003
 30
0.0
 11
0.8499999999999943
 21
0.0
 31
0.0
 12
0.0
 22
0.8499999999999943
 32
0.0
 13
1.0
 23
1.0
340
0
 70
               7
280
               1
281
              50
282
              50
283
               0
360
0
 71
               2
 91
        9
 14
0.5
 24
0.0
 14
0.3535533905932733
 24
0.3535533905932744
 14
0.0
 24
0.5
 14
-0.3535533905932738
 24
0.3535533905932744
 14
-0.5
 24
0.0
 14
-0.3535533905932738
 24
-0.3535533905932744
 14
0.0
 24
-0.5
 14
0.3535533905932733
 24
-0.3535533905932744
 14
0.5
 24
0.0
  0
CIRCLE
  5
18D
100
AcDbEntity
  8
None
370
               9
390
0
  6
Continuous
 62
               7
100
AcDbCircle
 10
4.2207299999999606
 20
12.36289
 30
0.0
 40
0.4249999999999972
  0
WIPEOUT
  5
18E
100
AcDbEntity
  8
None
370
               9
390
0
  6
Continuous
 62
               7
 92
        0
100
AcDbWipeout
 90
        0
 10
-5.9292700000000025
 20
7.2128900000000016
 30
0.0
 11
0.8499999999999943
 21
0.0
 31
0.0
 12
0.0
 22
0.8499999999999943
 32
0.0
 13
1.0
 23
1.0
340
0
 70
               7
280
               1
281
              50
282
              50
283
               0
360
0
 71
               2
 91
        9
 14
0.5
 24
0.0
 14
0.3535533905932733
 24
0.3535533905932733
 14
0.0
 24
0.5
 14
-0.3535533905932733
 24
0.3535533905932733
 14
-0.5
 24
0.0
 14
-0.3535533905932733
 24
-0.3535533905932733
 14
0.0
 24
-0.5
 14
0.3535533905932733
 24
-0.3535533905932733
 14
0.5
 24
0.0
  0
CIRCLE
  5
18F
100
AcDbEntity
  8
None
370
               9
390
0
  6
Continuous
 62
               7
100
AcDbCircle
 10
-5.5042700000000053
 20
7.6378899999999987
 30
0.0
 40
0.4249999999999972
  0
LINE
  5
190
100
AcDbEntity
  8
None
370
              15
390
0
  6
STYLE_13
 62
             180
100
AcDbLine
 10
-0.6417700000000224
 20
2.0003899999999817
 30
0.0
 11
-0.6417700000000224
 21
17.000389999999996
 31
0.0
  0
LINE
  5
191
100
AcDbEntity
  8
None
370
              15
390
0
  6
STYLE_13
 62
             180
100
AcDbLine
 10
6.8582299999999776
 20
9.5003900000000101
 30
0.0
 11
-8.141769999999994
 21
9.5003900000000101
 31
0.0
  0
DIMENSION
  5
192
100
AcDbEntity
  8
Dimension
370
               5
390
0
  6
Continuous
 62
               1
100
AcDbDimension
  2
*D3
 10
-6.7542700000000053
 20
-7.1121100000000137
 30
0.0
 11
-0.7732797808838114
 21
-7.1121100000000137
 31
0.0
 70
             128
 71
               5
 72
               1
 41
1.0
 42
0.0
  3
IE Standard
100
AcDbAlignedDimension
 13
5.4707299999999606
 23
3.3878899999999845
 33
0.0
 14
-6.7542700000000053
 24
3.3878899999999845
 34
0.0
100
AcDbRotatedDimension
1001
ACAD
1000
DSTYLE
1002
{
1070
             271
1070
               3
1070
             340
1005
36
1070
              71
1070
               1
1070
              47
1040
0.125
1070
              48
1040
0.125
1070
               3
1000
<>mm (x4)
1070
             147
1040
0.09921875
1002
}
  0
DIMENSION
  5
193
100
AcDbEntity
  8
Dimension
370
               5
390
0
  6
Continuous
 62
               1
100
AcDbDimension
  2
*D4
 10
-9.429270000000006
 20
4.6378899999999845
 30
0.0
 11
-9.429270000000006
 21
5.9941064306640532
 31
0.0
 70
             128
 71
               5
 72
               1
 41
1.0
 42
0.0
  3
IE Standard
100
AcDbAlignedDimension
 13
-5.5042700000000053
 23
7.6378899999999987
 33
0.0
 14
-5.5042700000000053
 24
4.6378899999999845
 34
0.0
 50
90.0
100
AcDbRotatedDimension
1001
ACAD
1000
DSTYLE
1002
{
1070
             271
1070
               2
1070
             340
1005
36
1070
             147
1040
0.09921875
1002
}
  0
DIMENSION
  5
194
100
AcDbEntity
  8
Dimension
370
               5
390
0
  6
Continuous
 62
               1
100
AcDbDimension
  2
*D5
 10
9.5442299999999598
 20
14.36289
 30
0.0
 11
9.5442299999999598
 21
13.36289
 31
0.0
 70
             128
 71
               5
 72
               1
 41
1.0
 42
0.0
  3
IE Standard
100
AcDbAlignedDimension
 13
4.2207299999999606
 23
12.36289
 33
0.0
 14
4.2207299999999606
 24
14.36289
 34
0.0
 50
90.0
100
AcDbRotatedDimension
1001
ACAD
1000
DSTYLE
1002
{
1070
             271
1070
               2
1070
             340
1005
36
1070
             147
1040
0.09921875
1002
}
  0
DIMENSION
  5
195
100
AcDbEntity
  8
Dimension
370
               5
390
0
  6
Continuous
 62
               1
100
AcDbDimension
  2
*D6
 10
-6.7542700000000053
 20
20.671379999999999
 30
0.0
 11
-9.8175400000000046
 21
20.671379999999999
 31
0.0
 70
             128
 71
               5
 72
               1
 41
1.0
 42
0.0
  3
IE Standard
100
AcDbAlignedDimension
 13
-5.5042700000000053
 23
14.36289
 33
0.0
 14
-6.7542700000000053
 24
15.61289
 34
0.0
100
AcDbRotatedDimension
1001
ACAD
1000
DSTYLE
1002
{
1070
             271
1070
               3
1070
             340
1005
36
1070
              71
1070
               1
1070
              47
1040
0.125
1070
              48
1040
0.125
1070
               3
1000
<>mm (x4)
1070
             174
1070
               0
1070
             147
1040
0.09921875
1002
}
  0
DIMENSION
  5
196
100
AcDbEntity
  8
Dimension
370
               5
390
0
  6
Continuous
 62
               1
100
AcDbDimension
  2
*D7
 10
-14.979270000000005
 20
15.61289
 30
0.0
 11
-14.979270000000005
 21
17.821380000000001
 31
0.0
 70
             128
 71
               5
 72
               1
 41
1.0
 42
0.0
  3
IE Standard
100
AcDbAlignedDimension
 13
-5.5042700000000053
 23
14.36289
 33
0.0
 14
-6.7542700000000053
 24
15.61289
 34
0.0
 50
90.0
100
AcDbRotatedDimension
1001
ACAD
1000
DSTYLE
1002
{
1070
             271
1070
               3
1070
             340
1005
36
1070
              71
1070
               1
1070
              47
1040
0.125
1070
              48
1040
0.125
1070
               3
1000
<>mm (x4)
1070
             174
1070
               0
1070
             147
1040
0.09921875
1002
}
  0
DIMENSION
  5
197
100
AcDbEntity
  8
Dimension
370
               5
390
0
  6
Continuous
 62
               1
100
AcDbDimension
  2
*D8
 10
-5.5042700000000053
 20
-4.7121100000000151
 30
0.0
 11
-0.3567094989013908
 21
-4.7121100000000151
 31
0.0
 70
             128
 71
               5
 72
               1
 41
1.0
 42
0.0
  3
IE Standard
100
AcDbAlignedDimension
 13
4.2207299999999606
 23
4.6378899999999845
 33
0.0
 14
-5.5042700000000053
 24
4.6378899999999845
 34
0.0
100
AcDbRotatedDimension
1001
ACAD
1000
DSTYLE
1002
{
1070
             271
1070
               3
1070
             340
1005
36
1070
               3
1000
<>mm (x4)
1070
             147
1040
0.09921875
1002
}
  0
DIMENSION
  5
198
100
AcDbEntity
  8
Dimension
370
               5
390
0
  6
Continuous
 62
               1
100
AcDbDimension
  2
*D9
 10
3.8589299999999582
 20
12.139890000000001
 30
0.0
 11
13.310330149355723
 21
17.010648253683751
 31
0.0
 70
               3
 71
               5
 72
               1
 41
1.0
 42
0.0
  3
IE Standard
100
AcDbDiametricDimension
 15
4.5837499999999523
 25
12.583889999999997
 35
0.0
 40
8.4746499999999987
1001
ACAD
1000
DSTYLE
1002
{
1070
             271
1070
               3
1070
             172
1070
               0
1070
             289
1070
               0
1070
             342
1005
4D
1070
             340
1005
36
1070
              75
1070
               1
1070
              76
1070
               1
1070
              71
1070
               1
1070
              47
1040
0.025
1070
              48
1040
0.025
1070
               3
1000
mm (x2)
1070
             174
1070
               0
1070
             147
1040
0.09921875
1002
}
  0
DIMENSION
  5
199
100
AcDbEntity
  8
Dimension
370
               5
390
0
  6
Continuous
 62
               1
100
AcDbDimension
  2
*D10
 10
3.5433799999999565
 20
5.0728899999999868
 30
0.0
 11
9.3643907480205755
 21
2.342532017313935
 31
0.0
 70
               3
 71
               5
 72
               1
 41
1.0
 42
0.0
  3
IE Standard
100
AcDbDiametricDimension
 15
4.9043999999999528
 25
4.2128899999999874
 35
0.0
 40
3.5013999999999998
1001
ACAD
1000
DSTYLE
1002
{
1070
             271
1070
               3
1070
             172
1070
               0
1070
             289
1070
               0
1070
             342
1005
4D
1070
             340
1005
36
1070
              75
1070
               1
1070
              76
1070
               1
1070
              71
1070
               1
1070
              47
1040
0.05
1070
              48
1040
0.05
1070
               3
1000
mm(x4)
1070
             174
1070
               0
1070
             147
1040
0.09921875
1002
}
  0
LINE
  5
19A
100
AcDbEntity
  8
None
370
               5
390
0
  6
Continuous
 62
               1
100
AcDbLine
 10
-10.058199999999999
 20
25.543589999999995
 30
0.0
 11
-15.608859999999993
 21
25.543589999999995
 31
0.0
  0
LINE
  5
19B
100
AcDbEntity
  8
None
370
               5
390
0
  6
Continuous
 62
               1
100
AcDbLine
 10
-3.8621100000000155
 20
14.811659999999996
 30
0.0
 11
-10.058199999999999
 21
25.543589999999995
 31
0.0
  0
SOLID
  5
19C
100
AcDbEntity
  8
None
370
               5
390
0
 62
               1
100
AcDbTrace
 10
-3.8621100000000155
 20
14.811659999999996
 30
0.0
 11
-4.234071252770387
 21
15.183621252770369
 31
0.0
 12
-3.9982572677374564
 22
15.319768520507809
 32
0.0
 13
-3.9982572677374564
 23
15.319768520507809
 33
0.0
  0
WIPEOUT
  5
19D
100
AcDbEntity
  8
None
370
               5
390
0
  6
Continuous
 62
               1
 92
        0
100
AcDbWipeout
 90
        0
 10
-21.490549999999999
 20
24.782920500000003
 30
0.0
 11
7.8422253988126727
 21
0.0
 31
0.0
 12
0.0
 22
7.8422253988126727
 32
0.0
 13
1.0
 23
1.0
340
0
 70
               7
280
               1
281
              50
282
              50
283
               0
360
0
 71
               2
 91
        5
 14
-0.5
 24
0.5000000000000004
 14
0.5000000000000004
 24
0.5000000000000004
 14
0.5000000000000004
 24
0.3448043204440075
 14
-0.5
 24
0.3448043204440075
 14
-0.5
 24
0.5000000000000004
  0
MTEXT
  5
19E
100
AcDbEntity
  8
None
390
0
 62
               1
100
AcDbMText
 10
-21.490549999999999
 20
25.805421619791666
 30
0.0
 40
0.7579186197916666
 41
0.0
 71
               1
 72
               1
  1
{\C192;\lOrientation Mark}
  7
New Century Schlbk
 73
               1
 44
0.9673603504928806
  0
WIPEOUT
  5
19F
100
AcDbEntity
  8
None
370
              15
390
0
  6
Continuous
 62
               1
 92
        0
100
AcDbWipeout
 90
        0
 10
14.753739999999965
 20
14.497240500000004
 30
0.0
 11
12.350711488082325
 21
0.0
 31
0.0
 12
0.0
 22
12.350711488082325
 32
0.0
 13
1.0
 23
1.0
340
0
 70
               7
280
               1
281
              50
282
              50
283
               0
360
0
 71
               2
 91
        5
 14
-0.5
 24
0.5000000000000003
 14
0.4999999999999994
 24
0.5000000000000003
 14
0.4999999999999994
 24
0.4014567297459419
 14
-0.5
 24
0.4014567297459419
 14
-0.5
 24
0.5000000000000003
  0
MTEXT
  5
1A0
100
AcDbEntity
  8
None
390
0
 62
               1
100
AcDbMText
 10
14.753739999999965
 20
15.519741619791667
 30
0.0
 40
0.7579186197916666
 41
0.0
 71
               1
 72
               1
  1
{\C192;\lNon plated alignment hole}
  7
Arial
 73
               1
 44
0.9673603504928806
  0
WIPEOUT
  5
1A1
100
AcDbEntity
  8
None
370
              15
390
0
  6
Continuous
 62
               1
 92
        0
100
AcDbWipeout
 90
        0
 10
10.832629999999952
 20
0.1471104999999824
 30
0.0
 11
12.117878889991573
 21
0.0
 31
0.0
 12
0.0
 22
12.117878889991573
 32
0.0
 13
1.0
 23
1.0
340
0
 70
               7
280
               1
281
              50
282
              50
283
               0
360
0
 71
               2
 91
        5
 14
-0.5
 24
0.5000000000000002
 14
0.4999999999999997
 24
0.5000000000000002
 14
0.4999999999999997
 24
0.3995633220096621
 14
-0.5
 24
0.3995633220096621
 14
-0.5
 24
0.5000000000000002
  0
MTEXT
  5
1A2
100
AcDbEntity
  8
None
390
0
 62
               1
100
AcDbMText
 10
10.832629999999952
 20
1.169611619791646
 30
0.0
 40
0.7579186197916666
 41
0.0
 71
               1
 72
               1
  1
{\C192;\lNon plated mounting hole}
  7
Arial
 73
               1
 44
0.9673603504928806
  0
DIMENSION
  5
1A3
100
AcDbEntity
  8
Dimension
370
               5
390
0
  6
Continuous
 62
               1
100
AcDbDimension
  2
*D11
 10
2.0982299999999583
 20
9.3903899999999965
 30
0.0
 11
9.9108952035824291
 21
6.8287275413784823
 31
0.0
 70
               3
 71
               5
 72
               1
 41
1.0
 42
0.0
  1
0.81 x 0.24
  3
IE Standard
100
AcDbDiametricDimension
 15
2.788229999999956
 25
9.1103899999999953
 35
0.0
 40
6.0679799999999995
1001
ACAD
1000
DSTYLE
1002
{
1070
             271
1070
               4
1070
             172
1070
               0
1070
             289
1070
               0
1070
             342
1005
4D
1070
             340
1005
36
1070
              75
1070
               1
1070
              76
1070
               1
1070
             174
1070
               0
1070
             147
1040
0.09921875
1002
}
  0
WIPEOUT
  5
1A4
100
AcDbEntity
  8
None
370
               5
390
0
  6
Continuous
 62
               1
 92
        0
100
AcDbWipeout
 90
        0
 10
-21.490549999999999
 20
24.782920500000003
 30
0.0
 11
7.8422253988126727
 21
0.0
 31
0.0
 12
0.0
 22
7.8422253988126727
 32
0.0
 13
1.0
 23
1.0
340
0
 70
               7
280
               1
281
              50
282
              50
283
               0
360
0
 71
               2
 91
        5
 14
-0.5
 24
0.5000000000000004
 14
0.5000000000000004
 24
0.5000000000000004
 14
0.5000000000000004
 24
0.3448043204440075
 14
-0.5
 24
0.3448043204440075
 14
-0.5
 24
0.5000000000000004
  0
MTEXT
  5
1A5
100
AcDbEntity
  8
None
390
0
 62
               1
100
AcDbMText
 10
-21.490549999999999
 20
25.805421619791666
 30
0.0
 40
0.7579186197916666
 41
0.0
 71
               1
 72
               1
  1
{\C192;\lOrientation Mark}
  7
New Century Schlbk
 73
               1
 44
0.9673603504928806
  0
LINE
  5
1A6
100
AcDbEntity
  8
None
370
               5
390
0
  6
Continuous
 62
               1
100
AcDbLine
 10
-20.043989999999994
 20
3.4603899999999896
 30
0.0
 11
-6.7542700000000053
 21
3.4603899999999896
 31
0.0
  0
SOLID
  5
1A7
100
AcDbEntity
  8
None
370
               5
390
0
 62
               1
100
AcDbTrace
 10
-6.7542700000000053
 20
3.4603899999999896
 30
0.0
 11
-7.2623785205078182
 21
3.3242427322625487
 31
0.0
 12
-7.2623785205078182
 22
3.5965372677374305
 32
0.0
 13
-7.2623785205078182
 23
3.5965372677374305
 33
0.0
  0
LINE
  5
1A8
100
AcDbEntity
  8
None
370
               5
390
0
  6
Continuous
 62
               1
100
AcDbLine
 10
-23.418359999999993
 20
6.8347699999999918
 30
0.0
 11
-20.043989999999994
 21
3.4603899999999896
 31
0.0
  0
WIPEOUT
  5
1A9
100
AcDbEntity
  8
None
370
               5
390
0
  6
Continuous
 62
               1
 92
        0
100
AcDbWipeout
 90
        0
 10
-27.999999999999986
 20
6.1096210000000042
 30
0.0
 11
5.8432300000000055
 21
0.0
 31
0.0
 12
0.0
 22
5.8432300000000055
 32
0.0
 13
1.0
 23
1.0
340
0
 70
               7
280
               1
281
              50
282
              50
283
               0
360
0
 71
               2
 91
        5
 14
-0.5
 24
0.5000000000000011
 14
0.4999999999999988
 24
0.5000000000000011
 14
0.4999999999999988
 24
0.0834223537324405
 14
-0.5
 24
0.0834223537324405
 14
-0.5
 24
0.5000000000000011
  0
MTEXT
  5
1AA
100
AcDbEntity
  8
None
390
0
 62
               1
100
AcDbMText
 10
-27.999999999999986
 20
8.3492016197916641
 30
0.0
 40
0.7579186197916666
 41
5.8432299999999993
 71
               1
 72
               1
  1
{\C192;\lSocket Body Size}
  7
New Century Schlbk
 73
               1
 44
0.9673603504928806
  0
WIPEOUT
  5
1AB
100
AcDbEntity
  8
None
370
               5
390
0
  6
Continuous
 62
               1
 92
        0
100
AcDbWipeout
 90
        0
 10
16.003879252942895
 20
6.230810500000004
 30
0.0
 11
4.4767360671900747
 21
0.0
 31
0.0
 12
0.0
 22
4.4767360671900747
 32
0.0
 13
1.0
 23
1.0
340
0
 70
               7
280
               1
281
              50
282
              50
283
               0
360
0
 71
               2
 91
        5
 14
-0.5
 24
0.5000000000000008
 14
0.5
 24
0.5000000000000008
 14
0.5
 24
0.2281323978601391
 14
-0.5
 24
0.2281323978601391
 14
-0.5
 24
0.5000000000000008
  0
MTEXT
  5
1AC
100
AcDbEntity
  8
None
390
0
 62
               1
100
AcDbMText
 10
16.003879252942895
 20
7.2533116197916678
 30
0.0
 40
0.7579186197916666
 41
0.0
 71
               1
 72
               1
  1
{\C192;\lpad (x40)}
  7
Arial
 73
               1
 44
0.9673603504928806
  0
DIMENSION
  5
1AD
100
AcDbEntity
  8
Dimension
370
               5
390
0
  6
Continuous
 62
               1
100
AcDbDimension
  2
*D12
 10
-5.5042700000000053
 20
21.490389999999998
 30
0.0
 11
-0.1266000000000194
 21
21.490389999999998
 31
0.0
 70
             128
 71
               5
 72
               1
 41
1.0
 42
0.0
  3
IE Standard
100
AcDbAlignedDimension
 13
-2.3167700000000195
 23
12.075389999999985
 33
0.0
 14
-5.5042700000000053
 24
14.36289
 34
0.0
100
AcDbRotatedDimension
1001
ACAD
1000
DSTYLE
1002
{
1070
             271
1070
               2
1070
             340
1005
36
1070
             174
1070
               0
1070
             147
1040
0.09921875
1002
}
  0
DIMENSION
  5
1AE
100
AcDbEntity
  8
Dimension
370
               5
390
0
  6
Continuous
 62
               1
100
AcDbDimension
  2
*D13
 10
-9.5317700000000052
 20
14.36289
 30
0.0
 11
-9.5317700000000052
 21
13.394696259155266
 31
0.0
 70
             128
 71
               5
 72
               1
 41
1.0
 42
0.0
  3
IE Standard
100
AcDbAlignedDimension
 13
-2.3167700000000195
 23
12.480389999999986
 33
0.0
 14
-5.5042700000000053
 24
14.36289
 34
0.0
 50
90.0
100
AcDbRotatedDimension
1001
ACAD
1000
DSTYLE
1002
{
1070
             271
1070
               2
1070
             340
1005
36
1070
             147
1040
0.09921875
1002
}
  0
DIMENSION
  5
1AF
100
AcDbEntity
  8
Dimension
370
               5
390
0
  6
Continuous
 62
               1
100
AcDbDimension
  2
*D14
 10
-17.651770000000027
 20
12.480389999999986
 30
0.0
 11
-17.651770000000027
 21
9.5003899999999888
 31
0.0
 71
               5
 72
               1
 41
1.0
 42
0.0
  3
IE Standard
100
AcDbAlignedDimension
 13
-2.3167700000000195
 23
6.5203899999999919
 33
0.0
 14
-2.1917700000000195
 24
12.480389999999986
 34
0.0
 50
90.0
100
AcDbRotatedDimension
1001
ACAD
1000
DSTYLE
1002
{
1070
             271
1070
               2
1070
             340
1005
36
1070
             147
1040
0.09921875
1002
}
  0
DIMENSION
  5
1B0
100
AcDbEntity
  8
Dimension
370
               5
390
0
  6
Continuous
 62
               1
100
AcDbDimension
  2
*D15
 10
-12.70177000000001
 20
11.425389999999993
 30
0.0
 11
-12.70177000000001
 21
9.5513230749511671
 31
0.0
 70
             128
 71
               5
 72
               1
 41
1.0
 42
0.0
  3
IE Standard
100
AcDbAlignedDimension
 13
-3.3717699999999837
 23
7.5753899999999987
 33
0.0
 14
-3.3717699999999837
 24
11.425389999999993
 34
0.0
 50
90.0
100
AcDbRotatedDimension
1001
ACAD
1000
DSTYLE
1002
{
1070
             271
1070
               2
1070
             340
1005
36
1070
             147
1040
0.09921875
1002
}
  0
DIMENSION
  5
1B1
100
AcDbEntity
  8
Dimension
370
               5
390
0
  6
Continuous
 62
               1
100
AcDbDimension
  2
*D16
 10
-3.3717699999999837
 20
-0.8596099999999893
 30
0.0
 11
-0.3250182910156338
 21
-0.8596099999999893
 31
0.0
 70
             128
 71
               5
 72
               1
 41
1.0
 42
0.0
  3
IE Standard
100
AcDbAlignedDimension
 13
2.5882299999999674
 23
7.5753899999999987
 33
0.0
 14
-3.3717699999999837
 24
7.5753899999999987
 34
0.0
100
AcDbRotatedDimension
1001
ACAD
1000
DSTYLE
1002
{
1070
             271
1070
               2
1070
             340
1005
36
1070
             147
1040
0.09921875
1002
}
  0
DIMENSION
  5
1B2
100
AcDbEntity
  8
Dimension
370
               5
390
0
  6
Continuous
 62
               1
100
AcDbDimension
  2
*D17
 10
-2.3167700000000195
 20
2.0403900000000021
 30
0.0
 11
-0.3306738085937797
 21
2.0403900000000021
 31
0.0
 70
             128
 71
               5
 72
               1
 41
1.0
 42
0.0
  3
IE Standard
100
AcDbAlignedDimension
 13
1.5332299999999606
 23
6.5203899999999919
 33
0.0
 14
-2.3167700000000195
 24
6.5203899999999919
 34
0.0
100
AcDbRotatedDimension
1001
ACAD
1000
DSTYLE
1002
{
1070
             271
1070
               2
1070
             340
1005
36
1070
             147
1040
0.09921875
1002
}
  0
LINE
  5
1B3
100
AcDbEntity
  8
None
370
               9
390
0
  6
Continuous
 62
               1
100
AcDbLine
 10
6.3019199999999529
 20
19.715269999999997
 30
0.0
 11
0.3682299999999685
 21
10.415390000000002
 31
0.0
  0
SOLID
  5
1B4
100
AcDbEntity
  8
None
370
               9
390
0
 62
               1
100
AcDbTrace
 10
0.3682299999999685
 20
10.415390000000002
 30
0.0
 11
0.622164859809494
 21
11.196921137550683
 31
0.0
 12
0.9789096082767986
 22
10.96524838906268
 32
0.0
 13
0.9789096082767986
 23
10.96524838906268
 33
0.0
  0
LINE
  5
1B5
100
AcDbEntity
  8
None
370
               9
390
0
  6
Continuous
 62
               1
100
AcDbLine
 10
12.256499999999974
 20
19.715269999999997
 30
0.0
 11
6.3019199999999529
 21
19.715269999999997
 31
0.0
  0
WIPEOUT
  5
1B6
100
AcDbEntity
  8
None
370
               9
390
0
  6
Continuous
 62
               1
 92
        0
100
AcDbWipeout
 90
        0
 10
11.956499999999963
 20
19.2759505
 30
0.0
 11
16.488782895988848
 21
0.0
 31
0.0
 12
0.0
 22
16.488782895988848
 32
0.0
 13
1.0
 23
1.0
340
0
 70
               7
280
               1
281
              50
282
              50
283
               0
360
0
 71
               2
 91
        5
 14
-0.5
 24
0.5000000000000002
 14
0.5000000000000002
 24
0.5000000000000002
 14
0.5000000000000002
 24
0.4261874264657781
 14
-0.5
 24
0.4261874264657781
 14
-0.5
 24
0.5000000000000002
  0
MTEXT
  5
1B7
100
AcDbEntity
  8
None
390
0
 62
               1
100
AcDbMText
 10
11.956499999999963
 20
20.298451619791663
 30
0.0
 40
0.7579186197916666
 41
0.0
 71
               1
 72
               1
  1
{\C192;\l3.4mm x 3.4mm thermal /GND pad}
  7
Arial
 73
               1
 44
0.9673603504928806
  0
DIMENSION
  5
1B8
100
AcDbEntity
  8
Dimension
370
               5
390
0
  6
Continuous
 62
               1
100
AcDbDimension
  2
*D18
 10
0.6082299999999776
 20
18.130389999999995
 30
0.0
 11
3.2182299999999833
 21
18.130389999999995
 31
0.0
 70
             128
 71
               5
 72
               1
 41
1.0
 42
0.0
  3
IE Standard
100
AcDbAlignedDimension
 13
1.0082299999999833
 23
12.480389999999986
 33
0.0
 14
0.6082299999999776
 24
12.480389999999986
 34
0.0
100
AcDbRotatedDimension
1001
ACAD
1000
DSTYLE
1002
{
1070
             271
1070
               2
1070
             340
1005
36
1070
               3
1000
<>mm typ.
1070
             174
1070
               0
1070
             147
1040
0.09921875
1002
}
  0
INSERT
  5
1B9
100
AcDbEntity
  8
None
390
0
 62
               7
100
AcDbBlockReference
  2
Group-1
 10
0.0
 20
0.0
 30
0.0
  0
WIPEOUT
  5
1BA
100
AcDbEntity
  8
None
370
               5
390
0
  6
Continuous
 62
               7
 92
        0
100
AcDbWipeout
 90
        0
 10
-3.3224558204325234
 20
-13.134982438851608
 30
0.0
 11
4.5155328276644724
 21
0.0
 31
0.0
 12
0.0
 22
4.5155328276644724
 32
0.0
 13
1.0
 23
1.0
340
0
 70
               7
280
               1
281
              50
282
              50
283
               0
360
0
 71
               2
 91
        5
 14
-0.5
 24
0.5000000000000016
 14
0.4999999999999998
 24
0.5000000000000016
 14
0.4999999999999998
 24
0.2005208351680979
 14
-0.5
 24
0.2005208351680979
 14
-0.5
 24
0.5000000000000016
  0
MTEXT
  5
1BB
100
AcDbEntity
  8
None
390
0
 62
               7
100
AcDbMText
 10
-3.3224558204325234
 20
-11.998872230518282
 30
0.0
 40
0.8421302083333332
 41
0.0
 71
               1
 72
               1
  1
MLF40C
  7
Arial
 73
               1
 44
0.9673603504928806
  0
ENDSEC
  0
SECTION
  2
OBJECTS
  0
DICTIONARY
  5
19
100
AcDbDictionary
280
               0
281
               1
  3
ACAD_GROUP
350
1A
  3
ACAD_MLINESTYLE
350
1B
  3
ACAD_LAYOUT
350
1E
  3
ACAD_PLOTSETTINGS
350
22
  3
ACAD_PLOTSTYLENAME
350
1F
  3
ACAD_WIPEOUT_VARS
350
23
  0
DICTIONARY
  5
1A
102
{ACAD_REACTORS
330
19
102
}
100
AcDbDictionary
280
               0
281
               1
  0
DICTIONARY
  5
1B
102
{ACAD_REACTORS
330
19
102
}
100
AcDbDictionary
280
               0
281
               1
  3
Standard
350
1C
  0
MLINESTYLE
  5
1C
102
{ACAD_REACTORS
330
1B
102
}
100
AcDbMlineStyle
  2
Standard
 70
               0
  3

 62
               0
 51
90.0
 52
90.0
 71
               2
 49
0.5
 62
             256
  6
ByLayer
 49
-0.5
 62
             256
  6
ByLayer
  0
ACDBDICTIONARYWDFLT
  5
1F
102
{ACAD_REACTORS
330
19
102
}
100
AcDbDictionary
281
               1
  3
Normal
350
1D
100
AcDbDictionaryWithDefault
340
1D
  0
ACDBPLACEHOLDER
  5
1D
102
{ACAD_REACTORS
330
1F
102
}
  0
LAYOUT
  5
20
102
{ACAD_REACTORS
330
1E
102
}
100
AcDbPlotSettings
  1

  2

  4

  6

 40
0.0
 41
0.0
 42
0.0
 43
0.0
 44
0.0
 45
0.0
 46
0.0
 47
0.0
 48
0.0
 49
0.0
140
0.0
141
0.0
142
1.0
143
1.0
 70
            1024
 72
               0
 73
               0
 74
               0
  7

 75
               0
147
1.0
148
0.0
149
0.0
100
AcDbLayout
  1
Model
 70
               0
 71
               0
 10
0.0
 20
0.0
 11
0.0
 21
0.0
 12
0.0
 22
0.0
 32
0.0
 14
0.0
 24
0.0
 34
0.0
 15
0.0
 25
0.0
 35
0.0
146
0.0
 13
0.0
 23
0.0
 33
0.0
 16
0.0
 26
0.0
 36
0.0
 17
0.0
 27
0.0
 37
0.0
 76
               0
330
A
331
0
345
0
346
0
  0
LAYOUT
  5
21
102
{ACAD_REACTORS
330
1E
102
}
100
AcDbPlotSettings
  1

  2

  4

  6

 40
0.0
 41
0.0
 42
0.0
 43
0.0
 44
0.0
 45
0.0
 46
0.0
 47
0.0
 48
0.0
 49
0.0
140
0.0
141
0.0
142
1.0
143
1.0
 70
               0
 72
               0
 73
               0
 74
               0
  7

 75
               0
147
1.0
148
0.0
149
0.0
100
AcDbLayout
  1
Layout1
 70
               0
 71
               0
 10
0.0
 20
0.0
 11
0.0
 21
0.0
 12
0.0
 22
0.0
 32
0.0
 14
0.0
 24
0.0
 34
0.0
 15
0.0
 25
0.0
 35
0.0
146
0.0
 13
0.0
 23
0.0
 33
0.0
 16
0.0
 26
0.0
 36
0.0
 17
0.0
 27
0.0
 37
0.0
 76
               0
330
B
331
0
345
0
346
0
  0
DICTIONARY
  5
1E
102
{ACAD_REACTORS
330
19
102
}
100
AcDbDictionary
280
               0
281
               1
  3
Layout1
350
21
  3
Model
350
20
  0
DICTIONARY
  5
22
102
{ACAD_REACTORS
330
19
102
}
100
AcDbDictionary
280
               0
281
               1
  0
WIPEOUTVARIABLES
  5
23
100
AcDbWipeoutVariables
 70
               0
  0
ENDSEC
  0
EOF
