  0
SECTION
  2
HEADER
  9
$ACADVER
  1
AC1015
  9
$ACADMAINTVER
 70
               6
  9
$DWGCODEPAGE
  3
ANSI_1252
  9
$INSBASE
 10
0.0
 20
0.0
 30
0.0
  9
$EXTMIN
 10
-28.0
 20
-16.109607999999994
 30
-0.34925
  9
$EXTMAX
 10
32.635951670669556
 20
22.0
 30
0.34925
  9
$LIMMIN
 10
0.0
 20
0.0
  9
$LIMMAX
 10
0.0
 20
0.0
  9
$ORTHOMODE
 70
               0
  9
$REGENMODE
 70
               1
  9
$FILLMODE
 70
               1
  9
$QTEXTMODE
 70
               0
  9
$MIRRTEXT
 70
               1
  9
$LTSCALE
 40
1.27
  9
$ATTMODE
 70
               1
  9
$TEXTSIZE
 40
0.2
  9
$TRACEWID
 40
1.0
  9
$TEXTSTYLE
  7
Standard
  9
$CLAYER
  8
None
  9
$CELTYPE
  6
Continuous
  9
$CECOLOR
 62
             256
  9
$CELTSCALE
 40
1.0
  9
$DISPSILH
 70
               0
  9
$DIMSCALE
 40
1.0
  9
$DIMASZ
 40
0.5612060546875
  9
$DIMEXO
 40
0.396875
  9
$DIMDLI
 40
10.16
  9
$DIMRND
 40
0.0
  9
$DIMDLE
 40
1.5874999999999999
  9
$DIMEXE
 40
0.79375
  9
$DIMTP
 40
0.0
  9
$DIMTM
 40
0.0
  9
$DIMTXT
 40
0.7579186197916666
  9
$DIMCEN
 40
0.0
  9
$DIMTSZ
 40
0.0
  9
$DIMTOL
 70
               0
  9
$DIMLIM
 70
               0
  9
$DIMTIH
 70
               0
  9
$DIMTOH
 70
               0
  9
$DIMSE1
 70
               0
  9
$DIMSE2
 70
               0
  9
$DIMTAD
 70
               1
  9
$DIMZIN
 70
              11
  9
$DIMBLK
  1
VW_SLASH
  9
$DIMASO
 70
               1
  9
$DIMSHO
 70
               1
  9
$DIMPOST
  1
<>mm
  9
$DIMAPOST
  1
[]
  9
$DIMALT
 70
               0
  9
$DIMALTD
 70
               1
  9
$DIMALTF
 40
1.0
  9
$DIMLFAC
 40
1.0
  9
$DIMTOFL
 70
               1
  9
$DIMTVP
 40
0.0
  9
$DIMTIX
 70
               1
  9
$DIMSOXD
 70
               0
  9
$DIMSAH
 70
               0
  9
$DIMBLK1
  1

  9
$DIMBLK2
  1

  9
$DIMSTYLE
  2
Arch
  9
$DIMCLRD
 70
               0
  9
$DIMCLRE
 70
               0
  9
$DIMCLRT
 70
               0
  9
$DIMTFAC
 40
1.0
  9
$DIMGAP
 40
1.5874999999999999
  9
$DIMJUST
 70
               0
  9
$DIMSD1
 70
               0
  9
$DIMSD2
 70
               0
  9
$DIMTOLJ
 70
               1
  9
$DIMTZIN
 70
              11
  9
$DIMALTZ
 70
              11
  9
$DIMALTTZ
 70
              11
  9
$DIMUPT
 70
               0
  9
$DIMDEC
 70
               1
  9
$DIMTDEC
 70
               1
  9
$DIMALTU
 70
               2
  9
$DIMALTTD
 70
               2
  9
$DIMTXSTY
  7
Arial
  9
$DIMAUNIT
 70
               0
  9
$DIMADEC
 70
               2
  9
$DIMALTRND
 40
0.0
  9
$DIMAZIN
 70
               0
  9
$DIMDSEP
 70
              46
  9
$DIMATFIT
 70
               0
  9
$DIMFRAC
 70
               2
  9
$DIMLDRBLK
  1

  9
$DIMLUNIT
 70
               2
  9
$DIMLWD
 70
              -2
  9
$DIMLWE
 70
              -2
  9
$DIMTMOVE
 70
               0
  9
$LUNITS
 70
               2
  9
$LUPREC
 70
               4
  9
$SKETCHINC
 40
0.1
  9
$FILLETRAD
 40
0.0
  9
$AUNITS
 70
               0
  9
$AUPREC
 70
               0
  9
$MENU
  1
acad
  9
$ELEVATION
 40
0.0
  9
$PELEVATION
 40
0.0
  9
$THICKNESS
 40
0.0
  9
$LIMCHECK
 70
               0
  9
$CHAMFERA
 40
0.0
  9
$CHAMFERB
 40
0.0
  9
$CHAMFERC
 40
0.0
  9
$CHAMFERD
 40
0.0
  9
$SKPOLY
 70
               0
  9
$TDCREATE
 40
2454964.533877315
  9
$TDUCREATE
 40
0.000000000
  9
$TDUPDATE
 40
2454964.533877315
  9
$TDUUPDATE
 40
0.000000000
  9
$TDINDWG
 40
0.0000000000
  9
$TDUSRTIMER
 40
0.0000000000
  9
$USRTIMER
 70
               1
  9
$ANGBASE
 50
0.0
  9
$ANGDIR
 70
               0
  9
$PDMODE
 70
               1
  9
$PDSIZE
 40
-2.0
  9
$PLINEWID
 40
0.0
  9
$SPLFRAME
 70
               0
  9
$SPLINETYPE
 70
               6
  9
$SPLINESEGS
 70
               8
  9
$HANDSEED
  5
1A4
  9
$SURFTAB1
 70
               6
  9
$SURFTAB2
 70
               6
  9
$SURFTYPE
 70
               6
  9
$SURFU
 70
               6
  9
$SURFV
 70
               6
  9
$UCSBASE
  2

  9
$UCSNAME
  2

  9
$UCSORG
 10
0.0
 20
0.0
 30
0.0
  9
$UCSXDIR
 10
1.0
 20
0.0
 30
0.0
  9
$UCSYDIR
 10
0.0
 20
1.0
 30
0.0
  9
$UCSORTHOREF
  2

  9
$UCSORTHOVIEW
 70
               0
  9
$UCSORGTOP
 10
0.0
 20
0.0
 30
0.0
  9
$UCSORGBOTTOM
 10
0.0
 20
0.0
 30
0.0
  9
$UCSORGLEFT
 10
0.0
 20
0.0
 30
0.0
  9
$UCSORGRIGHT
 10
0.0
 20
0.0
 30
0.0
  9
$UCSORGFRONT
 10
0.0
 20
0.0
 30
0.0
  9
$UCSORGBACK
 10
0.0
 20
0.0
 30
0.0
  9
$PUCSBASE
  2

  9
$PUCSNAME
  2

  9
$PUCSORG
 10
0.0
 20
0.0
 30
0.0
  9
$PUCSXDIR
 10
1.0
 20
0.0
 30
0.0
  9
$PUCSYDIR
 10
0.0
 20
1.0
 30
0.0
  9
$PUCSORTHOREF
  2

  9
$PUCSORTHOVIEW
 70
               0
  9
$PUCSORGTOP
 10
0.0
 20
0.0
 30
0.0
  9
$PUCSORGBOTTOM
 10
0.0
 20
0.0
 30
0.0
  9
$PUCSORGLEFT
 10
0.0
 20
0.0
 30
0.0
  9
$PUCSORGRIGHT
 10
0.0
 20
0.0
 30
0.0
  9
$PUCSORGFRONT
 10
0.0
 20
0.0
 30
0.0
  9
$PUCSORGBACK
 10
0.0
 20
0.0
 30
0.0
  9
$USERI1
 70
               0
  9
$USERI2
 70
               0
  9
$USERI3
 70
               0
  9
$USERI4
 70
               0
  9
$USERI5
 70
               0
  9
$USERR1
 40
0.0
  9
$USERR2
 40
0.0
  9
$USERR3
 40
0.0
  9
$USERR4
 40
0.0
  9
$USERR5
 40
0.0
  9
$WORLDVIEW
 70
               1
  9
$SHADEDGE
 70
               3
  9
$SHADEDIF
 70
              70
  9
$TILEMODE
 70
               1
  9
$MAXACTVP
 70
              64
  9
$PINSBASE
 10
0.0
 20
0.0
 30
0.0
  9
$PLIMCHECK
 70
               0
  9
$PEXTMIN
 10
1.0000000000000000E+20
 20
1.0000000000000000E+20
 30
1.0000000000000000E+20
  9
$PEXTMAX
 10
-1.0000000000000000E+20
 20
-1.0000000000000000E+20
 30
-1.0000000000000000E+20
  9
$PLIMMIN
 10
0.0
 20
0.0
  9
$PLIMMAX
 10
12.0
 20
9.0
  9
$UNITMODE
 70
               0
  9
$VISRETAIN
 70
               0
  9
$PLINEGEN
 70
               1
  9
$PSLTSCALE
 70
               0
  9
$TREEDEPTH
 70
            3020
  9
$CMLSTYLE
  2
Standard
  9
$CMLJUST
 70
               0
  9
$CMLSCALE
 40
1.0
  9
$PROXYGRAPHICS
 70
               0
  9
$MEASUREMENT
 70
               1
  9
$CELWEIGHT
370
               0
  9
$ENDCAPS
280
               0
  9
$JOINSTYLE
280
               0
  9
$LWDISPLAY
290
               1
  9
$INSUNITS
 70
               4
  9
$HYPERLINKBASE
  1

  9
$STYLESHEET
  1

  9
$XEDIT
290
               1
  9
$CEPSNTYPE
380
               0
  9
$PSTYLEMODE
290
               1
  9
$FINGERPRINTGUID
  2

  9
$VERSIONGUID
  2

  9
$EXTNAMES
290
               1
  9
$PSVPSCALE
 40
0.0
  0
ENDSEC
  0
SECTION
  2
CLASSES
  0
CLASS
  1
LWPOLYLINE
  2
AcDbPolyline
  3
AutoCAD 2000
 90
        0
280
               0
281
               1
  0
CLASS
  1
IMAGE
  2
AcDbRasterImage
  3
ISM
 90
      127
280
               0
281
               1
  0
CLASS
  1
OLE2FRAME
  2
AcDbOle2Frame
  3
AutoCAD 2000
 90
        0
280
               0
281
               1
  0
CLASS
  1
HATCH
  2
AcDbHatch
  3
AutoCAD 2000
 90
        0
280
               0
281
               1
  0
CLASS
  1
DICTIONARYVAR
  2
AcDbDictionaryVar
  3
AutoCAD 2000
 90
        0
280
               0
281
               0
  0
CLASS
  1
RASTERVARIABLES
  2
AcDbRasterVariables
  3
ISM
 90
        0
280
               0
281
               0
  0
CLASS
  1
IMAGEDEF
  2
AcDbRasterImageDef
  3
ISM
 90
        0
280
               0
281
               0
  0
CLASS
  1
IMAGEDEF_REACTOR
  2
AcDbRasterImageDefReactor
  3
ISM
 90
        1
280
               0
281
               0
  0
CLASS
  1
IDBUFFER
  2
AcDbIdBuffer
  3
AutoCAD 2000
 90
        0
280
               0
281
               0
  0
CLASS
  1
SPATIAL_FILTER
  2
AcDbSpatialFilter
  3
AutoCAD 2000
 90
        0
280
               0
281
               0
  0
CLASS
  1
XRECORD
  2
AcDbXrecord
  3
AutoCAD 2000
 90
        0
280
               0
281
               0
  0
CLASS
  1
SORTENTSTABLE
  2
AcDbSortentsTable
  3
AutoCAD 2000
 90
        0
280
               0
281
               0
  0
CLASS
  1
LAYER_INDEX
  2
AcDbLayerIndex
  3
AutoCAD 2000
 90
        0
280
               0
281
               0
  0
CLASS
  1
SPATIAL_INDEX
  2
AcDbSpatialIndex
  3
AutoCAD 2000
 90
        0
280
               0
281
               0
  0
CLASS
  1
OBJECT_PTR
  2
CAseDLPNTableRecord
  3
"ASE-LPNTableRecord"
 90
        1
280
               0
281
               0
  0
CLASS
  1
LAYOUT
  2
AcDbLayout
  3
AutoCAD 2000
 90
        0
280
               0
281
               0
  0
CLASS
  1
PLOTSETTINGS
  2
AcDbPlotSettings
  3
AutoCAD 2000
 90
        0
280
               0
281
               0
  0
CLASS
  1
ACDBDICTIONARYWDFLT
  2
AcDbDictionaryWithDefault
  3
AutoCAD 2000
 90
        0
280
               0
281
               0
  0
CLASS
  1
ACDBPLACEHOLDER
  2
AcDbPlaceHolder
  3
AutoCAD 2000
 90
        0
280
               0
281
               0
  0
CLASS
  1
VBA_PROJECT
  2
AcDbVbaProject
  3
acadvba
 90
        0
280
               0
281
               0
  0
CLASS
  1
WIPEOUT
  2
AcDbWipeout
  3
WipeOut|AutoCAD Express Tool|expresstools@autodesk.com
 90
      127
280
               0
281
               1
  0
CLASS
  1
WIPEOUTVARIABLES
  2
AcDbWipeoutVariables
  3
WipeOut|AutoCAD Express Tool|expresstools@autodesk.com
 90
        0
280
               0
281
               0
  0
CLASS
  1
RTEXT
  2
RText
  3
RText|AutoCAD Express Tool|expresstools@autodesk.com
 90
        0
280
               0
281
               1
  0
CLASS
  1
ARCALIGNEDTEXT
  2
AcDbArcAlignedText
  3
ATEXT|AutoCAD Express Tool|expresstools@autodesk.com
 90
        0
280
               0
281
               1
  0
ENDSEC
  0
SECTION
  2
TABLES
  0
TABLE
  2
VPORT
  5
7
100
AcDbSymbolTable
 70
               1
  0
VPORT
  5
15
100
AcDbSymbolTableRecord
100
AcDbViewportTableRecord
  2
*ACTIVE
 70
               0
 10
0.0
 20
0.0
 11
1.0
 21
1.0
 12
2.3179758353347779
 22
2.9451960000000028
 13
0.0
 23
0.0
 14
1.0
 24
1.0
 15
0.0
 25
0.0
 16
0.0
 26
0.0
 36
1.0
 17
0.0
 27
0.0
 37
0.0
 40
38.109607999999994
 41
0.688564
 42
50.0
 43
0.0
 44
0.0
 50
0.0
 51
0.0
 71
               0
 72
            2000
 73
               1
 74
               1
 75
               0
 76
               0
 77
               0
 78
               0
281
               0
 65
               0
110
0.0
120
0.0
130
0.0
111
1.0
121
0.0
131
0.0
112
0.0
122
1.0
132
0.0
345
0
346
0
 79
               0
146
0.0
  0
ENDTAB
  0
TABLE
  2
LTYPE
  5
4
100
AcDbSymbolTable
 70
              16
  0
LTYPE
  5
11
100
AcDbSymbolTableRecord
100
AcDbLinetypeTableRecord
  2
ByBlock
 70
              64
  3

 72
              65
 73
               0
 40
0.0
  0
LTYPE
  5
12
100
AcDbSymbolTableRecord
100
AcDbLinetypeTableRecord
  2
ByLayer
 70
              64
  3

 72
              65
 73
               0
 40
0.0
  0
LTYPE
  5
13
100
AcDbSymbolTableRecord
100
AcDbLinetypeTableRecord
  2
Continuous
 70
              64
  3
Solid line
 72
              65
 73
               0
 40
0.0
  0
LTYPE
  5
37
100
AcDbSymbolTableRecord
100
AcDbLinetypeTableRecord
  2
STYLE_01
 70
               0
  3

 72
              65
 73
               2
 40
0.41664
 49
0.20828
 74
               0
 49
-0.20836
 74
               0
  0
LTYPE
  5
38
100
AcDbSymbolTableRecord
100
AcDbLinetypeTableRecord
  2
STYLE_02
 70
               0
  3

 72
              65
 73
               2
 40
0.6944250000000001
 49
0.48607
 74
               0
 49
-0.2083550000000001
 74
               0
  0
LTYPE
  5
39
100
AcDbSymbolTableRecord
100
AcDbLinetypeTableRecord
  2
STYLE_03
 70
               0
  3

 72
              65
 73
               2
 40
1.25
 49
1.0416400000000001
 74
               0
 49
-0.2083599999999999
 74
               0
  0
LTYPE
  5
3A
100
AcDbSymbolTableRecord
100
AcDbLinetypeTableRecord
  2
STYLE_04
 70
               0
  3

 72
              65
 73
               2
 40
1.5277099999999999
 49
1.3194249999999998
 74
               0
 49
-0.208285
 74
               0
  0
LTYPE
  5
3B
100
AcDbSymbolTableRecord
100
AcDbLinetypeTableRecord
  2
STYLE_05
 70
               0
  3

 72
              65
 73
               2
 40
0.20828
 49
0.069425
 74
               0
 49
-0.138855
 74
               0
  0
LTYPE
  5
3C
100
AcDbSymbolTableRecord
100
AcDbLinetypeTableRecord
  2
STYLE_06
 70
               0
  3

 72
              65
 73
               4
 40
1.0416400000000001
 49
0.625
 74
               0
 49
-0.20828
 74
               0
 49
0.06943
 74
               0
 49
-0.13893
 74
               0
  0
LTYPE
  5
3D
100
AcDbSymbolTableRecord
100
AcDbLinetypeTableRecord
  2
STYLE_07
 70
               0
  3

 72
              65
 73
               6
 40
1.875
 49
0.625
 74
               0
 49
-0.20828
 74
               0
 49
0.6250000000000001
 74
               0
 49
-0.2083599999999999
 74
               0
 49
0.06943
 74
               0
 49
-0.1389299999999999
 74
               0
  0
LTYPE
  5
3E
100
AcDbSymbolTableRecord
100
AcDbLinetypeTableRecord
  2
STYLE_08
 70
               0
  3

 72
              65
 73
               6
 40
1.25
 49
0.625
 74
               0
 49
-0.20828
 74
               0
 49
0.06943
 74
               0
 49
-0.13893
 74
               0
 49
0.0694299999999999
 74
               0
 49
-0.13893
 74
               0
  0
LTYPE
  5
3F
100
AcDbSymbolTableRecord
100
AcDbLinetypeTableRecord
  2
STYLE_09
 70
               0
  3

 72
              65
 73
               4
 40
5.0
 49
3.75
 74
               0
 49
-0.2777849999999998
 74
               0
 49
0.6944300000000003
 74
               0
 49
-0.2777849999999998
 74
               0
  0
LTYPE
  5
40
100
AcDbSymbolTableRecord
100
AcDbLinetypeTableRecord
  2
STYLE_10
 70
               0
  3

 72
              65
 73
               6
 40
5.9375
 49
3.75
 74
               0
 49
-0.2777849999999998
 74
               0
 49
0.6944300000000003
 74
               0
 49
-0.2777849999999998
 74
               0
 49
0.625
 74
               0
 49
-0.3125
 74
               0
  0
LTYPE
  5
41
100
AcDbSymbolTableRecord
100
AcDbLinetypeTableRecord
  2
STYLE_11
 70
               0
  3

 72
              65
 73
               2
 40
0.4166412353515625
 49
0.2777862548828125
 74
               0
 49
-0.13885498046875
 74
               0
  0
LTYPE
  5
42
100
AcDbSymbolTableRecord
100
AcDbLinetypeTableRecord
  2
STYLE_12
 70
               0
  3

 72
              65
 73
               4
 40
2.1527862548828125
 49
1.180572509765625
 74
               0
 49
-0.4166412353515625
 74
               0
 49
0.069427490234375
 74
               0
 49
-0.48614501953125
 74
               0
  0
LTYPE
  5
43
100
AcDbSymbolTableRecord
100
AcDbLinetypeTableRecord
  2
STYLE_13
 70
               0
  3

 72
              65
 73
               2
 40
1.875
 49
1.25
 74
               0
 49
-0.625
 74
               0
  0
ENDTAB
  0
TABLE
  2
LAYER
  5
2
100
AcDbSymbolTable
 70
               5
  0
LAYER
  5
14
100
AcDbSymbolTableRecord
100
AcDbLayerTableRecord
  2
0
 70
               0
 62
               7
  6
Continuous
290
               1
370
              -3
390
1D
  0
LAYER
  5
44
100
AcDbSymbolTableRecord
100
AcDbLayerTableRecord
  2
Defpoints
 70
               0
 62
               7
  6
Continuous
290
               0
370
              -3
390
1D
  0
LAYER
  5
45
100
AcDbSymbolTableRecord
100
AcDbLayerTableRecord
  2
None
 70
               0
 62
               7
  6
Continuous
290
               1
370
               5
390
1D
  0
LAYER
  5
46
100
AcDbSymbolTableRecord
100
AcDbLayerTableRecord
  2
Dimension
 70
               0
 62
               7
  6
Continuous
290
               1
370
               5
390
1D
  0
LAYER
  5
47
100
AcDbSymbolTableRecord
100
AcDbLayerTableRecord
  2
OUTLINE_PHO
 70
               0
 62
               4
  6
Continuous
290
               1
370
              15
390
1D
  0
ENDTAB
  0
TABLE
  2
STYLE
  5
3
100
AcDbSymbolTable
 70
               3
  0
STYLE
  5
17
100
AcDbSymbolTableRecord
100
AcDbTextStyleTableRecord
  2
Standard
 70
               0
 40
0.0
 41
1.0
 50
0.0
 71
               0
 42
0.0
  3
txt
  4

  0
STYLE
  5
35
100
AcDbSymbolTableRecord
100
AcDbTextStyleTableRecord
  2
Arial
 70
               0
 40
0.0
 41
1.0
 50
0.0
 71
               0
 42
0.0
  3
Arial
  4

1001
ACAD
1000
Arial
1071
        0
  0
STYLE
  5
36
100
AcDbSymbolTableRecord
100
AcDbTextStyleTableRecord
  2
New Century Schlbk
 70
               0
 40
0.0
 41
1.0
 50
0.0
 71
               0
 42
0.0
  3
New Century Schlbk
  4

1001
ACAD
1000
New Century Schlbk
1071
        0
  0
ENDTAB
  0
TABLE
  2
VIEW
  5
5
100
AcDbSymbolTable
 70
               0
  0
ENDTAB
  0
TABLE
  2
UCS
  5
6
100
AcDbSymbolTable
 70
               0
  0
ENDTAB
  0
TABLE
  2
APPID
  5
8
100
AcDbSymbolTable
 70
               1
  0
APPID
  5
16
100
AcDbSymbolTableRecord
100
AcDbRegAppTableRecord
  2
ACAD
 70
               0
  0
ENDTAB
  0
TABLE
  2
DIMSTYLE
  5
9
100
AcDbSymbolTable
 70
               3
100
AcDbDimStyleTable
 71
               0
  0
DIMSTYLE
105
18
100
AcDbSymbolTableRecord
100
AcDbDimStyleTableRecord
  2
Standard
 70
               0
  3

  4

 40
1.0
 41
0.18
 42
0.0625
 43
0.38
 44
0.18
 45
0.0
 46
0.0
 47
0.0
 48
0.0
 71
               0
 72
               0
 73
               1
 74
               1
 75
               0
 76
               0
 77
               0
 78
               0
 79
               0
140
0.18
141
0.09
142
0.0
143
25.399999999999999
144
1.0
145
0.0
146
1.0
147
0.09
148
0.0
170
               0
171
               2
172
               0
173
               0
174
               0
175
               0
176
               0
177
               0
178
               0
179
               0
271
               4
272
               4
273
               2
274
               2
275
               0
276
               0
277
               2
278
              46
279
               0
280
               0
281
               0
282
               0
283
               1
284
               0
285
               0
286
               0
288
               0
289
               3
340
17
341
0
342
0
343
0
344
0
371
              -2
372
              -2
  0
DIMSTYLE
105
50
100
AcDbSymbolTableRecord
100
AcDbDimStyleTableRecord
  2
IE Standard
 70
               0
  3
<>mm
  4
[]
 40
1.0
 41
0.79375
 42
0.4762500011827797
 43
6.9999859934672708
 44
0.9525000023655593
 45
0.0
 46
0.0
 47
0.0
 48
0.0
 71
               0
 72
               0
 73
               1
 74
               1
 75
               0
 76
               0
 77
               0
 78
              11
 79
               0
140
0.7579186197916666
141
0.0
142
0.0
143
1.0
144
1.0
145
0.0
146
1.0
147
0.0
148
0.0
170
               0
171
               1
172
               1
173
               0
174
               1
175
               0
176
               0
177
               0
178
               0
179
               2
271
               1
272
               1
273
               2
274
               2
275
               0
276
               2
277
               2
278
              46
279
               0
280
               0
281
               0
282
               0
283
               1
284
              11
285
              11
286
              11
288
               0
289
               0
340
35
341
4C
342
48
343
0
344
0
371
              -2
372
              -2
  0
DIMSTYLE
105
56
100
AcDbSymbolTableRecord
100
AcDbDimStyleTableRecord
  2
Arch
 70
               0
  3
<>mm
  4
[]
 40
1.0
 41
0.5612060546875
 42
0.396875
 43
10.16
 44
0.79375
 45
0.0
 46
1.5874999999999999
 47
0.0
 48
0.0
 71
               0
 72
               0
 73
               0
 74
               0
 75
               0
 76
               0
 77
               1
 78
              11
 79
               0
140
0.7579186197916666
141
0.0
142
0.0
143
1.0
144
1.0
145
0.0
146
1.0
147
1.5874999999999999
148
0.0
170
               0
171
               1
172
               1
173
               0
174
               1
175
               0
176
               0
177
               0
178
               0
179
               2
271
               1
272
               1
273
               2
274
               2
275
               0
276
               2
277
               2
278
              46
279
               0
280
               0
281
               0
282
               0
283
               1
284
              11
285
              11
286
              11
288
               0
289
               0
340
35
341
48
342
51
343
0
344
0
371
              -2
372
              -2
  0
ENDTAB
  0
TABLE
  2
BLOCK_RECORD
  5
1
100
AcDbSymbolTable
 70
              20
  0
BLOCK_RECORD
  5
A
100
AcDbSymbolTableRecord
100
AcDbBlockTableRecord
  2
*MODEL_SPACE
340
20
  0
BLOCK_RECORD
  5
B
100
AcDbSymbolTableRecord
100
AcDbBlockTableRecord
  2
*PAPER_SPACE
340
21
  0
BLOCK_RECORD
  5
48
100
AcDbSymbolTableRecord
100
AcDbBlockTableRecord
  2
VW_FILLEDARROW
340
0
  0
BLOCK_RECORD
  5
4C
100
AcDbSymbolTableRecord
100
AcDbBlockTableRecord
  2
VW_FILLEDARROW-1
340
0
  0
BLOCK_RECORD
  5
51
100
AcDbSymbolTableRecord
100
AcDbBlockTableRecord
  2
VW_SLASH
340
0
  0
BLOCK_RECORD
  5
24
100
AcDbSymbolTableRecord
100
AcDbBlockTableRecord
  2
*D3
340
0
  0
BLOCK_RECORD
  5
25
100
AcDbSymbolTableRecord
100
AcDbBlockTableRecord
  2
*D4
340
0
  0
BLOCK_RECORD
  5
26
100
AcDbSymbolTableRecord
100
AcDbBlockTableRecord
  2
*D5
340
0
  0
BLOCK_RECORD
  5
27
100
AcDbSymbolTableRecord
100
AcDbBlockTableRecord
  2
*D6
340
0
  0
BLOCK_RECORD
  5
28
100
AcDbSymbolTableRecord
100
AcDbBlockTableRecord
  2
*D7
340
0
  0
BLOCK_RECORD
  5
29
100
AcDbSymbolTableRecord
100
AcDbBlockTableRecord
  2
*D8
340
0
  0
BLOCK_RECORD
  5
2A
100
AcDbSymbolTableRecord
100
AcDbBlockTableRecord
  2
*D9
340
0
  0
BLOCK_RECORD
  5
2B
100
AcDbSymbolTableRecord
100
AcDbBlockTableRecord
  2
*D10
340
0
  0
BLOCK_RECORD
  5
2C
100
AcDbSymbolTableRecord
100
AcDbBlockTableRecord
  2
*D11
340
0
  0
BLOCK_RECORD
  5
2D
100
AcDbSymbolTableRecord
100
AcDbBlockTableRecord
  2
*D12
340
0
  0
BLOCK_RECORD
  5
2E
100
AcDbSymbolTableRecord
100
AcDbBlockTableRecord
  2
*D13
340
0
  0
BLOCK_RECORD
  5
2F
100
AcDbSymbolTableRecord
100
AcDbBlockTableRecord
  2
*D14
340
0
  0
BLOCK_RECORD
  5
30
100
AcDbSymbolTableRecord
100
AcDbBlockTableRecord
  2
*D15
340
0
  0
BLOCK_RECORD
  5
31
100
AcDbSymbolTableRecord
100
AcDbBlockTableRecord
  2
*D16
340
0
  0
BLOCK_RECORD
  5
32
100
AcDbSymbolTableRecord
100
AcDbBlockTableRecord
  2
Group
340
0
102
{BLKREFS
331
198
102
}
  0
BLOCK_RECORD
  5
33
100
AcDbSymbolTableRecord
100
AcDbBlockTableRecord
  2
*D18
340
0
  0
BLOCK_RECORD
  5
34
100
AcDbSymbolTableRecord
100
AcDbBlockTableRecord
  2
*D19
340
0
  0
ENDTAB
  0
ENDSEC
  0
SECTION
  2
BLOCKS
  0
BLOCK
  5
D
100
AcDbEntity
  8
0
390
0
100
AcDbBlockBegin
  2
*MODEL_SPACE
 70
               0
 10
0.0
 20
0.0
 30
0.0
  3
*MODEL_SPACE
  1

  0
ENDBLK
  5
E
100
AcDbEntity
  8
0
390
0
100
AcDbBlockEnd
  0
BLOCK
  5
F
100
AcDbEntity
 67
               1
  8
0
390
0
100
AcDbBlockBegin
  2
*PAPER_SPACE
 70
               0
 10
0.0
 20
0.0
 30
0.0
  3
*PAPER_SPACE
  1

  0
ENDBLK
  5
10
100
AcDbEntity
 67
               1
  8
0
390
0
100
AcDbBlockEnd
  0
BLOCK
  5
49
100
AcDbEntity
  8
0
370
              -2
390
0
  6
ByBlock
 62
               0
100
AcDbBlockBegin
  2
VW_FILLEDARROW
 70
               0
 10
0.0
 20
0.0
 30
0.0
  3
VW_FILLEDARROW
  1

  0
SOLID
  5
4A
100
AcDbEntity
  8
0
370
              -2
390
0
 62
               0
100
AcDbTrace
 10
0.0
 20
0.0
 30
0.0
 11
-0.9999389648437499
 21
-0.2679328381102956
 31
0.0
 12
-0.9999389648437499
 22
0.2679328381102958
 32
0.0
 13
-0.9999389648437499
 23
0.2679328381102958
 33
0.0
  0
ENDBLK
  5
4B
100
AcDbEntity
  8
0
390
0
100
AcDbBlockEnd
  0
BLOCK
  5
4D
100
AcDbEntity
  8
0
370
              -2
390
0
  6
ByBlock
 62
               0
100
AcDbBlockBegin
  2
VW_FILLEDARROW-1
 70
               0
 10
0.0
 20
0.0
 30
0.0
  3
VW_FILLEDARROW
  1

  0
SOLID
  5
4E
100
AcDbEntity
  8
0
370
              -2
390
0
 62
               0
100
AcDbTrace
 10
0.0
 20
0.0
 30
0.0
 11
-0.6662384033203125
 21
-0.1785180421362784
 31
0.0
 12
-0.6662384033203125
 22
0.1785180421362785
 32
0.0
 13
-0.6662384033203125
 23
0.1785180421362785
 33
0.0
  0
ENDBLK
  5
4F
100
AcDbEntity
  8
0
390
0
100
AcDbBlockEnd
  0
BLOCK
  5
52
100
AcDbEntity
  8
0
370
              -2
390
0
  6
ByBlock
 62
               0
100
AcDbBlockBegin
  2
VW_SLASH
 70
               0
 10
0.0
 20
0.0
 30
0.0
  3
VW_SLASH
  1

  0
LINE
  5
53
100
AcDbEntity
  8
0
370
              -2
390
0
  6
ByBlock
 62
               0
100
AcDbLine
 10
0.0
 20
0.0
 30
0.0
 11
-1.0
 21
0.0
 31
0.0
  0
LINE
  5
54
100
AcDbEntity
  8
0
370
              20
390
0
  6
ByBlock
 62
               0
100
AcDbLine
 10
-0.5000145658230796
 20
-0.5000145658230795
 30
0.0
 11
0.5000145658230796
 21
0.5000145658230795
 31
0.0
  0
ENDBLK
  5
55
100
AcDbEntity
  8
0
390
0
100
AcDbBlockEnd
  0
BLOCK
  5
57
100
AcDbEntity
  8
Dimension
390
0
100
AcDbBlockBegin
  2
*D3
 70
               1
 10
0.0
 20
0.0
 30
0.0
  3
*D3
  1

  0
LINE
  5
58
100
AcDbEntity
  8
Dimension
370
              -2
390
0
  6
Continuous
 62
               0
100
AcDbLine
 10
-6.7542700000000053
 20
-1.0883600011827639
 30
0.0
 11
-6.7542700000000053
 21
-12.064610002365541
 31
0.0
  0
LINE
  5
59
100
AcDbEntity
  8
Dimension
370
              -2
390
0
  6
Continuous
 62
               0
100
AcDbLine
 10
5.4707300000000032
 20
-1.0883600011827639
 30
0.0
 11
5.4707300000000032
 21
-12.064610002365548
 31
0.0
  0
LINE
  5
5A
100
AcDbEntity
  8
Dimension
370
              -2
390
0
  6
Continuous
 62
               0
100
AcDbLine
 10
5.4707300000000032
 20
-11.112109999999987
 30
0.0
 11
-6.7542700000000053
 21
-11.112109999999987
 31
0.0
  0
LINE
  5
5B
100
AcDbEntity
  8
Dimension
370
              -2
390
0
  6
Continuous
 62
               0
100
AcDbLine
 10
-6.7542700000000053
 20
-11.112109999999987
 30
0.0
 11
-8.5042664983668175
 21
-11.112109999999987
 31
0.0
  0
SOLID
  5
5C
100
AcDbEntity
  8
Dimension
370
              -2
390
0
 62
               0
100
AcDbTrace
 10
-6.7542700000000053
 20
-11.112109999999987
 30
0.0
 11
-7.5480200000000055
 21
-11.324794671492191
 31
0.0
 12
-7.5480200000000055
 22
-10.899425328507784
 32
0.0
 13
-7.5480200000000055
 23
-10.899425328507784
 33
0.0
  0
LINE
  5
5D
100
AcDbEntity
  8
Dimension
370
              -2
390
0
  6
Continuous
 62
               0
100
AcDbLine
 10
5.4707300000000032
 20
-11.112109999999987
 30
0.0
 11
7.2207264983668153
 21
-11.112109999999987
 31
0.0
  0
SOLID
  5
5E
100
AcDbEntity
  8
Dimension
370
              -2
390
0
 62
               0
100
AcDbTrace
 10
5.4707300000000032
 20
-11.112109999999987
 30
0.0
 11
6.2644800000000034
 21
-10.899425328507784
 31
0.0
 12
6.2644800000000034
 22
-11.324794671492191
 32
0.0
 13
6.2644800000000034
 23
-11.324794671492191
 33
0.0
  0
WIPEOUT
  5
5F
100
AcDbEntity
  8
Dimension
370
              -2
390
0
  6
Continuous
 62
               0
 92
        0
100
AcDbWipeout
 90
        0
 10
-6.858680550991707
 20
-11.720647833333327
 30
0.0
 11
5.0376507600148521
 21
0.0
 31
0.0
 12
0.0
 22
5.0376507600148521
 32
0.0
 13
1.0
 23
1.0
340
0
 70
               7
280
               1
281
              50
282
              50
283
               0
360
0
 71
               2
 91
        5
 14
-0.5
 24
0.5
 14
0.5
 24
0.5
 14
0.5
 24
0.2584033594269222
 14
-0.5
 24
0.2584033594269222
 14
-0.5
 24
0.5
  0
MTEXT
  5
60
100
AcDbEntity
  8
Dimension
390
0
 62
               0
100
AcDbMText
 10
-6.858680550991707
 20
-10.698146713541661
 30
0.0
 40
0.7579186197916666
 41
0.0
 71
               1
 72
               1
  1
12.225mm
  7
Arial
 73
               1
 44
0.9673603504928806
  0
WIPEOUT
  5
61
100
AcDbEntity
  8
Dimension
370
              -2
390
0
  6
Continuous
 62
               0
 92
        0
100
AcDbWipeout
 90
        0
 10
-1.8210297909768514
 20
-11.72064949999999
 30
0.0
 11
5.0270675208833486
 21
0.0
 31
0.0
 12
0.0
 22
5.0270675208833486
 32
0.0
 13
1.0
 23
1.0
340
0
 70
               7
280
               1
281
              50
282
              50
283
               0
360
0
 71
               2
 91
        5
 14
-0.5
 24
0.5
 14
0.5
 24
0.5
 14
0.5
 24
0.2578947378478542
 14
-0.5
 24
0.2578947378478542
 14
-0.5
 24
0.5
  0
MTEXT
  5
62
100
AcDbEntity
  8
Dimension
390
0
 62
               0
100
AcDbMText
 10
-1.8210297909768514
 20
-10.698148380208323
 30
0.0
 40
0.7579186197916666
 41
0.0
 71
               1
 72
               1
  1
±0.125mm
  7
Arial
 73
               1
 44
0.9673603504928806
  0
WIPEOUT
  5
63
100
AcDbEntity
  8
Dimension
370
              -2
390
0
  6
Continuous
 62
               0
 92
        0
100
AcDbWipeout
 90
        0
 10
3.2060377299064982
 20
-11.72065166666666
 30
0.0
 11
2.10608325931761
 21
0.0
 31
0.0
 12
0.0
 22
2.10608325931761
 32
0.0
 13
1.0
 23
1.0
340
0
 70
               7
280
               1
281
              50
282
              50
283
               0
360
0
 71
               2
 91
        5
 14
-0.5
 24
0.5
 14
0.5
 24
0.5
 14
0.5
 24
-0.0778894675453995
 14
-0.5
 24
-0.0778894675453995
 14
-0.5
 24
0.5
  0
MTEXT
  5
64
100
AcDbEntity
  8
Dimension
390
0
 62
               0
100
AcDbMText
 10
3.2060377299064982
 20
-10.698147326388883
 30
0.0
 40
0.7579210069444442
 41
0.0
 71
               1
 72
               1
  1
 (x4)
  7
Arial
 73
               1
 44
0.9673603504928806
  0
POINT
  5
65
100
AcDbEntity
  8
Defpoints
370
               0
390
0
 62
               0
100
AcDbPoint
 10
5.4707300000000032
 20
-0.6121099999999871
 30
0.0
  0
POINT
  5
66
100
AcDbEntity
  8
Defpoints
370
               0
390
0
 62
               0
100
AcDbPoint
 10
-6.7542700000000053
 20
-0.6121099999999871
 30
0.0
  0
POINT
  5
67
100
AcDbEntity
  8
Defpoints
370
               0
390
0
 62
               0
100
AcDbPoint
 10
-6.7542700000000053
 20
-11.112109999999985
 30
0.0
  0
ENDBLK
  5
68
100
AcDbEntity
  8
Dimension
390
0
100
AcDbBlockEnd
  0
BLOCK
  5
69
100
AcDbEntity
  8
Dimension
390
0
100
AcDbBlockBegin
  2
*D4
 70
               1
 10
0.0
 20
0.0
 30
0.0
  3
*D4
  1

  0
LINE
  5
6A
100
AcDbEntity
  8
Dimension
370
              -2
390
0
  6
Continuous
 62
               0
100
AcDbLine
 10
4.69698000118278
 20
10.362890000000007
 30
0.0
 11
10.496730002365567
 21
10.362890000000007
 31
0.0
  0
LINE
  5
6B
100
AcDbEntity
  8
Dimension
370
              -2
390
0
  6
Continuous
 62
               0
100
AcDbLine
 10
4.69698000118278
 20
8.3628900000000073
 30
0.0
 11
10.496730002365553
 21
8.3628900000000073
 31
0.0
  0
LINE
  5
6C
100
AcDbEntity
  8
Dimension
370
              -2
390
0
  6
Continuous
 62
               0
100
AcDbLine
 10
9.5442299999999989
 20
8.3628900000000073
 30
0.0
 11
9.5442299999999989
 21
10.362890000000007
 31
0.0
  0
LINE
  5
6D
100
AcDbEntity
  8
Dimension
370
              -2
390
0
  6
Continuous
 62
               0
100
AcDbLine
 10
9.5442299999999989
 20
10.362890000000007
 30
0.0
 11
9.5442299999999989
 21
12.112886498366819
 31
0.0
  0
SOLID
  5
6E
100
AcDbEntity
  8
Dimension
370
              -2
390
0
 62
               0
100
AcDbTrace
 10
9.5442299999999989
 20
10.362890000000007
 30
0.0
 11
9.3315453285077954
 21
11.156640000000007
 31
0.0
 12
9.7569146714922024
 22
11.156640000000007
 32
0.0
 13
9.7569146714922024
 23
11.156640000000007
 33
0.0
  0
LINE
  5
6F
100
AcDbEntity
  8
Dimension
370
              -2
390
0
  6
Continuous
 62
               0
100
AcDbLine
 10
9.5442299999999989
 20
8.3628900000000073
 30
0.0
 11
9.5442299999999989
 21
6.6128935016331951
 31
0.0
  0
SOLID
  5
70
100
AcDbEntity
  8
Dimension
370
              -2
390
0
 62
               0
100
AcDbTrace
 10
9.5442299999999989
 20
8.3628900000000073
 30
0.0
 11
9.7569146714922024
 21
7.5691400000000071
 31
0.0
 12
9.3315453285077954
 22
7.5691400000000071
 32
0.0
 13
9.3315453285077954
 23
7.5691400000000071
 33
0.0
  0
WIPEOUT
  5
71
100
AcDbEntity
  8
Dimension
370
              -2
390
0
  6
Continuous
 62
               0
 92
        0
100
AcDbWipeout
 90
        0
 10
8.358900404460698
 20
8.7543502499999981
 30
0.0
 11
2.3706591910786088
 21
0.0
 31
0.0
 12
0.0
 22
2.3706591910786088
 32
0.0
 13
1.0
 23
1.0
340
0
 70
               7
280
               1
281
              50
282
              50
283
               0
360
0
 71
               2
 91
        5
 14
-0.5
 24
0.5
 14
0.5
 24
0.5
 14
0.5
 24
-0.0133928590748847
 14
-0.5
 24
-0.0133928590748847
 14
-0.5
 24
0.5
  0
MTEXT
  5
72
100
AcDbEntity
  8
Dimension
390
0
 62
               0
100
AcDbMText
 10
8.358900404460698
 20
9.7768513697916646
 30
0.0
 40
0.7579186197916666
 41
0.0
 71
               1
 72
               1
  1
2mm
  7
Arial
 73
               1
 44
0.9673603504928806
  0
POINT
  5
73
100
AcDbEntity
  8
Defpoints
370
               0
390
0
 62
               0
100
AcDbPoint
 10
4.2207300000000032
 20
8.3628900000000073
 30
0.0
  0
POINT
  5
74
100
AcDbEntity
  8
Defpoints
370
               0
390
0
 62
               0
100
AcDbPoint
 10
4.2207300000000032
 20
10.362890000000007
 30
0.0
  0
POINT
  5
75
100
AcDbEntity
  8
Defpoints
370
               0
390
0
 62
               0
100
AcDbPoint
 10
9.5442300000000024
 20
10.362890000000007
 30
0.0
  0
ENDBLK
  5
76
100
AcDbEntity
  8
Dimension
390
0
100
AcDbBlockEnd
  0
BLOCK
  5
77
100
AcDbEntity
  8
Dimension
390
0
100
AcDbBlockBegin
  2
*D5
 70
               1
 10
0.0
 20
0.0
 30
0.0
  3
*D5
  1

  0
LINE
  5
78
100
AcDbEntity
  8
Dimension
370
              -2
390
0
  6
Continuous
 62
               0
100
AcDbLine
 10
-6.7542700000000053
 20
12.089140001182784
 30
0.0
 11
-6.7542700000000053
 21
17.623880002365567
 31
0.0
  0
LINE
  5
79
100
AcDbEntity
  8
Dimension
370
              -2
390
0
  6
Continuous
 62
               0
100
AcDbLine
 10
-5.5042700000000053
 20
10.839140001182784
 30
0.0
 11
-5.5042700000000053
 21
17.623880002365567
 31
0.0
  0
LINE
  5
7A
100
AcDbEntity
  8
Dimension
370
              -2
390
0
  6
Continuous
 62
               0
100
AcDbLine
 10
-5.5042700000000053
 20
16.671380000000013
 30
0.0
 11
-6.7542700000000053
 21
16.671380000000013
 31
0.0
  0
LINE
  5
7B
100
AcDbEntity
  8
Dimension
370
              -2
390
0
  6
Continuous
 62
               0
100
AcDbLine
 10
-6.7542700000000053
 20
16.671380000000013
 30
0.0
 11
-9.8175400000000081
 21
16.671380000000013
 31
0.0
  0
SOLID
  5
7C
100
AcDbEntity
  8
Dimension
370
              -2
390
0
 62
               0
100
AcDbTrace
 10
-6.7542700000000053
 20
16.671380000000013
 30
0.0
 11
-7.5480200000000055
 21
16.458695328507808
 31
0.0
 12
-7.5480200000000055
 22
16.884064671492219
 32
0.0
 13
-7.5480200000000055
 23
16.884064671492219
 33
0.0
  0
LINE
  5
7D
100
AcDbEntity
  8
Dimension
370
              -2
390
0
  6
Continuous
 62
               0
100
AcDbLine
 10
-5.5042700000000053
 20
16.671380000000013
 30
0.0
 11
-3.7542735016331932
 21
16.671380000000013
 31
0.0
  0
SOLID
  5
7E
100
AcDbEntity
  8
Dimension
370
              -2
390
0
 62
               0
100
AcDbTrace
 10
-5.5042700000000053
 20
16.671380000000013
 30
0.0
 11
-4.7105200000000051
 21
16.884064671492219
 31
0.0
 12
-4.7105200000000051
 22
16.458695328507808
 32
0.0
 13
-4.7105200000000051
 23
16.458695328507808
 33
0.0
  0
WIPEOUT
  5
7F
100
AcDbEntity
  8
Dimension
370
              -2
390
0
  6
Continuous
 62
               0
 92
        0
100
AcDbWipeout
 90
        0
 10
-20.803012028785275
 20
16.06284216666668
 30
0.0
 11
3.8523212485843246
 21
0.0
 31
0.0
 12
0.0
 22
3.8523212485843246
 32
0.0
 13
1.0
 23
1.0
340
0
 70
               7
280
               1
281
              50
282
              50
283
               0
360
0
 71
               2
 91
        5
 14
-0.5
 24
0.5
 14
0.5
 24
0.5
 14
0.5
 24
0.1840659380504
 14
-0.5
 24
0.1840659380504
 14
-0.5
 24
0.5
  0
MTEXT
  5
80
100
AcDbEntity
  8
Dimension
390
0
 62
               0
100
AcDbMText
 10
-20.803012028785275
 20
17.085343286458347
 30
0.0
 40
0.7579186197916666
 41
0.0
 71
               1
 72
               1
  1
1.25mm
  7
Arial
 73
               1
 44
0.9673603504928806
  0
WIPEOUT
  5
81
100
AcDbEntity
  8
Dimension
370
              -2
390
0
  6
Continuous
 62
               0
 92
        0
100
AcDbWipeout
 90
        0
 10
-16.950690780200958
 20
16.062840500000018
 30
0.0
 11
5.0270675208833495
 21
0.0
 31
0.0
 12
0.0
 22
5.0270675208833495
 32
0.0
 13
1.0
 23
1.0
340
0
 70
               7
280
               1
281
              50
282
              50
283
               0
360
0
 71
               2
 91
        5
 14
-0.5
 24
0.5
 14
0.5
 24
0.5
 14
0.5
 24
0.2578947378478543
 14
-0.5
 24
0.2578947378478543
 14
-0.5
 24
0.5
  0
MTEXT
  5
82
100
AcDbEntity
  8
Dimension
390
0
 62
               0
100
AcDbMText
 10
-16.950690780200958
 20
17.085341619791684
 30
0.0
 40
0.7579186197916666
 41
0.0
 71
               1
 72
               1
  1
±0.125mm
  7
Arial
 73
               1
 44
0.9673603504928806
  0
WIPEOUT
  5
83
100
AcDbEntity
  8
Dimension
370
              -2
390
0
  6
Continuous
 62
               0
 92
        0
100
AcDbWipeout
 90
        0
 10
-11.923623259317608
 20
16.06283833333335
 30
0.0
 11
2.1060832593176109
 21
0.0
 31
0.0
 12
0.0
 22
2.1060832593176109
 32
0.0
 13
1.0
 23
1.0
340
0
 70
               7
280
               1
281
              50
282
              50
283
               0
360
0
 71
               2
 91
        5
 14
-0.5
 24
0.5
 14
0.5
 24
0.5
 14
0.5
 24
-0.0778894675453984
 14
-0.5
 24
-0.0778894675453984
 14
-0.5
 24
0.5
  0
MTEXT
  5
84
100
AcDbEntity
  8
Dimension
390
0
 62
               0
100
AcDbMText
 10
-11.923623259317608
 20
17.085342673611127
 30
0.0
 40
0.7579210069444442
 41
0.0
 71
               1
 72
               1
  1
 (x4)
  7
Arial
 73
               1
 44
0.9673603504928806
  0
POINT
  5
85
100
AcDbEntity
  8
Defpoints
370
               0
390
0
 62
               0
100
AcDbPoint
 10
-5.5042700000000053
 20
10.362890000000007
 30
0.0
  0
POINT
  5
86
100
AcDbEntity
  8
Defpoints
370
               0
390
0
 62
               0
100
AcDbPoint
 10
-6.7542700000000053
 20
11.612890000000007
 30
0.0
  0
POINT
  5
87
100
AcDbEntity
  8
Defpoints
370
               0
390
0
 62
               0
100
AcDbPoint
 10
-6.7542700000000053
 20
16.671380000000006
 30
0.0
  0
ENDBLK
  5
88
100
AcDbEntity
  8
Dimension
390
0
100
AcDbBlockEnd
  0
BLOCK
  5
89
100
AcDbEntity
  8
Dimension
390
0
100
AcDbBlockBegin
  2
*D6
 70
               1
 10
0.0
 20
0.0
 30
0.0
  3
*D6
  1

  0
LINE
  5
8A
100
AcDbEntity
  8
Dimension
370
              -2
390
0
  6
Continuous
 62
               0
100
AcDbLine
 10
-7.2305200011827822
 20
11.612890000000007
 30
0.0
 11
-15.931770002365568
 21
11.612890000000007
 31
0.0
  0
LINE
  5
8B
100
AcDbEntity
  8
Dimension
370
              -2
390
0
  6
Continuous
 62
               0
100
AcDbLine
 10
-5.9805200011827822
 20
10.362890000000007
 30
0.0
 11
-15.931770002365553
 21
10.362890000000007
 31
0.0
  0
LINE
  5
8C
100
AcDbEntity
  8
Dimension
370
              -2
390
0
  6
Continuous
 62
               0
100
AcDbLine
 10
-14.97927
 20
10.362890000000007
 30
0.0
 11
-14.97927
 21
11.612890000000007
 31
0.0
  0
LINE
  5
8D
100
AcDbEntity
  8
Dimension
370
              -2
390
0
  6
Continuous
 62
               0
100
AcDbLine
 10
-14.97927
 20
11.612890000000007
 30
0.0
 11
-14.97927
 21
13.821380000000005
 31
0.0
  0
SOLID
  5
8E
100
AcDbEntity
  8
Dimension
370
              -2
390
0
 62
               0
100
AcDbTrace
 10
-14.97927
 20
11.612890000000007
 30
0.0
 11
-15.191954671492203
 21
12.406640000000007
 31
0.0
 12
-14.766585328507796
 22
12.406640000000007
 32
0.0
 13
-14.766585328507796
 23
12.406640000000007
 33
0.0
  0
LINE
  5
8F
100
AcDbEntity
  8
Dimension
370
              -2
390
0
  6
Continuous
 62
               0
100
AcDbLine
 10
-14.97927
 20
10.362890000000007
 30
0.0
 11
-14.97927
 21
8.6128935016331951
 31
0.0
  0
SOLID
  5
90
100
AcDbEntity
  8
Dimension
370
              -2
390
0
 62
               0
100
AcDbTrace
 10
-14.97927
 20
10.362890000000007
 30
0.0
 11
-14.766585328507796
 21
9.569140000000008
 31
0.0
 12
-15.191954671492203
 22
9.569140000000008
 32
0.0
 13
-15.191954671492203
 23
9.569140000000008
 33
0.0
  0
WIPEOUT
  5
91
100
AcDbEntity
  8
Dimension
370
              -2
390
0
  6
Continuous
 62
               0
 92
        0
100
AcDbWipeout
 90
        0
 10
-20.472006014392633
 20
13.212842166666672
 30
0.0
 11
3.8523212485843246
 21
0.0
 31
0.0
 12
0.0
 22
3.8523212485843246
 32
0.0
 13
1.0
 23
1.0
340
0
 70
               7
280
               1
281
              50
282
              50
283
               0
360
0
 71
               2
 91
        5
 14
-0.5
 24
0.5
 14
0.5
 24
0.5
 14
0.5
 24
0.1840659380504
 14
-0.5
 24
0.1840659380504
 14
-0.5
 24
0.5
  0
MTEXT
  5
92
100
AcDbEntity
  8
Dimension
390
0
 62
               0
100
AcDbMText
 10
-20.472006014392633
 20
14.235343286458338
 30
0.0
 40
0.7579186197916666
 41
0.0
 71
               1
 72
               1
  1
1.25mm
  7
Arial
 73
               1
 44
0.9673603504928806
  0
WIPEOUT
  5
93
100
AcDbEntity
  8
Dimension
370
              -2
390
0
  6
Continuous
 62
               0
 92
        0
100
AcDbWipeout
 90
        0
 10
-16.619684765808316
 20
13.212840500000009
 30
0.0
 11
5.0270675208833495
 21
0.0
 31
0.0
 12
0.0
 22
5.0270675208833495
 32
0.0
 13
1.0
 23
1.0
340
0
 70
               7
280
               1
281
              50
282
              50
283
               0
360
0
 71
               2
 91
        5
 14
-0.5
 24
0.5
 14
0.5
 24
0.5
 14
0.5
 24
0.2578947378478543
 14
-0.5
 24
0.2578947378478543
 14
-0.5
 24
0.5
  0
MTEXT
  5
94
100
AcDbEntity
  8
Dimension
390
0
 62
               0
100
AcDbMText
 10
-16.619684765808316
 20
14.235341619791676
 30
0.0
 40
0.7579186197916666
 41
0.0
 71
               1
 72
               1
  1
±0.125mm
  7
Arial
 73
               1
 44
0.9673603504928806
  0
WIPEOUT
  5
95
100
AcDbEntity
  8
Dimension
370
              -2
390
0
  6
Continuous
 62
               0
 92
        0
100
AcDbWipeout
 90
        0
 10
-11.592617244924966
 20
13.212838333333339
 30
0.0
 11
2.1060832593176109
 21
0.0
 31
0.0
 12
0.0
 22
2.1060832593176109
 32
0.0
 13
1.0
 23
1.0
340
0
 70
               7
280
               1
281
              50
282
              50
283
               0
360
0
 71
               2
 91
        5
 14
-0.5
 24
0.5
 14
0.5
 24
0.5
 14
0.5
 24
-0.0778894675453992
 14
-0.5
 24
-0.0778894675453992
 14
-0.5
 24
0.5
  0
MTEXT
  5
96
100
AcDbEntity
  8
Dimension
390
0
 62
               0
100
AcDbMText
 10
-11.592617244924966
 20
14.235342673611116
 30
0.0
 40
0.7579210069444442
 41
0.0
 71
               1
 72
               1
  1
 (x4)
  7
Arial
 73
               1
 44
0.9673603504928806
  0
POINT
  5
97
100
AcDbEntity
  8
Defpoints
370
               0
390
0
 62
               0
100
AcDbPoint
 10
-5.5042700000000053
 20
10.362890000000007
 30
0.0
  0
POINT
  5
98
100
AcDbEntity
  8
Defpoints
370
               0
390
0
 62
               0
100
AcDbPoint
 10
-6.7542700000000053
 20
11.612890000000007
 30
0.0
  0
POINT
  5
99
100
AcDbEntity
  8
Defpoints
370
               0
390
0
 62
               0
100
AcDbPoint
 10
-14.979270000000005
 20
11.612890000000007
 30
0.0
  0
ENDBLK
  5
9A
100
AcDbEntity
  8
Dimension
390
0
100
AcDbBlockEnd
  0
BLOCK
  5
9B
100
AcDbEntity
  8
Dimension
390
0
100
AcDbBlockBegin
  2
*D7
 70
               1
 10
0.0
 20
0.0
 30
0.0
  3
*D7
  1

  0
LINE
  5
9C
100
AcDbEntity
  8
Dimension
370
              -2
390
0
  6
Continuous
 62
               0
100
AcDbLine
 10
-5.5042700000000053
 20
0.1616399988172361
 30
0.0
 11
-5.5042700000000053
 21
-9.6646100023655492
 31
0.0
  0
LINE
  5
9D
100
AcDbEntity
  8
Dimension
370
              -2
390
0
  6
Continuous
 62
               0
100
AcDbLine
 10
4.2207300000000032
 20
0.1616399988172361
 30
0.0
 11
4.2207300000000032
 21
-9.6646100023655492
 31
0.0
  0
LINE
  5
9E
100
AcDbEntity
  8
Dimension
370
              -2
390
0
  6
Continuous
 62
               0
100
AcDbLine
 10
4.2207300000000032
 20
-8.7121099999999885
 30
0.0
 11
-5.5042700000000053
 21
-8.7121099999999885
 31
0.0
  0
LINE
  5
9F
100
AcDbEntity
  8
Dimension
370
              -2
390
0
  6
Continuous
 62
               0
100
AcDbLine
 10
-5.5042700000000053
 20
-8.7121099999999885
 30
0.0
 11
-7.2542664983668175
 21
-8.7121099999999885
 31
0.0
  0
SOLID
  5
A0
100
AcDbEntity
  8
Dimension
370
              -2
390
0
 62
               0
100
AcDbTrace
 10
-5.5042700000000053
 20
-8.7121099999999885
 30
0.0
 11
-6.2980200000000055
 21
-8.924794671492192
 31
0.0
 12
-6.2980200000000055
 22
-8.499425328507785
 32
0.0
 13
-6.2980200000000055
 23
-8.499425328507785
 33
0.0
  0
LINE
  5
A1
100
AcDbEntity
  8
Dimension
370
              -2
390
0
  6
Continuous
 62
               0
100
AcDbLine
 10
4.2207300000000032
 20
-8.7121099999999885
 30
0.0
 11
5.9707264983668153
 21
-8.7121099999999885
 31
0.0
  0
SOLID
  5
A2
100
AcDbEntity
  8
Dimension
370
              -2
390
0
 62
               0
100
AcDbTrace
 10
4.2207300000000032
 20
-8.7121099999999885
 30
0.0
 11
5.0144800000000034
 21
-8.499425328507785
 31
0.0
 12
5.0144800000000034
 22
-8.924794671492192
 32
0.0
 13
5.0144800000000034
 23
-8.924794671492192
 33
0.0
  0
WIPEOUT
  5
A3
100
AcDbEntity
  8
Dimension
370
              -2
390
0
  6
Continuous
 62
               0
 92
        0
100
AcDbWipeout
 90
        0
 10
-3.6322410186852352
 20
-9.3206497499999905
 30
0.0
 11
6.5510630395677349
 21
0.0
 31
0.0
 12
0.0
 22
6.5510630395677349
 32
0.0
 13
1.0
 23
1.0
340
0
 70
               7
280
               1
281
              50
282
              50
283
               0
360
0
 71
               2
 91
        5
 14
-0.5
 24
0.5
 14
0.5
 24
0.5
 14
0.5
 24
0.3142164878205311
 14
-0.5
 24
0.3142164878205311
 14
-0.5
 24
0.5
  0
MTEXT
  5
A4
100
AcDbEntity
  8
Dimension
390
0
 62
               0
100
AcDbMText
 10
-3.6322410186852352
 20
-8.2981486302083241
 30
0.0
 40
0.7579186197916666
 41
0.0
 71
               1
 72
               1
  1
9.725mm (x4)
  7
Arial
 73
               1
 44
0.9673603504928806
  0
POINT
  5
A5
100
AcDbEntity
  8
Defpoints
370
               0
390
0
 62
               0
100
AcDbPoint
 10
4.2207300000000032
 20
0.637890000000013
 30
0.0
  0
POINT
  5
A6
100
AcDbEntity
  8
Defpoints
370
               0
390
0
 62
               0
100
AcDbPoint
 10
-5.5042700000000053
 20
0.637890000000013
 30
0.0
  0
POINT
  5
A7
100
AcDbEntity
  8
Defpoints
370
               0
390
0
 62
               0
100
AcDbPoint
 10
-5.5042700000000053
 20
-8.7121099999999867
 30
0.0
  0
ENDBLK
  5
A8
100
AcDbEntity
  8
Dimension
390
0
100
AcDbBlockEnd
  0
BLOCK
  5
A9
100
AcDbEntity
  8
Dimension
390
0
100
AcDbBlockBegin
  2
*D8
 70
               1
 10
0.0
 20
0.0
 30
0.0
  3
*D8
  1

  0
LINE
  5
AA
100
AcDbEntity
  8
Dimension
370
              -2
390
0
  6
Continuous
 62
               0
100
AcDbLine
 10
4.5837499999999949
 20
8.5838900000000109
 30
0.0
 11
11.810333301782094
 21
13.010648346385665
 31
0.0
  0
SOLID
  5
AB
100
AcDbEntity
  8
Dimension
370
              -2
390
0
 62
               0
100
AcDbTrace
 10
4.5837499999999949
 20
8.5838900000000109
 30
0.0
 11
4.9642143179633589
 21
8.9778723345667277
 31
0.0
 12
5.1102329318731465
 22
8.7348565513954064
 32
0.0
 13
5.1102329318731465
 23
8.7348565513954064
 33
0.0
  0
LINE
  5
AC
100
AcDbEntity
  8
Dimension
370
              -2
390
0
  6
Continuous
 62
               0
100
AcDbLine
 10
11.810333301782094
 20
13.010648346385665
 30
0.0
 11
13.310330303761589
 21
13.010648346385665
 31
0.0
  0
WIPEOUT
  5
AD
100
AcDbEntity
  8
Dimension
370
              -2
390
0
  6
Continuous
 62
               0
 92
        0
100
AcDbWipeout
 90
        0
 10
11.087837301611799
 20
12.402110263052332
 30
0.0
 11
4.9741509887907256
 21
0.0
 31
0.0
 12
0.0
 22
4.9741509887907256
 32
0.0
 13
1.0
 23
1.0
340
0
 70
               7
280
               1
281
              50
282
              50
283
               0
360
0
 71
               2
 91
        5
 14
-0.5
 24
0.5
 14
0.5
 24
0.5
 14
0.5
 24
0.2553191483847805
 14
-0.5
 24
0.2553191483847805
 14
-0.5
 24
0.5
  0
MTEXT
  5
AE
100
AcDbEntity
  8
Dimension
390
0
 62
               0
100
AcDbMText
 10
11.087837301611799
 20
13.424611382843999
 30
0.0
 40
0.7579186197916666
 41
0.0
 71
               1
 72
               1
  1
Ø 0.85mm
  7
Arial
 73
               1
 44
0.9673603504928806
  0
WIPEOUT
  5
AF
100
AcDbEntity
  8
Dimension
370
              -2
390
0
  6
Continuous
 62
               0
 92
        0
100
AcDbWipeout
 90
        0
 10
16.061988290402518
 20
12.96434651305233
 30
0.0
 11
1.2170795000000005
 21
0.0
 31
0.0
 12
0.0
 22
1.2170795000000005
 32
0.0
 13
1.0
 23
1.0
340
0
 70
               7
280
               1
281
              50
282
              50
283
               0
360
0
 71
               2
 91
        5
 14
-0.5
 24
0.5
 14
0.0043478278911342
 24
0.5
 14
0.0043478278911342
 24
-0.5
 14
-0.5
 24
-0.5
 14
-0.5
 24
0.5
  0
MTEXT
  5
B0
100
AcDbEntity
  8
Dimension
390
0
 62
               0
100
AcDbMText
 10
16.368903991500432
 20
13.986847632843997
 30
0.0
 40
0.7579186197916666
 41
0.0
 71
               2
 72
               1
  1
+
  7
Arial
 73
               1
 44
0.9673603504928806
  0
WIPEOUT
  5
B1
100
AcDbEntity
  8
Dimension
370
              -2
390
0
  6
Continuous
 62
               0
 92
        0
100
AcDbWipeout
 90
        0
 10
16.194279536525304
 20
11.839870679718995
 30
0.0
 11
1.2170795000000005
 21
0.0
 31
0.0
 12
0.0
 22
1.2170795000000005
 32
0.0
 13
1.0
 23
1.0
340
0
 70
               7
280
               1
281
              50
282
              50
283
               0
360
0
 71
               2
 91
        5
 14
-0.5
 24
0.5
 14
-0.2130434700853521
 24
0.5
 14
-0.2130434700853521
 24
-0.5
 14
-0.5
 24
-0.5
 14
-0.5
 24
0.5
  0
MTEXT
  5
B2
100
AcDbEntity
  8
Dimension
390
0
 62
               0
100
AcDbMText
 10
16.368903991500432
 20
12.862371799510662
 30
0.0
 40
0.7579186197916666
 41
0.0
 71
               2
 72
               1
  1
-
  7
Arial
 73
               1
 44
0.9673603504928806
  0
WIPEOUT
  5
B3
100
AcDbEntity
  8
Dimension
370
              -2
390
0
  6
Continuous
 62
               0
 92
        0
100
AcDbWipeout
 90
        0
 10
16.675819692598353
 20
12.96434651305233
 30
0.0
 11
4.4449860042995866
 21
0.0
 31
0.0
 12
0.0
 22
4.4449860042995866
 32
0.0
 13
1.0
 23
1.0
340
0
 70
               7
280
               1
281
              50
282
              50
283
               0
360
0
 71
               2
 91
        5
 14
-0.5
 24
0.5
 14
0.5
 24
0.5
 14
0.5
 24
0.226190476455329
 14
-0.5
 24
0.226190476455329
 14
-0.5
 24
0.5
  0
MTEXT
  5
B4
100
AcDbEntity
  8
Dimension
390
0
 62
               0
100
AcDbMText
 10
16.675819692598353
 20
13.986847632843997
 30
0.0
 40
0.7579186197916666
 41
0.0
 71
               1
 72
               1
  1
0.025mm
  7
Arial
 73
               1
 44
0.9673603504928806
  0
WIPEOUT
  5
B5
100
AcDbEntity
  8
Dimension
370
              -2
390
0
  6
Continuous
 62
               0
 92
        0
100
AcDbWipeout
 90
        0
 10
16.675819692598353
 20
11.839870679718995
 30
0.0
 11
4.4449860042995866
 21
0.0
 31
0.0
 12
0.0
 22
4.4449860042995866
 32
0.0
 13
1.0
 23
1.0
340
0
 70
               7
280
               1
281
              50
282
              50
283
               0
360
0
 71
               2
 91
        5
 14
-0.5
 24
0.5
 14
0.5
 24
0.5
 14
0.5
 24
0.226190476455329
 14
-0.5
 24
0.226190476455329
 14
-0.5
 24
0.5
  0
MTEXT
  5
B6
100
AcDbEntity
  8
Dimension
390
0
 62
               0
100
AcDbMText
 10
16.675819692598353
 20
12.862371799510662
 30
0.0
 40
0.7579186197916666
 41
0.0
 71
               1
 72
               1
  1
0.025mm
  7
Arial
 73
               1
 44
0.9673603504928806
  0
WIPEOUT
  5
B7
100
AcDbEntity
  8
Dimension
370
              -2
390
0
  6
Continuous
 62
               0
 92
        0
100
AcDbWipeout
 90
        0
 10
21.120805696897932
 20
12.402106429719
 30
0.0
 11
2.1060832593176109
 21
0.0
 31
0.0
 12
0.0
 22
2.1060832593176109
 32
0.0
 13
1.0
 23
1.0
340
0
 70
               7
280
               1
281
              50
282
              50
283
               0
360
0
 71
               2
 91
        5
 14
-0.5
 24
0.5
 14
0.5
 24
0.5
 14
0.5
 24
-0.0778894675453992
 14
-0.5
 24
-0.0778894675453992
 14
-0.5
 24
0.5
  0
MTEXT
  5
B8
100
AcDbEntity
  8
Dimension
390
0
 62
               0
100
AcDbMText
 10
21.120805696897932
 20
13.424610769996777
 30
0.0
 40
0.7579210069444442
 41
0.0
 71
               1
 72
               1
  1
 (x2)
  7
Arial
 73
               1
 44
0.9673603504928806
  0
POINT
  5
B9
100
AcDbEntity
  8
Defpoints
370
               0
390
0
 62
               0
100
AcDbPoint
 10
3.8589300000000009
 20
8.1398900000000083
 30
0.0
  0
POINT
  5
BA
100
AcDbEntity
  8
Defpoints
370
               0
390
0
 62
               0
100
AcDbPoint
 10
4.5837499999999949
 20
8.5838900000000109
 30
0.0
  0
ENDBLK
  5
BB
100
AcDbEntity
  8
Dimension
390
0
100
AcDbBlockEnd
  0
BLOCK
  5
BC
100
AcDbEntity
  8
Dimension
390
0
100
AcDbBlockBegin
  2
*D9
 70
               1
 10
0.0
 20
0.0
 30
0.0
  3
*D9
  1

  0
LINE
  5
BD
100
AcDbEntity
  8
Dimension
370
              -2
390
0
  6
Continuous
 62
               0
100
AcDbLine
 10
4.9043999999999954
 20
0.2128900000000016
 30
0.0
 11
7.8643961637070419
 21
-1.6574695107385935
 31
0.0
  0
SOLID
  5
BE
100
AcDbEntity
  8
Dimension
370
              -2
390
0
 62
               0
100
AcDbTrace
 10
4.9043999999999954
 20
0.2128900000000016
 30
0.0
 11
5.4252935560335311
 21
0.0436414240039067
 31
0.0
 12
5.270882764194603
 22
-0.1941303443837257
 32
0.0
 13
5.270882764194603
 23
-0.1941303443837257
 33
0.0
  0
LINE
  5
BF
100
AcDbEntity
  8
Dimension
370
              -2
390
0
  6
Continuous
 62
               0
100
AcDbLine
 10
7.8643961637070419
 20
-1.6574695107385935
 30
0.0
 11
9.3643931656865362
 21
-1.6574695107385935
 31
0.0
  0
WIPEOUT
  5
C0
100
AcDbEntity
  8
Dimension
370
              -2
390
0
  6
Continuous
 62
               0
 92
        0
100
AcDbWipeout
 90
        0
 10
7.4382325413943704
 20
-2.2660075940719251
 30
0.0
 11
4.9741509887907238
 21
0.0
 31
0.0
 12
0.0
 22
4.9741509887907238
 32
0.0
 13
1.0
 23
1.0
340
0
 70
               7
280
               1
281
              50
282
              50
283
               0
360
0
 71
               2
 91
        5
 14
-0.5
 24
0.5
 14
0.5
 24
0.5
 14
0.5
 24
0.2553191483847807
 14
-0.5
 24
0.2553191483847807
 14
-0.5
 24
0.5
  0
MTEXT
  5
C1
100
AcDbEntity
  8
Dimension
390
0
 62
               0
100
AcDbMText
 10
7.4382325413943704
 20
-1.2435064742802588
 30
0.0
 40
0.7579186197916666
 41
0.0
 71
               1
 72
               1
  1
Ø 1.61mm
  7
Arial
 73
               1
 44
0.9673603504928806
  0
WIPEOUT
  5
C2
100
AcDbEntity
  8
Dimension
370
              -2
390
0
  6
Continuous
 62
               0
 92
        0
100
AcDbWipeout
 90
        0
 10
12.412383530185091
 20
-1.7037713440719273
 30
0.0
 11
1.2170794999999999
 21
0.0
 31
0.0
 12
0.0
 22
1.2170794999999999
 32
0.0
 13
1.0
 23
1.0
340
0
 70
               7
280
               1
281
              50
282
              50
283
               0
360
0
 71
               2
 91
        5
 14
-0.5
 24
0.5
 14
0.0043478278911316
 24
0.5
 14
0.0043478278911316
 24
-0.5
 14
-0.5
 24
-0.5
 14
-0.5
 24
0.5
  0
MTEXT
  5
C3
100
AcDbEntity
  8
Dimension
390
0
 62
               0
100
AcDbMText
 10
12.719299231283003
 20
-0.6812702242802609
 30
0.0
 40
0.7579186197916666
 41
0.0
 71
               2
 72
               1
  1
+
  7
Arial
 73
               1
 44
0.9673603504928806
  0
WIPEOUT
  5
C4
100
AcDbEntity
  8
Dimension
370
              -2
390
0
  6
Continuous
 62
               0
 92
        0
100
AcDbWipeout
 90
        0
 10
12.544674776307875
 20
-2.8282471774052622
 30
0.0
 11
1.2170794999999996
 21
0.0
 31
0.0
 12
0.0
 22
1.2170794999999996
 32
0.0
 13
1.0
 23
1.0
340
0
 70
               7
280
               1
281
              50
282
              50
283
               0
360
0
 71
               2
 91
        5
 14
-0.5
 24
0.5
 14
-0.2130434700853519
 24
0.5
 14
-0.2130434700853519
 24
-0.5
 14
-0.5
 24
-0.5
 14
-0.5
 24
0.5
  0
MTEXT
  5
C5
100
AcDbEntity
  8
Dimension
390
0
 62
               0
100
AcDbMText
 10
12.719299231283003
 20
-1.805746057613596
 30
0.0
 40
0.7579186197916666
 41
0.0
 71
               2
 72
               1
  1
-
  7
Arial
 73
               1
 44
0.9673603504928806
  0
WIPEOUT
  5
C6
100
AcDbEntity
  8
Dimension
370
              -2
390
0
  6
Continuous
 62
               0
 92
        0
100
AcDbWipeout
 90
        0
 10
13.026214932380924
 20
-1.7037713440719273
 30
0.0
 11
3.8523212485843246
 21
0.0
 31
0.0
 12
0.0
 22
3.8523212485843246
 32
0.0
 13
1.0
 23
1.0
340
0
 70
               7
280
               1
281
              50
282
              50
283
               0
360
0
 71
               2
 91
        5
 14
-0.5
 24
0.5
 14
0.5
 24
0.5
 14
0.5
 24
0.1840659380504002
 14
-0.5
 24
0.1840659380504002
 14
-0.5
 24
0.5
  0
MTEXT
  5
C7
100
AcDbEntity
  8
Dimension
390
0
 62
               0
100
AcDbMText
 10
13.026214932380924
 20
-0.6812702242802609
 30
0.0
 40
0.7579186197916666
 41
0.0
 71
               1
 72
               1
  1
0.05mm
  7
Arial
 73
               1
 44
0.9673603504928806
  0
WIPEOUT
  5
C8
100
AcDbEntity
  8
Dimension
370
              -2
390
0
  6
Continuous
 62
               0
 92
        0
100
AcDbWipeout
 90
        0
 10
13.026214932380924
 20
-2.8282471774052622
 30
0.0
 11
3.8523212485843246
 21
0.0
 31
0.0
 12
0.0
 22
3.8523212485843246
 32
0.0
 13
1.0
 23
1.0
340
0
 70
               7
280
               1
281
              50
282
              50
283
               0
360
0
 71
               2
 91
        5
 14
-0.5
 24
0.5
 14
0.5
 24
0.5
 14
0.5
 24
0.1840659380504002
 14
-0.5
 24
0.1840659380504002
 14
-0.5
 24
0.5
  0
MTEXT
  5
C9
100
AcDbEntity
  8
Dimension
390
0
 62
               0
100
AcDbMText
 10
13.026214932380924
 20
-1.805746057613596
 30
0.0
 40
0.7579186197916666
 41
0.0
 71
               1
 72
               1
  1
0.05mm
  7
Arial
 73
               1
 44
0.9673603504928806
  0
WIPEOUT
  5
CA
100
AcDbEntity
  8
Dimension
370
              -2
390
0
  6
Continuous
 62
               0
 92
        0
100
AcDbWipeout
 90
        0
 10
16.878536180965241
 20
-2.2660114274052585
 30
0.0
 11
1.8097500403722115
 21
0.0
 31
0.0
 12
0.0
 22
1.8097500403722115
 32
0.0
 13
1.0
 23
1.0
340
0
 70
               7
280
               1
281
              50
282
              50
283
               0
360
0
 71
               2
 91
        5
 14
-0.5
 24
0.5
 14
0.5
 24
0.5
 14
0.5
 24
-0.1725146048804703
 14
-0.5
 24
-0.1725146048804703
 14
-0.5
 24
0.5
  0
MTEXT
  5
CB
100
AcDbEntity
  8
Dimension
390
0
 62
               0
100
AcDbMText
 10
16.878536180965241
 20
-1.2435070871274809
 30
0.0
 40
0.7579210069444442
 41
0.0
 71
               1
 72
               1
  1
(x4)
  7
Arial
 73
               1
 44
0.9673603504928806
  0
POINT
  5
CC
100
AcDbEntity
  8
Defpoints
370
               0
390
0
 62
               0
100
AcDbPoint
 10
3.5433799999999991
 20
1.072890000000001
 30
0.0
  0
POINT
  5
CD
100
AcDbEntity
  8
Defpoints
370
               0
390
0
 62
               0
100
AcDbPoint
 10
4.9043999999999954
 20
0.2128900000000016
 30
0.0
  0
ENDBLK
  5
CE
100
AcDbEntity
  8
Dimension
390
0
100
AcDbBlockEnd
  0
BLOCK
  5
CF
100
AcDbEntity
  8
Dimension
390
0
100
AcDbBlockBegin
  2
*D10
 70
               1
 10
0.0
 20
0.0
 30
0.0
  3
*D10
  1

  0
LINE
  5
D0
100
AcDbEntity
  8
Dimension
370
              -2
390
0
  6
Continuous
 62
               0
100
AcDbLine
 10
2.7882299999999987
 20
5.2903900000000021
 30
0.0
 11
8.4294961120238838
 21
3.0551713530124971
 31
0.0
  0
SOLID
  5
D1
100
AcDbEntity
  8
Dimension
370
              -2
390
0
 62
               0
100
AcDbTrace
 10
2.7882299999999987
 20
5.2903900000000021
 30
0.0
 11
3.3318474250399621
 21
5.2236421731673026
 31
0.0
 12
3.22564258660814
 22
4.9607759737954984
 32
0.0
 13
3.22564258660814
 23
4.9607759737954984
 33
0.0
  0
LINE
  5
D2
100
AcDbEntity
  8
Dimension
370
              -2
390
0
  6
Continuous
 62
               0
100
AcDbLine
 10
8.4294961120238838
 20
3.0551713530124971
 30
0.0
 11
9.9294931140033782
 21
3.0551713530124971
 31
0.0
  0
WIPEOUT
  5
D3
100
AcDbEntity
  8
Dimension
370
              -2
390
0
  6
Continuous
 62
               0
 92
        0
100
AcDbWipeout
 90
        0
 10
9.9294931140033782
 20
2.4466316030124888
 30
0.0
 11
5.2599001275168522
 21
0.0
 31
0.0
 12
0.0
 22
5.2599001275168522
 32
0.0
 13
1.0
 23
1.0
340
0
 70
               7
280
               1
281
              50
282
              50
283
               0
360
0
 71
               2
 91
        5
 14
-0.5
 24
0.5
 14
0.5
 24
0.5
 14
0.5
 24
0.268611671230615
 14
-0.5
 24
0.268611671230615
 14
-0.5
 24
0.5
  0
MTEXT
  5
D4
100
AcDbEntity
  8
Dimension
390
0
 62
               0
100
AcDbMText
 10
9.9294931140033782
 20
3.4691327228041553
 30
0.0
 40
0.7579186197916666
 41
0.0
 71
               1
 72
               1
  1
1.06 x 0.42
  7
Arial
 73
               1
 44
0.9673603504928806
  0
POINT
  5
D5
100
AcDbEntity
  8
Defpoints
370
               0
390
0
 62
               0
100
AcDbPoint
 10
1.7282299999999964
 20
5.7103900000000039
 30
0.0
  0
POINT
  5
D6
100
AcDbEntity
  8
Defpoints
370
               0
390
0
 62
               0
100
AcDbPoint
 10
2.7882299999999987
 20
5.2903900000000021
 30
0.0
  0
ENDBLK
  5
D7
100
AcDbEntity
  8
Dimension
390
0
100
AcDbBlockEnd
  0
BLOCK
  5
D8
100
AcDbEntity
  8
Dimension
390
0
100
AcDbBlockBegin
  2
*D11
 70
               1
 10
0.0
 20
0.0
 30
0.0
  3
*D11
  1

  0
LINE
  5
D9
100
AcDbEntity
  8
Dimension
370
              -2
390
0
  6
Continuous
 62
               0
100
AcDbLine
 10
-5.5042700000000053
 20
10.839140001182784
 30
0.0
 11
-5.5042700000000053
 21
18.442890002365573
 31
0.0
  0
LINE
  5
DA
100
AcDbEntity
  8
Dimension
370
              -2
390
0
  6
Continuous
 62
               0
100
AcDbLine
 10
-2.2017699999999962
 20
9.1566400011827795
 30
0.0
 11
-2.2017699999999962
 21
18.442890002365559
 31
0.0
  0
LINE
  5
DB
100
AcDbEntity
  8
Dimension
370
              -2
390
0
  6
Continuous
 62
               0
100
AcDbLine
 10
-2.2017699999999962
 20
17.490390000000005
 30
0.0
 11
-5.5042700000000053
 21
17.490390000000005
 31
0.0
  0
LINE
  5
DC
100
AcDbEntity
  8
Dimension
370
              -2
390
0
  6
Continuous
 62
               0
100
AcDbLine
 10
-5.5042700000000053
 20
17.490390000000005
 30
0.0
 11
-7.2542664983668175
 21
17.490390000000005
 31
0.0
  0
SOLID
  5
DD
100
AcDbEntity
  8
Dimension
370
              -2
390
0
 62
               0
100
AcDbTrace
 10
-5.5042700000000053
 20
17.490390000000005
 30
0.0
 11
-6.2980200000000055
 21
17.2777053285078
 31
0.0
 12
-6.2980200000000055
 22
17.70307467149221
 32
0.0
 13
-6.2980200000000055
 23
17.70307467149221
 33
0.0
  0
LINE
  5
DE
100
AcDbEntity
  8
Dimension
370
              -2
390
0
  6
Continuous
 62
               0
100
AcDbLine
 10
-2.2017699999999962
 20
17.490390000000005
 30
0.0
 11
-0.0116000000000014
 21
17.490390000000005
 31
0.0
  0
SOLID
  5
DF
100
AcDbEntity
  8
Dimension
370
              -2
390
0
 62
               0
100
AcDbTrace
 10
-2.2017699999999962
 20
17.490390000000005
 30
0.0
 11
-1.4080199999999963
 21
17.70307467149221
 31
0.0
 12
-1.4080199999999963
 22
17.2777053285078
 32
0.0
 13
-1.4080199999999963
 23
17.2777053285078
 33
0.0
  0
WIPEOUT
  5
E0
100
AcDbEntity
  8
Dimension
370
              -2
390
0
  6
Continuous
 62
               0
 92
        0
100
AcDbWipeout
 90
        0
 10
-0.0115999999999872
 20
16.881850249999996
 30
0.0
 11
3.2596564928690595
 21
0.0
 31
0.0
 12
0.0
 22
3.2596564928690595
 32
0.0
 13
1.0
 23
1.0
340
0
 70
               7
280
               1
281
              50
282
              50
283
               0
360
0
 71
               2
 91
        5
 14
-0.5
 24
0.5
 14
0.5
 24
0.5
 14
0.5
 24
0.1266233872610421
 14
-0.5
 24
0.1266233872610421
 14
-0.5
 24
0.5
  0
MTEXT
  5
E1
100
AcDbEntity
  8
Dimension
390
0
 62
               0
100
AcDbMText
 10
-0.0115999999999872
 20
17.904351369791662
 30
0.0
 40
0.7579186197916666
 41
0.0
 71
               1
 72
               1
  1
3.3mm
  7
Arial
 73
               1
 44
0.9673603504928806
  0
POINT
  5
E2
100
AcDbEntity
  8
Defpoints
370
               0
390
0
 62
               0
100
AcDbPoint
 10
-2.2017699999999962
 20
8.6803900000000027
 30
0.0
  0
POINT
  5
E3
100
AcDbEntity
  8
Defpoints
370
               0
390
0
 62
               0
100
AcDbPoint
 10
-5.5042700000000053
 20
10.362890000000007
 30
0.0
  0
POINT
  5
E4
100
AcDbEntity
  8
Defpoints
370
               0
390
0
 62
               0
100
AcDbPoint
 10
-5.5042700000000053
 20
17.490390000000005
 30
0.0
  0
ENDBLK
  5
E5
100
AcDbEntity
  8
Dimension
390
0
100
AcDbBlockEnd
  0
BLOCK
  5
E6
100
AcDbEntity
  8
Dimension
390
0
100
AcDbBlockBegin
  2
*D12
 70
               1
 10
0.0
 20
0.0
 30
0.0
  3
*D12
  1

  0
LINE
  5
E7
100
AcDbEntity
  8
Dimension
370
              -2
390
0
  6
Continuous
 62
               0
100
AcDbLine
 10
-5.9805200011827822
 20
10.362890000000007
 30
0.0
 11
-10.484270002365562
 21
10.362890000000007
 31
0.0
  0
LINE
  5
E8
100
AcDbEntity
  8
Dimension
370
              -2
390
0
  6
Continuous
 62
               0
100
AcDbLine
 10
-2.6780200011827731
 20
8.6803900000000027
 30
0.0
 11
-10.484270002365562
 21
8.6803900000000027
 31
0.0
  0
LINE
  5
E9
100
AcDbEntity
  8
Dimension
370
              -2
390
0
  6
Continuous
 62
               0
100
AcDbLine
 10
-9.5317700000000087
 20
8.6803900000000027
 30
0.0
 11
-9.5317700000000087
 21
10.362890000000007
 31
0.0
  0
LINE
  5
EA
100
AcDbEntity
  8
Dimension
370
              -2
390
0
  6
Continuous
 62
               0
100
AcDbLine
 10
-9.5317700000000087
 20
10.362890000000007
 30
0.0
 11
-9.5317700000000087
 21
12.112886498366819
 31
0.0
  0
SOLID
  5
EB
100
AcDbEntity
  8
Dimension
370
              -2
390
0
 62
               0
100
AcDbTrace
 10
-9.5317700000000087
 20
10.362890000000007
 30
0.0
 11
-9.7444546714922122
 21
11.156640000000007
 31
0.0
 12
-9.3190853285078052
 22
11.156640000000007
 32
0.0
 13
-9.3190853285078052
 23
11.156640000000007
 33
0.0
  0
LINE
  5
EC
100
AcDbEntity
  8
Dimension
370
              -2
390
0
  6
Continuous
 62
               0
100
AcDbLine
 10
-9.5317700000000087
 20
8.6803900000000027
 30
0.0
 11
-9.5317700000000087
 21
6.9303935016331906
 31
0.0
  0
SOLID
  5
ED
100
AcDbEntity
  8
Dimension
370
              -2
390
0
 62
               0
100
AcDbTrace
 10
-9.5317700000000087
 20
8.6803900000000027
 30
0.0
 11
-9.3190853285078052
 21
7.8866400000000025
 31
0.0
 12
-9.7444546714922122
 22
7.8866400000000025
 32
0.0
 13
-9.7444546714922122
 23
7.8866400000000025
 33
0.0
  0
WIPEOUT
  5
EE
100
AcDbEntity
  8
Dimension
370
              -2
390
0
  6
Continuous
 62
               0
 92
        0
100
AcDbWipeout
 90
        0
 10
-11.457930624292175
 20
8.8890190579834005
 30
0.0
 11
3.8523212485843228
 21
0.0
 31
0.0
 12
0.0
 22
3.8523212485843228
 32
0.0
 13
1.0
 23
1.0
340
0
 70
               7
280
               1
281
              50
282
              50
283
               0
360
0
 71
               2
 91
        5
 14
-0.5
 24
0.5
 14
0.5
 24
0.5
 14
0.5
 24
0.1840659380503998
 14
-0.5
 24
0.1840659380503998
 14
-0.5
 24
0.5
  0
MTEXT
  5
EF
100
AcDbEntity
  8
Dimension
390
0
 62
               0
100
AcDbMText
 10
-11.457930624292175
 20
9.911520177775067
 30
0.0
 40
0.7579186197916666
 41
0.0
 71
               1
 72
               1
  1
1.68mm
  7
Arial
 73
               1
 44
0.9673603504928806
  0
POINT
  5
F0
100
AcDbEntity
  8
Defpoints
370
               0
390
0
 62
               0
100
AcDbPoint
 10
-2.2017699999999962
 20
8.6803900000000027
 30
0.0
  0
POINT
  5
F1
100
AcDbEntity
  8
Defpoints
370
               0
390
0
 62
               0
100
AcDbPoint
 10
-5.5042700000000053
 20
10.362890000000007
 30
0.0
  0
POINT
  5
F2
100
AcDbEntity
  8
Defpoints
370
               0
390
0
 62
               0
100
AcDbPoint
 10
-9.5317700000000052
 20
10.362890000000007
 30
0.0
  0
ENDBLK
  5
F3
100
AcDbEntity
  8
Dimension
390
0
100
AcDbBlockEnd
  0
BLOCK
  5
F4
100
AcDbEntity
  8
Dimension
390
0
100
AcDbBlockBegin
  2
*D13
 70
               1
 10
0.0
 20
0.0
 30
0.0
  3
*D13
  1

  0
LINE
  5
F5
100
AcDbEntity
  8
Dimension
370
              -2
390
0
  6
Continuous
 62
               0
100
AcDbLine
 10
-2.6780200011827731
 20
8.6803900000000027
 30
0.0
 11
-18.604270002365553
 21
8.6803900000000027
 31
0.0
  0
LINE
  5
F6
100
AcDbEntity
  8
Dimension
370
              -2
390
0
  6
Continuous
 62
               0
100
AcDbLine
 10
-2.7180200011827793
 20
2.3203900000000033
 30
0.0
 11
-18.604270002365553
 21
2.3203900000000033
 31
0.0
  0
LINE
  5
F7
100
AcDbEntity
  8
Dimension
370
              -2
390
0
  6
Continuous
 62
               0
100
AcDbLine
 10
-17.651769999999999
 20
8.6803900000000027
 30
0.0
 11
-17.651769999999999
 21
2.3203900000000033
 31
0.0
  0
SOLID
  5
F8
100
AcDbEntity
  8
Dimension
370
              -2
390
0
 62
               0
100
AcDbTrace
 10
-17.651769999999999
 20
8.6803900000000027
 30
0.0
 11
-17.439085328507797
 21
7.8866400000000025
 31
0.0
 12
-17.864454671492204
 22
7.8866400000000025
 32
0.0
 13
-17.864454671492204
 23
7.8866400000000025
 33
0.0
  0
SOLID
  5
F9
100
AcDbEntity
  8
Dimension
370
              -2
390
0
 62
               0
100
AcDbTrace
 10
-17.651769999999999
 20
2.3203900000000033
 30
0.0
 11
-17.864454671492204
 21
3.1141400000000035
 31
0.0
 12
-17.439085328507794
 22
3.1141400000000035
 32
0.0
 13
-17.439085328507794
 23
3.1141400000000035
 33
0.0
  0
WIPEOUT
  5
FA
100
AcDbEntity
  8
Dimension
370
              -2
390
0
  6
Continuous
 62
               0
 92
        0
100
AcDbWipeout
 90
        0
 10
-19.577930624292165
 20
4.8918502500000018
 30
0.0
 11
3.8523212485843228
 21
0.0
 31
0.0
 12
0.0
 22
3.8523212485843228
 32
0.0
 13
1.0
 23
1.0
340
0
 70
               7
280
               1
281
              50
282
              50
283
               0
360
0
 71
               2
 91
        5
 14
-0.5
 24
0.5
 14
0.5
 24
0.5
 14
0.5
 24
0.1840659380504001
 14
-0.5
 24
0.1840659380504001
 14
-0.5
 24
0.5
  0
MTEXT
  5
FB
100
AcDbEntity
  8
Dimension
390
0
 62
               0
100
AcDbMText
 10
-19.577930624292165
 20
5.9143513697916683
 30
0.0
 40
0.7579186197916666
 41
0.0
 71
               1
 72
               1
  1
6.36mm
  7
Arial
 73
               1
 44
0.9673603504928806
  0
POINT
  5
FC
100
AcDbEntity
  8
Defpoints
370
               0
390
0
 62
               0
100
AcDbPoint
 10
-2.2417700000000025
 20
2.3203900000000033
 30
0.0
  0
POINT
  5
FD
100
AcDbEntity
  8
Defpoints
370
               0
390
0
 62
               0
100
AcDbPoint
 10
-2.2017699999999962
 20
8.6803900000000027
 30
0.0
  0
POINT
  5
FE
100
AcDbEntity
  8
Defpoints
370
               0
390
0
 62
               0
100
AcDbPoint
 10
-17.651769999999996
 20
8.6803900000000027
 30
0.0
  0
ENDBLK
  5
FF
100
AcDbEntity
  8
Dimension
390
0
100
AcDbBlockEnd
  0
BLOCK
  5
100
100
AcDbEntity
  8
Dimension
390
0
100
AcDbBlockBegin
  2
*D14
 70
               1
 10
0.0
 20
0.0
 30
0.0
  3
*D14
  1

  0
LINE
  5
101
100
AcDbEntity
  8
Dimension
370
              -2
390
0
  6
Continuous
 62
               0
100
AcDbLine
 10
-4.0480200011827776
 20
7.3103900000000124
 30
0.0
 11
-13.654270002365564
 21
7.3103900000000124
 31
0.0
  0
LINE
  5
102
100
AcDbEntity
  8
Dimension
370
              -2
390
0
  6
Continuous
 62
               0
100
AcDbLine
 10
-4.0480200011827776
 20
3.6903900000000078
 30
0.0
 11
-13.65427000236555
 21
3.6903900000000078
 31
0.0
  0
LINE
  5
103
100
AcDbEntity
  8
Dimension
370
              -2
390
0
  6
Continuous
 62
               0
100
AcDbLine
 10
-12.701769999999996
 20
3.6903900000000078
 30
0.0
 11
-12.701769999999996
 21
7.3103900000000124
 31
0.0
  0
LINE
  5
104
100
AcDbEntity
  8
Dimension
370
              -2
390
0
  6
Continuous
 62
               0
100
AcDbLine
 10
-12.701769999999996
 20
7.3103900000000124
 30
0.0
 11
-12.701769999999996
 21
9.0603864983668245
 31
0.0
  0
SOLID
  5
105
100
AcDbEntity
  8
Dimension
370
              -2
390
0
 62
               0
100
AcDbTrace
 10
-12.701769999999996
 20
7.3103900000000124
 30
0.0
 11
-12.9144546714922
 21
8.1041400000000117
 31
0.0
 12
-12.489085328507793
 22
8.1041400000000117
 32
0.0
 13
-12.489085328507793
 23
8.1041400000000117
 33
0.0
  0
LINE
  5
106
100
AcDbEntity
  8
Dimension
370
              -2
390
0
  6
Continuous
 62
               0
100
AcDbLine
 10
-12.701769999999996
 20
3.6903900000000078
 30
0.0
 11
-12.701769999999996
 21
1.9403935016331957
 31
0.0
  0
SOLID
  5
107
100
AcDbEntity
  8
Dimension
370
              -2
390
0
 62
               0
100
AcDbTrace
 10
-12.701769999999996
 20
3.6903900000000078
 30
0.0
 11
-12.489085328507793
 21
2.8966400000000077
 31
0.0
 12
-12.9144546714922
 22
2.8966400000000077
 32
0.0
 13
-12.9144546714922
 23
2.8966400000000077
 33
0.0
  0
WIPEOUT
  5
108
100
AcDbEntity
  8
Dimension
370
              -2
390
0
  6
Continuous
 62
               0
 92
        0
100
AcDbWipeout
 90
        0
 10
-14.627930624292162
 20
4.9397405698242212
 30
0.0
 11
3.8523212485843228
 21
0.0
 31
0.0
 12
0.0
 22
3.8523212485843228
 32
0.0
 13
1.0
 23
1.0
340
0
 70
               7
280
               1
281
              50
282
              50
283
               0
360
0
 71
               2
 91
        5
 14
-0.5
 24
0.5
 14
0.5
 24
0.5
 14
0.5
 24
0.1840659380504001
 14
-0.5
 24
0.1840659380504001
 14
-0.5
 24
0.5
  0
MTEXT
  5
109
100
AcDbEntity
  8
Dimension
390
0
 62
               0
100
AcDbMText
 10
-14.627930624292162
 20
5.9622416896158876
 30
0.0
 40
0.7579186197916666
 41
0.0
 71
               1
 72
               1
  1
3.62mm
  7
Arial
 73
               1
 44
0.9673603504928806
  0
POINT
  5
10A
100
AcDbEntity
  8
Defpoints
370
               0
390
0
 62
               0
100
AcDbPoint
 10
-3.5717700000000008
 20
3.6903900000000078
 30
0.0
  0
POINT
  5
10B
100
AcDbEntity
  8
Defpoints
370
               0
390
0
 62
               0
100
AcDbPoint
 10
-3.5717700000000008
 20
7.3103900000000124
 30
0.0
  0
POINT
  5
10C
100
AcDbEntity
  8
Defpoints
370
               0
390
0
 62
               0
100
AcDbPoint
 10
-12.70177
 20
7.3103900000000124
 30
0.0
  0
ENDBLK
  5
10D
100
AcDbEntity
  8
Dimension
390
0
100
AcDbBlockEnd
  0
BLOCK
  5
10E
100
AcDbEntity
  8
Dimension
390
0
100
AcDbBlockBegin
  2
*D15
 70
               1
 10
0.0
 20
0.0
 30
0.0
  3
*D15
  1

  0
LINE
  5
10F
100
AcDbEntity
  8
Dimension
370
              -2
390
0
  6
Continuous
 62
               0
100
AcDbLine
 10
-3.5717700000000008
 20
3.214139998817231
 30
0.0
 11
-3.5717700000000008
 21
-5.8121100023655501
 31
0.0
  0
LINE
  5
110
100
AcDbEntity
  8
Dimension
370
              -2
390
0
  6
Continuous
 62
               0
100
AcDbLine
 10
2.7882299999999987
 20
3.214139998817231
 30
0.0
 11
2.7882299999999987
 21
-5.8121100023655501
 31
0.0
  0
LINE
  5
111
100
AcDbEntity
  8
Dimension
370
              -2
390
0
  6
Continuous
 62
               0
100
AcDbLine
 10
2.7882299999999987
 20
-4.8596099999999893
 30
0.0
 11
-3.5717700000000008
 21
-4.8596099999999893
 31
0.0
  0
LINE
  5
112
100
AcDbEntity
  8
Dimension
370
              -2
390
0
  6
Continuous
 62
               0
100
AcDbLine
 10
-3.5717700000000008
 20
-4.8596099999999893
 30
0.0
 11
-5.3217664983668129
 21
-4.8596099999999893
 31
0.0
  0
SOLID
  5
113
100
AcDbEntity
  8
Dimension
370
              -2
390
0
 62
               0
100
AcDbTrace
 10
-3.5717700000000008
 20
-4.8596099999999893
 30
0.0
 11
-4.365520000000001
 21
-5.0722946714921928
 31
0.0
 12
-4.365520000000001
 22
-4.6469253285077858
 32
0.0
 13
-4.365520000000001
 23
-4.6469253285077858
 33
0.0
  0
LINE
  5
114
100
AcDbEntity
  8
Dimension
370
              -2
390
0
  6
Continuous
 62
               0
100
AcDbLine
 10
2.7882299999999987
 20
-4.8596099999999893
 30
0.0
 11
4.5382264983668108
 21
-4.8596099999999893
 31
0.0
  0
SOLID
  5
115
100
AcDbEntity
  8
Dimension
370
              -2
390
0
 62
               0
100
AcDbTrace
 10
2.7882299999999987
 20
-4.8596099999999893
 30
0.0
 11
3.5819799999999988
 21
-4.6469253285077858
 31
0.0
 12
3.5819799999999988
 22
-5.0722946714921928
 32
0.0
 13
3.5819799999999988
 23
-5.0722946714921928
 33
0.0
  0
WIPEOUT
  5
116
100
AcDbEntity
  8
Dimension
370
              -2
390
0
  6
Continuous
 62
               0
 92
        0
100
AcDbWipeout
 90
        0
 10
-2.2466989348390456
 20
-5.4681497499999905
 30
0.0
 11
3.8523212485843232
 21
0.0
 31
0.0
 12
0.0
 22
3.8523212485843232
 32
0.0
 13
1.0
 23
1.0
340
0
 70
               7
280
               1
281
              50
282
              50
283
               0
360
0
 71
               2
 91
        5
 14
-0.5
 24
0.5
 14
0.5
 24
0.5
 14
0.5
 24
0.1840659380504001
 14
-0.5
 24
0.1840659380504001
 14
-0.5
 24
0.5
  0
MTEXT
  5
117
100
AcDbEntity
  8
Dimension
390
0
 62
               0
100
AcDbMText
 10
-2.2466989348390456
 20
-4.445648630208324
 30
0.0
 40
0.7579186197916666
 41
0.0
 71
               1
 72
               1
  1
6.36mm
  7
Arial
 73
               1
 44
0.9673603504928806
  0
POINT
  5
118
100
AcDbEntity
  8
Defpoints
370
               0
390
0
 62
               0
100
AcDbPoint
 10
2.7882299999999987
 20
3.6903900000000078
 30
0.0
  0
POINT
  5
119
100
AcDbEntity
  8
Defpoints
370
               0
390
0
 62
               0
100
AcDbPoint
 10
-3.5717700000000008
 20
3.6903900000000078
 30
0.0
  0
POINT
  5
11A
100
AcDbEntity
  8
Defpoints
370
               0
390
0
 62
               0
100
AcDbPoint
 10
-3.5717700000000008
 20
-4.8596099999999911
 30
0.0
  0
ENDBLK
  5
11B
100
AcDbEntity
  8
Dimension
390
0
100
AcDbBlockEnd
  0
BLOCK
  5
11C
100
AcDbEntity
  8
Dimension
390
0
100
AcDbBlockBegin
  2
*D16
 70
               1
 10
0.0
 20
0.0
 30
0.0
  3
*D16
  1

  0
LINE
  5
11D
100
AcDbEntity
  8
Dimension
370
              -2
390
0
  6
Continuous
 62
               0
100
AcDbLine
 10
-2.2017699999999962
 20
1.8441399988172265
 30
0.0
 11
-2.2017699999999962
 21
-2.9121100023655515
 31
0.0
  0
LINE
  5
11E
100
AcDbEntity
  8
Dimension
370
              -2
390
0
  6
Continuous
 62
               0
100
AcDbLine
 10
1.4182299999999941
 20
1.8441399988172265
 30
0.0
 11
1.4182299999999941
 21
-2.9121100023655515
 31
0.0
  0
LINE
  5
11F
100
AcDbEntity
  8
Dimension
370
              -2
390
0
  6
Continuous
 62
               0
100
AcDbLine
 10
1.4182299999999941
 20
-1.9596099999999979
 30
0.0
 11
-2.2017699999999962
 21
-1.9596099999999979
 31
0.0
  0
LINE
  5
120
100
AcDbEntity
  8
Dimension
370
              -2
390
0
  6
Continuous
 62
               0
100
AcDbLine
 10
-2.2017699999999962
 20
-1.9596099999999979
 30
0.0
 11
-3.9517664983668084
 21
-1.9596099999999979
 31
0.0
  0
SOLID
  5
121
100
AcDbEntity
  8
Dimension
370
              -2
390
0
 62
               0
100
AcDbTrace
 10
-2.2017699999999962
 20
-1.9596099999999979
 30
0.0
 11
-2.9955199999999964
 21
-2.1722946714922013
 31
0.0
 12
-2.995519999999996
 22
-1.7469253285077939
 32
0.0
 13
-2.995519999999996
 23
-1.7469253285077939
 33
0.0
  0
LINE
  5
122
100
AcDbEntity
  8
Dimension
370
              -2
390
0
  6
Continuous
 62
               0
100
AcDbLine
 10
1.4182299999999941
 20
-1.9596099999999979
 30
0.0
 11
3.1682264983668063
 21
-1.9596099999999979
 31
0.0
  0
SOLID
  5
123
100
AcDbEntity
  8
Dimension
370
              -2
390
0
 62
               0
100
AcDbTrace
 10
1.4182299999999941
 20
-1.9596099999999979
 30
0.0
 11
2.2119799999999943
 21
-1.7469253285077944
 31
0.0
 12
2.2119799999999943
 22
-2.1722946714922013
 32
0.0
 13
2.2119799999999943
 23
-2.1722946714922013
 33
0.0
  0
WIPEOUT
  5
124
100
AcDbEntity
  8
Dimension
370
              -2
390
0
  6
Continuous
 62
               0
 92
        0
100
AcDbWipeout
 90
        0
 10
-2.2604843352296626
 20
-2.5681497500000061
 30
0.0
 11
3.8523212485843232
 21
0.0
 31
0.0
 12
0.0
 22
3.8523212485843232
 32
0.0
 13
1.0
 23
1.0
340
0
 70
               7
280
               1
281
              50
282
              50
283
               0
360
0
 71
               2
 91
        5
 14
-0.5
 24
0.5
 14
0.5
 24
0.5
 14
0.5
 24
0.1840659380504001
 14
-0.5
 24
0.1840659380504001
 14
-0.5
 24
0.5
  0
MTEXT
  5
125
100
AcDbEntity
  8
Dimension
390
0
 62
               0
100
AcDbMText
 10
-2.2604843352296626
 20
-1.5456486302083399
 30
0.0
 40
0.7579186197916666
 41
0.0
 71
               1
 72
               1
  1
3.62mm
  7
Arial
 73
               1
 44
0.9673603504928806
  0
POINT
  5
126
100
AcDbEntity
  8
Defpoints
370
               0
390
0
 62
               0
100
AcDbPoint
 10
1.4182299999999941
 20
2.3203900000000033
 30
0.0
  0
POINT
  5
127
100
AcDbEntity
  8
Defpoints
370
               0
390
0
 62
               0
100
AcDbPoint
 10
-2.2017699999999962
 20
2.3203900000000033
 30
0.0
  0
POINT
  5
128
100
AcDbEntity
  8
Defpoints
370
               0
390
0
 62
               0
100
AcDbPoint
 10
-2.2017699999999962
 20
-1.9596099999999961
 30
0.0
  0
ENDBLK
  5
129
100
AcDbEntity
  8
Dimension
390
0
100
AcDbBlockEnd
  0
BLOCK
  5
12A
100
AcDbEntity
  8
None
390
0
100
AcDbBlockBegin
  2
Group
 70
               0
 10
0.0
 20
0.0
 30
0.0
  3
Group
  1

  0
SOLID
  5
12B
100
AcDbEntity
  8
None
370
               5
390
0
  6
Continuous
 62
               7
100
AcDbTrace
 10
-3.5717700000000008
 20
6.8903900000000107
 30
0.0
 11
-3.5717700000000008
 21
7.3103900000000124
 31
0.0
 12
-2.5117699999999985
 22
6.8903900000000107
 32
0.0
 13
-2.5117699999999985
 23
7.3103900000000124
 33
0.0
  0
SOLID
  5
12C
100
AcDbEntity
  8
None
370
               5
390
0
  6
Continuous
 62
               7
100
AcDbTrace
 10
1.7282299999999964
 20
6.8903900000000107
 30
0.0
 11
1.7282299999999964
 21
7.3103900000000124
 31
0.0
 12
2.7882299999999987
 22
6.8903900000000107
 32
0.0
 13
2.7882299999999987
 23
7.3103900000000124
 33
0.0
  0
SOLID
  5
12D
100
AcDbEntity
  8
None
370
               5
390
0
  6
Continuous
 62
               7
100
AcDbTrace
 10
-2.2017699999999962
 20
7.6203900000000004
 30
0.0
 11
-2.2017699999999962
 21
8.6803900000000027
 31
0.0
 12
-1.7817699999999945
 22
7.6203900000000004
 32
0.0
 13
-1.7817699999999945
 23
8.6803900000000027
 33
0.0
  0
SOLID
  5
12E
100
AcDbEntity
  8
None
370
               5
390
0
  6
Continuous
 62
               7
100
AcDbTrace
 10
-2.2017699999999962
 20
2.3203900000000033
 30
0.0
 11
-2.2017699999999962
 21
3.3803900000000056
 31
0.0
 12
-1.7817699999999945
 22
2.3203900000000033
 32
0.0
 13
-1.7817699999999945
 23
3.3803900000000056
 33
0.0
  0
SOLID
  5
12F
100
AcDbEntity
  8
None
370
               5
390
0
  6
Continuous
 62
               7
100
AcDbTrace
 10
-3.5717700000000008
 20
6.0903899999999993
 30
0.0
 11
-3.5717700000000008
 21
6.510390000000001
 31
0.0
 12
-2.5117699999999985
 22
6.0903899999999993
 32
0.0
 13
-2.5117699999999985
 23
6.510390000000001
 33
0.0
  0
SOLID
  5
130
100
AcDbEntity
  8
None
370
               5
390
0
  6
Continuous
 62
               7
100
AcDbTrace
 10
-3.5717700000000008
 20
5.2903900000000021
 30
0.0
 11
-3.5717700000000008
 21
5.7103900000000039
 31
0.0
 12
-2.5117699999999985
 22
5.2903900000000021
 32
0.0
 13
-2.5117699999999985
 23
5.7103900000000039
 33
0.0
  0
SOLID
  5
131
100
AcDbEntity
  8
None
370
               5
390
0
  6
Continuous
 62
               7
100
AcDbTrace
 10
-3.5717700000000008
 20
4.490390000000005
 30
0.0
 11
-3.5717700000000008
 21
4.9103900000000067
 31
0.0
 12
-2.5117699999999985
 22
4.490390000000005
 32
0.0
 13
-2.5117699999999985
 23
4.9103900000000067
 33
0.0
  0
SOLID
  5
132
100
AcDbEntity
  8
None
370
               5
390
0
  6
Continuous
 62
               7
100
AcDbTrace
 10
-3.5717700000000008
 20
3.6903900000000078
 30
0.0
 11
-3.5717700000000008
 21
4.1103900000000095
 31
0.0
 12
-2.5117699999999985
 22
3.6903900000000078
 32
0.0
 13
-2.5117699999999985
 23
4.1103900000000095
 33
0.0
  0
SOLID
  5
133
100
AcDbEntity
  8
None
370
               5
390
0
  6
Continuous
 62
               7
100
AcDbTrace
 10
1.7282299999999964
 20
6.0903899999999993
 30
0.0
 11
1.7282299999999964
 21
6.510390000000001
 31
0.0
 12
2.7882299999999987
 22
6.0903899999999993
 32
0.0
 13
2.7882299999999987
 23
6.510390000000001
 33
0.0
  0
SOLID
  5
134
100
AcDbEntity
  8
None
370
               5
390
0
  6
Continuous
 62
               7
100
AcDbTrace
 10
1.7282299999999964
 20
5.2903900000000021
 30
0.0
 11
1.7282299999999964
 21
5.7103900000000039
 31
0.0
 12
2.7882299999999987
 22
5.2903900000000021
 32
0.0
 13
2.7882299999999987
 23
5.7103900000000039
 33
0.0
  0
SOLID
  5
135
100
AcDbEntity
  8
None
370
               5
390
0
  6
Continuous
 62
               7
100
AcDbTrace
 10
1.7282299999999964
 20
4.490390000000005
 30
0.0
 11
1.7282299999999964
 21
4.9103900000000067
 31
0.0
 12
2.7882299999999987
 22
4.490390000000005
 32
0.0
 13
2.7882299999999987
 23
4.9103900000000067
 33
0.0
  0
SOLID
  5
136
100
AcDbEntity
  8
None
370
               5
390
0
  6
Continuous
 62
               7
100
AcDbTrace
 10
1.7282299999999964
 20
3.6903900000000078
 30
0.0
 11
1.7282299999999964
 21
4.1103900000000095
 31
0.0
 12
2.7882299999999987
 22
3.6903900000000078
 32
0.0
 13
2.7882299999999987
 23
4.1103900000000095
 33
0.0
  0
SOLID
  5
137
100
AcDbEntity
  8
None
370
               5
390
0
  6
Continuous
 62
               7
100
AcDbTrace
 10
-1.4017699999999991
 20
7.6203900000000004
 30
0.0
 11
-1.4017699999999991
 21
8.6803900000000027
 31
0.0
 12
-0.9817699999999974
 22
7.6203900000000004
 32
0.0
 13
-0.9817699999999974
 23
8.6803900000000027
 33
0.0
  0
SOLID
  5
138
100
AcDbEntity
  8
None
370
               5
390
0
  6
Continuous
 62
               7
100
AcDbTrace
 10
-0.6017700000000019
 20
7.6203900000000004
 30
0.0
 11
-0.6017700000000019
 21
8.6803900000000027
 31
0.0
 12
-0.1817700000000002
 22
7.6203900000000004
 32
0.0
 13
-0.1817700000000002
 23
8.6803900000000027
 33
0.0
  0
SOLID
  5
139
100
AcDbEntity
  8
None
370
               5
390
0
  6
Continuous
 62
               7
100
AcDbTrace
 10
0.1982299999999952
 20
7.6203900000000004
 30
0.0
 11
0.1982299999999952
 21
8.6803900000000027
 31
0.0
 12
0.618229999999997
 22
7.6203900000000004
 32
0.0
 13
0.618229999999997
 23
8.6803900000000027
 33
0.0
  0
SOLID
  5
13A
100
AcDbEntity
  8
None
370
               5
390
0
  6
Continuous
 62
               7
100
AcDbTrace
 10
0.9982300000000066
 20
7.6203900000000004
 30
0.0
 11
0.9982300000000066
 21
8.6803900000000027
 31
0.0
 12
1.4182299999999941
 22
7.6203900000000004
 32
0.0
 13
1.4182299999999941
 23
8.6803900000000027
 33
0.0
  0
SOLID
  5
13B
100
AcDbEntity
  8
None
370
               5
390
0
  6
Continuous
 62
               7
100
AcDbTrace
 10
-1.4017699999999991
 20
2.3203900000000033
 30
0.0
 11
-1.4017699999999991
 21
3.3803900000000056
 31
0.0
 12
-0.9817699999999974
 22
2.3203900000000033
 32
0.0
 13
-0.9817699999999974
 23
3.3803900000000056
 33
0.0
  0
SOLID
  5
13C
100
AcDbEntity
  8
None
370
               5
390
0
  6
Continuous
 62
               7
100
AcDbTrace
 10
-0.6017700000000019
 20
2.3203900000000033
 30
0.0
 11
-0.6017700000000019
 21
3.3803900000000056
 31
0.0
 12
-0.1817700000000002
 22
2.3203900000000033
 32
0.0
 13
-0.1817700000000002
 23
3.3803900000000056
 33
0.0
  0
SOLID
  5
13D
100
AcDbEntity
  8
None
370
               5
390
0
  6
Continuous
 62
               7
100
AcDbTrace
 10
0.1982299999999952
 20
2.3203900000000033
 30
0.0
 11
0.1982299999999952
 21
3.3803900000000056
 31
0.0
 12
0.618229999999997
 22
2.3203900000000033
 32
0.0
 13
0.618229999999997
 23
3.3803900000000056
 33
0.0
  0
SOLID
  5
13E
100
AcDbEntity
  8
None
370
               5
390
0
  6
Continuous
 62
               7
100
AcDbTrace
 10
0.9982300000000066
 20
2.3203900000000033
 30
0.0
 11
0.9982300000000066
 21
3.3803900000000056
 31
0.0
 12
1.4182299999999941
 22
2.3203900000000033
 32
0.0
 13
1.4182299999999941
 23
3.3803900000000056
 33
0.0
  0
ENDBLK
  5
13F
100
AcDbEntity
  8
None
390
0
100
AcDbBlockEnd
  0
BLOCK
  5
140
100
AcDbEntity
  8
Dimension
390
0
100
AcDbBlockBegin
  2
*D18
 70
               1
 10
0.0
 20
0.0
 30
0.0
  3
*D18
  1

  0
LINE
  5
141
100
AcDbEntity
  8
Dimension
370
              -2
390
0
  6
Continuous
 62
               0
100
AcDbLine
 10
0.1582300000000032
 20
9.1566400011827795
 30
0.0
 11
0.1582300000000032
 21
15.082890002365559
 31
0.0
  0
LINE
  5
142
100
AcDbEntity
  8
Dimension
370
              -2
390
0
  6
Continuous
 62
               0
100
AcDbLine
 10
0.9582300000000004
 20
9.1566400011827795
 30
0.0
 11
0.9582300000000004
 21
15.082890002365559
 31
0.0
  0
LINE
  5
143
100
AcDbEntity
  8
Dimension
370
              -2
390
0
  6
Continuous
 62
               0
100
AcDbLine
 10
0.9582300000000004
 20
14.130390000000006
 30
0.0
 11
0.1582300000000032
 21
14.130390000000006
 31
0.0
  0
LINE
  5
144
100
AcDbEntity
  8
Dimension
370
              -2
390
0
  6
Continuous
 62
               0
100
AcDbLine
 10
0.1582300000000032
 20
14.130390000000006
 30
0.0
 11
-1.5917664983668089
 21
14.130390000000006
 31
0.0
  0
SOLID
  5
145
100
AcDbEntity
  8
Dimension
370
              -2
390
0
 62
               0
100
AcDbTrace
 10
0.1582300000000032
 20
14.130390000000006
 30
0.0
 11
-0.6355199999999968
 21
13.917705328507802
 31
0.0
 12
-0.6355199999999966
 22
14.343074671492209
 32
0.0
 13
-0.6355199999999966
 23
14.343074671492209
 33
0.0
  0
LINE
  5
146
100
AcDbEntity
  8
Dimension
370
              -2
390
0
  6
Continuous
 62
               0
100
AcDbLine
 10
0.9582300000000004
 20
14.130390000000006
 30
0.0
 11
3.1682299999999941
 21
14.130390000000006
 31
0.0
  0
SOLID
  5
147
100
AcDbEntity
  8
Dimension
370
              -2
390
0
 62
               0
100
AcDbTrace
 10
0.9582300000000004
 20
14.130390000000006
 30
0.0
 11
1.7519800000000003
 21
14.343074671492209
 31
0.0
 12
1.7519800000000003
 22
13.917705328507802
 32
0.0
 13
1.7519800000000003
 23
13.917705328507802
 33
0.0
  0
WIPEOUT
  5
148
100
AcDbEntity
  8
Dimension
370
              -2
390
0
  6
Continuous
 62
               0
 92
        0
100
AcDbWipeout
 90
        0
 10
3.1682299999999941
 20
13.521850249999996
 30
0.0
 11
5.2599001275168504
 21
0.0
 31
0.0
 12
0.0
 22
5.2599001275168504
 32
0.0
 13
1.0
 23
1.0
340
0
 70
               7
280
               1
281
              50
282
              50
283
               0
360
0
 71
               2
 91
        5
 14
-0.5
 24
0.5
 14
0.5
 24
0.5
 14
0.5
 24
0.2686116712306147
 14
-0.5
 24
0.2686116712306147
 14
-0.5
 24
0.5
  0
MTEXT
  5
149
100
AcDbEntity
  8
Dimension
390
0
 62
               0
100
AcDbMText
 10
3.1682299999999941
 20
14.544351369791663
 30
0.0
 40
0.7579186197916666
 41
0.0
 71
               1
 72
               1
  1
0.8mm typ.
  7
Arial
 73
               1
 44
0.9673603504928806
  0
POINT
  5
14A
100
AcDbEntity
  8
Defpoints
370
               0
390
0
 62
               0
100
AcDbPoint
 10
0.9582300000000004
 20
8.6803900000000027
 30
0.0
  0
POINT
  5
14B
100
AcDbEntity
  8
Defpoints
370
               0
390
0
 62
               0
100
AcDbPoint
 10
0.1582300000000032
 20
8.6803900000000027
 30
0.0
  0
POINT
  5
14C
100
AcDbEntity
  8
Defpoints
370
               0
390
0
 62
               0
100
AcDbPoint
 10
0.1582300000000032
 20
14.130390000000002
 30
0.0
  0
ENDBLK
  5
14D
100
AcDbEntity
  8
Dimension
390
0
100
AcDbBlockEnd
  0
BLOCK
  5
14E
100
AcDbEntity
  8
Dimension
390
0
100
AcDbBlockBegin
  2
*D19
 70
               1
 10
0.0
 20
0.0
 30
0.0
  3
*D19
  1

  0
LINE
  5
14F
100
AcDbEntity
  8
Dimension
370
              -2
390
0
  6
Continuous
 62
               0
100
AcDbLine
 10
-5.9805200011827822
 20
0.637890000000013
 30
0.0
 11
-10.38177000236557
 21
0.637890000000013
 31
0.0
  0
LINE
  5
150
100
AcDbEntity
  8
Dimension
370
              -2
390
0
  6
Continuous
 62
               0
100
AcDbLine
 10
-5.9805200011827822
 20
3.6378900000000129
 30
0.0
 11
-10.381770002365556
 21
3.6378900000000129
 31
0.0
  0
LINE
  5
151
100
AcDbEntity
  8
Dimension
370
              -2
390
0
  6
Continuous
 62
               0
100
AcDbLine
 10
-9.4292700000000025
 20
3.6378900000000129
 30
0.0
 11
-9.4292700000000025
 21
0.637890000000013
 31
0.0
  0
LINE
  5
152
100
AcDbEntity
  8
Dimension
370
              -2
390
0
  6
Continuous
 62
               0
100
AcDbLine
 10
-9.4292700000000025
 20
0.637890000000013
 30
0.0
 11
-9.4292700000000025
 21
-1.1121064983667992
 31
0.0
  0
SOLID
  5
153
100
AcDbEntity
  8
Dimension
370
              -2
390
0
 62
               0
100
AcDbTrace
 10
-9.4292700000000025
 20
0.637890000000013
 30
0.0
 11
-9.216585328507799
 21
-0.1558599999999871
 31
0.0
 12
-9.641954671492206
 22
-0.155859999999987
 32
0.0
 13
-9.641954671492206
 23
-0.155859999999987
 33
0.0
  0
LINE
  5
154
100
AcDbEntity
  8
Dimension
370
              -2
390
0
  6
Continuous
 62
               0
100
AcDbLine
 10
-9.4292700000000025
 20
3.6378900000000129
 30
0.0
 11
-9.4292700000000025
 21
5.3878864983668251
 31
0.0
  0
SOLID
  5
155
100
AcDbEntity
  8
Dimension
370
              -2
390
0
 62
               0
100
AcDbTrace
 10
-9.4292700000000025
 20
3.6378900000000129
 30
0.0
 11
-9.641954671492206
 21
4.4316400000000131
 31
0.0
 12
-9.216585328507799
 22
4.4316400000000131
 32
0.0
 13
-9.216585328507799
 23
4.4316400000000131
 33
0.0
  0
WIPEOUT
  5
156
100
AcDbEntity
  8
Dimension
370
              -2
390
0
  6
Continuous
 62
               0
 92
        0
100
AcDbWipeout
 90
        0
 10
-10.614599595539303
 20
1.385566680664067
 30
0.0
 11
2.3706591910786088
 21
0.0
 31
0.0
 12
0.0
 22
2.3706591910786088
 32
0.0
 13
1.0
 23
1.0
340
0
 70
               7
280
               1
281
              50
282
              50
283
               0
360
0
 71
               2
 91
        5
 14
-0.5
 24
0.5
 14
0.5
 24
0.5
 14
0.5
 24
-0.0133928590748845
 14
-0.5
 24
-0.0133928590748845
 14
-0.5
 24
0.5
  0
MTEXT
  5
157
100
AcDbEntity
  8
Dimension
390
0
 62
               0
100
AcDbMText
 10
-10.614599595539303
 20
2.4080678004557337
 30
0.0
 40
0.7579186197916666
 41
0.0
 71
               1
 72
               1
  1
3mm
  7
Arial
 73
               1
 44
0.9673603504928806
  0
POINT
  5
158
100
AcDbEntity
  8
Defpoints
370
               0
390
0
 62
               0
100
AcDbPoint
 10
-5.5042700000000053
 20
3.6378900000000129
 30
0.0
  0
POINT
  5
159
100
AcDbEntity
  8
Defpoints
370
               0
390
0
 62
               0
100
AcDbPoint
 10
-5.5042700000000053
 20
0.637890000000013
 30
0.0
  0
POINT
  5
15A
100
AcDbEntity
  8
Defpoints
370
               0
390
0
 62
               0
100
AcDbPoint
 10
-9.429270000000006
 20
0.637890000000013
 30
0.0
  0
ENDBLK
  5
15B
100
AcDbEntity
  8
Dimension
390
0
100
AcDbBlockEnd
  0
ENDSEC
  0
SECTION
  2
ENTITIES
  0
WIPEOUT
  5
15C
100
AcDbEntity
  8
None
370
               5
390
0
  6
Continuous
 62
               1
 92
        0
100
AcDbWipeout
 90
        0
 10
14.961839999999995
 20
20.023440500000007
 30
0.0
 11
17.674111670669561
 21
0.0
 31
0.0
 12
0.0
 22
17.674111670669561
 32
0.0
 13
1.0
 23
1.0
340
0
 70
               7
280
               1
281
              50
282
              50
283
               0
360
0
 71
               2
 91
        5
 14
-0.5
 24
0.5000000000000002
 14
0.5
 24
0.5000000000000002
 14
0.5
 24
0.4311377271639764
 14
-0.5
 24
0.4311377271639764
 14
-0.5
 24
0.5000000000000002
  0
MTEXT
  5
15D
100
AcDbEntity
  8
None
390
0
 62
               1
100
AcDbMText
 10
14.961839999999995
 20
21.04594161979167
 30
0.0
 40
0.7579186197916666
 41
0.0
 71
               1
 72
               1
  1
{\C192;\l3.84mm x 3.84mm thermal /GND pad}
  7
Arial
 73
               1
 44
0.9673603504928806
  0
LINE
  5
15E
100
AcDbEntity
  8
None
370
               5
390
0
  6
Continuous
 62
               1
100
AcDbLine
 10
15.261840000000007
 20
20.462760000000003
 30
0.0
 11
9.3072599999999994
 21
20.462760000000003
 31
0.0
  0
WIPEOUT
  5
15F
100
AcDbEntity
  8
None
370
               9
390
0
  6
STYLE_11
 62
               7
 92
        0
100
AcDbWipeout
 90
        0
 10
-6.7542700000000053
 20
-0.6121099999999871
 30
0.0
 11
12.225000000000009
 21
0.0
 31
0.0
 12
0.0
 22
12.225000000000009
 32
0.0
 13
1.0
 23
1.0
340
0
 70
               7
280
               1
281
              50
282
              50
283
               0
360
0
 71
               2
 91
        5
 14
-0.5
 24
-0.4999999999999989
 14
0.5
 24
-0.4999999999999989
 14
0.5
 24
0.5
 14
-0.5
 24
0.5
 14
-0.5
 24
-0.4999999999999989
  0
POLYLINE
  5
160
100
AcDbEntity
  8
None
370
               9
390
0
  6
STYLE_11
 62
               7
100
AcDb2dPolyline
 66
               1
 10
0.0
 20
0.0
 30
0.0
 70
               1
 75
               5
  0
VERTEX
  5
161
100
AcDbEntity
  8
None
370
               9
390
0
  6
STYLE_11
 62
               7
100
AcDbVertex
100
AcDb2dVertex
 10
-6.7542700000000053
 20
11.612890000000007
 30
0.0
  0
VERTEX
  5
162
100
AcDbEntity
  8
None
370
               9
390
0
  6
STYLE_11
 62
               7
100
AcDbVertex
100
AcDb2dVertex
 10
5.4707300000000032
 20
11.612890000000007
 30
0.0
  0
VERTEX
  5
163
100
AcDbEntity
  8
None
370
               9
390
0
  6
STYLE_11
 62
               7
100
AcDbVertex
100
AcDb2dVertex
 10
5.4707300000000032
 20
-0.6121099999999871
 30
0.0
  0
VERTEX
  5
164
100
AcDbEntity
  8
None
370
               9
390
0
  6
STYLE_11
 62
               7
100
AcDbVertex
100
AcDb2dVertex
 10
-6.7542700000000053
 20
-0.6121099999999871
 30
0.0
  0
SEQEND
  5
165
100
AcDbEntity
  8
None
370
               9
390
0
  6
STYLE_11
 62
               7
  0
CIRCLE
  5
166
102
{ACAD_REACTORS
330
167
102
}
100
AcDbEntity
  8
None
370
              15
390
0
  6
Continuous
 62
             180
100
AcDbCircle
 10
-3.7371100000000013
 20
10.595150000000004
 30
0.0
 40
0.2500014851955865
  0
HATCH
  5
167
100
AcDbEntity
  8
None
370
               0
390
0
  6
Continuous
 62
             180
100
AcDbHatch
 10
0.0
 20
0.0
 30
0.0
210
0.0
220
0.0
230
1.0
  2
SOLID
 70
               1
 71
               1
 91
        1
 92
        1
 93
        1
 72
               2
 10
-3.7371100000000013
 20
10.595150000000004
 40
0.2500014851955865
 50
0.0
 51
360.0
 73
               0
 97
        1
330
166
 75
               0
 76
               1
 98
        1
 10
0.0
 20
0.0
  0
WIPEOUT
  5
168
100
AcDbEntity
  8
None
370
               9
390
0
  6
Continuous
 62
               7
 92
        0
100
AcDbWipeout
 90
        0
 10
-6.3092700000000121
 20
9.5578900000000004
 30
0.0
 11
1.6100000000000136
 21
0.0
 31
0.0
 12
0.0
 22
1.6100000000000136
 32
0.0
 13
1.0
 23
1.0
340
0
 70
               7
280
               1
281
              50
282
              50
283
               0
360
0
 71
               2
 91
        9
 14
0.5
 24
0.0
 14
0.3535533905932736
 24
0.3535533905932742
 14
0.0
 24
0.5
 14
-0.3535533905932736
 24
0.3535533905932742
 14
-0.5
 24
0.0
 14
-0.3535533905932736
 24
-0.3535533905932742
 14
0.0
 24
-0.5
 14
0.3535533905932736
 24
-0.3535533905932742
 14
0.5
 24
0.0
  0
CIRCLE
  5
169
100
AcDbEntity
  8
None
370
               9
390
0
  6
Continuous
 62
               7
100
AcDbCircle
 10
-5.5042700000000053
 20
10.362890000000007
 30
0.0
 40
0.8050000000000068
  0
WIPEOUT
  5
16A
100
AcDbEntity
  8
None
370
               9
390
0
  6
Continuous
 62
               7
 92
        0
100
AcDbWipeout
 90
        0
 10
3.4157299999999964
 20
-0.1671099999999939
 30
0.0
 11
1.6100000000000136
 21
0.0
 31
0.0
 12
0.0
 22
1.6100000000000136
 32
0.0
 13
1.0
 23
1.0
340
0
 70
               7
280
               1
281
              50
282
              50
283
               0
360
0
 71
               2
 91
        9
 14
-0.5
 24
0.0
 14
-0.3535533905932736
 24
-0.3535533905932738
 14
0.0
 24
-0.5
 14
0.3535533905932736
 24
-0.3535533905932738
 14
0.5
 24
0.0
 14
0.3535533905932736
 24
0.3535533905932738
 14
0.0
 24
0.5
 14
-0.3535533905932736
 24
0.3535533905932738
 14
-0.5
 24
0.0
  0
CIRCLE
  5
16B
100
AcDbEntity
  8
None
370
               9
390
0
  6
Continuous
 62
               7
100
AcDbCircle
 10
4.2207300000000032
 20
0.637890000000013
 30
0.0
 40
0.8050000000000068
  0
WIPEOUT
  5
16C
100
AcDbEntity
  8
None
370
               9
390
0
  6
Continuous
 62
               7
 92
        0
100
AcDbWipeout
 90
        0
 10
-6.3092700000000121
 20
-0.1671099999999939
 30
0.0
 11
1.6100000000000136
 21
0.0
 31
0.0
 12
0.0
 22
1.6100000000000136
 32
0.0
 13
1.0
 23
1.0
340
0
 70
               7
280
               1
281
              50
282
              50
283
               0
360
0
 71
               2
 91
        9
 14
0.5
 24
0.0
 14
0.3535533905932736
 24
0.3535533905932738
 14
0.0
 24
0.5
 14
-0.3535533905932736
 24
0.3535533905932738
 14
-0.5
 24
0.0
 14
-0.3535533905932736
 24
-0.3535533905932738
 14
0.0
 24
-0.5
 14
0.3535533905932736
 24
-0.3535533905932738
 14
0.5
 24
0.0
  0
CIRCLE
  5
16D
100
AcDbEntity
  8
None
370
               9
390
0
  6
Continuous
 62
               7
100
AcDbCircle
 10
-5.5042700000000053
 20
0.637890000000013
 30
0.0
 40
0.8050000000000068
  0
WIPEOUT
  5
16E
100
AcDbEntity
  8
None
370
               9
390
0
  6
Continuous
 62
               7
 92
        0
100
AcDbWipeout
 90
        0
 10
3.4157299999999964
 20
9.5578900000000004
 30
0.0
 11
1.6100000000000136
 21
0.0
 31
0.0
 12
0.0
 22
1.6100000000000136
 32
0.0
 13
1.0
 23
1.0
340
0
 70
               7
280
               1
281
              50
282
              50
283
               0
360
0
 71
               2
 91
        9
 14
-0.5
 24
0.0
 14
-0.3535533905932736
 24
-0.3535533905932742
 14
0.0
 24
-0.5
 14
0.3535533905932736
 24
-0.3535533905932742
 14
0.5
 24
0.0
 14
0.3535533905932736
 24
0.3535533905932742
 14
0.0
 24
0.5
 14
-0.3535533905932736
 24
0.3535533905932742
 14
-0.5
 24
0.0
  0
CIRCLE
  5
16F
100
AcDbEntity
  8
None
370
               9
390
0
  6
Continuous
 62
               7
100
AcDbCircle
 10
4.2207300000000032
 20
10.362890000000007
 30
0.0
 40
0.8050000000000068
  0
WIPEOUT
  5
170
100
AcDbEntity
  8
None
370
               9
390
0
  6
Continuous
 62
               7
 92
        0
100
AcDbWipeout
 90
        0
 10
3.795730000000006
 20
7.9378900000000101
 30
0.0
 11
0.8499999999999943
 21
0.0
 31
0.0
 12
0.0
 22
0.8499999999999943
 32
0.0
 13
1.0
 23
1.0
340
0
 70
               7
280
               1
281
              50
282
              50
283
               0
360
0
 71
               2
 91
        9
 14
0.5
 24
0.0
 14
0.3535533905932733
 24
0.3535533905932744
 14
0.0
 24
0.5
 14
-0.3535533905932738
 24
0.3535533905932744
 14
-0.5
 24
0.0
 14
-0.3535533905932738
 24
-0.3535533905932744
 14
0.0
 24
-0.5
 14
0.3535533905932733
 24
-0.3535533905932744
 14
0.5
 24
0.0
  0
CIRCLE
  5
171
100
AcDbEntity
  8
None
370
               9
390
0
  6
Continuous
 62
               7
100
AcDbCircle
 10
4.2207300000000032
 20
8.3628900000000073
 30
0.0
 40
0.4249999999999972
  0
WIPEOUT
  5
172
100
AcDbEntity
  8
None
370
               9
390
0
  6
Continuous
 62
               7
 92
        0
100
AcDbWipeout
 90
        0
 10
-5.9292700000000167
 20
3.2128900000000016
 30
0.0
 11
0.8500000000000227
 21
0.0
 31
0.0
 12
0.0
 22
0.8500000000000227
 32
0.0
 13
1.0
 23
1.0
340
0
 70
               7
280
               1
281
              50
282
              50
283
               0
360
0
 71
               2
 91
        9
 14
0.5
 24
0.0
 14
0.3535533905932741
 24
0.3535533905932741
 14
0.0
 24
0.5
 14
-0.3535533905932741
 24
0.3535533905932741
 14
-0.5
 24
0.0
 14
-0.3535533905932741
 24
-0.3535533905932741
 14
0.0
 24
-0.5
 14
0.3535533905932741
 24
-0.3535533905932741
 14
0.5
 24
0.0
  0
CIRCLE
  5
173
100
AcDbEntity
  8
None
370
               9
390
0
  6
Continuous
 62
               7
100
AcDbCircle
 10
-5.5042700000000053
 20
3.6378900000000129
 30
0.0
 40
0.4250000000000114
  0
LINE
  5
174
100
AcDbEntity
  8
None
370
              15
390
0
  6
STYLE_13
 62
             180
100
AcDbLine
 10
-0.641769999999994
 20
-1.9996099999999899
 30
0.0
 11
-0.641769999999994
 21
13.00039000000001
 31
0.0
  0
LINE
  5
175
100
AcDbEntity
  8
None
370
              15
390
0
  6
STYLE_13
 62
             180
100
AcDbLine
 10
6.858230000000006
 20
5.5003900000000101
 30
0.0
 11
-8.141769999999994
 21
5.5003900000000101
 31
0.0
  0
DIMENSION
  5
176
100
AcDbEntity
  8
Dimension
370
               5
390
0
  6
Continuous
 62
               1
100
AcDbDimension
  2
*D3
 10
-6.7542700000000053
 20
-11.112109999999985
 30
0.0
 11
-0.7732797808837901
 21
-11.112109999999985
 31
0.0
 70
             128
 71
               5
 72
               1
 41
1.0
 42
0.0
  3
IE Standard
100
AcDbAlignedDimension
 13
5.4707300000000032
 23
-0.6121099999999871
 33
0.0
 14
-6.7542700000000053
 24
-0.6121099999999871
 34
0.0
100
AcDbRotatedDimension
1001
ACAD
1000
DSTYLE
1002
{
1070
             271
1070
               3
1070
             340
1005
35
1070
              71
1070
               1
1070
              47
1040
0.125
1070
              48
1040
0.125
1070
               3
1000
<>mm (x4)
1070
             147
1040
0.09921875
1002
}
  0
DIMENSION
  5
177
100
AcDbEntity
  8
Dimension
370
               5
390
0
  6
Continuous
 62
               1
100
AcDbDimension
  2
*D4
 10
9.5442300000000024
 20
10.362890000000007
 30
0.0
 11
9.5442300000000024
 21
9.3628900000000073
 31
0.0
 70
             128
 71
               5
 72
               1
 41
1.0
 42
0.0
  3
IE Standard
100
AcDbAlignedDimension
 13
4.2207300000000032
 23
8.3628900000000073
 33
0.0
 14
4.2207300000000032
 24
10.362890000000007
 34
0.0
 50
90.0
100
AcDbRotatedDimension
1001
ACAD
1000
DSTYLE
1002
{
1070
             271
1070
               2
1070
             340
1005
35
1070
             147
1040
0.09921875
1002
}
  0
DIMENSION
  5
178
100
AcDbEntity
  8
Dimension
370
               5
390
0
  6
Continuous
 62
               1
100
AcDbDimension
  2
*D5
 10
-6.7542700000000053
 20
16.671380000000006
 30
0.0
 11
-9.8175400000000046
 21
16.671380000000006
 31
0.0
 70
             128
 71
               5
 72
               1
 41
1.0
 42
0.0
  3
IE Standard
100
AcDbAlignedDimension
 13
-5.5042700000000053
 23
10.362890000000007
 33
0.0
 14
-6.7542700000000053
 24
11.612890000000007
 34
0.0
100
AcDbRotatedDimension
1001
ACAD
1000
DSTYLE
1002
{
1070
             271
1070
               3
1070
             340
1005
35
1070
              71
1070
               1
1070
              47
1040
0.125
1070
              48
1040
0.125
1070
               3
1000
<>mm (x4)
1070
             174
1070
               0
1070
             147
1040
0.09921875
1002
}
  0
DIMENSION
  5
179
100
AcDbEntity
  8
Dimension
370
               5
390
0
  6
Continuous
 62
               1
100
AcDbDimension
  2
*D6
 10
-14.979270000000005
 20
11.612890000000007
 30
0.0
 11
-14.979270000000005
 21
13.821380000000007
 31
0.0
 70
             128
 71
               5
 72
               1
 41
1.0
 42
0.0
  3
IE Standard
100
AcDbAlignedDimension
 13
-5.5042700000000053
 23
10.362890000000007
 33
0.0
 14
-6.7542700000000053
 24
11.612890000000007
 34
0.0
 50
90.0
100
AcDbRotatedDimension
1001
ACAD
1000
DSTYLE
1002
{
1070
             271
1070
               3
1070
             340
1005
35
1070
              71
1070
               1
1070
              47
1040
0.125
1070
              48
1040
0.125
1070
               3
1000
<>mm (x4)
1070
             174
1070
               0
1070
             147
1040
0.09921875
1002
}
  0
DIMENSION
  5
17A
100
AcDbEntity
  8
Dimension
370
               5
390
0
  6
Continuous
 62
               1
100
AcDbDimension
  2
*D7
 10
-5.5042700000000053
 20
-8.7121099999999867
 30
0.0
 11
-0.3567094989013677
 21
-8.7121099999999867
 31
0.0
 70
             128
 71
               5
 72
               1
 41
1.0
 42
0.0
  3
IE Standard
100
AcDbAlignedDimension
 13
4.2207300000000032
 23
0.637890000000013
 33
0.0
 14
-5.5042700000000053
 24
0.637890000000013
 34
0.0
100
AcDbRotatedDimension
1001
ACAD
1000
DSTYLE
1002
{
1070
             271
1070
               3
1070
             340
1005
35
1070
               3
1000
<>mm (x4)
1070
             147
1040
0.09921875
1002
}
  0
DIMENSION
  5
17B
100
AcDbEntity
  8
Dimension
370
               5
390
0
  6
Continuous
 62
               1
100
AcDbDimension
  2
*D8
 10
3.8589300000000009
 20
8.1398900000000083
 30
0.0
 11
13.310330149355735
 21
13.010648253683817
 31
0.0
 70
               3
 71
               5
 72
               1
 41
1.0
 42
0.0
  3
IE Standard
100
AcDbDiametricDimension
 15
4.5837499999999949
 25
8.5838900000000109
 35
0.0
 40
8.4746499999999987
1001
ACAD
1000
DSTYLE
1002
{
1070
             271
1070
               3
1070
             172
1070
               0
1070
             289
1070
               0
1070
             342
1005
4C
1070
             340
1005
35
1070
              75
1070
               1
1070
              76
1070
               1
1070
              71
1070
               1
1070
              47
1040
0.025
1070
              48
1040
0.025
1070
               3
1000
mm (x2)
1070
             174
1070
               0
1070
             147
1040
0.09921875
1002
}
  0
DIMENSION
  5
17C
100
AcDbEntity
  8
Dimension
370
               5
390
0
  6
Continuous
 62
               1
100
AcDbDimension
  2
*D9
 10
3.5433799999999991
 20
1.072890000000001
 30
0.0
 11
9.3643907480206181
 21
-1.6574679826860508
 31
0.0
 70
               3
 71
               5
 72
               1
 41
1.0
 42
0.0
  3
IE Standard
100
AcDbDiametricDimension
 15
4.9043999999999954
 25
0.2128900000000016
 35
0.0
 40
3.5013999999999998
1001
ACAD
1000
DSTYLE
1002
{
1070
             271
1070
               3
1070
             172
1070
               0
1070
             289
1070
               0
1070
             342
1005
4C
1070
             340
1005
35
1070
              75
1070
               1
1070
              76
1070
               1
1070
              71
1070
               1
1070
              47
1040
0.05
1070
              48
1040
0.05
1070
               3
1000
mm(x4)
1070
             174
1070
               0
1070
             147
1040
0.09921875
1002
}
  0
LINE
  5
17D
100
AcDbEntity
  8
None
370
               5
390
0
  6
Continuous
 62
               1
100
AcDbLine
 10
-10.058199999999999
 20
21.543590000000009
 30
0.0
 11
-15.608859999999993
 21
21.543590000000009
 31
0.0
  0
LINE
  5
17E
100
AcDbEntity
  8
None
370
               5
390
0
  6
Continuous
 62
               1
100
AcDbLine
 10
-3.8621100000000013
 20
10.811660000000003
 30
0.0
 11
-10.058199999999999
 21
21.543590000000009
 31
0.0
  0
SOLID
  5
17F
100
AcDbEntity
  8
None
370
               5
390
0
 62
               1
100
AcDbTrace
 10
-3.8621100000000013
 20
10.811660000000003
 30
0.0
 11
-4.2340712527703728
 21
11.183621252770376
 31
0.0
 12
-3.9982572677374422
 22
11.319768520507816
 32
0.0
 13
-3.9982572677374422
 23
11.319768520507816
 33
0.0
  0
WIPEOUT
  5
180
100
AcDbEntity
  8
None
370
               5
390
0
  6
Continuous
 62
               1
 92
        0
100
AcDbWipeout
 90
        0
 10
-21.490549999999999
 20
20.782920500000003
 30
0.0
 11
7.8422253988126727
 21
0.0
 31
0.0
 12
0.0
 22
7.8422253988126727
 32
0.0
 13
1.0
 23
1.0
340
0
 70
               7
280
               1
281
              50
282
              50
283
               0
360
0
 71
               2
 91
        5
 14
-0.5
 24
0.5000000000000004
 14
0.5000000000000004
 24
0.5000000000000004
 14
0.5000000000000004
 24
0.3448043204440075
 14
-0.5
 24
0.3448043204440075
 14
-0.5
 24
0.5000000000000004
  0
MTEXT
  5
181
100
AcDbEntity
  8
None
390
0
 62
               1
100
AcDbMText
 10
-21.490549999999999
 20
21.805421619791666
 30
0.0
 40
0.7579186197916666
 41
0.0
 71
               1
 72
               1
  1
{\C192;\lOrientation Mark}
  7
New Century Schlbk
 73
               1
 44
0.9673603504928806
  0
WIPEOUT
  5
182
100
AcDbEntity
  8
None
370
              15
390
0
  6
Continuous
 62
               1
 92
        0
100
AcDbWipeout
 90
        0
 10
14.753739999999993
 20
10.497240500000004
 30
0.0
 11
12.350711488082311
 21
0.0
 31
0.0
 12
0.0
 22
12.350711488082311
 32
0.0
 13
1.0
 23
1.0
340
0
 70
               7
280
               1
281
              50
282
              50
283
               0
360
0
 71
               2
 91
        5
 14
-0.5
 24
0.5000000000000003
 14
0.5000000000000007
 24
0.5000000000000003
 14
0.5000000000000007
 24
0.4014567297459418
 14
-0.5
 24
0.4014567297459418
 14
-0.5
 24
0.5000000000000003
  0
MTEXT
  5
183
100
AcDbEntity
  8
None
390
0
 62
               1
100
AcDbMText
 10
14.753739999999993
 20
11.519741619791667
 30
0.0
 40
0.7579186197916666
 41
0.0
 71
               1
 72
               1
  1
{\C192;\lNon plated alignment hole}
  7
Arial
 73
               1
 44
0.9673603504928806
  0
WIPEOUT
  5
184
100
AcDbEntity
  8
None
370
              15
390
0
  6
Continuous
 62
               1
 92
        0
100
AcDbWipeout
 90
        0
 10
10.832629999999995
 20
-3.8528894999999892
 30
0.0
 11
12.117878889991573
 21
0.0
 31
0.0
 12
0.0
 22
12.117878889991573
 32
0.0
 13
1.0
 23
1.0
340
0
 70
               7
280
               1
281
              50
282
              50
283
               0
360
0
 71
               2
 91
        5
 14
-0.5
 24
0.5000000000000002
 14
0.4999999999999997
 24
0.5000000000000002
 14
0.4999999999999997
 24
0.3995633220096621
 14
-0.5
 24
0.3995633220096621
 14
-0.5
 24
0.5000000000000002
  0
MTEXT
  5
185
100
AcDbEntity
  8
None
390
0
 62
               1
100
AcDbMText
 10
10.832629999999995
 20
-2.8303883802083254
 30
0.0
 40
0.7579186197916666
 41
0.0
 71
               1
 72
               1
  1
{\C192;\lNon plated mounting hole}
  7
Arial
 73
               1
 44
0.9673603504928806
  0
DIMENSION
  5
186
100
AcDbEntity
  8
Dimension
370
               5
390
0
  6
Continuous
 62
               1
100
AcDbDimension
  2
*D10
 10
1.7282299999999964
 20
5.7103900000000039
 30
0.0
 11
9.9295157531738436
 21
3.0551623816022384
 31
0.0
 70
               3
 71
               5
 72
               1
 41
1.0
 42
0.0
  1
1.06 x 0.42
  3
IE Standard
100
AcDbDiametricDimension
 15
2.7882299999999987
 25
5.2903900000000021
 35
0.0
 40
6.0679799999999995
1001
ACAD
1000
DSTYLE
1002
{
1070
             271
1070
               4
1070
             172
1070
               0
1070
             289
1070
               0
1070
             342
1005
4C
1070
             340
1005
35
1070
              75
1070
               1
1070
              76
1070
               1
1070
             174
1070
               0
1070
             147
1040
0.09921875
1002
}
  0
WIPEOUT
  5
187
100
AcDbEntity
  8
None
370
               5
390
0
  6
Continuous
 62
               1
 92
        0
100
AcDbWipeout
 90
        0
 10
-21.490549999999999
 20
20.782920500000003
 30
0.0
 11
7.8422253988126727
 21
0.0
 31
0.0
 12
0.0
 22
7.8422253988126727
 32
0.0
 13
1.0
 23
1.0
340
0
 70
               7
280
               1
281
              50
282
              50
283
               0
360
0
 71
               2
 91
        5
 14
-0.5
 24
0.5000000000000004
 14
0.5000000000000004
 24
0.5000000000000004
 14
0.5000000000000004
 24
0.3448043204440075
 14
-0.5
 24
0.3448043204440075
 14
-0.5
 24
0.5000000000000004
  0
MTEXT
  5
188
100
AcDbEntity
  8
None
390
0
 62
               1
100
AcDbMText
 10
-21.490549999999999
 20
21.805421619791666
 30
0.0
 40
0.7579186197916666
 41
0.0
 71
               1
 72
               1
  1
{\C192;\lOrientation Mark}
  7
New Century Schlbk
 73
               1
 44
0.9673603504928806
  0
LINE
  5
189
100
AcDbEntity
  8
None
370
               5
390
0
  6
Continuous
 62
               1
100
AcDbLine
 10
-20.043989999999994
 20
-0.5396099999999962
 30
0.0
 11
-6.7542700000000053
 21
-0.5396099999999962
 31
0.0
  0
SOLID
  5
18A
100
AcDbEntity
  8
None
370
               5
390
0
 62
               1
100
AcDbTrace
 10
-6.7542700000000053
 20
-0.5396099999999962
 30
0.0
 11
-7.2623785205078182
 21
-0.6757572677374371
 31
0.0
 12
-7.2623785205078182
 22
-0.4034627322625551
 32
0.0
 13
-7.2623785205078182
 23
-0.4034627322625551
 33
0.0
  0
LINE
  5
18B
100
AcDbEntity
  8
None
370
               5
390
0
  6
Continuous
 62
               1
100
AcDbLine
 10
-23.418359999999993
 20
2.834770000000006
 30
0.0
 11
-20.043989999999994
 21
-0.5396099999999962
 31
0.0
  0
WIPEOUT
  5
18C
100
AcDbEntity
  8
None
370
               5
390
0
  6
Continuous
 62
               1
 92
        0
100
AcDbWipeout
 90
        0
 10
-28.0
 20
2.1096210000000184
 30
0.0
 11
5.8432300000000055
 21
0.0
 31
0.0
 12
0.0
 22
5.8432300000000055
 32
0.0
 13
1.0
 23
1.0
340
0
 70
               7
280
               1
281
              50
282
              50
283
               0
360
0
 71
               2
 91
        5
 14
-0.5
 24
0.5000000000000011
 14
0.4999999999999988
 24
0.5000000000000011
 14
0.4999999999999988
 24
0.0834223537324405
 14
-0.5
 24
0.0834223537324405
 14
-0.5
 24
0.5000000000000011
  0
MTEXT
  5
18D
100
AcDbEntity
  8
None
390
0
 62
               1
100
AcDbMText
 10
-28.0
 20
4.3492016197916792
 30
0.0
 40
0.7579186197916666
 41
5.8432299999999993
 71
               1
 72
               1
  1
{\C192;\lSocket Body Size}
  7
New Century Schlbk
 73
               1
 44
0.9673603504928806
  0
WIPEOUT
  5
18E
100
AcDbEntity
  8
None
370
               5
390
0
  6
Continuous
 62
               1
 92
        0
100
AcDbWipeout
 90
        0
 10
17.173230000000004
 20
2.480810500000004
 30
0.0
 11
4.7730682608602564
 21
0.0
 31
0.0
 12
0.0
 22
4.7730682608602564
 32
0.0
 13
1.0
 23
1.0
340
0
 70
               7
280
               1
281
              50
282
              50
283
               0
360
0
 71
               2
 91
        5
 14
-0.5
 24
0.5000000000000007
 14
0.4999999999999992
 24
0.5000000000000007
 14
0.4999999999999992
 24
0.2450110843835615
 14
-0.5
 24
0.2450110843835615
 14
-0.5
 24
0.5000000000000007
  0
MTEXT
  5
18F
100
AcDbEntity
  8
None
390
0
 62
               1
100
AcDbMText
 10
17.173230000000004
 20
3.5033116197916678
 30
0.0
 40
0.7579186197916666
 41
0.0
 71
               1
 72
               1
  1
{\C192;\lpad (x 20)}
  7
Arial
 73
               1
 44
0.9673603504928806
  0
WIPEOUT
  5
190
100
AcDbEntity
  8
None
370
               5
390
0
  6
Continuous
 62
               7
 92
        0
100
AcDbWipeout
 90
        0
 10
-2.9814300000000031
 20
-16.109607999999994
 30
0.0
 11
4.5155328276644724
 21
0.0
 31
0.0
 12
0.0
 22
4.5155328276644724
 32
0.0
 13
1.0
 23
1.0
340
0
 70
               7
280
               1
281
              50
282
              50
283
               0
360
0
 71
               2
 91
        5
 14
-0.5
 24
0.5
 14
0.4999999999999998
 24
0.5
 14
0.4999999999999998
 24
0.2005208351680963
 14
-0.5
 24
0.2005208351680963
 14
-0.5
 24
0.5
  0
MTEXT
  5
191
100
AcDbEntity
  8
None
390
0
 62
               7
100
AcDbMText
 10
-2.9814300000000031
 20
-14.973497791666661
 30
0.0
 40
0.8421302083333332
 41
0.0
 71
               1
 72
               1
  1
MLF20C
  7
Arial
 73
               1
 44
0.9673603504928806
  0
DIMENSION
  5
192
100
AcDbEntity
  8
Dimension
370
               5
390
0
  6
Continuous
 62
               1
100
AcDbDimension
  2
*D11
 10
-5.5042700000000053
 20
17.490390000000005
 30
0.0
 11
-0.0115999999999961
 21
17.490390000000005
 31
0.0
 70
             128
 71
               5
 72
               1
 41
1.0
 42
0.0
  3
IE Standard
100
AcDbAlignedDimension
 13
-2.2017699999999962
 23
8.6803900000000027
 33
0.0
 14
-5.5042700000000053
 24
10.362890000000007
 34
0.0
100
AcDbRotatedDimension
1001
ACAD
1000
DSTYLE
1002
{
1070
             271
1070
               2
1070
             340
1005
35
1070
             174
1070
               0
1070
             147
1040
0.09921875
1002
}
  0
DIMENSION
  5
193
100
AcDbEntity
  8
Dimension
370
               5
390
0
  6
Continuous
 62
               1
100
AcDbDimension
  2
*D12
 10
-9.5317700000000052
 20
10.362890000000007
 30
0.0
 11
-9.5317700000000052
 21
9.4975588079834026
 31
0.0
 70
             128
 71
               5
 72
               1
 41
1.0
 42
0.0
  3
IE Standard
100
AcDbAlignedDimension
 13
-2.2017699999999962
 23
8.6803900000000027
 33
0.0
 14
-5.5042700000000053
 24
10.362890000000007
 34
0.0
 50
90.0
100
AcDbRotatedDimension
1001
ACAD
1000
DSTYLE
1002
{
1070
             271
1070
               2
1070
             340
1005
35
1070
             147
1040
0.09921875
1002
}
  0
DIMENSION
  5
194
100
AcDbEntity
  8
Dimension
370
               5
390
0
  6
Continuous
 62
               1
100
AcDbDimension
  2
*D13
 10
-17.651769999999996
 20
8.6803900000000027
 30
0.0
 11
-17.651769999999996
 21
5.500390000000003
 31
0.0
 71
               5
 72
               1
 41
1.0
 42
0.0
  3
IE Standard
100
AcDbAlignedDimension
 13
-2.2417700000000025
 23
2.3203900000000033
 33
0.0
 14
-2.2017699999999962
 24
8.6803900000000027
 34
0.0
 50
90.0
100
AcDbRotatedDimension
1001
ACAD
1000
DSTYLE
1002
{
1070
             271
1070
               2
1070
             340
1005
35
1070
             147
1040
0.09921875
1002
}
  0
DIMENSION
  5
195
100
AcDbEntity
  8
Dimension
370
               5
390
0
  6
Continuous
 62
               1
100
AcDbDimension
  2
*D14
 10
-12.70177
 20
7.3103900000000124
 30
0.0
 11
-12.70177
 21
5.5482803198242294
 31
0.0
 70
             128
 71
               5
 72
               1
 41
1.0
 42
0.0
  3
IE Standard
100
AcDbAlignedDimension
 13
-3.5717700000000008
 23
3.6903900000000078
 33
0.0
 14
-3.5717700000000008
 24
7.3103900000000124
 34
0.0
 50
90.0
100
AcDbRotatedDimension
1001
ACAD
1000
DSTYLE
1002
{
1070
             271
1070
               2
1070
             340
1005
35
1070
             147
1040
0.09921875
1002
}
  0
DIMENSION
  5
196
100
AcDbEntity
  8
Dimension
370
               5
390
0
  6
Continuous
 62
               1
100
AcDbDimension
  2
*D15
 10
-3.5717700000000008
 20
-4.8596099999999911
 30
0.0
 11
-0.3205383105468762
 21
-4.8596099999999911
 31
0.0
 70
             128
 71
               5
 72
               1
 41
1.0
 42
0.0
  3
IE Standard
100
AcDbAlignedDimension
 13
2.7882299999999987
 23
3.6903900000000078
 33
0.0
 14
-3.5717700000000008
 24
3.6903900000000078
 34
0.0
100
AcDbRotatedDimension
1001
ACAD
1000
DSTYLE
1002
{
1070
             271
1070
               2
1070
             340
1005
35
1070
             147
1040
0.09921875
1002
}
  0
DIMENSION
  5
197
100
AcDbEntity
  8
Dimension
370
               5
390
0
  6
Continuous
 62
               1
100
AcDbDimension
  2
*D16
 10
-2.2017699999999962
 20
-1.9596099999999961
 30
0.0
 11
-0.3343237109375012
 21
-1.9596099999999961
 31
0.0
 70
             128
 71
               5
 72
               1
 41
1.0
 42
0.0
  3
IE Standard
100
AcDbAlignedDimension
 13
1.4182299999999941
 23
2.3203900000000033
 33
0.0
 14
-2.2017699999999962
 24
2.3203900000000033
 34
0.0
100
AcDbRotatedDimension
1001
ACAD
1000
DSTYLE
1002
{
1070
             271
1070
               2
1070
             340
1005
35
1070
             147
1040
0.09921875
1002
}
  0
INSERT
  5
198
100
AcDbEntity
  8
None
390
0
 62
               7
100
AcDbBlockReference
  2
Group
 10
0.0
 20
0.0
 30
0.0
  0
POLYLINE
  5
199
102
{ACAD_REACTORS
330
19F
102
}
100
AcDbEntity
  8
None
370
               9
390
0
  6
Continuous
 62
               7
100
AcDb2dPolyline
 66
               1
 10
0.0
 20
0.0
 30
0.0
 70
               1
 75
               5
  0
VERTEX
  5
19A
100
AcDbEntity
  8
None
370
               9
390
0
  6
Continuous
 62
               7
100
AcDbVertex
100
AcDb2dVertex
 10
-2.3117699999999957
 20
7.4203900000000118
 30
0.0
  0
VERTEX
  5
19B
100
AcDbEntity
  8
None
370
               9
390
0
  6
Continuous
 62
               7
100
AcDbVertex
100
AcDb2dVertex
 10
1.5282300000000077
 20
7.4203900000000118
 30
0.0
  0
VERTEX
  5
19C
100
AcDbEntity
  8
None
370
               9
390
0
  6
Continuous
 62
               7
100
AcDbVertex
100
AcDb2dVertex
 10
1.5282300000000077
 20
3.5803900000000084
 30
0.0
  0
VERTEX
  5
19D
100
AcDbEntity
  8
None
370
               9
390
0
  6
Continuous
 62
               7
100
AcDbVertex
100
AcDb2dVertex
 10
-2.3117699999999957
 20
3.5803900000000084
 30
0.0
  0
SEQEND
  5
19E
100
AcDbEntity
  8
None
370
               9
390
0
  6
Continuous
 62
               7
  0
HATCH
  5
19F
100
AcDbEntity
  8
None
370
               0
390
0
  6
Continuous
 62
             253
100
AcDbHatch
 10
0.0
 20
0.0
 30
0.0
210
0.0
220
0.0
230
1.0
  2
SOLID
 70
               1
 71
               1
 91
        1
 92
        1
 93
        4
 72
               1
 10
-2.3117699999999957
 20
7.4203900000000118
 11
1.5282300000000077
 21
7.4203900000000118
 72
               1
 10
1.5282300000000077
 20
7.4203900000000118
 11
1.5282300000000077
 21
3.5803900000000084
 72
               1
 10
1.5282300000000077
 20
3.5803900000000084
 11
-2.3117699999999957
 21
3.5803900000000084
 72
               1
 10
-2.3117699999999957
 20
3.5803900000000084
 11
-2.3117699999999957
 21
7.4203900000000118
 97
        1
330
199
 75
               0
 76
               1
 98
        1
 10
0.0
 20
0.0
  0
LINE
  5
1A0
100
AcDbEntity
  8
None
370
               5
390
0
  6
Continuous
 62
               1
100
AcDbLine
 10
9.3072599999999994
 20
20.462760000000003
 30
0.0
 11
-1.0317699999999945
 21
5.8903900000000107
 31
0.0
  0
SOLID
  5
1A1
100
AcDbEntity
  8
None
370
               5
390
0
 62
               1
100
AcDbTrace
 10
-1.0317699999999945
 20
5.8903900000000107
 30
0.0
 11
-0.7372809696730895
 21
6.6575601525769121
 31
0.0
 12
-0.3931499423125984
 22
6.4075343259933382
 32
0.0
 13
-0.3931499423125984
 23
6.4075343259933382
 33
0.0
  0
DIMENSION
  5
1A2
100
AcDbEntity
  8
Dimension
370
               5
390
0
  6
Continuous
 62
               1
100
AcDbDimension
  2
*D18
 10
0.1582300000000032
 20
14.130390000000002
 30
0.0
 11
3.1682300000000003
 21
14.130390000000002
 31
0.0
 70
             128
 71
               5
 72
               1
 41
1.0
 42
0.0
  3
IE Standard
100
AcDbAlignedDimension
 13
0.9582300000000004
 23
8.6803900000000027
 33
0.0
 14
0.1582300000000032
 24
8.6803900000000027
 34
0.0
100
AcDbRotatedDimension
1001
ACAD
1000
DSTYLE
1002
{
1070
             271
1070
               2
1070
             340
1005
35
1070
               3
1000
<>mm typ.
1070
             174
1070
               0
1070
             147
1040
0.09921875
1002
}
  0
DIMENSION
  5
1A3
100
AcDbEntity
  8
Dimension
370
               5
390
0
  6
Continuous
 62
               1
100
AcDbDimension
  2
*D19
 10
-9.429270000000006
 20
0.637890000000013
 30
0.0
 11
-9.429270000000006
 21
1.9941064306640754
 31
0.0
 70
             128
 71
               5
 72
               1
 41
1.0
 42
0.0
  3
IE Standard
100
AcDbAlignedDimension
 13
-5.5042700000000053
 23
3.6378900000000129
 33
0.0
 14
-5.5042700000000053
 24
0.637890000000013
 34
0.0
 50
90.0
100
AcDbRotatedDimension
1001
ACAD
1000
DSTYLE
1002
{
1070
             271
1070
               2
1070
             340
1005
35
1070
             147
1040
0.09921875
1002
}
  0
ENDSEC
  0
SECTION
  2
OBJECTS
  0
DICTIONARY
  5
19
100
AcDbDictionary
280
               0
281
               1
  3
ACAD_GROUP
350
1A
  3
ACAD_MLINESTYLE
350
1B
  3
ACAD_LAYOUT
350
1E
  3
ACAD_PLOTSETTINGS
350
22
  3
ACAD_PLOTSTYLENAME
350
1F
  3
ACAD_WIPEOUT_VARS
350
23
  0
DICTIONARY
  5
1A
102
{ACAD_REACTORS
330
19
102
}
100
AcDbDictionary
280
               0
281
               1
  0
DICTIONARY
  5
1B
102
{ACAD_REACTORS
330
19
102
}
100
AcDbDictionary
280
               0
281
               1
  3
Standard
350
1C
  0
MLINESTYLE
  5
1C
102
{ACAD_REACTORS
330
1B
102
}
100
AcDbMlineStyle
  2
Standard
 70
               0
  3

 62
               0
 51
90.0
 52
90.0
 71
               2
 49
0.5
 62
             256
  6
ByLayer
 49
-0.5
 62
             256
  6
ByLayer
  0
ACDBDICTIONARYWDFLT
  5
1F
102
{ACAD_REACTORS
330
19
102
}
100
AcDbDictionary
281
               1
  3
Normal
350
1D
100
AcDbDictionaryWithDefault
340
1D
  0
ACDBPLACEHOLDER
  5
1D
102
{ACAD_REACTORS
330
1F
102
}
  0
LAYOUT
  5
20
102
{ACAD_REACTORS
330
1E
102
}
100
AcDbPlotSettings
  1

  2

  4

  6

 40
0.0
 41
0.0
 42
0.0
 43
0.0
 44
0.0
 45
0.0
 46
0.0
 47
0.0
 48
0.0
 49
0.0
140
0.0
141
0.0
142
1.0
143
1.0
 70
            1024
 72
               0
 73
               0
 74
               0
  7

 75
               0
147
1.0
148
0.0
149
0.0
100
AcDbLayout
  1
Model
 70
               0
 71
               0
 10
0.0
 20
0.0
 11
0.0
 21
0.0
 12
0.0
 22
0.0
 32
0.0
 14
0.0
 24
0.0
 34
0.0
 15
0.0
 25
0.0
 35
0.0
146
0.0
 13
0.0
 23
0.0
 33
0.0
 16
0.0
 26
0.0
 36
0.0
 17
0.0
 27
0.0
 37
0.0
 76
               0
330
A
331
0
345
0
346
0
  0
LAYOUT
  5
21
102
{ACAD_REACTORS
330
1E
102
}
100
AcDbPlotSettings
  1

  2

  4

  6

 40
0.0
 41
0.0
 42
0.0
 43
0.0
 44
0.0
 45
0.0
 46
0.0
 47
0.0
 48
0.0
 49
0.0
140
0.0
141
0.0
142
1.0
143
1.0
 70
               0
 72
               0
 73
               0
 74
               0
  7

 75
               0
147
1.0
148
0.0
149
0.0
100
AcDbLayout
  1
Layout1
 70
               0
 71
               0
 10
0.0
 20
0.0
 11
0.0
 21
0.0
 12
0.0
 22
0.0
 32
0.0
 14
0.0
 24
0.0
 34
0.0
 15
0.0
 25
0.0
 35
0.0
146
0.0
 13
0.0
 23
0.0
 33
0.0
 16
0.0
 26
0.0
 36
0.0
 17
0.0
 27
0.0
 37
0.0
 76
               0
330
B
331
0
345
0
346
0
  0
DICTIONARY
  5
1E
102
{ACAD_REACTORS
330
19
102
}
100
AcDbDictionary
280
               0
281
               1
  3
Layout1
350
21
  3
Model
350
20
  0
DICTIONARY
  5
22
102
{ACAD_REACTORS
330
19
102
}
100
AcDbDictionary
280
               0
281
               1
  0
WIPEOUTVARIABLES
  5
23
100
AcDbWipeoutVariables
 70
               0
  0
ENDSEC
  0
EOF
