  0
SECTION
  2
HEADER
  9
$ACADVER
  1
AC1015
  9
$ACADMAINTVER
 70
               6
  9
$DWGCODEPAGE
  3
ANSI_1252
  9
$INSBASE
 10
0.0
 20
0.0
 30
0.0
  9
$EXTMIN
 10
-30.0
 20
-20.109607999999994
 30
0.0
  9
$EXTMAX
 10
27.630611670669566
 20
18.0
 30
0.0
  9
$LIMMIN
 10
0.0
 20
0.0
  9
$LIMMAX
 10
0.0
 20
0.0
  9
$ORTHOMODE
 70
               0
  9
$REGENMODE
 70
               1
  9
$FILLMODE
 70
               1
  9
$QTEXTMODE
 70
               0
  9
$MIRRTEXT
 70
               1
  9
$LTSCALE
 40
1.27
  9
$ATTMODE
 70
               1
  9
$TEXTSIZE
 40
0.2
  9
$TRACEWID
 40
1.0
  9
$TEXTSTYLE
  7
Standard
  9
$CLAYER
  8
None
  9
$CELTYPE
  6
Continuous
  9
$CECOLOR
 62
             256
  9
$CELTSCALE
 40
1.0
  9
$DISPSILH
 70
               0
  9
$DIMSCALE
 40
1.0
  9
$DIMASZ
 40
0.5612060546875
  9
$DIMEXO
 40
0.396875
  9
$DIMDLI
 40
10.16
  9
$DIMRND
 40
0.0
  9
$DIMDLE
 40
1.5874999999999999
  9
$DIMEXE
 40
0.79375
  9
$DIMTP
 40
0.0
  9
$DIMTM
 40
0.0
  9
$DIMTXT
 40
0.7579186197916666
  9
$DIMCEN
 40
0.0
  9
$DIMTSZ
 40
0.0
  9
$DIMTOL
 70
               0
  9
$DIMLIM
 70
               0
  9
$DIMTIH
 70
               0
  9
$DIMTOH
 70
               0
  9
$DIMSE1
 70
               0
  9
$DIMSE2
 70
               0
  9
$DIMTAD
 70
               1
  9
$DIMZIN
 70
              11
  9
$DIMBLK
  1
VW_SLASH
  9
$DIMASO
 70
               1
  9
$DIMSHO
 70
               1
  9
$DIMPOST
  1
<>mm
  9
$DIMAPOST
  1
[]
  9
$DIMALT
 70
               0
  9
$DIMALTD
 70
               1
  9
$DIMALTF
 40
1.0
  9
$DIMLFAC
 40
1.0
  9
$DIMTOFL
 70
               1
  9
$DIMTVP
 40
0.0
  9
$DIMTIX
 70
               1
  9
$DIMSOXD
 70
               0
  9
$DIMSAH
 70
               0
  9
$DIMBLK1
  1

  9
$DIMBLK2
  1

  9
$DIMSTYLE
  2
Arch
  9
$DIMCLRD
 70
               0
  9
$DIMCLRE
 70
               0
  9
$DIMCLRT
 70
               0
  9
$DIMTFAC
 40
1.0
  9
$DIMGAP
 40
1.5874999999999999
  9
$DIMJUST
 70
               0
  9
$DIMSD1
 70
               0
  9
$DIMSD2
 70
               0
  9
$DIMTOLJ
 70
               1
  9
$DIMTZIN
 70
              11
  9
$DIMALTZ
 70
              11
  9
$DIMALTTZ
 70
              11
  9
$DIMUPT
 70
               0
  9
$DIMDEC
 70
               1
  9
$DIMTDEC
 70
               1
  9
$DIMALTU
 70
               2
  9
$DIMALTTD
 70
               2
  9
$DIMTXSTY
  7
Arial
  9
$DIMAUNIT
 70
               0
  9
$DIMADEC
 70
               2
  9
$DIMALTRND
 40
0.0
  9
$DIMAZIN
 70
               0
  9
$DIMDSEP
 70
              46
  9
$DIMATFIT
 70
               0
  9
$DIMFRAC
 70
               2
  9
$DIMLDRBLK
  1

  9
$DIMLUNIT
 70
               2
  9
$DIMLWD
 70
              -2
  9
$DIMLWE
 70
              -2
  9
$DIMTMOVE
 70
               0
  9
$LUNITS
 70
               2
  9
$LUPREC
 70
               4
  9
$SKETCHINC
 40
0.1
  9
$FILLETRAD
 40
0.0
  9
$AUNITS
 70
               0
  9
$AUPREC
 70
               0
  9
$MENU
  1
acad
  9
$ELEVATION
 40
0.0
  9
$PELEVATION
 40
0.0
  9
$THICKNESS
 40
0.0
  9
$LIMCHECK
 70
               0
  9
$CHAMFERA
 40
0.0
  9
$CHAMFERB
 40
0.0
  9
$CHAMFERC
 40
0.0
  9
$CHAMFERD
 40
0.0
  9
$SKPOLY
 70
               0
  9
$TDCREATE
 40
2454964.547557870
  9
$TDUCREATE
 40
0.000000000
  9
$TDUPDATE
 40
2454964.547557870
  9
$TDUUPDATE
 40
0.000000000
  9
$TDINDWG
 40
0.0000000000
  9
$TDUSRTIMER
 40
0.0000000000
  9
$USRTIMER
 70
               1
  9
$ANGBASE
 50
0.0
  9
$ANGDIR
 70
               0
  9
$PDMODE
 70
               1
  9
$PDSIZE
 40
-2.0
  9
$PLINEWID
 40
0.0
  9
$SPLFRAME
 70
               0
  9
$SPLINETYPE
 70
               6
  9
$SPLINESEGS
 70
               8
  9
$HANDSEED
  5
1B2
  9
$SURFTAB1
 70
               6
  9
$SURFTAB2
 70
               6
  9
$SURFTYPE
 70
               6
  9
$SURFU
 70
               6
  9
$SURFV
 70
               6
  9
$UCSBASE
  2

  9
$UCSNAME
  2

  9
$UCSORG
 10
0.0
 20
0.0
 30
0.0
  9
$UCSXDIR
 10
1.0
 20
0.0
 30
0.0
  9
$UCSYDIR
 10
0.0
 20
1.0
 30
0.0
  9
$UCSORTHOREF
  2

  9
$UCSORTHOVIEW
 70
               0
  9
$UCSORGTOP
 10
0.0
 20
0.0
 30
0.0
  9
$UCSORGBOTTOM
 10
0.0
 20
0.0
 30
0.0
  9
$UCSORGLEFT
 10
0.0
 20
0.0
 30
0.0
  9
$UCSORGRIGHT
 10
0.0
 20
0.0
 30
0.0
  9
$UCSORGFRONT
 10
0.0
 20
0.0
 30
0.0
  9
$UCSORGBACK
 10
0.0
 20
0.0
 30
0.0
  9
$PUCSBASE
  2

  9
$PUCSNAME
  2

  9
$PUCSORG
 10
0.0
 20
0.0
 30
0.0
  9
$PUCSXDIR
 10
1.0
 20
0.0
 30
0.0
  9
$PUCSYDIR
 10
0.0
 20
1.0
 30
0.0
  9
$PUCSORTHOREF
  2

  9
$PUCSORTHOVIEW
 70
               0
  9
$PUCSORGTOP
 10
0.0
 20
0.0
 30
0.0
  9
$PUCSORGBOTTOM
 10
0.0
 20
0.0
 30
0.0
  9
$PUCSORGLEFT
 10
0.0
 20
0.0
 30
0.0
  9
$PUCSORGRIGHT
 10
0.0
 20
0.0
 30
0.0
  9
$PUCSORGFRONT
 10
0.0
 20
0.0
 30
0.0
  9
$PUCSORGBACK
 10
0.0
 20
0.0
 30
0.0
  9
$USERI1
 70
               0
  9
$USERI2
 70
               0
  9
$USERI3
 70
               0
  9
$USERI4
 70
               0
  9
$USERI5
 70
               0
  9
$USERR1
 40
0.0
  9
$USERR2
 40
0.0
  9
$USERR3
 40
0.0
  9
$USERR4
 40
0.0
  9
$USERR5
 40
0.0
  9
$WORLDVIEW
 70
               1
  9
$SHADEDGE
 70
               3
  9
$SHADEDIF
 70
              70
  9
$TILEMODE
 70
               1
  9
$MAXACTVP
 70
              64
  9
$PINSBASE
 10
0.0
 20
0.0
 30
0.0
  9
$PLIMCHECK
 70
               0
  9
$PEXTMIN
 10
1.0000000000000000E+20
 20
1.0000000000000000E+20
 30
1.0000000000000000E+20
  9
$PEXTMAX
 10
-1.0000000000000000E+20
 20
-1.0000000000000000E+20
 30
-1.0000000000000000E+20
  9
$PLIMMIN
 10
0.0
 20
0.0
  9
$PLIMMAX
 10
12.0
 20
9.0
  9
$UNITMODE
 70
               0
  9
$VISRETAIN
 70
               0
  9
$PLINEGEN
 70
               1
  9
$PSLTSCALE
 70
               0
  9
$TREEDEPTH
 70
            3020
  9
$CMLSTYLE
  2
Standard
  9
$CMLJUST
 70
               0
  9
$CMLSCALE
 40
1.0
  9
$PROXYGRAPHICS
 70
               0
  9
$MEASUREMENT
 70
               1
  9
$CELWEIGHT
370
               0
  9
$ENDCAPS
280
               0
  9
$JOINSTYLE
280
               0
  9
$LWDISPLAY
290
               1
  9
$INSUNITS
 70
               4
  9
$HYPERLINKBASE
  1

  9
$STYLESHEET
  1

  9
$XEDIT
290
               1
  9
$CEPSNTYPE
380
               0
  9
$PSTYLEMODE
290
               1
  9
$FINGERPRINTGUID
  2

  9
$VERSIONGUID
  2

  9
$EXTNAMES
290
               1
  9
$PSVPSCALE
 40
0.0
  0
ENDSEC
  0
SECTION
  2
CLASSES
  0
CLASS
  1
LWPOLYLINE
  2
AcDbPolyline
  3
AutoCAD 2000
 90
        0
280
               0
281
               1
  0
CLASS
  1
IMAGE
  2
AcDbRasterImage
  3
ISM
 90
      127
280
               0
281
               1
  0
CLASS
  1
OLE2FRAME
  2
AcDbOle2Frame
  3
AutoCAD 2000
 90
        0
280
               0
281
               1
  0
CLASS
  1
HATCH
  2
AcDbHatch
  3
AutoCAD 2000
 90
        0
280
               0
281
               1
  0
CLASS
  1
DICTIONARYVAR
  2
AcDbDictionaryVar
  3
AutoCAD 2000
 90
        0
280
               0
281
               0
  0
CLASS
  1
RASTERVARIABLES
  2
AcDbRasterVariables
  3
ISM
 90
        0
280
               0
281
               0
  0
CLASS
  1
IMAGEDEF
  2
AcDbRasterImageDef
  3
ISM
 90
        0
280
               0
281
               0
  0
CLASS
  1
IMAGEDEF_REACTOR
  2
AcDbRasterImageDefReactor
  3
ISM
 90
        1
280
               0
281
               0
  0
CLASS
  1
IDBUFFER
  2
AcDbIdBuffer
  3
AutoCAD 2000
 90
        0
280
               0
281
               0
  0
CLASS
  1
SPATIAL_FILTER
  2
AcDbSpatialFilter
  3
AutoCAD 2000
 90
        0
280
               0
281
               0
  0
CLASS
  1
XRECORD
  2
AcDbXrecord
  3
AutoCAD 2000
 90
        0
280
               0
281
               0
  0
CLASS
  1
SORTENTSTABLE
  2
AcDbSortentsTable
  3
AutoCAD 2000
 90
        0
280
               0
281
               0
  0
CLASS
  1
LAYER_INDEX
  2
AcDbLayerIndex
  3
AutoCAD 2000
 90
        0
280
               0
281
               0
  0
CLASS
  1
SPATIAL_INDEX
  2
AcDbSpatialIndex
  3
AutoCAD 2000
 90
        0
280
               0
281
               0
  0
CLASS
  1
OBJECT_PTR
  2
CAseDLPNTableRecord
  3
"ASE-LPNTableRecord"
 90
        1
280
               0
281
               0
  0
CLASS
  1
LAYOUT
  2
AcDbLayout
  3
AutoCAD 2000
 90
        0
280
               0
281
               0
  0
CLASS
  1
PLOTSETTINGS
  2
AcDbPlotSettings
  3
AutoCAD 2000
 90
        0
280
               0
281
               0
  0
CLASS
  1
ACDBDICTIONARYWDFLT
  2
AcDbDictionaryWithDefault
  3
AutoCAD 2000
 90
        0
280
               0
281
               0
  0
CLASS
  1
ACDBPLACEHOLDER
  2
AcDbPlaceHolder
  3
AutoCAD 2000
 90
        0
280
               0
281
               0
  0
CLASS
  1
VBA_PROJECT
  2
AcDbVbaProject
  3
acadvba
 90
        0
280
               0
281
               0
  0
CLASS
  1
WIPEOUT
  2
AcDbWipeout
  3
WipeOut|AutoCAD Express Tool|expresstools@autodesk.com
 90
      127
280
               0
281
               1
  0
CLASS
  1
WIPEOUTVARIABLES
  2
AcDbWipeoutVariables
  3
WipeOut|AutoCAD Express Tool|expresstools@autodesk.com
 90
        0
280
               0
281
               0
  0
CLASS
  1
RTEXT
  2
RText
  3
RText|AutoCAD Express Tool|expresstools@autodesk.com
 90
        0
280
               0
281
               1
  0
CLASS
  1
ARCALIGNEDTEXT
  2
AcDbArcAlignedText
  3
ATEXT|AutoCAD Express Tool|expresstools@autodesk.com
 90
        0
280
               0
281
               1
  0
ENDSEC
  0
SECTION
  2
TABLES
  0
TABLE
  2
VPORT
  5
7
100
AcDbSymbolTable
 70
               1
  0
VPORT
  5
15
100
AcDbSymbolTableRecord
100
AcDbViewportTableRecord
  2
*ACTIVE
 70
               0
 10
0.0
 20
0.0
 11
1.0
 21
1.0
 12
-1.1846941646652169
 22
-1.0548039999999972
 13
0.0
 23
0.0
 14
1.0
 24
1.0
 15
0.0
 25
0.0
 16
0.0
 26
0.0
 36
1.0
 17
0.0
 27
0.0
 37
0.0
 40
38.109607999999994
 41
0.688564
 42
50.0
 43
0.0
 44
0.0
 50
0.0
 51
0.0
 71
               0
 72
            2000
 73
               1
 74
               1
 75
               0
 76
               0
 77
               0
 78
               0
281
               0
 65
               0
110
0.0
120
0.0
130
0.0
111
1.0
121
0.0
131
0.0
112
0.0
122
1.0
132
0.0
345
0
346
0
 79
               0
146
0.0
  0
ENDTAB
  0
TABLE
  2
LTYPE
  5
4
100
AcDbSymbolTable
 70
              16
  0
LTYPE
  5
11
100
AcDbSymbolTableRecord
100
AcDbLinetypeTableRecord
  2
ByBlock
 70
              64
  3

 72
              65
 73
               0
 40
0.0
  0
LTYPE
  5
12
100
AcDbSymbolTableRecord
100
AcDbLinetypeTableRecord
  2
ByLayer
 70
              64
  3

 72
              65
 73
               0
 40
0.0
  0
LTYPE
  5
13
100
AcDbSymbolTableRecord
100
AcDbLinetypeTableRecord
  2
Continuous
 70
              64
  3
Solid line
 72
              65
 73
               0
 40
0.0
  0
LTYPE
  5
36
100
AcDbSymbolTableRecord
100
AcDbLinetypeTableRecord
  2
STYLE_01
 70
               0
  3

 72
              65
 73
               2
 40
0.41664
 49
0.20828
 74
               0
 49
-0.20836
 74
               0
  0
LTYPE
  5
37
100
AcDbSymbolTableRecord
100
AcDbLinetypeTableRecord
  2
STYLE_02
 70
               0
  3

 72
              65
 73
               2
 40
0.6944250000000001
 49
0.48607
 74
               0
 49
-0.2083550000000001
 74
               0
  0
LTYPE
  5
38
100
AcDbSymbolTableRecord
100
AcDbLinetypeTableRecord
  2
STYLE_03
 70
               0
  3

 72
              65
 73
               2
 40
1.25
 49
1.0416400000000001
 74
               0
 49
-0.2083599999999999
 74
               0
  0
LTYPE
  5
39
100
AcDbSymbolTableRecord
100
AcDbLinetypeTableRecord
  2
STYLE_04
 70
               0
  3

 72
              65
 73
               2
 40
1.5277099999999999
 49
1.3194249999999998
 74
               0
 49
-0.208285
 74
               0
  0
LTYPE
  5
3A
100
AcDbSymbolTableRecord
100
AcDbLinetypeTableRecord
  2
STYLE_05
 70
               0
  3

 72
              65
 73
               2
 40
0.20828
 49
0.069425
 74
               0
 49
-0.138855
 74
               0
  0
LTYPE
  5
3B
100
AcDbSymbolTableRecord
100
AcDbLinetypeTableRecord
  2
STYLE_06
 70
               0
  3

 72
              65
 73
               4
 40
1.0416400000000001
 49
0.625
 74
               0
 49
-0.20828
 74
               0
 49
0.06943
 74
               0
 49
-0.13893
 74
               0
  0
LTYPE
  5
3C
100
AcDbSymbolTableRecord
100
AcDbLinetypeTableRecord
  2
STYLE_07
 70
               0
  3

 72
              65
 73
               6
 40
1.875
 49
0.625
 74
               0
 49
-0.20828
 74
               0
 49
0.6250000000000001
 74
               0
 49
-0.2083599999999999
 74
               0
 49
0.06943
 74
               0
 49
-0.1389299999999999
 74
               0
  0
LTYPE
  5
3D
100
AcDbSymbolTableRecord
100
AcDbLinetypeTableRecord
  2
STYLE_08
 70
               0
  3

 72
              65
 73
               6
 40
1.25
 49
0.625
 74
               0
 49
-0.20828
 74
               0
 49
0.06943
 74
               0
 49
-0.13893
 74
               0
 49
0.0694299999999999
 74
               0
 49
-0.13893
 74
               0
  0
LTYPE
  5
3E
100
AcDbSymbolTableRecord
100
AcDbLinetypeTableRecord
  2
STYLE_09
 70
               0
  3

 72
              65
 73
               4
 40
5.0
 49
3.75
 74
               0
 49
-0.2777849999999998
 74
               0
 49
0.6944300000000003
 74
               0
 49
-0.2777849999999998
 74
               0
  0
LTYPE
  5
3F
100
AcDbSymbolTableRecord
100
AcDbLinetypeTableRecord
  2
STYLE_10
 70
               0
  3

 72
              65
 73
               6
 40
5.9375
 49
3.75
 74
               0
 49
-0.2777849999999998
 74
               0
 49
0.6944300000000003
 74
               0
 49
-0.2777849999999998
 74
               0
 49
0.625
 74
               0
 49
-0.3125
 74
               0
  0
LTYPE
  5
40
100
AcDbSymbolTableRecord
100
AcDbLinetypeTableRecord
  2
STYLE_11
 70
               0
  3

 72
              65
 73
               2
 40
0.4166412353515625
 49
0.2777862548828125
 74
               0
 49
-0.13885498046875
 74
               0
  0
LTYPE
  5
41
100
AcDbSymbolTableRecord
100
AcDbLinetypeTableRecord
  2
STYLE_12
 70
               0
  3

 72
              65
 73
               4
 40
2.1527862548828125
 49
1.180572509765625
 74
               0
 49
-0.4166412353515625
 74
               0
 49
0.069427490234375
 74
               0
 49
-0.48614501953125
 74
               0
  0
LTYPE
  5
42
100
AcDbSymbolTableRecord
100
AcDbLinetypeTableRecord
  2
STYLE_13
 70
               0
  3

 72
              65
 73
               2
 40
1.875
 49
1.25
 74
               0
 49
-0.625
 74
               0
  0
ENDTAB
  0
TABLE
  2
LAYER
  5
2
100
AcDbSymbolTable
 70
               5
  0
LAYER
  5
14
100
AcDbSymbolTableRecord
100
AcDbLayerTableRecord
  2
0
 70
               0
 62
               7
  6
Continuous
290
               1
370
              -3
390
1D
  0
LAYER
  5
43
100
AcDbSymbolTableRecord
100
AcDbLayerTableRecord
  2
Defpoints
 70
               0
 62
               7
  6
Continuous
290
               0
370
              -3
390
1D
  0
LAYER
  5
44
100
AcDbSymbolTableRecord
100
AcDbLayerTableRecord
  2
None
 70
               0
 62
               7
  6
Continuous
290
               1
370
               5
390
1D
  0
LAYER
  5
45
100
AcDbSymbolTableRecord
100
AcDbLayerTableRecord
  2
Dimension
 70
               0
 62
               7
  6
Continuous
290
               1
370
               5
390
1D
  0
LAYER
  5
46
100
AcDbSymbolTableRecord
100
AcDbLayerTableRecord
  2
OUTLINE_PHO
 70
               0
 62
               4
  6
Continuous
290
               1
370
              15
390
1D
  0
ENDTAB
  0
TABLE
  2
STYLE
  5
3
100
AcDbSymbolTable
 70
               3
  0
STYLE
  5
17
100
AcDbSymbolTableRecord
100
AcDbTextStyleTableRecord
  2
Standard
 70
               0
 40
0.0
 41
1.0
 50
0.0
 71
               0
 42
0.0
  3
txt
  4

  0
STYLE
  5
34
100
AcDbSymbolTableRecord
100
AcDbTextStyleTableRecord
  2
Arial
 70
               0
 40
0.0
 41
1.0
 50
0.0
 71
               0
 42
0.0
  3
Arial
  4

1001
ACAD
1000
Arial
1071
        0
  0
STYLE
  5
35
100
AcDbSymbolTableRecord
100
AcDbTextStyleTableRecord
  2
New Century Schlbk
 70
               0
 40
0.0
 41
1.0
 50
0.0
 71
               0
 42
0.0
  3
New Century Schlbk
  4

1001
ACAD
1000
New Century Schlbk
1071
        0
  0
ENDTAB
  0
TABLE
  2
VIEW
  5
5
100
AcDbSymbolTable
 70
               0
  0
ENDTAB
  0
TABLE
  2
UCS
  5
6
100
AcDbSymbolTable
 70
               0
  0
ENDTAB
  0
TABLE
  2
APPID
  5
8
100
AcDbSymbolTable
 70
               1
  0
APPID
  5
16
100
AcDbSymbolTableRecord
100
AcDbRegAppTableRecord
  2
ACAD
 70
               0
  0
ENDTAB
  0
TABLE
  2
DIMSTYLE
  5
9
100
AcDbSymbolTable
 70
               3
100
AcDbDimStyleTable
 71
               0
  0
DIMSTYLE
105
18
100
AcDbSymbolTableRecord
100
AcDbDimStyleTableRecord
  2
Standard
 70
               0
  3

  4

 40
1.0
 41
0.18
 42
0.0625
 43
0.38
 44
0.18
 45
0.0
 46
0.0
 47
0.0
 48
0.0
 71
               0
 72
               0
 73
               1
 74
               1
 75
               0
 76
               0
 77
               0
 78
               0
 79
               0
140
0.18
141
0.09
142
0.0
143
25.399999999999999
144
1.0
145
0.0
146
1.0
147
0.09
148
0.0
170
               0
171
               2
172
               0
173
               0
174
               0
175
               0
176
               0
177
               0
178
               0
179
               0
271
               4
272
               4
273
               2
274
               2
275
               0
276
               0
277
               2
278
              46
279
               0
280
               0
281
               0
282
               0
283
               1
284
               0
285
               0
286
               0
288
               0
289
               3
340
17
341
0
342
0
343
0
344
0
371
              -2
372
              -2
  0
DIMSTYLE
105
4F
100
AcDbSymbolTableRecord
100
AcDbDimStyleTableRecord
  2
IE Standard
 70
               0
  3
<>mm
  4
[]
 40
1.0
 41
0.79375
 42
0.4762500011827797
 43
6.9999859934672708
 44
0.9525000023655593
 45
0.0
 46
0.0
 47
0.0
 48
0.0
 71
               0
 72
               0
 73
               1
 74
               1
 75
               0
 76
               0
 77
               0
 78
              11
 79
               0
140
0.7579186197916666
141
0.0
142
0.0
143
1.0
144
1.0
145
0.0
146
1.0
147
0.0
148
0.0
170
               0
171
               1
172
               1
173
               0
174
               1
175
               0
176
               0
177
               0
178
               0
179
               2
271
               1
272
               1
273
               2
274
               2
275
               0
276
               2
277
               2
278
              46
279
               0
280
               0
281
               0
282
               0
283
               1
284
              11
285
              11
286
              11
288
               0
289
               0
340
34
341
4B
342
47
343
0
344
0
371
              -2
372
              -2
  0
DIMSTYLE
105
55
100
AcDbSymbolTableRecord
100
AcDbDimStyleTableRecord
  2
Arch
 70
               0
  3
<>mm
  4
[]
 40
1.0
 41
0.5612060546875
 42
0.396875
 43
10.16
 44
0.79375
 45
0.0
 46
1.5874999999999999
 47
0.0
 48
0.0
 71
               0
 72
               0
 73
               0
 74
               0
 75
               0
 76
               0
 77
               1
 78
              11
 79
               0
140
0.7579186197916666
141
0.0
142
0.0
143
1.0
144
1.0
145
0.0
146
1.0
147
1.5874999999999999
148
0.0
170
               0
171
               1
172
               1
173
               0
174
               1
175
               0
176
               0
177
               0
178
               0
179
               2
271
               1
272
               1
273
               2
274
               2
275
               0
276
               2
277
               2
278
              46
279
               0
280
               0
281
               0
282
               0
283
               1
284
              11
285
              11
286
              11
288
               0
289
               0
340
34
341
47
342
50
343
0
344
0
371
              -2
372
              -2
  0
ENDTAB
  0
TABLE
  2
BLOCK_RECORD
  5
1
100
AcDbSymbolTable
 70
              19
  0
BLOCK_RECORD
  5
A
100
AcDbSymbolTableRecord
100
AcDbBlockTableRecord
  2
*MODEL_SPACE
340
20
  0
BLOCK_RECORD
  5
B
100
AcDbSymbolTableRecord
100
AcDbBlockTableRecord
  2
*PAPER_SPACE
340
21
  0
BLOCK_RECORD
  5
47
100
AcDbSymbolTableRecord
100
AcDbBlockTableRecord
  2
VW_FILLEDARROW
340
0
  0
BLOCK_RECORD
  5
4B
100
AcDbSymbolTableRecord
100
AcDbBlockTableRecord
  2
VW_FILLEDARROW-1
340
0
  0
BLOCK_RECORD
  5
50
100
AcDbSymbolTableRecord
100
AcDbBlockTableRecord
  2
VW_SLASH
340
0
  0
BLOCK_RECORD
  5
24
100
AcDbSymbolTableRecord
100
AcDbBlockTableRecord
  2
*D3
340
0
  0
BLOCK_RECORD
  5
25
100
AcDbSymbolTableRecord
100
AcDbBlockTableRecord
  2
*D4
340
0
  0
BLOCK_RECORD
  5
26
100
AcDbSymbolTableRecord
100
AcDbBlockTableRecord
  2
*D5
340
0
  0
BLOCK_RECORD
  5
27
100
AcDbSymbolTableRecord
100
AcDbBlockTableRecord
  2
*D6
340
0
  0
BLOCK_RECORD
  5
28
100
AcDbSymbolTableRecord
100
AcDbBlockTableRecord
  2
*D7
340
0
  0
BLOCK_RECORD
  5
29
100
AcDbSymbolTableRecord
100
AcDbBlockTableRecord
  2
*D8
340
0
  0
BLOCK_RECORD
  5
2A
100
AcDbSymbolTableRecord
100
AcDbBlockTableRecord
  2
*D9
340
0
  0
BLOCK_RECORD
  5
2B
100
AcDbSymbolTableRecord
100
AcDbBlockTableRecord
  2
*D10
340
0
  0
BLOCK_RECORD
  5
2C
100
AcDbSymbolTableRecord
100
AcDbBlockTableRecord
  2
*D11
340
0
  0
BLOCK_RECORD
  5
2D
100
AcDbSymbolTableRecord
100
AcDbBlockTableRecord
  2
*D12
340
0
  0
BLOCK_RECORD
  5
2E
100
AcDbSymbolTableRecord
100
AcDbBlockTableRecord
  2
*D13
340
0
  0
BLOCK_RECORD
  5
2F
100
AcDbSymbolTableRecord
100
AcDbBlockTableRecord
  2
*D14
340
0
  0
BLOCK_RECORD
  5
30
100
AcDbSymbolTableRecord
100
AcDbBlockTableRecord
  2
*D15
340
0
  0
BLOCK_RECORD
  5
31
100
AcDbSymbolTableRecord
100
AcDbBlockTableRecord
  2
*D16
340
0
  0
BLOCK_RECORD
  5
32
100
AcDbSymbolTableRecord
100
AcDbBlockTableRecord
  2
*D17
340
0
  0
BLOCK_RECORD
  5
33
100
AcDbSymbolTableRecord
100
AcDbBlockTableRecord
  2
*D18
340
0
  0
ENDTAB
  0
ENDSEC
  0
SECTION
  2
BLOCKS
  0
BLOCK
  5
D
100
AcDbEntity
  8
0
390
0
100
AcDbBlockBegin
  2
*MODEL_SPACE
 70
               0
 10
0.0
 20
0.0
 30
0.0
  3
*MODEL_SPACE
  1

  0
ENDBLK
  5
E
100
AcDbEntity
  8
0
390
0
100
AcDbBlockEnd
  0
BLOCK
  5
F
100
AcDbEntity
 67
               1
  8
0
390
0
100
AcDbBlockBegin
  2
*PAPER_SPACE
 70
               0
 10
0.0
 20
0.0
 30
0.0
  3
*PAPER_SPACE
  1

  0
ENDBLK
  5
10
100
AcDbEntity
 67
               1
  8
0
390
0
100
AcDbBlockEnd
  0
BLOCK
  5
48
100
AcDbEntity
  8
0
370
              -2
390
0
  6
ByBlock
 62
               0
100
AcDbBlockBegin
  2
VW_FILLEDARROW
 70
               0
 10
0.0
 20
0.0
 30
0.0
  3
VW_FILLEDARROW
  1

  0
SOLID
  5
49
100
AcDbEntity
  8
0
370
              -2
390
0
 62
               0
100
AcDbTrace
 10
0.0
 20
0.0
 30
0.0
 11
-0.9999389648437499
 21
-0.2679328381102956
 31
0.0
 12
-0.9999389648437499
 22
0.2679328381102958
 32
0.0
 13
-0.9999389648437499
 23
0.2679328381102958
 33
0.0
  0
ENDBLK
  5
4A
100
AcDbEntity
  8
0
390
0
100
AcDbBlockEnd
  0
BLOCK
  5
4C
100
AcDbEntity
  8
0
370
              -2
390
0
  6
ByBlock
 62
               0
100
AcDbBlockBegin
  2
VW_FILLEDARROW-1
 70
               0
 10
0.0
 20
0.0
 30
0.0
  3
VW_FILLEDARROW
  1

  0
SOLID
  5
4D
100
AcDbEntity
  8
0
370
              -2
390
0
 62
               0
100
AcDbTrace
 10
0.0
 20
0.0
 30
0.0
 11
-0.6662384033203125
 21
-0.1785180421362784
 31
0.0
 12
-0.6662384033203125
 22
0.1785180421362785
 32
0.0
 13
-0.6662384033203125
 23
0.1785180421362785
 33
0.0
  0
ENDBLK
  5
4E
100
AcDbEntity
  8
0
390
0
100
AcDbBlockEnd
  0
BLOCK
  5
51
100
AcDbEntity
  8
0
370
              -2
390
0
  6
ByBlock
 62
               0
100
AcDbBlockBegin
  2
VW_SLASH
 70
               0
 10
0.0
 20
0.0
 30
0.0
  3
VW_SLASH
  1

  0
LINE
  5
52
100
AcDbEntity
  8
0
370
              -2
390
0
  6
ByBlock
 62
               0
100
AcDbLine
 10
0.0
 20
0.0
 30
0.0
 11
-1.0
 21
0.0
 31
0.0
  0
LINE
  5
53
100
AcDbEntity
  8
0
370
              20
390
0
  6
ByBlock
 62
               0
100
AcDbLine
 10
-0.5000145658230796
 20
-0.5000145658230795
 30
0.0
 11
0.5000145658230796
 21
0.5000145658230795
 31
0.0
  0
ENDBLK
  5
54
100
AcDbEntity
  8
0
390
0
100
AcDbBlockEnd
  0
BLOCK
  5
56
100
AcDbEntity
  8
Dimension
390
0
100
AcDbBlockBegin
  2
*D3
 70
               1
 10
0.0
 20
0.0
 30
0.0
  3
*D3
  1

  0
LINE
  5
57
100
AcDbEntity
  8
Dimension
370
              -2
390
0
  6
Continuous
 62
               0
100
AcDbLine
 10
-8.7542700000000053
 20
-5.0883600011827745
 30
0.0
 11
-8.7542700000000053
 21
-16.064610002365555
 31
0.0
  0
LINE
  5
58
100
AcDbEntity
  8
Dimension
370
              -2
390
0
  6
Continuous
 62
               0
100
AcDbLine
 10
3.4707300000000032
 20
-5.0883600011827745
 30
0.0
 11
3.4707300000000032
 21
-16.064610002365555
 31
0.0
  0
LINE
  5
59
100
AcDbEntity
  8
Dimension
370
              -2
390
0
  6
Continuous
 62
               0
100
AcDbLine
 10
3.4707300000000032
 20
-15.112109999999994
 30
0.0
 11
-8.7542700000000053
 21
-15.112109999999994
 31
0.0
  0
LINE
  5
5A
100
AcDbEntity
  8
Dimension
370
              -2
390
0
  6
Continuous
 62
               0
100
AcDbLine
 10
-8.7542700000000053
 20
-15.112109999999994
 30
0.0
 11
-10.504266498366817
 21
-15.112109999999994
 31
0.0
  0
SOLID
  5
5B
100
AcDbEntity
  8
Dimension
370
              -2
390
0
 62
               0
100
AcDbTrace
 10
-8.7542700000000053
 20
-15.112109999999994
 30
0.0
 11
-9.5480200000000046
 21
-15.324794671492198
 31
0.0
 12
-9.5480200000000046
 22
-14.899425328507791
 32
0.0
 13
-9.5480200000000046
 23
-14.899425328507791
 33
0.0
  0
LINE
  5
5C
100
AcDbEntity
  8
Dimension
370
              -2
390
0
  6
Continuous
 62
               0
100
AcDbLine
 10
3.4707300000000032
 20
-15.112109999999994
 30
0.0
 11
5.2207264983668153
 21
-15.112109999999994
 31
0.0
  0
SOLID
  5
5D
100
AcDbEntity
  8
Dimension
370
              -2
390
0
 62
               0
100
AcDbTrace
 10
3.4707300000000032
 20
-15.112109999999994
 30
0.0
 11
4.2644800000000034
 21
-14.899425328507791
 31
0.0
 12
4.2644800000000034
 22
-15.324794671492198
 32
0.0
 13
4.2644800000000034
 23
-15.324794671492198
 33
0.0
  0
WIPEOUT
  5
5E
100
AcDbEntity
  8
Dimension
370
              -2
390
0
  6
Continuous
 62
               0
 92
        0
100
AcDbWipeout
 90
        0
 10
-8.858680550991707
 20
-15.720647833333334
 30
0.0
 11
5.0376507600148521
 21
0.0
 31
0.0
 12
0.0
 22
5.0376507600148521
 32
0.0
 13
1.0
 23
1.0
340
0
 70
               7
280
               1
281
              50
282
              50
283
               0
360
0
 71
               2
 91
        5
 14
-0.5
 24
0.5
 14
0.5
 24
0.5
 14
0.5
 24
0.2584033594269222
 14
-0.5
 24
0.2584033594269222
 14
-0.5
 24
0.5
  0
MTEXT
  5
5F
100
AcDbEntity
  8
Dimension
390
0
 62
               0
100
AcDbMText
 10
-8.858680550991707
 20
-14.698146713541668
 30
0.0
 40
0.7579186197916666
 41
0.0
 71
               1
 72
               1
  1
12.225mm
  7
Arial
 73
               1
 44
0.9673603504928806
  0
WIPEOUT
  5
60
100
AcDbEntity
  8
Dimension
370
              -2
390
0
  6
Continuous
 62
               0
 92
        0
100
AcDbWipeout
 90
        0
 10
-3.8210297909768514
 20
-15.720649499999997
 30
0.0
 11
5.0270675208833486
 21
0.0
 31
0.0
 12
0.0
 22
5.0270675208833486
 32
0.0
 13
1.0
 23
1.0
340
0
 70
               7
280
               1
281
              50
282
              50
283
               0
360
0
 71
               2
 91
        5
 14
-0.5
 24
0.5
 14
0.5
 24
0.5
 14
0.5
 24
0.2578947378478542
 14
-0.5
 24
0.2578947378478542
 14
-0.5
 24
0.5
  0
MTEXT
  5
61
100
AcDbEntity
  8
Dimension
390
0
 62
               0
100
AcDbMText
 10
-3.8210297909768514
 20
-14.69814838020833
 30
0.0
 40
0.7579186197916666
 41
0.0
 71
               1
 72
               1
  1
±0.125mm
  7
Arial
 73
               1
 44
0.9673603504928806
  0
WIPEOUT
  5
62
100
AcDbEntity
  8
Dimension
370
              -2
390
0
  6
Continuous
 62
               0
 92
        0
100
AcDbWipeout
 90
        0
 10
1.2060377299064982
 20
-15.720651666666667
 30
0.0
 11
2.10608325931761
 21
0.0
 31
0.0
 12
0.0
 22
2.10608325931761
 32
0.0
 13
1.0
 23
1.0
340
0
 70
               7
280
               1
281
              50
282
              50
283
               0
360
0
 71
               2
 91
        5
 14
-0.5
 24
0.5
 14
0.5
 24
0.5
 14
0.5
 24
-0.0778894675453995
 14
-0.5
 24
-0.0778894675453995
 14
-0.5
 24
0.5
  0
MTEXT
  5
63
100
AcDbEntity
  8
Dimension
390
0
 62
               0
100
AcDbMText
 10
1.2060377299064982
 20
-14.69814732638889
 30
0.0
 40
0.7579210069444442
 41
0.0
 71
               1
 72
               1
  1
 (x4)
  7
Arial
 73
               1
 44
0.9673603504928806
  0
POINT
  5
64
100
AcDbEntity
  8
Defpoints
370
               0
390
0
 62
               0
100
AcDbPoint
 10
3.4707300000000032
 20
-4.6121099999999942
 30
0.0
  0
POINT
  5
65
100
AcDbEntity
  8
Defpoints
370
               0
390
0
 62
               0
100
AcDbPoint
 10
-8.7542700000000053
 20
-4.6121099999999942
 30
0.0
  0
POINT
  5
66
100
AcDbEntity
  8
Defpoints
370
               0
390
0
 62
               0
100
AcDbPoint
 10
-8.7542700000000053
 20
-15.112109999999992
 30
0.0
  0
ENDBLK
  5
67
100
AcDbEntity
  8
Dimension
390
0
100
AcDbBlockEnd
  0
BLOCK
  5
68
100
AcDbEntity
  8
Dimension
390
0
100
AcDbBlockBegin
  2
*D4
 70
               1
 10
0.0
 20
0.0
 30
0.0
  3
*D4
  1

  0
LINE
  5
69
100
AcDbEntity
  8
Dimension
370
              -2
390
0
  6
Continuous
 62
               0
100
AcDbLine
 10
-7.9805200011827822
 20
-3.3621099999999977
 30
0.0
 11
-12.38177000236557
 21
-3.3621099999999977
 31
0.0
  0
LINE
  5
6A
100
AcDbEntity
  8
Dimension
370
              -2
390
0
  6
Continuous
 62
               0
100
AcDbLine
 10
-7.9805200011827822
 20
-0.3621099999999977
 30
0.0
 11
-12.381770002365556
 21
-0.3621099999999977
 31
0.0
  0
LINE
  5
6B
100
AcDbEntity
  8
Dimension
370
              -2
390
0
  6
Continuous
 62
               0
100
AcDbLine
 10
-11.429270000000002
 20
-0.3621099999999977
 30
0.0
 11
-11.429270000000002
 21
-3.3621099999999977
 31
0.0
  0
LINE
  5
6C
100
AcDbEntity
  8
Dimension
370
              -2
390
0
  6
Continuous
 62
               0
100
AcDbLine
 10
-11.429270000000002
 20
-3.3621099999999977
 30
0.0
 11
-11.429270000000002
 21
-5.112106498366817
 31
0.0
  0
SOLID
  5
6D
100
AcDbEntity
  8
Dimension
370
              -2
390
0
 62
               0
100
AcDbTrace
 10
-11.429270000000002
 20
-3.3621099999999977
 30
0.0
 11
-11.216585328507799
 21
-4.1558599999999979
 31
0.0
 12
-11.641954671492206
 22
-4.1558599999999979
 32
0.0
 13
-11.641954671492206
 23
-4.1558599999999979
 33
0.0
  0
LINE
  5
6E
100
AcDbEntity
  8
Dimension
370
              -2
390
0
  6
Continuous
 62
               0
100
AcDbLine
 10
-11.429270000000002
 20
-0.3621099999999977
 30
0.0
 11
-11.429270000000002
 21
1.3878864983668215
 31
0.0
  0
SOLID
  5
6F
100
AcDbEntity
  8
Dimension
370
              -2
390
0
 62
               0
100
AcDbTrace
 10
-11.429270000000002
 20
-0.3621099999999977
 30
0.0
 11
-11.641954671492206
 21
0.4316400000000022
 31
0.0
 12
-11.216585328507799
 22
0.4316400000000022
 32
0.0
 13
-11.216585328507799
 23
0.4316400000000022
 33
0.0
  0
WIPEOUT
  5
70
100
AcDbEntity
  8
Dimension
370
              -2
390
0
  6
Continuous
 62
               0
 92
        0
100
AcDbWipeout
 90
        0
 10
-12.614599595539303
 20
-2.6144333193359328
 30
0.0
 11
2.3706591910786088
 21
0.0
 31
0.0
 12
0.0
 22
2.3706591910786088
 32
0.0
 13
1.0
 23
1.0
340
0
 70
               7
280
               1
281
              50
282
              50
283
               0
360
0
 71
               2
 91
        5
 14
-0.5
 24
0.5
 14
0.5
 24
0.5
 14
0.5
 24
-0.0133928590748844
 14
-0.5
 24
-0.0133928590748844
 14
-0.5
 24
0.5
  0
MTEXT
  5
71
100
AcDbEntity
  8
Dimension
390
0
 62
               0
100
AcDbMText
 10
-12.614599595539303
 20
-1.5919321995442666
 30
0.0
 40
0.7579186197916666
 41
0.0
 71
               1
 72
               1
  1
3mm
  7
Arial
 73
               1
 44
0.9673603504928806
  0
POINT
  5
72
100
AcDbEntity
  8
Defpoints
370
               0
390
0
 62
               0
100
AcDbPoint
 10
-7.5042700000000053
 20
-0.3621099999999977
 30
0.0
  0
POINT
  5
73
100
AcDbEntity
  8
Defpoints
370
               0
390
0
 62
               0
100
AcDbPoint
 10
-7.5042700000000053
 20
-3.3621099999999977
 30
0.0
  0
POINT
  5
74
100
AcDbEntity
  8
Defpoints
370
               0
390
0
 62
               0
100
AcDbPoint
 10
-11.429270000000006
 20
-3.3621099999999977
 30
0.0
  0
ENDBLK
  5
75
100
AcDbEntity
  8
Dimension
390
0
100
AcDbBlockEnd
  0
BLOCK
  5
76
100
AcDbEntity
  8
Dimension
390
0
100
AcDbBlockBegin
  2
*D5
 70
               1
 10
0.0
 20
0.0
 30
0.0
  3
*D5
  1

  0
LINE
  5
77
100
AcDbEntity
  8
Dimension
370
              -2
390
0
  6
Continuous
 62
               0
100
AcDbLine
 10
2.69698000118278
 20
6.3628900000000037
 30
0.0
 11
8.4967300023655667
 21
6.3628900000000037
 31
0.0
  0
LINE
  5
78
100
AcDbEntity
  8
Dimension
370
              -2
390
0
  6
Continuous
 62
               0
100
AcDbLine
 10
2.69698000118278
 20
4.3628900000000037
 30
0.0
 11
8.4967300023655525
 21
4.3628900000000037
 31
0.0
  0
LINE
  5
79
100
AcDbEntity
  8
Dimension
370
              -2
390
0
  6
Continuous
 62
               0
100
AcDbLine
 10
7.5442299999999989
 20
4.3628900000000037
 30
0.0
 11
7.5442299999999989
 21
6.3628900000000037
 31
0.0
  0
LINE
  5
7A
100
AcDbEntity
  8
Dimension
370
              -2
390
0
  6
Continuous
 62
               0
100
AcDbLine
 10
7.5442299999999989
 20
6.3628900000000037
 30
0.0
 11
7.5442299999999989
 21
8.112886498366823
 31
0.0
  0
SOLID
  5
7B
100
AcDbEntity
  8
Dimension
370
              -2
390
0
 62
               0
100
AcDbTrace
 10
7.5442299999999989
 20
6.3628900000000037
 30
0.0
 11
7.3315453285077954
 21
7.1566400000000039
 31
0.0
 12
7.7569146714922024
 22
7.1566400000000039
 32
0.0
 13
7.7569146714922024
 23
7.1566400000000039
 33
0.0
  0
LINE
  5
7C
100
AcDbEntity
  8
Dimension
370
              -2
390
0
  6
Continuous
 62
               0
100
AcDbLine
 10
7.5442299999999989
 20
4.3628900000000037
 30
0.0
 11
7.5442299999999989
 21
2.6128935016331845
 31
0.0
  0
SOLID
  5
7D
100
AcDbEntity
  8
Dimension
370
              -2
390
0
 62
               0
100
AcDbTrace
 10
7.5442299999999989
 20
4.3628900000000037
 30
0.0
 11
7.7569146714922024
 21
3.5691400000000035
 31
0.0
 12
7.3315453285077954
 22
3.5691400000000035
 32
0.0
 13
7.3315453285077954
 23
3.5691400000000035
 33
0.0
  0
WIPEOUT
  5
7E
100
AcDbEntity
  8
Dimension
370
              -2
390
0
  6
Continuous
 62
               0
 92
        0
100
AcDbWipeout
 90
        0
 10
6.358900404460698
 20
4.7543502500000061
 30
0.0
 11
2.3706591910786088
 21
0.0
 31
0.0
 12
0.0
 22
2.3706591910786088
 32
0.0
 13
1.0
 23
1.0
340
0
 70
               7
280
               1
281
              50
282
              50
283
               0
360
0
 71
               2
 91
        5
 14
-0.5
 24
0.5
 14
0.5
 24
0.5
 14
0.5
 24
-0.0133928590748844
 14
-0.5
 24
-0.0133928590748844
 14
-0.5
 24
0.5
  0
MTEXT
  5
7F
100
AcDbEntity
  8
Dimension
390
0
 62
               0
100
AcDbMText
 10
6.358900404460698
 20
5.7768513697916726
 30
0.0
 40
0.7579186197916666
 41
0.0
 71
               1
 72
               1
  1
2mm
  7
Arial
 73
               1
 44
0.9673603504928806
  0
POINT
  5
80
100
AcDbEntity
  8
Defpoints
370
               0
390
0
 62
               0
100
AcDbPoint
 10
2.2207300000000032
 20
4.3628900000000037
 30
0.0
  0
POINT
  5
81
100
AcDbEntity
  8
Defpoints
370
               0
390
0
 62
               0
100
AcDbPoint
 10
2.2207300000000032
 20
6.3628900000000037
 30
0.0
  0
POINT
  5
82
100
AcDbEntity
  8
Defpoints
370
               0
390
0
 62
               0
100
AcDbPoint
 10
7.5442300000000024
 20
6.3628900000000037
 30
0.0
  0
ENDBLK
  5
83
100
AcDbEntity
  8
Dimension
390
0
100
AcDbBlockEnd
  0
BLOCK
  5
84
100
AcDbEntity
  8
Dimension
390
0
100
AcDbBlockBegin
  2
*D6
 70
               1
 10
0.0
 20
0.0
 30
0.0
  3
*D6
  1

  0
LINE
  5
85
100
AcDbEntity
  8
Dimension
370
              -2
390
0
  6
Continuous
 62
               0
100
AcDbLine
 10
-8.7542700000000053
 20
8.0891400011827841
 30
0.0
 11
-8.7542700000000053
 21
13.623880002365564
 31
0.0
  0
LINE
  5
86
100
AcDbEntity
  8
Dimension
370
              -2
390
0
  6
Continuous
 62
               0
100
AcDbLine
 10
-7.5042700000000053
 20
6.8391400011827841
 30
0.0
 11
-7.5042700000000053
 21
13.623880002365562
 31
0.0
  0
LINE
  5
87
100
AcDbEntity
  8
Dimension
370
              -2
390
0
  6
Continuous
 62
               0
100
AcDbLine
 10
-7.5042700000000053
 20
12.671380000000003
 30
0.0
 11
-8.7542700000000053
 21
12.671380000000003
 31
0.0
  0
LINE
  5
88
100
AcDbEntity
  8
Dimension
370
              -2
390
0
  6
Continuous
 62
               0
100
AcDbLine
 10
-8.7542700000000053
 20
12.671380000000003
 30
0.0
 11
-11.817540000000008
 21
12.671380000000003
 31
0.0
  0
SOLID
  5
89
100
AcDbEntity
  8
Dimension
370
              -2
390
0
 62
               0
100
AcDbTrace
 10
-8.7542700000000053
 20
12.671380000000003
 30
0.0
 11
-9.5480200000000046
 21
12.458695328507799
 31
0.0
 12
-9.5480200000000046
 22
12.884064671492206
 32
0.0
 13
-9.5480200000000046
 23
12.884064671492206
 33
0.0
  0
LINE
  5
8A
100
AcDbEntity
  8
Dimension
370
              -2
390
0
  6
Continuous
 62
               0
100
AcDbLine
 10
-7.5042700000000053
 20
12.671380000000003
 30
0.0
 11
-5.7542735016331932
 21
12.671380000000003
 31
0.0
  0
SOLID
  5
8B
100
AcDbEntity
  8
Dimension
370
              -2
390
0
 62
               0
100
AcDbTrace
 10
-7.5042700000000053
 20
12.671380000000003
 30
0.0
 11
-6.7105200000000051
 21
12.884064671492206
 31
0.0
 12
-6.7105200000000051
 22
12.458695328507799
 32
0.0
 13
-6.7105200000000051
 23
12.458695328507799
 33
0.0
  0
WIPEOUT
  5
8C
100
AcDbEntity
  8
Dimension
370
              -2
390
0
  6
Continuous
 62
               0
 92
        0
100
AcDbWipeout
 90
        0
 10
-22.803012028785275
 20
12.06284216666667
 30
0.0
 11
3.8523212485843246
 21
0.0
 31
0.0
 12
0.0
 22
3.8523212485843246
 32
0.0
 13
1.0
 23
1.0
340
0
 70
               7
280
               1
281
              50
282
              50
283
               0
360
0
 71
               2
 91
        5
 14
-0.5
 24
0.5
 14
0.5
 24
0.5
 14
0.5
 24
0.1840659380504
 14
-0.5
 24
0.1840659380504
 14
-0.5
 24
0.5
  0
MTEXT
  5
8D
100
AcDbEntity
  8
Dimension
390
0
 62
               0
100
AcDbMText
 10
-22.803012028785275
 20
13.085343286458336
 30
0.0
 40
0.7579186197916666
 41
0.0
 71
               1
 72
               1
  1
1.25mm
  7
Arial
 73
               1
 44
0.9673603504928806
  0
WIPEOUT
  5
8E
100
AcDbEntity
  8
Dimension
370
              -2
390
0
  6
Continuous
 62
               0
 92
        0
100
AcDbWipeout
 90
        0
 10
-18.950690780200958
 20
12.062840500000002
 30
0.0
 11
5.0270675208833495
 21
0.0
 31
0.0
 12
0.0
 22
5.0270675208833495
 32
0.0
 13
1.0
 23
1.0
340
0
 70
               7
280
               1
281
              50
282
              50
283
               0
360
0
 71
               2
 91
        5
 14
-0.5
 24
0.5
 14
0.5
 24
0.5
 14
0.5
 24
0.2578947378478543
 14
-0.5
 24
0.2578947378478543
 14
-0.5
 24
0.5
  0
MTEXT
  5
8F
100
AcDbEntity
  8
Dimension
390
0
 62
               0
100
AcDbMText
 10
-18.950690780200958
 20
13.085341619791668
 30
0.0
 40
0.7579186197916666
 41
0.0
 71
               1
 72
               1
  1
±0.125mm
  7
Arial
 73
               1
 44
0.9673603504928806
  0
WIPEOUT
  5
90
100
AcDbEntity
  8
Dimension
370
              -2
390
0
  6
Continuous
 62
               0
 92
        0
100
AcDbWipeout
 90
        0
 10
-13.923623259317608
 20
12.062838333333337
 30
0.0
 11
2.1060832593176109
 21
0.0
 31
0.0
 12
0.0
 22
2.1060832593176109
 32
0.0
 13
1.0
 23
1.0
340
0
 70
               7
280
               1
281
              50
282
              50
283
               0
360
0
 71
               2
 91
        5
 14
-0.5
 24
0.5
 14
0.5
 24
0.5
 14
0.5
 24
-0.0778894675453992
 14
-0.5
 24
-0.0778894675453992
 14
-0.5
 24
0.5
  0
MTEXT
  5
91
100
AcDbEntity
  8
Dimension
390
0
 62
               0
100
AcDbMText
 10
-13.923623259317608
 20
13.085342673611114
 30
0.0
 40
0.7579210069444442
 41
0.0
 71
               1
 72
               1
  1
 (x4)
  7
Arial
 73
               1
 44
0.9673603504928806
  0
POINT
  5
92
100
AcDbEntity
  8
Defpoints
370
               0
390
0
 62
               0
100
AcDbPoint
 10
-7.5042700000000053
 20
6.3628900000000037
 30
0.0
  0
POINT
  5
93
100
AcDbEntity
  8
Defpoints
370
               0
390
0
 62
               0
100
AcDbPoint
 10
-8.7542700000000053
 20
7.6128900000000037
 30
0.0
  0
POINT
  5
94
100
AcDbEntity
  8
Defpoints
370
               0
390
0
 62
               0
100
AcDbPoint
 10
-8.7542700000000053
 20
12.671380000000003
 30
0.0
  0
ENDBLK
  5
95
100
AcDbEntity
  8
Dimension
390
0
100
AcDbBlockEnd
  0
BLOCK
  5
96
100
AcDbEntity
  8
Dimension
390
0
100
AcDbBlockBegin
  2
*D7
 70
               1
 10
0.0
 20
0.0
 30
0.0
  3
*D7
  1

  0
LINE
  5
97
100
AcDbEntity
  8
Dimension
370
              -2
390
0
  6
Continuous
 62
               0
100
AcDbLine
 10
-9.2305200011827822
 20
7.6128900000000037
 30
0.0
 11
-17.931770002365568
 21
7.6128900000000037
 31
0.0
  0
LINE
  5
98
100
AcDbEntity
  8
Dimension
370
              -2
390
0
  6
Continuous
 62
               0
100
AcDbLine
 10
-7.9805200011827822
 20
6.3628900000000037
 30
0.0
 11
-17.931770002365553
 21
6.3628900000000037
 31
0.0
  0
LINE
  5
99
100
AcDbEntity
  8
Dimension
370
              -2
390
0
  6
Continuous
 62
               0
100
AcDbLine
 10
-16.97927
 20
6.3628900000000037
 30
0.0
 11
-16.97927
 21
7.6128900000000037
 31
0.0
  0
LINE
  5
9A
100
AcDbEntity
  8
Dimension
370
              -2
390
0
  6
Continuous
 62
               0
100
AcDbLine
 10
-16.97927
 20
7.6128900000000037
 30
0.0
 11
-16.97927
 21
9.8213800000000031
 31
0.0
  0
SOLID
  5
9B
100
AcDbEntity
  8
Dimension
370
              -2
390
0
 62
               0
100
AcDbTrace
 10
-16.97927
 20
7.6128900000000037
 30
0.0
 11
-17.191954671492205
 21
8.406640000000003
 31
0.0
 12
-16.766585328507794
 22
8.406640000000003
 32
0.0
 13
-16.766585328507794
 23
8.406640000000003
 33
0.0
  0
LINE
  5
9C
100
AcDbEntity
  8
Dimension
370
              -2
390
0
  6
Continuous
 62
               0
100
AcDbLine
 10
-16.97927
 20
6.3628900000000037
 30
0.0
 11
-16.97927
 21
4.6128935016331845
 31
0.0
  0
SOLID
  5
9D
100
AcDbEntity
  8
Dimension
370
              -2
390
0
 62
               0
100
AcDbTrace
 10
-16.97927
 20
6.3628900000000037
 30
0.0
 11
-16.766585328507798
 21
5.5691400000000035
 31
0.0
 12
-17.191954671492205
 22
5.5691400000000035
 32
0.0
 13
-17.191954671492205
 23
5.5691400000000035
 33
0.0
  0
WIPEOUT
  5
9E
100
AcDbEntity
  8
Dimension
370
              -2
390
0
  6
Continuous
 62
               0
 92
        0
100
AcDbWipeout
 90
        0
 10
-22.472006014392633
 20
9.21284216666667
 30
0.0
 11
3.8523212485843246
 21
0.0
 31
0.0
 12
0.0
 22
3.8523212485843246
 32
0.0
 13
1.0
 23
1.0
340
0
 70
               7
280
               1
281
              50
282
              50
283
               0
360
0
 71
               2
 91
        5
 14
-0.5
 24
0.5
 14
0.5
 24
0.5
 14
0.5
 24
0.1840659380504
 14
-0.5
 24
0.1840659380504
 14
-0.5
 24
0.5
  0
MTEXT
  5
9F
100
AcDbEntity
  8
Dimension
390
0
 62
               0
100
AcDbMText
 10
-22.472006014392633
 20
10.235343286458336
 30
0.0
 40
0.7579186197916666
 41
0.0
 71
               1
 72
               1
  1
1.25mm
  7
Arial
 73
               1
 44
0.9673603504928806
  0
WIPEOUT
  5
A0
100
AcDbEntity
  8
Dimension
370
              -2
390
0
  6
Continuous
 62
               0
 92
        0
100
AcDbWipeout
 90
        0
 10
-18.619684765808316
 20
9.2128405000000022
 30
0.0
 11
5.0270675208833495
 21
0.0
 31
0.0
 12
0.0
 22
5.0270675208833495
 32
0.0
 13
1.0
 23
1.0
340
0
 70
               7
280
               1
281
              50
282
              50
283
               0
360
0
 71
               2
 91
        5
 14
-0.5
 24
0.5
 14
0.5
 24
0.5
 14
0.5
 24
0.2578947378478543
 14
-0.5
 24
0.2578947378478543
 14
-0.5
 24
0.5
  0
MTEXT
  5
A1
100
AcDbEntity
  8
Dimension
390
0
 62
               0
100
AcDbMText
 10
-18.619684765808316
 20
10.235341619791669
 30
0.0
 40
0.7579186197916666
 41
0.0
 71
               1
 72
               1
  1
±0.125mm
  7
Arial
 73
               1
 44
0.9673603504928806
  0
WIPEOUT
  5
A2
100
AcDbEntity
  8
Dimension
370
              -2
390
0
  6
Continuous
 62
               0
 92
        0
100
AcDbWipeout
 90
        0
 10
-13.592617244924966
 20
9.2128383333333375
 30
0.0
 11
2.1060832593176109
 21
0.0
 31
0.0
 12
0.0
 22
2.1060832593176109
 32
0.0
 13
1.0
 23
1.0
340
0
 70
               7
280
               1
281
              50
282
              50
283
               0
360
0
 71
               2
 91
        5
 14
-0.5
 24
0.5
 14
0.5
 24
0.5
 14
0.5
 24
-0.0778894675453992
 14
-0.5
 24
-0.0778894675453992
 14
-0.5
 24
0.5
  0
MTEXT
  5
A3
100
AcDbEntity
  8
Dimension
390
0
 62
               0
100
AcDbMText
 10
-13.592617244924966
 20
10.235342673611115
 30
0.0
 40
0.7579210069444442
 41
0.0
 71
               1
 72
               1
  1
 (x4)
  7
Arial
 73
               1
 44
0.9673603504928806
  0
POINT
  5
A4
100
AcDbEntity
  8
Defpoints
370
               0
390
0
 62
               0
100
AcDbPoint
 10
-7.5042700000000053
 20
6.3628900000000037
 30
0.0
  0
POINT
  5
A5
100
AcDbEntity
  8
Defpoints
370
               0
390
0
 62
               0
100
AcDbPoint
 10
-8.7542700000000053
 20
7.6128900000000037
 30
0.0
  0
POINT
  5
A6
100
AcDbEntity
  8
Defpoints
370
               0
390
0
 62
               0
100
AcDbPoint
 10
-16.979270000000007
 20
7.6128900000000037
 30
0.0
  0
ENDBLK
  5
A7
100
AcDbEntity
  8
Dimension
390
0
100
AcDbBlockEnd
  0
BLOCK
  5
A8
100
AcDbEntity
  8
Dimension
390
0
100
AcDbBlockBegin
  2
*D8
 70
               1
 10
0.0
 20
0.0
 30
0.0
  3
*D8
  1

  0
LINE
  5
A9
100
AcDbEntity
  8
Dimension
370
              -2
390
0
  6
Continuous
 62
               0
100
AcDbLine
 10
-7.5042700000000053
 20
-3.8383600011827781
 30
0.0
 11
-7.5042700000000053
 21
-13.664610002365556
 31
0.0
  0
LINE
  5
AA
100
AcDbEntity
  8
Dimension
370
              -2
390
0
  6
Continuous
 62
               0
100
AcDbLine
 10
2.2207300000000032
 20
-3.8383600011827781
 30
0.0
 11
2.2207300000000032
 21
-13.664610002365556
 31
0.0
  0
LINE
  5
AB
100
AcDbEntity
  8
Dimension
370
              -2
390
0
  6
Continuous
 62
               0
100
AcDbLine
 10
2.2207300000000032
 20
-12.712109999999996
 30
0.0
 11
-7.5042700000000053
 21
-12.712109999999996
 31
0.0
  0
LINE
  5
AC
100
AcDbEntity
  8
Dimension
370
              -2
390
0
  6
Continuous
 62
               0
100
AcDbLine
 10
-7.5042700000000053
 20
-12.712109999999996
 30
0.0
 11
-9.2542664983668175
 21
-12.712109999999996
 31
0.0
  0
SOLID
  5
AD
100
AcDbEntity
  8
Dimension
370
              -2
390
0
 62
               0
100
AcDbTrace
 10
-7.5042700000000053
 20
-12.712109999999996
 30
0.0
 11
-8.2980200000000046
 21
-12.924794671492199
 31
0.0
 12
-8.2980200000000046
 22
-12.499425328507792
 32
0.0
 13
-8.2980200000000046
 23
-12.499425328507792
 33
0.0
  0
LINE
  5
AE
100
AcDbEntity
  8
Dimension
370
              -2
390
0
  6
Continuous
 62
               0
100
AcDbLine
 10
2.2207300000000032
 20
-12.712109999999996
 30
0.0
 11
3.9707264983668153
 21
-12.712109999999996
 31
0.0
  0
SOLID
  5
AF
100
AcDbEntity
  8
Dimension
370
              -2
390
0
 62
               0
100
AcDbTrace
 10
2.2207300000000032
 20
-12.712109999999996
 30
0.0
 11
3.0144800000000034
 21
-12.499425328507792
 31
0.0
 12
3.0144800000000034
 22
-12.924794671492199
 32
0.0
 13
3.0144800000000034
 23
-12.924794671492199
 33
0.0
  0
WIPEOUT
  5
B0
100
AcDbEntity
  8
Dimension
370
              -2
390
0
  6
Continuous
 62
               0
 92
        0
100
AcDbWipeout
 90
        0
 10
-5.6322410186852352
 20
-13.320649749999998
 30
0.0
 11
6.5510630395677349
 21
0.0
 31
0.0
 12
0.0
 22
6.5510630395677349
 32
0.0
 13
1.0
 23
1.0
340
0
 70
               7
280
               1
281
              50
282
              50
283
               0
360
0
 71
               2
 91
        5
 14
-0.5
 24
0.5
 14
0.5
 24
0.5
 14
0.5
 24
0.3142164878205311
 14
-0.5
 24
0.3142164878205311
 14
-0.5
 24
0.5
  0
MTEXT
  5
B1
100
AcDbEntity
  8
Dimension
390
0
 62
               0
100
AcDbMText
 10
-5.6322410186852352
 20
-12.298148630208331
 30
0.0
 40
0.7579186197916666
 41
0.0
 71
               1
 72
               1
  1
9.725mm (x4)
  7
Arial
 73
               1
 44
0.9673603504928806
  0
POINT
  5
B2
100
AcDbEntity
  8
Defpoints
370
               0
390
0
 62
               0
100
AcDbPoint
 10
2.2207300000000032
 20
-3.3621099999999977
 30
0.0
  0
POINT
  5
B3
100
AcDbEntity
  8
Defpoints
370
               0
390
0
 62
               0
100
AcDbPoint
 10
-7.5042700000000053
 20
-3.3621099999999977
 30
0.0
  0
POINT
  5
B4
100
AcDbEntity
  8
Defpoints
370
               0
390
0
 62
               0
100
AcDbPoint
 10
-7.5042700000000053
 20
-12.712109999999997
 30
0.0
  0
ENDBLK
  5
B5
100
AcDbEntity
  8
Dimension
390
0
100
AcDbBlockEnd
  0
BLOCK
  5
B6
100
AcDbEntity
  8
Dimension
390
0
100
AcDbBlockBegin
  2
*D9
 70
               1
 10
0.0
 20
0.0
 30
0.0
  3
*D9
  1

  0
LINE
  5
B7
100
AcDbEntity
  8
Dimension
370
              -2
390
0
  6
Continuous
 62
               0
100
AcDbLine
 10
2.5837499999999949
 20
4.5838900000000038
 30
0.0
 11
9.8103333017820944
 21
9.0106483463856506
 31
0.0
  0
SOLID
  5
B8
100
AcDbEntity
  8
Dimension
370
              -2
390
0
 62
               0
100
AcDbTrace
 10
2.5837499999999949
 20
4.5838900000000038
 30
0.0
 11
2.9642143179633584
 21
4.9778723345667206
 31
0.0
 12
3.1102329318731465
 22
4.7348565513953993
 32
0.0
 13
3.1102329318731465
 23
4.7348565513953993
 33
0.0
  0
LINE
  5
B9
100
AcDbEntity
  8
Dimension
370
              -2
390
0
  6
Continuous
 62
               0
100
AcDbLine
 10
9.8103333017820944
 20
9.0106483463856506
 30
0.0
 11
11.310330303761589
 21
9.0106483463856506
 31
0.0
  0
WIPEOUT
  5
BA
100
AcDbEntity
  8
Dimension
370
              -2
390
0
  6
Continuous
 62
               0
 92
        0
100
AcDbWipeout
 90
        0
 10
9.087837301611799
 20
8.4021102630523181
 30
0.0
 11
4.9741509887907238
 21
0.0
 31
0.0
 12
0.0
 22
4.9741509887907238
 32
0.0
 13
1.0
 23
1.0
340
0
 70
               7
280
               1
281
              50
282
              50
283
               0
360
0
 71
               2
 91
        5
 14
-0.5
 24
0.5
 14
0.5
 24
0.5
 14
0.5
 24
0.2553191483847805
 14
-0.5
 24
0.2553191483847805
 14
-0.5
 24
0.5
  0
MTEXT
  5
BB
100
AcDbEntity
  8
Dimension
390
0
 62
               0
100
AcDbMText
 10
9.087837301611799
 20
9.4246113828439846
 30
0.0
 40
0.7579186197916666
 41
0.0
 71
               1
 72
               1
  1
Ø 0.85mm
  7
Arial
 73
               1
 44
0.9673603504928806
  0
WIPEOUT
  5
BC
100
AcDbEntity
  8
Dimension
370
              -2
390
0
  6
Continuous
 62
               0
 92
        0
100
AcDbWipeout
 90
        0
 10
14.061988290402519
 20
8.9643465130523179
 30
0.0
 11
1.2170795000000005
 21
0.0
 31
0.0
 12
0.0
 22
1.2170795000000005
 32
0.0
 13
1.0
 23
1.0
340
0
 70
               7
280
               1
281
              50
282
              50
283
               0
360
0
 71
               2
 91
        5
 14
-0.5
 24
0.5
 14
0.0043478278911313
 24
0.5
 14
0.0043478278911313
 24
-0.5
 14
-0.5
 24
-0.5
 14
-0.5
 24
0.5
  0
MTEXT
  5
BD
100
AcDbEntity
  8
Dimension
390
0
 62
               0
100
AcDbMText
 10
14.368903991500432
 20
9.9868476328439844
 30
0.0
 40
0.7579186197916666
 41
0.0
 71
               2
 72
               1
  1
+
  7
Arial
 73
               1
 44
0.9673603504928806
  0
WIPEOUT
  5
BE
100
AcDbEntity
  8
Dimension
370
              -2
390
0
  6
Continuous
 62
               0
 92
        0
100
AcDbWipeout
 90
        0
 10
14.194279536525304
 20
7.8398706797189854
 30
0.0
 11
1.2170794999999996
 21
0.0
 31
0.0
 12
0.0
 22
1.2170794999999996
 32
0.0
 13
1.0
 23
1.0
340
0
 70
               7
280
               1
281
              50
282
              50
283
               0
360
0
 71
               2
 91
        5
 14
-0.5
 24
0.5
 14
-0.2130434700853519
 24
0.5
 14
-0.2130434700853519
 24
-0.5
 14
-0.5
 24
-0.5
 14
-0.5
 24
0.5
  0
MTEXT
  5
BF
100
AcDbEntity
  8
Dimension
390
0
 62
               0
100
AcDbMText
 10
14.368903991500432
 20
8.862371799510651
 30
0.0
 40
0.7579186197916666
 41
0.0
 71
               2
 72
               1
  1
-
  7
Arial
 73
               1
 44
0.9673603504928806
  0
WIPEOUT
  5
C0
100
AcDbEntity
  8
Dimension
370
              -2
390
0
  6
Continuous
 62
               0
 92
        0
100
AcDbWipeout
 90
        0
 10
14.675819692598353
 20
8.9643465130523179
 30
0.0
 11
4.4449860042995866
 21
0.0
 31
0.0
 12
0.0
 22
4.4449860042995866
 32
0.0
 13
1.0
 23
1.0
340
0
 70
               7
280
               1
281
              50
282
              50
283
               0
360
0
 71
               2
 91
        5
 14
-0.5
 24
0.5
 14
0.5
 24
0.5
 14
0.5
 24
0.226190476455329
 14
-0.5
 24
0.226190476455329
 14
-0.5
 24
0.5
  0
MTEXT
  5
C1
100
AcDbEntity
  8
Dimension
390
0
 62
               0
100
AcDbMText
 10
14.675819692598353
 20
9.9868476328439844
 30
0.0
 40
0.7579186197916666
 41
0.0
 71
               1
 72
               1
  1
0.025mm
  7
Arial
 73
               1
 44
0.9673603504928806
  0
WIPEOUT
  5
C2
100
AcDbEntity
  8
Dimension
370
              -2
390
0
  6
Continuous
 62
               0
 92
        0
100
AcDbWipeout
 90
        0
 10
14.675819692598353
 20
7.8398706797189854
 30
0.0
 11
4.4449860042995866
 21
0.0
 31
0.0
 12
0.0
 22
4.4449860042995866
 32
0.0
 13
1.0
 23
1.0
340
0
 70
               7
280
               1
281
              50
282
              50
283
               0
360
0
 71
               2
 91
        5
 14
-0.5
 24
0.5
 14
0.5
 24
0.5
 14
0.5
 24
0.2261904764553293
 14
-0.5
 24
0.2261904764553293
 14
-0.5
 24
0.5
  0
MTEXT
  5
C3
100
AcDbEntity
  8
Dimension
390
0
 62
               0
100
AcDbMText
 10
14.675819692598353
 20
8.862371799510651
 30
0.0
 40
0.7579186197916666
 41
0.0
 71
               1
 72
               1
  1
0.025mm
  7
Arial
 73
               1
 44
0.9673603504928806
  0
WIPEOUT
  5
C4
100
AcDbEntity
  8
Dimension
370
              -2
390
0
  6
Continuous
 62
               0
 92
        0
100
AcDbWipeout
 90
        0
 10
19.120805696897932
 20
8.4021064297189856
 30
0.0
 11
2.1060832593176109
 21
0.0
 31
0.0
 12
0.0
 22
2.1060832593176109
 32
0.0
 13
1.0
 23
1.0
340
0
 70
               7
280
               1
281
              50
282
              50
283
               0
360
0
 71
               2
 91
        5
 14
-0.5
 24
0.5
 14
0.5
 24
0.5
 14
0.5
 24
-0.0778894675453992
 14
-0.5
 24
-0.0778894675453992
 14
-0.5
 24
0.5
  0
MTEXT
  5
C5
100
AcDbEntity
  8
Dimension
390
0
 62
               0
100
AcDbMText
 10
19.120805696897932
 20
9.4246107699967627
 30
0.0
 40
0.7579210069444442
 41
0.0
 71
               1
 72
               1
  1
 (x2)
  7
Arial
 73
               1
 44
0.9673603504928806
  0
POINT
  5
C6
100
AcDbEntity
  8
Defpoints
370
               0
390
0
 62
               0
100
AcDbPoint
 10
1.8589300000000009
 20
4.1398900000000047
 30
0.0
  0
POINT
  5
C7
100
AcDbEntity
  8
Defpoints
370
               0
390
0
 62
               0
100
AcDbPoint
 10
2.5837499999999949
 20
4.5838900000000038
 30
0.0
  0
ENDBLK
  5
C8
100
AcDbEntity
  8
Dimension
390
0
100
AcDbBlockEnd
  0
BLOCK
  5
C9
100
AcDbEntity
  8
Dimension
390
0
100
AcDbBlockBegin
  2
*D10
 70
               1
 10
0.0
 20
0.0
 30
0.0
  3
*D10
  1

  0
LINE
  5
CA
100
AcDbEntity
  8
Dimension
370
              -2
390
0
  6
Continuous
 62
               0
100
AcDbLine
 10
2.9043999999999954
 20
-3.7871099999999949
 30
0.0
 11
5.8643961637070419
 21
-5.6574695107385828
 31
0.0
  0
SOLID
  5
CB
100
AcDbEntity
  8
Dimension
370
              -2
390
0
 62
               0
100
AcDbTrace
 10
2.9043999999999954
 20
-3.7871099999999949
 30
0.0
 11
3.4252935560335311
 21
-3.9563585759960898
 31
0.0
 12
3.2708827641946026
 22
-4.1941303443837219
 32
0.0
 13
3.2708827641946026
 23
-4.1941303443837219
 33
0.0
  0
LINE
  5
CC
100
AcDbEntity
  8
Dimension
370
              -2
390
0
  6
Continuous
 62
               0
100
AcDbLine
 10
5.8643961637070419
 20
-5.6574695107385828
 30
0.0
 11
7.3643931656865362
 21
-5.6574695107385828
 31
0.0
  0
WIPEOUT
  5
CD
100
AcDbEntity
  8
Dimension
370
              -2
390
0
  6
Continuous
 62
               0
 92
        0
100
AcDbWipeout
 90
        0
 10
5.4382325413943704
 20
-6.2660075940719144
 30
0.0
 11
4.9741509887907238
 21
0.0
 31
0.0
 12
0.0
 22
4.9741509887907238
 32
0.0
 13
1.0
 23
1.0
340
0
 70
               7
280
               1
281
              50
282
              50
283
               0
360
0
 71
               2
 91
        5
 14
-0.5
 24
0.5
 14
0.5
 24
0.5
 14
0.5
 24
0.2553191483847807
 14
-0.5
 24
0.2553191483847807
 14
-0.5
 24
0.5
  0
MTEXT
  5
CE
100
AcDbEntity
  8
Dimension
390
0
 62
               0
100
AcDbMText
 10
5.4382325413943704
 20
-5.243506474280248
 30
0.0
 40
0.7579186197916666
 41
0.0
 71
               1
 72
               1
  1
Ø 1.61mm
  7
Arial
 73
               1
 44
0.9673603504928806
  0
WIPEOUT
  5
CF
100
AcDbEntity
  8
Dimension
370
              -2
390
0
  6
Continuous
 62
               0
 92
        0
100
AcDbWipeout
 90
        0
 10
10.412383530185091
 20
-5.7037713440719164
 30
0.0
 11
1.2170794999999996
 21
0.0
 31
0.0
 12
0.0
 22
1.2170794999999996
 32
0.0
 13
1.0
 23
1.0
340
0
 70
               7
280
               1
281
              50
282
              50
283
               0
360
0
 71
               2
 91
        5
 14
-0.5
 24
0.5
 14
0.0043478278911316
 24
0.5
 14
0.0043478278911316
 24
-0.5
 14
-0.5
 24
-0.5
 14
-0.5
 24
0.5
  0
MTEXT
  5
D0
100
AcDbEntity
  8
Dimension
390
0
 62
               0
100
AcDbMText
 10
10.719299231283003
 20
-4.68127022428025
 30
0.0
 40
0.7579186197916666
 41
0.0
 71
               2
 72
               1
  1
+
  7
Arial
 73
               1
 44
0.9673603504928806
  0
WIPEOUT
  5
D1
100
AcDbEntity
  8
Dimension
370
              -2
390
0
  6
Continuous
 62
               0
 92
        0
100
AcDbWipeout
 90
        0
 10
10.544674776307875
 20
-6.828247177405248
 30
0.0
 11
1.2170794999999996
 21
0.0
 31
0.0
 12
0.0
 22
1.2170794999999996
 32
0.0
 13
1.0
 23
1.0
340
0
 70
               7
280
               1
281
              50
282
              50
283
               0
360
0
 71
               2
 91
        5
 14
-0.5
 24
0.5
 14
-0.2130434700853519
 24
0.5
 14
-0.2130434700853519
 24
-0.5
 14
-0.5
 24
-0.5
 14
-0.5
 24
0.5
  0
MTEXT
  5
D2
100
AcDbEntity
  8
Dimension
390
0
 62
               0
100
AcDbMText
 10
10.719299231283003
 20
-5.8057460576135815
 30
0.0
 40
0.7579186197916666
 41
0.0
 71
               2
 72
               1
  1
-
  7
Arial
 73
               1
 44
0.9673603504928806
  0
WIPEOUT
  5
D3
100
AcDbEntity
  8
Dimension
370
              -2
390
0
  6
Continuous
 62
               0
 92
        0
100
AcDbWipeout
 90
        0
 10
11.026214932380924
 20
-5.7037713440719164
 30
0.0
 11
3.8523212485843228
 21
0.0
 31
0.0
 12
0.0
 22
3.8523212485843228
 32
0.0
 13
1.0
 23
1.0
340
0
 70
               7
280
               1
281
              50
282
              50
283
               0
360
0
 71
               2
 91
        5
 14
-0.5
 24
0.5
 14
0.5
 24
0.5
 14
0.5
 24
0.1840659380504001
 14
-0.5
 24
0.1840659380504001
 14
-0.5
 24
0.5
  0
MTEXT
  5
D4
100
AcDbEntity
  8
Dimension
390
0
 62
               0
100
AcDbMText
 10
11.026214932380924
 20
-4.68127022428025
 30
0.0
 40
0.7579186197916666
 41
0.0
 71
               1
 72
               1
  1
0.05mm
  7
Arial
 73
               1
 44
0.9673603504928806
  0
WIPEOUT
  5
D5
100
AcDbEntity
  8
Dimension
370
              -2
390
0
  6
Continuous
 62
               0
 92
        0
100
AcDbWipeout
 90
        0
 10
11.026214932380924
 20
-6.828247177405248
 30
0.0
 11
3.8523212485843228
 21
0.0
 31
0.0
 12
0.0
 22
3.8523212485843228
 32
0.0
 13
1.0
 23
1.0
340
0
 70
               7
280
               1
281
              50
282
              50
283
               0
360
0
 71
               2
 91
        5
 14
-0.5
 24
0.5
 14
0.5
 24
0.5
 14
0.5
 24
0.1840659380504001
 14
-0.5
 24
0.1840659380504001
 14
-0.5
 24
0.5
  0
MTEXT
  5
D6
100
AcDbEntity
  8
Dimension
390
0
 62
               0
100
AcDbMText
 10
11.026214932380924
 20
-5.8057460576135815
 30
0.0
 40
0.7579186197916666
 41
0.0
 71
               1
 72
               1
  1
0.05mm
  7
Arial
 73
               1
 44
0.9673603504928806
  0
WIPEOUT
  5
D7
100
AcDbEntity
  8
Dimension
370
              -2
390
0
  6
Continuous
 62
               0
 92
        0
100
AcDbWipeout
 90
        0
 10
14.878536180965241
 20
-6.2660114274052479
 30
0.0
 11
1.8097500403722115
 21
0.0
 31
0.0
 12
0.0
 22
1.8097500403722115
 32
0.0
 13
1.0
 23
1.0
340
0
 70
               7
280
               1
281
              50
282
              50
283
               0
360
0
 71
               2
 91
        5
 14
-0.5
 24
0.5
 14
0.5
 24
0.5
 14
0.5
 24
-0.1725146048804703
 14
-0.5
 24
-0.1725146048804703
 14
-0.5
 24
0.5
  0
MTEXT
  5
D8
100
AcDbEntity
  8
Dimension
390
0
 62
               0
100
AcDbMText
 10
14.878536180965241
 20
-5.2435070871274707
 30
0.0
 40
0.7579210069444442
 41
0.0
 71
               1
 72
               1
  1
(x4)
  7
Arial
 73
               1
 44
0.9673603504928806
  0
POINT
  5
D9
100
AcDbEntity
  8
Defpoints
370
               0
390
0
 62
               0
100
AcDbPoint
 10
1.5433799999999991
 20
-2.9271099999999954
 30
0.0
  0
POINT
  5
DA
100
AcDbEntity
  8
Defpoints
370
               0
390
0
 62
               0
100
AcDbPoint
 10
2.9043999999999954
 20
-3.7871099999999949
 30
0.0
  0
ENDBLK
  5
DB
100
AcDbEntity
  8
Dimension
390
0
100
AcDbBlockEnd
  0
BLOCK
  5
DC
100
AcDbEntity
  8
Dimension
390
0
100
AcDbBlockBegin
  2
*D11
 70
               1
 10
0.0
 20
0.0
 30
0.0
  3
*D11
  1

  0
LINE
  5
DD
100
AcDbEntity
  8
Dimension
370
              -2
390
0
  6
Continuous
 62
               0
100
AcDbLine
 10
0.7882299999999987
 20
1.1103900000000024
 30
0.0
 11
6.4108798314717035
 21
-1.1712650037478625
 31
0.0
  0
SOLID
  5
DE
100
AcDbEntity
  8
Dimension
370
              -2
390
0
 62
               0
100
AcDbTrace
 10
0.7882299999999987
 20
1.1103900000000024
 30
0.0
 11
1.3305997192703685
 21
1.0341649069364427
 31
0.0
 12
1.2198234085997937
 22
0.773192273365942
 32
0.0
 13
1.2198234085997937
 23
0.773192273365942
 33
0.0
  0
LINE
  5
DF
100
AcDbEntity
  8
Dimension
370
              -2
390
0
  6
Continuous
 62
               0
100
AcDbLine
 10
6.4108798314717035
 20
-1.1712650037478625
 30
0.0
 11
7.9108768334511979
 21
-1.1712650037478625
 31
0.0
  0
WIPEOUT
  5
E0
100
AcDbEntity
  8
Dimension
370
              -2
390
0
  6
Continuous
 62
               0
 92
        0
100
AcDbWipeout
 90
        0
 10
7.9108768334511979
 20
-1.7798047537478603
 30
0.0
 11
5.2599001275168522
 21
0.0
 31
0.0
 12
0.0
 22
5.2599001275168522
 32
0.0
 13
1.0
 23
1.0
340
0
 70
               7
280
               1
281
              50
282
              50
283
               0
360
0
 71
               2
 91
        5
 14
-0.5
 24
0.5
 14
0.5
 24
0.5
 14
0.5
 24
0.2686116712306149
 14
-0.5
 24
0.2686116712306149
 14
-0.5
 24
0.5
  0
MTEXT
  5
E1
100
AcDbEntity
  8
Dimension
390
0
 62
               0
100
AcDbMText
 10
7.9108768334511979
 20
-0.7573036339561938
 30
0.0
 40
0.7579186197916666
 41
0.0
 71
               1
 72
               1
  1
0.69 x 0.28
  7
Arial
 73
               1
 44
0.9673603504928806
  0
POINT
  5
E2
100
AcDbEntity
  8
Defpoints
370
               0
390
0
 62
               0
100
AcDbPoint
 10
0.0982300000000009
 20
1.3903900000000036
 30
0.0
  0
POINT
  5
E3
100
AcDbEntity
  8
Defpoints
370
               0
390
0
 62
               0
100
AcDbPoint
 10
0.7882299999999987
 20
1.1103900000000024
 30
0.0
  0
ENDBLK
  5
E4
100
AcDbEntity
  8
Dimension
390
0
100
AcDbBlockEnd
  0
BLOCK
  5
E5
100
AcDbEntity
  8
Dimension
390
0
100
AcDbBlockBegin
  2
*D12
 70
               1
 10
0.0
 20
0.0
 30
0.0
  3
*D12
  1

  0
LINE
  5
E6
100
AcDbEntity
  8
Dimension
370
              -2
390
0
  6
Continuous
 62
               0
100
AcDbLine
 10
-7.5042700000000053
 20
6.8391400011827841
 30
0.0
 11
-7.5042700000000053
 21
14.442890002365562
 31
0.0
  0
LINE
  5
E7
100
AcDbEntity
  8
Dimension
370
              -2
390
0
  6
Continuous
 62
               0
100
AcDbLine
 10
-4.7817699999999945
 20
5.1566400011827831
 30
0.0
 11
-4.7817699999999945
 21
14.442890002365562
 31
0.0
  0
LINE
  5
E8
100
AcDbEntity
  8
Dimension
370
              -2
390
0
  6
Continuous
 62
               0
100
AcDbLine
 10
-4.7817699999999945
 20
13.490390000000003
 30
0.0
 11
-7.5042700000000053
 21
13.490390000000003
 31
0.0
  0
LINE
  5
E9
100
AcDbEntity
  8
Dimension
370
              -2
390
0
  6
Continuous
 62
               0
100
AcDbLine
 10
-7.5042700000000053
 20
13.490390000000003
 30
0.0
 11
-9.2542664983668175
 21
13.490390000000003
 31
0.0
  0
SOLID
  5
EA
100
AcDbEntity
  8
Dimension
370
              -2
390
0
 62
               0
100
AcDbTrace
 10
-7.5042700000000053
 20
13.490390000000003
 30
0.0
 11
-8.2980200000000046
 21
13.2777053285078
 31
0.0
 12
-8.2980200000000046
 22
13.703074671492207
 32
0.0
 13
-8.2980200000000046
 23
13.703074671492207
 33
0.0
  0
LINE
  5
EB
100
AcDbEntity
  8
Dimension
370
              -2
390
0
  6
Continuous
 62
               0
100
AcDbLine
 10
-4.7817699999999945
 20
13.490390000000003
 30
0.0
 11
-2.5915999999999997
 21
13.490390000000003
 31
0.0
  0
SOLID
  5
EC
100
AcDbEntity
  8
Dimension
370
              -2
390
0
 62
               0
100
AcDbTrace
 10
-4.7817699999999945
 20
13.490390000000003
 30
0.0
 11
-3.9880199999999943
 21
13.703074671492207
 31
0.0
 12
-3.9880199999999943
 22
13.2777053285078
 32
0.0
 13
-3.9880199999999943
 23
13.2777053285078
 33
0.0
  0
WIPEOUT
  5
ED
100
AcDbEntity
  8
Dimension
370
              -2
390
0
  6
Continuous
 62
               0
 92
        0
100
AcDbWipeout
 90
        0
 10
-2.5915999999999997
 20
12.881850250000003
 30
0.0
 11
3.8523212485843232
 21
0.0
 31
0.0
 12
0.0
 22
3.8523212485843232
 32
0.0
 13
1.0
 23
1.0
340
0
 70
               7
280
               1
281
              50
282
              50
283
               0
360
0
 71
               2
 91
        5
 14
-0.5
 24
0.5
 14
0.5
 24
0.5
 14
0.5
 24
0.1840659380503998
 14
-0.5
 24
0.1840659380503998
 14
-0.5
 24
0.5
  0
MTEXT
  5
EE
100
AcDbEntity
  8
Dimension
390
0
 62
               0
100
AcDbMText
 10
-2.5915999999999997
 20
13.904351369791669
 30
0.0
 40
0.7579186197916666
 41
0.0
 71
               1
 72
               1
  1
2.72mm
  7
Arial
 73
               1
 44
0.9673603504928806
  0
POINT
  5
EF
100
AcDbEntity
  8
Defpoints
370
               0
390
0
 62
               0
100
AcDbPoint
 10
-4.7817699999999945
 20
4.6803900000000027
 30
0.0
  0
POINT
  5
F0
100
AcDbEntity
  8
Defpoints
370
               0
390
0
 62
               0
100
AcDbPoint
 10
-7.5042700000000053
 20
6.3628900000000037
 30
0.0
  0
POINT
  5
F1
100
AcDbEntity
  8
Defpoints
370
               0
390
0
 62
               0
100
AcDbPoint
 10
-7.5042700000000053
 20
13.490390000000003
 30
0.0
  0
ENDBLK
  5
F2
100
AcDbEntity
  8
Dimension
390
0
100
AcDbBlockEnd
  0
BLOCK
  5
F3
100
AcDbEntity
  8
Dimension
390
0
100
AcDbBlockBegin
  2
*D13
 70
               1
 10
0.0
 20
0.0
 30
0.0
  3
*D13
  1

  0
LINE
  5
F4
100
AcDbEntity
  8
Dimension
370
              -2
390
0
  6
Continuous
 62
               0
100
AcDbLine
 10
-7.9805200011827822
 20
6.3628900000000037
 30
0.0
 11
-12.484270002365562
 21
6.3628900000000037
 31
0.0
  0
LINE
  5
F5
100
AcDbEntity
  8
Dimension
370
              -2
390
0
  6
Continuous
 62
               0
100
AcDbLine
 10
-5.2580200011827714
 20
4.6803900000000027
 30
0.0
 11
-12.484270002365562
 21
4.6803900000000027
 31
0.0
  0
LINE
  5
F6
100
AcDbEntity
  8
Dimension
370
              -2
390
0
  6
Continuous
 62
               0
100
AcDbLine
 10
-11.531770000000009
 20
4.6803900000000027
 30
0.0
 11
-11.531770000000009
 21
6.3628900000000037
 31
0.0
  0
LINE
  5
F7
100
AcDbEntity
  8
Dimension
370
              -2
390
0
  6
Continuous
 62
               0
100
AcDbLine
 10
-11.531770000000009
 20
6.3628900000000037
 30
0.0
 11
-11.531770000000009
 21
8.112886498366823
 31
0.0
  0
SOLID
  5
F8
100
AcDbEntity
  8
Dimension
370
              -2
390
0
 62
               0
100
AcDbTrace
 10
-11.531770000000009
 20
6.3628900000000037
 30
0.0
 11
-11.744454671492212
 21
7.1566400000000039
 31
0.0
 12
-11.319085328507805
 22
7.1566400000000039
 32
0.0
 13
-11.319085328507805
 23
7.1566400000000039
 33
0.0
  0
LINE
  5
F9
100
AcDbEntity
  8
Dimension
370
              -2
390
0
  6
Continuous
 62
               0
100
AcDbLine
 10
-11.531770000000009
 20
4.6803900000000027
 30
0.0
 11
-11.531770000000009
 21
2.9303935016331835
 31
0.0
  0
SOLID
  5
FA
100
AcDbEntity
  8
Dimension
370
              -2
390
0
 62
               0
100
AcDbTrace
 10
-11.531770000000009
 20
4.6803900000000027
 30
0.0
 11
-11.319085328507805
 21
3.8866400000000025
 31
0.0
 12
-11.744454671492212
 22
3.8866400000000025
 32
0.0
 13
-11.744454671492212
 23
3.8866400000000025
 33
0.0
  0
WIPEOUT
  5
FB
100
AcDbEntity
  8
Dimension
370
              -2
390
0
  6
Continuous
 62
               0
 92
        0
100
AcDbWipeout
 90
        0
 10
-13.457930624292175
 20
4.889019057983405
 30
0.0
 11
3.8523212485843228
 21
0.0
 31
0.0
 12
0.0
 22
3.8523212485843228
 32
0.0
 13
1.0
 23
1.0
340
0
 70
               7
280
               1
281
              50
282
              50
283
               0
360
0
 71
               2
 91
        5
 14
-0.5
 24
0.5
 14
0.5
 24
0.5
 14
0.5
 24
0.1840659380504001
 14
-0.5
 24
0.1840659380504001
 14
-0.5
 24
0.5
  0
MTEXT
  5
FC
100
AcDbEntity
  8
Dimension
390
0
 62
               0
100
AcDbMText
 10
-13.457930624292175
 20
5.9115201777750714
 30
0.0
 40
0.7579186197916666
 41
0.0
 71
               1
 72
               1
  1
1.68mm
  7
Arial
 73
               1
 44
0.9673603504928806
  0
POINT
  5
FD
100
AcDbEntity
  8
Defpoints
370
               0
390
0
 62
               0
100
AcDbPoint
 10
-4.7817699999999945
 20
4.6803900000000027
 30
0.0
  0
POINT
  5
FE
100
AcDbEntity
  8
Defpoints
370
               0
390
0
 62
               0
100
AcDbPoint
 10
-7.5042700000000053
 20
6.3628900000000037
 30
0.0
  0
POINT
  5
FF
100
AcDbEntity
  8
Defpoints
370
               0
390
0
 62
               0
100
AcDbPoint
 10
-11.531770000000005
 20
6.3628900000000037
 30
0.0
  0
ENDBLK
  5
100
100
AcDbEntity
  8
Dimension
390
0
100
AcDbBlockEnd
  0
BLOCK
  5
101
100
AcDbEntity
  8
Dimension
390
0
100
AcDbBlockBegin
  2
*D14
 70
               1
 10
0.0
 20
0.0
 30
0.0
  3
*D14
  1

  0
LINE
  5
102
100
AcDbEntity
  8
Dimension
370
              -2
390
0
  6
Continuous
 62
               0
100
AcDbLine
 10
-5.2580200011827714
 20
4.6803900000000027
 30
0.0
 11
-20.604270002365553
 21
4.6803900000000027
 31
0.0
  0
LINE
  5
103
100
AcDbEntity
  8
Dimension
370
              -2
390
0
  6
Continuous
 62
               0
100
AcDbLine
 10
-5.2580200011827714
 20
-1.6796099999999967
 30
0.0
 11
-20.604270002365553
 21
-1.6796099999999967
 31
0.0
  0
LINE
  5
104
100
AcDbEntity
  8
Dimension
370
              -2
390
0
  6
Continuous
 62
               0
100
AcDbLine
 10
-19.651769999999999
 20
4.6803900000000027
 30
0.0
 11
-19.651769999999999
 21
-1.6796099999999967
 31
0.0
  0
SOLID
  5
105
100
AcDbEntity
  8
Dimension
370
              -2
390
0
 62
               0
100
AcDbTrace
 10
-19.651769999999999
 20
4.6803900000000027
 30
0.0
 11
-19.439085328507797
 21
3.8866400000000025
 31
0.0
 12
-19.864454671492204
 22
3.8866400000000025
 32
0.0
 13
-19.864454671492204
 23
3.8866400000000025
 33
0.0
  0
SOLID
  5
106
100
AcDbEntity
  8
Dimension
370
              -2
390
0
 62
               0
100
AcDbTrace
 10
-19.651769999999999
 20
-1.6796099999999967
 30
0.0
 11
-19.864454671492204
 21
-0.8858599999999968
 31
0.0
 12
-19.439085328507794
 22
-0.8858599999999968
 32
0.0
 13
-19.439085328507794
 23
-0.8858599999999968
 33
0.0
  0
WIPEOUT
  5
107
100
AcDbEntity
  8
Dimension
370
              -2
390
0
  6
Continuous
 62
               0
 92
        0
100
AcDbWipeout
 90
        0
 10
-21.577930624292165
 20
0.8918502500000052
 30
0.0
 11
3.8523212485843246
 21
0.0
 31
0.0
 12
0.0
 22
3.8523212485843246
 32
0.0
 13
1.0
 23
1.0
340
0
 70
               7
280
               1
281
              50
282
              50
283
               0
360
0
 71
               2
 91
        5
 14
-0.5
 24
0.5
 14
0.5
 24
0.5
 14
0.5
 24
0.1840659380504002
 14
-0.5
 24
0.1840659380504002
 14
-0.5
 24
0.5
  0
MTEXT
  5
108
100
AcDbEntity
  8
Dimension
390
0
 62
               0
100
AcDbMText
 10
-21.577930624292165
 20
1.9143513697916716
 30
0.0
 40
0.7579186197916666
 41
0.0
 71
               1
 72
               1
  1
6.36mm
  7
Arial
 73
               1
 44
0.9673603504928806
  0
POINT
  5
109
100
AcDbEntity
  8
Defpoints
370
               0
390
0
 62
               0
100
AcDbPoint
 10
-4.7817699999999945
 20
-1.6796099999999967
 30
0.0
  0
POINT
  5
10A
100
AcDbEntity
  8
Defpoints
370
               0
390
0
 62
               0
100
AcDbPoint
 10
-4.7817699999999945
 20
4.6803900000000027
 30
0.0
  0
POINT
  5
10B
100
AcDbEntity
  8
Defpoints
370
               0
390
0
 62
               0
100
AcDbPoint
 10
-19.651769999999992
 20
4.6803900000000027
 30
0.0
  0
ENDBLK
  5
10C
100
AcDbEntity
  8
Dimension
390
0
100
AcDbBlockEnd
  0
BLOCK
  5
10D
100
AcDbEntity
  8
Dimension
390
0
100
AcDbBlockBegin
  2
*D15
 70
               1
 10
0.0
 20
0.0
 30
0.0
  3
*D15
  1

  0
LINE
  5
10E
100
AcDbEntity
  8
Dimension
370
              -2
390
0
  6
Continuous
 62
               0
100
AcDbLine
 10
-6.0480200011827776
 20
3.8903900000000036
 30
0.0
 11
-15.654270002365564
 21
3.8903900000000036
 31
0.0
  0
LINE
  5
10F
100
AcDbEntity
  8
Dimension
370
              -2
390
0
  6
Continuous
 62
               0
100
AcDbLine
 10
-6.0480200011827776
 20
-0.8896099999999976
 30
0.0
 11
-15.65427000236555
 21
-0.8896099999999976
 31
0.0
  0
LINE
  5
110
100
AcDbEntity
  8
Dimension
370
              -2
390
0
  6
Continuous
 62
               0
100
AcDbLine
 10
-14.701769999999996
 20
3.8903900000000036
 30
0.0
 11
-14.701769999999996
 21
-0.8896099999999976
 31
0.0
  0
SOLID
  5
111
100
AcDbEntity
  8
Dimension
370
              -2
390
0
 62
               0
100
AcDbTrace
 10
-14.701769999999996
 20
3.8903900000000036
 30
0.0
 11
-14.489085328507793
 21
3.0966400000000034
 31
0.0
 12
-14.9144546714922
 22
3.0966400000000034
 32
0.0
 13
-14.9144546714922
 23
3.0966400000000034
 33
0.0
  0
SOLID
  5
112
100
AcDbEntity
  8
Dimension
370
              -2
390
0
 62
               0
100
AcDbTrace
 10
-14.701769999999996
 20
-0.8896099999999976
 30
0.0
 11
-14.9144546714922
 21
-0.0958599999999976
 31
0.0
 12
-14.489085328507793
 22
-0.0958599999999976
 32
0.0
 13
-14.489085328507793
 23
-0.0958599999999976
 33
0.0
  0
WIPEOUT
  5
113
100
AcDbEntity
  8
Dimension
370
              -2
390
0
  6
Continuous
 62
               0
 92
        0
100
AcDbWipeout
 90
        0
 10
-16.627930624292162
 20
0.9550866391601616
 30
0.0
 11
3.8523212485843228
 21
0.0
 31
0.0
 12
0.0
 22
3.8523212485843228
 32
0.0
 13
1.0
 23
1.0
340
0
 70
               7
280
               1
281
              50
282
              50
283
               0
360
0
 71
               2
 91
        5
 14
-0.5
 24
0.5
 14
0.5
 24
0.5
 14
0.5
 24
0.1840659380504
 14
-0.5
 24
0.1840659380504
 14
-0.5
 24
0.5
  0
MTEXT
  5
114
100
AcDbEntity
  8
Dimension
390
0
 62
               0
100
AcDbMText
 10
-16.627930624292162
 20
1.977587758951828
 30
0.0
 40
0.7579186197916666
 41
0.0
 71
               1
 72
               1
  1
4.78mm
  7
Arial
 73
               1
 44
0.9673603504928806
  0
POINT
  5
115
100
AcDbEntity
  8
Defpoints
370
               0
390
0
 62
               0
100
AcDbPoint
 10
-5.5717700000000008
 20
-0.8896099999999976
 30
0.0
  0
POINT
  5
116
100
AcDbEntity
  8
Defpoints
370
               0
390
0
 62
               0
100
AcDbPoint
 10
-5.5717700000000008
 20
3.8903900000000036
 30
0.0
  0
POINT
  5
117
100
AcDbEntity
  8
Defpoints
370
               0
390
0
 62
               0
100
AcDbPoint
 10
-14.70177
 20
3.8903900000000036
 30
0.0
  0
ENDBLK
  5
118
100
AcDbEntity
  8
Dimension
390
0
100
AcDbBlockEnd
  0
BLOCK
  5
119
100
AcDbEntity
  8
Dimension
390
0
100
AcDbBlockBegin
  2
*D16
 70
               1
 10
0.0
 20
0.0
 30
0.0
  3
*D16
  1

  0
LINE
  5
11A
100
AcDbEntity
  8
Dimension
370
              -2
390
0
  6
Continuous
 62
               0
100
AcDbLine
 10
-5.5717700000000008
 20
-1.3658600011827779
 30
0.0
 11
-5.5717700000000008
 21
-9.8121100023655572
 31
0.0
  0
LINE
  5
11B
100
AcDbEntity
  8
Dimension
370
              -2
390
0
  6
Continuous
 62
               0
100
AcDbLine
 10
0.7882299999999987
 20
-1.3658600011827779
 30
0.0
 11
0.7882299999999987
 21
-9.8121100023655572
 31
0.0
  0
LINE
  5
11C
100
AcDbEntity
  8
Dimension
370
              -2
390
0
  6
Continuous
 62
               0
100
AcDbLine
 10
0.7882299999999987
 20
-8.8596099999999964
 30
0.0
 11
-5.5717700000000008
 21
-8.8596099999999964
 31
0.0
  0
LINE
  5
11D
100
AcDbEntity
  8
Dimension
370
              -2
390
0
  6
Continuous
 62
               0
100
AcDbLine
 10
-5.5717700000000008
 20
-8.8596099999999964
 30
0.0
 11
-7.3217664983668129
 21
-8.8596099999999964
 31
0.0
  0
SOLID
  5
11E
100
AcDbEntity
  8
Dimension
370
              -2
390
0
 62
               0
100
AcDbTrace
 10
-5.5717700000000008
 20
-8.8596099999999964
 30
0.0
 11
-6.365520000000001
 21
-9.0722946714921999
 31
0.0
 12
-6.365520000000001
 22
-8.6469253285077929
 32
0.0
 13
-6.365520000000001
 23
-8.6469253285077929
 33
0.0
  0
LINE
  5
11F
100
AcDbEntity
  8
Dimension
370
              -2
390
0
  6
Continuous
 62
               0
100
AcDbLine
 10
0.7882299999999987
 20
-8.8596099999999964
 30
0.0
 11
2.5382264983668108
 21
-8.8596099999999964
 31
0.0
  0
SOLID
  5
120
100
AcDbEntity
  8
Dimension
370
              -2
390
0
 62
               0
100
AcDbTrace
 10
0.7882299999999987
 20
-8.8596099999999964
 30
0.0
 11
1.5819799999999986
 21
-8.6469253285077929
 31
0.0
 12
1.5819799999999986
 22
-9.0722946714921999
 32
0.0
 13
1.5819799999999986
 23
-9.0722946714921999
 33
0.0
  0
WIPEOUT
  5
121
100
AcDbEntity
  8
Dimension
370
              -2
390
0
  6
Continuous
 62
               0
 92
        0
100
AcDbWipeout
 90
        0
 10
-4.2466989348390456
 20
-9.4681497499999985
 30
0.0
 11
3.8523212485843232
 21
0.0
 31
0.0
 12
0.0
 22
3.8523212485843232
 32
0.0
 13
1.0
 23
1.0
340
0
 70
               7
280
               1
281
              50
282
              50
283
               0
360
0
 71
               2
 91
        5
 14
-0.5
 24
0.5
 14
0.5
 24
0.5
 14
0.5
 24
0.1840659380503998
 14
-0.5
 24
0.1840659380503998
 14
-0.5
 24
0.5
  0
MTEXT
  5
122
100
AcDbEntity
  8
Dimension
390
0
 62
               0
100
AcDbMText
 10
-4.2466989348390456
 20
-8.445648630208332
 30
0.0
 40
0.7579186197916666
 41
0.0
 71
               1
 72
               1
  1
6.36mm
  7
Arial
 73
               1
 44
0.9673603504928806
  0
POINT
  5
123
100
AcDbEntity
  8
Defpoints
370
               0
390
0
 62
               0
100
AcDbPoint
 10
0.7882299999999987
 20
-0.8896099999999976
 30
0.0
  0
POINT
  5
124
100
AcDbEntity
  8
Defpoints
370
               0
390
0
 62
               0
100
AcDbPoint
 10
-5.5717700000000008
 20
-0.8896099999999976
 30
0.0
  0
POINT
  5
125
100
AcDbEntity
  8
Defpoints
370
               0
390
0
 62
               0
100
AcDbPoint
 10
-5.5717700000000008
 20
-8.8596099999999964
 30
0.0
  0
ENDBLK
  5
126
100
AcDbEntity
  8
Dimension
390
0
100
AcDbBlockEnd
  0
BLOCK
  5
127
100
AcDbEntity
  8
Dimension
390
0
100
AcDbBlockBegin
  2
*D17
 70
               1
 10
0.0
 20
0.0
 30
0.0
  3
*D17
  1

  0
LINE
  5
128
100
AcDbEntity
  8
Dimension
370
              -2
390
0
  6
Continuous
 62
               0
100
AcDbLine
 10
-4.7817699999999945
 20
-2.1558600011827771
 30
0.0
 11
-4.7817699999999945
 21
-6.9121100023655551
 31
0.0
  0
LINE
  5
129
100
AcDbEntity
  8
Dimension
370
              -2
390
0
  6
Continuous
 62
               0
100
AcDbLine
 10
-0.0017699999999934
 20
-2.1558600011827771
 30
0.0
 11
-0.0017699999999934
 21
-6.9121100023655586
 31
0.0
  0
LINE
  5
12A
100
AcDbEntity
  8
Dimension
370
              -2
390
0
  6
Continuous
 62
               0
100
AcDbLine
 10
-0.0017699999999934
 20
-5.9596099999999979
 30
0.0
 11
-4.7817699999999945
 21
-5.9596099999999979
 31
0.0
  0
LINE
  5
12B
100
AcDbEntity
  8
Dimension
370
              -2
390
0
  6
Continuous
 62
               0
100
AcDbLine
 10
-4.7817699999999945
 20
-5.9596099999999979
 30
0.0
 11
-6.5317664983668067
 21
-5.9596099999999979
 31
0.0
  0
SOLID
  5
12C
100
AcDbEntity
  8
Dimension
370
              -2
390
0
 62
               0
100
AcDbTrace
 10
-4.7817699999999945
 20
-5.9596099999999979
 30
0.0
 11
-5.5755199999999947
 21
-6.1722946714922013
 31
0.0
 12
-5.5755199999999947
 22
-5.7469253285077944
 32
0.0
 13
-5.5755199999999947
 23
-5.7469253285077944
 33
0.0
  0
LINE
  5
12D
100
AcDbEntity
  8
Dimension
370
              -2
390
0
  6
Continuous
 62
               0
100
AcDbLine
 10
-0.0017699999999934
 20
-5.9596099999999979
 30
0.0
 11
1.7482264983668188
 21
-5.9596099999999979
 31
0.0
  0
SOLID
  5
12E
100
AcDbEntity
  8
Dimension
370
              -2
390
0
 62
               0
100
AcDbTrace
 10
-0.0017699999999934
 20
-5.9596099999999979
 30
0.0
 11
0.7919800000000066
 21
-5.7469253285077944
 31
0.0
 12
0.7919800000000066
 22
-6.1722946714922013
 32
0.0
 13
0.7919800000000066
 23
-6.1722946714922013
 33
0.0
  0
WIPEOUT
  5
12F
100
AcDbEntity
  8
Dimension
370
              -2
390
0
  6
Continuous
 62
               0
 92
        0
100
AcDbWipeout
 90
        0
 10
-4.2420761321046569
 20
-6.5681497499999955
 30
0.0
 11
3.8523212485843232
 21
0.0
 31
0.0
 12
0.0
 22
3.8523212485843232
 32
0.0
 13
1.0
 23
1.0
340
0
 70
               7
280
               1
281
              50
282
              50
283
               0
360
0
 71
               2
 91
        5
 14
-0.5
 24
0.5
 14
0.5
 24
0.5
 14
0.5
 24
0.1840659380504001
 14
-0.5
 24
0.1840659380504001
 14
-0.5
 24
0.5
  0
MTEXT
  5
130
100
AcDbEntity
  8
Dimension
390
0
 62
               0
100
AcDbMText
 10
-4.2420761321046569
 20
-5.545648630208329
 30
0.0
 40
0.7579186197916666
 41
0.0
 71
               1
 72
               1
  1
4.78mm
  7
Arial
 73
               1
 44
0.9673603504928806
  0
POINT
  5
131
100
AcDbEntity
  8
Defpoints
370
               0
390
0
 62
               0
100
AcDbPoint
 10
-0.0017699999999934
 20
-1.6796099999999967
 30
0.0
  0
POINT
  5
132
100
AcDbEntity
  8
Defpoints
370
               0
390
0
 62
               0
100
AcDbPoint
 10
-4.7817699999999945
 20
-1.6796099999999967
 30
0.0
  0
POINT
  5
133
100
AcDbEntity
  8
Defpoints
370
               0
390
0
 62
               0
100
AcDbPoint
 10
-4.7817699999999945
 20
-5.9596099999999961
 30
0.0
  0
ENDBLK
  5
134
100
AcDbEntity
  8
Dimension
390
0
100
AcDbBlockEnd
  0
BLOCK
  5
135
100
AcDbEntity
  8
Dimension
390
0
100
AcDbBlockBegin
  2
*D18
 70
               1
 10
0.0
 20
0.0
 30
0.0
  3
*D18
  1

  0
LINE
  5
136
100
AcDbEntity
  8
Dimension
370
              -2
390
0
  6
Continuous
 62
               0
100
AcDbLine
 10
-1.641769999999994
 20
5.1566400011827831
 30
0.0
 11
-1.641769999999994
 21
11.082890002365561
 31
0.0
  0
LINE
  5
137
100
AcDbEntity
  8
Dimension
370
              -2
390
0
  6
Continuous
 62
               0
100
AcDbLine
 10
-1.141769999999994
 20
5.1566400011827831
 30
0.0
 11
-1.141769999999994
 21
11.082890002365561
 31
0.0
  0
LINE
  5
138
100
AcDbEntity
  8
Dimension
370
              -2
390
0
  6
Continuous
 62
               0
100
AcDbLine
 10
-1.141769999999994
 20
10.130390000000002
 30
0.0
 11
-1.641769999999994
 21
10.130390000000002
 31
0.0
  0
LINE
  5
139
100
AcDbEntity
  8
Dimension
370
              -2
390
0
  6
Continuous
 62
               0
100
AcDbLine
 10
-1.641769999999994
 20
10.130390000000002
 30
0.0
 11
-3.3917664983668061
 21
10.130390000000002
 31
0.0
  0
SOLID
  5
13A
100
AcDbEntity
  8
Dimension
370
              -2
390
0
 62
               0
100
AcDbTrace
 10
-1.641769999999994
 20
10.130390000000002
 30
0.0
 11
-2.4355199999999941
 21
9.9177053285077985
 31
0.0
 12
-2.4355199999999937
 22
10.343074671492205
 32
0.0
 13
-2.4355199999999937
 23
10.343074671492205
 33
0.0
  0
LINE
  5
13B
100
AcDbEntity
  8
Dimension
370
              -2
390
0
  6
Continuous
 62
               0
100
AcDbLine
 10
-1.141769999999994
 20
10.130390000000002
 30
0.0
 11
1.0682299999999998
 21
10.130390000000002
 31
0.0
  0
SOLID
  5
13C
100
AcDbEntity
  8
Dimension
370
              -2
390
0
 62
               0
100
AcDbTrace
 10
-1.141769999999994
 20
10.130390000000002
 30
0.0
 11
-0.348019999999994
 21
10.343074671492205
 31
0.0
 12
-0.348019999999994
 22
9.9177053285077985
 32
0.0
 13
-0.348019999999994
 23
9.9177053285077985
 33
0.0
  0
WIPEOUT
  5
13D
100
AcDbEntity
  8
Dimension
370
              -2
390
0
  6
Continuous
 62
               0
 92
        0
100
AcDbWipeout
 90
        0
 10
1.0682299999999998
 20
9.5218502500000017
 30
0.0
 11
5.2599001275168513
 21
0.0
 31
0.0
 12
0.0
 22
5.2599001275168513
 32
0.0
 13
1.0
 23
1.0
340
0
 70
               7
280
               1
281
              50
282
              50
283
               0
360
0
 71
               2
 91
        5
 14
-0.5
 24
0.5
 14
0.5
 24
0.5
 14
0.5
 24
0.2686116712306148
 14
-0.5
 24
0.2686116712306148
 14
-0.5
 24
0.5
  0
MTEXT
  5
13E
100
AcDbEntity
  8
Dimension
390
0
 62
               0
100
AcDbMText
 10
1.0682299999999998
 20
10.544351369791668
 30
0.0
 40
0.7579186197916666
 41
0.0
 71
               1
 72
               1
  1
0.5mm typ.
  7
Arial
 73
               1
 44
0.9673603504928806
  0
POINT
  5
13F
100
AcDbEntity
  8
Defpoints
370
               0
390
0
 62
               0
100
AcDbPoint
 10
-1.141769999999994
 20
4.6803900000000027
 30
0.0
  0
POINT
  5
140
100
AcDbEntity
  8
Defpoints
370
               0
390
0
 62
               0
100
AcDbPoint
 10
-1.641769999999994
 20
4.6803900000000027
 30
0.0
  0
POINT
  5
141
100
AcDbEntity
  8
Defpoints
370
               0
390
0
 62
               0
100
AcDbPoint
 10
-1.641769999999994
 20
10.130390000000002
 30
0.0
  0
ENDBLK
  5
142
100
AcDbEntity
  8
Dimension
390
0
100
AcDbBlockEnd
  0
ENDSEC
  0
SECTION
  2
ENTITIES
  0
WIPEOUT
  5
143
100
AcDbEntity
  8
None
370
               9
390
0
  6
STYLE_11
 62
               7
 92
        0
100
AcDbWipeout
 90
        0
 10
-8.7542700000000053
 20
-4.6121099999999942
 30
0.0
 11
12.225000000000009
 21
0.0
 31
0.0
 12
0.0
 22
12.225000000000009
 32
0.0
 13
1.0
 23
1.0
340
0
 70
               7
280
               1
281
              50
282
              50
283
               0
360
0
 71
               2
 91
        5
 14
-0.5
 24
-0.4999999999999991
 14
0.5
 24
-0.4999999999999991
 14
0.5
 24
0.5
 14
-0.5
 24
0.5
 14
-0.5
 24
-0.4999999999999991
  0
POLYLINE
  5
144
100
AcDbEntity
  8
None
370
               9
390
0
  6
STYLE_11
 62
               7
100
AcDb2dPolyline
 66
               1
 10
0.0
 20
0.0
 30
0.0
 70
               1
 75
               5
  0
VERTEX
  5
145
100
AcDbEntity
  8
None
370
               9
390
0
  6
STYLE_11
 62
               7
100
AcDbVertex
100
AcDb2dVertex
 10
-8.7542700000000053
 20
7.6128900000000037
 30
0.0
  0
VERTEX
  5
146
100
AcDbEntity
  8
None
370
               9
390
0
  6
STYLE_11
 62
               7
100
AcDbVertex
100
AcDb2dVertex
 10
3.4707300000000032
 20
7.6128900000000037
 30
0.0
  0
VERTEX
  5
147
100
AcDbEntity
  8
None
370
               9
390
0
  6
STYLE_11
 62
               7
100
AcDbVertex
100
AcDb2dVertex
 10
3.4707300000000032
 20
-4.6121099999999942
 30
0.0
  0
VERTEX
  5
148
100
AcDbEntity
  8
None
370
               9
390
0
  6
STYLE_11
 62
               7
100
AcDbVertex
100
AcDb2dVertex
 10
-8.7542700000000053
 20
-4.6121099999999942
 30
0.0
  0
SEQEND
  5
149
100
AcDbEntity
  8
None
370
               9
390
0
  6
STYLE_11
 62
               7
  0
CIRCLE
  5
14A
102
{ACAD_REACTORS
330
14B
102
}
100
AcDbEntity
  8
None
370
              15
390
0
  6
Continuous
 62
             180
100
AcDbCircle
 10
-5.7371100000000013
 20
6.5951500000000038
 30
0.0
 40
0.2500014851955896
  0
HATCH
  5
14B
100
AcDbEntity
  8
None
370
               0
390
0
  6
Continuous
 62
             180
100
AcDbHatch
 10
0.0
 20
0.0
 30
0.0
210
0.0
220
0.0
230
1.0
  2
SOLID
 70
               1
 71
               1
 91
        1
 92
        1
 93
        1
 72
               2
 10
-5.7371100000000013
 20
6.5951500000000038
 40
0.2500014851955896
 50
0.0
 51
360.0
 73
               0
 97
        1
330
14A
 75
               0
 76
               1
 98
        1
 10
0.0
 20
0.0
  0
WIPEOUT
  5
14C
100
AcDbEntity
  8
None
370
               9
390
0
  6
Continuous
 62
               7
 92
        0
100
AcDbWipeout
 90
        0
 10
-8.3092700000000121
 20
5.5578899999999969
 30
0.0
 11
1.6100000000000136
 21
0.0
 31
0.0
 12
0.0
 22
1.6100000000000136
 32
0.0
 13
1.0
 23
1.0
340
0
 70
               7
280
               1
281
              50
282
              50
283
               0
360
0
 71
               2
 91
        9
 14
0.5
 24
0.0
 14
0.3535533905932736
 24
0.3535533905932736
 14
0.0
 24
0.5
 14
-0.3535533905932742
 24
0.3535533905932736
 14
-0.5
 24
0.0
 14
-0.3535533905932742
 24
-0.3535533905932736
 14
0.0
 24
-0.5
 14
0.3535533905932736
 24
-0.3535533905932736
 14
0.5
 24
0.0
  0
CIRCLE
  5
14D
100
AcDbEntity
  8
None
370
               9
390
0
  6
Continuous
 62
               7
100
AcDbCircle
 10
-7.5042700000000053
 20
6.3628900000000037
 30
0.0
 40
0.8050000000000068
  0
WIPEOUT
  5
14E
100
AcDbEntity
  8
None
370
               9
390
0
  6
Continuous
 62
               7
 92
        0
100
AcDbWipeout
 90
        0
 10
1.4157299999999964
 20
-4.1671100000000045
 30
0.0
 11
1.6100000000000136
 21
0.0
 31
0.0
 12
0.0
 22
1.6100000000000136
 32
0.0
 13
1.0
 23
1.0
340
0
 70
               7
280
               1
281
              50
282
              50
283
               0
360
0
 71
               2
 91
        9
 14
-0.5
 24
0.0
 14
-0.3535533905932737
 24
-0.3535533905932738
 14
0.0
 24
-0.5
 14
0.3535533905932736
 24
-0.3535533905932738
 14
0.5
 24
0.0
 14
0.3535533905932736
 24
0.3535533905932738
 14
0.0
 24
0.5
 14
-0.3535533905932737
 24
0.3535533905932738
 14
-0.5
 24
0.0
  0
CIRCLE
  5
14F
100
AcDbEntity
  8
None
370
               9
390
0
  6
Continuous
 62
               7
100
AcDbCircle
 10
2.2207300000000032
 20
-3.3621099999999977
 30
0.0
 40
0.8050000000000068
  0
WIPEOUT
  5
150
100
AcDbEntity
  8
None
370
               9
390
0
  6
Continuous
 62
               7
 92
        0
100
AcDbWipeout
 90
        0
 10
-8.3092700000000121
 20
-4.1671100000000045
 30
0.0
 11
1.6100000000000136
 21
0.0
 31
0.0
 12
0.0
 22
1.6100000000000136
 32
0.0
 13
1.0
 23
1.0
340
0
 70
               7
280
               1
281
              50
282
              50
283
               0
360
0
 71
               2
 91
        9
 14
0.5
 24
0.0
 14
0.3535533905932736
 24
0.3535533905932738
 14
0.0
 24
0.5
 14
-0.3535533905932742
 24
0.3535533905932738
 14
-0.5
 24
0.0
 14
-0.3535533905932742
 24
-0.3535533905932738
 14
0.0
 24
-0.5
 14
0.3535533905932736
 24
-0.3535533905932738
 14
0.5
 24
0.0
  0
CIRCLE
  5
151
100
AcDbEntity
  8
None
370
               9
390
0
  6
Continuous
 62
               7
100
AcDbCircle
 10
-7.5042700000000053
 20
-3.3621099999999977
 30
0.0
 40
0.8050000000000068
  0
WIPEOUT
  5
152
100
AcDbEntity
  8
None
370
               9
390
0
  6
Continuous
 62
               7
 92
        0
100
AcDbWipeout
 90
        0
 10
1.4157299999999964
 20
5.5578899999999969
 30
0.0
 11
1.6100000000000136
 21
0.0
 31
0.0
 12
0.0
 22
1.6100000000000136
 32
0.0
 13
1.0
 23
1.0
340
0
 70
               7
280
               1
281
              50
282
              50
283
               0
360
0
 71
               2
 91
        9
 14
-0.5
 24
0.0
 14
-0.3535533905932737
 24
-0.3535533905932736
 14
0.0
 24
-0.5
 14
0.3535533905932736
 24
-0.3535533905932736
 14
0.5
 24
0.0
 14
0.3535533905932736
 24
0.3535533905932736
 14
0.0
 24
0.5
 14
-0.3535533905932737
 24
0.3535533905932736
 14
-0.5
 24
0.0
  0
CIRCLE
  5
153
100
AcDbEntity
  8
None
370
               9
390
0
  6
Continuous
 62
               7
100
AcDbCircle
 10
2.2207300000000032
 20
6.3628900000000037
 30
0.0
 40
0.8050000000000068
  0
WIPEOUT
  5
154
100
AcDbEntity
  8
None
370
               9
390
0
  6
Continuous
 62
               7
 92
        0
100
AcDbWipeout
 90
        0
 10
1.795730000000006
 20
3.9378900000000066
 30
0.0
 11
0.8499999999999943
 21
0.0
 31
0.0
 12
0.0
 22
0.8499999999999943
 32
0.0
 13
1.0
 23
1.0
340
0
 70
               7
280
               1
281
              50
282
              50
283
               0
360
0
 71
               2
 91
        9
 14
0.5
 24
0.0
 14
0.3535533905932738
 24
0.3535533905932733
 14
0.0
 24
0.5
 14
-0.3535533905932738
 24
0.3535533905932733
 14
-0.5
 24
0.0
 14
-0.3535533905932738
 24
-0.3535533905932733
 14
0.0
 24
-0.5
 14
0.3535533905932738
 24
-0.3535533905932733
 14
0.5
 24
0.0
  0
CIRCLE
  5
155
100
AcDbEntity
  8
None
370
               9
390
0
  6
Continuous
 62
               7
100
AcDbCircle
 10
2.2207300000000032
 20
4.3628900000000037
 30
0.0
 40
0.4249999999999972
  0
WIPEOUT
  5
156
100
AcDbEntity
  8
None
370
               9
390
0
  6
Continuous
 62
               7
 92
        0
100
AcDbWipeout
 90
        0
 10
-7.9292700000000167
 20
-0.7871100000000091
 30
0.0
 11
0.8500000000000227
 21
0.0
 31
0.0
 12
0.0
 22
0.8500000000000227
 32
0.0
 13
1.0
 23
1.0
340
0
 70
               7
280
               1
281
              50
282
              50
283
               0
360
0
 71
               2
 91
        9
 14
0.5
 24
0.0
 14
0.3535533905932741
 24
0.3535533905932738
 14
0.0
 24
0.5
 14
-0.3535533905932741
 24
0.3535533905932738
 14
-0.5
 24
0.0
 14
-0.3535533905932741
 24
-0.3535533905932738
 14
0.0
 24
-0.5
 14
0.3535533905932741
 24
-0.3535533905932738
 14
0.5
 24
0.0
  0
CIRCLE
  5
157
100
AcDbEntity
  8
None
370
               9
390
0
  6
Continuous
 62
               7
100
AcDbCircle
 10
-7.5042700000000053
 20
-0.3621099999999977
 30
0.0
 40
0.4250000000000114
  0
LINE
  5
158
100
AcDbEntity
  8
None
370
              15
390
0
  6
STYLE_13
 62
             180
100
AcDbLine
 10
-2.641769999999994
 20
-5.999609999999997
 30
0.0
 11
-2.641769999999994
 21
9.000390000000003
 31
0.0
  0
LINE
  5
159
100
AcDbEntity
  8
None
370
              15
390
0
  6
STYLE_13
 62
             180
100
AcDbLine
 10
4.858230000000006
 20
1.500390000000003
 30
0.0
 11
-10.141769999999994
 21
1.500390000000003
 31
0.0
  0
DIMENSION
  5
15A
100
AcDbEntity
  8
Dimension
370
               5
390
0
  6
Continuous
 62
               1
100
AcDbDimension
  2
*D3
 10
-8.7542700000000053
 20
-15.112109999999992
 30
0.0
 11
-2.7732797808837901
 21
-15.112109999999992
 31
0.0
 70
             128
 71
               5
 72
               1
 41
1.0
 42
0.0
  3
IE Standard
100
AcDbAlignedDimension
 13
3.4707300000000032
 23
-4.6121099999999942
 33
0.0
 14
-8.7542700000000053
 24
-4.6121099999999942
 34
0.0
100
AcDbRotatedDimension
1001
ACAD
1000
DSTYLE
1002
{
1070
             271
1070
               3
1070
             340
1005
34
1070
              71
1070
               1
1070
              47
1040
0.125
1070
              48
1040
0.125
1070
               3
1000
<>mm (x4)
1070
             147
1040
0.09921875
1002
}
  0
DIMENSION
  5
15B
100
AcDbEntity
  8
Dimension
370
               5
390
0
  6
Continuous
 62
               1
100
AcDbDimension
  2
*D4
 10
-11.429270000000006
 20
-3.3621099999999977
 30
0.0
 11
-11.429270000000006
 21
-2.0058935693359352
 31
0.0
 70
             128
 71
               5
 72
               1
 41
1.0
 42
0.0
  3
IE Standard
100
AcDbAlignedDimension
 13
-7.5042700000000053
 23
-0.3621099999999977
 33
0.0
 14
-7.5042700000000053
 24
-3.3621099999999977
 34
0.0
 50
90.0
100
AcDbRotatedDimension
1001
ACAD
1000
DSTYLE
1002
{
1070
             271
1070
               2
1070
             340
1005
34
1070
             147
1040
0.09921875
1002
}
  0
DIMENSION
  5
15C
100
AcDbEntity
  8
Dimension
370
               5
390
0
  6
Continuous
 62
               1
100
AcDbDimension
  2
*D5
 10
7.5442300000000024
 20
6.3628900000000037
 30
0.0
 11
7.5442300000000024
 21
5.3628900000000037
 31
0.0
 70
             128
 71
               5
 72
               1
 41
1.0
 42
0.0
  3
IE Standard
100
AcDbAlignedDimension
 13
2.2207300000000032
 23
4.3628900000000037
 33
0.0
 14
2.2207300000000032
 24
6.3628900000000037
 34
0.0
 50
90.0
100
AcDbRotatedDimension
1001
ACAD
1000
DSTYLE
1002
{
1070
             271
1070
               2
1070
             340
1005
34
1070
             147
1040
0.09921875
1002
}
  0
DIMENSION
  5
15D
100
AcDbEntity
  8
Dimension
370
               5
390
0
  6
Continuous
 62
               1
100
AcDbDimension
  2
*D6
 10
-8.7542700000000053
 20
12.671380000000003
 30
0.0
 11
-11.817540000000005
 21
12.671380000000003
 31
0.0
 70
             128
 71
               5
 72
               1
 41
1.0
 42
0.0
  3
IE Standard
100
AcDbAlignedDimension
 13
-7.5042700000000053
 23
6.3628900000000037
 33
0.0
 14
-8.7542700000000053
 24
7.6128900000000037
 34
0.0
100
AcDbRotatedDimension
1001
ACAD
1000
DSTYLE
1002
{
1070
             271
1070
               3
1070
             340
1005
34
1070
              71
1070
               1
1070
              47
1040
0.125
1070
              48
1040
0.125
1070
               3
1000
<>mm (x4)
1070
             174
1070
               0
1070
             147
1040
0.09921875
1002
}
  0
DIMENSION
  5
15E
100
AcDbEntity
  8
Dimension
370
               5
390
0
  6
Continuous
 62
               1
100
AcDbDimension
  2
*D7
 10
-16.979270000000007
 20
7.6128900000000037
 30
0.0
 11
-16.979270000000007
 21
9.8213800000000031
 31
0.0
 70
             128
 71
               5
 72
               1
 41
1.0
 42
0.0
  3
IE Standard
100
AcDbAlignedDimension
 13
-7.5042700000000053
 23
6.3628900000000037
 33
0.0
 14
-8.7542700000000053
 24
7.6128900000000037
 34
0.0
 50
90.0
100
AcDbRotatedDimension
1001
ACAD
1000
DSTYLE
1002
{
1070
             271
1070
               3
1070
             340
1005
34
1070
              71
1070
               1
1070
              47
1040
0.125
1070
              48
1040
0.125
1070
               3
1000
<>mm (x4)
1070
             174
1070
               0
1070
             147
1040
0.09921875
1002
}
  0
DIMENSION
  5
15F
100
AcDbEntity
  8
Dimension
370
               5
390
0
  6
Continuous
 62
               1
100
AcDbDimension
  2
*D8
 10
-7.5042700000000053
 20
-12.712109999999997
 30
0.0
 11
-2.3567094989013677
 21
-12.712109999999997
 31
0.0
 70
             128
 71
               5
 72
               1
 41
1.0
 42
0.0
  3
IE Standard
100
AcDbAlignedDimension
 13
2.2207300000000032
 23
-3.3621099999999977
 33
0.0
 14
-7.5042700000000053
 24
-3.3621099999999977
 34
0.0
100
AcDbRotatedDimension
1001
ACAD
1000
DSTYLE
1002
{
1070
             271
1070
               3
1070
             340
1005
34
1070
               3
1000
<>mm (x4)
1070
             147
1040
0.09921875
1002
}
  0
DIMENSION
  5
160
100
AcDbEntity
  8
Dimension
370
               5
390
0
  6
Continuous
 62
               1
100
AcDbDimension
  2
*D9
 10
1.8589300000000009
 20
4.1398900000000047
 30
0.0
 11
11.310330149355751
 21
9.0106482536837831
 31
0.0
 70
               3
 71
               5
 72
               1
 41
1.0
 42
0.0
  3
IE Standard
100
AcDbDiametricDimension
 15
2.5837499999999949
 25
4.5838900000000038
 35
0.0
 40
8.4746499999999987
1001
ACAD
1000
DSTYLE
1002
{
1070
             271
1070
               3
1070
             172
1070
               0
1070
             289
1070
               0
1070
             342
1005
4B
1070
             340
1005
34
1070
              75
1070
               1
1070
              76
1070
               1
1070
              71
1070
               1
1070
              47
1040
0.025
1070
              48
1040
0.025
1070
               3
1000
mm (x2)
1070
             174
1070
               0
1070
             147
1040
0.09921875
1002
}
  0
DIMENSION
  5
161
100
AcDbEntity
  8
Dimension
370
               5
390
0
  6
Continuous
 62
               1
100
AcDbDimension
  2
*D10
 10
1.5433799999999991
 20
-2.9271099999999954
 30
0.0
 11
7.3643907480206181
 21
-5.6574679826860468
 31
0.0
 70
               3
 71
               5
 72
               1
 41
1.0
 42
0.0
  3
IE Standard
100
AcDbDiametricDimension
 15
2.9043999999999954
 25
-3.7871099999999949
 35
0.0
 40
3.5013999999999998
1001
ACAD
1000
DSTYLE
1002
{
1070
             271
1070
               3
1070
             172
1070
               0
1070
             289
1070
               0
1070
             342
1005
4B
1070
             340
1005
34
1070
              75
1070
               1
1070
              76
1070
               1
1070
              71
1070
               1
1070
              47
1040
0.05
1070
              48
1040
0.05
1070
               3
1000
mm(x4)
1070
             174
1070
               0
1070
             147
1040
0.09921875
1002
}
  0
LINE
  5
162
100
AcDbEntity
  8
None
370
               5
390
0
  6
Continuous
 62
               1
100
AcDbLine
 10
-12.058199999999999
 20
17.543590000000002
 30
0.0
 11
-17.608859999999993
 21
17.543590000000002
 31
0.0
  0
LINE
  5
163
100
AcDbEntity
  8
None
370
               5
390
0
  6
Continuous
 62
               1
100
AcDbLine
 10
-5.8621100000000013
 20
6.8116600000000034
 30
0.0
 11
-12.058199999999999
 21
17.543590000000002
 31
0.0
  0
SOLID
  5
164
100
AcDbEntity
  8
None
370
               5
390
0
 62
               1
100
AcDbTrace
 10
-5.8621100000000013
 20
6.8116600000000034
 30
0.0
 11
-6.2340712527703728
 21
7.1836212527703749
 31
0.0
 12
-5.9982572677374426
 22
7.3197685205078162
 32
0.0
 13
-5.9982572677374426
 23
7.3197685205078162
 33
0.0
  0
WIPEOUT
  5
165
100
AcDbEntity
  8
None
370
               5
390
0
  6
Continuous
 62
               1
 92
        0
100
AcDbWipeout
 90
        0
 10
-23.490549999999999
 20
16.782920500000003
 30
0.0
 11
7.8422253988126727
 21
0.0
 31
0.0
 12
0.0
 22
7.8422253988126727
 32
0.0
 13
1.0
 23
1.0
340
0
 70
               7
280
               1
281
              50
282
              50
283
               0
360
0
 71
               2
 91
        5
 14
-0.5
 24
0.5000000000000004
 14
0.5000000000000004
 24
0.5000000000000004
 14
0.5000000000000004
 24
0.3448043204440075
 14
-0.5
 24
0.3448043204440075
 14
-0.5
 24
0.5000000000000004
  0
MTEXT
  5
166
100
AcDbEntity
  8
None
390
0
 62
               1
100
AcDbMText
 10
-23.490549999999999
 20
17.805421619791666
 30
0.0
 40
0.7579186197916666
 41
0.0
 71
               1
 72
               1
  1
{\C192;\lOrientation Mark}
  7
New Century Schlbk
 73
               1
 44
0.9673603504928806
  0
WIPEOUT
  5
167
100
AcDbEntity
  8
None
370
              15
390
0
  6
Continuous
 62
               1
 92
        0
100
AcDbWipeout
 90
        0
 10
12.753739999999993
 20
6.4972405000000037
 30
0.0
 11
12.350711488082311
 21
0.0
 31
0.0
 12
0.0
 22
12.350711488082311
 32
0.0
 13
1.0
 23
1.0
340
0
 70
               7
280
               1
281
              50
282
              50
283
               0
360
0
 71
               2
 91
        5
 14
-0.5
 24
0.5
 14
0.5000000000000007
 24
0.5
 14
0.5000000000000007
 24
0.4014567297459415
 14
-0.5
 24
0.4014567297459415
 14
-0.5
 24
0.5
  0
MTEXT
  5
168
100
AcDbEntity
  8
None
390
0
 62
               1
100
AcDbMText
 10
12.753739999999993
 20
7.5197416197916711
 30
0.0
 40
0.7579186197916666
 41
0.0
 71
               1
 72
               1
  1
{\C192;\lNon plated alignment hole}
  7
Arial
 73
               1
 44
0.9673603504928806
  0
WIPEOUT
  5
169
100
AcDbEntity
  8
None
370
              15
390
0
  6
Continuous
 62
               1
 92
        0
100
AcDbWipeout
 90
        0
 10
8.8326299999999947
 20
-7.8528894999999963
 30
0.0
 11
12.117878889991573
 21
0.0
 31
0.0
 12
0.0
 22
12.117878889991573
 32
0.0
 13
1.0
 23
1.0
340
0
 70
               7
280
               1
281
              50
282
              50
283
               0
360
0
 71
               2
 91
        5
 14
-0.5
 24
0.5
 14
0.4999999999999997
 24
0.5
 14
0.4999999999999997
 24
0.3995633220096618
 14
-0.5
 24
0.3995633220096618
 14
-0.5
 24
0.5
  0
MTEXT
  5
16A
100
AcDbEntity
  8
None
390
0
 62
               1
100
AcDbMText
 10
8.8326299999999947
 20
-6.8303883802083289
 30
0.0
 40
0.7579186197916666
 41
0.0
 71
               1
 72
               1
  1
{\C192;\lNon plated mounting hole}
  7
Arial
 73
               1
 44
0.9673603504928806
  0
DIMENSION
  5
16B
100
AcDbEntity
  8
Dimension
370
               5
390
0
  6
Continuous
 62
               1
100
AcDbDimension
  2
*D11
 10
0.0982300000000009
 20
1.3903900000000036
 30
0.0
 11
7.9108952035824727
 21
-1.1712724586215111
 31
0.0
 70
               3
 71
               5
 72
               1
 41
1.0
 42
0.0
  1
0.69 x 0.28
  3
IE Standard
100
AcDbDiametricDimension
 15
0.7882299999999987
 25
1.1103900000000024
 35
0.0
 40
6.0679799999999995
1001
ACAD
1000
DSTYLE
1002
{
1070
             271
1070
               4
1070
             172
1070
               0
1070
             289
1070
               0
1070
             342
1005
4B
1070
             340
1005
34
1070
              75
1070
               1
1070
              76
1070
               1
1070
             174
1070
               0
1070
             147
1040
0.09921875
1002
}
  0
WIPEOUT
  5
16C
100
AcDbEntity
  8
None
370
               5
390
0
  6
Continuous
 62
               1
 92
        0
100
AcDbWipeout
 90
        0
 10
-23.490549999999999
 20
16.782920500000003
 30
0.0
 11
7.8422253988126727
 21
0.0
 31
0.0
 12
0.0
 22
7.8422253988126727
 32
0.0
 13
1.0
 23
1.0
340
0
 70
               7
280
               1
281
              50
282
              50
283
               0
360
0
 71
               2
 91
        5
 14
-0.5
 24
0.5000000000000004
 14
0.5000000000000004
 24
0.5000000000000004
 14
0.5000000000000004
 24
0.3448043204440075
 14
-0.5
 24
0.3448043204440075
 14
-0.5
 24
0.5000000000000004
  0
MTEXT
  5
16D
100
AcDbEntity
  8
None
390
0
 62
               1
100
AcDbMText
 10
-23.490549999999999
 20
17.805421619791666
 30
0.0
 40
0.7579186197916666
 41
0.0
 71
               1
 72
               1
  1
{\C192;\lOrientation Mark}
  7
New Century Schlbk
 73
               1
 44
0.9673603504928806
  0
LINE
  5
16E
100
AcDbEntity
  8
None
370
               5
390
0
  6
Continuous
 62
               1
100
AcDbLine
 10
-22.043989999999994
 20
-4.5396099999999961
 30
0.0
 11
-8.7542700000000053
 21
-4.5396099999999961
 31
0.0
  0
SOLID
  5
16F
100
AcDbEntity
  8
None
370
               5
390
0
 62
               1
100
AcDbTrace
 10
-8.7542700000000053
 20
-4.5396099999999961
 30
0.0
 11
-9.2623785205078182
 21
-4.6757572677374375
 31
0.0
 12
-9.2623785205078182
 22
-4.4034627322625548
 32
0.0
 13
-9.2623785205078182
 23
-4.4034627322625548
 33
0.0
  0
LINE
  5
170
100
AcDbEntity
  8
None
370
               5
390
0
  6
Continuous
 62
               1
100
AcDbLine
 10
-25.418359999999993
 20
-1.1652299999999975
 30
0.0
 11
-22.043989999999994
 21
-4.5396099999999961
 31
0.0
  0
WIPEOUT
  5
171
100
AcDbEntity
  8
None
370
               5
390
0
  6
Continuous
 62
               1
 92
        0
100
AcDbWipeout
 90
        0
 10
-30.0
 20
-1.8903789999999958
 30
0.0
 11
5.8432300000000055
 21
0.0
 31
0.0
 12
0.0
 22
5.8432300000000055
 32
0.0
 13
1.0
 23
1.0
340
0
 70
               7
280
               1
281
              50
282
              50
283
               0
360
0
 71
               2
 91
        5
 14
-0.5
 24
0.4999999999999998
 14
0.4999999999999988
 24
0.4999999999999998
 14
0.4999999999999988
 24
0.0834223537324393
 14
-0.5
 24
0.0834223537324393
 14
-0.5
 24
0.4999999999999998
  0
MTEXT
  5
172
100
AcDbEntity
  8
None
390
0
 62
               1
100
AcDbMText
 10
-30.0
 20
0.3492016197916719
 30
0.0
 40
0.7579186197916666
 41
5.8432299999999993
 71
               1
 72
               1
  1
{\C192;\lSocket Body Size}
  7
New Century Schlbk
 73
               1
 44
0.9673603504928806
  0
WIPEOUT
  5
173
100
AcDbEntity
  8
None
370
               5
390
0
  6
Continuous
 62
               1
 92
        0
100
AcDbWipeout
 90
        0
 10
15.173230000000004
 20
-1.769189499999996
 30
0.0
 11
4.7730682608602564
 21
0.0
 31
0.0
 12
0.0
 22
4.7730682608602564
 32
0.0
 13
1.0
 23
1.0
340
0
 70
               7
280
               1
281
              50
282
              50
283
               0
360
0
 71
               2
 91
        5
 14
-0.5
 24
0.4999999999999999
 14
0.4999999999999992
 24
0.4999999999999999
 14
0.4999999999999992
 24
0.2450110843835607
 14
-0.5
 24
0.2450110843835607
 14
-0.5
 24
0.4999999999999999
  0
MTEXT
  5
174
100
AcDbEntity
  8
None
390
0
 62
               1
100
AcDbMText
 10
15.173230000000004
 20
-0.7466883802083288
 30
0.0
 40
0.7579186197916666
 41
0.0
 71
               1
 72
               1
  1
{\C192;\lpad (x 40)}
  7
Arial
 73
               1
 44
0.9673603504928806
  0
WIPEOUT
  5
175
100
AcDbEntity
  8
None
370
               5
390
0
  6
Continuous
 62
               7
 92
        0
100
AcDbWipeout
 90
        0
 10
-4.9814300000000031
 20
-20.109607999999994
 30
0.0
 11
4.4567370387441656
 21
0.0
 31
0.0
 12
0.0
 22
4.4567370387441656
 32
0.0
 13
1.0
 23
1.0
340
0
 70
               7
280
               1
281
              50
282
              50
283
               0
360
0
 71
               2
 91
        5
 14
-0.5
 24
0.5
 14
0.4999999999999996
 24
0.5
 14
0.4999999999999996
 24
0.196569937098856
 14
-0.5
 24
0.196569937098856
 14
-0.5
 24
0.5
  0
MTEXT
  5
176
100
AcDbEntity
  8
None
390
0
 62
               7
100
AcDbMText
 10
-4.9814300000000031
 20
-18.973497791666659
 30
0.0
 40
0.8421302083333332
 41
0.0
 71
               1
 72
               1
  1
MLF40A
  7
Arial
 73
               1
 44
0.9673603504928806
  0
DIMENSION
  5
177
100
AcDbEntity
  8
Dimension
370
               5
390
0
  6
Continuous
 62
               1
100
AcDbDimension
  2
*D12
 10
-7.5042700000000053
 20
13.490390000000003
 30
0.0
 11
-2.5915999999999944
 21
13.490390000000003
 31
0.0
 70
             128
 71
               5
 72
               1
 41
1.0
 42
0.0
  3
IE Standard
100
AcDbAlignedDimension
 13
-4.7817699999999945
 23
4.6803900000000027
 33
0.0
 14
-7.5042700000000053
 24
6.3628900000000037
 34
0.0
100
AcDbRotatedDimension
1001
ACAD
1000
DSTYLE
1002
{
1070
             271
1070
               2
1070
             340
1005
34
1070
             174
1070
               0
1070
             147
1040
0.09921875
1002
}
  0
DIMENSION
  5
178
100
AcDbEntity
  8
Dimension
370
               5
390
0
  6
Continuous
 62
               1
100
AcDbDimension
  2
*D13
 10
-11.531770000000005
 20
6.3628900000000037
 30
0.0
 11
-11.531770000000005
 21
5.4975588079834017
 31
0.0
 70
             128
 71
               5
 72
               1
 41
1.0
 42
0.0
  3
IE Standard
100
AcDbAlignedDimension
 13
-4.7817699999999945
 23
4.6803900000000027
 33
0.0
 14
-7.5042700000000053
 24
6.3628900000000037
 34
0.0
 50
90.0
100
AcDbRotatedDimension
1001
ACAD
1000
DSTYLE
1002
{
1070
             271
1070
               2
1070
             340
1005
34
1070
             147
1040
0.09921875
1002
}
  0
DIMENSION
  5
179
100
AcDbEntity
  8
Dimension
370
               5
390
0
  6
Continuous
 62
               1
100
AcDbDimension
  2
*D14
 10
-19.651769999999992
 20
4.6803900000000027
 30
0.0
 11
-19.651769999999992
 21
1.500390000000003
 31
0.0
 71
               5
 72
               1
 41
1.0
 42
0.0
  3
IE Standard
100
AcDbAlignedDimension
 13
-4.7817699999999945
 23
-1.6796099999999967
 33
0.0
 14
-4.7817699999999945
 24
4.6803900000000027
 34
0.0
 50
90.0
100
AcDbRotatedDimension
1001
ACAD
1000
DSTYLE
1002
{
1070
             271
1070
               2
1070
             340
1005
34
1070
             147
1040
0.09921875
1002
}
  0
DIMENSION
  5
17A
100
AcDbEntity
  8
Dimension
370
               5
390
0
  6
Continuous
 62
               1
100
AcDbDimension
  2
*D15
 10
-14.70177
 20
3.8903900000000036
 30
0.0
 11
-14.70177
 21
1.5636263891601594
 31
0.0
 70
             128
 71
               5
 72
               1
 41
1.0
 42
0.0
  3
IE Standard
100
AcDbAlignedDimension
 13
-5.5717700000000008
 23
-0.8896099999999976
 33
0.0
 14
-5.5717700000000008
 24
3.8903900000000036
 34
0.0
 50
90.0
100
AcDbRotatedDimension
1001
ACAD
1000
DSTYLE
1002
{
1070
             271
1070
               2
1070
             340
1005
34
1070
             147
1040
0.09921875
1002
}
  0
DIMENSION
  5
17B
100
AcDbEntity
  8
Dimension
370
               5
390
0
  6
Continuous
 62
               1
100
AcDbDimension
  2
*D16
 10
-5.5717700000000008
 20
-8.8596099999999964
 30
0.0
 11
-2.3205383105468762
 21
-8.8596099999999964
 31
0.0
 70
             128
 71
               5
 72
               1
 41
1.0
 42
0.0
  3
IE Standard
100
AcDbAlignedDimension
 13
0.7882299999999987
 23
-0.8896099999999976
 33
0.0
 14
-5.5717700000000008
 24
-0.8896099999999976
 34
0.0
100
AcDbRotatedDimension
1001
ACAD
1000
DSTYLE
1002
{
1070
             271
1070
               2
1070
             340
1005
34
1070
             147
1040
0.09921875
1002
}
  0
DIMENSION
  5
17C
100
AcDbEntity
  8
Dimension
370
               5
390
0
  6
Continuous
 62
               1
100
AcDbDimension
  2
*D17
 10
-4.7817699999999945
 20
-5.9596099999999961
 30
0.0
 11
-2.3159155078124938
 21
-5.9596099999999961
 31
0.0
 70
             128
 71
               5
 72
               1
 41
1.0
 42
0.0
  3
IE Standard
100
AcDbAlignedDimension
 13
-0.0017699999999934
 23
-1.6796099999999967
 33
0.0
 14
-4.7817699999999945
 24
-1.6796099999999967
 34
0.0
100
AcDbRotatedDimension
1001
ACAD
1000
DSTYLE
1002
{
1070
             271
1070
               2
1070
             340
1005
34
1070
             147
1040
0.09921875
1002
}
  0
SOLID
  5
17D
100
AcDbEntity
  8
None
370
               5
390
0
  6
Continuous
 62
               7
100
AcDbTrace
 10
-5.5717700000000008
 20
3.6103900000000024
 30
0.0
 11
-5.5717700000000008
 21
3.8903900000000036
 31
0.0
 12
-4.8817700000000031
 22
3.6103900000000024
 32
0.0
 13
-4.8817700000000031
 23
3.8903900000000036
 33
0.0
  0
SOLID
  5
17E
100
AcDbEntity
  8
None
370
               5
390
0
  6
Continuous
 62
               7
100
AcDbTrace
 10
0.0982300000000009
 20
3.6103900000000024
 30
0.0
 11
0.0982300000000009
 21
3.8903900000000036
 31
0.0
 12
0.7882299999999987
 22
3.6103900000000024
 32
0.0
 13
0.7882299999999987
 23
3.8903900000000036
 33
0.0
  0
SOLID
  5
17F
100
AcDbEntity
  8
None
370
               5
390
0
  6
Continuous
 62
               7
100
AcDbTrace
 10
-4.7817699999999945
 20
3.990390000000005
 30
0.0
 11
-4.7817699999999945
 21
4.6803900000000027
 31
0.0
 12
-4.5017699999999934
 22
3.990390000000005
 32
0.0
 13
-4.5017699999999934
 23
4.6803900000000027
 33
0.0
  0
SOLID
  5
180
100
AcDbEntity
  8
None
370
               5
390
0
  6
Continuous
 62
               7
100
AcDbTrace
 10
-4.7817699999999945
 20
-1.6796099999999967
 30
0.0
 11
-4.7817699999999945
 21
-0.9896099999999954
 31
0.0
 12
-4.5017699999999934
 22
-1.6796099999999967
 32
0.0
 13
-4.5017699999999934
 23
-0.9896099999999954
 33
0.0
  0
SOLID
  5
181
100
AcDbEntity
  8
None
370
               5
390
0
  6
Continuous
 62
               7
100
AcDbTrace
 10
-4.2817699999999945
 20
3.990390000000005
 30
0.0
 11
-4.2817699999999945
 21
4.6803900000000027
 31
0.0
 12
-4.0017699999999934
 22
3.990390000000005
 32
0.0
 13
-4.0017699999999934
 23
4.6803900000000027
 33
0.0
  0
SOLID
  5
182
100
AcDbEntity
  8
None
370
               5
390
0
  6
Continuous
 62
               7
100
AcDbTrace
 10
-3.7817699999999945
 20
3.990390000000005
 30
0.0
 11
-3.7817699999999945
 21
4.6803900000000027
 31
0.0
 12
-3.5017699999999934
 22
3.990390000000005
 32
0.0
 13
-3.5017699999999934
 23
4.6803900000000027
 33
0.0
  0
SOLID
  5
183
100
AcDbEntity
  8
None
370
               5
390
0
  6
Continuous
 62
               7
100
AcDbTrace
 10
-3.2817699999999945
 20
3.990390000000005
 30
0.0
 11
-3.2817699999999945
 21
4.6803900000000027
 31
0.0
 12
-3.0017699999999934
 22
3.990390000000005
 32
0.0
 13
-3.0017699999999934
 23
4.6803900000000027
 33
0.0
  0
SOLID
  5
184
100
AcDbEntity
  8
None
370
               5
390
0
  6
Continuous
 62
               7
100
AcDbTrace
 10
-2.7817699999999945
 20
3.990390000000005
 30
0.0
 11
-2.7817699999999945
 21
4.6803900000000027
 31
0.0
 12
-2.5017699999999934
 22
3.990390000000005
 32
0.0
 13
-2.5017699999999934
 23
4.6803900000000027
 33
0.0
  0
SOLID
  5
185
100
AcDbEntity
  8
None
370
               5
390
0
  6
Continuous
 62
               7
100
AcDbTrace
 10
-2.2817699999999945
 20
3.990390000000005
 30
0.0
 11
-2.2817699999999945
 21
4.6803900000000027
 31
0.0
 12
-2.0017699999999934
 22
3.990390000000005
 32
0.0
 13
-2.0017699999999934
 23
4.6803900000000027
 33
0.0
  0
SOLID
  5
186
100
AcDbEntity
  8
None
370
               5
390
0
  6
Continuous
 62
               7
100
AcDbTrace
 10
-1.7817699999999945
 20
3.990390000000005
 30
0.0
 11
-1.7817699999999945
 21
4.6803900000000027
 31
0.0
 12
-1.5017699999999934
 22
3.990390000000005
 32
0.0
 13
-1.5017699999999934
 23
4.6803900000000027
 33
0.0
  0
SOLID
  5
187
100
AcDbEntity
  8
None
370
               5
390
0
  6
Continuous
 62
               7
100
AcDbTrace
 10
-1.2817699999999945
 20
3.990390000000005
 30
0.0
 11
-1.2817699999999945
 21
4.6803900000000027
 31
0.0
 12
-1.0017699999999934
 22
3.990390000000005
 32
0.0
 13
-1.0017699999999934
 23
4.6803900000000027
 33
0.0
  0
SOLID
  5
188
100
AcDbEntity
  8
None
370
               5
390
0
  6
Continuous
 62
               7
100
AcDbTrace
 10
-0.7817699999999945
 20
3.990390000000005
 30
0.0
 11
-0.7817699999999945
 21
4.6803900000000027
 31
0.0
 12
-0.5017699999999934
 22
3.990390000000005
 32
0.0
 13
-0.5017699999999934
 23
4.6803900000000027
 33
0.0
  0
SOLID
  5
189
100
AcDbEntity
  8
None
370
               5
390
0
  6
Continuous
 62
               7
100
AcDbTrace
 10
-0.2817699999999945
 20
3.990390000000005
 30
0.0
 11
-0.2817699999999945
 21
4.6803900000000027
 31
0.0
 12
-0.0017699999999934
 22
3.990390000000005
 32
0.0
 13
-0.0017699999999934
 23
4.6803900000000027
 33
0.0
  0
SOLID
  5
18A
100
AcDbEntity
  8
None
370
               5
390
0
  6
Continuous
 62
               7
100
AcDbTrace
 10
-4.2817699999999945
 20
-1.6796099999999967
 30
0.0
 11
-4.2817699999999945
 21
-0.9896099999999954
 31
0.0
 12
-4.0017699999999934
 22
-1.6796099999999967
 32
0.0
 13
-4.0017699999999934
 23
-0.9896099999999954
 33
0.0
  0
SOLID
  5
18B
100
AcDbEntity
  8
None
370
               5
390
0
  6
Continuous
 62
               7
100
AcDbTrace
 10
-3.7817699999999945
 20
-1.6796099999999967
 30
0.0
 11
-3.7817699999999945
 21
-0.9896099999999954
 31
0.0
 12
-3.5017699999999934
 22
-1.6796099999999967
 32
0.0
 13
-3.5017699999999934
 23
-0.9896099999999954
 33
0.0
  0
SOLID
  5
18C
100
AcDbEntity
  8
None
370
               5
390
0
  6
Continuous
 62
               7
100
AcDbTrace
 10
-3.2817699999999945
 20
-1.6796099999999967
 30
0.0
 11
-3.2817699999999945
 21
-0.9896099999999954
 31
0.0
 12
-3.0017699999999934
 22
-1.6796099999999967
 32
0.0
 13
-3.0017699999999934
 23
-0.9896099999999954
 33
0.0
  0
SOLID
  5
18D
100
AcDbEntity
  8
None
370
               5
390
0
  6
Continuous
 62
               7
100
AcDbTrace
 10
-2.7817699999999945
 20
-1.6796099999999967
 30
0.0
 11
-2.7817699999999945
 21
-0.9896099999999954
 31
0.0
 12
-2.5017699999999934
 22
-1.6796099999999967
 32
0.0
 13
-2.5017699999999934
 23
-0.9896099999999954
 33
0.0
  0
SOLID
  5
18E
100
AcDbEntity
  8
None
370
               5
390
0
  6
Continuous
 62
               7
100
AcDbTrace
 10
-2.2817699999999945
 20
-1.6796099999999967
 30
0.0
 11
-2.2817699999999945
 21
-0.9896099999999954
 31
0.0
 12
-2.0017699999999934
 22
-1.6796099999999967
 32
0.0
 13
-2.0017699999999934
 23
-0.9896099999999954
 33
0.0
  0
SOLID
  5
18F
100
AcDbEntity
  8
None
370
               5
390
0
  6
Continuous
 62
               7
100
AcDbTrace
 10
-1.7817699999999945
 20
-1.6796099999999967
 30
0.0
 11
-1.7817699999999945
 21
-0.9896099999999954
 31
0.0
 12
-1.5017699999999934
 22
-1.6796099999999967
 32
0.0
 13
-1.5017699999999934
 23
-0.9896099999999954
 33
0.0
  0
SOLID
  5
190
100
AcDbEntity
  8
None
370
               5
390
0
  6
Continuous
 62
               7
100
AcDbTrace
 10
-1.2817699999999945
 20
-1.6796099999999967
 30
0.0
 11
-1.2817699999999945
 21
-0.9896099999999954
 31
0.0
 12
-1.0017699999999934
 22
-1.6796099999999967
 32
0.0
 13
-1.0017699999999934
 23
-0.9896099999999954
 33
0.0
  0
SOLID
  5
191
100
AcDbEntity
  8
None
370
               5
390
0
  6
Continuous
 62
               7
100
AcDbTrace
 10
-0.7817699999999945
 20
-1.6796099999999967
 30
0.0
 11
-0.7817699999999945
 21
-0.9896099999999954
 31
0.0
 12
-0.5017699999999934
 22
-1.6796099999999967
 32
0.0
 13
-0.5017699999999934
 23
-0.9896099999999954
 33
0.0
  0
SOLID
  5
192
100
AcDbEntity
  8
None
370
               5
390
0
  6
Continuous
 62
               7
100
AcDbTrace
 10
-0.2817699999999945
 20
-1.6796099999999967
 30
0.0
 11
-0.2817699999999945
 21
-0.9896099999999954
 31
0.0
 12
-0.0017699999999934
 22
-1.6796099999999967
 32
0.0
 13
-0.0017699999999934
 23
-0.9896099999999954
 33
0.0
  0
SOLID
  5
193
100
AcDbEntity
  8
None
370
               5
390
0
  6
Continuous
 62
               7
100
AcDbTrace
 10
0.0982300000000009
 20
3.1103900000000024
 30
0.0
 11
0.0982300000000009
 21
3.3903900000000036
 31
0.0
 12
0.7882299999999987
 22
3.1103900000000024
 32
0.0
 13
0.7882299999999987
 23
3.3903900000000036
 33
0.0
  0
SOLID
  5
194
100
AcDbEntity
  8
None
370
               5
390
0
  6
Continuous
 62
               7
100
AcDbTrace
 10
0.0982300000000009
 20
2.6103900000000024
 30
0.0
 11
0.0982300000000009
 21
2.8903900000000036
 31
0.0
 12
0.7882299999999987
 22
2.6103900000000024
 32
0.0
 13
0.7882299999999987
 23
2.8903900000000036
 33
0.0
  0
SOLID
  5
195
100
AcDbEntity
  8
None
370
               5
390
0
  6
Continuous
 62
               7
100
AcDbTrace
 10
0.0982300000000009
 20
2.1103900000000024
 30
0.0
 11
0.0982300000000009
 21
2.3903900000000036
 31
0.0
 12
0.7882299999999987
 22
2.1103900000000024
 32
0.0
 13
0.7882299999999987
 23
2.3903900000000036
 33
0.0
  0
SOLID
  5
196
100
AcDbEntity
  8
None
370
               5
390
0
  6
Continuous
 62
               7
100
AcDbTrace
 10
0.0982300000000009
 20
1.6103900000000024
 30
0.0
 11
0.0982300000000009
 21
1.8903900000000036
 31
0.0
 12
0.7882299999999987
 22
1.6103900000000024
 32
0.0
 13
0.7882299999999987
 23
1.8903900000000036
 33
0.0
  0
SOLID
  5
197
100
AcDbEntity
  8
None
370
               5
390
0
  6
Continuous
 62
               7
100
AcDbTrace
 10
0.0982300000000009
 20
1.1103900000000024
 30
0.0
 11
0.0982300000000009
 21
1.3903900000000036
 31
0.0
 12
0.7882299999999987
 22
1.1103900000000024
 32
0.0
 13
0.7882299999999987
 23
1.3903900000000036
 33
0.0
  0
SOLID
  5
198
100
AcDbEntity
  8
None
370
               5
390
0
  6
Continuous
 62
               7
100
AcDbTrace
 10
0.0982300000000009
 20
0.6103900000000024
 30
0.0
 11
0.0982300000000009
 21
0.8903900000000036
 31
0.0
 12
0.7882299999999987
 22
0.6103900000000024
 32
0.0
 13
0.7882299999999987
 23
0.8903900000000036
 33
0.0
  0
SOLID
  5
199
100
AcDbEntity
  8
None
370
               5
390
0
  6
Continuous
 62
               7
100
AcDbTrace
 10
0.0982300000000009
 20
0.1103900000000024
 30
0.0
 11
0.0982300000000009
 21
0.3903900000000036
 31
0.0
 12
0.7882299999999987
 22
0.1103900000000024
 32
0.0
 13
0.7882299999999987
 23
0.3903900000000036
 33
0.0
  0
SOLID
  5
19A
100
AcDbEntity
  8
None
370
               5
390
0
  6
Continuous
 62
               7
100
AcDbTrace
 10
0.0982300000000009
 20
-0.3896099999999976
 30
0.0
 11
0.0982300000000009
 21
-0.1096099999999964
 31
0.0
 12
0.7882299999999987
 22
-0.3896099999999976
 32
0.0
 13
0.7882299999999987
 23
-0.1096099999999964
 33
0.0
  0
SOLID
  5
19B
100
AcDbEntity
  8
None
370
               5
390
0
  6
Continuous
 62
               7
100
AcDbTrace
 10
0.0982300000000009
 20
-0.8896099999999976
 30
0.0
 11
0.0982300000000009
 21
-0.6096099999999964
 31
0.0
 12
0.7882299999999987
 22
-0.8896099999999976
 32
0.0
 13
0.7882299999999987
 23
-0.6096099999999964
 33
0.0
  0
SOLID
  5
19C
100
AcDbEntity
  8
None
370
               5
390
0
  6
Continuous
 62
               7
100
AcDbTrace
 10
-5.5717700000000008
 20
3.1103900000000024
 30
0.0
 11
-5.5717700000000008
 21
3.3903900000000036
 31
0.0
 12
-4.8817700000000031
 22
3.1103900000000024
 32
0.0
 13
-4.8817700000000031
 23
3.3903900000000036
 33
0.0
  0
SOLID
  5
19D
100
AcDbEntity
  8
None
370
               5
390
0
  6
Continuous
 62
               7
100
AcDbTrace
 10
-5.5717700000000008
 20
2.6103900000000024
 30
0.0
 11
-5.5717700000000008
 21
2.8903900000000036
 31
0.0
 12
-4.8817700000000031
 22
2.6103900000000024
 32
0.0
 13
-4.8817700000000031
 23
2.8903900000000036
 33
0.0
  0
SOLID
  5
19E
100
AcDbEntity
  8
None
370
               5
390
0
  6
Continuous
 62
               7
100
AcDbTrace
 10
-5.5717700000000008
 20
2.1103900000000024
 30
0.0
 11
-5.5717700000000008
 21
2.3903900000000036
 31
0.0
 12
-4.8817700000000031
 22
2.1103900000000024
 32
0.0
 13
-4.8817700000000031
 23
2.3903900000000036
 33
0.0
  0
SOLID
  5
19F
100
AcDbEntity
  8
None
370
               5
390
0
  6
Continuous
 62
               7
100
AcDbTrace
 10
-5.5717700000000008
 20
1.6103900000000024
 30
0.0
 11
-5.5717700000000008
 21
1.8903900000000036
 31
0.0
 12
-4.8817700000000031
 22
1.6103900000000024
 32
0.0
 13
-4.8817700000000031
 23
1.8903900000000036
 33
0.0
  0
SOLID
  5
1A0
100
AcDbEntity
  8
None
370
               5
390
0
  6
Continuous
 62
               7
100
AcDbTrace
 10
-5.5717700000000008
 20
1.1103900000000024
 30
0.0
 11
-5.5717700000000008
 21
1.3903900000000036
 31
0.0
 12
-4.8817700000000031
 22
1.1103900000000024
 32
0.0
 13
-4.8817700000000031
 23
1.3903900000000036
 33
0.0
  0
SOLID
  5
1A1
100
AcDbEntity
  8
None
370
               5
390
0
  6
Continuous
 62
               7
100
AcDbTrace
 10
-5.5717700000000008
 20
0.6103900000000024
 30
0.0
 11
-5.5717700000000008
 21
0.8903900000000036
 31
0.0
 12
-4.8817700000000031
 22
0.6103900000000024
 32
0.0
 13
-4.8817700000000031
 23
0.8903900000000036
 33
0.0
  0
SOLID
  5
1A2
100
AcDbEntity
  8
None
370
               5
390
0
  6
Continuous
 62
               7
100
AcDbTrace
 10
-5.5717700000000008
 20
0.1103900000000024
 30
0.0
 11
-5.5717700000000008
 21
0.3903900000000036
 31
0.0
 12
-4.8817700000000031
 22
0.1103900000000024
 32
0.0
 13
-4.8817700000000031
 23
0.3903900000000036
 33
0.0
  0
SOLID
  5
1A3
100
AcDbEntity
  8
None
370
               5
390
0
  6
Continuous
 62
               7
100
AcDbTrace
 10
-5.5717700000000008
 20
-0.3896099999999976
 30
0.0
 11
-5.5717700000000008
 21
-0.1096099999999964
 31
0.0
 12
-4.8817700000000031
 22
-0.3896099999999976
 32
0.0
 13
-4.8817700000000031
 23
-0.1096099999999964
 33
0.0
  0
SOLID
  5
1A4
100
AcDbEntity
  8
None
370
               5
390
0
  6
Continuous
 62
               7
100
AcDbTrace
 10
-5.5717700000000008
 20
-0.8896099999999976
 30
0.0
 11
-5.5717700000000008
 21
-0.6096099999999964
 31
0.0
 12
-4.8817700000000031
 22
-0.8896099999999976
 32
0.0
 13
-4.8817700000000031
 23
-0.6096099999999964
 33
0.0
  0
POLYLINE
  5
1A5
102
{ACAD_REACTORS
330
1AB
102
}
100
AcDbEntity
  8
None
370
               9
390
0
  6
Continuous
 62
               7
100
AcDb2dPolyline
 66
               1
 10
0.0
 20
0.0
 30
0.0
 70
               1
 75
               5
  0
VERTEX
  5
1A6
100
AcDbEntity
  8
None
370
               9
390
0
  6
Continuous
 62
               7
100
AcDbVertex
100
AcDb2dVertex
 10
-4.6817700000000002
 20
3.7903900000000021
 30
0.0
  0
VERTEX
  5
1A7
100
AcDbEntity
  8
None
370
               9
390
0
  6
Continuous
 62
               7
100
AcDbVertex
100
AcDb2dVertex
 10
-0.1017700000000019
 20
3.7903900000000021
 30
0.0
  0
VERTEX
  5
1A8
100
AcDbEntity
  8
None
370
               9
390
0
  6
Continuous
 62
               7
100
AcDbVertex
100
AcDb2dVertex
 10
-0.1017700000000019
 20
-0.7896099999999962
 30
0.0
  0
VERTEX
  5
1A9
100
AcDbEntity
  8
None
370
               9
390
0
  6
Continuous
 62
               7
100
AcDbVertex
100
AcDb2dVertex
 10
-4.6817700000000002
 20
-0.7896099999999962
 30
0.0
  0
SEQEND
  5
1AA
100
AcDbEntity
  8
None
370
               9
390
0
  6
Continuous
 62
               7
  0
HATCH
  5
1AB
100
AcDbEntity
  8
None
370
               0
390
0
  6
Continuous
 62
             253
100
AcDbHatch
 10
0.0
 20
0.0
 30
0.0
210
0.0
220
0.0
230
1.0
  2
SOLID
 70
               1
 71
               1
 91
        1
 92
        1
 93
        4
 72
               1
 10
-4.6817700000000002
 20
3.7903900000000021
 11
-0.1017700000000019
 21
3.7903900000000021
 72
               1
 10
-0.1017700000000019
 20
3.7903900000000021
 11
-0.1017700000000019
 21
-0.7896099999999962
 72
               1
 10
-0.1017700000000019
 20
-0.7896099999999962
 11
-4.6817700000000002
 21
-0.7896099999999962
 72
               1
 10
-4.6817700000000002
 20
-0.7896099999999962
 11
-4.6817700000000002
 21
3.7903900000000021
 97
        1
330
1A5
 75
               0
 76
               1
 98
        1
 10
0.0
 20
0.0
  0
LINE
  5
1AC
100
AcDbEntity
  8
None
370
               9
390
0
  6
Continuous
 62
               1
100
AcDbLine
 10
4.3019199999999955
 20
11.715270000000002
 30
0.0
 11
-1.6317700000000031
 21
2.4153900000000021
 31
0.0
  0
SOLID
  5
1AD
100
AcDbEntity
  8
None
370
               9
390
0
 62
               1
100
AcDbTrace
 10
-1.6317700000000031
 20
2.4153900000000021
 30
0.0
 11
-1.3778351401904776
 21
3.1969211375506843
 31
0.0
 12
-1.0210903917231731
 22
2.9652483890626806
 32
0.0
 13
-1.0210903917231731
 23
2.9652483890626806
 33
0.0
  0
LINE
  5
1AE
100
AcDbEntity
  8
None
370
               9
390
0
  6
Continuous
 62
               1
100
AcDbLine
 10
10.256500000000003
 20
11.715270000000002
 30
0.0
 11
4.3019199999999955
 21
11.715270000000002
 31
0.0
  0
WIPEOUT
  5
1AF
100
AcDbEntity
  8
None
370
               9
390
0
  6
Continuous
 62
               1
 92
        0
100
AcDbWipeout
 90
        0
 10
9.9565000000000055
 20
11.275950500000002
 30
0.0
 11
17.674111670669561
 21
0.0
 31
0.0
 12
0.0
 22
17.674111670669561
 32
0.0
 13
1.0
 23
1.0
340
0
 70
               7
280
               1
281
              50
282
              50
283
               0
360
0
 71
               2
 91
        5
 14
-0.5
 24
0.5
 14
0.4999999999999998
 24
0.5
 14
0.4999999999999998
 24
0.4311377271639761
 14
-0.5
 24
0.4311377271639761
 14
-0.5
 24
0.5
  0
MTEXT
  5
1B0
100
AcDbEntity
  8
None
390
0
 62
               1
100
AcDbMText
 10
9.9565000000000055
 20
12.298451619791669
 30
0.0
 40
0.7579186197916666
 41
0.0
 71
               1
 72
               1
  1
{\C192;\l4.58mm x 4.58mm thermal /GND pad}
  7
Arial
 73
               1
 44
0.9673603504928806
  0
DIMENSION
  5
1B1
100
AcDbEntity
  8
Dimension
370
               5
390
0
  6
Continuous
 62
               1
100
AcDbDimension
  2
*D18
 10
-1.641769999999994
 20
10.130390000000002
 30
0.0
 11
1.068230000000006
 21
10.130390000000002
 31
0.0
 70
             128
 71
               5
 72
               1
 41
1.0
 42
0.0
  3
IE Standard
100
AcDbAlignedDimension
 13
-1.141769999999994
 23
4.6803900000000027
 33
0.0
 14
-1.641769999999994
 24
4.6803900000000027
 34
0.0
100
AcDbRotatedDimension
1001
ACAD
1000
DSTYLE
1002
{
1070
             271
1070
               2
1070
             340
1005
34
1070
               3
1000
<>mm typ.
1070
             174
1070
               0
1070
             147
1040
0.09921875
1002
}
  0
ENDSEC
  0
SECTION
  2
OBJECTS
  0
DICTIONARY
  5
19
100
AcDbDictionary
280
               0
281
               1
  3
ACAD_GROUP
350
1A
  3
ACAD_MLINESTYLE
350
1B
  3
ACAD_LAYOUT
350
1E
  3
ACAD_PLOTSETTINGS
350
22
  3
ACAD_PLOTSTYLENAME
350
1F
  3
ACAD_WIPEOUT_VARS
350
23
  0
DICTIONARY
  5
1A
102
{ACAD_REACTORS
330
19
102
}
100
AcDbDictionary
280
               0
281
               1
  0
DICTIONARY
  5
1B
102
{ACAD_REACTORS
330
19
102
}
100
AcDbDictionary
280
               0
281
               1
  3
Standard
350
1C
  0
MLINESTYLE
  5
1C
102
{ACAD_REACTORS
330
1B
102
}
100
AcDbMlineStyle
  2
Standard
 70
               0
  3

 62
               0
 51
90.0
 52
90.0
 71
               2
 49
0.5
 62
             256
  6
ByLayer
 49
-0.5
 62
             256
  6
ByLayer
  0
ACDBDICTIONARYWDFLT
  5
1F
102
{ACAD_REACTORS
330
19
102
}
100
AcDbDictionary
281
               1
  3
Normal
350
1D
100
AcDbDictionaryWithDefault
340
1D
  0
ACDBPLACEHOLDER
  5
1D
102
{ACAD_REACTORS
330
1F
102
}
  0
LAYOUT
  5
20
102
{ACAD_REACTORS
330
1E
102
}
100
AcDbPlotSettings
  1

  2

  4

  6

 40
0.0
 41
0.0
 42
0.0
 43
0.0
 44
0.0
 45
0.0
 46
0.0
 47
0.0
 48
0.0
 49
0.0
140
0.0
141
0.0
142
1.0
143
1.0
 70
            1024
 72
               0
 73
               0
 74
               0
  7

 75
               0
147
1.0
148
0.0
149
0.0
100
AcDbLayout
  1
Model
 70
               0
 71
               0
 10
0.0
 20
0.0
 11
0.0
 21
0.0
 12
0.0
 22
0.0
 32
0.0
 14
0.0
 24
0.0
 34
0.0
 15
0.0
 25
0.0
 35
0.0
146
0.0
 13
0.0
 23
0.0
 33
0.0
 16
0.0
 26
0.0
 36
0.0
 17
0.0
 27
0.0
 37
0.0
 76
               0
330
A
331
0
345
0
346
0
  0
LAYOUT
  5
21
102
{ACAD_REACTORS
330
1E
102
}
100
AcDbPlotSettings
  1

  2

  4

  6

 40
0.0
 41
0.0
 42
0.0
 43
0.0
 44
0.0
 45
0.0
 46
0.0
 47
0.0
 48
0.0
 49
0.0
140
0.0
141
0.0
142
1.0
143
1.0
 70
               0
 72
               0
 73
               0
 74
               0
  7

 75
               0
147
1.0
148
0.0
149
0.0
100
AcDbLayout
  1
Layout1
 70
               0
 71
               0
 10
0.0
 20
0.0
 11
0.0
 21
0.0
 12
0.0
 22
0.0
 32
0.0
 14
0.0
 24
0.0
 34
0.0
 15
0.0
 25
0.0
 35
0.0
146
0.0
 13
0.0
 23
0.0
 33
0.0
 16
0.0
 26
0.0
 36
0.0
 17
0.0
 27
0.0
 37
0.0
 76
               0
330
B
331
0
345
0
346
0
  0
DICTIONARY
  5
1E
102
{ACAD_REACTORS
330
19
102
}
100
AcDbDictionary
280
               0
281
               1
  3
Layout1
350
21
  3
Model
350
20
  0
DICTIONARY
  5
22
102
{ACAD_REACTORS
330
19
102
}
100
AcDbDictionary
280
               0
281
               1
  0
WIPEOUTVARIABLES
  5
23
100
AcDbWipeoutVariables
 70
               0
  0
ENDSEC
  0
EOF
