  0
SECTION
  2
HEADER
  9
$ACADVER
  1
AC1015
  9
$ACADMAINTVER
 70
               6
  9
$DWGCODEPAGE
  3
ANSI_1252
  9
$INSBASE
 10
0.0
 20
0.0
 30
0.0
  9
$EXTMIN
 10
-32.0
 20
-16.959806733154075
 30
-0.4656662010000001
  9
$EXTMAX
 10
33.407069515398348
 20
22.0
 30
0.4656662010000001
  9
$LIMMIN
 10
0.0
 20
0.0
  9
$LIMMAX
 10
0.0
 20
0.0
  9
$ORTHOMODE
 70
               0
  9
$REGENMODE
 70
               1
  9
$FILLMODE
 70
               1
  9
$QTEXTMODE
 70
               0
  9
$MIRRTEXT
 70
               1
  9
$LTSCALE
 40
1.69333164
  9
$ATTMODE
 70
               1
  9
$TEXTSIZE
 40
0.2
  9
$TRACEWID
 40
1.0
  9
$TEXTSTYLE
  7
Standard
  9
$CLAYER
  8
None
  9
$CELTYPE
  6
Continuous
  9
$CECOLOR
 62
             256
  9
$CELTSCALE
 40
1.0
  9
$DISPSILH
 70
               0
  9
$DIMSCALE
 40
1.0
  9
$DIMASZ
 40
0.7482739913085938
  9
$DIMEXO
 40
0.5291661375000001
  9
$DIMDLI
 40
10.16
  9
$DIMRND
 40
0.0
  9
$DIMDLE
 40
1.5874999999999999
  9
$DIMEXE
 40
1.0583322750000002
  9
$DIMTP
 40
0.0
  9
$DIMTM
 40
0.0
  9
$DIMTXT
 40
0.7579186197916666
  9
$DIMCEN
 40
0.0
  9
$DIMTSZ
 40
0.0
  9
$DIMTOL
 70
               0
  9
$DIMLIM
 70
               0
  9
$DIMTIH
 70
               0
  9
$DIMTOH
 70
               0
  9
$DIMSE1
 70
               0
  9
$DIMSE2
 70
               0
  9
$DIMTAD
 70
               1
  9
$DIMZIN
 70
              11
  9
$DIMBLK
  1
VW_SLASH
  9
$DIMASO
 70
               1
  9
$DIMSHO
 70
               1
  9
$DIMPOST
  1
<>mm
  9
$DIMAPOST
  1
[]
  9
$DIMALT
 70
               0
  9
$DIMALTD
 70
               1
  9
$DIMALTF
 40
1.0
  9
$DIMLFAC
 40
1.0
  9
$DIMTOFL
 70
               1
  9
$DIMTVP
 40
0.0
  9
$DIMTIX
 70
               1
  9
$DIMSOXD
 70
               0
  9
$DIMSAH
 70
               0
  9
$DIMBLK1
  1

  9
$DIMBLK2
  1

  9
$DIMSTYLE
  2
Arch
  9
$DIMCLRD
 70
               0
  9
$DIMCLRE
 70
               0
  9
$DIMCLRT
 70
               0
  9
$DIMTFAC
 40
1.0
  9
$DIMGAP
 40
1.5874999999999999
  9
$DIMJUST
 70
               0
  9
$DIMSD1
 70
               0
  9
$DIMSD2
 70
               0
  9
$DIMTOLJ
 70
               1
  9
$DIMTZIN
 70
              11
  9
$DIMALTZ
 70
              11
  9
$DIMALTTZ
 70
              11
  9
$DIMUPT
 70
               0
  9
$DIMDEC
 70
               1
  9
$DIMTDEC
 70
               1
  9
$DIMALTU
 70
               2
  9
$DIMALTTD
 70
               2
  9
$DIMTXSTY
  7
Helvetica
  9
$DIMAUNIT
 70
               0
  9
$DIMADEC
 70
               2
  9
$DIMALTRND
 40
0.0
  9
$DIMAZIN
 70
               0
  9
$DIMDSEP
 70
              46
  9
$DIMATFIT
 70
               0
  9
$DIMFRAC
 70
               2
  9
$DIMLDRBLK
  1

  9
$DIMLUNIT
 70
               2
  9
$DIMLWD
 70
              -2
  9
$DIMLWE
 70
              -2
  9
$DIMTMOVE
 70
               0
  9
$LUNITS
 70
               2
  9
$LUPREC
 70
               4
  9
$SKETCHINC
 40
0.1
  9
$FILLETRAD
 40
0.0
  9
$AUNITS
 70
               0
  9
$AUPREC
 70
               0
  9
$MENU
  1
acad
  9
$ELEVATION
 40
0.0
  9
$PELEVATION
 40
0.0
  9
$THICKNESS
 40
0.0
  9
$LIMCHECK
 70
               0
  9
$CHAMFERA
 40
0.0
  9
$CHAMFERB
 40
0.0
  9
$CHAMFERC
 40
0.0
  9
$CHAMFERD
 40
0.0
  9
$SKPOLY
 70
               0
  9
$TDCREATE
 40
2455995.527847222
  9
$TDUCREATE
 40
0.000000000
  9
$TDUPDATE
 40
2455995.527847222
  9
$TDUUPDATE
 40
0.000000000
  9
$TDINDWG
 40
0.0000000000
  9
$TDUSRTIMER
 40
0.0000000000
  9
$USRTIMER
 70
               1
  9
$ANGBASE
 50
0.0
  9
$ANGDIR
 70
               0
  9
$PDMODE
 70
               1
  9
$PDSIZE
 40
-2.0
  9
$PLINEWID
 40
0.0
  9
$SPLFRAME
 70
               0
  9
$SPLINETYPE
 70
               6
  9
$SPLINESEGS
 70
               8
  9
$HANDSEED
  5
2AA
  9
$SURFTAB1
 70
               6
  9
$SURFTAB2
 70
               6
  9
$SURFTYPE
 70
               6
  9
$SURFU
 70
               6
  9
$SURFV
 70
               6
  9
$UCSBASE
  2

  9
$UCSNAME
  2

  9
$UCSORG
 10
0.0
 20
0.0
 30
0.0
  9
$UCSXDIR
 10
1.0
 20
0.0
 30
0.0
  9
$UCSYDIR
 10
0.0
 20
1.0
 30
0.0
  9
$UCSORTHOREF
  2

  9
$UCSORTHOVIEW
 70
               0
  9
$UCSORGTOP
 10
0.0
 20
0.0
 30
0.0
  9
$UCSORGBOTTOM
 10
0.0
 20
0.0
 30
0.0
  9
$UCSORGLEFT
 10
0.0
 20
0.0
 30
0.0
  9
$UCSORGRIGHT
 10
0.0
 20
0.0
 30
0.0
  9
$UCSORGFRONT
 10
0.0
 20
0.0
 30
0.0
  9
$UCSORGBACK
 10
0.0
 20
0.0
 30
0.0
  9
$PUCSBASE
  2

  9
$PUCSNAME
  2

  9
$PUCSORG
 10
0.0
 20
0.0
 30
0.0
  9
$PUCSXDIR
 10
1.0
 20
0.0
 30
0.0
  9
$PUCSYDIR
 10
0.0
 20
1.0
 30
0.0
  9
$PUCSORTHOREF
  2

  9
$PUCSORTHOVIEW
 70
               0
  9
$PUCSORGTOP
 10
0.0
 20
0.0
 30
0.0
  9
$PUCSORGBOTTOM
 10
0.0
 20
0.0
 30
0.0
  9
$PUCSORGLEFT
 10
0.0
 20
0.0
 30
0.0
  9
$PUCSORGRIGHT
 10
0.0
 20
0.0
 30
0.0
  9
$PUCSORGFRONT
 10
0.0
 20
0.0
 30
0.0
  9
$PUCSORGBACK
 10
0.0
 20
0.0
 30
0.0
  9
$USERI1
 70
               0
  9
$USERI2
 70
               0
  9
$USERI3
 70
               0
  9
$USERI4
 70
               0
  9
$USERI5
 70
               0
  9
$USERR1
 40
0.0
  9
$USERR2
 40
0.0
  9
$USERR3
 40
0.0
  9
$USERR4
 40
0.0
  9
$USERR5
 40
0.0
  9
$WORLDVIEW
 70
               1
  9
$SHADEDGE
 70
               3
  9
$SHADEDIF
 70
              70
  9
$TILEMODE
 70
               1
  9
$MAXACTVP
 70
              64
  9
$PINSBASE
 10
0.0
 20
0.0
 30
0.0
  9
$PLIMCHECK
 70
               0
  9
$PEXTMIN
 10
1.0000000000000000E+20
 20
1.0000000000000000E+20
 30
1.0000000000000000E+20
  9
$PEXTMAX
 10
-1.0000000000000000E+20
 20
-1.0000000000000000E+20
 30
-1.0000000000000000E+20
  9
$PLIMMIN
 10
0.0
 20
0.0
  9
$PLIMMAX
 10
12.0
 20
9.0
  9
$UNITMODE
 70
               0
  9
$VISRETAIN
 70
               0
  9
$PLINEGEN
 70
               1
  9
$PSLTSCALE
 70
               0
  9
$TREEDEPTH
 70
            3020
  9
$CMLSTYLE
  2
Standard
  9
$CMLJUST
 70
               0
  9
$CMLSCALE
 40
1.0
  9
$PROXYGRAPHICS
 70
               0
  9
$MEASUREMENT
 70
               1
  9
$CELWEIGHT
370
               0
  9
$ENDCAPS
280
               0
  9
$JOINSTYLE
280
               0
  9
$LWDISPLAY
290
               1
  9
$INSUNITS
 70
               4
  9
$HYPERLINKBASE
  1

  9
$STYLESHEET
  1

  9
$XEDIT
290
               1
  9
$CEPSNTYPE
380
               0
  9
$PSTYLEMODE
290
               1
  9
$FINGERPRINTGUID
  2

  9
$VERSIONGUID
  2

  9
$EXTNAMES
290
               1
  9
$PSVPSCALE
 40
0.0
  0
ENDSEC
  0
SECTION
  2
CLASSES
  0
CLASS
  1
LWPOLYLINE
  2
AcDbPolyline
  3
AutoCAD 2000
 90
        0
280
               0
281
               1
  0
CLASS
  1
IMAGE
  2
AcDbRasterImage
  3
ISM
 90
      127
280
               0
281
               1
  0
CLASS
  1
OLE2FRAME
  2
AcDbOle2Frame
  3
AutoCAD 2000
 90
        0
280
               0
281
               1
  0
CLASS
  1
HATCH
  2
AcDbHatch
  3
AutoCAD 2000
 90
        0
280
               0
281
               1
  0
CLASS
  1
DICTIONARYVAR
  2
AcDbDictionaryVar
  3
AutoCAD 2000
 90
        0
280
               0
281
               0
  0
CLASS
  1
RASTERVARIABLES
  2
AcDbRasterVariables
  3
ISM
 90
        0
280
               0
281
               0
  0
CLASS
  1
IMAGEDEF
  2
AcDbRasterImageDef
  3
ISM
 90
        0
280
               0
281
               0
  0
CLASS
  1
IMAGEDEF_REACTOR
  2
AcDbRasterImageDefReactor
  3
ISM
 90
        1
280
               0
281
               0
  0
CLASS
  1
IDBUFFER
  2
AcDbIdBuffer
  3
AutoCAD 2000
 90
        0
280
               0
281
               0
  0
CLASS
  1
SPATIAL_FILTER
  2
AcDbSpatialFilter
  3
AutoCAD 2000
 90
        0
280
               0
281
               0
  0
CLASS
  1
XRECORD
  2
AcDbXrecord
  3
AutoCAD 2000
 90
        0
280
               0
281
               0
  0
CLASS
  1
SORTENTSTABLE
  2
AcDbSortentsTable
  3
AutoCAD 2000
 90
        0
280
               0
281
               0
  0
CLASS
  1
LAYER_INDEX
  2
AcDbLayerIndex
  3
AutoCAD 2000
 90
        0
280
               0
281
               0
  0
CLASS
  1
SPATIAL_INDEX
  2
AcDbSpatialIndex
  3
AutoCAD 2000
 90
        0
280
               0
281
               0
  0
CLASS
  1
OBJECT_PTR
  2
CAseDLPNTableRecord
  3
"ASE-LPNTableRecord"
 90
        1
280
               0
281
               0
  0
CLASS
  1
LAYOUT
  2
AcDbLayout
  3
AutoCAD 2000
 90
        0
280
               0
281
               0
  0
CLASS
  1
PLOTSETTINGS
  2
AcDbPlotSettings
  3
AutoCAD 2000
 90
        0
280
               0
281
               0
  0
CLASS
  1
ACDBDICTIONARYWDFLT
  2
AcDbDictionaryWithDefault
  3
AutoCAD 2000
 90
        0
280
               0
281
               0
  0
CLASS
  1
ACDBPLACEHOLDER
  2
AcDbPlaceHolder
  3
AutoCAD 2000
 90
        0
280
               0
281
               0
  0
ENDSEC
  0
SECTION
  2
TABLES
  0
TABLE
  2
VPORT
  5
7
100
AcDbSymbolTable
 70
               1
  0
VPORT
  5
15
100
AcDbSymbolTableRecord
100
AcDbViewportTableRecord
  2
*ACTIVE
 70
               0
 10
0.0
 20
0.0
 11
1.0
 21
1.0
 12
0.703534757699174
 22
2.5200966334229626
 13
0.0
 23
0.0
 14
1.0
 24
1.0
 15
0.0
 25
0.0
 16
0.0
 26
0.0
 36
1.0
 17
0.0
 27
0.0
 37
0.0
 40
38.959806733154075
 41
0.688564
 42
50.0
 43
0.0
 44
0.0
 50
0.0
 51
0.0
 71
               0
 72
            2000
 73
               1
 74
               1
 75
               0
 76
               0
 77
               0
 78
               0
281
               0
 65
               0
110
0.0
120
0.0
130
0.0
111
1.0
121
0.0
131
0.0
112
0.0
122
1.0
132
0.0
345
0
346
0
 79
               0
146
0.0
  0
ENDTAB
  0
TABLE
  2
LTYPE
  5
4
100
AcDbSymbolTable
 70
              14
  0
LTYPE
  5
11
100
AcDbSymbolTableRecord
100
AcDbLinetypeTableRecord
  2
ByBlock
 70
              64
  3

 72
              65
 73
               0
 40
0.0
  0
LTYPE
  5
12
100
AcDbSymbolTableRecord
100
AcDbLinetypeTableRecord
  2
ByLayer
 70
              64
  3

 72
              65
 73
               0
 40
0.0
  0
LTYPE
  5
13
100
AcDbSymbolTableRecord
100
AcDbLinetypeTableRecord
  2
Continuous
 70
              64
  3
Solid line
 72
              65
 73
               0
 40
0.0
  0
LTYPE
  5
38
100
AcDbSymbolTableRecord
100
AcDbLinetypeTableRecord
  2
STYLE_01
 70
               0
  3

 72
              65
 73
               2
 40
0.41664
 49
0.20828
 74
               0
 49
-0.20836
 74
               0
  0
LTYPE
  5
39
100
AcDbSymbolTableRecord
100
AcDbLinetypeTableRecord
  2
STYLE_02
 70
               0
  3

 72
              65
 73
               2
 40
0.6944250000000001
 49
0.48607
 74
               0
 49
-0.2083550000000001
 74
               0
  0
LTYPE
  5
3A
100
AcDbSymbolTableRecord
100
AcDbLinetypeTableRecord
  2
STYLE_03
 70
               0
  3

 72
              65
 73
               2
 40
1.25
 49
1.0416400000000001
 74
               0
 49
-0.2083599999999999
 74
               0
  0
LTYPE
  5
3B
100
AcDbSymbolTableRecord
100
AcDbLinetypeTableRecord
  2
STYLE_04
 70
               0
  3

 72
              65
 73
               2
 40
1.5277099999999999
 49
1.3194249999999998
 74
               0
 49
-0.208285
 74
               0
  0
LTYPE
  5
3C
100
AcDbSymbolTableRecord
100
AcDbLinetypeTableRecord
  2
STYLE_05
 70
               0
  3

 72
              65
 73
               2
 40
0.20828
 49
0.069425
 74
               0
 49
-0.138855
 74
               0
  0
LTYPE
  5
3D
100
AcDbSymbolTableRecord
100
AcDbLinetypeTableRecord
  2
STYLE_06
 70
               0
  3

 72
              65
 73
               4
 40
1.0416400000000001
 49
0.625
 74
               0
 49
-0.20828
 74
               0
 49
0.06943
 74
               0
 49
-0.13893
 74
               0
  0
LTYPE
  5
3E
100
AcDbSymbolTableRecord
100
AcDbLinetypeTableRecord
  2
STYLE_07
 70
               0
  3

 72
              65
 73
               6
 40
1.875
 49
0.625
 74
               0
 49
-0.20828
 74
               0
 49
0.6250000000000001
 74
               0
 49
-0.2083599999999999
 74
               0
 49
0.06943
 74
               0
 49
-0.1389299999999999
 74
               0
  0
LTYPE
  5
3F
100
AcDbSymbolTableRecord
100
AcDbLinetypeTableRecord
  2
STYLE_08
 70
               0
  3

 72
              65
 73
               6
 40
1.25
 49
0.625
 74
               0
 49
-0.20828
 74
               0
 49
0.06943
 74
               0
 49
-0.13893
 74
               0
 49
0.0694299999999999
 74
               0
 49
-0.13893
 74
               0
  0
LTYPE
  5
40
100
AcDbSymbolTableRecord
100
AcDbLinetypeTableRecord
  2
STYLE_09
 70
               0
  3

 72
              65
 73
               4
 40
5.0
 49
3.75
 74
               0
 49
-0.2777849999999998
 74
               0
 49
0.6944300000000003
 74
               0
 49
-0.2777849999999998
 74
               0
  0
LTYPE
  5
41
100
AcDbSymbolTableRecord
100
AcDbLinetypeTableRecord
  2
STYLE_10
 70
               0
  3

 72
              65
 73
               6
 40
5.9375
 49
3.75
 74
               0
 49
-0.2777849999999998
 74
               0
 49
0.6944300000000003
 74
               0
 49
-0.2777849999999998
 74
               0
 49
0.625
 74
               0
 49
-0.3125
 74
               0
  0
LTYPE
  5
42
100
AcDbSymbolTableRecord
100
AcDbLinetypeTableRecord
  2
STYLE_11
 70
               0
  3

 72
              65
 73
               2
 40
0.4166412353515625
 49
0.2777862548828125
 74
               0
 49
-0.13885498046875
 74
               0
  0
ENDTAB
  0
TABLE
  2
LAYER
  5
2
100
AcDbSymbolTable
 70
               4
  0
LAYER
  5
14
100
AcDbSymbolTableRecord
100
AcDbLayerTableRecord
  2
0
 70
               0
 62
               7
  6
Continuous
290
               1
370
              -3
390
1D
  0
LAYER
  5
43
100
AcDbSymbolTableRecord
100
AcDbLayerTableRecord
  2
Defpoints
 70
               0
 62
               7
  6
Continuous
290
               0
370
              -3
390
1D
  0
LAYER
  5
44
100
AcDbSymbolTableRecord
100
AcDbLayerTableRecord
  2
None
 70
               0
 62
               7
  6
Continuous
290
               1
370
               5
390
1D
  0
LAYER
  5
45
100
AcDbSymbolTableRecord
100
AcDbLayerTableRecord
  2
Dimension
 70
               0
 62
               7
  6
Continuous
290
               1
370
               5
390
1D
  0
ENDTAB
  0
TABLE
  2
STYLE
  5
3
100
AcDbSymbolTable
 70
               4
  0
STYLE
  5
17
100
AcDbSymbolTableRecord
100
AcDbTextStyleTableRecord
  2
Standard
 70
               0
 40
0.0
 41
1.0
 50
0.0
 71
               0
 42
0.0
  3
txt
  4

  0
STYLE
  5
35
100
AcDbSymbolTableRecord
100
AcDbTextStyleTableRecord
  2
Arial
 70
               0
 40
0.0
 41
1.0
 50
0.0
 71
               0
 42
0.0
  3
Arial
  4

1001
ACAD
1000
Arial
1071
        0
  0
STYLE
  5
36
100
AcDbSymbolTableRecord
100
AcDbTextStyleTableRecord
  2
Helvetica
 70
               0
 40
0.0
 41
1.0
 50
0.0
 71
               0
 42
0.0
  3
Helvetica
  4

1001
ACAD
1000
Helvetica
1071
        0
  0
STYLE
  5
37
100
AcDbSymbolTableRecord
100
AcDbTextStyleTableRecord
  2
New Century Schlbk
 70
               0
 40
0.0
 41
1.0
 50
0.0
 71
               0
 42
0.0
  3
New Century Schlbk
  4

1001
ACAD
1000
New Century Schlbk
1071
        0
  0
ENDTAB
  0
TABLE
  2
VIEW
  5
5
100
AcDbSymbolTable
 70
               0
  0
ENDTAB
  0
TABLE
  2
UCS
  5
6
100
AcDbSymbolTable
 70
               0
  0
ENDTAB
  0
TABLE
  2
APPID
  5
8
100
AcDbSymbolTable
 70
               1
  0
APPID
  5
16
100
AcDbSymbolTableRecord
100
AcDbRegAppTableRecord
  2
ACAD
 70
               0
  0
ENDTAB
  0
TABLE
  2
DIMSTYLE
  5
9
100
AcDbSymbolTable
 70
               3
100
AcDbDimStyleTable
 71
               0
  0
DIMSTYLE
105
18
100
AcDbSymbolTableRecord
100
AcDbDimStyleTableRecord
  2
Standard
 70
               0
  3

  4

 40
1.0
 41
0.18
 42
0.0625
 43
0.38
 44
0.18
 45
0.0
 46
0.0
 47
0.0
 48
0.0
 71
               0
 72
               0
 73
               1
 74
               1
 75
               0
 76
               0
 77
               0
 78
               0
 79
               0
140
0.18
141
0.09
142
0.0
143
25.399999999999999
144
1.0
145
0.0
146
1.0
147
0.09
148
0.0
170
               0
171
               2
172
               0
173
               0
174
               0
175
               0
176
               0
177
               0
178
               0
179
               0
271
               4
272
               4
273
               2
274
               2
275
               0
276
               0
277
               2
278
              46
279
               0
280
               0
281
               0
282
               0
283
               1
284
               0
285
               0
286
               0
288
               0
289
               3
340
17
341
0
342
0
343
0
344
0
371
              -2
372
              -2
  0
DIMSTYLE
105
4E
100
AcDbSymbolTableRecord
100
AcDbDimStyleTableRecord
  2
IE Standard
 70
               0
  3
<>mm
  4
[]
 40
1.0
 41
1.0583322750000002
 42
0.634999366577038
 43
6.9999859934672708
 44
1.2699987331540761
 45
0.0
 46
0.0
 47
0.0
 48
0.0
 71
               0
 72
               0
 73
               1
 74
               1
 75
               0
 76
               0
 77
               0
 78
              11
 79
               0
140
0.7579186197916666
141
0.0
142
0.0
143
1.0
144
1.0
145
0.0
146
1.0
147
0.0
148
0.0
170
               0
171
               1
172
               1
173
               0
174
               1
175
               0
176
               0
177
               0
178
               0
179
               2
271
               1
272
               1
273
               2
274
               2
275
               0
276
               2
277
               2
278
              46
279
               0
280
               0
281
               0
282
               0
283
               1
284
              11
285
              11
286
              11
288
               0
289
               0
340
36
341
4A
342
46
343
0
344
0
371
              -2
372
              -2
  0
DIMSTYLE
105
54
100
AcDbSymbolTableRecord
100
AcDbDimStyleTableRecord
  2
Arch
 70
               0
  3
<>mm
  4
[]
 40
1.0
 41
0.7482739913085938
 42
0.5291661375000001
 43
10.16
 44
1.0583322750000002
 45
0.0
 46
1.5874999999999999
 47
0.0
 48
0.0
 71
               0
 72
               0
 73
               0
 74
               0
 75
               0
 76
               0
 77
               1
 78
              11
 79
               0
140
0.7579186197916666
141
0.0
142
0.0
143
1.0
144
1.0
145
0.0
146
1.0
147
1.5874999999999999
148
0.0
170
               0
171
               1
172
               1
173
               0
174
               1
175
               0
176
               0
177
               0
178
               0
179
               2
271
               1
272
               1
273
               2
274
               2
275
               0
276
               2
277
               2
278
              46
279
               0
280
               0
281
               0
282
               0
283
               1
284
              11
285
              11
286
              11
288
               0
289
               0
340
36
341
46
342
4F
343
0
344
0
371
              -2
372
              -2
  0
ENDTAB
  0
TABLE
  2
BLOCK_RECORD
  5
1
100
AcDbSymbolTable
 70
              21
  0
BLOCK_RECORD
  5
A
100
AcDbSymbolTableRecord
100
AcDbBlockTableRecord
  2
*MODEL_SPACE
340
20
  0
BLOCK_RECORD
  5
B
100
AcDbSymbolTableRecord
100
AcDbBlockTableRecord
  2
*PAPER_SPACE
340
21
  0
BLOCK_RECORD
  5
46
100
AcDbSymbolTableRecord
100
AcDbBlockTableRecord
  2
VW_FILLEDARROW
340
0
  0
BLOCK_RECORD
  5
4A
100
AcDbSymbolTableRecord
100
AcDbBlockTableRecord
  2
VW_FILLEDARROW-1
340
0
  0
BLOCK_RECORD
  5
4F
100
AcDbSymbolTableRecord
100
AcDbBlockTableRecord
  2
VW_SLASH
340
0
  0
BLOCK_RECORD
  5
23
100
AcDbSymbolTableRecord
100
AcDbBlockTableRecord
  2
*D3
340
0
  0
BLOCK_RECORD
  5
24
100
AcDbSymbolTableRecord
100
AcDbBlockTableRecord
  2
*D4
340
0
  0
BLOCK_RECORD
  5
25
100
AcDbSymbolTableRecord
100
AcDbBlockTableRecord
  2
*D5
340
0
  0
BLOCK_RECORD
  5
26
100
AcDbSymbolTableRecord
100
AcDbBlockTableRecord
  2
*D6
340
0
  0
BLOCK_RECORD
  5
27
100
AcDbSymbolTableRecord
100
AcDbBlockTableRecord
  2
*D7
340
0
  0
BLOCK_RECORD
  5
28
100
AcDbSymbolTableRecord
100
AcDbBlockTableRecord
  2
*D8
340
0
  0
BLOCK_RECORD
  5
29
100
AcDbSymbolTableRecord
100
AcDbBlockTableRecord
  2
*D9
340
0
  0
BLOCK_RECORD
  5
2A
100
AcDbSymbolTableRecord
100
AcDbBlockTableRecord
  2
*D10
340
0
  0
BLOCK_RECORD
  5
2B
100
AcDbSymbolTableRecord
100
AcDbBlockTableRecord
  2
*D11
340
0
  0
BLOCK_RECORD
  5
2C
100
AcDbSymbolTableRecord
100
AcDbBlockTableRecord
  2
*D12
340
0
  0
BLOCK_RECORD
  5
2D
100
AcDbSymbolTableRecord
100
AcDbBlockTableRecord
  2
*D13
340
0
  0
BLOCK_RECORD
  5
2E
100
AcDbSymbolTableRecord
100
AcDbBlockTableRecord
  2
*D14
340
0
  0
BLOCK_RECORD
  5
2F
100
AcDbSymbolTableRecord
100
AcDbBlockTableRecord
  2
*D15
340
0
  0
BLOCK_RECORD
  5
30
100
AcDbSymbolTableRecord
100
AcDbBlockTableRecord
  2
*D16
340
0
  0
BLOCK_RECORD
  5
31
100
AcDbSymbolTableRecord
100
AcDbBlockTableRecord
  2
*D17
340
0
  0
BLOCK_RECORD
  5
32
100
AcDbSymbolTableRecord
100
AcDbBlockTableRecord
  2
*D18
340
0
  0
BLOCK_RECORD
  5
33
100
AcDbSymbolTableRecord
100
AcDbBlockTableRecord
  2
Group
340
0
102
{BLKREFS
331
2A7
102
}
  0
BLOCK_RECORD
  5
34
100
AcDbSymbolTableRecord
100
AcDbBlockTableRecord
  2
Group-1
340
0
102
{BLKREFS
331
2A9
102
}
  0
ENDTAB
  0
ENDSEC
  0
SECTION
  2
BLOCKS
  0
BLOCK
  5
D
100
AcDbEntity
  8
0
390
0
100
AcDbBlockBegin
  2
*MODEL_SPACE
 70
               0
 10
0.0
 20
0.0
 30
0.0
  3
*MODEL_SPACE
  1

  0
ENDBLK
  5
E
100
AcDbEntity
  8
0
390
0
100
AcDbBlockEnd
  0
BLOCK
  5
F
100
AcDbEntity
 67
               1
  8
0
390
0
100
AcDbBlockBegin
  2
*PAPER_SPACE
 70
               0
 10
0.0
 20
0.0
 30
0.0
  3
*PAPER_SPACE
  1

  0
ENDBLK
  5
10
100
AcDbEntity
 67
               1
  8
0
390
0
100
AcDbBlockEnd
  0
BLOCK
  5
47
100
AcDbEntity
  8
0
370
              -2
390
0
  6
ByBlock
 62
               0
100
AcDbBlockBegin
  2
VW_FILLEDARROW
 70
               0
 10
0.0
 20
0.0
 30
0.0
  3
VW_FILLEDARROW
  1

  0
SOLID
  5
48
100
AcDbEntity
  8
0
370
              -2
390
0
 62
               0
100
AcDbTrace
 10
0.0
 20
0.0
 30
0.0
 11
-0.9999379649047853
 21
-0.2679325701774575
 31
0.0
 12
-0.9999379649047852
 22
0.2679325701774578
 32
0.0
 13
-0.9999379649047852
 23
0.2679325701774578
 33
0.0
  0
ENDBLK
  5
49
100
AcDbEntity
  8
0
390
0
100
AcDbBlockEnd
  0
BLOCK
  5
4B
100
AcDbEntity
  8
0
370
              -2
390
0
  6
ByBlock
 62
               0
100
AcDbBlockBegin
  2
VW_FILLEDARROW-1
 70
               0
 10
0.0
 20
0.0
 30
0.0
  3
VW_FILLEDARROW
  1

  0
SOLID
  5
4C
100
AcDbEntity
  8
0
370
              -2
390
0
 62
               0
100
AcDbTrace
 10
0.0
 20
0.0
 30
0.0
 11
-0.6661085461303712
 21
-0.1784832470071022
 31
0.0
 12
-0.6661085461303712
 22
0.1784832470071024
 32
0.0
 13
-0.6661085461303712
 23
0.1784832470071024
 33
0.0
  0
ENDBLK
  5
4D
100
AcDbEntity
  8
0
390
0
100
AcDbBlockEnd
  0
BLOCK
  5
50
100
AcDbEntity
  8
0
370
              -2
390
0
  6
ByBlock
 62
               0
100
AcDbBlockBegin
  2
VW_SLASH
 70
               0
 10
0.0
 20
0.0
 30
0.0
  3
VW_SLASH
  1

  0
LINE
  5
51
100
AcDbEntity
  8
0
370
              -2
390
0
  6
ByBlock
 62
               0
100
AcDbLine
 10
0.0
 20
0.0
 30
0.0
 11
-1.0
 21
0.0
 31
0.0
  0
LINE
  5
52
100
AcDbEntity
  8
0
370
              20
390
0
  6
ByBlock
 62
               0
100
AcDbLine
 10
-0.4998770381116631
 20
-0.4998770381116629
 30
0.0
 11
0.4998770381116631
 21
0.4998770381116629
 31
0.0
  0
ENDBLK
  5
53
100
AcDbEntity
  8
0
390
0
100
AcDbBlockEnd
  0
BLOCK
  5
55
100
AcDbEntity
  8
Dimension
390
0
100
AcDbBlockBegin
  2
*D3
 70
               1
 10
0.0
 20
0.0
 30
0.0
  3
*D3
  1

  0
LINE
  5
56
100
AcDbEntity
  8
Dimension
370
              -2
390
0
  6
Continuous
 62
               0
100
AcDbLine
 10
-5.0685577908277253
 20
12.185001266845921
 30
0.0
 11
-27.211057157404753
 21
12.185001266845921
 31
0.0
  0
LINE
  5
57
100
AcDbEntity
  8
Dimension
370
              -2
390
0
  6
Continuous
 62
               0
100
AcDbLine
 10
-5.0685577908277253
 20
-3.0399987331540785
 30
0.0
 11
-27.211057157404753
 21
-3.0399987331540785
 31
0.0
  0
LINE
  5
58
100
AcDbEntity
  8
Dimension
370
              -2
390
0
  6
Continuous
 62
               0
100
AcDbLine
 10
-25.941058424250684
 20
12.185001266845921
 30
0.0
 11
-25.941058424250684
 21
-3.0399987331540785
 31
0.0
  0
SOLID
  5
59
100
AcDbEntity
  8
Dimension
370
              -2
390
0
 62
               0
100
AcDbTrace
 10
-25.941058424250684
 20
12.185001266845921
 30
0.0
 11
-25.657479145840643
 21
11.126668991845921
 31
0.0
 12
-26.224637702660726
 22
11.126668991845921
 32
0.0
 13
-26.224637702660726
 23
11.126668991845921
 33
0.0
  0
SOLID
  5
5A
100
AcDbEntity
  8
Dimension
370
              -2
390
0
 62
               0
100
AcDbTrace
 10
-25.941058424250684
 20
-3.0399987331540785
 30
0.0
 11
-26.224637702660726
 21
-1.9816664581540784
 31
0.0
 12
-25.657479145840643
 22
-1.9816664581540784
 32
0.0
 13
-25.657479145840643
 23
-1.9816664581540784
 33
0.0
  0
MTEXT
  5
5B
100
AcDbEntity
  8
Dimension
390
0
 62
               0
100
AcDbMText
 10
-32.0
 20
5.094025819152237
 30
0.0
 40
0.7579186197916666
 41
0.0
 71
               1
 72
               1
  1
15.225mm
  7
Helvetica
 73
               1
 44
0.9673603504928808
  0
MTEXT
  5
5C
100
AcDbEntity
  8
Dimension
390
0
 62
               0
100
AcDbMText
 10
-26.962349118969428
 20
5.0940246816522361
 30
0.0
 40
0.7579186197916666
 41
0.0
 71
               1
 72
               1
  1
±0.125mm
  7
Helvetica
 73
               1
 44
0.9673603504928808
  0
MTEXT
  5
5D
100
AcDbEntity
  8
Dimension
390
0
 62
               0
100
AcDbMText
 10
-21.935281578632072
 20
5.094025400884008
 30
0.0
 40
0.7579202490234376
 41
0.0
 71
               1
 72
               1
  1
 sqr.
  7
Helvetica
 73
               1
 44
0.9673603504928806
  0
POINT
  5
5E
100
AcDbEntity
  8
Defpoints
370
               0
390
0
 62
               0
100
AcDbPoint
 10
-4.4335584242506911
 20
-3.0399987331540785
 30
0.0
  0
POINT
  5
5F
100
AcDbEntity
  8
Defpoints
370
               0
390
0
 62
               0
100
AcDbPoint
 10
-4.4335584242506911
 20
12.185001266845921
 30
0.0
  0
POINT
  5
60
100
AcDbEntity
  8
Defpoints
370
               0
390
0
 62
               0
100
AcDbPoint
 10
-25.941058424250684
 20
12.185001266845921
 30
0.0
  0
ENDBLK
  5
61
100
AcDbEntity
  8
Dimension
390
0
100
AcDbBlockEnd
  0
BLOCK
  5
62
100
AcDbEntity
  8
Dimension
390
0
100
AcDbBlockBegin
  2
*D4
 70
               1
 10
0.0
 20
0.0
 30
0.0
  3
*D4
  1

  0
LINE
  5
63
100
AcDbEntity
  8
Dimension
370
              -2
390
0
  6
Continuous
 62
               0
100
AcDbLine
 10
-3.1835584242506911
 20
11.570000633422961
 30
0.0
 11
-3.1835584242506911
 21
18.767309999999998
 31
0.0
  0
LINE
  5
64
100
AcDbEntity
  8
Dimension
370
              -2
390
0
  6
Continuous
 62
               0
100
AcDbLine
 10
0.3789415757493089
 20
9.3075006334229613
 30
0.0
 11
0.3789415757493089
 21
18.767309999999998
 31
0.0
  0
LINE
  5
65
100
AcDbEntity
  8
Dimension
370
              -2
390
0
  6
Continuous
 62
               0
100
AcDbLine
 10
0.3789415757493089
 20
17.497311266845923
 30
0.0
 11
-3.1835584242506911
 21
17.497311266845923
 31
0.0
  0
LINE
  5
66
100
AcDbEntity
  8
Dimension
370
              -2
390
0
  6
Continuous
 62
               0
100
AcDbLine
 10
-3.1835584242506911
 20
17.497311266845923
 30
0.0
 11
-5.5168847554111267
 21
17.497311266845923
 31
0.0
  0
SOLID
  5
67
100
AcDbEntity
  8
Dimension
370
              -2
390
0
 62
               0
100
AcDbTrace
 10
-3.1835584242506911
 20
17.497311266845923
 30
0.0
 11
-4.2418906992506908
 21
17.213731988435882
 31
0.0
 12
-4.2418906992506908
 22
17.780890545255968
 32
0.0
 13
-4.2418906992506908
 23
17.780890545255968
 33
0.0
  0
LINE
  5
68
100
AcDbEntity
  8
Dimension
370
              -2
390
0
  6
Continuous
 62
               0
100
AcDbLine
 10
0.3789415757493089
 20
17.497311266845923
 30
0.0
 11
2.1694815757493018
 21
17.497311266845923
 31
0.0
  0
SOLID
  5
69
100
AcDbEntity
  8
Dimension
370
              -2
390
0
 62
               0
100
AcDbTrace
 10
0.3789415757493089
 20
17.497311266845923
 30
0.0
 11
1.437273850749309
 21
17.780890545255964
 31
0.0
 12
1.437273850749309
 22
17.213731988435882
 32
0.0
 13
1.437273850749309
 23
17.213731988435882
 33
0.0
  0
MTEXT
  5
6A
100
AcDbEntity
  8
Dimension
390
0
 62
               0
100
AcDbMText
 10
2.1694815757493302
 20
17.911272636637591
 30
0.0
 40
0.7579186197916666
 41
0.0
 71
               1
 72
               1
  1
3.5625mm*
  7
Helvetica
 73
               1
 44
0.9673603504928808
  0
POINT
  5
6B
100
AcDbEntity
  8
Defpoints
370
               0
390
0
 62
               0
100
AcDbPoint
 10
0.3789415757493089
 20
8.6725012668459236
 30
0.0
  0
POINT
  5
6C
100
AcDbEntity
  8
Defpoints
370
               0
390
0
 62
               0
100
AcDbPoint
 10
-3.1835584242506911
 20
10.935001266845923
 30
0.0
  0
POINT
  5
6D
100
AcDbEntity
  8
Defpoints
370
               0
390
0
 62
               0
100
AcDbPoint
 10
-3.1835584242506911
 20
17.497311266845923
 30
0.0
  0
ENDBLK
  5
6E
100
AcDbEntity
  8
Dimension
390
0
100
AcDbBlockEnd
  0
BLOCK
  5
6F
100
AcDbEntity
  8
Dimension
390
0
100
AcDbBlockBegin
  2
*D5
 70
               1
 10
0.0
 20
0.0
 30
0.0
  3
*D5
  1

  0
LINE
  5
70
100
AcDbEntity
  8
Dimension
370
              -2
390
0
  6
Continuous
 62
               0
100
AcDbLine
 10
-0.2560577908277292
 20
8.6725012668459236
 30
0.0
 11
-11.269998733154075
 21
8.6725012668459236
 31
0.0
  0
LINE
  5
71
100
AcDbEntity
  8
Dimension
370
              -2
390
0
  6
Continuous
 62
               0
100
AcDbLine
 10
-3.8185577908277293
 20
10.935001266845923
 30
0.0
 11
-11.269998733154075
 21
10.935001266845923
 31
0.0
  0
LINE
  5
72
100
AcDbEntity
  8
Dimension
370
              -2
390
0
  6
Continuous
 62
               0
100
AcDbLine
 10
-10.0
 20
10.935001266845923
 30
0.0
 11
-10.0
 21
8.6725012668459236
 31
0.0
  0
LINE
  5
73
100
AcDbEntity
  8
Dimension
370
              -2
390
0
  6
Continuous
 62
               0
100
AcDbLine
 10
-10.0
 20
8.6725012668459236
 30
0.0
 11
-10.0
 21
6.3391749356854969
 31
0.0
  0
SOLID
  5
74
100
AcDbEntity
  8
Dimension
370
              -2
390
0
 62
               0
100
AcDbTrace
 10
-10.0
 20
8.6725012668459236
 30
0.0
 11
-9.716420721589957
 21
7.6141689918459239
 31
0.0
 12
-10.283579278410043
 22
7.6141689918459239
 32
0.0
 13
-10.283579278410043
 23
7.6141689918459239
 33
0.0
  0
LINE
  5
75
100
AcDbEntity
  8
Dimension
370
              -2
390
0
  6
Continuous
 62
               0
100
AcDbLine
 10
-10.0
 20
10.935001266845923
 30
0.0
 11
-10.0
 21
13.26832759800635
 31
0.0
  0
SOLID
  5
76
100
AcDbEntity
  8
Dimension
370
              -2
390
0
 62
               0
100
AcDbTrace
 10
-10.0
 20
10.935001266845923
 30
0.0
 11
-10.283579278410043
 21
11.993333541845923
 31
0.0
 12
-9.716420721589957
 22
11.993333541845923
 32
0.0
 13
-9.716420721589957
 23
11.993333541845923
 33
0.0
  0
MTEXT
  5
77
100
AcDbEntity
  8
Dimension
390
0
 62
               0
100
AcDbMText
 10
-12.518825440515281
 20
10.217712636637589
 30
0.0
 40
0.7579186197916666
 41
0.0
 71
               1
 72
               1
  1
2.2625mm
  7
Helvetica
 73
               1
 44
0.9673603504928808
  0
POINT
  5
78
100
AcDbEntity
  8
Defpoints
370
               0
390
0
 62
               0
100
AcDbPoint
 10
-3.1835584242506911
 20
10.935001266845923
 30
0.0
  0
POINT
  5
79
100
AcDbEntity
  8
Defpoints
370
               0
390
0
 62
               0
100
AcDbPoint
 10
0.3789415757493089
 20
8.6725012668459236
 30
0.0
  0
POINT
  5
7A
100
AcDbEntity
  8
Defpoints
370
               0
390
0
 62
               0
100
AcDbPoint
 10
-10.0
 20
8.6725012668459236
 30
0.0
  0
ENDBLK
  5
7B
100
AcDbEntity
  8
Dimension
390
0
100
AcDbBlockEnd
  0
BLOCK
  5
7C
100
AcDbEntity
  8
Dimension
390
0
100
AcDbBlockBegin
  2
*D6
 70
               1
 10
0.0
 20
0.0
 30
0.0
  3
*D6
  1

  0
LINE
  5
7D
100
AcDbEntity
  8
Dimension
370
              -2
390
0
  6
Continuous
 62
               0
100
AcDbLine
 10
-3.8185577908277253
 20
-1.7899987331540732
 30
0.0
 11
-8.8797171574047695
 21
-1.7899987331540732
 31
0.0
  0
LINE
  5
7E
100
AcDbEntity
  8
Dimension
370
              -2
390
0
  6
Continuous
 62
               0
100
AcDbLine
 10
-3.8185577908277253
 20
3.2900012668459215
 30
0.0
 11
-8.8797171574047695
 21
3.2900012668459215
 31
0.0
  0
LINE
  5
7F
100
AcDbEntity
  8
Dimension
370
              -2
390
0
  6
Continuous
 62
               0
100
AcDbLine
 10
-7.6097184242507012
 20
3.2900012668459215
 30
0.0
 11
-7.6097184242507012
 21
-1.7899987331540732
 31
0.0
  0
LINE
  5
80
100
AcDbEntity
  8
Dimension
370
              -2
390
0
  6
Continuous
 62
               0
100
AcDbLine
 10
-7.6097184242507012
 20
-1.7899987331540732
 30
0.0
 11
-7.6097184242507012
 21
-4.1233250643144999
 31
0.0
  0
SOLID
  5
81
100
AcDbEntity
  8
Dimension
370
              -2
390
0
 62
               0
100
AcDbTrace
 10
-7.6097184242507012
 20
-1.7899987331540732
 30
0.0
 11
-7.3261391458406591
 21
-2.8483310081540734
 31
0.0
 12
-7.8932977026607443
 22
-2.8483310081540734
 32
0.0
 13
-7.8932977026607443
 23
-2.8483310081540734
 33
0.0
  0
LINE
  5
82
100
AcDbEntity
  8
Dimension
370
              -2
390
0
  6
Continuous
 62
               0
100
AcDbLine
 10
-7.6097184242507012
 20
3.2900012668459215
 30
0.0
 11
-7.6097184242507012
 21
5.6233275980063482
 31
0.0
  0
SOLID
  5
83
100
AcDbEntity
  8
Dimension
370
              -2
390
0
 62
               0
100
AcDbTrace
 10
-7.6097184242507012
 20
3.2900012668459215
 30
0.0
 11
-7.8932977026607443
 21
4.3483335418459212
 31
0.0
 12
-7.3261391458406582
 22
4.3483335418459212
 32
0.0
 13
-7.3261391458406582
 23
4.3483335418459212
 33
0.0
  0
MTEXT
  5
84
100
AcDbEntity
  8
Dimension
390
0
 62
               0
100
AcDbMText
 10
-9.5358790288459261
 20
-0.1387485450030319
 30
0.0
 40
0.7579186197916666
 41
0.0
 71
               1
 72
               1
  1
5.08mm
  7
Helvetica
 73
               1
 44
0.9673603504928808
  0
POINT
  5
85
100
AcDbEntity
  8
Defpoints
370
               0
390
0
 62
               0
100
AcDbPoint
 10
-3.1835584242506911
 20
3.2900012668459215
 30
0.0
  0
POINT
  5
86
100
AcDbEntity
  8
Defpoints
370
               0
390
0
 62
               0
100
AcDbPoint
 10
-3.1835584242506911
 20
-1.7899987331540732
 30
0.0
  0
POINT
  5
87
100
AcDbEntity
  8
Defpoints
370
               0
390
0
 62
               0
100
AcDbPoint
 10
-7.6097184242506906
 20
-1.7899987331540732
 30
0.0
  0
ENDBLK
  5
88
100
AcDbEntity
  8
Dimension
390
0
100
AcDbBlockEnd
  0
BLOCK
  5
89
100
AcDbEntity
  8
Dimension
390
0
100
AcDbBlockBegin
  2
*D7
 70
               1
 10
0.0
 20
0.0
 30
0.0
  3
*D7
  1

  0
LINE
  5
8A
100
AcDbEntity
  8
Dimension
370
              -2
390
0
  6
Continuous
 62
               0
100
AcDbLine
 10
10.176440942326366
 20
8.395001266845922
 30
0.0
 11
16.008330308903396
 21
8.395001266845922
 31
0.0
  0
LINE
  5
8B
100
AcDbEntity
  8
Dimension
370
              -2
390
0
  6
Continuous
 62
               0
100
AcDbLine
 10
10.176440942326366
 20
10.935001266845923
 30
0.0
 11
16.008330308903396
 21
10.935001266845923
 31
0.0
  0
LINE
  5
8C
100
AcDbEntity
  8
Dimension
370
              -2
390
0
  6
Continuous
 62
               0
100
AcDbLine
 10
14.738331575749328
 20
10.935001266845923
 30
0.0
 11
14.738331575749328
 21
8.395001266845922
 31
0.0
  0
LINE
  5
8D
100
AcDbEntity
  8
Dimension
370
              -2
390
0
  6
Continuous
 62
               0
100
AcDbLine
 10
14.738331575749328
 20
8.395001266845922
 30
0.0
 11
14.738331575749328
 21
6.0616749356854971
 31
0.0
  0
SOLID
  5
8E
100
AcDbEntity
  8
Dimension
370
              -2
390
0
 62
               0
100
AcDbTrace
 10
14.738331575749328
 20
8.395001266845922
 30
0.0
 11
15.021910854159371
 21
7.3366689918459222
 31
0.0
 12
14.454752297339285
 22
7.3366689918459222
 32
0.0
 13
14.454752297339285
 23
7.3366689918459222
 33
0.0
  0
LINE
  5
8F
100
AcDbEntity
  8
Dimension
370
              -2
390
0
  6
Continuous
 62
               0
100
AcDbLine
 10
14.738331575749328
 20
10.935001266845923
 30
0.0
 11
14.738331575749328
 21
13.26832759800635
 31
0.0
  0
SOLID
  5
90
100
AcDbEntity
  8
Dimension
370
              -2
390
0
 62
               0
100
AcDbTrace
 10
14.738331575749328
 20
10.935001266845923
 30
0.0
 11
14.454752297339285
 21
11.993333541845923
 31
0.0
 12
15.021910854159371
 22
11.993333541845923
 32
0.0
 13
15.021910854159371
 23
11.993333541845923
 33
0.0
  0
MTEXT
  5
91
100
AcDbEntity
  8
Dimension
390
0
 62
               0
100
AcDbMText
 10
12.812170971154103
 20
10.07896263663759
 30
0.0
 40
0.7579186197916666
 41
0.0
 71
               1
 72
               1
  1
2.54mm
  7
Helvetica
 73
               1
 44
0.9673603504928808
  0
POINT
  5
92
100
AcDbEntity
  8
Defpoints
370
               0
390
0
 62
               0
100
AcDbPoint
 10
9.5414415757493316
 20
10.935001266845923
 30
0.0
  0
POINT
  5
93
100
AcDbEntity
  8
Defpoints
370
               0
390
0
 62
               0
100
AcDbPoint
 10
9.5414415757493316
 20
8.395001266845922
 30
0.0
  0
POINT
  5
94
100
AcDbEntity
  8
Defpoints
370
               0
390
0
 62
               0
100
AcDbPoint
 10
14.738331575749331
 20
8.395001266845922
 30
0.0
  0
ENDBLK
  5
95
100
AcDbEntity
  8
Dimension
390
0
100
AcDbBlockEnd
  0
BLOCK
  5
96
100
AcDbEntity
  8
Dimension
390
0
100
AcDbBlockBegin
  2
*D8
 70
               1
 10
0.0
 20
0.0
 30
0.0
  3
*D8
  1

  0
LINE
  5
97
100
AcDbEntity
  8
Dimension
370
              -2
390
0
  6
Continuous
 62
               0
100
AcDbLine
 10
-3.1835584242506911
 20
-2.4249980997311109
 30
0.0
 11
-3.1835584242506911
 21
-13.789997466308147
 31
0.0
  0
LINE
  5
98
100
AcDbEntity
  8
Dimension
370
              -2
390
0
  6
Continuous
 62
               0
100
AcDbLine
 10
9.5414415757493316
 20
-2.4249980997311109
 30
0.0
 11
9.5414415757493316
 21
-13.789997466308147
 31
0.0
  0
LINE
  5
99
100
AcDbEntity
  8
Dimension
370
              -2
390
0
  6
Continuous
 62
               0
100
AcDbLine
 10
9.5414415757493316
 20
-12.519998733154072
 30
0.0
 11
-3.1835584242506911
 21
-12.519998733154072
 31
0.0
  0
LINE
  5
9A
100
AcDbEntity
  8
Dimension
370
              -2
390
0
  6
Continuous
 62
               0
100
AcDbLine
 10
-3.1835584242506911
 20
-12.519998733154072
 30
0.0
 11
-5.5168847554111267
 21
-12.519998733154072
 31
0.0
  0
SOLID
  5
9B
100
AcDbEntity
  8
Dimension
370
              -2
390
0
 62
               0
100
AcDbTrace
 10
-3.1835584242506911
 20
-12.519998733154072
 30
0.0
 11
-4.2418906992506908
 21
-12.803578011564115
 31
0.0
 12
-4.2418906992506908
 22
-12.236419454744029
 32
0.0
 13
-4.2418906992506908
 23
-12.236419454744029
 33
0.0
  0
LINE
  5
9C
100
AcDbEntity
  8
Dimension
370
              -2
390
0
  6
Continuous
 62
               0
100
AcDbLine
 10
9.5414415757493316
 20
-12.519998733154072
 30
0.0
 11
11.874767906909767
 21
-12.519998733154072
 31
0.0
  0
SOLID
  5
9D
100
AcDbEntity
  8
Dimension
370
              -2
390
0
 62
               0
100
AcDbTrace
 10
9.5414415757493316
 20
-12.519998733154072
 30
0.0
 11
10.599773850749331
 21
-12.236419454744029
 31
0.0
 12
10.599773850749331
 22
-12.803578011564115
 32
0.0
 13
10.599773850749331
 23
-12.803578011564115
 33
0.0
  0
MTEXT
  5
9E
100
AcDbEntity
  8
Dimension
390
0
 62
               0
100
AcDbMText
 10
-2.9264575529425656
 20
-12.106036055237407
 30
0.0
 40
0.7579186197916666
 41
0.0
 71
               1
 72
               1
  1
12.725mm
  7
Helvetica
 73
               1
 44
0.9673603504928808
  0
MTEXT
  5
9F
100
AcDbEntity
  8
Dimension
390
0
 62
               0
100
AcDbMText
 10
2.1111933280880066
 20
-12.106037192737407
 30
0.0
 40
0.7579186197916666
 41
0.0
 71
               1
 72
               1
  1
±0.125mm
  7
Helvetica
 73
               1
 44
0.9673603504928808
  0
MTEXT
  5
A0
100
AcDbEntity
  8
Dimension
390
0
 62
               0
100
AcDbMText
 10
7.1382608684253626
 20
-12.106036473505636
 30
0.0
 40
0.7579202490234376
 41
0.0
 71
               1
 72
               1
  1
 (x4)
  7
Helvetica
 73
               1
 44
0.9673603504928806
  0
POINT
  5
A1
100
AcDbEntity
  8
Defpoints
370
               0
390
0
 62
               0
100
AcDbPoint
 10
9.5414415757493316
 20
-1.7899987331540732
 30
0.0
  0
POINT
  5
A2
100
AcDbEntity
  8
Defpoints
370
               0
390
0
 62
               0
100
AcDbPoint
 10
-3.1835584242506911
 20
-1.7899987331540732
 30
0.0
  0
POINT
  5
A3
100
AcDbEntity
  8
Defpoints
370
               0
390
0
 62
               0
100
AcDbPoint
 10
-3.1835584242506911
 20
-12.519998733154072
 30
0.0
  0
ENDBLK
  5
A4
100
AcDbEntity
  8
Dimension
390
0
100
AcDbBlockEnd
  0
BLOCK
  5
A5
100
AcDbEntity
  8
Dimension
390
0
100
AcDbBlockBegin
  2
*D9
 70
               1
 10
0.0
 20
0.0
 30
0.0
  3
*D9
  1

  0
LINE
  5
A6
100
AcDbEntity
  8
Dimension
370
              -2
390
0
  6
Continuous
 62
               0
100
AcDbLine
 10
7.6089415757493271
 20
2.1825012668459225
 30
0.0
 11
13.231591407221032
 21
-0.0991537369019433
 31
0.0
  0
SOLID
  5
A7
100
AcDbEntity
  8
Dimension
370
              -2
390
0
 62
               0
100
AcDbTrace
 10
7.6089415757493271
 20
2.1825012668459225
 30
0.0
 11
8.3321004782835288
 21
2.0808679110613002
 31
0.0
 12
8.1843988784245099
 22
1.7329047475974775
 32
0.0
 13
8.1843988784245099
 23
1.7329047475974775
 33
0.0
  0
LINE
  5
A8
100
AcDbEntity
  8
Dimension
370
              -2
390
0
  6
Continuous
 62
               0
100
AcDbLine
 10
13.231591407221032
 20
-0.0991537369019433
 30
0.0
 11
15.231585409864351
 21
-0.0991537369019433
 31
0.0
  0
MTEXT
  5
A9
100
AcDbEntity
  8
Dimension
390
0
 62
               0
100
AcDbMText
 10
15.231585409864351
 20
0.3148076328897236
 30
0.0
 40
0.7579186197916666
 41
0.0
 71
               1
 72
               1
  1
0.8x 0.25mm 
  7
Helvetica
 73
               1
 44
0.9673603504928808
  0
POINT
  5
AA
100
AcDbEntity
  8
Defpoints
370
               0
390
0
 62
               0
100
AcDbPoint
 10
6.9189415757493293
 20
2.4625012668459219
 30
0.0
  0
POINT
  5
AB
100
AcDbEntity
  8
Defpoints
370
               0
390
0
 62
               0
100
AcDbPoint
 10
7.6089415757493271
 20
2.1825012668459225
 30
0.0
  0
ENDBLK
  5
AC
100
AcDbEntity
  8
Dimension
390
0
100
AcDbBlockEnd
  0
BLOCK
  5
AD
100
AcDbEntity
  8
Dimension
390
0
100
AcDbBlockBegin
  2
*D10
 70
               1
 10
0.0
 20
0.0
 30
0.0
  3
*D10
  1

  0
LINE
  5
AE
100
AcDbEntity
  8
Dimension
370
              -2
390
0
  6
Continuous
 62
               0
100
AcDbLine
 10
-0.6710584242506741
 20
0.8875019002688767
 30
0.0
 11
-0.6710584242506741
 21
-10.189997466308153
 31
0.0
  0
LINE
  5
AF
100
AcDbEntity
  8
Dimension
370
              -2
390
0
  6
Continuous
 62
               0
100
AcDbLine
 10
7.5289415757493146
 20
0.8875019002688767
 30
0.0
 11
7.5289415757493146
 21
-10.189997466308153
 31
0.0
  0
LINE
  5
B0
100
AcDbEntity
  8
Dimension
370
              -2
390
0
  6
Continuous
 62
               0
100
AcDbLine
 10
-0.6710584242506741
 20
-8.9199987331540775
 30
0.0
 11
7.5289415757493146
 21
-8.9199987331540775
 31
0.0
  0
SOLID
  5
B1
100
AcDbEntity
  8
Dimension
370
              -2
390
0
 62
               0
100
AcDbTrace
 10
-0.6710584242506741
 20
-8.9199987331540775
 30
0.0
 11
0.3872738507493261
 21
-8.6364194547440345
 31
0.0
 12
0.3872738507493261
 22
-9.2035780115641206
 32
0.0
 13
0.3872738507493261
 23
-9.2035780115641206
 33
0.0
  0
SOLID
  5
B2
100
AcDbEntity
  8
Dimension
370
              -2
390
0
 62
               0
100
AcDbTrace
 10
7.5289415757493146
 20
-8.9199987331540775
 30
0.0
 11
6.4706093007493148
 21
-9.2035780115641206
 31
0.0
 12
6.4706093007493148
 22
-8.6364194547440345
 32
0.0
 13
6.4706093007493148
 23
-8.6364194547440345
 33
0.0
  0
MTEXT
  5
B3
100
AcDbEntity
  8
Dimension
390
0
 62
               0
100
AcDbMText
 10
1.9611463580238819
 20
-8.5060373633624096
 30
0.0
 40
0.7579186197916666
 41
0.0
 71
               1
 72
               1
  1
8.2mm
  7
Helvetica
 73
               1
 44
0.9673603504928808
  0
POINT
  5
B4
100
AcDbEntity
  8
Defpoints
370
               0
390
0
 62
               0
100
AcDbPoint
 10
7.5289415757493146
 20
1.5225012668459144
 30
0.0
  0
POINT
  5
B5
100
AcDbEntity
  8
Defpoints
370
               0
390
0
 62
               0
100
AcDbPoint
 10
-0.6710584242506741
 20
1.5225012668459144
 30
0.0
  0
POINT
  5
B6
100
AcDbEntity
  8
Defpoints
370
               0
390
0
 62
               0
100
AcDbPoint
 10
-0.6710584242506741
 20
-8.9199987331540775
 30
0.0
  0
ENDBLK
  5
B7
100
AcDbEntity
  8
Dimension
390
0
100
AcDbBlockEnd
  0
BLOCK
  5
B8
100
AcDbEntity
  8
Dimension
390
0
100
AcDbBlockBegin
  2
*D11
 70
               1
 10
0.0
 20
0.0
 30
0.0
  3
*D11
  1

  0
LINE
  5
B9
100
AcDbEntity
  8
Dimension
370
              -2
390
0
  6
Continuous
 62
               0
100
AcDbLine
 10
-0.2560577908277253
 20
8.6725012668459236
 30
0.0
 11
-17.411057157404741
 21
8.6725012668459236
 31
0.0
  0
LINE
  5
BA
100
AcDbEntity
  8
Dimension
370
              -2
390
0
  6
Continuous
 62
               0
100
AcDbLine
 10
-0.2560577908277253
 20
0.4725012668459172
 30
0.0
 11
-17.411057157404741
 21
0.4725012668459172
 31
0.0
  0
LINE
  5
BB
100
AcDbEntity
  8
Dimension
370
              -2
390
0
  6
Continuous
 62
               0
100
AcDbLine
 10
-16.141058424250673
 20
8.6725012668459236
 30
0.0
 11
-16.141058424250673
 21
0.4725012668459172
 31
0.0
  0
SOLID
  5
BC
100
AcDbEntity
  8
Dimension
370
              -2
390
0
 62
               0
100
AcDbTrace
 10
-16.141058424250673
 20
8.6725012668459236
 30
0.0
 11
-15.85747914584063
 21
7.6141689918459239
 31
0.0
 12
-16.424637702660714
 22
7.6141689918459239
 32
0.0
 13
-16.424637702660714
 23
7.6141689918459239
 33
0.0
  0
SOLID
  5
BD
100
AcDbEntity
  8
Dimension
370
              -2
390
0
 62
               0
100
AcDbTrace
 10
-16.141058424250673
 20
0.4725012668459172
 30
0.0
 11
-16.424637702660714
 21
1.5308335418459174
 31
0.0
 12
-15.85747914584063
 22
1.5308335418459174
 32
0.0
 13
-15.85747914584063
 23
1.5308335418459174
 33
0.0
  0
MTEXT
  5
BE
100
AcDbEntity
  8
Dimension
390
0
 62
               0
100
AcDbMText
 10
-17.770886723030799
 20
4.5988344628094611
 30
0.0
 40
0.7579186197916666
 41
0.0
 71
               1
 72
               1
  1
8.2mm
  7
Helvetica
 73
               1
 44
0.9673603504928808
  0
POINT
  5
BF
100
AcDbEntity
  8
Defpoints
370
               0
390
0
 62
               0
100
AcDbPoint
 10
0.3789415757493089
 20
0.4725012668459172
 30
0.0
  0
POINT
  5
C0
100
AcDbEntity
  8
Defpoints
370
               0
390
0
 62
               0
100
AcDbPoint
 10
0.3789415757493089
 20
8.6725012668459236
 30
0.0
  0
POINT
  5
C1
100
AcDbEntity
  8
Defpoints
370
               0
390
0
 62
               0
100
AcDbPoint
 10
-16.141058424250673
 20
8.6725012668459236
 30
0.0
  0
ENDBLK
  5
C2
100
AcDbEntity
  8
Dimension
390
0
100
AcDbBlockEnd
  0
BLOCK
  5
C3
100
AcDbEntity
  8
Dimension
390
0
100
AcDbBlockBegin
  2
*D12
 70
               1
 10
0.0
 20
0.0
 30
0.0
  3
*D12
  1

  0
LINE
  5
C4
100
AcDbEntity
  8
Dimension
370
              -2
390
0
  6
Continuous
 62
               0
100
AcDbLine
 10
-1.3060577908277082
 20
7.6225012668459158
 30
0.0
 11
-11.961057157404753
 21
7.6225012668459158
 31
0.0
  0
LINE
  5
C5
100
AcDbEntity
  8
Dimension
370
              -2
390
0
  6
Continuous
 62
               0
100
AcDbLine
 10
-1.3060577908277082
 20
1.5225012668459144
 30
0.0
 11
-11.961057157404753
 21
1.5225012668459144
 31
0.0
  0
LINE
  5
C6
100
AcDbEntity
  8
Dimension
370
              -2
390
0
  6
Continuous
 62
               0
100
AcDbLine
 10
-10.691058424250684
 20
7.6225012668459158
 30
0.0
 11
-10.691058424250684
 21
1.5225012668459144
 31
0.0
  0
SOLID
  5
C7
100
AcDbEntity
  8
Dimension
370
              -2
390
0
 62
               0
100
AcDbTrace
 10
-10.691058424250684
 20
7.6225012668459158
 30
0.0
 11
-10.407479145840641
 21
6.5641689918459161
 31
0.0
 12
-10.974637702660727
 22
6.5641689918459161
 32
0.0
 13
-10.974637702660727
 23
6.5641689918459161
 33
0.0
  0
SOLID
  5
C8
100
AcDbEntity
  8
Dimension
370
              -2
390
0
 62
               0
100
AcDbTrace
 10
-10.691058424250684
 20
1.5225012668459144
 30
0.0
 11
-10.974637702660727
 21
2.5808335418459145
 31
0.0
 12
-10.407479145840641
 22
2.5808335418459145
 32
0.0
 13
-10.407479145840641
 23
2.5808335418459145
 33
0.0
  0
MTEXT
  5
C9
100
AcDbEntity
  8
Dimension
390
0
 62
               0
100
AcDbMText
 10
-12.32088672303081
 20
4.8670427757977377
 30
0.0
 40
0.7579186197916666
 41
0.0
 71
               1
 72
               1
  1
6.1mm
  7
Helvetica
 73
               1
 44
0.9673603504928808
  0
POINT
  5
CA
100
AcDbEntity
  8
Defpoints
370
               0
390
0
 62
               0
100
AcDbPoint
 10
-0.6710584242506741
 20
1.5225012668459144
 30
0.0
  0
POINT
  5
CB
100
AcDbEntity
  8
Defpoints
370
               0
390
0
 62
               0
100
AcDbPoint
 10
-0.6710584242506741
 20
7.6225012668459158
 30
0.0
  0
POINT
  5
CC
100
AcDbEntity
  8
Defpoints
370
               0
390
0
 62
               0
100
AcDbPoint
 10
-10.691058424250684
 20
7.6225012668459158
 30
0.0
  0
ENDBLK
  5
CD
100
AcDbEntity
  8
Dimension
390
0
100
AcDbBlockEnd
  0
BLOCK
  5
CE
100
AcDbEntity
  8
Dimension
390
0
100
AcDbBlockBegin
  2
*D13
 70
               1
 10
0.0
 20
0.0
 30
0.0
  3
*D13
  1

  0
LINE
  5
CF
100
AcDbEntity
  8
Dimension
370
              -2
390
0
  6
Continuous
 62
               0
100
AcDbLine
 10
0.3789415757493089
 20
-0.1624980997311205
 30
0.0
 11
0.3789415757493089
 21
-7.3978374663081503
 31
0.0
  0
LINE
  5
D0
100
AcDbEntity
  8
Dimension
370
              -2
390
0
  6
Continuous
 62
               0
100
AcDbLine
 10
6.4789415757493032
 20
-0.1624980997311205
 30
0.0
 11
6.4789415757493032
 21
-7.3978374663081503
 31
0.0
  0
LINE
  5
D1
100
AcDbEntity
  8
Dimension
370
              -2
390
0
  6
Continuous
 62
               0
100
AcDbLine
 10
6.4789415757493032
 20
-6.1278387331540749
 30
0.0
 11
0.3789415757493089
 21
-6.1278387331540749
 31
0.0
  0
LINE
  5
D2
100
AcDbEntity
  8
Dimension
370
              -2
390
0
  6
Continuous
 62
               0
100
AcDbLine
 10
0.3789415757493089
 20
-6.1278387331540749
 30
0.0
 11
-1.9543847554111267
 21
-6.1278387331540749
 31
0.0
  0
SOLID
  5
D3
100
AcDbEntity
  8
Dimension
370
              -2
390
0
 62
               0
100
AcDbTrace
 10
0.3789415757493089
 20
-6.1278387331540749
 30
0.0
 11
-0.6793906992506913
 21
-6.4114180115641179
 31
0.0
 12
-0.6793906992506911
 22
-5.8442594547440319
 32
0.0
 13
-0.6793906992506911
 23
-5.8442594547440319
 33
0.0
  0
LINE
  5
D4
100
AcDbEntity
  8
Dimension
370
              -2
390
0
  6
Continuous
 62
               0
100
AcDbLine
 10
6.4789415757493032
 20
-6.1278387331540749
 30
0.0
 11
8.8122679069097387
 21
-6.1278387331540749
 31
0.0
  0
SOLID
  5
D5
100
AcDbEntity
  8
Dimension
370
              -2
390
0
 62
               0
100
AcDbTrace
 10
6.4789415757493032
 20
-6.1278387331540749
 30
0.0
 11
7.5372738507493029
 21
-5.8442594547440319
 31
0.0
 12
7.5372738507493029
 22
-6.4114180115641179
 32
0.0
 13
7.5372738507493029
 23
-6.4114180115641179
 33
0.0
  0
MTEXT
  5
D6
100
AcDbEntity
  8
Dimension
390
0
 62
               0
100
AcDbMText
 10
1.7745405230629387
 20
-5.7138773633624078
 30
0.0
 40
0.7579186197916666
 41
0.0
 71
               1
 72
               1
  1
6.1mm
  7
Helvetica
 73
               1
 44
0.9673603504928808
  0
POINT
  5
D7
100
AcDbEntity
  8
Defpoints
370
               0
390
0
 62
               0
100
AcDbPoint
 10
6.4789415757493032
 20
0.4725012668459172
 30
0.0
  0
POINT
  5
D8
100
AcDbEntity
  8
Defpoints
370
               0
390
0
 62
               0
100
AcDbPoint
 10
0.3789415757493089
 20
0.4725012668459172
 30
0.0
  0
POINT
  5
D9
100
AcDbEntity
  8
Defpoints
370
               0
390
0
 62
               0
100
AcDbPoint
 10
0.3789415757493089
 20
-6.1278387331540749
 30
0.0
  0
ENDBLK
  5
DA
100
AcDbEntity
  8
Dimension
390
0
100
AcDbBlockEnd
  0
BLOCK
  5
DB
100
AcDbEntity
  8
Dimension
390
0
100
AcDbBlockBegin
  2
*D14
 70
               1
 10
0.0
 20
0.0
 30
0.0
  3
*D14
  1

  0
LINE
  5
DC
100
AcDbEntity
  8
Dimension
370
              -2
390
0
  6
Continuous
 62
               0
100
AcDbLine
 10
-3.1835584242506911
 20
11.570000633422961
 30
0.0
 11
-3.1835584242506911
 21
22.0
 31
0.0
  0
LINE
  5
DD
100
AcDbEntity
  8
Dimension
370
              -2
390
0
  6
Continuous
 62
               0
100
AcDbLine
 10
-4.4335584242506911
 20
12.820000633422959
 30
0.0
 11
-4.4335584242506911
 21
22.0
 31
0.0
  0
LINE
  5
DE
100
AcDbEntity
  8
Dimension
370
              -2
390
0
  6
Continuous
 62
               0
100
AcDbLine
 10
-4.4335584242506911
 20
20.730001266845925
 30
0.0
 11
-3.1835584242506911
 21
20.730001266845925
 31
0.0
  0
LINE
  5
DF
100
AcDbEntity
  8
Dimension
370
              -2
390
0
  6
Continuous
 62
               0
100
AcDbLine
 10
-3.1835584242506911
 20
20.730001266845925
 30
0.0
 11
-1.1910584242506843
 21
20.730001266845925
 31
0.0
  0
SOLID
  5
E0
100
AcDbEntity
  8
Dimension
370
              -2
390
0
 62
               0
100
AcDbTrace
 10
-3.1835584242506911
 20
20.730001266845925
 30
0.0
 11
-2.125226149250691
 21
21.013580545255966
 31
0.0
 12
-2.125226149250691
 22
20.446421988435883
 32
0.0
 13
-2.125226149250691
 23
20.446421988435883
 33
0.0
  0
LINE
  5
E1
100
AcDbEntity
  8
Dimension
370
              -2
390
0
  6
Continuous
 62
               0
100
AcDbLine
 10
-4.4335584242506911
 20
20.730001266845925
 30
0.0
 11
-6.7668847554111267
 21
20.730001266845925
 31
0.0
  0
SOLID
  5
E2
100
AcDbEntity
  8
Dimension
370
              -2
390
0
 62
               0
100
AcDbTrace
 10
-4.4335584242506911
 20
20.730001266845925
 30
0.0
 11
-5.4918906992506908
 21
20.446421988435883
 31
0.0
 12
-5.4918906992506908
 22
21.013580545255969
 32
0.0
 13
-5.4918906992506908
 23
21.013580545255969
 33
0.0
  0
MTEXT
  5
E3
100
AcDbEntity
  8
Dimension
390
0
 62
               0
100
AcDbMText
 10
-1.1910584242506843
 20
21.143963944762589
 30
0.0
 40
0.7579186197916666
 41
0.0
 71
               1
 72
               1
  1
1.25mm
  7
Helvetica
 73
               1
 44
0.9673603504928808
  0
MTEXT
  5
E4
100
AcDbEntity
  8
Dimension
390
0
 62
               0
100
AcDbMText
 10
2.6612627849397938
 20
21.143962807262589
 30
0.0
 40
0.7579186197916666
 41
0.0
 71
               1
 72
               1
  1
±0.125mm
  7
Helvetica
 73
               1
 44
0.9673603504928808
  0
MTEXT
  5
E5
100
AcDbEntity
  8
Dimension
390
0
 62
               0
100
AcDbMText
 10
7.6883303252771498
 20
21.14396352649436
 30
0.0
 40
0.7579202490234376
 41
0.0
 71
               1
 72
               1
  1
 (x4)
  7
Helvetica
 73
               1
 44
0.9673603504928806
  0
POINT
  5
E6
100
AcDbEntity
  8
Defpoints
370
               0
390
0
 62
               0
100
AcDbPoint
 10
-4.4335584242506911
 20
12.185001266845921
 30
0.0
  0
POINT
  5
E7
100
AcDbEntity
  8
Defpoints
370
               0
390
0
 62
               0
100
AcDbPoint
 10
-3.1835584242506911
 20
10.935001266845923
 30
0.0
  0
POINT
  5
E8
100
AcDbEntity
  8
Defpoints
370
               0
390
0
 62
               0
100
AcDbPoint
 10
-3.1835584242506911
 20
20.730001266845925
 30
0.0
  0
ENDBLK
  5
E9
100
AcDbEntity
  8
Dimension
390
0
100
AcDbBlockEnd
  0
BLOCK
  5
EA
100
AcDbEntity
  8
Dimension
390
0
100
AcDbBlockBegin
  2
*D15
 70
               1
 10
0.0
 20
0.0
 30
0.0
  3
*D15
  1

  0
LINE
  5
EB
100
AcDbEntity
  8
Dimension
370
              -2
390
0
  6
Continuous
 62
               0
100
AcDbLine
 10
-5.0685577908277253
 20
12.185001266845921
 30
0.0
 11
-16.061057157404747
 21
12.185001266845921
 31
0.0
  0
LINE
  5
EC
100
AcDbEntity
  8
Dimension
370
              -2
390
0
  6
Continuous
 62
               0
100
AcDbLine
 10
-3.8185577908277253
 20
10.935001266845923
 30
0.0
 11
-16.061057157404747
 21
10.935001266845923
 31
0.0
  0
LINE
  5
ED
100
AcDbEntity
  8
Dimension
370
              -2
390
0
  6
Continuous
 62
               0
100
AcDbLine
 10
-14.791058424250679
 20
10.935001266845923
 30
0.0
 11
-14.791058424250679
 21
12.185001266845921
 31
0.0
  0
LINE
  5
EE
100
AcDbEntity
  8
Dimension
370
              -2
390
0
  6
Continuous
 62
               0
100
AcDbLine
 10
-14.791058424250679
 20
12.185001266845921
 30
0.0
 11
-14.791058424250679
 21
14.980001266845921
 31
0.0
  0
SOLID
  5
EF
100
AcDbEntity
  8
Dimension
370
              -2
390
0
 62
               0
100
AcDbTrace
 10
-14.791058424250679
 20
12.185001266845921
 30
0.0
 11
-15.074637702660722
 21
13.243333541845921
 31
0.0
 12
-14.507479145840636
 22
13.243333541845921
 32
0.0
 13
-14.507479145840636
 23
13.243333541845921
 33
0.0
  0
LINE
  5
F0
100
AcDbEntity
  8
Dimension
370
              -2
390
0
  6
Continuous
 62
               0
100
AcDbLine
 10
-14.791058424250679
 20
10.935001266845923
 30
0.0
 11
-14.791058424250679
 21
8.601674935685498
 31
0.0
  0
SOLID
  5
F1
100
AcDbEntity
  8
Dimension
370
              -2
390
0
 62
               0
100
AcDbTrace
 10
-14.791058424250679
 20
10.935001266845923
 30
0.0
 11
-14.507479145840636
 21
9.8766689918459232
 31
0.0
 12
-15.074637702660722
 22
9.8766689918459232
 32
0.0
 13
-15.074637702660722
 23
9.8766689918459232
 33
0.0
  0
MTEXT
  5
F2
100
AcDbEntity
  8
Dimension
390
0
 62
               0
100
AcDbMText
 10
-20.283793403668
 20
15.393963944762588
 30
0.0
 40
0.7579186197916666
 41
0.0
 71
               1
 72
               1
  1
1.25mm
  7
Helvetica
 73
               1
 44
0.9673603504928808
  0
MTEXT
  5
F3
100
AcDbEntity
  8
Dimension
390
0
 62
               0
100
AcDbMText
 10
-16.431472194477521
 20
15.393962807262586
 30
0.0
 40
0.7579186197916666
 41
0.0
 71
               1
 72
               1
  1
±0.125mm
  7
Helvetica
 73
               1
 44
0.9673603504928808
  0
MTEXT
  5
F4
100
AcDbEntity
  8
Dimension
390
0
 62
               0
100
AcDbMText
 10
-11.404404654140166
 20
15.393963526494359
 30
0.0
 40
0.7579202490234376
 41
0.0
 71
               1
 72
               1
  1
 (x4)
  7
Helvetica
 73
               1
 44
0.9673603504928806
  0
POINT
  5
F5
100
AcDbEntity
  8
Defpoints
370
               0
390
0
 62
               0
100
AcDbPoint
 10
-3.1835584242506911
 20
10.935001266845923
 30
0.0
  0
POINT
  5
F6
100
AcDbEntity
  8
Defpoints
370
               0
390
0
 62
               0
100
AcDbPoint
 10
-4.4335584242506911
 20
12.185001266845921
 30
0.0
  0
POINT
  5
F7
100
AcDbEntity
  8
Defpoints
370
               0
390
0
 62
               0
100
AcDbPoint
 10
-14.791058424250679
 20
12.185001266845921
 30
0.0
  0
ENDBLK
  5
F8
100
AcDbEntity
  8
Dimension
390
0
100
AcDbBlockEnd
  0
BLOCK
  5
F9
100
AcDbEntity
  8
Dimension
390
0
100
AcDbBlockBegin
  2
*D16
 70
               1
 10
0.0
 20
0.0
 30
0.0
  3
*D16
  1

  0
LINE
  5
FA
100
AcDbEntity
  8
Dimension
370
              -2
390
0
  6
Continuous
 62
               0
100
AcDbLine
 10
9.8777615757493322
 20
8.1351712668459228
 30
0.0
 11
14.608947621450483
 21
4.4799974401565379
 31
0.0
  0
SOLID
  5
FB
100
AcDbEntity
  8
Dimension
370
              -2
390
0
 62
               0
100
AcDbTrace
 10
9.8777615757493322
 20
8.1351712668459228
 30
0.0
 11
10.549974788123235
 21
7.8498336870698422
 31
0.0
 12
10.317246504536635
 22
7.5519550679185166
 32
0.0
 13
10.317246504536635
 23
7.5519550679185166
 33
0.0
  0
LINE
  5
FC
100
AcDbEntity
  8
Dimension
370
              -2
390
0
  6
Continuous
 62
               0
100
AcDbLine
 10
14.608947621450483
 20
4.4799974401565379
 30
0.0
 11
16.608941624093802
 21
4.4799974401565379
 31
0.0
  0
MTEXT
  5
FD
100
AcDbEntity
  8
Dimension
390
0
 62
               0
100
AcDbMText
 10
15.397153810792446
 20
4.893959947448205
 30
0.0
 40
0.7579186197916666
 41
0.0
 71
               1
 72
               1
  1
Ø 0.85mm
  7
Helvetica
 73
               1
 44
0.9673603504928808
  0
MTEXT
  5
FE
100
AcDbEntity
  8
Dimension
390
0
 62
               0
100
AcDbMText
 10
20.545929558829755
 20
4.3206966318232043
 30
0.0
 40
0.7579186197916666
 41
0.0
 71
               2
 72
               1
  1
-
  7
Helvetica
 73
               1
 44
0.9673603504928808
  0
MTEXT
  5
FF
100
AcDbEntity
  8
Dimension
390
0
 62
               0
100
AcDbMText
 10
20.720554021415921
 20
5.4672209880732039
 30
0.0
 40
0.7579186197916666
 41
0.0
 71
               1
 72
               1
  1
0mm
  7
Helvetica
 73
               1
 44
0.9673603504928808
  0
MTEXT
  5
100
100
AcDbEntity
  8
Dimension
390
0
 62
               0
100
AcDbMText
 10
20.720554021415921
 20
4.3206966318232043
 30
0.0
 40
0.7579186197916666
 41
0.0
 71
               1
 72
               1
  1
0.025mm
  7
Helvetica
 73
               1
 44
0.9673603504928808
  0
MTEXT
  5
101
100
AcDbEntity
  8
Dimension
390
0
 62
               0
100
AcDbMText
 10
25.165540066526432
 20
4.893959529179976
 30
0.0
 40
0.7579202490234376
 41
0.0
 71
               1
 72
               1
  1
 (x2)
  7
Helvetica
 73
               1
 44
0.9673603504928806
  0
POINT
  5
102
100
AcDbEntity
  8
Defpoints
370
               0
390
0
 62
               0
100
AcDbPoint
 10
9.205121575749331
 20
8.6548312668459229
 30
0.0
  0
POINT
  5
103
100
AcDbEntity
  8
Defpoints
370
               0
390
0
 62
               0
100
AcDbPoint
 10
9.8777615757493322
 20
8.1351712668459228
 30
0.0
  0
ENDBLK
  5
104
100
AcDbEntity
  8
Dimension
390
0
100
AcDbBlockEnd
  0
BLOCK
  5
105
100
AcDbEntity
  8
Dimension
390
0
100
AcDbBlockBegin
  2
*D17
 70
               1
 10
0.0
 20
0.0
 30
0.0
  3
*D17
  1

  0
LINE
  5
106
100
AcDbEntity
  8
Dimension
370
              -2
390
0
  6
Continuous
 62
               0
100
AcDbLine
 10
10.274211989083312
 20
-2.1232741768074845
 30
0.0
 11
15.583667485711231
 21
-4.5380975703254833
 31
0.0
  0
SOLID
  5
107
100
AcDbEntity
  8
Dimension
370
              -2
390
0
 62
               0
100
AcDbTrace
 10
10.274211989083312
 20
-2.1232741768074845
 30
0.0
 11
10.99338340978812
 21
-2.2500835020321803
 31
0.0
 12
10.833628046477074
 22
-2.5926799842412378
 32
0.0
 13
10.833628046477074
 23
-2.5926799842412378
 33
0.0
  0
LINE
  5
108
100
AcDbEntity
  8
Dimension
370
              -2
390
0
  6
Continuous
 62
               0
100
AcDbLine
 10
15.583667485711231
 20
-4.5380975703254833
 30
0.0
 11
17.583661488354561
 21
-4.5380975703254833
 31
0.0
  0
MTEXT
  5
109
100
AcDbEntity
  8
Dimension
390
0
 62
               0
100
AcDbMText
 10
16.237227629979202
 20
-4.0781395040494415
 30
0.0
 40
0.8421336100260418
 41
0.0
 71
               1
 72
               1
  1
Ø 1.61mm
  7
Helvetica
 73
               1
 44
0.9673603504928806
  0
MTEXT
  5
10A
100
AcDbEntity
  8
Dimension
390
0
 62
               0
100
AcDbMText
 10
21.958101535925579
 20
-4.7101990571744414
 30
0.0
 40
0.8421336100260418
 41
0.0
 71
               2
 72
               1
  1
-
  7
Helvetica
 73
               1
 44
0.9673603504928806
  0
MTEXT
  5
10B
100
AcDbEntity
  8
Dimension
390
0
 62
               0
100
AcDbMText
 10
22.152129116871958
 20
-3.4460799509244415
 30
0.0
 40
0.8421336100260418
 41
0.0
 71
               1
 72
               1
  1
0mm
  7
Helvetica
 73
               1
 44
0.9673603504928806
  0
MTEXT
  5
10C
100
AcDbEntity
  8
Dimension
390
0
 62
               0
100
AcDbMText
 10
22.152129116871958
 20
-4.7101990571744414
 30
0.0
 40
0.8421336100260418
 41
0.0
 71
               1
 72
               1
  1
0.025mm
  7
Helvetica
 73
               1
 44
0.9673603504928806
  0
MTEXT
  5
10D
100
AcDbEntity
  8
Dimension
390
0
 62
               0
100
AcDbMText
 10
27.091013066871959
 20
-4.0781395040494415
 30
0.0
 40
0.8421336100260418
 41
0.0
 71
               1
 72
               1
  1
(x4)
  7
Helvetica
 73
               1
 44
0.9673603504928806
  0
POINT
  5
10E
100
AcDbEntity
  8
Defpoints
370
               0
390
0
 62
               0
100
AcDbPoint
 10
8.8086711624153509
 20
-1.4567232895006619
 30
0.0
  0
POINT
  5
10F
100
AcDbEntity
  8
Defpoints
370
               0
390
0
 62
               0
100
AcDbPoint
 10
10.274211989083312
 20
-2.1232741768074845
 30
0.0
  0
ENDBLK
  5
110
100
AcDbEntity
  8
Dimension
390
0
100
AcDbBlockEnd
  0
BLOCK
  5
111
100
AcDbEntity
  8
Dimension
390
0
100
AcDbBlockBegin
  2
*D18
 70
               1
 10
0.0
 20
0.0
 30
0.0
  3
*D18
  1

  0
LINE
  5
112
100
AcDbEntity
  8
Dimension
370
              -2
390
0
  6
Continuous
 62
               0
100
AcDbLine
 10
5.0039415757493089
 20
9.3075006334229613
 30
0.0
 11
5.0039415757493089
 21
15.062499999999998
 31
0.0
  0
LINE
  5
113
100
AcDbEntity
  8
Dimension
370
              -2
390
0
  6
Continuous
 62
               0
100
AcDbLine
 10
5.4539415757492975
 20
9.3075006334229613
 30
0.0
 11
5.4539415757492975
 21
15.062499999999998
 31
0.0
  0
LINE
  5
114
100
AcDbEntity
  8
Dimension
370
              -2
390
0
  6
Continuous
 62
               0
100
AcDbLine
 10
5.4539415757492975
 20
13.792501266845921
 30
0.0
 11
5.0039415757493089
 21
13.792501266845921
 31
0.0
  0
LINE
  5
115
100
AcDbEntity
  8
Dimension
370
              -2
390
0
  6
Continuous
 62
               0
100
AcDbLine
 10
5.0039415757493089
 20
13.792501266845921
 30
0.0
 11
2.6706152445888733
 21
13.792501266845921
 31
0.0
  0
SOLID
  5
116
100
AcDbEntity
  8
Dimension
370
              -2
390
0
 62
               0
100
AcDbTrace
 10
5.0039415757493089
 20
13.792501266845921
 30
0.0
 11
3.9456093007493087
 21
13.508921988435878
 31
0.0
 12
3.9456093007493092
 22
14.076080545255964
 32
0.0
 13
3.9456093007493092
 23
14.076080545255964
 33
0.0
  0
LINE
  5
117
100
AcDbEntity
  8
Dimension
370
              -2
390
0
  6
Continuous
 62
               0
100
AcDbLine
 10
5.4539415757492975
 20
13.792501266845921
 30
0.0
 11
8.1044815757493041
 21
13.792501266845921
 31
0.0
  0
SOLID
  5
118
100
AcDbEntity
  8
Dimension
370
              -2
390
0
 62
               0
100
AcDbTrace
 10
5.4539415757492975
 20
13.792501266845921
 30
0.0
 11
6.5122738507492972
 21
14.076080545255964
 31
0.0
 12
6.5122738507492972
 22
13.508921988435878
 32
0.0
 13
6.5122738507492972
 23
13.508921988435878
 33
0.0
  0
MTEXT
  5
119
100
AcDbEntity
  8
Dimension
390
0
 62
               0
100
AcDbMText
 10
8.1044815757492756
 20
14.206462636637587
 30
0.0
 40
0.7579186197916666
 41
0.0
 71
               1
 72
               1
  1
0.45mm typ.
  7
Helvetica
 73
               1
 44
0.9673603504928808
  0
POINT
  5
11A
100
AcDbEntity
  8
Defpoints
370
               0
390
0
 62
               0
100
AcDbPoint
 10
5.4539415757492975
 20
8.6725012668459236
 30
0.0
  0
POINT
  5
11B
100
AcDbEntity
  8
Defpoints
370
               0
390
0
 62
               0
100
AcDbPoint
 10
5.0039415757493089
 20
8.6725012668459236
 30
0.0
  0
POINT
  5
11C
100
AcDbEntity
  8
Defpoints
370
               0
390
0
 62
               0
100
AcDbPoint
 10
5.0039415757493089
 20
13.792501266845921
 30
0.0
  0
ENDBLK
  5
11D
100
AcDbEntity
  8
Dimension
390
0
100
AcDbBlockEnd
  0
BLOCK
  5
11E
100
AcDbEntity
  8
Dimension
390
0
100
AcDbBlockBegin
  2
Group
 70
               0
 10
0.0
 20
0.0
 30
0.0
  3
Group
  1

  0
LINE
  5
11F
100
AcDbEntity
  8
None
370
               5
390
0
  6
Continuous
 62
               1
100
AcDbLine
 10
2.5539415757493202
 20
4.5725012668459231
 30
0.0
 11
3.8039415757493202
 21
4.5725012668459231
 31
0.0
  0
LINE
  5
120
100
AcDbEntity
  8
None
370
               5
390
0
  6
Continuous
 62
               1
100
AcDbLine
 10
3.1789415757493202
 20
3.9475012668459213
 30
0.0
 11
3.1789415757493202
 21
5.197501266845924
 31
0.0
  0
LINE
  5
121
100
AcDbEntity
  8
None
370
               5
390
0
  6
Continuous
 62
               1
100
AcDbLine
 10
-5.1835584242506911
 20
4.5725012668459231
 30
0.0
 11
2.0539415757493202
 21
4.5725012668459231
 31
0.0
  0
LINE
  5
122
100
AcDbEntity
  8
None
370
               5
390
0
  6
Continuous
 62
               1
100
AcDbLine
 10
4.3039415757493202
 20
4.5725012668459231
 30
0.0
 11
11.541441575749332
 21
4.5725012668459231
 31
0.0
  0
LINE
  5
123
100
AcDbEntity
  8
None
370
               5
390
0
  6
Continuous
 62
               1
100
AcDbLine
 10
3.1789415757493202
 20
12.935001266845919
 30
0.0
 11
3.1789415757493202
 21
5.697501266845924
 31
0.0
  0
LINE
  5
124
100
AcDbEntity
  8
None
370
               5
390
0
  6
Continuous
 62
               1
100
AcDbLine
 10
3.1789415757493202
 20
3.4475012668459213
 30
0.0
 11
3.1789415757493202
 21
-3.7899987331540732
 31
0.0
  0
ENDBLK
  5
125
100
AcDbEntity
  8
Dimension
390
0
100
AcDbBlockEnd
  0
BLOCK
  5
126
100
AcDbEntity
  8
Dimension
390
0
100
AcDbBlockBegin
  2
Group-1
 70
               0
 10
0.0
 20
0.0
 30
0.0
  3
Group-1
  1

  0
POLYLINE
  5
127
100
AcDbEntity
  8
None
370
               9
390
0
  6
STYLE_11
 62
               7
100
AcDb2dPolyline
 66
               1
 10
0.0
 20
0.0
 30
0.0
 70
               1
 75
               5
  0
VERTEX
  5
128
100
AcDbEntity
  8
None
370
               9
390
0
  6
STYLE_11
 62
               7
100
AcDbVertex
100
AcDb2dVertex
 10
-4.4335584242506911
 20
12.185001266845921
 30
0.0
  0
VERTEX
  5
129
100
AcDbEntity
  8
None
370
               9
390
0
  6
STYLE_11
 62
               7
100
AcDbVertex
100
AcDb2dVertex
 10
10.791441575749332
 20
12.185001266845921
 30
0.0
  0
VERTEX
  5
12A
100
AcDbEntity
  8
None
370
               9
390
0
  6
STYLE_11
 62
               7
100
AcDbVertex
100
AcDb2dVertex
 10
10.791441575749332
 20
-3.0399987331540785
 30
0.0
  0
VERTEX
  5
12B
100
AcDbEntity
  8
None
370
               9
390
0
  6
STYLE_11
 62
               7
100
AcDbVertex
100
AcDb2dVertex
 10
-4.4335584242506911
 20
-3.0399987331540785
 30
0.0
  0
SEQEND
  5
12C
100
AcDbEntity
  8
None
370
               9
390
0
  6
STYLE_11
 62
               7
  0
CIRCLE
  5
12D
100
AcDbEntity
  8
None
370
               9
390
0
  6
Continuous
 62
               7
100
AcDbCircle
 10
-3.1835584242506911
 20
10.935001266845923
 30
0.0
 40
0.8050000000000068
  0
CIRCLE
  5
12E
100
AcDbEntity
  8
None
370
               9
390
0
  6
Continuous
 62
               7
100
AcDbCircle
 10
9.5414415757493316
 20
8.395001266845922
 30
0.0
 40
0.4250000000000007
  0
CIRCLE
  5
12F
100
AcDbEntity
  8
None
370
               9
390
0
  6
Continuous
 62
               7
100
AcDbCircle
 10
9.5414415757493316
 20
10.935001266845923
 30
0.0
 40
0.8050000000000068
  0
CIRCLE
  5
130
100
AcDbEntity
  8
None
370
               9
390
0
  6
Continuous
 62
               7
100
AcDbCircle
 10
9.5414415757493316
 20
-1.7899987331540732
 30
0.0
 40
0.8050000000000068
  0
CIRCLE
  5
131
100
AcDbEntity
  8
None
370
               9
390
0
  6
Continuous
 62
               7
100
AcDbCircle
 10
-3.1835584242506911
 20
3.2900012668459215
 30
0.0
 40
0.4249999999999998
  0
CIRCLE
  5
132
100
AcDbEntity
  8
None
370
               9
390
0
  6
Continuous
 62
               7
100
AcDbCircle
 10
-3.1835584242506911
 20
-1.7899987331540732
 30
0.0
 40
0.8050000000000068
  0
CIRCLE
  5
133
100
AcDbEntity
  8
None
370
               5
390
0
  6
Continuous
 62
               7
100
AcDbCircle
 10
-1.0585584242506911
 20
10.510001266845922
 30
0.0
 40
0.2124400000000009
  0
DIMENSION
  5
134
100
AcDbEntity
  8
Dimension
370
               5
390
0
  6
Continuous
 62
               1
100
AcDbDimension
  2
*D3
 10
-25.941058424250684
 20
12.185001266845921
 30
0.0
 11
-25.941058424250684
 21
4.6800631412355695
 31
0.0
 70
             128
 71
               5
 72
               1
 41
1.0
 42
0.0
  3
IE Standard
100
AcDbAlignedDimension
 13
-4.4335584242506911
 23
-3.0399987331540785
 33
0.0
 14
-4.4335584242506911
 24
12.185001266845921
 34
0.0
 50
90.0
100
AcDbRotatedDimension
1001
ACAD
1000
DSTYLE
1002
{
1070
             271
1070
               3
1070
             340
1005
35
1070
              71
1070
               1
1070
              47
1040
0.125
1070
              48
1040
0.125
1070
               3
1000
<>mm sqr.
1070
             147
1040
0.132291534375
1002
}
  0
MTEXT
  5
135
100
AcDbEntity
  8
None
390
0
 62
               1
100
AcDbMText
 10
-28.669438424250671
 20
3.9432328866375883
 30
0.0
 40
0.7579186197916666
 41
0.0
 71
               1
 72
               1
  1
{\C192;\lSocket size}
  7
New Century Schlbk
 73
               1
 44
0.9673603504928808
  0
MTEXT
  5
136
100
AcDbEntity
  8
None
390
0
 62
               1
100
AcDbMText
 10
-22.236668424250666
 20
21.669982886637591
 30
0.0
 40
0.7579186197916666
 41
0.0
 71
               1
 72
               1
  1
{\C192;\lOrientation Mark}
  7
New Century Schlbk
 73
               1
 44
0.9673603504928808
  0
MTEXT
  5
137
100
AcDbEntity
  8
None
390
0
 62
               1
100
AcDbMText
 10
16.379181175985082
 20
-6.2503471133624062
 30
0.0
 40
0.7579186197916666
 41
0.0
 71
               1
 72
               1
  1
{\C192;\lNon plated mounting hole}
  7
Arial
 73
               1
 44
0.9673603504928808
  0
MTEXT
  5
138
100
AcDbEntity
  8
None
390
0
 62
               1
100
AcDbMText
 10
15.428371575749338
 20
3.1978428866375888
 30
0.0
 40
0.7579186197916666
 41
0.0
 71
               1
 72
               1
  1
{\C192;\lNon plated alignment hole}
  7
Arial
 73
               1
 44
0.9673603504928808
  0
DIMENSION
  5
139
100
AcDbEntity
  8
Dimension
370
               5
390
0
  6
Continuous
 62
               1
100
AcDbDimension
  2
*D4
 10
-3.1835584242506911
 20
17.497311266845923
 30
0.0
 11
2.1694815757493089
 21
17.497311266845923
 31
0.0
 70
             128
 71
               5
 72
               1
 41
1.0
 42
0.0
  3
IE Standard
100
AcDbAlignedDimension
 13
0.3789415757493089
 23
8.6725012668459236
 33
0.0
 14
-3.1835584242506911
 24
10.935001266845923
 34
0.0
100
AcDbRotatedDimension
1001
ACAD
1000
DSTYLE
1002
{
1070
             271
1070
               4
1070
             340
1005
35
1070
               3
1000
<>mm*
1070
             174
1070
               0
1070
             147
1040
0.132291534375
1002
}
  0
DIMENSION
  5
13A
100
AcDbEntity
  8
Dimension
370
               5
390
0
  6
Continuous
 62
               1
100
AcDbDimension
  2
*D5
 10
-10.0
 20
8.6725012668459236
 30
0.0
 11
-10.0
 21
9.8037512668459232
 31
0.0
 70
             128
 71
               5
 72
               1
 41
1.0
 42
0.0
  3
IE Standard
100
AcDbAlignedDimension
 13
-3.1835584242506911
 23
10.935001266845923
 33
0.0
 14
0.3789415757493089
 24
8.6725012668459236
 34
0.0
 50
90.0
100
AcDbRotatedDimension
1001
ACAD
1000
DSTYLE
1002
{
1070
             271
1070
               5
1070
             340
1005
35
1070
             147
1040
0.132291534375
1002
}
  0
DIMENSION
  5
13B
100
AcDbEntity
  8
Dimension
370
               5
390
0
  6
Continuous
 62
               1
100
AcDbDimension
  2
*D6
 10
-7.6097184242506906
 20
-1.7899987331540732
 30
0.0
 11
-7.6097184242506906
 21
-0.5527099147946994
 31
0.0
 70
             128
 71
               5
 72
               1
 41
1.0
 42
0.0
  3
IE Standard
100
AcDbAlignedDimension
 13
-3.1835584242506911
 23
3.2900012668459215
 33
0.0
 14
-3.1835584242506911
 24
-1.7899987331540732
 34
0.0
 50
90.0
100
AcDbRotatedDimension
1001
ACAD
1000
DSTYLE
1002
{
1070
             271
1070
               2
1070
             340
1005
35
1070
             147
1040
0.132291534375
1002
}
  0
DIMENSION
  5
13C
100
AcDbEntity
  8
Dimension
370
               5
390
0
  6
Continuous
 62
               1
100
AcDbDimension
  2
*D7
 10
14.738331575749331
 20
8.395001266845922
 30
0.0
 11
14.738331575749331
 21
9.6650012668459233
 31
0.0
 70
             128
 71
               5
 72
               1
 41
1.0
 42
0.0
  3
IE Standard
100
AcDbAlignedDimension
 13
9.5414415757493316
 23
10.935001266845923
 33
0.0
 14
9.5414415757493316
 24
8.395001266845922
 34
0.0
 50
90.0
100
AcDbRotatedDimension
1001
ACAD
1000
DSTYLE
1002
{
1070
             271
1070
               2
1070
             340
1005
35
1070
             147
1040
0.132291534375
1002
}
  0
DIMENSION
  5
13D
100
AcDbEntity
  8
Dimension
370
               5
390
0
  6
Continuous
 62
               1
100
AcDbDimension
  2
*D8
 10
-3.1835584242506911
 20
-12.519998733154072
 30
0.0
 11
3.1589422623948282
 21
-12.519998733154072
 31
0.0
 70
             128
 71
               5
 72
               1
 41
1.0
 42
0.0
  3
IE Standard
100
AcDbAlignedDimension
 13
9.5414415757493316
 23
-1.7899987331540732
 33
0.0
 14
-3.1835584242506911
 24
-1.7899987331540732
 34
0.0
100
AcDbRotatedDimension
1001
ACAD
1000
DSTYLE
1002
{
1070
             271
1070
               3
1070
             340
1005
35
1070
              71
1070
               1
1070
              47
1040
0.125
1070
              48
1040
0.125
1070
               3
1000
<>mm (x4)
1070
             147
1040
0.132291534375
1002
}
  0
DIMENSION
  5
13E
100
AcDbEntity
  8
Dimension
370
               5
390
0
  6
Continuous
 62
               1
100
AcDbDimension
  2
*D9
 10
6.9189415757493293
 20
2.4625012668459219
 30
0.0
 11
15.231603779995639
 21
-0.099161191775579
 31
0.0
 70
               3
 71
               5
 72
               1
 41
1.0
 42
0.0
  1
0.8x 0.25mm 
  3
IE Standard
100
AcDbDiametricDimension
 15
7.6089415757493271
 25
2.1825012668459225
 35
0.0
 40
6.0679799999999995
1001
ACAD
1000
DSTYLE
1002
{
1070
             271
1070
               4
1070
             172
1070
               0
1070
             289
1070
               0
1070
             342
1005
4A
1070
             340
1005
35
1070
              75
1070
               1
1070
              76
1070
               1
1070
             174
1070
               0
1070
             147
1040
0.132291534375
1002
}
  0
DIMENSION
  5
13F
100
AcDbEntity
  8
Dimension
370
               5
390
0
  6
Continuous
 62
               1
100
AcDbDimension
  2
*D10
 10
-0.6710584242506741
 20
-8.9199987331540775
 30
0.0
 11
3.5909746568040077
 21
-8.9199987331540775
 31
0.0
 70
             128
 71
               5
 72
               1
 41
1.0
 42
0.0
  3
IE Standard
100
AcDbAlignedDimension
 13
7.5289415757493146
 23
1.5225012668459144
 33
0.0
 14
-0.6710584242506741
 24
1.5225012668459144
 34
0.0
100
AcDbRotatedDimension
1001
ACAD
1000
DSTYLE
1002
{
1070
             271
1070
               3
1070
             340
1005
35
1070
             147
1040
0.132291534375
1002
}
  0
DIMENSION
  5
140
100
AcDbEntity
  8
Dimension
370
               5
390
0
  6
Continuous
 62
               1
100
AcDbDimension
  2
*D11
 10
-16.141058424250673
 20
8.6725012668459236
 30
0.0
 11
-16.141058424250673
 21
4.1848730930177949
 31
0.0
 70
             128
 71
               5
 72
               1
 41
1.0
 42
0.0
  3
IE Standard
100
AcDbAlignedDimension
 13
0.3789415757493089
 23
0.4725012668459172
 33
0.0
 14
0.3789415757493089
 24
8.6725012668459236
 34
0.0
 50
90.0
100
AcDbRotatedDimension
1001
ACAD
1000
DSTYLE
1002
{
1070
             271
1070
               2
1070
             340
1005
35
1070
             147
1040
0.132291534375
1002
}
  0
DIMENSION
  5
141
100
AcDbEntity
  8
Dimension
370
               5
390
0
  6
Continuous
 62
               1
100
AcDbDimension
  2
*D12
 10
-10.691058424250684
 20
7.6225012668459158
 30
0.0
 11
-10.691058424250684
 21
4.4530814060060715
 31
0.0
 70
             128
 71
               5
 72
               1
 41
1.0
 42
0.0
  3
IE Standard
100
AcDbAlignedDimension
 13
-0.6710584242506741
 23
1.5225012668459144
 33
0.0
 14
-0.6710584242506741
 24
7.6225012668459158
 34
0.0
 50
90.0
100
AcDbRotatedDimension
1001
ACAD
1000
DSTYLE
1002
{
1070
             271
1070
               2
1070
             340
1005
35
1070
             147
1040
0.132291534375
1002
}
  0
DIMENSION
  5
142
100
AcDbEntity
  8
Dimension
370
               5
390
0
  6
Continuous
 62
               1
100
AcDbDimension
  2
*D13
 10
0.3789415757493089
 20
-6.1278387331540749
 30
0.0
 11
3.4043688218430561
 21
-6.1278387331540749
 31
0.0
 70
             128
 71
               5
 72
               1
 41
1.0
 42
0.0
  3
IE Standard
100
AcDbAlignedDimension
 13
6.4789415757493032
 23
0.4725012668459172
 33
0.0
 14
0.3789415757493089
 24
0.4725012668459172
 34
0.0
100
AcDbRotatedDimension
1001
ACAD
1000
DSTYLE
1002
{
1070
             271
1070
               3
1070
             340
1005
35
1070
             147
1040
0.132291534375
1002
}
  0
DIMENSION
  5
143
100
AcDbEntity
  8
Dimension
370
               5
390
0
  6
Continuous
 62
               1
100
AcDbDimension
  2
*D14
 10
-3.1835584242506911
 20
20.730001266845925
 30
0.0
 11
-1.1910584242506914
 21
20.730001266845925
 31
0.0
 70
             128
 71
               5
 72
               1
 41
1.0
 42
0.0
  3
IE Standard
100
AcDbAlignedDimension
 13
-4.4335584242506911
 23
12.185001266845921
 33
0.0
 14
-3.1835584242506911
 24
10.935001266845923
 34
0.0
100
AcDbRotatedDimension
1001
ACAD
1000
DSTYLE
1002
{
1070
             271
1070
               3
1070
             340
1005
35
1070
              71
1070
               1
1070
              47
1040
0.125
1070
              48
1040
0.125
1070
               3
1000
<>mm (x4)
1070
             174
1070
               0
1070
             147
1040
0.132291534375
1002
}
  0
DIMENSION
  5
144
100
AcDbEntity
  8
Dimension
370
               5
390
0
  6
Continuous
 62
               1
100
AcDbDimension
  2
*D15
 10
-14.791058424250679
 20
12.185001266845921
 30
0.0
 11
-14.791058424250679
 21
14.980001266845921
 31
0.0
 70
             128
 71
               5
 72
               1
 41
1.0
 42
0.0
  3
IE Standard
100
AcDbAlignedDimension
 13
-3.1835584242506911
 23
10.935001266845923
 33
0.0
 14
-4.4335584242506911
 24
12.185001266845921
 34
0.0
 50
90.0
100
AcDbRotatedDimension
1001
ACAD
1000
DSTYLE
1002
{
1070
             271
1070
               3
1070
             340
1005
35
1070
              71
1070
               1
1070
              47
1040
0.125
1070
              48
1040
0.125
1070
               3
1000
<>mm (x4)
1070
             174
1070
               0
1070
             147
1040
0.132291534375
1002
}
  0
LINE
  5
145
100
AcDbEntity
  8
None
370
               5
390
0
  6
Continuous
 62
               1
100
AcDbLine
 10
-14.394448424250669
 20
21.256021266845924
 30
0.0
 11
-11.891058424250673
 21
21.256021266845924
 31
0.0
  0
LINE
  5
146
100
AcDbEntity
  8
None
370
               5
390
0
  6
Continuous
 62
               1
100
AcDbLine
 10
-11.891058424250673
 20
21.256021266845924
 30
0.0
 11
-1.0585584242506911
 21
10.722441266845923
 31
0.0
  0
SOLID
  5
147
100
AcDbEntity
  8
None
370
               5
390
0
 62
               1
100
AcDbTrace
 10
-1.0585584242506911
 20
10.722441266845923
 30
0.0
 11
-1.6659679990897132
 21
11.073129348387589
 31
0.0
 12
-1.4092465057923564
 22
11.329850841684944
 32
0.0
 13
-1.4092465057923564
 23
11.329850841684944
 33
0.0
  0
DIMENSION
  5
148
100
AcDbEntity
  8
Dimension
370
               5
390
0
  6
Continuous
 62
               1
100
AcDbDimension
  2
*D16
 10
9.205121575749331
 20
8.6548312668459229
 30
0.0
 11
16.608944605253587
 21
4.4800070040923661
 31
0.0
 70
               3
 71
               5
 72
               1
 41
1.0
 42
0.0
  3
IE Standard
100
AcDbDiametricDimension
 15
9.8777615757493322
 25
8.1351712668459228
 35
0.0
 40
5.9786599999999996
1001
ACAD
1000
DSTYLE
1002
{
1070
             271
1070
               3
1070
             172
1070
               0
1070
             289
1070
               0
1070
             342
1005
4A
1070
             340
1005
35
1070
              75
1070
               1
1070
              76
1070
               1
1070
              71
1070
               1
1070
              48
1040
0.025
1070
               3
1000
mm (x2)
1070
             174
1070
               0
1070
             147
1040
0.132291534375
1002
}
  0
MTEXT
  5
149
100
AcDbEntity
  8
None
390
0
 62
               1
100
AcDbMText
 10
23.486243545065946
 20
0.3354228866375901
 30
0.0
 40
0.7579186197916666
 41
0.0
 71
               1
 72
               1
  1
{\C192;\lpad (x 56)}
  7
Arial
 73
               1
 44
0.9673603504928808
  0
MTEXT
  5
14A
100
AcDbEntity
  8
None
390
0
 62
               7
100
AcDbMText
 10
1.0294815757493438
 20
-15.823696524820742
 30
0.0
 40
0.8421302083333332
 41
0.0
 71
               1
 72
               1
  1
QFN56B
  7
Arial
 73
               1
 44
0.9673603504928806
  0
LINE
  5
14B
100
AcDbEntity
  8
None
370
               9
390
0
  6
Continuous
 62
               1
100
AcDbLine
 10
18.246281575749322
 20
15.662821266845921
 30
0.0
 11
12.291701575749329
 21
15.662821266845921
 31
0.0
  0
MTEXT
  5
14C
100
AcDbEntity
  8
None
390
0
 62
               1
100
AcDbMText
 10
18.696281575749339
 20
16.196012886637586
 30
0.0
 40
0.7579186197916666
 41
0.0
 71
               1
 72
               1
  1
{\C192;\l6mm x 6mm thermal /GND pad}
  7
Arial
 73
               1
 44
0.9673603504928808
  0
POLYLINE
  5
14D
100
AcDbEntity
  8
None
370
               5
390
0
  6
Continuous
 62
               7
100
AcDb2dPolyline
 66
               1
 10
0.0
 20
0.0
 30
0.0
 70
               1
 75
               5
  0
VERTEX
  5
14E
100
AcDbEntity
  8
None
370
               5
390
0
  6
Continuous
 62
               7
100
AcDbVertex
100
AcDb2dVertex
 10
0.3789415757493089
 20
8.6725012668459236
 30
0.0
  0
VERTEX
  5
14F
100
AcDbEntity
  8
None
370
               5
390
0
  6
Continuous
 62
               7
100
AcDbVertex
100
AcDb2dVertex
 10
0.6289415757493089
 20
8.6725012668459236
 30
0.0
  0
VERTEX
  5
150
100
AcDbEntity
  8
None
370
               5
390
0
  6
Continuous
 62
               7
100
AcDbVertex
100
AcDb2dVertex
 10
0.6289415757493089
 20
7.8725012668459229
 30
0.0
  0
VERTEX
  5
151
100
AcDbEntity
  8
None
370
               5
390
0
  6
Continuous
 62
               7
100
AcDbVertex
100
AcDb2dVertex
 10
0.3789415757493089
 20
7.8725012668459229
 30
0.0
  0
SEQEND
  5
152
100
AcDbEntity
  8
None
370
               5
390
0
  6
Continuous
 62
               7
  0
POLYLINE
  5
153
100
AcDbEntity
  8
Dimension
370
               5
390
0
  6
Continuous
 62
               7
100
AcDb2dPolyline
 66
               1
 10
0.0
 20
0.0
 30
0.0
 70
               1
 75
               5
  0
VERTEX
  5
154
100
AcDbEntity
  8
Dimension
370
               5
390
0
  6
Continuous
 62
               7
100
AcDbVertex
100
AcDb2dVertex
 10
-0.6710584242506741
 20
7.6225012668459158
 30
0.0
  0
VERTEX
  5
155
100
AcDbEntity
  8
Dimension
370
               5
390
0
  6
Continuous
 62
               7
100
AcDbVertex
100
AcDb2dVertex
 10
0.1289415757493373
 20
7.6225012668459158
 30
0.0
  0
VERTEX
  5
156
100
AcDbEntity
  8
Dimension
370
               5
390
0
  6
Continuous
 62
               7
100
AcDbVertex
100
AcDb2dVertex
 10
0.1289415757493373
 20
7.3725012668459158
 30
0.0
  0
VERTEX
  5
157
100
AcDbEntity
  8
Dimension
370
               5
390
0
  6
Continuous
 62
               7
100
AcDbVertex
100
AcDb2dVertex
 10
-0.6710584242506741
 20
7.3725012668459158
 30
0.0
  0
SEQEND
  5
158
100
AcDbEntity
  8
Dimension
370
               5
390
0
  6
Continuous
 62
               7
  0
POLYLINE
  5
159
100
AcDbEntity
  8
Dimension
370
               5
390
0
  6
Continuous
 62
               7
100
AcDb2dPolyline
 66
               1
 10
0.0
 20
0.0
 30
0.0
 70
               1
 75
               5
  0
VERTEX
  5
15A
100
AcDbEntity
  8
Dimension
370
               5
390
0
  6
Continuous
 62
               7
100
AcDbVertex
100
AcDb2dVertex
 10
0.4289415757493202
 20
7.5725012668459204
 30
0.0
  0
VERTEX
  5
15B
100
AcDbEntity
  8
Dimension
370
               5
390
0
  6
Continuous
 62
               7
100
AcDbVertex
100
AcDb2dVertex
 10
6.4289415757493202
 20
7.5725012668459204
 30
0.0
  0
VERTEX
  5
15C
100
AcDbEntity
  8
Dimension
370
               5
390
0
  6
Continuous
 62
               7
100
AcDbVertex
100
AcDb2dVertex
 10
6.4289415757493202
 20
1.5725012668459204
 30
0.0
  0
VERTEX
  5
15D
100
AcDbEntity
  8
Dimension
370
               5
390
0
  6
Continuous
 62
               7
100
AcDbVertex
100
AcDb2dVertex
 10
0.4289415757493202
 20
1.5725012668459204
 30
0.0
  0
SEQEND
  5
15E
100
AcDbEntity
  8
Dimension
370
               5
390
0
  6
Continuous
 62
               7
  0
LINE
  5
15F
100
AcDbEntity
  8
None
370
               9
390
0
  6
Continuous
 62
               1
100
AcDbLine
 10
12.291701575749329
 20
15.662821266845921
 30
0.0
 11
5.0294815757493438
 21
6.0925012668459235
 31
0.0
  0
SOLID
  5
160
100
AcDbEntity
  8
None
370
               9
390
0
 62
               1
100
AcDbTrace
 10
5.0294815757493438
 20
6.0925012668459235
 30
0.0
 11
5.4575924646734562
 21
7.1010673173527028
 31
0.0
 12
5.9045195064477527
 22
6.7518896435172771
 32
0.0
 13
5.9045195064477527
 23
6.7518896435172771
 33
0.0
  0
POLYLINE
  5
161
100
AcDbEntity
  8
None
370
               5
390
0
  6
Continuous
 62
               7
100
AcDb2dPolyline
 66
               1
 10
0.0
 20
0.0
 30
0.0
 70
               1
 75
               5
  0
VERTEX
  5
162
100
AcDbEntity
  8
None
370
               5
390
0
  6
Continuous
 62
               7
100
AcDbVertex
100
AcDb2dVertex
 10
0.8289415757492975
 20
8.6725012668459236
 30
0.0
  0
VERTEX
  5
163
100
AcDbEntity
  8
None
370
               5
390
0
  6
Continuous
 62
               7
100
AcDbVertex
100
AcDb2dVertex
 10
1.0789415757492975
 20
8.6725012668459236
 30
0.0
  0
VERTEX
  5
164
100
AcDbEntity
  8
None
370
               5
390
0
  6
Continuous
 62
               7
100
AcDbVertex
100
AcDb2dVertex
 10
1.0789415757492975
 20
7.8725012668459229
 30
0.0
  0
VERTEX
  5
165
100
AcDbEntity
  8
None
370
               5
390
0
  6
Continuous
 62
               7
100
AcDbVertex
100
AcDb2dVertex
 10
0.8289415757492975
 20
7.8725012668459229
 30
0.0
  0
SEQEND
  5
166
100
AcDbEntity
  8
None
370
               5
390
0
  6
Continuous
 62
               7
  0
POLYLINE
  5
167
100
AcDbEntity
  8
None
370
               5
390
0
  6
Continuous
 62
               7
100
AcDb2dPolyline
 66
               1
 10
0.0
 20
0.0
 30
0.0
 70
               1
 75
               5
  0
VERTEX
  5
168
100
AcDbEntity
  8
None
370
               5
390
0
  6
Continuous
 62
               7
100
AcDbVertex
100
AcDb2dVertex
 10
1.2789415757493146
 20
8.6725012668459236
 30
0.0
  0
VERTEX
  5
169
100
AcDbEntity
  8
None
370
               5
390
0
  6
Continuous
 62
               7
100
AcDbVertex
100
AcDb2dVertex
 10
1.5289415757493146
 20
8.6725012668459236
 30
0.0
  0
VERTEX
  5
16A
100
AcDbEntity
  8
None
370
               5
390
0
  6
Continuous
 62
               7
100
AcDbVertex
100
AcDb2dVertex
 10
1.5289415757493146
 20
7.8725012668459229
 30
0.0
  0
VERTEX
  5
16B
100
AcDbEntity
  8
None
370
               5
390
0
  6
Continuous
 62
               7
100
AcDbVertex
100
AcDb2dVertex
 10
1.2789415757493146
 20
7.8725012668459229
 30
0.0
  0
SEQEND
  5
16C
100
AcDbEntity
  8
None
370
               5
390
0
  6
Continuous
 62
               7
  0
POLYLINE
  5
16D
100
AcDbEntity
  8
None
370
               5
390
0
  6
Continuous
 62
               7
100
AcDb2dPolyline
 66
               1
 10
0.0
 20
0.0
 30
0.0
 70
               1
 75
               5
  0
VERTEX
  5
16E
100
AcDbEntity
  8
None
370
               5
390
0
  6
Continuous
 62
               7
100
AcDbVertex
100
AcDb2dVertex
 10
1.7289415757493032
 20
8.6725012668459236
 30
0.0
  0
VERTEX
  5
16F
100
AcDbEntity
  8
None
370
               5
390
0
  6
Continuous
 62
               7
100
AcDbVertex
100
AcDb2dVertex
 10
1.9789415757493032
 20
8.6725012668459236
 30
0.0
  0
VERTEX
  5
170
100
AcDbEntity
  8
None
370
               5
390
0
  6
Continuous
 62
               7
100
AcDbVertex
100
AcDb2dVertex
 10
1.9789415757493032
 20
7.8725012668459229
 30
0.0
  0
VERTEX
  5
171
100
AcDbEntity
  8
None
370
               5
390
0
  6
Continuous
 62
               7
100
AcDbVertex
100
AcDb2dVertex
 10
1.7289415757493032
 20
7.8725012668459229
 30
0.0
  0
SEQEND
  5
172
100
AcDbEntity
  8
None
370
               5
390
0
  6
Continuous
 62
               7
  0
POLYLINE
  5
173
100
AcDbEntity
  8
None
370
               5
390
0
  6
Continuous
 62
               7
100
AcDb2dPolyline
 66
               1
 10
0.0
 20
0.0
 30
0.0
 70
               1
 75
               5
  0
VERTEX
  5
174
100
AcDbEntity
  8
None
370
               5
390
0
  6
Continuous
 62
               7
100
AcDbVertex
100
AcDb2dVertex
 10
2.1789415757493202
 20
8.6725012668459236
 30
0.0
  0
VERTEX
  5
175
100
AcDbEntity
  8
None
370
               5
390
0
  6
Continuous
 62
               7
100
AcDbVertex
100
AcDb2dVertex
 10
2.4289415757493202
 20
8.6725012668459236
 30
0.0
  0
VERTEX
  5
176
100
AcDbEntity
  8
None
370
               5
390
0
  6
Continuous
 62
               7
100
AcDbVertex
100
AcDb2dVertex
 10
2.4289415757493202
 20
7.8725012668459229
 30
0.0
  0
VERTEX
  5
177
100
AcDbEntity
  8
None
370
               5
390
0
  6
Continuous
 62
               7
100
AcDbVertex
100
AcDb2dVertex
 10
2.1789415757493202
 20
7.8725012668459229
 30
0.0
  0
SEQEND
  5
178
100
AcDbEntity
  8
None
370
               5
390
0
  6
Continuous
 62
               7
  0
POLYLINE
  5
179
100
AcDbEntity
  8
None
370
               5
390
0
  6
Continuous
 62
               7
100
AcDb2dPolyline
 66
               1
 10
0.0
 20
0.0
 30
0.0
 70
               1
 75
               5
  0
VERTEX
  5
17A
100
AcDbEntity
  8
None
370
               5
390
0
  6
Continuous
 62
               7
100
AcDbVertex
100
AcDb2dVertex
 10
2.6289415757493089
 20
8.6725012668459236
 30
0.0
  0
VERTEX
  5
17B
100
AcDbEntity
  8
None
370
               5
390
0
  6
Continuous
 62
               7
100
AcDbVertex
100
AcDb2dVertex
 10
2.8789415757493089
 20
8.6725012668459236
 30
0.0
  0
VERTEX
  5
17C
100
AcDbEntity
  8
None
370
               5
390
0
  6
Continuous
 62
               7
100
AcDbVertex
100
AcDb2dVertex
 10
2.8789415757493089
 20
7.8725012668459229
 30
0.0
  0
VERTEX
  5
17D
100
AcDbEntity
  8
None
370
               5
390
0
  6
Continuous
 62
               7
100
AcDbVertex
100
AcDb2dVertex
 10
2.6289415757493089
 20
7.8725012668459229
 30
0.0
  0
SEQEND
  5
17E
100
AcDbEntity
  8
None
370
               5
390
0
  6
Continuous
 62
               7
  0
POLYLINE
  5
17F
100
AcDbEntity
  8
None
370
               5
390
0
  6
Continuous
 62
               7
100
AcDb2dPolyline
 66
               1
 10
0.0
 20
0.0
 30
0.0
 70
               1
 75
               5
  0
VERTEX
  5
180
100
AcDbEntity
  8
None
370
               5
390
0
  6
Continuous
 62
               7
100
AcDbVertex
100
AcDb2dVertex
 10
3.0789415757492975
 20
8.6725012668459236
 30
0.0
  0
VERTEX
  5
181
100
AcDbEntity
  8
None
370
               5
390
0
  6
Continuous
 62
               7
100
AcDbVertex
100
AcDb2dVertex
 10
3.3289415757492975
 20
8.6725012668459236
 30
0.0
  0
VERTEX
  5
182
100
AcDbEntity
  8
None
370
               5
390
0
  6
Continuous
 62
               7
100
AcDbVertex
100
AcDb2dVertex
 10
3.3289415757492975
 20
7.8725012668459229
 30
0.0
  0
VERTEX
  5
183
100
AcDbEntity
  8
None
370
               5
390
0
  6
Continuous
 62
               7
100
AcDbVertex
100
AcDb2dVertex
 10
3.0789415757492975
 20
7.8725012668459229
 30
0.0
  0
SEQEND
  5
184
100
AcDbEntity
  8
None
370
               5
390
0
  6
Continuous
 62
               7
  0
POLYLINE
  5
185
100
AcDbEntity
  8
None
370
               5
390
0
  6
Continuous
 62
               7
100
AcDb2dPolyline
 66
               1
 10
0.0
 20
0.0
 30
0.0
 70
               1
 75
               5
  0
VERTEX
  5
186
100
AcDbEntity
  8
None
370
               5
390
0
  6
Continuous
 62
               7
100
AcDbVertex
100
AcDb2dVertex
 10
3.5289415757493146
 20
8.6725012668459236
 30
0.0
  0
VERTEX
  5
187
100
AcDbEntity
  8
None
370
               5
390
0
  6
Continuous
 62
               7
100
AcDbVertex
100
AcDb2dVertex
 10
3.7789415757493146
 20
8.6725012668459236
 30
0.0
  0
VERTEX
  5
188
100
AcDbEntity
  8
None
370
               5
390
0
  6
Continuous
 62
               7
100
AcDbVertex
100
AcDb2dVertex
 10
3.7789415757493146
 20
7.8725012668459229
 30
0.0
  0
VERTEX
  5
189
100
AcDbEntity
  8
None
370
               5
390
0
  6
Continuous
 62
               7
100
AcDbVertex
100
AcDb2dVertex
 10
3.5289415757493146
 20
7.8725012668459229
 30
0.0
  0
SEQEND
  5
18A
100
AcDbEntity
  8
None
370
               5
390
0
  6
Continuous
 62
               7
  0
POLYLINE
  5
18B
100
AcDbEntity
  8
None
370
               5
390
0
  6
Continuous
 62
               7
100
AcDb2dPolyline
 66
               1
 10
0.0
 20
0.0
 30
0.0
 70
               1
 75
               5
  0
VERTEX
  5
18C
100
AcDbEntity
  8
None
370
               5
390
0
  6
Continuous
 62
               7
100
AcDbVertex
100
AcDb2dVertex
 10
3.9789415757493032
 20
8.6725012668459236
 30
0.0
  0
VERTEX
  5
18D
100
AcDbEntity
  8
None
370
               5
390
0
  6
Continuous
 62
               7
100
AcDbVertex
100
AcDb2dVertex
 10
4.2289415757493032
 20
8.6725012668459236
 30
0.0
  0
VERTEX
  5
18E
100
AcDbEntity
  8
None
370
               5
390
0
  6
Continuous
 62
               7
100
AcDbVertex
100
AcDb2dVertex
 10
4.2289415757493032
 20
7.8725012668459229
 30
0.0
  0
VERTEX
  5
18F
100
AcDbEntity
  8
None
370
               5
390
0
  6
Continuous
 62
               7
100
AcDbVertex
100
AcDb2dVertex
 10
3.9789415757493032
 20
7.8725012668459229
 30
0.0
  0
SEQEND
  5
190
100
AcDbEntity
  8
None
370
               5
390
0
  6
Continuous
 62
               7
  0
POLYLINE
  5
191
100
AcDbEntity
  8
None
370
               5
390
0
  6
Continuous
 62
               7
100
AcDb2dPolyline
 66
               1
 10
0.0
 20
0.0
 30
0.0
 70
               1
 75
               5
  0
VERTEX
  5
192
100
AcDbEntity
  8
None
370
               5
390
0
  6
Continuous
 62
               7
100
AcDbVertex
100
AcDb2dVertex
 10
4.4289415757493202
 20
8.6725012668459236
 30
0.0
  0
VERTEX
  5
193
100
AcDbEntity
  8
None
370
               5
390
0
  6
Continuous
 62
               7
100
AcDbVertex
100
AcDb2dVertex
 10
4.6789415757493202
 20
8.6725012668459236
 30
0.0
  0
VERTEX
  5
194
100
AcDbEntity
  8
None
370
               5
390
0
  6
Continuous
 62
               7
100
AcDbVertex
100
AcDb2dVertex
 10
4.6789415757493202
 20
7.8725012668459229
 30
0.0
  0
VERTEX
  5
195
100
AcDbEntity
  8
None
370
               5
390
0
  6
Continuous
 62
               7
100
AcDbVertex
100
AcDb2dVertex
 10
4.4289415757493202
 20
7.8725012668459229
 30
0.0
  0
SEQEND
  5
196
100
AcDbEntity
  8
None
370
               5
390
0
  6
Continuous
 62
               7
  0
POLYLINE
  5
197
100
AcDbEntity
  8
None
370
               5
390
0
  6
Continuous
 62
               7
100
AcDb2dPolyline
 66
               1
 10
0.0
 20
0.0
 30
0.0
 70
               1
 75
               5
  0
VERTEX
  5
198
100
AcDbEntity
  8
None
370
               5
390
0
  6
Continuous
 62
               7
100
AcDbVertex
100
AcDb2dVertex
 10
4.8789415757493089
 20
8.6725012668459236
 30
0.0
  0
VERTEX
  5
199
100
AcDbEntity
  8
None
370
               5
390
0
  6
Continuous
 62
               7
100
AcDbVertex
100
AcDb2dVertex
 10
5.1289415757493089
 20
8.6725012668459236
 30
0.0
  0
VERTEX
  5
19A
100
AcDbEntity
  8
None
370
               5
390
0
  6
Continuous
 62
               7
100
AcDbVertex
100
AcDb2dVertex
 10
5.1289415757493089
 20
7.8725012668459229
 30
0.0
  0
VERTEX
  5
19B
100
AcDbEntity
  8
None
370
               5
390
0
  6
Continuous
 62
               7
100
AcDbVertex
100
AcDb2dVertex
 10
4.8789415757493089
 20
7.8725012668459229
 30
0.0
  0
SEQEND
  5
19C
100
AcDbEntity
  8
None
370
               5
390
0
  6
Continuous
 62
               7
  0
POLYLINE
  5
19D
100
AcDbEntity
  8
None
370
               5
390
0
  6
Continuous
 62
               7
100
AcDb2dPolyline
 66
               1
 10
0.0
 20
0.0
 30
0.0
 70
               1
 75
               5
  0
VERTEX
  5
19E
100
AcDbEntity
  8
None
370
               5
390
0
  6
Continuous
 62
               7
100
AcDbVertex
100
AcDb2dVertex
 10
5.3289415757492975
 20
8.6725012668459236
 30
0.0
  0
VERTEX
  5
19F
100
AcDbEntity
  8
None
370
               5
390
0
  6
Continuous
 62
               7
100
AcDbVertex
100
AcDb2dVertex
 10
5.5789415757492975
 20
8.6725012668459236
 30
0.0
  0
VERTEX
  5
1A0
100
AcDbEntity
  8
None
370
               5
390
0
  6
Continuous
 62
               7
100
AcDbVertex
100
AcDb2dVertex
 10
5.5789415757492975
 20
7.8725012668459229
 30
0.0
  0
VERTEX
  5
1A1
100
AcDbEntity
  8
None
370
               5
390
0
  6
Continuous
 62
               7
100
AcDbVertex
100
AcDb2dVertex
 10
5.3289415757492975
 20
7.8725012668459229
 30
0.0
  0
SEQEND
  5
1A2
100
AcDbEntity
  8
None
370
               5
390
0
  6
Continuous
 62
               7
  0
POLYLINE
  5
1A3
100
AcDbEntity
  8
None
370
               5
390
0
  6
Continuous
 62
               7
100
AcDb2dPolyline
 66
               1
 10
0.0
 20
0.0
 30
0.0
 70
               1
 75
               5
  0
VERTEX
  5
1A4
100
AcDbEntity
  8
None
370
               5
390
0
  6
Continuous
 62
               7
100
AcDbVertex
100
AcDb2dVertex
 10
5.7789415757493146
 20
8.6725012668459236
 30
0.0
  0
VERTEX
  5
1A5
100
AcDbEntity
  8
None
370
               5
390
0
  6
Continuous
 62
               7
100
AcDbVertex
100
AcDb2dVertex
 10
6.0289415757493146
 20
8.6725012668459236
 30
0.0
  0
VERTEX
  5
1A6
100
AcDbEntity
  8
None
370
               5
390
0
  6
Continuous
 62
               7
100
AcDbVertex
100
AcDb2dVertex
 10
6.0289415757493146
 20
7.8725012668459229
 30
0.0
  0
VERTEX
  5
1A7
100
AcDbEntity
  8
None
370
               5
390
0
  6
Continuous
 62
               7
100
AcDbVertex
100
AcDb2dVertex
 10
5.7789415757493146
 20
7.8725012668459229
 30
0.0
  0
SEQEND
  5
1A8
100
AcDbEntity
  8
None
370
               5
390
0
  6
Continuous
 62
               7
  0
POLYLINE
  5
1A9
100
AcDbEntity
  8
None
370
               5
390
0
  6
Continuous
 62
               7
100
AcDb2dPolyline
 66
               1
 10
0.0
 20
0.0
 30
0.0
 70
               1
 75
               5
  0
VERTEX
  5
1AA
100
AcDbEntity
  8
None
370
               5
390
0
  6
Continuous
 62
               7
100
AcDbVertex
100
AcDb2dVertex
 10
6.2289415757493032
 20
8.6725012668459236
 30
0.0
  0
VERTEX
  5
1AB
100
AcDbEntity
  8
None
370
               5
390
0
  6
Continuous
 62
               7
100
AcDbVertex
100
AcDb2dVertex
 10
6.4789415757493032
 20
8.6725012668459236
 30
0.0
  0
VERTEX
  5
1AC
100
AcDbEntity
  8
None
370
               5
390
0
  6
Continuous
 62
               7
100
AcDbVertex
100
AcDb2dVertex
 10
6.4789415757493032
 20
7.8725012668459229
 30
0.0
  0
VERTEX
  5
1AD
100
AcDbEntity
  8
None
370
               5
390
0
  6
Continuous
 62
               7
100
AcDbVertex
100
AcDb2dVertex
 10
6.2289415757493032
 20
7.8725012668459229
 30
0.0
  0
SEQEND
  5
1AE
100
AcDbEntity
  8
None
370
               5
390
0
  6
Continuous
 62
               7
  0
POLYLINE
  5
1AF
100
AcDbEntity
  8
Dimension
370
               5
390
0
  6
Continuous
 62
               7
100
AcDb2dPolyline
 66
               1
 10
0.0
 20
0.0
 30
0.0
 70
               1
 75
               5
  0
VERTEX
  5
1B0
100
AcDbEntity
  8
Dimension
370
               5
390
0
  6
Continuous
 62
               7
100
AcDbVertex
100
AcDb2dVertex
 10
-0.6710584242506741
 20
7.1725012668459156
 30
0.0
  0
VERTEX
  5
1B1
100
AcDbEntity
  8
Dimension
370
               5
390
0
  6
Continuous
 62
               7
100
AcDbVertex
100
AcDb2dVertex
 10
0.1289415757493373
 20
7.1725012668459156
 30
0.0
  0
VERTEX
  5
1B2
100
AcDbEntity
  8
Dimension
370
               5
390
0
  6
Continuous
 62
               7
100
AcDbVertex
100
AcDb2dVertex
 10
0.1289415757493373
 20
6.9225012668459156
 30
0.0
  0
VERTEX
  5
1B3
100
AcDbEntity
  8
Dimension
370
               5
390
0
  6
Continuous
 62
               7
100
AcDbVertex
100
AcDb2dVertex
 10
-0.6710584242506741
 20
6.9225012668459156
 30
0.0
  0
SEQEND
  5
1B4
100
AcDbEntity
  8
Dimension
370
               5
390
0
  6
Continuous
 62
               7
  0
POLYLINE
  5
1B5
100
AcDbEntity
  8
Dimension
370
               5
390
0
  6
Continuous
 62
               7
100
AcDb2dPolyline
 66
               1
 10
0.0
 20
0.0
 30
0.0
 70
               1
 75
               5
  0
VERTEX
  5
1B6
100
AcDbEntity
  8
Dimension
370
               5
390
0
  6
Continuous
 62
               7
100
AcDbVertex
100
AcDb2dVertex
 10
-0.6710584242506741
 20
6.7225012668459154
 30
0.0
  0
VERTEX
  5
1B7
100
AcDbEntity
  8
Dimension
370
               5
390
0
  6
Continuous
 62
               7
100
AcDbVertex
100
AcDb2dVertex
 10
0.1289415757493373
 20
6.7225012668459154
 30
0.0
  0
VERTEX
  5
1B8
100
AcDbEntity
  8
Dimension
370
               5
390
0
  6
Continuous
 62
               7
100
AcDbVertex
100
AcDb2dVertex
 10
0.1289415757493373
 20
6.4725012668459154
 30
0.0
  0
VERTEX
  5
1B9
100
AcDbEntity
  8
Dimension
370
               5
390
0
  6
Continuous
 62
               7
100
AcDbVertex
100
AcDb2dVertex
 10
-0.6710584242506741
 20
6.4725012668459154
 30
0.0
  0
SEQEND
  5
1BA
100
AcDbEntity
  8
Dimension
370
               5
390
0
  6
Continuous
 62
               7
  0
POLYLINE
  5
1BB
100
AcDbEntity
  8
Dimension
370
               5
390
0
  6
Continuous
 62
               7
100
AcDb2dPolyline
 66
               1
 10
0.0
 20
0.0
 30
0.0
 70
               1
 75
               5
  0
VERTEX
  5
1BC
100
AcDbEntity
  8
Dimension
370
               5
390
0
  6
Continuous
 62
               7
100
AcDbVertex
100
AcDb2dVertex
 10
-0.6710584242506741
 20
6.2725012668459161
 30
0.0
  0
VERTEX
  5
1BD
100
AcDbEntity
  8
Dimension
370
               5
390
0
  6
Continuous
 62
               7
100
AcDbVertex
100
AcDb2dVertex
 10
0.1289415757493373
 20
6.2725012668459161
 30
0.0
  0
VERTEX
  5
1BE
100
AcDbEntity
  8
Dimension
370
               5
390
0
  6
Continuous
 62
               7
100
AcDbVertex
100
AcDb2dVertex
 10
0.1289415757493373
 20
6.0225012668459161
 30
0.0
  0
VERTEX
  5
1BF
100
AcDbEntity
  8
Dimension
370
               5
390
0
  6
Continuous
 62
               7
100
AcDbVertex
100
AcDb2dVertex
 10
-0.6710584242506741
 20
6.0225012668459161
 30
0.0
  0
SEQEND
  5
1C0
100
AcDbEntity
  8
Dimension
370
               5
390
0
  6
Continuous
 62
               7
  0
POLYLINE
  5
1C1
100
AcDbEntity
  8
Dimension
370
               5
390
0
  6
Continuous
 62
               7
100
AcDb2dPolyline
 66
               1
 10
0.0
 20
0.0
 30
0.0
 70
               1
 75
               5
  0
VERTEX
  5
1C2
100
AcDbEntity
  8
Dimension
370
               5
390
0
  6
Continuous
 62
               7
100
AcDbVertex
100
AcDb2dVertex
 10
-0.6710584242506741
 20
5.822501266845916
 30
0.0
  0
VERTEX
  5
1C3
100
AcDbEntity
  8
Dimension
370
               5
390
0
  6
Continuous
 62
               7
100
AcDbVertex
100
AcDb2dVertex
 10
0.1289415757493373
 20
5.822501266845916
 30
0.0
  0
VERTEX
  5
1C4
100
AcDbEntity
  8
Dimension
370
               5
390
0
  6
Continuous
 62
               7
100
AcDbVertex
100
AcDb2dVertex
 10
0.1289415757493373
 20
5.572501266845916
 30
0.0
  0
VERTEX
  5
1C5
100
AcDbEntity
  8
Dimension
370
               5
390
0
  6
Continuous
 62
               7
100
AcDbVertex
100
AcDb2dVertex
 10
-0.6710584242506741
 20
5.572501266845916
 30
0.0
  0
SEQEND
  5
1C6
100
AcDbEntity
  8
Dimension
370
               5
390
0
  6
Continuous
 62
               7
  0
POLYLINE
  5
1C7
100
AcDbEntity
  8
Dimension
370
               5
390
0
  6
Continuous
 62
               7
100
AcDb2dPolyline
 66
               1
 10
0.0
 20
0.0
 30
0.0
 70
               1
 75
               5
  0
VERTEX
  5
1C8
100
AcDbEntity
  8
Dimension
370
               5
390
0
  6
Continuous
 62
               7
100
AcDbVertex
100
AcDb2dVertex
 10
-0.6710584242506741
 20
5.3725012668459158
 30
0.0
  0
VERTEX
  5
1C9
100
AcDbEntity
  8
Dimension
370
               5
390
0
  6
Continuous
 62
               7
100
AcDbVertex
100
AcDb2dVertex
 10
0.1289415757493373
 20
5.3725012668459158
 30
0.0
  0
VERTEX
  5
1CA
100
AcDbEntity
  8
Dimension
370
               5
390
0
  6
Continuous
 62
               7
100
AcDbVertex
100
AcDb2dVertex
 10
0.1289415757493373
 20
5.1225012668459158
 30
0.0
  0
VERTEX
  5
1CB
100
AcDbEntity
  8
Dimension
370
               5
390
0
  6
Continuous
 62
               7
100
AcDbVertex
100
AcDb2dVertex
 10
-0.6710584242506741
 20
5.1225012668459158
 30
0.0
  0
SEQEND
  5
1CC
100
AcDbEntity
  8
Dimension
370
               5
390
0
  6
Continuous
 62
               7
  0
POLYLINE
  5
1CD
100
AcDbEntity
  8
Dimension
370
               5
390
0
  6
Continuous
 62
               7
100
AcDb2dPolyline
 66
               1
 10
0.0
 20
0.0
 30
0.0
 70
               1
 75
               5
  0
VERTEX
  5
1CE
100
AcDbEntity
  8
Dimension
370
               5
390
0
  6
Continuous
 62
               7
100
AcDbVertex
100
AcDb2dVertex
 10
-0.6710584242506741
 20
4.9225012668459156
 30
0.0
  0
VERTEX
  5
1CF
100
AcDbEntity
  8
Dimension
370
               5
390
0
  6
Continuous
 62
               7
100
AcDbVertex
100
AcDb2dVertex
 10
0.1289415757493373
 20
4.9225012668459156
 30
0.0
  0
VERTEX
  5
1D0
100
AcDbEntity
  8
Dimension
370
               5
390
0
  6
Continuous
 62
               7
100
AcDbVertex
100
AcDb2dVertex
 10
0.1289415757493373
 20
4.6725012668459156
 30
0.0
  0
VERTEX
  5
1D1
100
AcDbEntity
  8
Dimension
370
               5
390
0
  6
Continuous
 62
               7
100
AcDbVertex
100
AcDb2dVertex
 10
-0.6710584242506741
 20
4.6725012668459156
 30
0.0
  0
SEQEND
  5
1D2
100
AcDbEntity
  8
Dimension
370
               5
390
0
  6
Continuous
 62
               7
  0
POLYLINE
  5
1D3
100
AcDbEntity
  8
Dimension
370
               5
390
0
  6
Continuous
 62
               7
100
AcDb2dPolyline
 66
               1
 10
0.0
 20
0.0
 30
0.0
 70
               1
 75
               5
  0
VERTEX
  5
1D4
100
AcDbEntity
  8
Dimension
370
               5
390
0
  6
Continuous
 62
               7
100
AcDbVertex
100
AcDb2dVertex
 10
-0.6710584242506741
 20
4.4725012668459154
 30
0.0
  0
VERTEX
  5
1D5
100
AcDbEntity
  8
Dimension
370
               5
390
0
  6
Continuous
 62
               7
100
AcDbVertex
100
AcDb2dVertex
 10
0.1289415757493373
 20
4.4725012668459154
 30
0.0
  0
VERTEX
  5
1D6
100
AcDbEntity
  8
Dimension
370
               5
390
0
  6
Continuous
 62
               7
100
AcDbVertex
100
AcDb2dVertex
 10
0.1289415757493373
 20
4.2225012668459154
 30
0.0
  0
VERTEX
  5
1D7
100
AcDbEntity
  8
Dimension
370
               5
390
0
  6
Continuous
 62
               7
100
AcDbVertex
100
AcDb2dVertex
 10
-0.6710584242506741
 20
4.2225012668459154
 30
0.0
  0
SEQEND
  5
1D8
100
AcDbEntity
  8
Dimension
370
               5
390
0
  6
Continuous
 62
               7
  0
POLYLINE
  5
1D9
100
AcDbEntity
  8
Dimension
370
               5
390
0
  6
Continuous
 62
               7
100
AcDb2dPolyline
 66
               1
 10
0.0
 20
0.0
 30
0.0
 70
               1
 75
               5
  0
VERTEX
  5
1DA
100
AcDbEntity
  8
Dimension
370
               5
390
0
  6
Continuous
 62
               7
100
AcDbVertex
100
AcDb2dVertex
 10
-0.6710584242506741
 20
4.0225012668459152
 30
0.0
  0
VERTEX
  5
1DB
100
AcDbEntity
  8
Dimension
370
               5
390
0
  6
Continuous
 62
               7
100
AcDbVertex
100
AcDb2dVertex
 10
0.1289415757493373
 20
4.0225012668459152
 30
0.0
  0
VERTEX
  5
1DC
100
AcDbEntity
  8
Dimension
370
               5
390
0
  6
Continuous
 62
               7
100
AcDbVertex
100
AcDb2dVertex
 10
0.1289415757493373
 20
3.7725012668459152
 30
0.0
  0
VERTEX
  5
1DD
100
AcDbEntity
  8
Dimension
370
               5
390
0
  6
Continuous
 62
               7
100
AcDbVertex
100
AcDb2dVertex
 10
-0.6710584242506741
 20
3.7725012668459152
 30
0.0
  0
SEQEND
  5
1DE
100
AcDbEntity
  8
Dimension
370
               5
390
0
  6
Continuous
 62
               7
  0
POLYLINE
  5
1DF
100
AcDbEntity
  8
Dimension
370
               5
390
0
  6
Continuous
 62
               7
100
AcDb2dPolyline
 66
               1
 10
0.0
 20
0.0
 30
0.0
 70
               1
 75
               5
  0
VERTEX
  5
1E0
100
AcDbEntity
  8
Dimension
370
               5
390
0
  6
Continuous
 62
               7
100
AcDbVertex
100
AcDb2dVertex
 10
-0.6710584242506741
 20
3.5725012668459151
 30
0.0
  0
VERTEX
  5
1E1
100
AcDbEntity
  8
Dimension
370
               5
390
0
  6
Continuous
 62
               7
100
AcDbVertex
100
AcDb2dVertex
 10
0.1289415757493373
 20
3.5725012668459151
 30
0.0
  0
VERTEX
  5
1E2
100
AcDbEntity
  8
Dimension
370
               5
390
0
  6
Continuous
 62
               7
100
AcDbVertex
100
AcDb2dVertex
 10
0.1289415757493373
 20
3.3225012668459151
 30
0.0
  0
VERTEX
  5
1E3
100
AcDbEntity
  8
Dimension
370
               5
390
0
  6
Continuous
 62
               7
100
AcDbVertex
100
AcDb2dVertex
 10
-0.6710584242506741
 20
3.3225012668459151
 30
0.0
  0
SEQEND
  5
1E4
100
AcDbEntity
  8
Dimension
370
               5
390
0
  6
Continuous
 62
               7
  0
POLYLINE
  5
1E5
100
AcDbEntity
  8
Dimension
370
               5
390
0
  6
Continuous
 62
               7
100
AcDb2dPolyline
 66
               1
 10
0.0
 20
0.0
 30
0.0
 70
               1
 75
               5
  0
VERTEX
  5
1E6
100
AcDbEntity
  8
Dimension
370
               5
390
0
  6
Continuous
 62
               7
100
AcDbVertex
100
AcDb2dVertex
 10
-0.6710584242506741
 20
3.1225012668459149
 30
0.0
  0
VERTEX
  5
1E7
100
AcDbEntity
  8
Dimension
370
               5
390
0
  6
Continuous
 62
               7
100
AcDbVertex
100
AcDb2dVertex
 10
0.1289415757493373
 20
3.1225012668459149
 30
0.0
  0
VERTEX
  5
1E8
100
AcDbEntity
  8
Dimension
370
               5
390
0
  6
Continuous
 62
               7
100
AcDbVertex
100
AcDb2dVertex
 10
0.1289415757493373
 20
2.8725012668459149
 30
0.0
  0
VERTEX
  5
1E9
100
AcDbEntity
  8
Dimension
370
               5
390
0
  6
Continuous
 62
               7
100
AcDbVertex
100
AcDb2dVertex
 10
-0.6710584242506741
 20
2.8725012668459149
 30
0.0
  0
SEQEND
  5
1EA
100
AcDbEntity
  8
Dimension
370
               5
390
0
  6
Continuous
 62
               7
  0
POLYLINE
  5
1EB
100
AcDbEntity
  8
Dimension
370
               5
390
0
  6
Continuous
 62
               7
100
AcDb2dPolyline
 66
               1
 10
0.0
 20
0.0
 30
0.0
 70
               1
 75
               5
  0
VERTEX
  5
1EC
100
AcDbEntity
  8
Dimension
370
               5
390
0
  6
Continuous
 62
               7
100
AcDbVertex
100
AcDb2dVertex
 10
-0.6710584242506741
 20
2.6725012668459147
 30
0.0
  0
VERTEX
  5
1ED
100
AcDbEntity
  8
Dimension
370
               5
390
0
  6
Continuous
 62
               7
100
AcDbVertex
100
AcDb2dVertex
 10
0.1289415757493373
 20
2.6725012668459147
 30
0.0
  0
VERTEX
  5
1EE
100
AcDbEntity
  8
Dimension
370
               5
390
0
  6
Continuous
 62
               7
100
AcDbVertex
100
AcDb2dVertex
 10
0.1289415757493373
 20
2.4225012668459147
 30
0.0
  0
VERTEX
  5
1EF
100
AcDbEntity
  8
Dimension
370
               5
390
0
  6
Continuous
 62
               7
100
AcDbVertex
100
AcDb2dVertex
 10
-0.6710584242506741
 20
2.4225012668459147
 30
0.0
  0
SEQEND
  5
1F0
100
AcDbEntity
  8
Dimension
370
               5
390
0
  6
Continuous
 62
               7
  0
POLYLINE
  5
1F1
100
AcDbEntity
  8
Dimension
370
               5
390
0
  6
Continuous
 62
               7
100
AcDb2dPolyline
 66
               1
 10
0.0
 20
0.0
 30
0.0
 70
               1
 75
               5
  0
VERTEX
  5
1F2
100
AcDbEntity
  8
Dimension
370
               5
390
0
  6
Continuous
 62
               7
100
AcDbVertex
100
AcDb2dVertex
 10
-0.6710584242506741
 20
2.2225012668459145
 30
0.0
  0
VERTEX
  5
1F3
100
AcDbEntity
  8
Dimension
370
               5
390
0
  6
Continuous
 62
               7
100
AcDbVertex
100
AcDb2dVertex
 10
0.1289415757493373
 20
2.2225012668459145
 30
0.0
  0
VERTEX
  5
1F4
100
AcDbEntity
  8
Dimension
370
               5
390
0
  6
Continuous
 62
               7
100
AcDbVertex
100
AcDb2dVertex
 10
0.1289415757493373
 20
1.9725012668459145
 30
0.0
  0
VERTEX
  5
1F5
100
AcDbEntity
  8
Dimension
370
               5
390
0
  6
Continuous
 62
               7
100
AcDbVertex
100
AcDb2dVertex
 10
-0.6710584242506741
 20
1.9725012668459145
 30
0.0
  0
SEQEND
  5
1F6
100
AcDbEntity
  8
Dimension
370
               5
390
0
  6
Continuous
 62
               7
  0
POLYLINE
  5
1F7
100
AcDbEntity
  8
Dimension
370
               5
390
0
  6
Continuous
 62
               7
100
AcDb2dPolyline
 66
               1
 10
0.0
 20
0.0
 30
0.0
 70
               1
 75
               5
  0
VERTEX
  5
1F8
100
AcDbEntity
  8
Dimension
370
               5
390
0
  6
Continuous
 62
               7
100
AcDbVertex
100
AcDb2dVertex
 10
-0.6710584242506741
 20
1.7725012668459144
 30
0.0
  0
VERTEX
  5
1F9
100
AcDbEntity
  8
Dimension
370
               5
390
0
  6
Continuous
 62
               7
100
AcDbVertex
100
AcDb2dVertex
 10
0.1289415757493373
 20
1.7725012668459144
 30
0.0
  0
VERTEX
  5
1FA
100
AcDbEntity
  8
Dimension
370
               5
390
0
  6
Continuous
 62
               7
100
AcDbVertex
100
AcDb2dVertex
 10
0.1289415757493373
 20
1.5225012668459144
 30
0.0
  0
VERTEX
  5
1FB
100
AcDbEntity
  8
Dimension
370
               5
390
0
  6
Continuous
 62
               7
100
AcDbVertex
100
AcDb2dVertex
 10
-0.6710584242506741
 20
1.5225012668459144
 30
0.0
  0
SEQEND
  5
1FC
100
AcDbEntity
  8
Dimension
370
               5
390
0
  6
Continuous
 62
               7
  0
POLYLINE
  5
1FD
100
AcDbEntity
  8
None
370
               5
390
0
  6
Continuous
 62
               7
100
AcDb2dPolyline
 66
               1
 10
0.0
 20
0.0
 30
0.0
 70
               1
 75
               5
  0
VERTEX
  5
1FE
100
AcDbEntity
  8
None
370
               5
390
0
  6
Continuous
 62
               7
100
AcDbVertex
100
AcDb2dVertex
 10
0.3789415757493089
 20
1.2725012668459179
 30
0.0
  0
VERTEX
  5
1FF
100
AcDbEntity
  8
None
370
               5
390
0
  6
Continuous
 62
               7
100
AcDbVertex
100
AcDb2dVertex
 10
0.6289415757493089
 20
1.2725012668459179
 30
0.0
  0
VERTEX
  5
200
100
AcDbEntity
  8
None
370
               5
390
0
  6
Continuous
 62
               7
100
AcDbVertex
100
AcDb2dVertex
 10
0.6289415757493089
 20
0.4725012668459172
 30
0.0
  0
VERTEX
  5
201
100
AcDbEntity
  8
None
370
               5
390
0
  6
Continuous
 62
               7
100
AcDbVertex
100
AcDb2dVertex
 10
0.3789415757493089
 20
0.4725012668459172
 30
0.0
  0
SEQEND
  5
202
100
AcDbEntity
  8
None
370
               5
390
0
  6
Continuous
 62
               7
  0
POLYLINE
  5
203
100
AcDbEntity
  8
None
370
               5
390
0
  6
Continuous
 62
               7
100
AcDb2dPolyline
 66
               1
 10
0.0
 20
0.0
 30
0.0
 70
               1
 75
               5
  0
VERTEX
  5
204
100
AcDbEntity
  8
None
370
               5
390
0
  6
Continuous
 62
               7
100
AcDbVertex
100
AcDb2dVertex
 10
0.8289415757492975
 20
1.2725012668459179
 30
0.0
  0
VERTEX
  5
205
100
AcDbEntity
  8
None
370
               5
390
0
  6
Continuous
 62
               7
100
AcDbVertex
100
AcDb2dVertex
 10
1.0789415757492975
 20
1.2725012668459179
 30
0.0
  0
VERTEX
  5
206
100
AcDbEntity
  8
None
370
               5
390
0
  6
Continuous
 62
               7
100
AcDbVertex
100
AcDb2dVertex
 10
1.0789415757492975
 20
0.4725012668459172
 30
0.0
  0
VERTEX
  5
207
100
AcDbEntity
  8
None
370
               5
390
0
  6
Continuous
 62
               7
100
AcDbVertex
100
AcDb2dVertex
 10
0.8289415757492975
 20
0.4725012668459172
 30
0.0
  0
SEQEND
  5
208
100
AcDbEntity
  8
None
370
               5
390
0
  6
Continuous
 62
               7
  0
POLYLINE
  5
209
100
AcDbEntity
  8
None
370
               5
390
0
  6
Continuous
 62
               7
100
AcDb2dPolyline
 66
               1
 10
0.0
 20
0.0
 30
0.0
 70
               1
 75
               5
  0
VERTEX
  5
20A
100
AcDbEntity
  8
None
370
               5
390
0
  6
Continuous
 62
               7
100
AcDbVertex
100
AcDb2dVertex
 10
1.2789415757493146
 20
1.2725012668459179
 30
0.0
  0
VERTEX
  5
20B
100
AcDbEntity
  8
None
370
               5
390
0
  6
Continuous
 62
               7
100
AcDbVertex
100
AcDb2dVertex
 10
1.5289415757493146
 20
1.2725012668459179
 30
0.0
  0
VERTEX
  5
20C
100
AcDbEntity
  8
None
370
               5
390
0
  6
Continuous
 62
               7
100
AcDbVertex
100
AcDb2dVertex
 10
1.5289415757493146
 20
0.4725012668459172
 30
0.0
  0
VERTEX
  5
20D
100
AcDbEntity
  8
None
370
               5
390
0
  6
Continuous
 62
               7
100
AcDbVertex
100
AcDb2dVertex
 10
1.2789415757493146
 20
0.4725012668459172
 30
0.0
  0
SEQEND
  5
20E
100
AcDbEntity
  8
None
370
               5
390
0
  6
Continuous
 62
               7
  0
POLYLINE
  5
20F
100
AcDbEntity
  8
None
370
               5
390
0
  6
Continuous
 62
               7
100
AcDb2dPolyline
 66
               1
 10
0.0
 20
0.0
 30
0.0
 70
               1
 75
               5
  0
VERTEX
  5
210
100
AcDbEntity
  8
None
370
               5
390
0
  6
Continuous
 62
               7
100
AcDbVertex
100
AcDb2dVertex
 10
1.7289415757493032
 20
1.2725012668459179
 30
0.0
  0
VERTEX
  5
211
100
AcDbEntity
  8
None
370
               5
390
0
  6
Continuous
 62
               7
100
AcDbVertex
100
AcDb2dVertex
 10
1.9789415757493032
 20
1.2725012668459179
 30
0.0
  0
VERTEX
  5
212
100
AcDbEntity
  8
None
370
               5
390
0
  6
Continuous
 62
               7
100
AcDbVertex
100
AcDb2dVertex
 10
1.9789415757493032
 20
0.4725012668459172
 30
0.0
  0
VERTEX
  5
213
100
AcDbEntity
  8
None
370
               5
390
0
  6
Continuous
 62
               7
100
AcDbVertex
100
AcDb2dVertex
 10
1.7289415757493032
 20
0.4725012668459172
 30
0.0
  0
SEQEND
  5
214
100
AcDbEntity
  8
None
370
               5
390
0
  6
Continuous
 62
               7
  0
POLYLINE
  5
215
100
AcDbEntity
  8
None
370
               5
390
0
  6
Continuous
 62
               7
100
AcDb2dPolyline
 66
               1
 10
0.0
 20
0.0
 30
0.0
 70
               1
 75
               5
  0
VERTEX
  5
216
100
AcDbEntity
  8
None
370
               5
390
0
  6
Continuous
 62
               7
100
AcDbVertex
100
AcDb2dVertex
 10
2.1789415757493202
 20
1.2725012668459179
 30
0.0
  0
VERTEX
  5
217
100
AcDbEntity
  8
None
370
               5
390
0
  6
Continuous
 62
               7
100
AcDbVertex
100
AcDb2dVertex
 10
2.4289415757493202
 20
1.2725012668459179
 30
0.0
  0
VERTEX
  5
218
100
AcDbEntity
  8
None
370
               5
390
0
  6
Continuous
 62
               7
100
AcDbVertex
100
AcDb2dVertex
 10
2.4289415757493202
 20
0.4725012668459172
 30
0.0
  0
VERTEX
  5
219
100
AcDbEntity
  8
None
370
               5
390
0
  6
Continuous
 62
               7
100
AcDbVertex
100
AcDb2dVertex
 10
2.1789415757493202
 20
0.4725012668459172
 30
0.0
  0
SEQEND
  5
21A
100
AcDbEntity
  8
None
370
               5
390
0
  6
Continuous
 62
               7
  0
POLYLINE
  5
21B
100
AcDbEntity
  8
None
370
               5
390
0
  6
Continuous
 62
               7
100
AcDb2dPolyline
 66
               1
 10
0.0
 20
0.0
 30
0.0
 70
               1
 75
               5
  0
VERTEX
  5
21C
100
AcDbEntity
  8
None
370
               5
390
0
  6
Continuous
 62
               7
100
AcDbVertex
100
AcDb2dVertex
 10
2.6289415757493089
 20
1.2725012668459179
 30
0.0
  0
VERTEX
  5
21D
100
AcDbEntity
  8
None
370
               5
390
0
  6
Continuous
 62
               7
100
AcDbVertex
100
AcDb2dVertex
 10
2.8789415757493089
 20
1.2725012668459179
 30
0.0
  0
VERTEX
  5
21E
100
AcDbEntity
  8
None
370
               5
390
0
  6
Continuous
 62
               7
100
AcDbVertex
100
AcDb2dVertex
 10
2.8789415757493089
 20
0.4725012668459172
 30
0.0
  0
VERTEX
  5
21F
100
AcDbEntity
  8
None
370
               5
390
0
  6
Continuous
 62
               7
100
AcDbVertex
100
AcDb2dVertex
 10
2.6289415757493089
 20
0.4725012668459172
 30
0.0
  0
SEQEND
  5
220
100
AcDbEntity
  8
None
370
               5
390
0
  6
Continuous
 62
               7
  0
POLYLINE
  5
221
100
AcDbEntity
  8
None
370
               5
390
0
  6
Continuous
 62
               7
100
AcDb2dPolyline
 66
               1
 10
0.0
 20
0.0
 30
0.0
 70
               1
 75
               5
  0
VERTEX
  5
222
100
AcDbEntity
  8
None
370
               5
390
0
  6
Continuous
 62
               7
100
AcDbVertex
100
AcDb2dVertex
 10
3.0789415757492975
 20
1.2725012668459179
 30
0.0
  0
VERTEX
  5
223
100
AcDbEntity
  8
None
370
               5
390
0
  6
Continuous
 62
               7
100
AcDbVertex
100
AcDb2dVertex
 10
3.3289415757492975
 20
1.2725012668459179
 30
0.0
  0
VERTEX
  5
224
100
AcDbEntity
  8
None
370
               5
390
0
  6
Continuous
 62
               7
100
AcDbVertex
100
AcDb2dVertex
 10
3.3289415757492975
 20
0.4725012668459172
 30
0.0
  0
VERTEX
  5
225
100
AcDbEntity
  8
None
370
               5
390
0
  6
Continuous
 62
               7
100
AcDbVertex
100
AcDb2dVertex
 10
3.0789415757492975
 20
0.4725012668459172
 30
0.0
  0
SEQEND
  5
226
100
AcDbEntity
  8
None
370
               5
390
0
  6
Continuous
 62
               7
  0
POLYLINE
  5
227
100
AcDbEntity
  8
None
370
               5
390
0
  6
Continuous
 62
               7
100
AcDb2dPolyline
 66
               1
 10
0.0
 20
0.0
 30
0.0
 70
               1
 75
               5
  0
VERTEX
  5
228
100
AcDbEntity
  8
None
370
               5
390
0
  6
Continuous
 62
               7
100
AcDbVertex
100
AcDb2dVertex
 10
3.5289415757493146
 20
1.2725012668459179
 30
0.0
  0
VERTEX
  5
229
100
AcDbEntity
  8
None
370
               5
390
0
  6
Continuous
 62
               7
100
AcDbVertex
100
AcDb2dVertex
 10
3.7789415757493146
 20
1.2725012668459179
 30
0.0
  0
VERTEX
  5
22A
100
AcDbEntity
  8
None
370
               5
390
0
  6
Continuous
 62
               7
100
AcDbVertex
100
AcDb2dVertex
 10
3.7789415757493146
 20
0.4725012668459172
 30
0.0
  0
VERTEX
  5
22B
100
AcDbEntity
  8
None
370
               5
390
0
  6
Continuous
 62
               7
100
AcDbVertex
100
AcDb2dVertex
 10
3.5289415757493146
 20
0.4725012668459172
 30
0.0
  0
SEQEND
  5
22C
100
AcDbEntity
  8
None
370
               5
390
0
  6
Continuous
 62
               7
  0
POLYLINE
  5
22D
100
AcDbEntity
  8
None
370
               5
390
0
  6
Continuous
 62
               7
100
AcDb2dPolyline
 66
               1
 10
0.0
 20
0.0
 30
0.0
 70
               1
 75
               5
  0
VERTEX
  5
22E
100
AcDbEntity
  8
None
370
               5
390
0
  6
Continuous
 62
               7
100
AcDbVertex
100
AcDb2dVertex
 10
3.9789415757493032
 20
1.2725012668459179
 30
0.0
  0
VERTEX
  5
22F
100
AcDbEntity
  8
None
370
               5
390
0
  6
Continuous
 62
               7
100
AcDbVertex
100
AcDb2dVertex
 10
4.2289415757493032
 20
1.2725012668459179
 30
0.0
  0
VERTEX
  5
230
100
AcDbEntity
  8
None
370
               5
390
0
  6
Continuous
 62
               7
100
AcDbVertex
100
AcDb2dVertex
 10
4.2289415757493032
 20
0.4725012668459172
 30
0.0
  0
VERTEX
  5
231
100
AcDbEntity
  8
None
370
               5
390
0
  6
Continuous
 62
               7
100
AcDbVertex
100
AcDb2dVertex
 10
3.9789415757493032
 20
0.4725012668459172
 30
0.0
  0
SEQEND
  5
232
100
AcDbEntity
  8
None
370
               5
390
0
  6
Continuous
 62
               7
  0
POLYLINE
  5
233
100
AcDbEntity
  8
None
370
               5
390
0
  6
Continuous
 62
               7
100
AcDb2dPolyline
 66
               1
 10
0.0
 20
0.0
 30
0.0
 70
               1
 75
               5
  0
VERTEX
  5
234
100
AcDbEntity
  8
None
370
               5
390
0
  6
Continuous
 62
               7
100
AcDbVertex
100
AcDb2dVertex
 10
4.4289415757493202
 20
1.2725012668459179
 30
0.0
  0
VERTEX
  5
235
100
AcDbEntity
  8
None
370
               5
390
0
  6
Continuous
 62
               7
100
AcDbVertex
100
AcDb2dVertex
 10
4.6789415757493202
 20
1.2725012668459179
 30
0.0
  0
VERTEX
  5
236
100
AcDbEntity
  8
None
370
               5
390
0
  6
Continuous
 62
               7
100
AcDbVertex
100
AcDb2dVertex
 10
4.6789415757493202
 20
0.4725012668459172
 30
0.0
  0
VERTEX
  5
237
100
AcDbEntity
  8
None
370
               5
390
0
  6
Continuous
 62
               7
100
AcDbVertex
100
AcDb2dVertex
 10
4.4289415757493202
 20
0.4725012668459172
 30
0.0
  0
SEQEND
  5
238
100
AcDbEntity
  8
None
370
               5
390
0
  6
Continuous
 62
               7
  0
POLYLINE
  5
239
100
AcDbEntity
  8
None
370
               5
390
0
  6
Continuous
 62
               7
100
AcDb2dPolyline
 66
               1
 10
0.0
 20
0.0
 30
0.0
 70
               1
 75
               5
  0
VERTEX
  5
23A
100
AcDbEntity
  8
None
370
               5
390
0
  6
Continuous
 62
               7
100
AcDbVertex
100
AcDb2dVertex
 10
4.8789415757493089
 20
1.2725012668459179
 30
0.0
  0
VERTEX
  5
23B
100
AcDbEntity
  8
None
370
               5
390
0
  6
Continuous
 62
               7
100
AcDbVertex
100
AcDb2dVertex
 10
5.1289415757493089
 20
1.2725012668459179
 30
0.0
  0
VERTEX
  5
23C
100
AcDbEntity
  8
None
370
               5
390
0
  6
Continuous
 62
               7
100
AcDbVertex
100
AcDb2dVertex
 10
5.1289415757493089
 20
0.4725012668459172
 30
0.0
  0
VERTEX
  5
23D
100
AcDbEntity
  8
None
370
               5
390
0
  6
Continuous
 62
               7
100
AcDbVertex
100
AcDb2dVertex
 10
4.8789415757493089
 20
0.4725012668459172
 30
0.0
  0
SEQEND
  5
23E
100
AcDbEntity
  8
None
370
               5
390
0
  6
Continuous
 62
               7
  0
POLYLINE
  5
23F
100
AcDbEntity
  8
None
370
               5
390
0
  6
Continuous
 62
               7
100
AcDb2dPolyline
 66
               1
 10
0.0
 20
0.0
 30
0.0
 70
               1
 75
               5
  0
VERTEX
  5
240
100
AcDbEntity
  8
None
370
               5
390
0
  6
Continuous
 62
               7
100
AcDbVertex
100
AcDb2dVertex
 10
5.3289415757492975
 20
1.2725012668459179
 30
0.0
  0
VERTEX
  5
241
100
AcDbEntity
  8
None
370
               5
390
0
  6
Continuous
 62
               7
100
AcDbVertex
100
AcDb2dVertex
 10
5.5789415757492975
 20
1.2725012668459179
 30
0.0
  0
VERTEX
  5
242
100
AcDbEntity
  8
None
370
               5
390
0
  6
Continuous
 62
               7
100
AcDbVertex
100
AcDb2dVertex
 10
5.5789415757492975
 20
0.4725012668459172
 30
0.0
  0
VERTEX
  5
243
100
AcDbEntity
  8
None
370
               5
390
0
  6
Continuous
 62
               7
100
AcDbVertex
100
AcDb2dVertex
 10
5.3289415757492975
 20
0.4725012668459172
 30
0.0
  0
SEQEND
  5
244
100
AcDbEntity
  8
None
370
               5
390
0
  6
Continuous
 62
               7
  0
POLYLINE
  5
245
100
AcDbEntity
  8
None
370
               5
390
0
  6
Continuous
 62
               7
100
AcDb2dPolyline
 66
               1
 10
0.0
 20
0.0
 30
0.0
 70
               1
 75
               5
  0
VERTEX
  5
246
100
AcDbEntity
  8
None
370
               5
390
0
  6
Continuous
 62
               7
100
AcDbVertex
100
AcDb2dVertex
 10
5.7789415757493146
 20
1.2725012668459179
 30
0.0
  0
VERTEX
  5
247
100
AcDbEntity
  8
None
370
               5
390
0
  6
Continuous
 62
               7
100
AcDbVertex
100
AcDb2dVertex
 10
6.0289415757493146
 20
1.2725012668459179
 30
0.0
  0
VERTEX
  5
248
100
AcDbEntity
  8
None
370
               5
390
0
  6
Continuous
 62
               7
100
AcDbVertex
100
AcDb2dVertex
 10
6.0289415757493146
 20
0.4725012668459172
 30
0.0
  0
VERTEX
  5
249
100
AcDbEntity
  8
None
370
               5
390
0
  6
Continuous
 62
               7
100
AcDbVertex
100
AcDb2dVertex
 10
5.7789415757493146
 20
0.4725012668459172
 30
0.0
  0
SEQEND
  5
24A
100
AcDbEntity
  8
None
370
               5
390
0
  6
Continuous
 62
               7
  0
POLYLINE
  5
24B
100
AcDbEntity
  8
None
370
               5
390
0
  6
Continuous
 62
               7
100
AcDb2dPolyline
 66
               1
 10
0.0
 20
0.0
 30
0.0
 70
               1
 75
               5
  0
VERTEX
  5
24C
100
AcDbEntity
  8
None
370
               5
390
0
  6
Continuous
 62
               7
100
AcDbVertex
100
AcDb2dVertex
 10
6.2289415757493032
 20
1.2725012668459179
 30
0.0
  0
VERTEX
  5
24D
100
AcDbEntity
  8
None
370
               5
390
0
  6
Continuous
 62
               7
100
AcDbVertex
100
AcDb2dVertex
 10
6.4789415757493032
 20
1.2725012668459179
 30
0.0
  0
VERTEX
  5
24E
100
AcDbEntity
  8
None
370
               5
390
0
  6
Continuous
 62
               7
100
AcDbVertex
100
AcDb2dVertex
 10
6.4789415757493032
 20
0.4725012668459172
 30
0.0
  0
VERTEX
  5
24F
100
AcDbEntity
  8
None
370
               5
390
0
  6
Continuous
 62
               7
100
AcDbVertex
100
AcDb2dVertex
 10
6.2289415757493032
 20
0.4725012668459172
 30
0.0
  0
SEQEND
  5
250
100
AcDbEntity
  8
None
370
               5
390
0
  6
Continuous
 62
               7
  0
POLYLINE
  5
251
100
AcDbEntity
  8
Dimension
370
               5
390
0
  6
Continuous
 62
               7
100
AcDb2dPolyline
 66
               1
 10
0.0
 20
0.0
 30
0.0
 70
               1
 75
               5
  0
VERTEX
  5
252
100
AcDbEntity
  8
Dimension
370
               5
390
0
  6
Continuous
 62
               7
100
AcDbVertex
100
AcDb2dVertex
 10
6.7289415757493032
 20
7.6225012668459158
 30
0.0
  0
VERTEX
  5
253
100
AcDbEntity
  8
Dimension
370
               5
390
0
  6
Continuous
 62
               7
100
AcDbVertex
100
AcDb2dVertex
 10
7.5289415757493146
 20
7.6225012668459158
 30
0.0
  0
VERTEX
  5
254
100
AcDbEntity
  8
Dimension
370
               5
390
0
  6
Continuous
 62
               7
100
AcDbVertex
100
AcDb2dVertex
 10
7.5289415757493146
 20
7.3725012668459158
 30
0.0
  0
VERTEX
  5
255
100
AcDbEntity
  8
Dimension
370
               5
390
0
  6
Continuous
 62
               7
100
AcDbVertex
100
AcDb2dVertex
 10
6.7289415757493032
 20
7.3725012668459158
 30
0.0
  0
SEQEND
  5
256
100
AcDbEntity
  8
Dimension
370
               5
390
0
  6
Continuous
 62
               7
  0
POLYLINE
  5
257
100
AcDbEntity
  8
Dimension
370
               5
390
0
  6
Continuous
 62
               7
100
AcDb2dPolyline
 66
               1
 10
0.0
 20
0.0
 30
0.0
 70
               1
 75
               5
  0
VERTEX
  5
258
100
AcDbEntity
  8
Dimension
370
               5
390
0
  6
Continuous
 62
               7
100
AcDbVertex
100
AcDb2dVertex
 10
6.7289415757493032
 20
7.1725012668459156
 30
0.0
  0
VERTEX
  5
259
100
AcDbEntity
  8
Dimension
370
               5
390
0
  6
Continuous
 62
               7
100
AcDbVertex
100
AcDb2dVertex
 10
7.5289415757493146
 20
7.1725012668459156
 30
0.0
  0
VERTEX
  5
25A
100
AcDbEntity
  8
Dimension
370
               5
390
0
  6
Continuous
 62
               7
100
AcDbVertex
100
AcDb2dVertex
 10
7.5289415757493146
 20
6.9225012668459156
 30
0.0
  0
VERTEX
  5
25B
100
AcDbEntity
  8
Dimension
370
               5
390
0
  6
Continuous
 62
               7
100
AcDbVertex
100
AcDb2dVertex
 10
6.7289415757493032
 20
6.9225012668459156
 30
0.0
  0
SEQEND
  5
25C
100
AcDbEntity
  8
Dimension
370
               5
390
0
  6
Continuous
 62
               7
  0
POLYLINE
  5
25D
100
AcDbEntity
  8
Dimension
370
               5
390
0
  6
Continuous
 62
               7
100
AcDb2dPolyline
 66
               1
 10
0.0
 20
0.0
 30
0.0
 70
               1
 75
               5
  0
VERTEX
  5
25E
100
AcDbEntity
  8
Dimension
370
               5
390
0
  6
Continuous
 62
               7
100
AcDbVertex
100
AcDb2dVertex
 10
6.7289415757493032
 20
6.7225012668459154
 30
0.0
  0
VERTEX
  5
25F
100
AcDbEntity
  8
Dimension
370
               5
390
0
  6
Continuous
 62
               7
100
AcDbVertex
100
AcDb2dVertex
 10
7.5289415757493146
 20
6.7225012668459154
 30
0.0
  0
VERTEX
  5
260
100
AcDbEntity
  8
Dimension
370
               5
390
0
  6
Continuous
 62
               7
100
AcDbVertex
100
AcDb2dVertex
 10
7.5289415757493146
 20
6.4725012668459154
 30
0.0
  0
VERTEX
  5
261
100
AcDbEntity
  8
Dimension
370
               5
390
0
  6
Continuous
 62
               7
100
AcDbVertex
100
AcDb2dVertex
 10
6.7289415757493032
 20
6.4725012668459154
 30
0.0
  0
SEQEND
  5
262
100
AcDbEntity
  8
Dimension
370
               5
390
0
  6
Continuous
 62
               7
  0
POLYLINE
  5
263
100
AcDbEntity
  8
Dimension
370
               5
390
0
  6
Continuous
 62
               7
100
AcDb2dPolyline
 66
               1
 10
0.0
 20
0.0
 30
0.0
 70
               1
 75
               5
  0
VERTEX
  5
264
100
AcDbEntity
  8
Dimension
370
               5
390
0
  6
Continuous
 62
               7
100
AcDbVertex
100
AcDb2dVertex
 10
6.7289415757493032
 20
6.2725012668459161
 30
0.0
  0
VERTEX
  5
265
100
AcDbEntity
  8
Dimension
370
               5
390
0
  6
Continuous
 62
               7
100
AcDbVertex
100
AcDb2dVertex
 10
7.5289415757493146
 20
6.2725012668459161
 30
0.0
  0
VERTEX
  5
266
100
AcDbEntity
  8
Dimension
370
               5
390
0
  6
Continuous
 62
               7
100
AcDbVertex
100
AcDb2dVertex
 10
7.5289415757493146
 20
6.0225012668459161
 30
0.0
  0
VERTEX
  5
267
100
AcDbEntity
  8
Dimension
370
               5
390
0
  6
Continuous
 62
               7
100
AcDbVertex
100
AcDb2dVertex
 10
6.7289415757493032
 20
6.0225012668459161
 30
0.0
  0
SEQEND
  5
268
100
AcDbEntity
  8
Dimension
370
               5
390
0
  6
Continuous
 62
               7
  0
POLYLINE
  5
269
100
AcDbEntity
  8
Dimension
370
               5
390
0
  6
Continuous
 62
               7
100
AcDb2dPolyline
 66
               1
 10
0.0
 20
0.0
 30
0.0
 70
               1
 75
               5
  0
VERTEX
  5
26A
100
AcDbEntity
  8
Dimension
370
               5
390
0
  6
Continuous
 62
               7
100
AcDbVertex
100
AcDb2dVertex
 10
6.7289415757493032
 20
5.822501266845916
 30
0.0
  0
VERTEX
  5
26B
100
AcDbEntity
  8
Dimension
370
               5
390
0
  6
Continuous
 62
               7
100
AcDbVertex
100
AcDb2dVertex
 10
7.5289415757493146
 20
5.822501266845916
 30
0.0
  0
VERTEX
  5
26C
100
AcDbEntity
  8
Dimension
370
               5
390
0
  6
Continuous
 62
               7
100
AcDbVertex
100
AcDb2dVertex
 10
7.5289415757493146
 20
5.572501266845916
 30
0.0
  0
VERTEX
  5
26D
100
AcDbEntity
  8
Dimension
370
               5
390
0
  6
Continuous
 62
               7
100
AcDbVertex
100
AcDb2dVertex
 10
6.7289415757493032
 20
5.572501266845916
 30
0.0
  0
SEQEND
  5
26E
100
AcDbEntity
  8
Dimension
370
               5
390
0
  6
Continuous
 62
               7
  0
POLYLINE
  5
26F
100
AcDbEntity
  8
Dimension
370
               5
390
0
  6
Continuous
 62
               7
100
AcDb2dPolyline
 66
               1
 10
0.0
 20
0.0
 30
0.0
 70
               1
 75
               5
  0
VERTEX
  5
270
100
AcDbEntity
  8
Dimension
370
               5
390
0
  6
Continuous
 62
               7
100
AcDbVertex
100
AcDb2dVertex
 10
6.7289415757493032
 20
5.3725012668459158
 30
0.0
  0
VERTEX
  5
271
100
AcDbEntity
  8
Dimension
370
               5
390
0
  6
Continuous
 62
               7
100
AcDbVertex
100
AcDb2dVertex
 10
7.5289415757493146
 20
5.3725012668459158
 30
0.0
  0
VERTEX
  5
272
100
AcDbEntity
  8
Dimension
370
               5
390
0
  6
Continuous
 62
               7
100
AcDbVertex
100
AcDb2dVertex
 10
7.5289415757493146
 20
5.1225012668459158
 30
0.0
  0
VERTEX
  5
273
100
AcDbEntity
  8
Dimension
370
               5
390
0
  6
Continuous
 62
               7
100
AcDbVertex
100
AcDb2dVertex
 10
6.7289415757493032
 20
5.1225012668459158
 30
0.0
  0
SEQEND
  5
274
100
AcDbEntity
  8
Dimension
370
               5
390
0
  6
Continuous
 62
               7
  0
POLYLINE
  5
275
100
AcDbEntity
  8
Dimension
370
               5
390
0
  6
Continuous
 62
               7
100
AcDb2dPolyline
 66
               1
 10
0.0
 20
0.0
 30
0.0
 70
               1
 75
               5
  0
VERTEX
  5
276
100
AcDbEntity
  8
Dimension
370
               5
390
0
  6
Continuous
 62
               7
100
AcDbVertex
100
AcDb2dVertex
 10
6.7289415757493032
 20
4.9225012668459156
 30
0.0
  0
VERTEX
  5
277
100
AcDbEntity
  8
Dimension
370
               5
390
0
  6
Continuous
 62
               7
100
AcDbVertex
100
AcDb2dVertex
 10
7.5289415757493146
 20
4.9225012668459156
 30
0.0
  0
VERTEX
  5
278
100
AcDbEntity
  8
Dimension
370
               5
390
0
  6
Continuous
 62
               7
100
AcDbVertex
100
AcDb2dVertex
 10
7.5289415757493146
 20
4.6725012668459156
 30
0.0
  0
VERTEX
  5
279
100
AcDbEntity
  8
Dimension
370
               5
390
0
  6
Continuous
 62
               7
100
AcDbVertex
100
AcDb2dVertex
 10
6.7289415757493032
 20
4.6725012668459156
 30
0.0
  0
SEQEND
  5
27A
100
AcDbEntity
  8
Dimension
370
               5
390
0
  6
Continuous
 62
               7
  0
POLYLINE
  5
27B
100
AcDbEntity
  8
Dimension
370
               5
390
0
  6
Continuous
 62
               7
100
AcDb2dPolyline
 66
               1
 10
0.0
 20
0.0
 30
0.0
 70
               1
 75
               5
  0
VERTEX
  5
27C
100
AcDbEntity
  8
Dimension
370
               5
390
0
  6
Continuous
 62
               7
100
AcDbVertex
100
AcDb2dVertex
 10
6.7289415757493032
 20
4.4725012668459154
 30
0.0
  0
VERTEX
  5
27D
100
AcDbEntity
  8
Dimension
370
               5
390
0
  6
Continuous
 62
               7
100
AcDbVertex
100
AcDb2dVertex
 10
7.5289415757493146
 20
4.4725012668459154
 30
0.0
  0
VERTEX
  5
27E
100
AcDbEntity
  8
Dimension
370
               5
390
0
  6
Continuous
 62
               7
100
AcDbVertex
100
AcDb2dVertex
 10
7.5289415757493146
 20
4.2225012668459154
 30
0.0
  0
VERTEX
  5
27F
100
AcDbEntity
  8
Dimension
370
               5
390
0
  6
Continuous
 62
               7
100
AcDbVertex
100
AcDb2dVertex
 10
6.7289415757493032
 20
4.2225012668459154
 30
0.0
  0
SEQEND
  5
280
100
AcDbEntity
  8
Dimension
370
               5
390
0
  6
Continuous
 62
               7
  0
POLYLINE
  5
281
100
AcDbEntity
  8
Dimension
370
               5
390
0
  6
Continuous
 62
               7
100
AcDb2dPolyline
 66
               1
 10
0.0
 20
0.0
 30
0.0
 70
               1
 75
               5
  0
VERTEX
  5
282
100
AcDbEntity
  8
Dimension
370
               5
390
0
  6
Continuous
 62
               7
100
AcDbVertex
100
AcDb2dVertex
 10
6.7289415757493032
 20
4.0225012668459152
 30
0.0
  0
VERTEX
  5
283
100
AcDbEntity
  8
Dimension
370
               5
390
0
  6
Continuous
 62
               7
100
AcDbVertex
100
AcDb2dVertex
 10
7.5289415757493146
 20
4.0225012668459152
 30
0.0
  0
VERTEX
  5
284
100
AcDbEntity
  8
Dimension
370
               5
390
0
  6
Continuous
 62
               7
100
AcDbVertex
100
AcDb2dVertex
 10
7.5289415757493146
 20
3.7725012668459152
 30
0.0
  0
VERTEX
  5
285
100
AcDbEntity
  8
Dimension
370
               5
390
0
  6
Continuous
 62
               7
100
AcDbVertex
100
AcDb2dVertex
 10
6.7289415757493032
 20
3.7725012668459152
 30
0.0
  0
SEQEND
  5
286
100
AcDbEntity
  8
Dimension
370
               5
390
0
  6
Continuous
 62
               7
  0
POLYLINE
  5
287
100
AcDbEntity
  8
Dimension
370
               5
390
0
  6
Continuous
 62
               7
100
AcDb2dPolyline
 66
               1
 10
0.0
 20
0.0
 30
0.0
 70
               1
 75
               5
  0
VERTEX
  5
288
100
AcDbEntity
  8
Dimension
370
               5
390
0
  6
Continuous
 62
               7
100
AcDbVertex
100
AcDb2dVertex
 10
6.7289415757493032
 20
3.5725012668459151
 30
0.0
  0
VERTEX
  5
289
100
AcDbEntity
  8
Dimension
370
               5
390
0
  6
Continuous
 62
               7
100
AcDbVertex
100
AcDb2dVertex
 10
7.5289415757493146
 20
3.5725012668459151
 30
0.0
  0
VERTEX
  5
28A
100
AcDbEntity
  8
Dimension
370
               5
390
0
  6
Continuous
 62
               7
100
AcDbVertex
100
AcDb2dVertex
 10
7.5289415757493146
 20
3.3225012668459151
 30
0.0
  0
VERTEX
  5
28B
100
AcDbEntity
  8
Dimension
370
               5
390
0
  6
Continuous
 62
               7
100
AcDbVertex
100
AcDb2dVertex
 10
6.7289415757493032
 20
3.3225012668459151
 30
0.0
  0
SEQEND
  5
28C
100
AcDbEntity
  8
Dimension
370
               5
390
0
  6
Continuous
 62
               7
  0
POLYLINE
  5
28D
100
AcDbEntity
  8
Dimension
370
               5
390
0
  6
Continuous
 62
               7
100
AcDb2dPolyline
 66
               1
 10
0.0
 20
0.0
 30
0.0
 70
               1
 75
               5
  0
VERTEX
  5
28E
100
AcDbEntity
  8
Dimension
370
               5
390
0
  6
Continuous
 62
               7
100
AcDbVertex
100
AcDb2dVertex
 10
6.7289415757493032
 20
3.1225012668459149
 30
0.0
  0
VERTEX
  5
28F
100
AcDbEntity
  8
Dimension
370
               5
390
0
  6
Continuous
 62
               7
100
AcDbVertex
100
AcDb2dVertex
 10
7.5289415757493146
 20
3.1225012668459149
 30
0.0
  0
VERTEX
  5
290
100
AcDbEntity
  8
Dimension
370
               5
390
0
  6
Continuous
 62
               7
100
AcDbVertex
100
AcDb2dVertex
 10
7.5289415757493146
 20
2.8725012668459149
 30
0.0
  0
VERTEX
  5
291
100
AcDbEntity
  8
Dimension
370
               5
390
0
  6
Continuous
 62
               7
100
AcDbVertex
100
AcDb2dVertex
 10
6.7289415757493032
 20
2.8725012668459149
 30
0.0
  0
SEQEND
  5
292
100
AcDbEntity
  8
Dimension
370
               5
390
0
  6
Continuous
 62
               7
  0
POLYLINE
  5
293
100
AcDbEntity
  8
Dimension
370
               5
390
0
  6
Continuous
 62
               7
100
AcDb2dPolyline
 66
               1
 10
0.0
 20
0.0
 30
0.0
 70
               1
 75
               5
  0
VERTEX
  5
294
100
AcDbEntity
  8
Dimension
370
               5
390
0
  6
Continuous
 62
               7
100
AcDbVertex
100
AcDb2dVertex
 10
6.7289415757493032
 20
2.6725012668459147
 30
0.0
  0
VERTEX
  5
295
100
AcDbEntity
  8
Dimension
370
               5
390
0
  6
Continuous
 62
               7
100
AcDbVertex
100
AcDb2dVertex
 10
7.5289415757493146
 20
2.6725012668459147
 30
0.0
  0
VERTEX
  5
296
100
AcDbEntity
  8
Dimension
370
               5
390
0
  6
Continuous
 62
               7
100
AcDbVertex
100
AcDb2dVertex
 10
7.5289415757493146
 20
2.4225012668459147
 30
0.0
  0
VERTEX
  5
297
100
AcDbEntity
  8
Dimension
370
               5
390
0
  6
Continuous
 62
               7
100
AcDbVertex
100
AcDb2dVertex
 10
6.7289415757493032
 20
2.4225012668459147
 30
0.0
  0
SEQEND
  5
298
100
AcDbEntity
  8
Dimension
370
               5
390
0
  6
Continuous
 62
               7
  0
POLYLINE
  5
299
100
AcDbEntity
  8
Dimension
370
               5
390
0
  6
Continuous
 62
               7
100
AcDb2dPolyline
 66
               1
 10
0.0
 20
0.0
 30
0.0
 70
               1
 75
               5
  0
VERTEX
  5
29A
100
AcDbEntity
  8
Dimension
370
               5
390
0
  6
Continuous
 62
               7
100
AcDbVertex
100
AcDb2dVertex
 10
6.7289415757493032
 20
2.2225012668459145
 30
0.0
  0
VERTEX
  5
29B
100
AcDbEntity
  8
Dimension
370
               5
390
0
  6
Continuous
 62
               7
100
AcDbVertex
100
AcDb2dVertex
 10
7.5289415757493146
 20
2.2225012668459145
 30
0.0
  0
VERTEX
  5
29C
100
AcDbEntity
  8
Dimension
370
               5
390
0
  6
Continuous
 62
               7
100
AcDbVertex
100
AcDb2dVertex
 10
7.5289415757493146
 20
1.9725012668459145
 30
0.0
  0
VERTEX
  5
29D
100
AcDbEntity
  8
Dimension
370
               5
390
0
  6
Continuous
 62
               7
100
AcDbVertex
100
AcDb2dVertex
 10
6.7289415757493032
 20
1.9725012668459145
 30
0.0
  0
SEQEND
  5
29E
100
AcDbEntity
  8
Dimension
370
               5
390
0
  6
Continuous
 62
               7
  0
POLYLINE
  5
29F
100
AcDbEntity
  8
Dimension
370
               5
390
0
  6
Continuous
 62
               7
100
AcDb2dPolyline
 66
               1
 10
0.0
 20
0.0
 30
0.0
 70
               1
 75
               5
  0
VERTEX
  5
2A0
100
AcDbEntity
  8
Dimension
370
               5
390
0
  6
Continuous
 62
               7
100
AcDbVertex
100
AcDb2dVertex
 10
6.7289415757493032
 20
1.7725012668459144
 30
0.0
  0
VERTEX
  5
2A1
100
AcDbEntity
  8
Dimension
370
               5
390
0
  6
Continuous
 62
               7
100
AcDbVertex
100
AcDb2dVertex
 10
7.5289415757493146
 20
1.7725012668459144
 30
0.0
  0
VERTEX
  5
2A2
100
AcDbEntity
  8
Dimension
370
               5
390
0
  6
Continuous
 62
               7
100
AcDbVertex
100
AcDb2dVertex
 10
7.5289415757493146
 20
1.5225012668459144
 30
0.0
  0
VERTEX
  5
2A3
100
AcDbEntity
  8
Dimension
370
               5
390
0
  6
Continuous
 62
               7
100
AcDbVertex
100
AcDb2dVertex
 10
6.7289415757493032
 20
1.5225012668459144
 30
0.0
  0
SEQEND
  5
2A4
100
AcDbEntity
  8
Dimension
370
               5
390
0
  6
Continuous
 62
               7
  0
DIMENSION
  5
2A5
100
AcDbEntity
  8
Dimension
370
               5
390
0
  6
Continuous
 62
               1
100
AcDbDimension
  2
*D17
 10
8.8086711624153509
 20
-1.4567232895006619
 30
0.0
 11
17.583661488354579
 21
-4.5380975703254416
 31
0.0
 70
               3
 71
               5
 72
               1
 41
1.0
 42
0.0
  3
IE Standard
100
AcDbDiametricDimension
 15
10.274211989083312
 25
-2.1232741768074845
 35
0.0
 40
5.8328114741138508
1001
ACAD
1000
DSTYLE
1002
{
1070
             271
1070
               3
1070
             172
1070
               0
1070
             289
1070
               0
1070
             342
1005
4A
1070
             340
1005
35
1070
             140
1040
0.8421336100260418
1070
              75
1070
               1
1070
              76
1070
               1
1070
              71
1070
               1
1070
              48
1040
0.025
1070
               3
1000
mm(x4)
1070
             174
1070
               0
1070
             147
1040
0.132291534375
1002
}
  0
DIMENSION
  5
2A6
100
AcDbEntity
  8
Dimension
370
               5
390
0
  6
Continuous
 62
               1
100
AcDbDimension
  2
*D18
 10
5.0039415757493089
 20
13.792501266845921
 30
0.0
 11
8.104481575749297
 21
13.792501266845921
 31
0.0
 70
             128
 71
               5
 72
               1
 41
1.0
 42
0.0
  3
IE Standard
100
AcDbAlignedDimension
 13
5.4539415757492975
 23
8.6725012668459236
 33
0.0
 14
5.0039415757493089
 24
8.6725012668459236
 34
0.0
100
AcDbRotatedDimension
1001
ACAD
1000
DSTYLE
1002
{
1070
             271
1070
               2
1070
             340
1005
35
1070
               3
1000
<>mm typ.
1070
             174
1070
               0
1070
             147
1040
0.132291534375
1002
}
  0
INSERT
  5
2A7
100
AcDbEntity
  8
Dimension
390
0
 62
               7
100
AcDbBlockReference
  2
Group
 10
0.0
 20
0.0
 30
0.0
  0
ENDBLK
  5
2A8
100
AcDbEntity
  8
Dimension
390
0
100
AcDbBlockEnd
  0
ENDSEC
  0
SECTION
  2
ENTITIES
  0
INSERT
  5
2A9
100
AcDbEntity
  8
Dimension
390
0
 62
               7
100
AcDbBlockReference
  2
Group-1
 10
0.0
 20
0.0
 30
0.0
  0
ENDSEC
  0
SECTION
  2
OBJECTS
  0
DICTIONARY
  5
19
100
AcDbDictionary
280
               0
281
               1
  3
ACAD_GROUP
350
1A
  3
ACAD_MLINESTYLE
350
1B
  3
ACAD_LAYOUT
350
1E
  3
ACAD_PLOTSETTINGS
350
22
  3
ACAD_PLOTSTYLENAME
350
1F
  0
DICTIONARY
  5
1A
102
{ACAD_REACTORS
330
19
102
}
100
AcDbDictionary
280
               0
281
               1
  0
DICTIONARY
  5
1B
102
{ACAD_REACTORS
330
19
102
}
100
AcDbDictionary
280
               0
281
               1
  3
Standard
350
1C
  0
MLINESTYLE
  5
1C
102
{ACAD_REACTORS
330
1B
102
}
100
AcDbMlineStyle
  2
Standard
 70
               0
  3

 62
               0
 51
90.0
 52
90.0
 71
               2
 49
0.5
 62
             256
  6
ByLayer
 49
-0.5
 62
             256
  6
ByLayer
  0
ACDBDICTIONARYWDFLT
  5
1F
102
{ACAD_REACTORS
330
19
102
}
100
AcDbDictionary
281
               1
  3
Normal
350
1D
100
AcDbDictionaryWithDefault
340
1D
  0
ACDBPLACEHOLDER
  5
1D
102
{ACAD_REACTORS
330
1F
102
}
  0
LAYOUT
  5
20
102
{ACAD_REACTORS
330
1E
102
}
100
AcDbPlotSettings
  1

  2

  4

  6

 40
0.0
 41
0.0
 42
0.0
 43
0.0
 44
0.0
 45
0.0
 46
0.0
 47
0.0
 48
0.0
 49
0.0
140
0.0
141
0.0
142
1.0
143
1.0
 70
            1024
 72
               0
 73
               0
 74
               0
  7

 75
               0
147
1.0
148
0.0
149
0.0
100
AcDbLayout
  1
Model
 70
               0
 71
               0
 10
0.0
 20
0.0
 11
0.0
 21
0.0
 12
0.0
 22
0.0
 32
0.0
 14
0.0
 24
0.0
 34
0.0
 15
0.0
 25
0.0
 35
0.0
146
0.0
 13
0.0
 23
0.0
 33
0.0
 16
0.0
 26
0.0
 36
0.0
 17
0.0
 27
0.0
 37
0.0
 76
               0
330
A
331
0
345
0
346
0
  0
LAYOUT
  5
21
102
{ACAD_REACTORS
330
1E
102
}
100
AcDbPlotSettings
  1

  2

  4

  6

 40
0.0
 41
0.0
 42
0.0
 43
0.0
 44
0.0
 45
0.0
 46
0.0
 47
0.0
 48
0.0
 49
0.0
140
0.0
141
0.0
142
1.0
143
1.0
 70
               0
 72
               0
 73
               0
 74
               0
  7

 75
               0
147
1.0
148
0.0
149
0.0
100
AcDbLayout
  1
Layout1
 70
               0
 71
               0
 10
0.0
 20
0.0
 11
0.0
 21
0.0
 12
0.0
 22
0.0
 32
0.0
 14
0.0
 24
0.0
 34
0.0
 15
0.0
 25
0.0
 35
0.0
146
0.0
 13
0.0
 23
0.0
 33
0.0
 16
0.0
 26
0.0
 36
0.0
 17
0.0
 27
0.0
 37
0.0
 76
               0
330
B
331
0
345
0
346
0
  0
DICTIONARY
  5
1E
102
{ACAD_REACTORS
330
19
102
}
100
AcDbDictionary
280
               0
281
               1
  3
Layout1
350
21
  3
Model
350
20
  0
DICTIONARY
  5
22
102
{ACAD_REACTORS
330
19
102
}
100
AcDbDictionary
280
               0
281
               1
  0
ENDSEC
  0
EOF
