  0
SECTION
  2
HEADER
  9
$ACADVER
  1
AC1015
  9
$ACADMAINTVER
 70
               6
  9
$DWGCODEPAGE
  3
ANSI_1252
  9
$INSBASE
 10
0.0
 20
0.0
 30
0.0
  9
$EXTMIN
 10
-17.318150884060014
 20
-187.27419560234
 30
-1.01482305925
  9
$EXTMAX
 10
68.15452258481902
 20
-125.69985717673998
 30
1.01482305925
  9
$LIMMIN
 10
0.0
 20
0.0
  9
$LIMMAX
 10
0.0
 20
0.0
  9
$ORTHOMODE
 70
               0
  9
$REGENMODE
 70
               1
  9
$FILLMODE
 70
               1
  9
$QTEXTMODE
 70
               0
  9
$MIRRTEXT
 70
               1
  9
$LTSCALE
 40
8.4666582000000012
  9
$ATTMODE
 70
               1
  9
$TEXTSIZE
 40
0.2
  9
$TRACEWID
 40
1.0
  9
$TEXTSTYLE
  7
Standard
  9
$CLAYER
  8
None
  9
$CELTYPE
  6
Continuous
  9
$CECOLOR
 62
             256
  9
$CELTSCALE
 40
1.0
  9
$DISPSILH
 70
               0
  9
$DIMSCALE
 40
1.0
  9
$DIMASZ
 40
1.0583322750000002
  9
$DIMEXO
 40
0.634999366577038
  9
$DIMDLI
 40
6.9999859934672708
  9
$DIMRND
 40
0.0
  9
$DIMDLE
 40
0.0
  9
$DIMEXE
 40
1.2699987331540761
  9
$DIMTP
 40
0.0
  9
$DIMTM
 40
0.0
  9
$DIMTXT
 40
0.7579186197916666
  9
$DIMCEN
 40
0.0
  9
$DIMTSZ
 40
0.0
  9
$DIMTOL
 70
               0
  9
$DIMLIM
 70
               0
  9
$DIMTIH
 70
               1
  9
$DIMTOH
 70
               1
  9
$DIMSE1
 70
               0
  9
$DIMSE2
 70
               0
  9
$DIMTAD
 70
               0
  9
$DIMZIN
 70
              11
  9
$DIMBLK
  1
VW_FILLEDARROW
  9
$DIMASO
 70
               1
  9
$DIMSHO
 70
               1
  9
$DIMPOST
  1
<>mm
  9
$DIMAPOST
  1
[]"
  9
$DIMALT
 70
               0
  9
$DIMALTD
 70
               3
  9
$DIMALTF
 40
0.0393700787401575
  9
$DIMLFAC
 40
1.0
  9
$DIMTOFL
 70
               1
  9
$DIMTVP
 40
0.0
  9
$DIMTIX
 70
               1
  9
$DIMSOXD
 70
               0
  9
$DIMSAH
 70
               0
  9
$DIMBLK1
  1

  9
$DIMBLK2
  1

  9
$DIMSTYLE
  2
IE Standard
  9
$DIMCLRD
 70
               0
  9
$DIMCLRE
 70
               0
  9
$DIMCLRT
 70
               0
  9
$DIMTFAC
 40
1.0
  9
$DIMGAP
 40
0.0
  9
$DIMJUST
 70
               0
  9
$DIMSD1
 70
               0
  9
$DIMSD2
 70
               0
  9
$DIMTOLJ
 70
               1
  9
$DIMTZIN
 70
              11
  9
$DIMALTZ
 70
               3
  9
$DIMALTTZ
 70
               3
  9
$DIMUPT
 70
               0
  9
$DIMDEC
 70
               2
  9
$DIMTDEC
 70
               2
  9
$DIMALTU
 70
               2
  9
$DIMALTTD
 70
               2
  9
$DIMTXSTY
  7
Helvetica
  9
$DIMAUNIT
 70
               0
  9
$DIMADEC
 70
               0
  9
$DIMALTRND
 40
0.0
  9
$DIMAZIN
 70
               0
  9
$DIMDSEP
 70
              46
  9
$DIMATFIT
 70
               0
  9
$DIMFRAC
 70
               2
  9
$DIMLDRBLK
  1

  9
$DIMLUNIT
 70
               2
  9
$DIMLWD
 70
              -2
  9
$DIMLWE
 70
              -2
  9
$DIMTMOVE
 70
               0
  9
$LUNITS
 70
               2
  9
$LUPREC
 70
               4
  9
$SKETCHINC
 40
0.1
  9
$FILLETRAD
 40
0.0
  9
$AUNITS
 70
               0
  9
$AUPREC
 70
               0
  9
$MENU
  1
acad
  9
$ELEVATION
 40
0.0
  9
$PELEVATION
 40
0.0
  9
$THICKNESS
 40
0.0
  9
$LIMCHECK
 70
               0
  9
$CHAMFERA
 40
0.0
  9
$CHAMFERB
 40
0.0
  9
$CHAMFERC
 40
0.0
  9
$CHAMFERD
 40
0.0
  9
$SKPOLY
 70
               0
  9
$TDCREATE
 40
2454683.600868056
  9
$TDUCREATE
 40
0.000000000
  9
$TDUPDATE
 40
2454683.600868056
  9
$TDUUPDATE
 40
0.000000000
  9
$TDINDWG
 40
0.0000000000
  9
$TDUSRTIMER
 40
0.0000000000
  9
$USRTIMER
 70
               1
  9
$ANGBASE
 50
0.0
  9
$ANGDIR
 70
               0
  9
$PDMODE
 70
               1
  9
$PDSIZE
 40
-2.0
  9
$PLINEWID
 40
0.0
  9
$SPLFRAME
 70
               0
  9
$SPLINETYPE
 70
               6
  9
$SPLINESEGS
 70
               8
  9
$HANDSEED
  5
369
  9
$SURFTAB1
 70
               6
  9
$SURFTAB2
 70
               6
  9
$SURFTYPE
 70
               6
  9
$SURFU
 70
               6
  9
$SURFV
 70
               6
  9
$UCSBASE
  2

  9
$UCSNAME
  2

  9
$UCSORG
 10
0.0
 20
0.0
 30
0.0
  9
$UCSXDIR
 10
1.0
 20
0.0
 30
0.0
  9
$UCSYDIR
 10
0.0
 20
1.0
 30
0.0
  9
$UCSORTHOREF
  2

  9
$UCSORTHOVIEW
 70
               0
  9
$UCSORGTOP
 10
0.0
 20
0.0
 30
0.0
  9
$UCSORGBOTTOM
 10
0.0
 20
0.0
 30
0.0
  9
$UCSORGLEFT
 10
0.0
 20
0.0
 30
0.0
  9
$UCSORGRIGHT
 10
0.0
 20
0.0
 30
0.0
  9
$UCSORGFRONT
 10
0.0
 20
0.0
 30
0.0
  9
$UCSORGBACK
 10
0.0
 20
0.0
 30
0.0
  9
$PUCSBASE
  2

  9
$PUCSNAME
  2

  9
$PUCSORG
 10
0.0
 20
0.0
 30
0.0
  9
$PUCSXDIR
 10
1.0
 20
0.0
 30
0.0
  9
$PUCSYDIR
 10
0.0
 20
1.0
 30
0.0
  9
$PUCSORTHOREF
  2

  9
$PUCSORTHOVIEW
 70
               0
  9
$PUCSORGTOP
 10
0.0
 20
0.0
 30
0.0
  9
$PUCSORGBOTTOM
 10
0.0
 20
0.0
 30
0.0
  9
$PUCSORGLEFT
 10
0.0
 20
0.0
 30
0.0
  9
$PUCSORGRIGHT
 10
0.0
 20
0.0
 30
0.0
  9
$PUCSORGFRONT
 10
0.0
 20
0.0
 30
0.0
  9
$PUCSORGBACK
 10
0.0
 20
0.0
 30
0.0
  9
$USERI1
 70
               0
  9
$USERI2
 70
               0
  9
$USERI3
 70
               0
  9
$USERI4
 70
               0
  9
$USERI5
 70
               0
  9
$USERR1
 40
0.0
  9
$USERR2
 40
0.0
  9
$USERR3
 40
0.0
  9
$USERR4
 40
0.0
  9
$USERR5
 40
0.0
  9
$WORLDVIEW
 70
               1
  9
$SHADEDGE
 70
               3
  9
$SHADEDIF
 70
              70
  9
$TILEMODE
 70
               1
  9
$MAXACTVP
 70
              64
  9
$PINSBASE
 10
0.0
 20
0.0
 30
0.0
  9
$PLIMCHECK
 70
               0
  9
$PEXTMIN
 10
1.0000000000000000E+20
 20
1.0000000000000000E+20
 30
1.0000000000000000E+20
  9
$PEXTMAX
 10
-1.0000000000000000E+20
 20
-1.0000000000000000E+20
 30
-1.0000000000000000E+20
  9
$PLIMMIN
 10
0.0
 20
0.0
  9
$PLIMMAX
 10
12.0
 20
9.0
  9
$UNITMODE
 70
               0
  9
$VISRETAIN
 70
               0
  9
$PLINEGEN
 70
               1
  9
$PSLTSCALE
 70
               0
  9
$TREEDEPTH
 70
            3020
  9
$CMLSTYLE
  2
Standard
  9
$CMLJUST
 70
               0
  9
$CMLSCALE
 40
1.0
  9
$PROXYGRAPHICS
 70
               0
  9
$MEASUREMENT
 70
               1
  9
$CELWEIGHT
370
               0
  9
$ENDCAPS
280
               0
  9
$JOINSTYLE
280
               0
  9
$LWDISPLAY
290
               1
  9
$INSUNITS
 70
               4
  9
$HYPERLINKBASE
  1

  9
$STYLESHEET
  1

  9
$XEDIT
290
               1
  9
$CEPSNTYPE
380
               0
  9
$PSTYLEMODE
290
               1
  9
$FINGERPRINTGUID
  2

  9
$VERSIONGUID
  2

  9
$EXTNAMES
290
               1
  9
$PSVPSCALE
 40
0.0
  0
ENDSEC
  0
SECTION
  2
CLASSES
  0
CLASS
  1
LWPOLYLINE
  2
AcDbPolyline
  3
AutoCAD 2000
 90
        0
280
               0
281
               1
  0
CLASS
  1
IMAGE
  2
AcDbRasterImage
  3
ISM
 90
      127
280
               0
281
               1
  0
CLASS
  1
OLE2FRAME
  2
AcDbOle2Frame
  3
AutoCAD 2000
 90
        0
280
               0
281
               1
  0
CLASS
  1
HATCH
  2
AcDbHatch
  3
AutoCAD 2000
 90
        0
280
               0
281
               1
  0
CLASS
  1
DICTIONARYVAR
  2
AcDbDictionaryVar
  3
AutoCAD 2000
 90
        0
280
               0
281
               0
  0
CLASS
  1
RASTERVARIABLES
  2
AcDbRasterVariables
  3
ISM
 90
        0
280
               0
281
               0
  0
CLASS
  1
IMAGEDEF
  2
AcDbRasterImageDef
  3
ISM
 90
        0
280
               0
281
               0
  0
CLASS
  1
IMAGEDEF_REACTOR
  2
AcDbRasterImageDefReactor
  3
ISM
 90
        1
280
               0
281
               0
  0
CLASS
  1
IDBUFFER
  2
AcDbIdBuffer
  3
AutoCAD 2000
 90
        0
280
               0
281
               0
  0
CLASS
  1
SPATIAL_FILTER
  2
AcDbSpatialFilter
  3
AutoCAD 2000
 90
        0
280
               0
281
               0
  0
CLASS
  1
XRECORD
  2
AcDbXrecord
  3
AutoCAD 2000
 90
        0
280
               0
281
               0
  0
CLASS
  1
SORTENTSTABLE
  2
AcDbSortentsTable
  3
AutoCAD 2000
 90
        0
280
               0
281
               0
  0
CLASS
  1
LAYER_INDEX
  2
AcDbLayerIndex
  3
AutoCAD 2000
 90
        0
280
               0
281
               0
  0
CLASS
  1
SPATIAL_INDEX
  2
AcDbSpatialIndex
  3
AutoCAD 2000
 90
        0
280
               0
281
               0
  0
CLASS
  1
OBJECT_PTR
  2
CAseDLPNTableRecord
  3
"ASE-LPNTableRecord"
 90
        1
280
               0
281
               0
  0
CLASS
  1
LAYOUT
  2
AcDbLayout
  3
AutoCAD 2000
 90
        0
280
               0
281
               0
  0
CLASS
  1
PLOTSETTINGS
  2
AcDbPlotSettings
  3
AutoCAD 2000
 90
        0
280
               0
281
               0
  0
CLASS
  1
ACDBDICTIONARYWDFLT
  2
AcDbDictionaryWithDefault
  3
AutoCAD 2000
 90
        0
280
               0
281
               0
  0
CLASS
  1
ACDBPLACEHOLDER
  2
AcDbPlaceHolder
  3
AutoCAD 2000
 90
        0
280
               0
281
               0
  0
CLASS
  1
VBA_PROJECT
  2
AcDbVbaProject
  3
acadvba
 90
        0
280
               0
281
               0
  0
CLASS
  1
WIPEOUT
  2
AcDbWipeout
  3
WipeOut|AutoCAD Express Tool|expresstools@autodesk.com
 90
      127
280
               0
281
               1
  0
CLASS
  1
WIPEOUTVARIABLES
  2
AcDbWipeoutVariables
  3
WipeOut|AutoCAD Express Tool|expresstools@autodesk.com
 90
        0
280
               0
281
               0
  0
CLASS
  1
RTEXT
  2
RText
  3
RText|AutoCAD Express Tool|expresstools@autodesk.com
 90
        0
280
               0
281
               1
  0
CLASS
  1
ARCALIGNEDTEXT
  2
AcDbArcAlignedText
  3
ATEXT|AutoCAD Express Tool|expresstools@autodesk.com
 90
        0
280
               0
281
               1
  0
ENDSEC
  0
SECTION
  2
TABLES
  0
TABLE
  2
VPORT
  5
7
100
AcDbSymbolTable
 70
               1
  0
VPORT
  5
15
100
AcDbSymbolTableRecord
100
AcDbViewportTableRecord
  2
*ACTIVE
 70
               0
 10
0.0
 20
0.0
 11
1.0
 21
1.0
 12
25.418185850379505
 22
-156.48702638954001
 13
0.0
 23
0.0
 14
1.0
 24
1.0
 15
0.0
 25
0.0
 16
0.0
 26
0.0
 36
1.0
 17
0.0
 27
0.0
 37
0.0
 40
61.574338425600018
 41
0.688564
 42
50.0
 43
0.0
 44
0.0
 50
0.0
 51
0.0
 71
               0
 72
            2000
 73
               1
 74
               1
 75
               0
 76
               0
 77
               0
 78
               0
281
               0
 65
               0
110
0.0
120
0.0
130
0.0
111
1.0
121
0.0
131
0.0
112
0.0
122
1.0
132
0.0
345
0
346
0
 79
               0
146
0.0
  0
ENDTAB
  0
TABLE
  2
LTYPE
  5
4
100
AcDbSymbolTable
 70
              19
  0
LTYPE
  5
11
100
AcDbSymbolTableRecord
100
AcDbLinetypeTableRecord
  2
ByBlock
 70
              64
  3

 72
              65
 73
               0
 40
0.0
  0
LTYPE
  5
12
100
AcDbSymbolTableRecord
100
AcDbLinetypeTableRecord
  2
ByLayer
 70
              64
  3

 72
              65
 73
               0
 40
0.0
  0
LTYPE
  5
13
100
AcDbSymbolTableRecord
100
AcDbLinetypeTableRecord
  2
Continuous
 70
              64
  3
Solid line
 72
              65
 73
               0
 40
0.0
  0
LTYPE
  5
3F
100
AcDbSymbolTableRecord
100
AcDbLinetypeTableRecord
  2
STYLE_01
 70
               0
  3

 72
              65
 73
               2
 40
1.5
 49
1.0
 74
               0
 49
-0.5
 74
               0
  0
LTYPE
  5
40
100
AcDbSymbolTableRecord
100
AcDbLinetypeTableRecord
  2
STYLE_02
 70
               0
  3

 72
              65
 73
               2
 40
0.75
 49
0.5
 74
               0
 49
-0.25
 74
               0
  0
LTYPE
  5
41
100
AcDbSymbolTableRecord
100
AcDbLinetypeTableRecord
  2
STYLE_03
 70
               0
  3

 72
              65
 73
               4
 40
4.0
 49
0.25
 74
               0
 49
-0.5
 74
               0
 49
0.5
 74
               0
 49
-0.5
 74
               0
  0
LTYPE
  5
42
100
AcDbSymbolTableRecord
100
AcDbLinetypeTableRecord
  2
STYLE_04
 70
               0
  3

 72
              65
 73
               4
 40
5.0
 49
2.5
 74
               0
 49
-0.5
 74
               0
 49
0.5
 74
               0
 49
-0.5
 74
               0
  0
LTYPE
  5
43
100
AcDbSymbolTableRecord
100
AcDbLinetypeTableRecord
  2
STYLE_05
 70
               0
  3

 72
              65
 73
               2
 40
0.5
 49
0.0001
 74
               0
 49
-0.4999
 74
               0
  0
LTYPE
  5
44
100
AcDbSymbolTableRecord
100
AcDbLinetypeTableRecord
  2
STYLE_06
 70
               0
  3

 72
              65
 73
               4
 40
2.0
 49
1.0
 74
               0
 49
-0.5
 74
               0
 49
0.0001
 74
               0
 49
-0.4999
 74
               0
  0
LTYPE
  5
45
100
AcDbSymbolTableRecord
100
AcDbLinetypeTableRecord
  2
STYLE_07
 70
               0
  3

 72
              65
 73
               6
 40
3.5
 49
1.0
 74
               0
 49
-0.5
 74
               0
 49
1.0
 74
               0
 49
-0.5
 74
               0
 49
0.0001000000000002
 74
               0
 49
-0.4998999999999998
 74
               0
  0
LTYPE
  5
46
100
AcDbSymbolTableRecord
100
AcDbLinetypeTableRecord
  2
STYLE_08
 70
               0
  3

 72
              65
 73
               6
 40
2.5
 49
1.0
 74
               0
 49
-0.5
 74
               0
 49
0.0001
 74
               0
 49
-0.4999
 74
               0
 49
0.0001000000000002
 74
               0
 49
-0.4998999999999998
 74
               0
  0
LTYPE
  5
47
100
AcDbSymbolTableRecord
100
AcDbLinetypeTableRecord
  2
STYLE_09
 70
               0
  3

 72
              65
 73
               2
 40
0.09722900390625
 49
0.0555572509765625
 74
               0
 49
-0.0416717529296875
 74
               0
  0
LTYPE
  5
48
100
AcDbSymbolTableRecord
100
AcDbLinetypeTableRecord
  2
STYLE_10
 70
               0
  3

 72
              65
 73
               4
 40
0.59722900390625
 49
0.3055572509765625
 74
               0
 49
-0.15277099609375
 74
               0
 49
0.013885498046875
 74
               0
 49
-0.1250152587890625
 74
               0
  0
LTYPE
  5
49
100
AcDbSymbolTableRecord
100
AcDbLinetypeTableRecord
  2
STYLE_11
 70
               0
  3

 72
              65
 73
               4
 40
0.4305572509765625
 49
0.236114501953125
 74
               0
 49
-0.0833282470703125
 74
               0
 49
0.013885498046875
 74
               0
 49
-0.09722900390625
 74
               0
  0
LTYPE
  5
4A
100
AcDbSymbolTableRecord
100
AcDbLinetypeTableRecord
  2
STYLE_12
 70
               0
  3

 72
              65
 73
               2
 40
0.0833282470703125
 49
0.0555572509765625
 74
               0
 49
-0.02777099609375
 74
               0
  0
LTYPE
  5
4B
100
AcDbSymbolTableRecord
100
AcDbLinetypeTableRecord
  2
STYLE_13
 70
               0
  3

 72
              65
 73
               4
 40
0.068511962890625
 49
0.0428314208984375
 74
               0
 49
-0.0085601806640625
 74
               0
 49
0.0085601806640625
 74
               0
 49
-0.0085601806640625
 74
               0
  0
LTYPE
  5
4C
100
AcDbSymbolTableRecord
100
AcDbLinetypeTableRecord
  2
STYLE_14
 70
               0
  3

 72
              65
 73
               2
 40
0.02569580078125
 49
0.0171356201171875
 74
               0
 49
-0.0085601806640625
 74
               0
  0
LTYPE
  5
4D
100
AcDbSymbolTableRecord
100
AcDbLinetypeTableRecord
  2
STYLE_15
 70
               0
  3

 72
              65
 73
               6
 40
0.08563232421875
 49
0.0428314208984375
 74
               0
 49
-0.0085601806640625
 74
               0
 49
0.0085601806640625
 74
               0
 49
-0.0085601806640625
 74
               0
 49
0.0085601806640625
 74
               0
 49
-0.0085601806640625
 74
               0
  0
LTYPE
  5
4E
100
AcDbSymbolTableRecord
100
AcDbLinetypeTableRecord
  2
STYLE_16
 70
               0
  3

 72
              65
 73
               2
 40
0.375
 49
0.25
 74
               0
 49
-0.125
 74
               0
  0
ENDTAB
  0
TABLE
  2
LAYER
  5
2
100
AcDbSymbolTable
 70
              10
  0
LAYER
  5
14
100
AcDbSymbolTableRecord
100
AcDbLayerTableRecord
  2
0
 70
               0
 62
               7
  6
Continuous
290
               1
370
              15
390
1D
  0
LAYER
  5
4F
100
AcDbSymbolTableRecord
100
AcDbLayerTableRecord
  2
Defpoints
 70
               0
 62
               7
  6
Continuous
290
               0
370
              -3
390
1D
  0
LAYER
  5
50
100
AcDbSymbolTableRecord
100
AcDbLayerTableRecord
  2
None
 70
               0
 62
               7
  6
Continuous
290
               1
370
               5
390
1D
  0
LAYER
  5
51
100
AcDbSymbolTableRecord
100
AcDbLayerTableRecord
  2
Dimension
 70
               0
 62
               7
  6
Continuous
290
               1
370
               5
390
1D
  0
LAYER
  5
52
100
AcDbSymbolTableRecord
100
AcDbLayerTableRecord
  2
Solid Lines
 70
               0
 62
               7
  6
Continuous
290
               1
370
              25
390
1D
  0
LAYER
  5
53
100
AcDbSymbolTableRecord
100
AcDbLayerTableRecord
  2
DIM
 70
               0
 62
               7
  6
Continuous
290
               1
370
              15
390
1D
  0
LAYER
  5
54
100
AcDbSymbolTableRecord
100
AcDbLayerTableRecord
  2
TEXT
 70
               0
 62
               7
  6
Continuous
290
               1
370
              15
390
1D
  0
LAYER
  5
55
100
AcDbSymbolTableRecord
100
AcDbLayerTableRecord
  2
SHEET1
 70
               0
 62
               1
  6
Continuous
290
               1
370
              15
390
1D
  0
LAYER
  5
56
100
AcDbSymbolTableRecord
100
AcDbLayerTableRecord
  2
BORDER
 70
               0
 62
               7
  6
Continuous
290
               1
370
              15
390
1D
  0
LAYER
  5
57
100
AcDbSymbolTableRecord
100
AcDbLayerTableRecord
  2
ACTEL
 70
               0
 62
               6
  6
Continuous
290
               1
370
              15
390
1D
  0
ENDTAB
  0
TABLE
  2
STYLE
  5
3
100
AcDbSymbolTable
 70
               6
  0
STYLE
  5
17
100
AcDbSymbolTableRecord
100
AcDbTextStyleTableRecord
  2
Standard
 70
               0
 40
0.0
 41
1.0
 50
0.0
 71
               0
 42
0.0
  3
txt
  4

  0
STYLE
  5
3A
100
AcDbSymbolTableRecord
100
AcDbTextStyleTableRecord
  2
Arial
 70
               0
 40
0.0
 41
1.0
 50
0.0
 71
               0
 42
0.0
  3
Arial
  4

1001
ACAD
1000
Arial
1071
        0
  0
STYLE
  5
3B
100
AcDbSymbolTableRecord
100
AcDbTextStyleTableRecord
  2
Arial (bold)
 70
               0
 40
0.0
 41
1.0
 50
0.0
 71
               0
 42
0.0
  3
Arial
  4

1001
ACAD
1000
Arial
1071
 33554432
  0
STYLE
  5
3C
100
AcDbSymbolTableRecord
100
AcDbTextStyleTableRecord
  2
Helvetica
 70
               0
 40
0.0
 41
1.0
 50
0.0
 71
               0
 42
0.0
  3
Helvetica
  4

1001
ACAD
1000
Helvetica
1071
        0
  0
STYLE
  5
3D
100
AcDbSymbolTableRecord
100
AcDbTextStyleTableRecord
  2
Helvetica (bold)
 70
               0
 40
0.0
 41
1.0
 50
0.0
 71
               0
 42
0.0
  3
Helvetica
  4

1001
ACAD
1000
Helvetica
1071
 33554432
  0
STYLE
  5
3E
100
AcDbSymbolTableRecord
100
AcDbTextStyleTableRecord
  2
New Century Schlbk
 70
               0
 40
0.0
 41
1.0
 50
0.0
 71
               0
 42
0.0
  3
New Century Schlbk
  4

1001
ACAD
1000
New Century Schlbk
1071
        0
  0
ENDTAB
  0
TABLE
  2
VIEW
  5
5
100
AcDbSymbolTable
 70
               0
  0
ENDTAB
  0
TABLE
  2
UCS
  5
6
100
AcDbSymbolTable
 70
               0
  0
ENDTAB
  0
TABLE
  2
APPID
  5
8
100
AcDbSymbolTable
 70
               1
  0
APPID
  5
16
100
AcDbSymbolTableRecord
100
AcDbRegAppTableRecord
  2
ACAD
 70
               0
  0
ENDTAB
  0
TABLE
  2
DIMSTYLE
  5
9
100
AcDbSymbolTable
 70
               2
100
AcDbDimStyleTable
 71
               0
  0
DIMSTYLE
105
18
100
AcDbSymbolTableRecord
100
AcDbDimStyleTableRecord
  2
Standard
 70
               0
  3

  4

 40
1.0
 41
0.18
 42
0.0625
 43
0.38
 44
0.18
 45
0.0
 46
0.0
 47
0.0
 48
0.0
 71
               0
 72
               0
 73
               1
 74
               1
 75
               0
 76
               0
 77
               0
 78
               0
 79
               0
140
0.18
141
0.09
142
0.0
143
25.399999999999999
144
1.0
145
0.0
146
1.0
147
0.09
148
0.0
170
               0
171
               2
172
               0
173
               0
174
               0
175
               0
176
               0
177
               0
178
               0
179
               0
271
               4
272
               4
273
               2
274
               2
275
               0
276
               0
277
               2
278
              46
279
               0
280
               0
281
               0
282
               0
283
               1
284
               0
285
               0
286
               0
288
               0
289
               3
340
17
341
0
342
0
343
0
344
0
371
              -2
372
              -2
  0
DIMSTYLE
105
60
100
AcDbSymbolTableRecord
100
AcDbDimStyleTableRecord
  2
IE Standard
 70
               0
  3
<>mm
  4
[]"
 40
1.0
 41
1.0583322750000002
 42
0.634999366577038
 43
6.9999859934672708
 44
1.2699987331540761
 45
0.0
 46
0.0
 47
0.0
 48
0.0
 71
               0
 72
               0
 73
               1
 74
               1
 75
               0
 76
               0
 77
               0
 78
              11
 79
               0
140
0.7579186197916666
141
0.0
142
0.0
143
0.0393700787401575
144
1.0
145
0.0
146
1.0
147
0.0
148
0.0
170
               0
171
               3
172
               1
173
               0
174
               1
175
               0
176
               0
177
               0
178
               0
179
               0
271
               2
272
               2
273
               2
274
               2
275
               0
276
               2
277
               2
278
              46
279
               0
280
               0
281
               0
282
               0
283
               1
284
              11
285
               3
286
               3
288
               0
289
               0
340
3C
341
5C
342
58
343
0
344
0
371
              -2
372
              -2
  0
ENDTAB
  0
TABLE
  2
BLOCK_RECORD
  5
1
100
AcDbSymbolTable
 70
              24
  0
BLOCK_RECORD
  5
A
100
AcDbSymbolTableRecord
100
AcDbBlockTableRecord
  2
*MODEL_SPACE
340
20
  0
BLOCK_RECORD
  5
B
100
AcDbSymbolTableRecord
100
AcDbBlockTableRecord
  2
*PAPER_SPACE
340
21
  0
BLOCK_RECORD
  5
58
100
AcDbSymbolTableRecord
100
AcDbBlockTableRecord
  2
VW_FILLEDARROW
340
0
  0
BLOCK_RECORD
  5
5C
100
AcDbSymbolTableRecord
100
AcDbBlockTableRecord
  2
VW_FILLEDARROW-1
340
0
  0
BLOCK_RECORD
  5
24
100
AcDbSymbolTableRecord
100
AcDbBlockTableRecord
  2
IE i logo
340
0
102
{BLKREFS
331
337
102
}
  0
BLOCK_RECORD
  5
25
100
AcDbSymbolTableRecord
100
AcDbBlockTableRecord
  2
Group
340
0
102
{BLKREFS
331
1E0
102
}
  0
BLOCK_RECORD
  5
26
100
AcDbSymbolTableRecord
100
AcDbBlockTableRecord
  2
Group-1
340
0
102
{BLKREFS
331
343
102
}
  0
BLOCK_RECORD
  5
27
100
AcDbSymbolTableRecord
100
AcDbBlockTableRecord
  2
*D5
340
0
  0
BLOCK_RECORD
  5
28
100
AcDbSymbolTableRecord
100
AcDbBlockTableRecord
  2
Group-2
340
0
102
{BLKREFS
331
347
102
}
  0
BLOCK_RECORD
  5
29
100
AcDbSymbolTableRecord
100
AcDbBlockTableRecord
  2
*D7
340
0
  0
BLOCK_RECORD
  5
2A
100
AcDbSymbolTableRecord
100
AcDbBlockTableRecord
  2
*D8
340
0
  0
BLOCK_RECORD
  5
2B
100
AcDbSymbolTableRecord
100
AcDbBlockTableRecord
  2
*D9
340
0
  0
BLOCK_RECORD
  5
2C
100
AcDbSymbolTableRecord
100
AcDbBlockTableRecord
  2
*D10
340
0
  0
BLOCK_RECORD
  5
2D
100
AcDbSymbolTableRecord
100
AcDbBlockTableRecord
  2
*D11
340
0
  0
BLOCK_RECORD
  5
2E
100
AcDbSymbolTableRecord
100
AcDbBlockTableRecord
  2
*D12
340
0
  0
BLOCK_RECORD
  5
2F
100
AcDbSymbolTableRecord
100
AcDbBlockTableRecord
  2
*D13
340
0
  0
BLOCK_RECORD
  5
30
100
AcDbSymbolTableRecord
100
AcDbBlockTableRecord
  2
*D14
340
0
  0
BLOCK_RECORD
  5
31
100
AcDbSymbolTableRecord
100
AcDbBlockTableRecord
  2
*D15
340
0
  0
BLOCK_RECORD
  5
32
100
AcDbSymbolTableRecord
100
AcDbBlockTableRecord
  2
*D16
340
0
  0
BLOCK_RECORD
  5
33
100
AcDbSymbolTableRecord
100
AcDbBlockTableRecord
  2
*D17
340
0
  0
BLOCK_RECORD
  5
34
100
AcDbSymbolTableRecord
100
AcDbBlockTableRecord
  2
*D18
340
0
  0
BLOCK_RECORD
  5
35
100
AcDbSymbolTableRecord
100
AcDbBlockTableRecord
  2
*D19
340
0
  0
BLOCK_RECORD
  5
36
100
AcDbSymbolTableRecord
100
AcDbBlockTableRecord
  2
*D20
340
0
  0
BLOCK_RECORD
  5
37
100
AcDbSymbolTableRecord
100
AcDbBlockTableRecord
  2
*D21
340
0
  0
BLOCK_RECORD
  5
38
100
AcDbSymbolTableRecord
100
AcDbBlockTableRecord
  2
*D22
340
0
  0
BLOCK_RECORD
  5
39
100
AcDbSymbolTableRecord
100
AcDbBlockTableRecord
  2
*D23
340
0
  0
ENDTAB
  0
ENDSEC
  0
SECTION
  2
BLOCKS
  0
BLOCK
  5
D
100
AcDbEntity
  8
0
390
0
100
AcDbBlockBegin
  2
*MODEL_SPACE
 70
               0
 10
0.0
 20
0.0
 30
0.0
  3
*MODEL_SPACE
  1

  0
ENDBLK
  5
E
100
AcDbEntity
  8
0
390
0
100
AcDbBlockEnd
  0
BLOCK
  5
F
100
AcDbEntity
 67
               1
  8
0
390
0
100
AcDbBlockBegin
  2
*PAPER_SPACE
 70
               0
 10
0.0
 20
0.0
 30
0.0
  3
*PAPER_SPACE
  1

  0
ENDBLK
  5
10
100
AcDbEntity
 67
               1
  8
0
390
0
100
AcDbBlockEnd
  0
BLOCK
  5
59
100
AcDbEntity
  8
0
370
              -2
390
0
  6
ByBlock
 62
               0
100
AcDbBlockBegin
  2
VW_FILLEDARROW
 70
               0
 10
0.0
 20
0.0
 30
0.0
  3
VW_FILLEDARROW
  1

  0
SOLID
  5
5A
100
AcDbEntity
  8
0
370
              -2
390
0
 62
               0
100
AcDbTrace
 10
0.0
 20
0.0
 30
0.0
 11
-0.9999379649047853
 21
-0.2679325701774575
 31
0.0
 12
-0.9999379649047852
 22
0.2679325701774578
 32
0.0
 13
-0.9999379649047852
 23
0.2679325701774578
 33
0.0
  0
ENDBLK
  5
5B
100
AcDbEntity
  8
0
390
0
100
AcDbBlockEnd
  0
BLOCK
  5
5D
100
AcDbEntity
  8
0
370
              -2
390
0
  6
ByBlock
 62
               0
100
AcDbBlockBegin
  2
VW_FILLEDARROW-1
 70
               0
 10
0.0
 20
0.0
 30
0.0
  3
VW_FILLEDARROW
  1

  0
SOLID
  5
5E
100
AcDbEntity
  8
0
370
              -2
390
0
 62
               0
100
AcDbTrace
 10
0.0
 20
0.0
 30
0.0
 11
-0.6661085461303712
 21
-0.1784832470071022
 31
0.0
 12
-0.6661085461303712
 22
0.1784832470071024
 32
0.0
 13
-0.6661085461303712
 23
0.1784832470071024
 33
0.0
  0
ENDBLK
  5
5F
100
AcDbEntity
  8
0
390
0
100
AcDbBlockEnd
  0
BLOCK
  5
61
100
AcDbEntity
  8
None
390
0
100
AcDbBlockBegin
  2
IE i logo
 70
               0
 10
0.0
 20
0.0
 30
0.0
  3
IE i logo
  1

  0
CIRCLE
  5
62
102
{ACAD_REACTORS
330
63
102
}
100
AcDbEntity
  8
None
370
               5
390
0
  6
Continuous
 62
               7
100
AcDbCircle
 10
0.0
 20
0.0
 30
0.0
 40
2.6707900018721049
  0
HATCH
  5
63
100
AcDbEntity
  8
None
370
               0
390
0
  6
Continuous
 62
               7
100
AcDbHatch
 10
0.0
 20
0.0
 30
0.0
210
0.0
220
0.0
230
1.0
  2
SOLID
 70
               1
 71
               1
 91
        1
 92
        1
 93
        1
 72
               2
 10
0.0
 20
0.0
 40
2.6707900018721049
 50
0.0
 51
360.0
 73
               0
 97
        1
330
62
 75
               0
 76
               1
 98
        1
 10
0.0
 20
0.0
  0
WIPEOUT
  5
64
100
AcDbEntity
  8
None
370
               5
390
0
  6
Continuous
 62
               7
 92
        0
100
AcDbWipeout
 90
        0
 10
-1.01559
 20
0.73569
 30
0.0
 11
0.6889700000000001
 21
0.0
 31
0.0
 12
0.0
 22
0.6889700000000001
 32
0.0
 13
1.0
 23
1.0
340
0
 70
               7
280
               1
281
              50
282
              50
283
               0
360
0
 71
               2
 91
       97
 14
-0.384131384530531
 24
0.0667881039813055
 14
-0.3634758906411018
 24
0.0346239223043094
 14
-0.3415474367534144
 24
0.00272054661306
 14
-0.3183460228674687
 24
-0.0289220230924422
 14
-0.2938716489832648
 24
-0.0603037868121978
 14
-0.2681243151008025
 24
-0.0914247445462067
 14
-0.2411040212200821
 24
-0.1222848962944686
 14
-0.2128107673411033
 24
-0.1528842420569836
 14
-0.1832445534638663
 24
-0.1832227818337517
 14
-0.1529111164129063
 24
-0.2127940984367968
 14
-0.1223161930127582
 24
-0.2410917746781425
 14
-0.0914597832634222
 24
-0.2681158105577891
 14
-0.0603418871648982
 24
-0.2938662060757359
 14
-0.0289625047171866
 24
-0.3183429612319839
 14
0.0026783640797133
 24
-0.3415460760265321
 14
0.0345807192258009
 24
-0.3634755504593811
 14
0.0667445607210765
 24
-0.384131384530531
 14
0.0986291130237893
 24
-0.4031788394269708
 14
0.1296936005921883
 24
-0.4202831763356896
 14
0.1599380234262741
 24
-0.4354443952566872
 14
0.1893623815260462
 24
-0.4486624961899646
 14
0.2179666748915049
 24
-0.4599374791355209
 14
0.2457509035226498
 24
-0.4692693440933564
 14
0.2727150674194813
 24
-0.4766580910634712
 14
0.2988591665819992
 24
-0.4821037200458653
 14
0.3237520773763735
 24
-0.485530597304672
 14
0.3469626761687736
 24
-0.4868630891040248
 14
0.3684909629591999
 24
-0.4861011954439233
 14
0.3883369377476522
 24
-0.483244916324368
 14
0.4065006005341306
 24
-0.4782942517453585
 14
0.4229819513186351
 24
-0.4712492017068954
 14
0.4377809901011655
 24
-0.4621097662089782
 14
0.450897716881722
 24
-0.4508759452516074
 14
0.462126435113285
 24
-0.4377544559269632
 14
0.4712614482488352
 24
-0.4229520153272275
 14
0.4783027562883724
 24
-0.4064686234523998
 14
0.4832503592318967
 24
-0.3883042803024801
 14
0.4861042570794083
 24
-0.3684589858774687
 14
0.486864449830907
 24
-0.3469327401773656
 14
0.4855309374863926
 24
-0.3237255432021711
 14
0.4821037200458654
 24
-0.2988373949518843
 14
0.4766580910634716
 24
-0.2726983985151745
 14
0.4692693440933567
 24
-0.24573865698071
 14
0.4599374791355212
 24
-0.217958170348491
 14
0.4486624961899646
 24
-0.1893569386185173
 14
0.4354443952566874
 24
-0.1599349617907888
 14
0.4202831763356894
 24
-0.1296922398653057
 14
0.4031788394269706
 24
-0.0986287728420684
 14
0.384131384530531
 24
-0.0667445607210762
 14
0.363475890641102
 24
-0.0345803790440801
 14
0.3415474367534145
 24
-0.0026770033528307
 14
0.3183460228674687
 24
0.0289655663526718
 14
0.2938716489832648
 24
0.0603473300724272
 14
0.2681243151008025
 24
0.0914682878064358
 14
0.2411040212200821
 24
0.1223284395546979
 14
0.2128107673411033
 24
0.1529277853172129
 14
0.1832445534638663
 24
0.1832663250939811
 14
0.1529111164129063
 24
0.2128376416970262
 14
0.1223161930127581
 24
0.2411353179383721
 14
0.0914597832634222
 24
0.2681593538180184
 14
0.0603418871648983
 24
0.2939097493359655
 14
0.0289625047171866
 24
0.3183865044922132
 14
-0.0026783640797133
 24
0.3415896192867617
 14
-0.0345807192258009
 24
0.3635190937196106
 14
-0.0667445607210765
 24
0.3841749277907604
 14
-0.0986291130237892
 24
0.4032220425054794
 14
-0.1296936005921883
 24
0.4203253588690366
 14
-0.159938023426274
 24
0.4354848768814319
 14
-0.1893623815260462
 24
0.4487005965426653
 14
-0.2179666748915049
 24
0.4599725178527369
 14
-0.2457509035226499
 24
0.4693006408116466
 14
-0.2727150674194813
 24
0.4766849654193943
 14
-0.2988591665819992
 24
0.4821254916759801
 14
-0.3237520773763735
 24
0.4855476063906992
 14
-0.3469626761687736
 24
0.4868766963728464
 14
-0.3684909629591999
 24
0.486112761622422
 14
-0.3883369377476522
 24
0.4832558021394255
 14
-0.4065006005341306
 24
0.4783058179238573
 14
-0.4229819513186351
 24
0.4712628089757174
 14
-0.4377809901011655
 24
0.4621267752950057
 14
-0.450897716881722
 24
0.450897716881722
 14
-0.462126435113285
 24
0.437781330282886
 14
-0.4712614482488352
 24
0.4229833120455172
 14
-0.4783027562883724
 24
0.4065036621696155
 14
-0.4832503592318967
 24
0.388342380655181
 14
-0.4861042570794085
 24
0.3684994675022135
 14
-0.486864449830907
 24
0.3469749227107132
 14
-0.4855309374863926
 24
0.32376874628068
 14
-0.4821037200458657
 24
0.2988809382121138
 14
-0.4766580910634715
 24
0.2727419417754038
 14
-0.4692693440933567
 24
0.2457822002409394
 14
-0.4599374791355211
 24
0.2180017136087203
 14
-0.4486624961899646
 24
0.1894004818787466
 14
-0.4354443952566874
 24
0.1599785050510182
 14
-0.4202831763356894
 24
0.1297357831255353
 14
-0.4031788394269706
 24
0.0986723161022978
 14
-0.384131384530531
 24
0.0667881039813055
  0
SPLINE
  5
65
100
AcDbEntity
  8
None
370
               5
390
0
  6
Continuous
 62
               7
100
AcDbSpline
210
0.0
220
0.0
230
1.0
 70
               9
 71
               2
 72
              17
 73
              14
 74
               0
 42
0.000001
 43
0.000001
 40
0.0
 40
0.0
 40
0.0
 40
1.0
 40
2.0
 40
3.0
 40
4.0
 40
5.0
 40
6.0
 40
7.0
 40
8.0
 40
9.0
 40
10.0
 40
11.0
 40
12.0
 40
12.0
 40
12.0
 10
-0.9357599999999999
 20
1.03416
 30
0.0
 10
-0.8805899999999999
 20
1.1231599999999999
 30
0.0
 10
-0.71412
 20
1.2896599999999998
 30
0.0
 10
-0.5361199999999999
 20
1.3999999999999999
 30
0.0
 10
-0.39428
 20
1.4246599999999998
 30
0.0
 10
-0.32662
 20
1.3569699999999998
 30
0.0
 10
-0.35128
 20
1.2151599999999998
 30
0.0
 10
-0.46162
 20
1.0371599999999999
 30
0.0
 10
-0.6280899999999999
 20
0.8706599999999999
 30
0.0
 10
-0.80609
 20
0.7603199999999999
 30
0.0
 10
-0.9479299999999999
 20
0.73569
 30
0.0
 10
-1.01559
 20
0.8033499999999999
 30
0.0
 10
-0.9909299999999999
 20
0.9451599999999999
 30
0.0
 10
-0.9357599999999999
 20
1.03416
 30
0.0
  0
WIPEOUT
  5
66
100
AcDbEntity
  8
None
370
               5
390
0
  6
Continuous
 62
               7
 92
        0
100
AcDbWipeout
 90
        0
 10
-1.7197799999999999
 20
-1.8961899999999998
 30
0.0
 11
1.8520599999999998
 21
0.0
 31
0.0
 12
0.0
 22
1.8520599999999998
 32
0.0
 13
1.0
 23
1.0
340
0
 70
               7
280
               1
281
              50
282
              50
283
               0
360
0
 71
               2
 91
       36
 14
-0.4523827521786551
 24
0.3095202099284041
 14
-0.2500026996965541
 24
0.1190404198568081
 14
-0.2142911136788225
 24
0.1190404198568081
 14
-0.0714231720354632
 24
0.3690377201602539
 14
0.0
 24
0.4523827521786551
 14
0.0714231720354633
 24
0.5
 14
0.2142857142857143
 24
0.5
 14
0.3690539183395787
 24
0.4047493061779856
 14
0.4761940757858817
 24
0.3095202099284041
 14
0.5
 24
0.2380916384998327
 14
0.5
 24
0.1071347580531948
 14
0.4880997375894949
 24
0.0714231720354632
 14
0.4642884139822685
 24
0.0714231720354632
 14
0.4285768279645368
 24
0.0829562757146097
 14
0.3214258717320173
 24
0.1666522682850447
 14
0.274726520739069
 24
0.1785579300886581
 14
0.2142857142857143
 24
0.1666522682850447
 14
0.190479790071596
 24
0.1070915629083291
 14
0.1428625422502512
 24
0.0238059242141183
 14
0.1190404198568082
 24
-0.0833450320184012
 14
0.1071347580531948
 24
-0.2142911136788225
 14
0.0714231720354633
 24
-0.2857304838936103
 14
0.0238059242141184
 24
-0.3452533935185685
 14
-0.0238059242141183
 24
-0.3866289429068173
 14
-0.0714231720354632
 24
-0.3866289429068173
 14
-0.1309622798397461
 24
-0.3571536559290736
 14
-0.1785741282679827
 24
-0.2976361456972236
 14
-0.2619029621070591
 24
-0.178579527661091
 14
-0.342424111529864
 24
-0.1071563556256276
 14
-0.4727114672310832
 24
0.0238059242141183
 14
-0.5
 24
0.0714231720354632
 14
-0.5
 24
0.1547520058745397
 14
-0.5
 24
0.2380916384998327
 14
-0.5
 24
0.2857088863211775
 14
-0.4880997375894949
 24
0.3214204723389091
 14
-0.4523827521786551
 24
0.3095202099284041
  0
POLYLINE
  5
67
100
AcDbEntity
  8
None
370
               5
390
0
  6
Continuous
 62
               7
100
AcDb2dPolyline
 66
               1
 10
0.0
 20
0.0
 30
0.0
 70
               1
 75
               5
  0
VERTEX
  5
68
100
AcDbEntity
  8
None
370
               5
390
0
  6
Continuous
 62
               7
100
AcDbVertex
100
AcDb2dVertex
 10
-1.6315899999999999
 20
-1.5434099999999999
 30
0.0
  0
VERTEX
  5
69
100
AcDbEntity
  8
None
370
               5
390
0
  6
Continuous
 62
               7
100
AcDbVertex
100
AcDb2dVertex
 10
-1.2567699999999999
 20
-1.1906299999999999
 30
0.0
  0
VERTEX
  5
6A
100
AcDbEntity
  8
None
370
               5
390
0
  6
Continuous
 62
               7
100
AcDbVertex
100
AcDb2dVertex
 10
-1.1906299999999999
 20
-1.1906299999999999
 30
0.0
  0
VERTEX
  5
6B
100
AcDbEntity
  8
None
370
               5
390
0
  6
Continuous
 62
               7
100
AcDbVertex
100
AcDb2dVertex
 10
-0.9260299999999999
 20
-1.6536399999999998
 30
0.0
  0
VERTEX
  5
6C
100
AcDbEntity
  8
None
370
               5
390
0
  6
Continuous
 62
               7
100
AcDbVertex
100
AcDb2dVertex
 10
-0.79375
 20
-1.8079999999999998
 30
0.0
  0
VERTEX
  5
6D
100
AcDbEntity
  8
None
370
               5
390
0
  6
Continuous
 62
               7
100
AcDbVertex
100
AcDb2dVertex
 10
-0.6614699999999999
 20
-1.8961899999999998
 30
0.0
  0
VERTEX
  5
6E
100
AcDbEntity
  8
None
370
               5
390
0
  6
Continuous
 62
               7
100
AcDbVertex
100
AcDb2dVertex
 10
-0.39688
 20
-1.8961899999999998
 30
0.0
  0
VERTEX
  5
6F
100
AcDbEntity
  8
None
370
               5
390
0
  6
Continuous
 62
               7
100
AcDbVertex
100
AcDb2dVertex
 10
-0.11024
 20
-1.7197799999999999
 30
0.0
  0
VERTEX
  5
70
100
AcDbEntity
  8
None
370
               5
390
0
  6
Continuous
 62
               7
100
AcDbVertex
100
AcDb2dVertex
 10
0.08819
 20
-1.5434099999999999
 30
0.0
  0
VERTEX
  5
71
100
AcDbEntity
  8
None
370
               5
390
0
  6
Continuous
 62
               7
100
AcDbVertex
100
AcDb2dVertex
 10
0.13228
 20
-1.4111199999999999
 30
0.0
  0
VERTEX
  5
72
100
AcDbEntity
  8
None
370
               5
390
0
  6
Continuous
 62
               7
100
AcDbVertex
100
AcDb2dVertex
 10
0.13228
 20
-1.16858
 30
0.0
  0
VERTEX
  5
73
100
AcDbEntity
  8
None
370
               5
390
0
  6
Continuous
 62
               7
100
AcDbVertex
100
AcDb2dVertex
 10
0.11024
 20
-1.1024399999999999
 30
0.0
  0
VERTEX
  5
74
100
AcDbEntity
  8
None
370
               5
390
0
  6
Continuous
 62
               7
100
AcDbVertex
100
AcDb2dVertex
 10
0.06614
 20
-1.1024399999999999
 30
0.0
  0
VERTEX
  5
75
100
AcDbEntity
  8
None
370
               5
390
0
  6
Continuous
 62
               7
100
AcDbVertex
100
AcDb2dVertex
 10
0.0
 20
-1.1237999999999999
 30
0.0
  0
VERTEX
  5
76
100
AcDbEntity
  8
None
370
               5
390
0
  6
Continuous
 62
               7
100
AcDbVertex
100
AcDb2dVertex
 10
-0.19845
 20
-1.2788099999999998
 30
0.0
  0
VERTEX
  5
77
100
AcDbEntity
  8
None
370
               5
390
0
  6
Continuous
 62
               7
100
AcDbVertex
100
AcDb2dVertex
 10
-0.28494
 20
-1.3008599999999999
 30
0.0
  0
VERTEX
  5
78
100
AcDbEntity
  8
None
370
               5
390
0
  6
Continuous
 62
               7
100
AcDbVertex
100
AcDb2dVertex
 10
-0.39688
 20
-1.2788099999999998
 30
0.0
  0
VERTEX
  5
79
100
AcDbEntity
  8
None
370
               5
390
0
  6
Continuous
 62
               7
100
AcDbVertex
100
AcDb2dVertex
 10
-0.44097
 20
-1.1684999999999999
 30
0.0
  0
VERTEX
  5
7A
100
AcDbEntity
  8
None
370
               5
390
0
  6
Continuous
 62
               7
100
AcDbVertex
100
AcDb2dVertex
 10
-0.52916
 20
-1.0142499999999999
 30
0.0
  0
VERTEX
  5
7B
100
AcDbEntity
  8
None
370
               5
390
0
  6
Continuous
 62
               7
100
AcDbVertex
100
AcDb2dVertex
 10
-0.5732799999999999
 20
-0.8158
 30
0.0
  0
VERTEX
  5
7C
100
AcDbEntity
  8
None
370
               5
390
0
  6
Continuous
 62
               7
100
AcDbVertex
100
AcDb2dVertex
 10
-0.5953299999999999
 20
-0.5732799999999999
 30
0.0
  0
VERTEX
  5
7D
100
AcDbEntity
  8
None
370
               5
390
0
  6
Continuous
 62
               7
100
AcDbVertex
100
AcDb2dVertex
 10
-0.6614699999999999
 20
-0.44097
 30
0.0
  0
VERTEX
  5
7E
100
AcDbEntity
  8
None
370
               5
390
0
  6
Continuous
 62
               7
100
AcDbVertex
100
AcDb2dVertex
 10
-0.7496599999999999
 20
-0.33073
 30
0.0
  0
VERTEX
  5
7F
100
AcDbEntity
  8
None
370
               5
390
0
  6
Continuous
 62
               7
100
AcDbVertex
100
AcDb2dVertex
 10
-0.8378399999999999
 20
-0.2541
 30
0.0
  0
VERTEX
  5
80
100
AcDbEntity
  8
None
370
               5
390
0
  6
Continuous
 62
               7
100
AcDbVertex
100
AcDb2dVertex
 10
-0.9260299999999999
 20
-0.2541
 30
0.0
  0
VERTEX
  5
81
100
AcDbEntity
  8
None
370
               5
390
0
  6
Continuous
 62
               7
100
AcDbVertex
100
AcDb2dVertex
 10
-1.0363
 20
-0.30869
 30
0.0
  0
VERTEX
  5
82
100
AcDbEntity
  8
None
370
               5
390
0
  6
Continuous
 62
               7
100
AcDbVertex
100
AcDb2dVertex
 10
-1.1244799999999999
 20
-0.41892
 30
0.0
  0
VERTEX
  5
83
100
AcDbEntity
  8
None
370
               5
390
0
  6
Continuous
 62
               7
100
AcDbVertex
100
AcDb2dVertex
 10
-1.2788099999999998
 20
-0.63942
 30
0.0
  0
VERTEX
  5
84
100
AcDbEntity
  8
None
370
               5
390
0
  6
Continuous
 62
               7
100
AcDbVertex
100
AcDb2dVertex
 10
-1.4279399999999998
 20
-0.7716999999999999
 30
0.0
  0
VERTEX
  5
85
100
AcDbEntity
  8
None
370
               5
390
0
  6
Continuous
 62
               7
100
AcDbVertex
100
AcDb2dVertex
 10
-1.6692399999999998
 20
-1.0142499999999999
 30
0.0
  0
VERTEX
  5
86
100
AcDbEntity
  8
None
370
               5
390
0
  6
Continuous
 62
               7
100
AcDbVertex
100
AcDb2dVertex
 10
-1.7197799999999999
 20
-1.1024399999999999
 30
0.0
  0
VERTEX
  5
87
100
AcDbEntity
  8
None
370
               5
390
0
  6
Continuous
 62
               7
100
AcDbVertex
100
AcDb2dVertex
 10
-1.7197799999999999
 20
-1.2567699999999999
 30
0.0
  0
VERTEX
  5
88
100
AcDbEntity
  8
None
370
               5
390
0
  6
Continuous
 62
               7
100
AcDbVertex
100
AcDb2dVertex
 10
-1.7197799999999999
 20
-1.4111199999999999
 30
0.0
  0
VERTEX
  5
89
100
AcDbEntity
  8
None
370
               5
390
0
  6
Continuous
 62
               7
100
AcDbVertex
100
AcDb2dVertex
 10
-1.7197799999999999
 20
-1.4993099999999999
 30
0.0
  0
VERTEX
  5
8A
100
AcDbEntity
  8
None
370
               5
390
0
  6
Continuous
 62
               7
100
AcDbVertex
100
AcDb2dVertex
 10
-1.6977399999999998
 20
-1.5654499999999998
 30
0.0
  0
SEQEND
  5
8B
100
AcDbEntity
  8
None
370
               5
390
0
  6
Continuous
 62
               7
  0
POLYLINE
  5
8C
100
AcDbEntity
  8
None
370
               5
390
0
  6
Continuous
 62
               7
100
AcDb2dPolyline
 66
               1
 10
0.0
 20
0.0
 30
0.0
 75
               5
  0
VERTEX
  5
8D
100
AcDbEntity
  8
None
370
               5
390
0
  6
Continuous
 62
               7
100
AcDbVertex
100
AcDb2dVertex
 10
-1.7197799999999999
 20
-1.1410199999999999
 30
0.0
  0
VERTEX
  5
8E
100
AcDbEntity
  8
None
370
               5
390
0
  6
Continuous
 62
               7
100
AcDbVertex
100
AcDb2dVertex
 10
-1.7197799999999999
 20
-1.45522
 30
0.0
  0
VERTEX
  5
8F
100
AcDbEntity
  8
None
370
               5
390
0
  6
Continuous
 62
               7
100
AcDbVertex
100
AcDb2dVertex
 10
-1.7197799999999999
 20
-1.4772599999999998
 30
0.0
  0
VERTEX
  5
90
100
AcDbEntity
  8
None
370
               5
390
0
  6
Continuous
 62
               7
100
AcDbVertex
100
AcDb2dVertex
 10
-1.71427
 20
-1.5158499999999999
 30
0.0
  0
SEQEND
  5
91
100
AcDbEntity
  8
None
370
               5
390
0
  6
Continuous
 62
               7
  0
ENDBLK
  5
92
100
AcDbEntity
  8
None
390
0
100
AcDbBlockEnd
  0
BLOCK
  5
93
100
AcDbEntity
  8
None
390
0
100
AcDbBlockBegin
  2
Group
 70
               0
 10
0.0
 20
0.0
 30
0.0
  3
Group
  1

  0
POLYLINE
  5
94
102
{ACAD_REACTORS
330
9A
102
}
100
AcDbEntity
  8
None
370
               5
390
0
  6
Continuous
 62
               7
100
AcDb2dPolyline
 66
               1
 10
0.0
 20
0.0
 30
0.0
 70
               1
 75
               5
  0
VERTEX
  5
95
100
AcDbEntity
  8
None
370
               5
390
0
  6
Continuous
 62
               7
100
AcDbVertex
100
AcDb2dVertex
 10
-1.7694099999999999
 20
4.9440599999999995
 30
0.0
  0
VERTEX
  5
96
100
AcDbEntity
  8
None
370
               5
390
0
  6
Continuous
 62
               7
100
AcDbVertex
100
AcDb2dVertex
 10
-1.06941
 20
4.9440599999999995
 30
0.0
  0
VERTEX
  5
97
100
AcDbEntity
  8
None
370
               5
390
0
  6
Continuous
 62
               7
100
AcDbVertex
100
AcDb2dVertex
 10
-1.06941
 20
4.5940599999999998
 30
0.0
  0
VERTEX
  5
98
100
AcDbEntity
  8
None
370
               5
390
0
  6
Continuous
 62
               7
100
AcDbVertex
100
AcDb2dVertex
 10
-1.7694099999999999
 20
4.5940599999999998
 30
0.0
  0
SEQEND
  5
99
100
AcDbEntity
  8
None
370
               5
390
0
  6
Continuous
 62
               7
  0
HATCH
  5
9A
100
AcDbEntity
  8
None
370
               0
390
0
  6
Continuous
 62
             254
100
AcDbHatch
 10
0.0
 20
0.0
 30
0.0
210
0.0
220
0.0
230
1.0
  2
SOLID
 70
               1
 71
               1
 91
        1
 92
        1
 93
        4
 72
               1
 10
-1.7694099999999999
 20
4.9440599999999995
 11
-1.06941
 21
4.9440599999999995
 72
               1
 10
-1.06941
 20
4.9440599999999995
 11
-1.06941
 21
4.5940599999999998
 72
               1
 10
-1.06941
 20
4.5940599999999998
 11
-1.7694099999999999
 21
4.5940599999999998
 72
               1
 10
-1.7694099999999999
 20
4.5940599999999998
 11
-1.7694099999999999
 21
4.9440599999999995
 97
        1
330
94
 75
               0
 76
               1
 98
        1
 10
0.0
 20
0.0
  0
POLYLINE
  5
9B
102
{ACAD_REACTORS
330
A1
102
}
100
AcDbEntity
  8
None
370
               5
390
0
  6
Continuous
 62
               7
100
AcDb2dPolyline
 66
               1
 10
0.0
 20
0.0
 30
0.0
 70
               1
 75
               5
  0
VERTEX
  5
9C
100
AcDbEntity
  8
None
370
               5
390
0
  6
Continuous
 62
               7
100
AcDbVertex
100
AcDb2dVertex
 10
-1.7694099999999999
 20
4.4440599999999995
 30
0.0
  0
VERTEX
  5
9D
100
AcDbEntity
  8
None
370
               5
390
0
  6
Continuous
 62
               7
100
AcDbVertex
100
AcDb2dVertex
 10
-1.06941
 20
4.4440599999999995
 30
0.0
  0
VERTEX
  5
9E
100
AcDbEntity
  8
None
370
               5
390
0
  6
Continuous
 62
               7
100
AcDbVertex
100
AcDb2dVertex
 10
-1.06941
 20
4.0940599999999998
 30
0.0
  0
VERTEX
  5
9F
100
AcDbEntity
  8
None
370
               5
390
0
  6
Continuous
 62
               7
100
AcDbVertex
100
AcDb2dVertex
 10
-1.7694099999999999
 20
4.0940599999999998
 30
0.0
  0
SEQEND
  5
A0
100
AcDbEntity
  8
None
370
               5
390
0
  6
Continuous
 62
               7
  0
HATCH
  5
A1
100
AcDbEntity
  8
None
370
               0
390
0
  6
Continuous
 62
             254
100
AcDbHatch
 10
0.0
 20
0.0
 30
0.0
210
0.0
220
0.0
230
1.0
  2
SOLID
 70
               1
 71
               1
 91
        1
 92
        1
 93
        4
 72
               1
 10
-1.7694099999999999
 20
4.4440599999999995
 11
-1.06941
 21
4.4440599999999995
 72
               1
 10
-1.06941
 20
4.4440599999999995
 11
-1.06941
 21
4.0940599999999998
 72
               1
 10
-1.06941
 20
4.0940599999999998
 11
-1.7694099999999999
 21
4.0940599999999998
 72
               1
 10
-1.7694099999999999
 20
4.0940599999999998
 11
-1.7694099999999999
 21
4.4440599999999995
 97
        1
330
9B
 75
               0
 76
               1
 98
        1
 10
0.0
 20
0.0
  0
POLYLINE
  5
A2
102
{ACAD_REACTORS
330
A8
102
}
100
AcDbEntity
  8
None
370
               5
390
0
  6
Continuous
 62
               7
100
AcDb2dPolyline
 66
               1
 10
0.0
 20
0.0
 30
0.0
 70
               1
 75
               5
  0
VERTEX
  5
A3
100
AcDbEntity
  8
None
370
               5
390
0
  6
Continuous
 62
               7
100
AcDbVertex
100
AcDb2dVertex
 10
-1.7694099999999999
 20
3.9440599999999995
 30
0.0
  0
VERTEX
  5
A4
100
AcDbEntity
  8
None
370
               5
390
0
  6
Continuous
 62
               7
100
AcDbVertex
100
AcDb2dVertex
 10
-1.06941
 20
3.9440599999999995
 30
0.0
  0
VERTEX
  5
A5
100
AcDbEntity
  8
None
370
               5
390
0
  6
Continuous
 62
               7
100
AcDbVertex
100
AcDb2dVertex
 10
-1.06941
 20
3.5940599999999998
 30
0.0
  0
VERTEX
  5
A6
100
AcDbEntity
  8
None
370
               5
390
0
  6
Continuous
 62
               7
100
AcDbVertex
100
AcDb2dVertex
 10
-1.7694099999999999
 20
3.5940599999999998
 30
0.0
  0
SEQEND
  5
A7
100
AcDbEntity
  8
None
370
               5
390
0
  6
Continuous
 62
               7
  0
HATCH
  5
A8
100
AcDbEntity
  8
None
370
               0
390
0
  6
Continuous
 62
             254
100
AcDbHatch
 10
0.0
 20
0.0
 30
0.0
210
0.0
220
0.0
230
1.0
  2
SOLID
 70
               1
 71
               1
 91
        1
 92
        1
 93
        4
 72
               1
 10
-1.7694099999999999
 20
3.9440599999999995
 11
-1.06941
 21
3.9440599999999995
 72
               1
 10
-1.06941
 20
3.9440599999999995
 11
-1.06941
 21
3.5940599999999998
 72
               1
 10
-1.06941
 20
3.5940599999999998
 11
-1.7694099999999999
 21
3.5940599999999998
 72
               1
 10
-1.7694099999999999
 20
3.5940599999999998
 11
-1.7694099999999999
 21
3.9440599999999995
 97
        1
330
A2
 75
               0
 76
               1
 98
        1
 10
0.0
 20
0.0
  0
POLYLINE
  5
A9
102
{ACAD_REACTORS
330
AF
102
}
100
AcDbEntity
  8
None
370
               5
390
0
  6
Continuous
 62
               7
100
AcDb2dPolyline
 66
               1
 10
0.0
 20
0.0
 30
0.0
 70
               1
 75
               5
  0
VERTEX
  5
AA
100
AcDbEntity
  8
None
370
               5
390
0
  6
Continuous
 62
               7
100
AcDbVertex
100
AcDb2dVertex
 10
-1.7694099999999999
 20
3.4440599999999999
 30
0.0
  0
VERTEX
  5
AB
100
AcDbEntity
  8
None
370
               5
390
0
  6
Continuous
 62
               7
100
AcDbVertex
100
AcDb2dVertex
 10
-1.06941
 20
3.4440599999999999
 30
0.0
  0
VERTEX
  5
AC
100
AcDbEntity
  8
None
370
               5
390
0
  6
Continuous
 62
               7
100
AcDbVertex
100
AcDb2dVertex
 10
-1.06941
 20
3.0940599999999998
 30
0.0
  0
VERTEX
  5
AD
100
AcDbEntity
  8
None
370
               5
390
0
  6
Continuous
 62
               7
100
AcDbVertex
100
AcDb2dVertex
 10
-1.7694099999999999
 20
3.0940599999999998
 30
0.0
  0
SEQEND
  5
AE
100
AcDbEntity
  8
None
370
               5
390
0
  6
Continuous
 62
               7
  0
HATCH
  5
AF
100
AcDbEntity
  8
None
370
               0
390
0
  6
Continuous
 62
             254
100
AcDbHatch
 10
0.0
 20
0.0
 30
0.0
210
0.0
220
0.0
230
1.0
  2
SOLID
 70
               1
 71
               1
 91
        1
 92
        1
 93
        4
 72
               1
 10
-1.7694099999999999
 20
3.4440599999999999
 11
-1.06941
 21
3.4440599999999999
 72
               1
 10
-1.06941
 20
3.4440599999999999
 11
-1.06941
 21
3.0940599999999998
 72
               1
 10
-1.06941
 20
3.0940599999999998
 11
-1.7694099999999999
 21
3.0940599999999998
 72
               1
 10
-1.7694099999999999
 20
3.0940599999999998
 11
-1.7694099999999999
 21
3.4440599999999999
 97
        1
330
A9
 75
               0
 76
               1
 98
        1
 10
0.0
 20
0.0
  0
POLYLINE
  5
B0
102
{ACAD_REACTORS
330
B6
102
}
100
AcDbEntity
  8
None
370
               5
390
0
  6
Continuous
 62
               7
100
AcDb2dPolyline
 66
               1
 10
0.0
 20
0.0
 30
0.0
 70
               1
 75
               5
  0
VERTEX
  5
B1
100
AcDbEntity
  8
None
370
               5
390
0
  6
Continuous
 62
               7
100
AcDbVertex
100
AcDb2dVertex
 10
-1.7694099999999999
 20
2.9440599999999999
 30
0.0
  0
VERTEX
  5
B2
100
AcDbEntity
  8
None
370
               5
390
0
  6
Continuous
 62
               7
100
AcDbVertex
100
AcDb2dVertex
 10
-1.06941
 20
2.9440599999999999
 30
0.0
  0
VERTEX
  5
B3
100
AcDbEntity
  8
None
370
               5
390
0
  6
Continuous
 62
               7
100
AcDbVertex
100
AcDb2dVertex
 10
-1.06941
 20
2.5940599999999998
 30
0.0
  0
VERTEX
  5
B4
100
AcDbEntity
  8
None
370
               5
390
0
  6
Continuous
 62
               7
100
AcDbVertex
100
AcDb2dVertex
 10
-1.7694099999999999
 20
2.5940599999999998
 30
0.0
  0
SEQEND
  5
B5
100
AcDbEntity
  8
None
370
               5
390
0
  6
Continuous
 62
               7
  0
HATCH
  5
B6
100
AcDbEntity
  8
None
370
               0
390
0
  6
Continuous
 62
             254
100
AcDbHatch
 10
0.0
 20
0.0
 30
0.0
210
0.0
220
0.0
230
1.0
  2
SOLID
 70
               1
 71
               1
 91
        1
 92
        1
 93
        4
 72
               1
 10
-1.7694099999999999
 20
2.9440599999999999
 11
-1.06941
 21
2.9440599999999999
 72
               1
 10
-1.06941
 20
2.9440599999999999
 11
-1.06941
 21
2.5940599999999998
 72
               1
 10
-1.06941
 20
2.5940599999999998
 11
-1.7694099999999999
 21
2.5940599999999998
 72
               1
 10
-1.7694099999999999
 20
2.5940599999999998
 11
-1.7694099999999999
 21
2.9440599999999999
 97
        1
330
B0
 75
               0
 76
               1
 98
        1
 10
0.0
 20
0.0
  0
POLYLINE
  5
B7
102
{ACAD_REACTORS
330
BD
102
}
100
AcDbEntity
  8
None
370
               5
390
0
  6
Continuous
 62
               7
100
AcDb2dPolyline
 66
               1
 10
0.0
 20
0.0
 30
0.0
 70
               1
 75
               5
  0
VERTEX
  5
B8
100
AcDbEntity
  8
None
370
               5
390
0
  6
Continuous
 62
               7
100
AcDbVertex
100
AcDb2dVertex
 10
-1.7694099999999999
 20
2.4440599999999999
 30
0.0
  0
VERTEX
  5
B9
100
AcDbEntity
  8
None
370
               5
390
0
  6
Continuous
 62
               7
100
AcDbVertex
100
AcDb2dVertex
 10
-1.06941
 20
2.4440599999999999
 30
0.0
  0
VERTEX
  5
BA
100
AcDbEntity
  8
None
370
               5
390
0
  6
Continuous
 62
               7
100
AcDbVertex
100
AcDb2dVertex
 10
-1.06941
 20
2.0940599999999998
 30
0.0
  0
VERTEX
  5
BB
100
AcDbEntity
  8
None
370
               5
390
0
  6
Continuous
 62
               7
100
AcDbVertex
100
AcDb2dVertex
 10
-1.7694099999999999
 20
2.0940599999999998
 30
0.0
  0
SEQEND
  5
BC
100
AcDbEntity
  8
None
370
               5
390
0
  6
Continuous
 62
               7
  0
HATCH
  5
BD
100
AcDbEntity
  8
None
370
               0
390
0
  6
Continuous
 62
             254
100
AcDbHatch
 10
0.0
 20
0.0
 30
0.0
210
0.0
220
0.0
230
1.0
  2
SOLID
 70
               1
 71
               1
 91
        1
 92
        1
 93
        4
 72
               1
 10
-1.7694099999999999
 20
2.4440599999999999
 11
-1.06941
 21
2.4440599999999999
 72
               1
 10
-1.06941
 20
2.4440599999999999
 11
-1.06941
 21
2.0940599999999998
 72
               1
 10
-1.06941
 20
2.0940599999999998
 11
-1.7694099999999999
 21
2.0940599999999998
 72
               1
 10
-1.7694099999999999
 20
2.0940599999999998
 11
-1.7694099999999999
 21
2.4440599999999999
 97
        1
330
B7
 75
               0
 76
               1
 98
        1
 10
0.0
 20
0.0
  0
POLYLINE
  5
BE
102
{ACAD_REACTORS
330
C4
102
}
100
AcDbEntity
  8
None
370
               5
390
0
  6
Continuous
 62
               7
100
AcDb2dPolyline
 66
               1
 10
0.0
 20
0.0
 30
0.0
 70
               1
 75
               5
  0
VERTEX
  5
BF
100
AcDbEntity
  8
None
370
               5
390
0
  6
Continuous
 62
               7
100
AcDbVertex
100
AcDb2dVertex
 10
-1.7694099999999999
 20
1.9440599999999999
 30
0.0
  0
VERTEX
  5
C0
100
AcDbEntity
  8
None
370
               5
390
0
  6
Continuous
 62
               7
100
AcDbVertex
100
AcDb2dVertex
 10
-1.06941
 20
1.9440599999999999
 30
0.0
  0
VERTEX
  5
C1
100
AcDbEntity
  8
None
370
               5
390
0
  6
Continuous
 62
               7
100
AcDbVertex
100
AcDb2dVertex
 10
-1.06941
 20
1.5940599999999998
 30
0.0
  0
VERTEX
  5
C2
100
AcDbEntity
  8
None
370
               5
390
0
  6
Continuous
 62
               7
100
AcDbVertex
100
AcDb2dVertex
 10
-1.7694099999999999
 20
1.5940599999999998
 30
0.0
  0
SEQEND
  5
C3
100
AcDbEntity
  8
None
370
               5
390
0
  6
Continuous
 62
               7
  0
HATCH
  5
C4
100
AcDbEntity
  8
None
370
               0
390
0
  6
Continuous
 62
             254
100
AcDbHatch
 10
0.0
 20
0.0
 30
0.0
210
0.0
220
0.0
230
1.0
  2
SOLID
 70
               1
 71
               1
 91
        1
 92
        1
 93
        4
 72
               1
 10
-1.7694099999999999
 20
1.9440599999999999
 11
-1.06941
 21
1.9440599999999999
 72
               1
 10
-1.06941
 20
1.9440599999999999
 11
-1.06941
 21
1.5940599999999998
 72
               1
 10
-1.06941
 20
1.5940599999999998
 11
-1.7694099999999999
 21
1.5940599999999998
 72
               1
 10
-1.7694099999999999
 20
1.5940599999999998
 11
-1.7694099999999999
 21
1.9440599999999999
 97
        1
330
BE
 75
               0
 76
               1
 98
        1
 10
0.0
 20
0.0
  0
POLYLINE
  5
C5
102
{ACAD_REACTORS
330
CB
102
}
100
AcDbEntity
  8
None
370
               5
390
0
  6
Continuous
 62
               7
100
AcDb2dPolyline
 66
               1
 10
0.0
 20
0.0
 30
0.0
 70
               1
 75
               5
  0
VERTEX
  5
C6
100
AcDbEntity
  8
None
370
               5
390
0
  6
Continuous
 62
               7
100
AcDbVertex
100
AcDb2dVertex
 10
-1.7694099999999999
 20
1.4440599999999999
 30
0.0
  0
VERTEX
  5
C7
100
AcDbEntity
  8
None
370
               5
390
0
  6
Continuous
 62
               7
100
AcDbVertex
100
AcDb2dVertex
 10
-1.06941
 20
1.4440599999999999
 30
0.0
  0
VERTEX
  5
C8
100
AcDbEntity
  8
None
370
               5
390
0
  6
Continuous
 62
               7
100
AcDbVertex
100
AcDb2dVertex
 10
-1.06941
 20
1.0940599999999998
 30
0.0
  0
VERTEX
  5
C9
100
AcDbEntity
  8
None
370
               5
390
0
  6
Continuous
 62
               7
100
AcDbVertex
100
AcDb2dVertex
 10
-1.7694099999999999
 20
1.0940599999999998
 30
0.0
  0
SEQEND
  5
CA
100
AcDbEntity
  8
None
370
               5
390
0
  6
Continuous
 62
               7
  0
HATCH
  5
CB
100
AcDbEntity
  8
None
370
               0
390
0
  6
Continuous
 62
             254
100
AcDbHatch
 10
0.0
 20
0.0
 30
0.0
210
0.0
220
0.0
230
1.0
  2
SOLID
 70
               1
 71
               1
 91
        1
 92
        1
 93
        4
 72
               1
 10
-1.7694099999999999
 20
1.4440599999999999
 11
-1.06941
 21
1.4440599999999999
 72
               1
 10
-1.06941
 20
1.4440599999999999
 11
-1.06941
 21
1.0940599999999998
 72
               1
 10
-1.06941
 20
1.0940599999999998
 11
-1.7694099999999999
 21
1.0940599999999998
 72
               1
 10
-1.7694099999999999
 20
1.0940599999999998
 11
-1.7694099999999999
 21
1.4440599999999999
 97
        1
330
C5
 75
               0
 76
               1
 98
        1
 10
0.0
 20
0.0
  0
POLYLINE
  5
CC
102
{ACAD_REACTORS
330
D2
102
}
100
AcDbEntity
  8
None
370
               5
390
0
  6
Continuous
 62
               7
100
AcDb2dPolyline
 66
               1
 10
0.0
 20
0.0
 30
0.0
 70
               1
 75
               5
  0
VERTEX
  5
CD
100
AcDbEntity
  8
None
370
               5
390
0
  6
Continuous
 62
               7
100
AcDbVertex
100
AcDb2dVertex
 10
-1.7694099999999999
 20
0.9440599999999999
 30
0.0
  0
VERTEX
  5
CE
100
AcDbEntity
  8
None
370
               5
390
0
  6
Continuous
 62
               7
100
AcDbVertex
100
AcDb2dVertex
 10
-1.06941
 20
0.9440599999999999
 30
0.0
  0
VERTEX
  5
CF
100
AcDbEntity
  8
None
370
               5
390
0
  6
Continuous
 62
               7
100
AcDbVertex
100
AcDb2dVertex
 10
-1.06941
 20
0.5940599999999999
 30
0.0
  0
VERTEX
  5
D0
100
AcDbEntity
  8
None
370
               5
390
0
  6
Continuous
 62
               7
100
AcDbVertex
100
AcDb2dVertex
 10
-1.7694099999999999
 20
0.5940599999999999
 30
0.0
  0
SEQEND
  5
D1
100
AcDbEntity
  8
None
370
               5
390
0
  6
Continuous
 62
               7
  0
HATCH
  5
D2
100
AcDbEntity
  8
None
370
               0
390
0
  6
Continuous
 62
             254
100
AcDbHatch
 10
0.0
 20
0.0
 30
0.0
210
0.0
220
0.0
230
1.0
  2
SOLID
 70
               1
 71
               1
 91
        1
 92
        1
 93
        4
 72
               1
 10
-1.7694099999999999
 20
0.9440599999999999
 11
-1.06941
 21
0.9440599999999999
 72
               1
 10
-1.06941
 20
0.9440599999999999
 11
-1.06941
 21
0.5940599999999999
 72
               1
 10
-1.06941
 20
0.5940599999999999
 11
-1.7694099999999999
 21
0.5940599999999999
 72
               1
 10
-1.7694099999999999
 20
0.5940599999999999
 11
-1.7694099999999999
 21
0.9440599999999999
 97
        1
330
CC
 75
               0
 76
               1
 98
        1
 10
0.0
 20
0.0
  0
POLYLINE
  5
D3
102
{ACAD_REACTORS
330
D9
102
}
100
AcDbEntity
  8
None
370
               5
390
0
  6
Continuous
 62
               7
100
AcDb2dPolyline
 66
               1
 10
0.0
 20
0.0
 30
0.0
 70
               1
 75
               5
  0
VERTEX
  5
D4
100
AcDbEntity
  8
None
370
               5
390
0
  6
Continuous
 62
               7
100
AcDbVertex
100
AcDb2dVertex
 10
5.5805899999999999
 20
4.9440599999999995
 30
0.0
  0
VERTEX
  5
D5
100
AcDbEntity
  8
None
370
               5
390
0
  6
Continuous
 62
               7
100
AcDbVertex
100
AcDb2dVertex
 10
6.2805899999999992
 20
4.9440599999999995
 30
0.0
  0
VERTEX
  5
D6
100
AcDbEntity
  8
None
370
               5
390
0
  6
Continuous
 62
               7
100
AcDbVertex
100
AcDb2dVertex
 10
6.2805899999999992
 20
4.5940599999999998
 30
0.0
  0
VERTEX
  5
D7
100
AcDbEntity
  8
None
370
               5
390
0
  6
Continuous
 62
               7
100
AcDbVertex
100
AcDb2dVertex
 10
5.5805899999999999
 20
4.5940599999999998
 30
0.0
  0
SEQEND
  5
D8
100
AcDbEntity
  8
None
370
               5
390
0
  6
Continuous
 62
               7
  0
HATCH
  5
D9
100
AcDbEntity
  8
None
370
               0
390
0
  6
Continuous
 62
             254
100
AcDbHatch
 10
0.0
 20
0.0
 30
0.0
210
0.0
220
0.0
230
1.0
  2
SOLID
 70
               1
 71
               1
 91
        1
 92
        1
 93
        4
 72
               1
 10
5.5805899999999999
 20
4.9440599999999995
 11
6.2805899999999992
 21
4.9440599999999995
 72
               1
 10
6.2805899999999992
 20
4.9440599999999995
 11
6.2805899999999992
 21
4.5940599999999998
 72
               1
 10
6.2805899999999992
 20
4.5940599999999998
 11
5.5805899999999999
 21
4.5940599999999998
 72
               1
 10
5.5805899999999999
 20
4.5940599999999998
 11
5.5805899999999999
 21
4.9440599999999995
 97
        1
330
D3
 75
               0
 76
               1
 98
        1
 10
0.0
 20
0.0
  0
POLYLINE
  5
DA
102
{ACAD_REACTORS
330
E0
102
}
100
AcDbEntity
  8
None
370
               5
390
0
  6
Continuous
 62
               7
100
AcDb2dPolyline
 66
               1
 10
0.0
 20
0.0
 30
0.0
 70
               1
 75
               5
  0
VERTEX
  5
DB
100
AcDbEntity
  8
None
370
               5
390
0
  6
Continuous
 62
               7
100
AcDbVertex
100
AcDb2dVertex
 10
5.5805899999999999
 20
4.4440599999999995
 30
0.0
  0
VERTEX
  5
DC
100
AcDbEntity
  8
None
370
               5
390
0
  6
Continuous
 62
               7
100
AcDbVertex
100
AcDb2dVertex
 10
6.2805899999999992
 20
4.4440599999999995
 30
0.0
  0
VERTEX
  5
DD
100
AcDbEntity
  8
None
370
               5
390
0
  6
Continuous
 62
               7
100
AcDbVertex
100
AcDb2dVertex
 10
6.2805899999999992
 20
4.0940599999999998
 30
0.0
  0
VERTEX
  5
DE
100
AcDbEntity
  8
None
370
               5
390
0
  6
Continuous
 62
               7
100
AcDbVertex
100
AcDb2dVertex
 10
5.5805899999999999
 20
4.0940599999999998
 30
0.0
  0
SEQEND
  5
DF
100
AcDbEntity
  8
None
370
               5
390
0
  6
Continuous
 62
               7
  0
HATCH
  5
E0
100
AcDbEntity
  8
None
370
               0
390
0
  6
Continuous
 62
             254
100
AcDbHatch
 10
0.0
 20
0.0
 30
0.0
210
0.0
220
0.0
230
1.0
  2
SOLID
 70
               1
 71
               1
 91
        1
 92
        1
 93
        4
 72
               1
 10
5.5805899999999999
 20
4.4440599999999995
 11
6.2805899999999992
 21
4.4440599999999995
 72
               1
 10
6.2805899999999992
 20
4.4440599999999995
 11
6.2805899999999992
 21
4.0940599999999998
 72
               1
 10
6.2805899999999992
 20
4.0940599999999998
 11
5.5805899999999999
 21
4.0940599999999998
 72
               1
 10
5.5805899999999999
 20
4.0940599999999998
 11
5.5805899999999999
 21
4.4440599999999995
 97
        1
330
DA
 75
               0
 76
               1
 98
        1
 10
0.0
 20
0.0
  0
POLYLINE
  5
E1
102
{ACAD_REACTORS
330
E7
102
}
100
AcDbEntity
  8
None
370
               5
390
0
  6
Continuous
 62
               7
100
AcDb2dPolyline
 66
               1
 10
0.0
 20
0.0
 30
0.0
 70
               1
 75
               5
  0
VERTEX
  5
E2
100
AcDbEntity
  8
None
370
               5
390
0
  6
Continuous
 62
               7
100
AcDbVertex
100
AcDb2dVertex
 10
5.5805899999999999
 20
3.9440599999999995
 30
0.0
  0
VERTEX
  5
E3
100
AcDbEntity
  8
None
370
               5
390
0
  6
Continuous
 62
               7
100
AcDbVertex
100
AcDb2dVertex
 10
6.2805899999999992
 20
3.9440599999999995
 30
0.0
  0
VERTEX
  5
E4
100
AcDbEntity
  8
None
370
               5
390
0
  6
Continuous
 62
               7
100
AcDbVertex
100
AcDb2dVertex
 10
6.2805899999999992
 20
3.5940599999999998
 30
0.0
  0
VERTEX
  5
E5
100
AcDbEntity
  8
None
370
               5
390
0
  6
Continuous
 62
               7
100
AcDbVertex
100
AcDb2dVertex
 10
5.5805899999999999
 20
3.5940599999999998
 30
0.0
  0
SEQEND
  5
E6
100
AcDbEntity
  8
None
370
               5
390
0
  6
Continuous
 62
               7
  0
HATCH
  5
E7
100
AcDbEntity
  8
None
370
               0
390
0
  6
Continuous
 62
             254
100
AcDbHatch
 10
0.0
 20
0.0
 30
0.0
210
0.0
220
0.0
230
1.0
  2
SOLID
 70
               1
 71
               1
 91
        1
 92
        1
 93
        4
 72
               1
 10
5.5805899999999999
 20
3.9440599999999995
 11
6.2805899999999992
 21
3.9440599999999995
 72
               1
 10
6.2805899999999992
 20
3.9440599999999995
 11
6.2805899999999992
 21
3.5940599999999998
 72
               1
 10
6.2805899999999992
 20
3.5940599999999998
 11
5.5805899999999999
 21
3.5940599999999998
 72
               1
 10
5.5805899999999999
 20
3.5940599999999998
 11
5.5805899999999999
 21
3.9440599999999995
 97
        1
330
E1
 75
               0
 76
               1
 98
        1
 10
0.0
 20
0.0
  0
POLYLINE
  5
E8
102
{ACAD_REACTORS
330
EE
102
}
100
AcDbEntity
  8
None
370
               5
390
0
  6
Continuous
 62
               7
100
AcDb2dPolyline
 66
               1
 10
0.0
 20
0.0
 30
0.0
 70
               1
 75
               5
  0
VERTEX
  5
E9
100
AcDbEntity
  8
None
370
               5
390
0
  6
Continuous
 62
               7
100
AcDbVertex
100
AcDb2dVertex
 10
5.5805899999999999
 20
3.4440599999999999
 30
0.0
  0
VERTEX
  5
EA
100
AcDbEntity
  8
None
370
               5
390
0
  6
Continuous
 62
               7
100
AcDbVertex
100
AcDb2dVertex
 10
6.2805899999999992
 20
3.4440599999999999
 30
0.0
  0
VERTEX
  5
EB
100
AcDbEntity
  8
None
370
               5
390
0
  6
Continuous
 62
               7
100
AcDbVertex
100
AcDb2dVertex
 10
6.2805899999999992
 20
3.0940599999999998
 30
0.0
  0
VERTEX
  5
EC
100
AcDbEntity
  8
None
370
               5
390
0
  6
Continuous
 62
               7
100
AcDbVertex
100
AcDb2dVertex
 10
5.5805899999999999
 20
3.0940599999999998
 30
0.0
  0
SEQEND
  5
ED
100
AcDbEntity
  8
None
370
               5
390
0
  6
Continuous
 62
               7
  0
HATCH
  5
EE
100
AcDbEntity
  8
None
370
               0
390
0
  6
Continuous
 62
             254
100
AcDbHatch
 10
0.0
 20
0.0
 30
0.0
210
0.0
220
0.0
230
1.0
  2
SOLID
 70
               1
 71
               1
 91
        1
 92
        1
 93
        4
 72
               1
 10
5.5805899999999999
 20
3.4440599999999999
 11
6.2805899999999992
 21
3.4440599999999999
 72
               1
 10
6.2805899999999992
 20
3.4440599999999999
 11
6.2805899999999992
 21
3.0940599999999998
 72
               1
 10
6.2805899999999992
 20
3.0940599999999998
 11
5.5805899999999999
 21
3.0940599999999998
 72
               1
 10
5.5805899999999999
 20
3.0940599999999998
 11
5.5805899999999999
 21
3.4440599999999999
 97
        1
330
E8
 75
               0
 76
               1
 98
        1
 10
0.0
 20
0.0
  0
POLYLINE
  5
EF
102
{ACAD_REACTORS
330
F5
102
}
100
AcDbEntity
  8
None
370
               5
390
0
  6
Continuous
 62
               7
100
AcDb2dPolyline
 66
               1
 10
0.0
 20
0.0
 30
0.0
 70
               1
 75
               5
  0
VERTEX
  5
F0
100
AcDbEntity
  8
None
370
               5
390
0
  6
Continuous
 62
               7
100
AcDbVertex
100
AcDb2dVertex
 10
5.5805899999999999
 20
2.9440599999999999
 30
0.0
  0
VERTEX
  5
F1
100
AcDbEntity
  8
None
370
               5
390
0
  6
Continuous
 62
               7
100
AcDbVertex
100
AcDb2dVertex
 10
6.2805899999999992
 20
2.9440599999999999
 30
0.0
  0
VERTEX
  5
F2
100
AcDbEntity
  8
None
370
               5
390
0
  6
Continuous
 62
               7
100
AcDbVertex
100
AcDb2dVertex
 10
6.2805899999999992
 20
2.5940599999999998
 30
0.0
  0
VERTEX
  5
F3
100
AcDbEntity
  8
None
370
               5
390
0
  6
Continuous
 62
               7
100
AcDbVertex
100
AcDb2dVertex
 10
5.5805899999999999
 20
2.5940599999999998
 30
0.0
  0
SEQEND
  5
F4
100
AcDbEntity
  8
None
370
               5
390
0
  6
Continuous
 62
               7
  0
HATCH
  5
F5
100
AcDbEntity
  8
None
370
               0
390
0
  6
Continuous
 62
             254
100
AcDbHatch
 10
0.0
 20
0.0
 30
0.0
210
0.0
220
0.0
230
1.0
  2
SOLID
 70
               1
 71
               1
 91
        1
 92
        1
 93
        4
 72
               1
 10
5.5805899999999999
 20
2.9440599999999999
 11
6.2805899999999992
 21
2.9440599999999999
 72
               1
 10
6.2805899999999992
 20
2.9440599999999999
 11
6.2805899999999992
 21
2.5940599999999998
 72
               1
 10
6.2805899999999992
 20
2.5940599999999998
 11
5.5805899999999999
 21
2.5940599999999998
 72
               1
 10
5.5805899999999999
 20
2.5940599999999998
 11
5.5805899999999999
 21
2.9440599999999999
 97
        1
330
EF
 75
               0
 76
               1
 98
        1
 10
0.0
 20
0.0
  0
POLYLINE
  5
F6
102
{ACAD_REACTORS
330
FC
102
}
100
AcDbEntity
  8
None
370
               5
390
0
  6
Continuous
 62
               7
100
AcDb2dPolyline
 66
               1
 10
0.0
 20
0.0
 30
0.0
 70
               1
 75
               5
  0
VERTEX
  5
F7
100
AcDbEntity
  8
None
370
               5
390
0
  6
Continuous
 62
               7
100
AcDbVertex
100
AcDb2dVertex
 10
5.5805899999999999
 20
2.4440599999999999
 30
0.0
  0
VERTEX
  5
F8
100
AcDbEntity
  8
None
370
               5
390
0
  6
Continuous
 62
               7
100
AcDbVertex
100
AcDb2dVertex
 10
6.2805899999999992
 20
2.4440599999999999
 30
0.0
  0
VERTEX
  5
F9
100
AcDbEntity
  8
None
370
               5
390
0
  6
Continuous
 62
               7
100
AcDbVertex
100
AcDb2dVertex
 10
6.2805899999999992
 20
2.0940599999999998
 30
0.0
  0
VERTEX
  5
FA
100
AcDbEntity
  8
None
370
               5
390
0
  6
Continuous
 62
               7
100
AcDbVertex
100
AcDb2dVertex
 10
5.5805899999999999
 20
2.0940599999999998
 30
0.0
  0
SEQEND
  5
FB
100
AcDbEntity
  8
None
370
               5
390
0
  6
Continuous
 62
               7
  0
HATCH
  5
FC
100
AcDbEntity
  8
None
370
               0
390
0
  6
Continuous
 62
             254
100
AcDbHatch
 10
0.0
 20
0.0
 30
0.0
210
0.0
220
0.0
230
1.0
  2
SOLID
 70
               1
 71
               1
 91
        1
 92
        1
 93
        4
 72
               1
 10
5.5805899999999999
 20
2.4440599999999999
 11
6.2805899999999992
 21
2.4440599999999999
 72
               1
 10
6.2805899999999992
 20
2.4440599999999999
 11
6.2805899999999992
 21
2.0940599999999998
 72
               1
 10
6.2805899999999992
 20
2.0940599999999998
 11
5.5805899999999999
 21
2.0940599999999998
 72
               1
 10
5.5805899999999999
 20
2.0940599999999998
 11
5.5805899999999999
 21
2.4440599999999999
 97
        1
330
F6
 75
               0
 76
               1
 98
        1
 10
0.0
 20
0.0
  0
POLYLINE
  5
FD
102
{ACAD_REACTORS
330
103
102
}
100
AcDbEntity
  8
None
370
               5
390
0
  6
Continuous
 62
               7
100
AcDb2dPolyline
 66
               1
 10
0.0
 20
0.0
 30
0.0
 70
               1
 75
               5
  0
VERTEX
  5
FE
100
AcDbEntity
  8
None
370
               5
390
0
  6
Continuous
 62
               7
100
AcDbVertex
100
AcDb2dVertex
 10
5.5805899999999999
 20
1.9440599999999999
 30
0.0
  0
VERTEX
  5
FF
100
AcDbEntity
  8
None
370
               5
390
0
  6
Continuous
 62
               7
100
AcDbVertex
100
AcDb2dVertex
 10
6.2805899999999992
 20
1.9440599999999999
 30
0.0
  0
VERTEX
  5
100
100
AcDbEntity
  8
None
370
               5
390
0
  6
Continuous
 62
               7
100
AcDbVertex
100
AcDb2dVertex
 10
6.2805899999999992
 20
1.5940599999999998
 30
0.0
  0
VERTEX
  5
101
100
AcDbEntity
  8
None
370
               5
390
0
  6
Continuous
 62
               7
100
AcDbVertex
100
AcDb2dVertex
 10
5.5805899999999999
 20
1.5940599999999998
 30
0.0
  0
SEQEND
  5
102
100
AcDbEntity
  8
None
370
               5
390
0
  6
Continuous
 62
               7
  0
HATCH
  5
103
100
AcDbEntity
  8
None
370
               0
390
0
  6
Continuous
 62
             254
100
AcDbHatch
 10
0.0
 20
0.0
 30
0.0
210
0.0
220
0.0
230
1.0
  2
SOLID
 70
               1
 71
               1
 91
        1
 92
        1
 93
        4
 72
               1
 10
5.5805899999999999
 20
1.9440599999999999
 11
6.2805899999999992
 21
1.9440599999999999
 72
               1
 10
6.2805899999999992
 20
1.9440599999999999
 11
6.2805899999999992
 21
1.5940599999999998
 72
               1
 10
6.2805899999999992
 20
1.5940599999999998
 11
5.5805899999999999
 21
1.5940599999999998
 72
               1
 10
5.5805899999999999
 20
1.5940599999999998
 11
5.5805899999999999
 21
1.9440599999999999
 97
        1
330
FD
 75
               0
 76
               1
 98
        1
 10
0.0
 20
0.0
  0
POLYLINE
  5
104
102
{ACAD_REACTORS
330
10A
102
}
100
AcDbEntity
  8
None
370
               5
390
0
  6
Continuous
 62
               7
100
AcDb2dPolyline
 66
               1
 10
0.0
 20
0.0
 30
0.0
 70
               1
 75
               5
  0
VERTEX
  5
105
100
AcDbEntity
  8
None
370
               5
390
0
  6
Continuous
 62
               7
100
AcDbVertex
100
AcDb2dVertex
 10
5.5805899999999999
 20
1.4440599999999999
 30
0.0
  0
VERTEX
  5
106
100
AcDbEntity
  8
None
370
               5
390
0
  6
Continuous
 62
               7
100
AcDbVertex
100
AcDb2dVertex
 10
6.2805899999999992
 20
1.4440599999999999
 30
0.0
  0
VERTEX
  5
107
100
AcDbEntity
  8
None
370
               5
390
0
  6
Continuous
 62
               7
100
AcDbVertex
100
AcDb2dVertex
 10
6.2805899999999992
 20
1.0940599999999998
 30
0.0
  0
VERTEX
  5
108
100
AcDbEntity
  8
None
370
               5
390
0
  6
Continuous
 62
               7
100
AcDbVertex
100
AcDb2dVertex
 10
5.5805899999999999
 20
1.0940599999999998
 30
0.0
  0
SEQEND
  5
109
100
AcDbEntity
  8
None
370
               5
390
0
  6
Continuous
 62
               7
  0
HATCH
  5
10A
100
AcDbEntity
  8
None
370
               0
390
0
  6
Continuous
 62
             254
100
AcDbHatch
 10
0.0
 20
0.0
 30
0.0
210
0.0
220
0.0
230
1.0
  2
SOLID
 70
               1
 71
               1
 91
        1
 92
        1
 93
        4
 72
               1
 10
5.5805899999999999
 20
1.4440599999999999
 11
6.2805899999999992
 21
1.4440599999999999
 72
               1
 10
6.2805899999999992
 20
1.4440599999999999
 11
6.2805899999999992
 21
1.0940599999999998
 72
               1
 10
6.2805899999999992
 20
1.0940599999999998
 11
5.5805899999999999
 21
1.0940599999999998
 72
               1
 10
5.5805899999999999
 20
1.0940599999999998
 11
5.5805899999999999
 21
1.4440599999999999
 97
        1
330
104
 75
               0
 76
               1
 98
        1
 10
0.0
 20
0.0
  0
POLYLINE
  5
10B
102
{ACAD_REACTORS
330
111
102
}
100
AcDbEntity
  8
None
370
               5
390
0
  6
Continuous
 62
               7
100
AcDb2dPolyline
 66
               1
 10
0.0
 20
0.0
 30
0.0
 70
               1
 75
               5
  0
VERTEX
  5
10C
100
AcDbEntity
  8
None
370
               5
390
0
  6
Continuous
 62
               7
100
AcDbVertex
100
AcDb2dVertex
 10
5.5805899999999999
 20
0.9440599999999999
 30
0.0
  0
VERTEX
  5
10D
100
AcDbEntity
  8
None
370
               5
390
0
  6
Continuous
 62
               7
100
AcDbVertex
100
AcDb2dVertex
 10
6.2805899999999992
 20
0.9440599999999999
 30
0.0
  0
VERTEX
  5
10E
100
AcDbEntity
  8
None
370
               5
390
0
  6
Continuous
 62
               7
100
AcDbVertex
100
AcDb2dVertex
 10
6.2805899999999992
 20
0.5940599999999999
 30
0.0
  0
VERTEX
  5
10F
100
AcDbEntity
  8
None
370
               5
390
0
  6
Continuous
 62
               7
100
AcDbVertex
100
AcDb2dVertex
 10
5.5805899999999999
 20
0.5940599999999999
 30
0.0
  0
SEQEND
  5
110
100
AcDbEntity
  8
None
370
               5
390
0
  6
Continuous
 62
               7
  0
HATCH
  5
111
100
AcDbEntity
  8
None
370
               0
390
0
  6
Continuous
 62
             254
100
AcDbHatch
 10
0.0
 20
0.0
 30
0.0
210
0.0
220
0.0
230
1.0
  2
SOLID
 70
               1
 71
               1
 91
        1
 92
        1
 93
        4
 72
               1
 10
5.5805899999999999
 20
0.9440599999999999
 11
6.2805899999999992
 21
0.9440599999999999
 72
               1
 10
6.2805899999999992
 20
0.9440599999999999
 11
6.2805899999999992
 21
0.5940599999999999
 72
               1
 10
6.2805899999999992
 20
0.5940599999999999
 11
5.5805899999999999
 21
0.5940599999999999
 72
               1
 10
5.5805899999999999
 20
0.5940599999999999
 11
5.5805899999999999
 21
0.9440599999999999
 97
        1
330
10B
 75
               0
 76
               1
 98
        1
 10
0.0
 20
0.0
  0
POLYLINE
  5
112
102
{ACAD_REACTORS
330
118
102
}
100
AcDbEntity
  8
None
370
               5
390
0
  6
Continuous
 62
               7
100
AcDb2dPolyline
 66
               1
 10
0.0
 20
0.0
 30
0.0
 70
               1
 75
               5
  0
VERTEX
  5
113
100
AcDbEntity
  8
None
370
               5
390
0
  6
Continuous
 62
               7
100
AcDbVertex
100
AcDb2dVertex
 10
-0.91941
 20
5.7940599999999991
 30
0.0
  0
VERTEX
  5
114
100
AcDbEntity
  8
None
370
               5
390
0
  6
Continuous
 62
               7
100
AcDbVertex
100
AcDb2dVertex
 10
-0.56941
 20
5.7940599999999991
 30
0.0
  0
VERTEX
  5
115
100
AcDbEntity
  8
None
370
               5
390
0
  6
Continuous
 62
               7
100
AcDbVertex
100
AcDb2dVertex
 10
-0.56941
 20
5.0940599999999998
 30
0.0
  0
VERTEX
  5
116
100
AcDbEntity
  8
None
370
               5
390
0
  6
Continuous
 62
               7
100
AcDbVertex
100
AcDb2dVertex
 10
-0.91941
 20
5.0940599999999998
 30
0.0
  0
SEQEND
  5
117
100
AcDbEntity
  8
None
370
               5
390
0
  6
Continuous
 62
               7
  0
HATCH
  5
118
100
AcDbEntity
  8
None
370
               0
390
0
  6
Continuous
 62
             254
100
AcDbHatch
 10
0.0
 20
0.0
 30
0.0
210
0.0
220
0.0
230
1.0
  2
SOLID
 70
               1
 71
               1
 91
        1
 92
        1
 93
        4
 72
               1
 10
-0.91941
 20
5.7940599999999991
 11
-0.56941
 21
5.7940599999999991
 72
               1
 10
-0.56941
 20
5.7940599999999991
 11
-0.56941
 21
5.0940599999999998
 72
               1
 10
-0.56941
 20
5.0940599999999998
 11
-0.91941
 21
5.0940599999999998
 72
               1
 10
-0.91941
 20
5.0940599999999998
 11
-0.91941
 21
5.7940599999999991
 97
        1
330
112
 75
               0
 76
               1
 98
        1
 10
0.0
 20
0.0
  0
POLYLINE
  5
119
102
{ACAD_REACTORS
330
11F
102
}
100
AcDbEntity
  8
None
370
               5
390
0
  6
Continuous
 62
               7
100
AcDb2dPolyline
 66
               1
 10
0.0
 20
0.0
 30
0.0
 70
               1
 75
               5
  0
VERTEX
  5
11A
100
AcDbEntity
  8
None
370
               5
390
0
  6
Continuous
 62
               7
100
AcDbVertex
100
AcDb2dVertex
 10
-0.41941
 20
5.7940599999999991
 30
0.0
  0
VERTEX
  5
11B
100
AcDbEntity
  8
None
370
               5
390
0
  6
Continuous
 62
               7
100
AcDbVertex
100
AcDb2dVertex
 10
-0.06941
 20
5.7940599999999991
 30
0.0
  0
VERTEX
  5
11C
100
AcDbEntity
  8
None
370
               5
390
0
  6
Continuous
 62
               7
100
AcDbVertex
100
AcDb2dVertex
 10
-0.06941
 20
5.0940599999999998
 30
0.0
  0
VERTEX
  5
11D
100
AcDbEntity
  8
None
370
               5
390
0
  6
Continuous
 62
               7
100
AcDbVertex
100
AcDb2dVertex
 10
-0.41941
 20
5.0940599999999998
 30
0.0
  0
SEQEND
  5
11E
100
AcDbEntity
  8
None
370
               5
390
0
  6
Continuous
 62
               7
  0
HATCH
  5
11F
100
AcDbEntity
  8
None
370
               0
390
0
  6
Continuous
 62
             254
100
AcDbHatch
 10
0.0
 20
0.0
 30
0.0
210
0.0
220
0.0
230
1.0
  2
SOLID
 70
               1
 71
               1
 91
        1
 92
        1
 93
        4
 72
               1
 10
-0.41941
 20
5.7940599999999991
 11
-0.06941
 21
5.7940599999999991
 72
               1
 10
-0.06941
 20
5.7940599999999991
 11
-0.06941
 21
5.0940599999999998
 72
               1
 10
-0.06941
 20
5.0940599999999998
 11
-0.41941
 21
5.0940599999999998
 72
               1
 10
-0.41941
 20
5.0940599999999998
 11
-0.41941
 21
5.7940599999999991
 97
        1
330
119
 75
               0
 76
               1
 98
        1
 10
0.0
 20
0.0
  0
POLYLINE
  5
120
102
{ACAD_REACTORS
330
126
102
}
100
AcDbEntity
  8
None
370
               5
390
0
  6
Continuous
 62
               7
100
AcDb2dPolyline
 66
               1
 10
0.0
 20
0.0
 30
0.0
 70
               1
 75
               5
  0
VERTEX
  5
121
100
AcDbEntity
  8
None
370
               5
390
0
  6
Continuous
 62
               7
100
AcDbVertex
100
AcDb2dVertex
 10
0.08059
 20
5.7940599999999991
 30
0.0
  0
VERTEX
  5
122
100
AcDbEntity
  8
None
370
               5
390
0
  6
Continuous
 62
               7
100
AcDbVertex
100
AcDb2dVertex
 10
0.43059
 20
5.7940599999999991
 30
0.0
  0
VERTEX
  5
123
100
AcDbEntity
  8
None
370
               5
390
0
  6
Continuous
 62
               7
100
AcDbVertex
100
AcDb2dVertex
 10
0.43059
 20
5.0940599999999998
 30
0.0
  0
VERTEX
  5
124
100
AcDbEntity
  8
None
370
               5
390
0
  6
Continuous
 62
               7
100
AcDbVertex
100
AcDb2dVertex
 10
0.08059
 20
5.0940599999999998
 30
0.0
  0
SEQEND
  5
125
100
AcDbEntity
  8
None
370
               5
390
0
  6
Continuous
 62
               7
  0
HATCH
  5
126
100
AcDbEntity
  8
None
370
               0
390
0
  6
Continuous
 62
             254
100
AcDbHatch
 10
0.0
 20
0.0
 30
0.0
210
0.0
220
0.0
230
1.0
  2
SOLID
 70
               1
 71
               1
 91
        1
 92
        1
 93
        4
 72
               1
 10
0.08059
 20
5.7940599999999991
 11
0.43059
 21
5.7940599999999991
 72
               1
 10
0.43059
 20
5.7940599999999991
 11
0.43059
 21
5.0940599999999998
 72
               1
 10
0.43059
 20
5.0940599999999998
 11
0.08059
 21
5.0940599999999998
 72
               1
 10
0.08059
 20
5.0940599999999998
 11
0.08059
 21
5.7940599999999991
 97
        1
330
120
 75
               0
 76
               1
 98
        1
 10
0.0
 20
0.0
  0
POLYLINE
  5
127
102
{ACAD_REACTORS
330
12D
102
}
100
AcDbEntity
  8
None
370
               5
390
0
  6
Continuous
 62
               7
100
AcDb2dPolyline
 66
               1
 10
0.0
 20
0.0
 30
0.0
 70
               1
 75
               5
  0
VERTEX
  5
128
100
AcDbEntity
  8
None
370
               5
390
0
  6
Continuous
 62
               7
100
AcDbVertex
100
AcDb2dVertex
 10
0.5805899999999999
 20
5.7940599999999991
 30
0.0
  0
VERTEX
  5
129
100
AcDbEntity
  8
None
370
               5
390
0
  6
Continuous
 62
               7
100
AcDbVertex
100
AcDb2dVertex
 10
0.9305899999999999
 20
5.7940599999999991
 30
0.0
  0
VERTEX
  5
12A
100
AcDbEntity
  8
None
370
               5
390
0
  6
Continuous
 62
               7
100
AcDbVertex
100
AcDb2dVertex
 10
0.9305899999999999
 20
5.0940599999999998
 30
0.0
  0
VERTEX
  5
12B
100
AcDbEntity
  8
None
370
               5
390
0
  6
Continuous
 62
               7
100
AcDbVertex
100
AcDb2dVertex
 10
0.5805899999999999
 20
5.0940599999999998
 30
0.0
  0
SEQEND
  5
12C
100
AcDbEntity
  8
None
370
               5
390
0
  6
Continuous
 62
               7
  0
HATCH
  5
12D
100
AcDbEntity
  8
None
370
               0
390
0
  6
Continuous
 62
             254
100
AcDbHatch
 10
0.0
 20
0.0
 30
0.0
210
0.0
220
0.0
230
1.0
  2
SOLID
 70
               1
 71
               1
 91
        1
 92
        1
 93
        4
 72
               1
 10
0.5805899999999999
 20
5.7940599999999991
 11
0.9305899999999999
 21
5.7940599999999991
 72
               1
 10
0.9305899999999999
 20
5.7940599999999991
 11
0.9305899999999999
 21
5.0940599999999998
 72
               1
 10
0.9305899999999999
 20
5.0940599999999998
 11
0.5805899999999999
 21
5.0940599999999998
 72
               1
 10
0.5805899999999999
 20
5.0940599999999998
 11
0.5805899999999999
 21
5.7940599999999991
 97
        1
330
127
 75
               0
 76
               1
 98
        1
 10
0.0
 20
0.0
  0
POLYLINE
  5
12E
102
{ACAD_REACTORS
330
134
102
}
100
AcDbEntity
  8
None
370
               5
390
0
  6
Continuous
 62
               7
100
AcDb2dPolyline
 66
               1
 10
0.0
 20
0.0
 30
0.0
 70
               1
 75
               5
  0
VERTEX
  5
12F
100
AcDbEntity
  8
None
370
               5
390
0
  6
Continuous
 62
               7
100
AcDbVertex
100
AcDb2dVertex
 10
1.0805899999999999
 20
5.7940599999999991
 30
0.0
  0
VERTEX
  5
130
100
AcDbEntity
  8
None
370
               5
390
0
  6
Continuous
 62
               7
100
AcDbVertex
100
AcDb2dVertex
 10
1.4305899999999998
 20
5.7940599999999991
 30
0.0
  0
VERTEX
  5
131
100
AcDbEntity
  8
None
370
               5
390
0
  6
Continuous
 62
               7
100
AcDbVertex
100
AcDb2dVertex
 10
1.4305899999999998
 20
5.0940599999999998
 30
0.0
  0
VERTEX
  5
132
100
AcDbEntity
  8
None
370
               5
390
0
  6
Continuous
 62
               7
100
AcDbVertex
100
AcDb2dVertex
 10
1.0805899999999999
 20
5.0940599999999998
 30
0.0
  0
SEQEND
  5
133
100
AcDbEntity
  8
None
370
               5
390
0
  6
Continuous
 62
               7
  0
HATCH
  5
134
100
AcDbEntity
  8
None
370
               0
390
0
  6
Continuous
 62
             254
100
AcDbHatch
 10
0.0
 20
0.0
 30
0.0
210
0.0
220
0.0
230
1.0
  2
SOLID
 70
               1
 71
               1
 91
        1
 92
        1
 93
        4
 72
               1
 10
1.0805899999999999
 20
5.7940599999999991
 11
1.4305899999999998
 21
5.7940599999999991
 72
               1
 10
1.4305899999999998
 20
5.7940599999999991
 11
1.4305899999999998
 21
5.0940599999999998
 72
               1
 10
1.4305899999999998
 20
5.0940599999999998
 11
1.0805899999999999
 21
5.0940599999999998
 72
               1
 10
1.0805899999999999
 20
5.0940599999999998
 11
1.0805899999999999
 21
5.7940599999999991
 97
        1
330
12E
 75
               0
 76
               1
 98
        1
 10
0.0
 20
0.0
  0
POLYLINE
  5
135
102
{ACAD_REACTORS
330
13B
102
}
100
AcDbEntity
  8
None
370
               5
390
0
  6
Continuous
 62
               7
100
AcDb2dPolyline
 66
               1
 10
0.0
 20
0.0
 30
0.0
 70
               1
 75
               5
  0
VERTEX
  5
136
100
AcDbEntity
  8
None
370
               5
390
0
  6
Continuous
 62
               7
100
AcDbVertex
100
AcDb2dVertex
 10
1.5805899999999999
 20
5.7940599999999991
 30
0.0
  0
VERTEX
  5
137
100
AcDbEntity
  8
None
370
               5
390
0
  6
Continuous
 62
               7
100
AcDbVertex
100
AcDb2dVertex
 10
1.9305899999999998
 20
5.7940599999999991
 30
0.0
  0
VERTEX
  5
138
100
AcDbEntity
  8
None
370
               5
390
0
  6
Continuous
 62
               7
100
AcDbVertex
100
AcDb2dVertex
 10
1.9305899999999998
 20
5.0940599999999998
 30
0.0
  0
VERTEX
  5
139
100
AcDbEntity
  8
None
370
               5
390
0
  6
Continuous
 62
               7
100
AcDbVertex
100
AcDb2dVertex
 10
1.5805899999999999
 20
5.0940599999999998
 30
0.0
  0
SEQEND
  5
13A
100
AcDbEntity
  8
None
370
               5
390
0
  6
Continuous
 62
               7
  0
HATCH
  5
13B
100
AcDbEntity
  8
None
370
               0
390
0
  6
Continuous
 62
             254
100
AcDbHatch
 10
0.0
 20
0.0
 30
0.0
210
0.0
220
0.0
230
1.0
  2
SOLID
 70
               1
 71
               1
 91
        1
 92
        1
 93
        4
 72
               1
 10
1.5805899999999999
 20
5.7940599999999991
 11
1.9305899999999998
 21
5.7940599999999991
 72
               1
 10
1.9305899999999998
 20
5.7940599999999991
 11
1.9305899999999998
 21
5.0940599999999998
 72
               1
 10
1.9305899999999998
 20
5.0940599999999998
 11
1.5805899999999999
 21
5.0940599999999998
 72
               1
 10
1.5805899999999999
 20
5.0940599999999998
 11
1.5805899999999999
 21
5.7940599999999991
 97
        1
330
135
 75
               0
 76
               1
 98
        1
 10
0.0
 20
0.0
  0
POLYLINE
  5
13C
102
{ACAD_REACTORS
330
142
102
}
100
AcDbEntity
  8
None
370
               5
390
0
  6
Continuous
 62
               7
100
AcDb2dPolyline
 66
               1
 10
0.0
 20
0.0
 30
0.0
 70
               1
 75
               5
  0
VERTEX
  5
13D
100
AcDbEntity
  8
None
370
               5
390
0
  6
Continuous
 62
               7
100
AcDbVertex
100
AcDb2dVertex
 10
2.0805899999999999
 20
5.7940599999999991
 30
0.0
  0
VERTEX
  5
13E
100
AcDbEntity
  8
None
370
               5
390
0
  6
Continuous
 62
               7
100
AcDbVertex
100
AcDb2dVertex
 10
2.4305899999999996
 20
5.7940599999999991
 30
0.0
  0
VERTEX
  5
13F
100
AcDbEntity
  8
None
370
               5
390
0
  6
Continuous
 62
               7
100
AcDbVertex
100
AcDb2dVertex
 10
2.4305899999999996
 20
5.0940599999999998
 30
0.0
  0
VERTEX
  5
140
100
AcDbEntity
  8
None
370
               5
390
0
  6
Continuous
 62
               7
100
AcDbVertex
100
AcDb2dVertex
 10
2.0805899999999999
 20
5.0940599999999998
 30
0.0
  0
SEQEND
  5
141
100
AcDbEntity
  8
None
370
               5
390
0
  6
Continuous
 62
               7
  0
HATCH
  5
142
100
AcDbEntity
  8
None
370
               0
390
0
  6
Continuous
 62
             254
100
AcDbHatch
 10
0.0
 20
0.0
 30
0.0
210
0.0
220
0.0
230
1.0
  2
SOLID
 70
               1
 71
               1
 91
        1
 92
        1
 93
        4
 72
               1
 10
2.0805899999999999
 20
5.7940599999999991
 11
2.4305899999999996
 21
5.7940599999999991
 72
               1
 10
2.4305899999999996
 20
5.7940599999999991
 11
2.4305899999999996
 21
5.0940599999999998
 72
               1
 10
2.4305899999999996
 20
5.0940599999999998
 11
2.0805899999999999
 21
5.0940599999999998
 72
               1
 10
2.0805899999999999
 20
5.0940599999999998
 11
2.0805899999999999
 21
5.7940599999999991
 97
        1
330
13C
 75
               0
 76
               1
 98
        1
 10
0.0
 20
0.0
  0
POLYLINE
  5
143
102
{ACAD_REACTORS
330
149
102
}
100
AcDbEntity
  8
None
370
               5
390
0
  6
Continuous
 62
               7
100
AcDb2dPolyline
 66
               1
 10
0.0
 20
0.0
 30
0.0
 70
               1
 75
               5
  0
VERTEX
  5
144
100
AcDbEntity
  8
None
370
               5
390
0
  6
Continuous
 62
               7
100
AcDbVertex
100
AcDb2dVertex
 10
2.5805899999999999
 20
5.7940599999999991
 30
0.0
  0
VERTEX
  5
145
100
AcDbEntity
  8
None
370
               5
390
0
  6
Continuous
 62
               7
100
AcDbVertex
100
AcDb2dVertex
 10
2.9305899999999996
 20
5.7940599999999991
 30
0.0
  0
VERTEX
  5
146
100
AcDbEntity
  8
None
370
               5
390
0
  6
Continuous
 62
               7
100
AcDbVertex
100
AcDb2dVertex
 10
2.9305899999999996
 20
5.0940599999999998
 30
0.0
  0
VERTEX
  5
147
100
AcDbEntity
  8
None
370
               5
390
0
  6
Continuous
 62
               7
100
AcDbVertex
100
AcDb2dVertex
 10
2.5805899999999999
 20
5.0940599999999998
 30
0.0
  0
SEQEND
  5
148
100
AcDbEntity
  8
None
370
               5
390
0
  6
Continuous
 62
               7
  0
HATCH
  5
149
100
AcDbEntity
  8
None
370
               0
390
0
  6
Continuous
 62
             254
100
AcDbHatch
 10
0.0
 20
0.0
 30
0.0
210
0.0
220
0.0
230
1.0
  2
SOLID
 70
               1
 71
               1
 91
        1
 92
        1
 93
        4
 72
               1
 10
2.5805899999999999
 20
5.7940599999999991
 11
2.9305899999999996
 21
5.7940599999999991
 72
               1
 10
2.9305899999999996
 20
5.7940599999999991
 11
2.9305899999999996
 21
5.0940599999999998
 72
               1
 10
2.9305899999999996
 20
5.0940599999999998
 11
2.5805899999999999
 21
5.0940599999999998
 72
               1
 10
2.5805899999999999
 20
5.0940599999999998
 11
2.5805899999999999
 21
5.7940599999999991
 97
        1
330
143
 75
               0
 76
               1
 98
        1
 10
0.0
 20
0.0
  0
POLYLINE
  5
14A
102
{ACAD_REACTORS
330
150
102
}
100
AcDbEntity
  8
None
370
               5
390
0
  6
Continuous
 62
               7
100
AcDb2dPolyline
 66
               1
 10
0.0
 20
0.0
 30
0.0
 70
               1
 75
               5
  0
VERTEX
  5
14B
100
AcDbEntity
  8
None
370
               5
390
0
  6
Continuous
 62
               7
100
AcDbVertex
100
AcDb2dVertex
 10
3.0805899999999999
 20
5.7940599999999991
 30
0.0
  0
VERTEX
  5
14C
100
AcDbEntity
  8
None
370
               5
390
0
  6
Continuous
 62
               7
100
AcDbVertex
100
AcDb2dVertex
 10
3.4305899999999996
 20
5.7940599999999991
 30
0.0
  0
VERTEX
  5
14D
100
AcDbEntity
  8
None
370
               5
390
0
  6
Continuous
 62
               7
100
AcDbVertex
100
AcDb2dVertex
 10
3.4305899999999996
 20
5.0940599999999998
 30
0.0
  0
VERTEX
  5
14E
100
AcDbEntity
  8
None
370
               5
390
0
  6
Continuous
 62
               7
100
AcDbVertex
100
AcDb2dVertex
 10
3.0805899999999999
 20
5.0940599999999998
 30
0.0
  0
SEQEND
  5
14F
100
AcDbEntity
  8
None
370
               5
390
0
  6
Continuous
 62
               7
  0
HATCH
  5
150
100
AcDbEntity
  8
None
370
               0
390
0
  6
Continuous
 62
             254
100
AcDbHatch
 10
0.0
 20
0.0
 30
0.0
210
0.0
220
0.0
230
1.0
  2
SOLID
 70
               1
 71
               1
 91
        1
 92
        1
 93
        4
 72
               1
 10
3.0805899999999999
 20
5.7940599999999991
 11
3.4305899999999996
 21
5.7940599999999991
 72
               1
 10
3.4305899999999996
 20
5.7940599999999991
 11
3.4305899999999996
 21
5.0940599999999998
 72
               1
 10
3.4305899999999996
 20
5.0940599999999998
 11
3.0805899999999999
 21
5.0940599999999998
 72
               1
 10
3.0805899999999999
 20
5.0940599999999998
 11
3.0805899999999999
 21
5.7940599999999991
 97
        1
330
14A
 75
               0
 76
               1
 98
        1
 10
0.0
 20
0.0
  0
POLYLINE
  5
151
102
{ACAD_REACTORS
330
157
102
}
100
AcDbEntity
  8
None
370
               5
390
0
  6
Continuous
 62
               7
100
AcDb2dPolyline
 66
               1
 10
0.0
 20
0.0
 30
0.0
 70
               1
 75
               5
  0
VERTEX
  5
152
100
AcDbEntity
  8
None
370
               5
390
0
  6
Continuous
 62
               7
100
AcDbVertex
100
AcDb2dVertex
 10
3.5805899999999995
 20
5.7940599999999991
 30
0.0
  0
VERTEX
  5
153
100
AcDbEntity
  8
None
370
               5
390
0
  6
Continuous
 62
               7
100
AcDbVertex
100
AcDb2dVertex
 10
3.9305899999999996
 20
5.7940599999999991
 30
0.0
  0
VERTEX
  5
154
100
AcDbEntity
  8
None
370
               5
390
0
  6
Continuous
 62
               7
100
AcDbVertex
100
AcDb2dVertex
 10
3.9305899999999996
 20
5.0940599999999998
 30
0.0
  0
VERTEX
  5
155
100
AcDbEntity
  8
None
370
               5
390
0
  6
Continuous
 62
               7
100
AcDbVertex
100
AcDb2dVertex
 10
3.5805899999999995
 20
5.0940599999999998
 30
0.0
  0
SEQEND
  5
156
100
AcDbEntity
  8
None
370
               5
390
0
  6
Continuous
 62
               7
  0
HATCH
  5
157
100
AcDbEntity
  8
None
370
               0
390
0
  6
Continuous
 62
             254
100
AcDbHatch
 10
0.0
 20
0.0
 30
0.0
210
0.0
220
0.0
230
1.0
  2
SOLID
 70
               1
 71
               1
 91
        1
 92
        1
 93
        4
 72
               1
 10
3.5805899999999995
 20
5.7940599999999991
 11
3.9305899999999996
 21
5.7940599999999991
 72
               1
 10
3.9305899999999996
 20
5.7940599999999991
 11
3.9305899999999996
 21
5.0940599999999998
 72
               1
 10
3.9305899999999996
 20
5.0940599999999998
 11
3.5805899999999995
 21
5.0940599999999998
 72
               1
 10
3.5805899999999995
 20
5.0940599999999998
 11
3.5805899999999995
 21
5.7940599999999991
 97
        1
330
151
 75
               0
 76
               1
 98
        1
 10
0.0
 20
0.0
  0
POLYLINE
  5
158
102
{ACAD_REACTORS
330
15E
102
}
100
AcDbEntity
  8
None
370
               5
390
0
  6
Continuous
 62
               7
100
AcDb2dPolyline
 66
               1
 10
0.0
 20
0.0
 30
0.0
 70
               1
 75
               5
  0
VERTEX
  5
159
100
AcDbEntity
  8
None
370
               5
390
0
  6
Continuous
 62
               7
100
AcDbVertex
100
AcDb2dVertex
 10
4.0805899999999999
 20
5.7940599999999991
 30
0.0
  0
VERTEX
  5
15A
100
AcDbEntity
  8
None
370
               5
390
0
  6
Continuous
 62
               7
100
AcDbVertex
100
AcDb2dVertex
 10
4.4305899999999996
 20
5.7940599999999991
 30
0.0
  0
VERTEX
  5
15B
100
AcDbEntity
  8
None
370
               5
390
0
  6
Continuous
 62
               7
100
AcDbVertex
100
AcDb2dVertex
 10
4.4305899999999996
 20
5.0940599999999998
 30
0.0
  0
VERTEX
  5
15C
100
AcDbEntity
  8
None
370
               5
390
0
  6
Continuous
 62
               7
100
AcDbVertex
100
AcDb2dVertex
 10
4.0805899999999999
 20
5.0940599999999998
 30
0.0
  0
SEQEND
  5
15D
100
AcDbEntity
  8
None
370
               5
390
0
  6
Continuous
 62
               7
  0
HATCH
  5
15E
100
AcDbEntity
  8
None
370
               0
390
0
  6
Continuous
 62
             254
100
AcDbHatch
 10
0.0
 20
0.0
 30
0.0
210
0.0
220
0.0
230
1.0
  2
SOLID
 70
               1
 71
               1
 91
        1
 92
        1
 93
        4
 72
               1
 10
4.0805899999999999
 20
5.7940599999999991
 11
4.4305899999999996
 21
5.7940599999999991
 72
               1
 10
4.4305899999999996
 20
5.7940599999999991
 11
4.4305899999999996
 21
5.0940599999999998
 72
               1
 10
4.4305899999999996
 20
5.0940599999999998
 11
4.0805899999999999
 21
5.0940599999999998
 72
               1
 10
4.0805899999999999
 20
5.0940599999999998
 11
4.0805899999999999
 21
5.7940599999999991
 97
        1
330
158
 75
               0
 76
               1
 98
        1
 10
0.0
 20
0.0
  0
POLYLINE
  5
15F
102
{ACAD_REACTORS
330
165
102
}
100
AcDbEntity
  8
None
370
               5
390
0
  6
Continuous
 62
               7
100
AcDb2dPolyline
 66
               1
 10
0.0
 20
0.0
 30
0.0
 70
               1
 75
               5
  0
VERTEX
  5
160
100
AcDbEntity
  8
None
370
               5
390
0
  6
Continuous
 62
               7
100
AcDbVertex
100
AcDb2dVertex
 10
4.5805899999999999
 20
5.7940599999999991
 30
0.0
  0
VERTEX
  5
161
100
AcDbEntity
  8
None
370
               5
390
0
  6
Continuous
 62
               7
100
AcDbVertex
100
AcDb2dVertex
 10
4.9305899999999996
 20
5.7940599999999991
 30
0.0
  0
VERTEX
  5
162
100
AcDbEntity
  8
None
370
               5
390
0
  6
Continuous
 62
               7
100
AcDbVertex
100
AcDb2dVertex
 10
4.9305899999999996
 20
5.0940599999999998
 30
0.0
  0
VERTEX
  5
163
100
AcDbEntity
  8
None
370
               5
390
0
  6
Continuous
 62
               7
100
AcDbVertex
100
AcDb2dVertex
 10
4.5805899999999999
 20
5.0940599999999998
 30
0.0
  0
SEQEND
  5
164
100
AcDbEntity
  8
None
370
               5
390
0
  6
Continuous
 62
               7
  0
HATCH
  5
165
100
AcDbEntity
  8
None
370
               0
390
0
  6
Continuous
 62
             254
100
AcDbHatch
 10
0.0
 20
0.0
 30
0.0
210
0.0
220
0.0
230
1.0
  2
SOLID
 70
               1
 71
               1
 91
        1
 92
        1
 93
        4
 72
               1
 10
4.5805899999999999
 20
5.7940599999999991
 11
4.9305899999999996
 21
5.7940599999999991
 72
               1
 10
4.9305899999999996
 20
5.7940599999999991
 11
4.9305899999999996
 21
5.0940599999999998
 72
               1
 10
4.9305899999999996
 20
5.0940599999999998
 11
4.5805899999999999
 21
5.0940599999999998
 72
               1
 10
4.5805899999999999
 20
5.0940599999999998
 11
4.5805899999999999
 21
5.7940599999999991
 97
        1
330
15F
 75
               0
 76
               1
 98
        1
 10
0.0
 20
0.0
  0
POLYLINE
  5
166
102
{ACAD_REACTORS
330
16C
102
}
100
AcDbEntity
  8
None
370
               5
390
0
  6
Continuous
 62
               7
100
AcDb2dPolyline
 66
               1
 10
0.0
 20
0.0
 30
0.0
 70
               1
 75
               5
  0
VERTEX
  5
167
100
AcDbEntity
  8
None
370
               5
390
0
  6
Continuous
 62
               7
100
AcDbVertex
100
AcDb2dVertex
 10
5.0805899999999999
 20
5.7940599999999991
 30
0.0
  0
VERTEX
  5
168
100
AcDbEntity
  8
None
370
               5
390
0
  6
Continuous
 62
               7
100
AcDbVertex
100
AcDb2dVertex
 10
5.4305899999999996
 20
5.7940599999999991
 30
0.0
  0
VERTEX
  5
169
100
AcDbEntity
  8
None
370
               5
390
0
  6
Continuous
 62
               7
100
AcDbVertex
100
AcDb2dVertex
 10
5.4305899999999996
 20
5.0940599999999998
 30
0.0
  0
VERTEX
  5
16A
100
AcDbEntity
  8
None
370
               5
390
0
  6
Continuous
 62
               7
100
AcDbVertex
100
AcDb2dVertex
 10
5.0805899999999999
 20
5.0940599999999998
 30
0.0
  0
SEQEND
  5
16B
100
AcDbEntity
  8
None
370
               5
390
0
  6
Continuous
 62
               7
  0
HATCH
  5
16C
100
AcDbEntity
  8
None
370
               0
390
0
  6
Continuous
 62
             254
100
AcDbHatch
 10
0.0
 20
0.0
 30
0.0
210
0.0
220
0.0
230
1.0
  2
SOLID
 70
               1
 71
               1
 91
        1
 92
        1
 93
        4
 72
               1
 10
5.0805899999999999
 20
5.7940599999999991
 11
5.4305899999999996
 21
5.7940599999999991
 72
               1
 10
5.4305899999999996
 20
5.7940599999999991
 11
5.4305899999999996
 21
5.0940599999999998
 72
               1
 10
5.4305899999999996
 20
5.0940599999999998
 11
5.0805899999999999
 21
5.0940599999999998
 72
               1
 10
5.0805899999999999
 20
5.0940599999999998
 11
5.0805899999999999
 21
5.7940599999999991
 97
        1
330
166
 75
               0
 76
               1
 98
        1
 10
0.0
 20
0.0
  0
POLYLINE
  5
16D
102
{ACAD_REACTORS
330
173
102
}
100
AcDbEntity
  8
None
370
               5
390
0
  6
Continuous
 62
               7
100
AcDb2dPolyline
 66
               1
 10
0.0
 20
0.0
 30
0.0
 70
               1
 75
               5
  0
VERTEX
  5
16E
100
AcDbEntity
  8
None
370
               5
390
0
  6
Continuous
 62
               7
100
AcDbVertex
100
AcDb2dVertex
 10
-0.91941
 20
0.44406
 30
0.0
  0
VERTEX
  5
16F
100
AcDbEntity
  8
None
370
               5
390
0
  6
Continuous
 62
               7
100
AcDbVertex
100
AcDb2dVertex
 10
-0.56941
 20
0.44406
 30
0.0
  0
VERTEX
  5
170
100
AcDbEntity
  8
None
370
               5
390
0
  6
Continuous
 62
               7
100
AcDbVertex
100
AcDb2dVertex
 10
-0.56941
 20
-0.25594
 30
0.0
  0
VERTEX
  5
171
100
AcDbEntity
  8
None
370
               5
390
0
  6
Continuous
 62
               7
100
AcDbVertex
100
AcDb2dVertex
 10
-0.91941
 20
-0.25594
 30
0.0
  0
SEQEND
  5
172
100
AcDbEntity
  8
None
370
               5
390
0
  6
Continuous
 62
               7
  0
HATCH
  5
173
100
AcDbEntity
  8
None
370
               0
390
0
  6
Continuous
 62
             254
100
AcDbHatch
 10
0.0
 20
0.0
 30
0.0
210
0.0
220
0.0
230
1.0
  2
SOLID
 70
               1
 71
               1
 91
        1
 92
        1
 93
        4
 72
               1
 10
-0.91941
 20
0.44406
 11
-0.56941
 21
0.44406
 72
               1
 10
-0.56941
 20
0.44406
 11
-0.56941
 21
-0.25594
 72
               1
 10
-0.56941
 20
-0.25594
 11
-0.91941
 21
-0.25594
 72
               1
 10
-0.91941
 20
-0.25594
 11
-0.91941
 21
0.44406
 97
        1
330
16D
 75
               0
 76
               1
 98
        1
 10
0.0
 20
0.0
  0
POLYLINE
  5
174
102
{ACAD_REACTORS
330
17A
102
}
100
AcDbEntity
  8
None
370
               5
390
0
  6
Continuous
 62
               7
100
AcDb2dPolyline
 66
               1
 10
0.0
 20
0.0
 30
0.0
 70
               1
 75
               5
  0
VERTEX
  5
175
100
AcDbEntity
  8
None
370
               5
390
0
  6
Continuous
 62
               7
100
AcDbVertex
100
AcDb2dVertex
 10
-0.41941
 20
0.44406
 30
0.0
  0
VERTEX
  5
176
100
AcDbEntity
  8
None
370
               5
390
0
  6
Continuous
 62
               7
100
AcDbVertex
100
AcDb2dVertex
 10
-0.06941
 20
0.44406
 30
0.0
  0
VERTEX
  5
177
100
AcDbEntity
  8
None
370
               5
390
0
  6
Continuous
 62
               7
100
AcDbVertex
100
AcDb2dVertex
 10
-0.06941
 20
-0.25594
 30
0.0
  0
VERTEX
  5
178
100
AcDbEntity
  8
None
370
               5
390
0
  6
Continuous
 62
               7
100
AcDbVertex
100
AcDb2dVertex
 10
-0.41941
 20
-0.25594
 30
0.0
  0
SEQEND
  5
179
100
AcDbEntity
  8
None
370
               5
390
0
  6
Continuous
 62
               7
  0
HATCH
  5
17A
100
AcDbEntity
  8
None
370
               0
390
0
  6
Continuous
 62
             254
100
AcDbHatch
 10
0.0
 20
0.0
 30
0.0
210
0.0
220
0.0
230
1.0
  2
SOLID
 70
               1
 71
               1
 91
        1
 92
        1
 93
        4
 72
               1
 10
-0.41941
 20
0.44406
 11
-0.06941
 21
0.44406
 72
               1
 10
-0.06941
 20
0.44406
 11
-0.06941
 21
-0.25594
 72
               1
 10
-0.06941
 20
-0.25594
 11
-0.41941
 21
-0.25594
 72
               1
 10
-0.41941
 20
-0.25594
 11
-0.41941
 21
0.44406
 97
        1
330
174
 75
               0
 76
               1
 98
        1
 10
0.0
 20
0.0
  0
POLYLINE
  5
17B
102
{ACAD_REACTORS
330
181
102
}
100
AcDbEntity
  8
None
370
               5
390
0
  6
Continuous
 62
               7
100
AcDb2dPolyline
 66
               1
 10
0.0
 20
0.0
 30
0.0
 70
               1
 75
               5
  0
VERTEX
  5
17C
100
AcDbEntity
  8
None
370
               5
390
0
  6
Continuous
 62
               7
100
AcDbVertex
100
AcDb2dVertex
 10
0.08059
 20
0.44406
 30
0.0
  0
VERTEX
  5
17D
100
AcDbEntity
  8
None
370
               5
390
0
  6
Continuous
 62
               7
100
AcDbVertex
100
AcDb2dVertex
 10
0.43059
 20
0.44406
 30
0.0
  0
VERTEX
  5
17E
100
AcDbEntity
  8
None
370
               5
390
0
  6
Continuous
 62
               7
100
AcDbVertex
100
AcDb2dVertex
 10
0.43059
 20
-0.25594
 30
0.0
  0
VERTEX
  5
17F
100
AcDbEntity
  8
None
370
               5
390
0
  6
Continuous
 62
               7
100
AcDbVertex
100
AcDb2dVertex
 10
0.08059
 20
-0.25594
 30
0.0
  0
SEQEND
  5
180
100
AcDbEntity
  8
None
370
               5
390
0
  6
Continuous
 62
               7
  0
HATCH
  5
181
100
AcDbEntity
  8
None
370
               0
390
0
  6
Continuous
 62
             254
100
AcDbHatch
 10
0.0
 20
0.0
 30
0.0
210
0.0
220
0.0
230
1.0
  2
SOLID
 70
               1
 71
               1
 91
        1
 92
        1
 93
        4
 72
               1
 10
0.08059
 20
0.44406
 11
0.43059
 21
0.44406
 72
               1
 10
0.43059
 20
0.44406
 11
0.43059
 21
-0.25594
 72
               1
 10
0.43059
 20
-0.25594
 11
0.08059
 21
-0.25594
 72
               1
 10
0.08059
 20
-0.25594
 11
0.08059
 21
0.44406
 97
        1
330
17B
 75
               0
 76
               1
 98
        1
 10
0.0
 20
0.0
  0
POLYLINE
  5
182
102
{ACAD_REACTORS
330
188
102
}
100
AcDbEntity
  8
None
370
               5
390
0
  6
Continuous
 62
               7
100
AcDb2dPolyline
 66
               1
 10
0.0
 20
0.0
 30
0.0
 70
               1
 75
               5
  0
VERTEX
  5
183
100
AcDbEntity
  8
None
370
               5
390
0
  6
Continuous
 62
               7
100
AcDbVertex
100
AcDb2dVertex
 10
0.5805899999999999
 20
0.44406
 30
0.0
  0
VERTEX
  5
184
100
AcDbEntity
  8
None
370
               5
390
0
  6
Continuous
 62
               7
100
AcDbVertex
100
AcDb2dVertex
 10
0.9305899999999999
 20
0.44406
 30
0.0
  0
VERTEX
  5
185
100
AcDbEntity
  8
None
370
               5
390
0
  6
Continuous
 62
               7
100
AcDbVertex
100
AcDb2dVertex
 10
0.9305899999999999
 20
-0.25594
 30
0.0
  0
VERTEX
  5
186
100
AcDbEntity
  8
None
370
               5
390
0
  6
Continuous
 62
               7
100
AcDbVertex
100
AcDb2dVertex
 10
0.5805899999999999
 20
-0.25594
 30
0.0
  0
SEQEND
  5
187
100
AcDbEntity
  8
None
370
               5
390
0
  6
Continuous
 62
               7
  0
HATCH
  5
188
100
AcDbEntity
  8
None
370
               0
390
0
  6
Continuous
 62
             254
100
AcDbHatch
 10
0.0
 20
0.0
 30
0.0
210
0.0
220
0.0
230
1.0
  2
SOLID
 70
               1
 71
               1
 91
        1
 92
        1
 93
        4
 72
               1
 10
0.5805899999999999
 20
0.44406
 11
0.9305899999999999
 21
0.44406
 72
               1
 10
0.9305899999999999
 20
0.44406
 11
0.9305899999999999
 21
-0.25594
 72
               1
 10
0.9305899999999999
 20
-0.25594
 11
0.5805899999999999
 21
-0.25594
 72
               1
 10
0.5805899999999999
 20
-0.25594
 11
0.5805899999999999
 21
0.44406
 97
        1
330
182
 75
               0
 76
               1
 98
        1
 10
0.0
 20
0.0
  0
POLYLINE
  5
189
102
{ACAD_REACTORS
330
18F
102
}
100
AcDbEntity
  8
None
370
               5
390
0
  6
Continuous
 62
               7
100
AcDb2dPolyline
 66
               1
 10
0.0
 20
0.0
 30
0.0
 70
               1
 75
               5
  0
VERTEX
  5
18A
100
AcDbEntity
  8
None
370
               5
390
0
  6
Continuous
 62
               7
100
AcDbVertex
100
AcDb2dVertex
 10
1.0805899999999999
 20
0.44406
 30
0.0
  0
VERTEX
  5
18B
100
AcDbEntity
  8
None
370
               5
390
0
  6
Continuous
 62
               7
100
AcDbVertex
100
AcDb2dVertex
 10
1.4305899999999998
 20
0.44406
 30
0.0
  0
VERTEX
  5
18C
100
AcDbEntity
  8
None
370
               5
390
0
  6
Continuous
 62
               7
100
AcDbVertex
100
AcDb2dVertex
 10
1.4305899999999998
 20
-0.25594
 30
0.0
  0
VERTEX
  5
18D
100
AcDbEntity
  8
None
370
               5
390
0
  6
Continuous
 62
               7
100
AcDbVertex
100
AcDb2dVertex
 10
1.0805899999999999
 20
-0.25594
 30
0.0
  0
SEQEND
  5
18E
100
AcDbEntity
  8
None
370
               5
390
0
  6
Continuous
 62
               7
  0
HATCH
  5
18F
100
AcDbEntity
  8
None
370
               0
390
0
  6
Continuous
 62
             254
100
AcDbHatch
 10
0.0
 20
0.0
 30
0.0
210
0.0
220
0.0
230
1.0
  2
SOLID
 70
               1
 71
               1
 91
        1
 92
        1
 93
        4
 72
               1
 10
1.0805899999999999
 20
0.44406
 11
1.4305899999999998
 21
0.44406
 72
               1
 10
1.4305899999999998
 20
0.44406
 11
1.4305899999999998
 21
-0.25594
 72
               1
 10
1.4305899999999998
 20
-0.25594
 11
1.0805899999999999
 21
-0.25594
 72
               1
 10
1.0805899999999999
 20
-0.25594
 11
1.0805899999999999
 21
0.44406
 97
        1
330
189
 75
               0
 76
               1
 98
        1
 10
0.0
 20
0.0
  0
POLYLINE
  5
190
102
{ACAD_REACTORS
330
196
102
}
100
AcDbEntity
  8
None
370
               5
390
0
  6
Continuous
 62
               7
100
AcDb2dPolyline
 66
               1
 10
0.0
 20
0.0
 30
0.0
 70
               1
 75
               5
  0
VERTEX
  5
191
100
AcDbEntity
  8
None
370
               5
390
0
  6
Continuous
 62
               7
100
AcDbVertex
100
AcDb2dVertex
 10
1.5805899999999999
 20
0.44406
 30
0.0
  0
VERTEX
  5
192
100
AcDbEntity
  8
None
370
               5
390
0
  6
Continuous
 62
               7
100
AcDbVertex
100
AcDb2dVertex
 10
1.9305899999999998
 20
0.44406
 30
0.0
  0
VERTEX
  5
193
100
AcDbEntity
  8
None
370
               5
390
0
  6
Continuous
 62
               7
100
AcDbVertex
100
AcDb2dVertex
 10
1.9305899999999998
 20
-0.25594
 30
0.0
  0
VERTEX
  5
194
100
AcDbEntity
  8
None
370
               5
390
0
  6
Continuous
 62
               7
100
AcDbVertex
100
AcDb2dVertex
 10
1.5805899999999999
 20
-0.25594
 30
0.0
  0
SEQEND
  5
195
100
AcDbEntity
  8
None
370
               5
390
0
  6
Continuous
 62
               7
  0
HATCH
  5
196
100
AcDbEntity
  8
None
370
               0
390
0
  6
Continuous
 62
             254
100
AcDbHatch
 10
0.0
 20
0.0
 30
0.0
210
0.0
220
0.0
230
1.0
  2
SOLID
 70
               1
 71
               1
 91
        1
 92
        1
 93
        4
 72
               1
 10
1.5805899999999999
 20
0.44406
 11
1.9305899999999998
 21
0.44406
 72
               1
 10
1.9305899999999998
 20
0.44406
 11
1.9305899999999998
 21
-0.25594
 72
               1
 10
1.9305899999999998
 20
-0.25594
 11
1.5805899999999999
 21
-0.25594
 72
               1
 10
1.5805899999999999
 20
-0.25594
 11
1.5805899999999999
 21
0.44406
 97
        1
330
190
 75
               0
 76
               1
 98
        1
 10
0.0
 20
0.0
  0
POLYLINE
  5
197
102
{ACAD_REACTORS
330
19D
102
}
100
AcDbEntity
  8
None
370
               5
390
0
  6
Continuous
 62
               7
100
AcDb2dPolyline
 66
               1
 10
0.0
 20
0.0
 30
0.0
 70
               1
 75
               5
  0
VERTEX
  5
198
100
AcDbEntity
  8
None
370
               5
390
0
  6
Continuous
 62
               7
100
AcDbVertex
100
AcDb2dVertex
 10
2.0805899999999999
 20
0.44406
 30
0.0
  0
VERTEX
  5
199
100
AcDbEntity
  8
None
370
               5
390
0
  6
Continuous
 62
               7
100
AcDbVertex
100
AcDb2dVertex
 10
2.4305899999999996
 20
0.44406
 30
0.0
  0
VERTEX
  5
19A
100
AcDbEntity
  8
None
370
               5
390
0
  6
Continuous
 62
               7
100
AcDbVertex
100
AcDb2dVertex
 10
2.4305899999999996
 20
-0.25594
 30
0.0
  0
VERTEX
  5
19B
100
AcDbEntity
  8
None
370
               5
390
0
  6
Continuous
 62
               7
100
AcDbVertex
100
AcDb2dVertex
 10
2.0805899999999999
 20
-0.25594
 30
0.0
  0
SEQEND
  5
19C
100
AcDbEntity
  8
None
370
               5
390
0
  6
Continuous
 62
               7
  0
HATCH
  5
19D
100
AcDbEntity
  8
None
370
               0
390
0
  6
Continuous
 62
             254
100
AcDbHatch
 10
0.0
 20
0.0
 30
0.0
210
0.0
220
0.0
230
1.0
  2
SOLID
 70
               1
 71
               1
 91
        1
 92
        1
 93
        4
 72
               1
 10
2.0805899999999999
 20
0.44406
 11
2.4305899999999996
 21
0.44406
 72
               1
 10
2.4305899999999996
 20
0.44406
 11
2.4305899999999996
 21
-0.25594
 72
               1
 10
2.4305899999999996
 20
-0.25594
 11
2.0805899999999999
 21
-0.25594
 72
               1
 10
2.0805899999999999
 20
-0.25594
 11
2.0805899999999999
 21
0.44406
 97
        1
330
197
 75
               0
 76
               1
 98
        1
 10
0.0
 20
0.0
  0
POLYLINE
  5
19E
102
{ACAD_REACTORS
330
1A4
102
}
100
AcDbEntity
  8
None
370
               5
390
0
  6
Continuous
 62
               7
100
AcDb2dPolyline
 66
               1
 10
0.0
 20
0.0
 30
0.0
 70
               1
 75
               5
  0
VERTEX
  5
19F
100
AcDbEntity
  8
None
370
               5
390
0
  6
Continuous
 62
               7
100
AcDbVertex
100
AcDb2dVertex
 10
2.5805899999999999
 20
0.44406
 30
0.0
  0
VERTEX
  5
1A0
100
AcDbEntity
  8
None
370
               5
390
0
  6
Continuous
 62
               7
100
AcDbVertex
100
AcDb2dVertex
 10
2.9305899999999996
 20
0.44406
 30
0.0
  0
VERTEX
  5
1A1
100
AcDbEntity
  8
None
370
               5
390
0
  6
Continuous
 62
               7
100
AcDbVertex
100
AcDb2dVertex
 10
2.9305899999999996
 20
-0.25594
 30
0.0
  0
VERTEX
  5
1A2
100
AcDbEntity
  8
None
370
               5
390
0
  6
Continuous
 62
               7
100
AcDbVertex
100
AcDb2dVertex
 10
2.5805899999999999
 20
-0.25594
 30
0.0
  0
SEQEND
  5
1A3
100
AcDbEntity
  8
None
370
               5
390
0
  6
Continuous
 62
               7
  0
HATCH
  5
1A4
100
AcDbEntity
  8
None
370
               0
390
0
  6
Continuous
 62
             254
100
AcDbHatch
 10
0.0
 20
0.0
 30
0.0
210
0.0
220
0.0
230
1.0
  2
SOLID
 70
               1
 71
               1
 91
        1
 92
        1
 93
        4
 72
               1
 10
2.5805899999999999
 20
0.44406
 11
2.9305899999999996
 21
0.44406
 72
               1
 10
2.9305899999999996
 20
0.44406
 11
2.9305899999999996
 21
-0.25594
 72
               1
 10
2.9305899999999996
 20
-0.25594
 11
2.5805899999999999
 21
-0.25594
 72
               1
 10
2.5805899999999999
 20
-0.25594
 11
2.5805899999999999
 21
0.44406
 97
        1
330
19E
 75
               0
 76
               1
 98
        1
 10
0.0
 20
0.0
  0
POLYLINE
  5
1A5
102
{ACAD_REACTORS
330
1AB
102
}
100
AcDbEntity
  8
None
370
               5
390
0
  6
Continuous
 62
               7
100
AcDb2dPolyline
 66
               1
 10
0.0
 20
0.0
 30
0.0
 70
               1
 75
               5
  0
VERTEX
  5
1A6
100
AcDbEntity
  8
None
370
               5
390
0
  6
Continuous
 62
               7
100
AcDbVertex
100
AcDb2dVertex
 10
3.0805899999999999
 20
0.44406
 30
0.0
  0
VERTEX
  5
1A7
100
AcDbEntity
  8
None
370
               5
390
0
  6
Continuous
 62
               7
100
AcDbVertex
100
AcDb2dVertex
 10
3.4305899999999996
 20
0.44406
 30
0.0
  0
VERTEX
  5
1A8
100
AcDbEntity
  8
None
370
               5
390
0
  6
Continuous
 62
               7
100
AcDbVertex
100
AcDb2dVertex
 10
3.4305899999999996
 20
-0.25594
 30
0.0
  0
VERTEX
  5
1A9
100
AcDbEntity
  8
None
370
               5
390
0
  6
Continuous
 62
               7
100
AcDbVertex
100
AcDb2dVertex
 10
3.0805899999999999
 20
-0.25594
 30
0.0
  0
SEQEND
  5
1AA
100
AcDbEntity
  8
None
370
               5
390
0
  6
Continuous
 62
               7
  0
HATCH
  5
1AB
100
AcDbEntity
  8
None
370
               0
390
0
  6
Continuous
 62
             254
100
AcDbHatch
 10
0.0
 20
0.0
 30
0.0
210
0.0
220
0.0
230
1.0
  2
SOLID
 70
               1
 71
               1
 91
        1
 92
        1
 93
        4
 72
               1
 10
3.0805899999999999
 20
0.44406
 11
3.4305899999999996
 21
0.44406
 72
               1
 10
3.4305899999999996
 20
0.44406
 11
3.4305899999999996
 21
-0.25594
 72
               1
 10
3.4305899999999996
 20
-0.25594
 11
3.0805899999999999
 21
-0.25594
 72
               1
 10
3.0805899999999999
 20
-0.25594
 11
3.0805899999999999
 21
0.44406
 97
        1
330
1A5
 75
               0
 76
               1
 98
        1
 10
0.0
 20
0.0
  0
POLYLINE
  5
1AC
102
{ACAD_REACTORS
330
1B2
102
}
100
AcDbEntity
  8
None
370
               5
390
0
  6
Continuous
 62
               7
100
AcDb2dPolyline
 66
               1
 10
0.0
 20
0.0
 30
0.0
 70
               1
 75
               5
  0
VERTEX
  5
1AD
100
AcDbEntity
  8
None
370
               5
390
0
  6
Continuous
 62
               7
100
AcDbVertex
100
AcDb2dVertex
 10
3.5805899999999995
 20
0.44406
 30
0.0
  0
VERTEX
  5
1AE
100
AcDbEntity
  8
None
370
               5
390
0
  6
Continuous
 62
               7
100
AcDbVertex
100
AcDb2dVertex
 10
3.9305899999999996
 20
0.44406
 30
0.0
  0
VERTEX
  5
1AF
100
AcDbEntity
  8
None
370
               5
390
0
  6
Continuous
 62
               7
100
AcDbVertex
100
AcDb2dVertex
 10
3.9305899999999996
 20
-0.25594
 30
0.0
  0
VERTEX
  5
1B0
100
AcDbEntity
  8
None
370
               5
390
0
  6
Continuous
 62
               7
100
AcDbVertex
100
AcDb2dVertex
 10
3.5805899999999995
 20
-0.25594
 30
0.0
  0
SEQEND
  5
1B1
100
AcDbEntity
  8
None
370
               5
390
0
  6
Continuous
 62
               7
  0
HATCH
  5
1B2
100
AcDbEntity
  8
None
370
               0
390
0
  6
Continuous
 62
             254
100
AcDbHatch
 10
0.0
 20
0.0
 30
0.0
210
0.0
220
0.0
230
1.0
  2
SOLID
 70
               1
 71
               1
 91
        1
 92
        1
 93
        4
 72
               1
 10
3.5805899999999995
 20
0.44406
 11
3.9305899999999996
 21
0.44406
 72
               1
 10
3.9305899999999996
 20
0.44406
 11
3.9305899999999996
 21
-0.25594
 72
               1
 10
3.9305899999999996
 20
-0.25594
 11
3.5805899999999995
 21
-0.25594
 72
               1
 10
3.5805899999999995
 20
-0.25594
 11
3.5805899999999995
 21
0.44406
 97
        1
330
1AC
 75
               0
 76
               1
 98
        1
 10
0.0
 20
0.0
  0
POLYLINE
  5
1B3
102
{ACAD_REACTORS
330
1B9
102
}
100
AcDbEntity
  8
None
370
               5
390
0
  6
Continuous
 62
               7
100
AcDb2dPolyline
 66
               1
 10
0.0
 20
0.0
 30
0.0
 70
               1
 75
               5
  0
VERTEX
  5
1B4
100
AcDbEntity
  8
None
370
               5
390
0
  6
Continuous
 62
               7
100
AcDbVertex
100
AcDb2dVertex
 10
4.0805899999999999
 20
0.44406
 30
0.0
  0
VERTEX
  5
1B5
100
AcDbEntity
  8
None
370
               5
390
0
  6
Continuous
 62
               7
100
AcDbVertex
100
AcDb2dVertex
 10
4.4305899999999996
 20
0.44406
 30
0.0
  0
VERTEX
  5
1B6
100
AcDbEntity
  8
None
370
               5
390
0
  6
Continuous
 62
               7
100
AcDbVertex
100
AcDb2dVertex
 10
4.4305899999999996
 20
-0.25594
 30
0.0
  0
VERTEX
  5
1B7
100
AcDbEntity
  8
None
370
               5
390
0
  6
Continuous
 62
               7
100
AcDbVertex
100
AcDb2dVertex
 10
4.0805899999999999
 20
-0.25594
 30
0.0
  0
SEQEND
  5
1B8
100
AcDbEntity
  8
None
370
               5
390
0
  6
Continuous
 62
               7
  0
HATCH
  5
1B9
100
AcDbEntity
  8
None
370
               0
390
0
  6
Continuous
 62
             254
100
AcDbHatch
 10
0.0
 20
0.0
 30
0.0
210
0.0
220
0.0
230
1.0
  2
SOLID
 70
               1
 71
               1
 91
        1
 92
        1
 93
        4
 72
               1
 10
4.0805899999999999
 20
0.44406
 11
4.4305899999999996
 21
0.44406
 72
               1
 10
4.4305899999999996
 20
0.44406
 11
4.4305899999999996
 21
-0.25594
 72
               1
 10
4.4305899999999996
 20
-0.25594
 11
4.0805899999999999
 21
-0.25594
 72
               1
 10
4.0805899999999999
 20
-0.25594
 11
4.0805899999999999
 21
0.44406
 97
        1
330
1B3
 75
               0
 76
               1
 98
        1
 10
0.0
 20
0.0
  0
POLYLINE
  5
1BA
102
{ACAD_REACTORS
330
1C0
102
}
100
AcDbEntity
  8
None
370
               5
390
0
  6
Continuous
 62
               7
100
AcDb2dPolyline
 66
               1
 10
0.0
 20
0.0
 30
0.0
 70
               1
 75
               5
  0
VERTEX
  5
1BB
100
AcDbEntity
  8
None
370
               5
390
0
  6
Continuous
 62
               7
100
AcDbVertex
100
AcDb2dVertex
 10
4.5805899999999999
 20
0.44406
 30
0.0
  0
VERTEX
  5
1BC
100
AcDbEntity
  8
None
370
               5
390
0
  6
Continuous
 62
               7
100
AcDbVertex
100
AcDb2dVertex
 10
4.9305899999999996
 20
0.44406
 30
0.0
  0
VERTEX
  5
1BD
100
AcDbEntity
  8
None
370
               5
390
0
  6
Continuous
 62
               7
100
AcDbVertex
100
AcDb2dVertex
 10
4.9305899999999996
 20
-0.25594
 30
0.0
  0
VERTEX
  5
1BE
100
AcDbEntity
  8
None
370
               5
390
0
  6
Continuous
 62
               7
100
AcDbVertex
100
AcDb2dVertex
 10
4.5805899999999999
 20
-0.25594
 30
0.0
  0
SEQEND
  5
1BF
100
AcDbEntity
  8
None
370
               5
390
0
  6
Continuous
 62
               7
  0
HATCH
  5
1C0
100
AcDbEntity
  8
None
370
               0
390
0
  6
Continuous
 62
             254
100
AcDbHatch
 10
0.0
 20
0.0
 30
0.0
210
0.0
220
0.0
230
1.0
  2
SOLID
 70
               1
 71
               1
 91
        1
 92
        1
 93
        4
 72
               1
 10
4.5805899999999999
 20
0.44406
 11
4.9305899999999996
 21
0.44406
 72
               1
 10
4.9305899999999996
 20
0.44406
 11
4.9305899999999996
 21
-0.25594
 72
               1
 10
4.9305899999999996
 20
-0.25594
 11
4.5805899999999999
 21
-0.25594
 72
               1
 10
4.5805899999999999
 20
-0.25594
 11
4.5805899999999999
 21
0.44406
 97
        1
330
1BA
 75
               0
 76
               1
 98
        1
 10
0.0
 20
0.0
  0
POLYLINE
  5
1C1
102
{ACAD_REACTORS
330
1C7
102
}
100
AcDbEntity
  8
None
370
               5
390
0
  6
Continuous
 62
               7
100
AcDb2dPolyline
 66
               1
 10
0.0
 20
0.0
 30
0.0
 70
               1
 75
               5
  0
VERTEX
  5
1C2
100
AcDbEntity
  8
None
370
               5
390
0
  6
Continuous
 62
               7
100
AcDbVertex
100
AcDb2dVertex
 10
5.0805899999999999
 20
0.44406
 30
0.0
  0
VERTEX
  5
1C3
100
AcDbEntity
  8
None
370
               5
390
0
  6
Continuous
 62
               7
100
AcDbVertex
100
AcDb2dVertex
 10
5.4305899999999996
 20
0.44406
 30
0.0
  0
VERTEX
  5
1C4
100
AcDbEntity
  8
None
370
               5
390
0
  6
Continuous
 62
               7
100
AcDbVertex
100
AcDb2dVertex
 10
5.4305899999999996
 20
-0.25594
 30
0.0
  0
VERTEX
  5
1C5
100
AcDbEntity
  8
None
370
               5
390
0
  6
Continuous
 62
               7
100
AcDbVertex
100
AcDb2dVertex
 10
5.0805899999999999
 20
-0.25594
 30
0.0
  0
SEQEND
  5
1C6
100
AcDbEntity
  8
None
370
               5
390
0
  6
Continuous
 62
               7
  0
HATCH
  5
1C7
100
AcDbEntity
  8
None
370
               0
390
0
  6
Continuous
 62
             254
100
AcDbHatch
 10
0.0
 20
0.0
 30
0.0
210
0.0
220
0.0
230
1.0
  2
SOLID
 70
               1
 71
               1
 91
        1
 92
        1
 93
        4
 72
               1
 10
5.0805899999999999
 20
0.44406
 11
5.4305899999999996
 21
0.44406
 72
               1
 10
5.4305899999999996
 20
0.44406
 11
5.4305899999999996
 21
-0.25594
 72
               1
 10
5.4305899999999996
 20
-0.25594
 11
5.0805899999999999
 21
-0.25594
 72
               1
 10
5.0805899999999999
 20
-0.25594
 11
5.0805899999999999
 21
0.44406
 97
        1
330
1C1
 75
               0
 76
               1
 98
        1
 10
0.0
 20
0.0
  0
POLYLINE
  5
1C8
102
{ACAD_REACTORS
330
1CE
102
}
100
AcDbEntity
  8
None
370
               5
390
0
  6
Continuous
 62
               7
100
AcDb2dPolyline
 66
               1
 10
0.0
 20
0.0
 30
0.0
 70
               1
 75
               5
  0
VERTEX
  5
1C9
100
AcDbEntity
  8
None
370
               5
390
0
  6
Continuous
 62
               7
100
AcDbVertex
100
AcDb2dVertex
 10
-0.79441
 20
4.5190599999999996
 30
0.0
  0
VERTEX
  5
1CA
100
AcDbEntity
  8
None
370
               5
390
0
  6
Continuous
 62
               7
100
AcDbVertex
100
AcDb2dVertex
 10
5.3055899999999996
 20
4.5190599999999996
 30
0.0
  0
VERTEX
  5
1CB
100
AcDbEntity
  8
None
370
               5
390
0
  6
Continuous
 62
               7
100
AcDbVertex
100
AcDb2dVertex
 10
5.3055899999999996
 20
1.0190599999999999
 30
0.0
  0
VERTEX
  5
1CC
100
AcDbEntity
  8
None
370
               5
390
0
  6
Continuous
 62
               7
100
AcDbVertex
100
AcDb2dVertex
 10
-0.79441
 20
1.0190599999999999
 30
0.0
  0
SEQEND
  5
1CD
100
AcDbEntity
  8
None
370
               5
390
0
  6
Continuous
 62
               7
  0
HATCH
  5
1CE
100
AcDbEntity
  8
None
370
               0
390
0
  6
Continuous
 62
             254
100
AcDbHatch
 10
0.0
 20
0.0
 30
0.0
210
0.0
220
0.0
230
1.0
  2
SOLID
 70
               1
 71
               1
 91
        1
 92
        1
 93
        4
 72
               1
 10
-0.79441
 20
4.5190599999999996
 11
5.3055899999999996
 21
4.5190599999999996
 72
               1
 10
5.3055899999999996
 20
4.5190599999999996
 11
5.3055899999999996
 21
1.0190599999999999
 72
               1
 10
5.3055899999999996
 20
1.0190599999999999
 11
-0.79441
 21
1.0190599999999999
 72
               1
 10
-0.79441
 20
1.0190599999999999
 11
-0.79441
 21
4.5190599999999996
 97
        1
330
1C8
 75
               0
 76
               1
 98
        1
 10
0.0
 20
0.0
  0
ENDBLK
  5
1CF
100
AcDbEntity
  8
None
390
0
100
AcDbBlockEnd
  0
BLOCK
  5
1D0
100
AcDbEntity
  8
None
390
0
100
AcDbBlockBegin
  2
Group-1
 70
               0
 10
0.0
 20
0.0
 30
0.0
  3
Group-1
  1

  0
WIPEOUT
  5
1D1
100
AcDbEntity
  8
None
370
               9
390
0
  6
STYLE_12
 62
               7
 92
        0
100
AcDbWipeout
 90
        0
 10
-5.6069099999999992
 20
-4.8434399999999993
 30
0.0
 11
15.224999999999998
 21
0.0
 31
0.0
 12
0.0
 22
15.224999999999998
 32
0.0
 13
1.0
 23
1.0
340
0
 70
               7
280
               1
281
              50
282
              50
283
               0
360
0
 71
               2
 91
        5
 14
-0.5
 24
-0.5
 14
0.5
 24
-0.5
 14
0.5
 24
0.5
 14
-0.5
 24
0.5
 14
-0.5
 24
-0.5
  0
POLYLINE
  5
1D2
100
AcDbEntity
  8
None
370
               9
390
0
  6
STYLE_12
 62
               7
100
AcDb2dPolyline
 66
               1
 10
0.0
 20
0.0
 30
0.0
 70
               1
 75
               5
  0
VERTEX
  5
1D3
100
AcDbEntity
  8
None
370
               9
390
0
  6
STYLE_12
 62
               7
100
AcDbVertex
100
AcDb2dVertex
 10
-5.6069099999999992
 20
10.381559999999999
 30
0.0
  0
VERTEX
  5
1D4
100
AcDbEntity
  8
None
370
               9
390
0
  6
STYLE_12
 62
               7
100
AcDbVertex
100
AcDb2dVertex
 10
9.6180899999999987
 20
10.381559999999999
 30
0.0
  0
VERTEX
  5
1D5
100
AcDbEntity
  8
None
370
               9
390
0
  6
STYLE_12
 62
               7
100
AcDbVertex
100
AcDb2dVertex
 10
9.6180899999999987
 20
-4.8434399999999993
 30
0.0
  0
VERTEX
  5
1D6
100
AcDbEntity
  8
None
370
               9
390
0
  6
STYLE_12
 62
               7
100
AcDbVertex
100
AcDb2dVertex
 10
-5.6069099999999992
 20
-4.8434399999999993
 30
0.0
  0
SEQEND
  5
1D7
100
AcDbEntity
  8
None
370
               9
390
0
  6
STYLE_12
 62
               7
  0
CIRCLE
  5
1D8
100
AcDbEntity
  8
None
370
               9
390
0
  6
Continuous
 62
               7
100
AcDbCircle
 10
-4.3569100000000001
 20
9.1315599999999986
 30
0.0
 40
0.8050000000000002
  0
CIRCLE
  5
1D9
100
AcDbEntity
  8
None
370
               9
390
0
  6
Continuous
 62
               7
100
AcDbCircle
 10
8.3680899999999987
 20
6.5915599999999994
 30
0.0
 40
0.4249999999999998
  0
CIRCLE
  5
1DA
100
AcDbEntity
  8
None
370
               9
390
0
  6
Continuous
 62
               7
100
AcDbCircle
 10
8.3680899999999987
 20
9.1315599999999986
 30
0.0
 40
0.8049999999999997
  0
CIRCLE
  5
1DB
100
AcDbEntity
  8
None
370
               9
390
0
  6
Continuous
 62
               7
100
AcDbCircle
 10
8.3680899999999987
 20
-3.5934399999999997
 30
0.0
 40
0.8049999999999997
  0
CIRCLE
  5
1DC
100
AcDbEntity
  8
None
370
               9
390
0
  6
Continuous
 62
               7
100
AcDbCircle
 10
-4.3569100000000001
 20
1.4865599999999999
 30
0.0
 40
0.425
  0
CIRCLE
  5
1DD
100
AcDbEntity
  8
None
370
               9
390
0
  6
Continuous
 62
               7
100
AcDbCircle
 10
-4.3569100000000001
 20
-3.5934399999999997
 30
0.0
 40
0.8050000000000002
  0
CIRCLE
  5
1DE
102
{ACAD_REACTORS
330
1DF
102
}
100
AcDbEntity
  8
None
370
               5
390
0
  6
Continuous
 62
               7
100
AcDbCircle
 10
-2.2319099999999996
 20
8.7065599999999996
 30
0.0
 40
0.2124399999999991
  0
HATCH
  5
1DF
100
AcDbEntity
  8
None
370
               0
390
0
  6
Continuous
 62
               7
100
AcDbHatch
 10
0.0
 20
0.0
 30
0.0
210
0.0
220
0.0
230
1.0
  2
SOLID
 70
               1
 71
               1
 91
        1
 92
        1
 93
        1
 72
               2
 10
-2.2319099999999996
 20
8.7065599999999996
 40
0.2124399999999991
 50
0.0
 51
360.0
 73
               0
 97
        1
330
1DE
 75
               0
 76
               1
 98
        1
 10
0.0
 20
0.0
  0
INSERT
  5
1E0
100
AcDbEntity
  8
None
390
0
 62
               7
100
AcDbBlockReference
  2
Group
 10
0.0
 20
0.0
 30
0.0
  0
ENDBLK
  5
1E1
100
AcDbEntity
  8
None
390
0
100
AcDbBlockEnd
  0
BLOCK
  5
1E2
100
AcDbEntity
  8
Dimension
390
0
100
AcDbBlockBegin
  2
*D5
 70
               1
 10
0.0
 20
0.0
 30
0.0
  3
*D5
  1

  0
LINE
  5
1E3
100
AcDbEntity
  8
Dimension
370
              -2
390
0
  6
Continuous
 62
               0
100
AcDbLine
 10
20.622502233422956
 20
-145.09500739999999
 30
0.0
 11
-1.519997133154078
 21
-145.09500739999999
 31
0.0
  0
LINE
  5
1E4
100
AcDbEntity
  8
Dimension
370
              -2
390
0
  6
Continuous
 62
               0
100
AcDbLine
 10
20.622502233422956
 20
-160.32000739999998
 30
0.0
 11
-1.519997133154078
 21
-160.32000739999998
 31
0.0
  0
LINE
  5
1E5
100
AcDbEntity
  8
Dimension
370
              -2
390
0
  6
Continuous
 62
               0
100
AcDbLine
 10
-0.2499984000000026
 20
-145.09500739999999
 30
0.0
 11
-0.2499984000000026
 21
-160.32000739999998
 31
0.0
  0
SOLID
  5
1E6
100
AcDbEntity
  8
Dimension
370
              -2
390
0
 62
               0
100
AcDbTrace
 10
-0.2499984000000026
 20
-145.09500739999999
 30
0.0
 11
0.0335808784100387
 21
-146.15333967499998
 31
0.0
 12
-0.5335776784100439
 22
-146.15333967499998
 32
0.0
 13
-0.5335776784100439
 23
-146.15333967499998
 33
0.0
  0
SOLID
  5
1E7
100
AcDbEntity
  8
Dimension
370
              -2
390
0
 62
               0
100
AcDbTrace
 10
-0.2499984000000026
 20
-160.32000739999998
 30
0.0
 11
-0.5335776784100439
 21
-159.26167512499998
 31
0.0
 12
0.0335808784100387
 22
-159.26167512499998
 32
0.0
 13
0.0335808784100387
 23
-159.26167512499998
 33
0.0
  0
WIPEOUT
  5
1E8
100
AcDbEntity
  8
Dimension
370
              -2
390
0
  6
Continuous
 62
               0
 92
        0
100
AcDbWipeout
 90
        0
 10
-6.308939975749329
 20
29.13249503251464
 30
0.0
 11
5.0376508810305616
 21
0.0
 31
0.0
 12
0.0
 22
5.0376508810305616
 32
0.0
 13
1.0
 23
1.0
340
0
 70
               7
280
               1
281
              50
282
              50
283
               0
360
0
 71
               2
 91
        5
 14
-0.5
 24
36.695636280912375
 14
0.5
 24
36.695636280912375
 14
0.5
 24
36.454039646142995
 14
-0.5
 24
36.454039646142995
 14
-0.5
 24
36.695636280912375
  0
MTEXT
  5
1E9
100
AcDbEntity
  8
Dimension
390
0
 62
               0
100
AcDbMText
 10
-6.308939975749329
 20
-152.18598284769368
 30
0.0
 40
0.7579186197916666
 41
0.0
 71
               1
 72
               1
  1
15.225mm
  7
Helvetica
 73
               1
 44
0.9673603504928808
  0
WIPEOUT
  5
1EA
100
AcDbEntity
  8
Dimension
370
              -2
390
0
  6
Continuous
 62
               0
 92
        0
100
AcDbWipeout
 90
        0
 10
-1.2712890947187674
 20
29.13249389501464
 30
0.0
 11
5.0270675403373737
 21
0.0
 31
0.0
 12
0.0
 22
5.0270675403373737
 32
0.0
 13
1.0
 23
1.0
340
0
 70
               7
280
               1
281
              50
282
              50
283
               0
360
0
 71
               2
 91
        5
 14
-0.5
 24
36.771837912836723
 14
0.5
 24
36.771837912836723
 14
0.5
 24
36.529732651621487
 14
-0.5
 24
36.529732651621487
 14
-0.5
 24
36.771837912836723
  0
MTEXT
  5
1EB
100
AcDbEntity
  8
Dimension
390
0
 62
               0
100
AcDbMText
 10
-1.2712890947187674
 20
-152.18598398519367
 30
0.0
 40
0.7579186197916666
 41
0.0
 71
               1
 72
               1
  1
±0.125mm
  7
Helvetica
 73
               1
 44
0.9673603504928808
  0
WIPEOUT
  5
1EC
100
AcDbEntity
  8
Dimension
370
              -2
390
0
  6
Continuous
 62
               0
 92
        0
100
AcDbWipeout
 90
        0
 10
3.7557784456186063
 20
29.13249241626464
 30
0.0
 11
2.053164730130721
 21
0.0
 31
0.0
 12
0.0
 22
2.053164730130721
 32
0.0
 13
1.0
 23
1.0
340
0
 70
               7
280
               1
281
              50
282
              50
283
               0
360
0
 71
               2
 91
        5
 14
-0.5
 24
89.309717176658651
 14
0.5
 24
89.309717176658651
 14
0.5
 24
88.716933705177269
 14
-0.5
 24
88.716933705177269
 14
-0.5
 24
89.309717176658651
  0
MTEXT
  5
1ED
100
AcDbEntity
  8
Dimension
390
0
 62
               0
100
AcDbMText
 10
3.7557784456186063
 20
-152.18598326596191
 30
0.0
 40
0.7579202490234376
 41
0.0
 71
               1
 72
               1
  1
 sqr.
  7
Helvetica
 73
               1
 44
0.9673603504928806
  0
POINT
  5
1EE
100
AcDbEntity
  8
Defpoints
370
               0
390
0
 62
               0
100
AcDbPoint
 10
21.257501599999994
 20
-160.32000739999998
 30
0.0
  0
POINT
  5
1EF
100
AcDbEntity
  8
Defpoints
370
               0
390
0
 62
               0
100
AcDbPoint
 10
21.257501599999994
 20
-145.09500739999999
 30
0.0
  0
POINT
  5
1F0
100
AcDbEntity
  8
Defpoints
370
               0
390
0
 62
               0
100
AcDbPoint
 10
-0.2499984000000026
 20
-145.09500739999999
 30
0.0
  0
ENDBLK
  5
1F1
100
AcDbEntity
  8
Dimension
390
0
100
AcDbBlockEnd
  0
BLOCK
  5
1F2
100
AcDbEntity
  8
Dimension
390
0
100
AcDbBlockBegin
  2
Group-2
 70
               0
 10
0.0
 20
0.0
 30
0.0
  3
Group-2
  1

  0
LINE
  5
1F3
100
AcDbEntity
  8
None
370
               5
390
0
  6
Continuous
 62
               1
100
AcDbLine
 10
1.38059
 20
2.7690599999999996
 30
0.0
 11
2.6305899999999998
 21
2.7690599999999996
 31
0.0
  0
LINE
  5
1F4
100
AcDbEntity
  8
None
370
               5
390
0
  6
Continuous
 62
               1
100
AcDbLine
 10
2.0055899999999998
 20
2.1440599999999996
 30
0.0
 11
2.0055899999999998
 21
3.3940599999999996
 31
0.0
  0
LINE
  5
1F5
100
AcDbEntity
  8
None
370
               5
390
0
  6
Continuous
 62
               1
100
AcDbLine
 10
-6.3569099999999992
 20
2.7690599999999996
 30
0.0
 11
0.8805899999999999
 21
2.7690599999999996
 31
0.0
  0
LINE
  5
1F6
100
AcDbEntity
  8
None
370
               5
390
0
  6
Continuous
 62
               1
100
AcDbLine
 10
3.1305899999999998
 20
2.7690599999999996
 30
0.0
 11
10.368089999999999
 21
2.7690599999999996
 31
0.0
  0
LINE
  5
1F7
100
AcDbEntity
  8
None
370
               5
390
0
  6
Continuous
 62
               1
100
AcDbLine
 10
2.0055899999999998
 20
11.131559999999999
 30
0.0
 11
2.0055899999999998
 21
3.8940599999999996
 31
0.0
  0
LINE
  5
1F8
100
AcDbEntity
  8
None
370
               5
390
0
  6
Continuous
 62
               1
100
AcDbLine
 10
2.0055899999999998
 20
1.6440599999999999
 30
0.0
 11
2.0055899999999998
 21
-5.5934399999999993
 31
0.0
  0
ENDBLK
  5
1F9
100
AcDbEntity
  8
Dimension
390
0
100
AcDbBlockEnd
  0
BLOCK
  5
1FA
100
AcDbEntity
  8
Dimension
390
0
100
AcDbBlockBegin
  2
*D7
 70
               1
 10
0.0
 20
0.0
 30
0.0
  3
*D7
  1

  0
LINE
  5
1FB
100
AcDbEntity
  8
Dimension
370
              -2
390
0
  6
Continuous
 62
               0
100
AcDbLine
 10
22.507501599999994
 20
-145.71000803342295
 30
0.0
 11
22.507501599999994
 21
-138.43000866684591
 31
0.0
  0
LINE
  5
1FC
100
AcDbEntity
  8
Dimension
370
              -2
390
0
  6
Continuous
 62
               0
100
AcDbLine
 10
25.945001599999994
 20
-149.39750803342295
 30
0.0
 11
25.945001599999994
 21
-138.43000866684591
 31
0.0
  0
LINE
  5
1FD
100
AcDbEntity
  8
Dimension
370
              -2
390
0
  6
Continuous
 62
               0
100
AcDbLine
 10
25.945001599999994
 20
-139.7000074
 30
0.0
 11
22.507501599999994
 21
-139.7000074
 31
0.0
  0
LINE
  5
1FE
100
AcDbEntity
  8
Dimension
370
              -2
390
0
  6
Continuous
 62
               0
100
AcDbLine
 10
22.507501599999994
 20
-139.7000074
 30
0.0
 11
20.174175268839569
 21
-139.7000074
 31
0.0
  0
SOLID
  5
1FF
100
AcDbEntity
  8
Dimension
370
              -2
390
0
 62
               0
100
AcDbTrace
 10
22.507501599999994
 20
-139.7000074
 30
0.0
 11
21.449169324999993
 21
-139.98358667841003
 31
0.0
 12
21.449169324999993
 22
-139.41642812158995
 32
0.0
 13
21.449169324999993
 23
-139.41642812158995
 33
0.0
  0
LINE
  5
200
100
AcDbEntity
  8
Dimension
370
              -2
390
0
  6
Continuous
 62
               0
100
AcDbLine
 10
25.945001599999994
 20
-139.7000074
 30
0.0
 11
28.000001599999994
 21
-139.7000074
 31
0.0
  0
SOLID
  5
201
100
AcDbEntity
  8
Dimension
370
              -2
390
0
 62
               0
100
AcDbTrace
 10
25.945001599999994
 20
-139.7000074
 30
0.0
 11
27.003333874999992
 21
-139.41642812158995
 31
0.0
 12
27.003333874999992
 22
-139.98358667841003
 32
0.0
 13
27.003333874999992
 23
-139.98358667841003
 33
0.0
  0
WIPEOUT
  5
202
100
AcDbEntity
  8
Dimension
370
              -2
390
0
  6
Continuous
 62
               0
 92
        0
100
AcDbWipeout
 90
        0
 10
28.000001599999994
 20
42.032431849999995
 30
0.0
 11
5.0376508810305598
 21
0.0
 31
0.0
 12
0.0
 22
5.0376508810305598
 32
0.0
 13
1.0
 23
1.0
340
0
 70
               7
280
               1
281
              50
282
              50
283
               0
360
0
 71
               2
 91
        5
 14
-0.5
 24
36.695636280912389
 14
0.5000000000000004
 24
36.695636280912389
 14
0.5000000000000004
 24
36.454039646143009
 14
-0.5
 24
36.454039646143009
 14
-0.5
 24
36.695636280912389
  0
MTEXT
  5
203
100
AcDbEntity
  8
Dimension
390
0
 62
               0
100
AcDbMText
 10
28.000001599999994
 20
-139.28604603020833
 30
0.0
 40
0.7579186197916666
 41
0.0
 71
               1
 72
               1
  1
3.4375mm
  7
Helvetica
 73
               1
 44
0.9673603504928808
  0
POINT
  5
204
100
AcDbEntity
  8
Defpoints
370
               0
390
0
 62
               0
100
AcDbPoint
 10
25.945001599999994
 20
-150.03250739999999
 30
0.0
  0
POINT
  5
205
100
AcDbEntity
  8
Defpoints
370
               0
390
0
 62
               0
100
AcDbPoint
 10
22.507501599999994
 20
-146.34500739999999
 30
0.0
  0
POINT
  5
206
100
AcDbEntity
  8
Defpoints
370
               0
390
0
 62
               0
100
AcDbPoint
 10
22.507501599999994
 20
-139.7000074
 30
0.0
  0
ENDBLK
  5
207
100
AcDbEntity
  8
Dimension
390
0
100
AcDbBlockEnd
  0
BLOCK
  5
208
100
AcDbEntity
  8
Dimension
390
0
100
AcDbBlockBegin
  2
*D8
 70
               1
 10
0.0
 20
0.0
 30
0.0
  3
*D8
  1

  0
LINE
  5
209
100
AcDbEntity
  8
Dimension
370
              -2
390
0
  6
Continuous
 62
               0
100
AcDbLine
 10
25.310002233422956
 20
-149.68250739999999
 30
0.0
 11
17.748202866845919
 21
-149.68250739999999
 31
0.0
  0
LINE
  5
20A
100
AcDbEntity
  8
Dimension
370
              -2
390
0
  6
Continuous
 62
               0
100
AcDbLine
 10
21.872502233422956
 20
-146.34500739999999
 30
0.0
 11
17.748202866845919
 21
-146.34500739999999
 31
0.0
  0
LINE
  5
20B
100
AcDbEntity
  8
Dimension
370
              -2
390
0
  6
Continuous
 62
               0
100
AcDbLine
 10
19.018201599999994
 20
-146.34500739999999
 30
0.0
 11
19.018201599999994
 21
-149.68250739999999
 31
0.0
  0
LINE
  5
20C
100
AcDbEntity
  8
Dimension
370
              -2
390
0
  6
Continuous
 62
               0
100
AcDbLine
 10
19.018201599999994
 20
-149.68250739999999
 30
0.0
 11
19.018201599999994
 21
-152.01583373116043
 31
0.0
  0
SOLID
  5
20D
100
AcDbEntity
  8
Dimension
370
              -2
390
0
 62
               0
100
AcDbTrace
 10
19.018201599999994
 20
-149.68250739999999
 30
0.0
 11
19.301780878410035
 21
-150.74083967499999
 31
0.0
 12
18.734622321589953
 22
-150.74083967499999
 32
0.0
 13
18.734622321589953
 23
-150.74083967499999
 33
0.0
  0
LINE
  5
20E
100
AcDbEntity
  8
Dimension
370
              -2
390
0
  6
Continuous
 62
               0
100
AcDbLine
 10
19.018201599999994
 20
-146.34500739999999
 30
0.0
 11
19.018201599999994
 21
-144.01168106883958
 31
0.0
  0
SOLID
  5
20F
100
AcDbEntity
  8
Dimension
370
              -2
390
0
 62
               0
100
AcDbTrace
 10
19.018201599999994
 20
-146.34500739999999
 30
0.0
 11
18.734622321589953
 21
-145.28667512499999
 31
0.0
 12
19.301780878410035
 22
-145.28667512499999
 32
0.0
 13
19.301780878410035
 23
-145.28667512499999
 33
0.0
  0
WIPEOUT
  5
210
100
AcDbEntity
  8
Dimension
370
              -2
390
0
  6
Continuous
 62
               0
 92
        0
100
AcDbWipeout
 90
        0
 10
16.499376159484711
 20
33.718732776208483
 30
0.0
 11
5.0376508810305607
 21
0.0
 31
0.0
 12
0.0
 22
5.0376508810305607
 32
0.0
 13
1.0
 23
1.0
340
0
 70
               7
280
               1
281
              50
282
              50
283
               0
360
0
 71
               2
 91
        5
 14
-0.5
 24
36.695636280912382
 14
0.5000000000000002
 24
36.695636280912382
 14
0.5000000000000002
 24
36.454039646143002
 14
-0.5
 24
36.454039646143002
 14
-0.5
 24
36.695636280912382
  0
MTEXT
  5
211
100
AcDbEntity
  8
Dimension
390
0
 62
               0
100
AcDbMText
 10
16.499376159484711
 20
-147.59974510399982
 30
0.0
 40
0.7579186197916666
 41
0.0
 71
               1
 72
               1
  1
3.3375mm
  7
Helvetica
 73
               1
 44
0.9673603504928808
  0
POINT
  5
212
100
AcDbEntity
  8
Defpoints
370
               0
390
0
 62
               0
100
AcDbPoint
 10
22.507501599999994
 20
-146.34500739999999
 30
0.0
  0
POINT
  5
213
100
AcDbEntity
  8
Defpoints
370
               0
390
0
 62
               0
100
AcDbPoint
 10
25.945001599999994
 20
-149.68250739999999
 30
0.0
  0
POINT
  5
214
100
AcDbEntity
  8
Defpoints
370
               0
390
0
 62
               0
100
AcDbPoint
 10
19.018201599999994
 20
-149.68250739999999
 30
0.0
  0
ENDBLK
  5
215
100
AcDbEntity
  8
Dimension
390
0
100
AcDbBlockEnd
  0
BLOCK
  5
216
100
AcDbEntity
  8
Dimension
390
0
100
AcDbBlockBegin
  2
*D9
 70
               1
 10
0.0
 20
0.0
 30
0.0
  3
*D9
  1

  0
LINE
  5
217
100
AcDbEntity
  8
Dimension
370
              -2
390
0
  6
Continuous
 62
               0
100
AcDbLine
 10
30.620001599999995
 20
-149.39750803342295
 30
0.0
 11
30.620001599999995
 21
-141.73000866684592
 31
0.0
  0
LINE
  5
218
100
AcDbEntity
  8
Dimension
370
              -2
390
0
  6
Continuous
 62
               0
100
AcDbLine
 10
31.120001599999995
 20
-149.39750803342295
 30
0.0
 11
31.120001599999995
 21
-141.73000866684592
 31
0.0
  0
LINE
  5
219
100
AcDbEntity
  8
Dimension
370
              -2
390
0
  6
Continuous
 62
               0
100
AcDbLine
 10
31.120001599999995
 20
-143.00000739999999
 30
0.0
 11
30.620001599999995
 21
-143.00000739999999
 31
0.0
  0
LINE
  5
21A
100
AcDbEntity
  8
Dimension
370
              -2
390
0
  6
Continuous
 62
               0
100
AcDbLine
 10
30.620001599999995
 20
-143.00000739999999
 30
0.0
 11
28.286675268839566
 21
-143.00000739999999
 31
0.0
  0
SOLID
  5
21B
100
AcDbEntity
  8
Dimension
370
              -2
390
0
 62
               0
100
AcDbTrace
 10
30.620001599999995
 20
-143.00000739999999
 30
0.0
 11
29.561669324999993
 21
-143.28358667841005
 31
0.0
 12
29.561669324999993
 22
-142.71642812158996
 32
0.0
 13
29.561669324999993
 23
-142.71642812158996
 33
0.0
  0
LINE
  5
21C
100
AcDbEntity
  8
Dimension
370
              -2
390
0
  6
Continuous
 62
               0
100
AcDbLine
 10
31.120001599999995
 20
-143.00000739999999
 30
0.0
 11
32.700001599999993
 21
-143.00000739999999
 31
0.0
  0
SOLID
  5
21D
100
AcDbEntity
  8
Dimension
370
              -2
390
0
 62
               0
100
AcDbTrace
 10
31.120001599999995
 20
-143.00000739999999
 30
0.0
 11
32.178333874999993
 21
-142.71642812158996
 31
0.0
 12
32.178333874999993
 22
-143.28358667841005
 32
0.0
 13
32.178333874999993
 23
-143.28358667841005
 33
0.0
  0
WIPEOUT
  5
21E
100
AcDbEntity
  8
Dimension
370
              -2
390
0
  6
Continuous
 62
               0
 92
        0
100
AcDbWipeout
 90
        0
 10
32.700001599999993
 20
38.73243184999999
 30
0.0
 11
5.2599001384281161
 21
0.0
 31
0.0
 12
0.0
 22
5.2599001384281161
 32
0.0
 13
1.0
 23
1.0
340
0
 70
               7
280
               1
281
              50
282
              50
283
               0
360
0
 71
               2
 91
        5
 14
-0.5
 24
35.166243502959603
 14
0.4999999999999998
 24
35.166243502959603
 14
0.4999999999999998
 24
34.934855174670211
 14
-0.5
 24
34.934855174670211
 14
-0.5
 24
35.166243502959603
  0
MTEXT
  5
21F
100
AcDbEntity
  8
Dimension
390
0
 62
               0
100
AcDbMText
 10
32.700001599999993
 20
-142.58604603020834
 30
0.0
 40
0.7579186197916666
 41
0.0
 71
               1
 72
               1
  1
0.5mm typ.
  7
Helvetica
 73
               1
 44
0.9673603504928808
  0
POINT
  5
220
100
AcDbEntity
  8
Defpoints
370
               0
390
0
 62
               0
100
AcDbPoint
 10
31.120001599999995
 20
-150.03250739999999
 30
0.0
  0
POINT
  5
221
100
AcDbEntity
  8
Defpoints
370
               0
390
0
 62
               0
100
AcDbPoint
 10
30.620001599999995
 20
-150.03250739999999
 30
0.0
  0
POINT
  5
222
100
AcDbEntity
  8
Defpoints
370
               0
390
0
 62
               0
100
AcDbPoint
 10
30.620001599999995
 20
-143.00000739999999
 30
0.0
  0
ENDBLK
  5
223
100
AcDbEntity
  8
Dimension
390
0
100
AcDbBlockEnd
  0
BLOCK
  5
224
100
AcDbEntity
  8
Dimension
390
0
100
AcDbBlockBegin
  2
*D10
 70
               1
 10
0.0
 20
0.0
 30
0.0
  3
*D10
  1

  0
LINE
  5
225
100
AcDbEntity
  8
Dimension
370
              -2
390
0
  6
Continuous
 62
               0
100
AcDbLine
 10
21.872502233422956
 20
-159.07000739999998
 30
0.0
 11
16.811342866845919
 21
-159.07000739999998
 31
0.0
  0
LINE
  5
226
100
AcDbEntity
  8
Dimension
370
              -2
390
0
  6
Continuous
 62
               0
100
AcDbLine
 10
21.872502233422956
 20
-153.9900074
 30
0.0
 11
16.811342866845919
 21
-153.9900074
 31
0.0
  0
LINE
  5
227
100
AcDbEntity
  8
Dimension
370
              -2
390
0
  6
Continuous
 62
               0
100
AcDbLine
 10
18.081341599999995
 20
-153.9900074
 30
0.0
 11
18.081341599999995
 21
-159.07000739999998
 31
0.0
  0
LINE
  5
228
100
AcDbEntity
  8
Dimension
370
              -2
390
0
  6
Continuous
 62
               0
100
AcDbLine
 10
18.081341599999995
 20
-159.07000739999998
 30
0.0
 11
18.081341599999995
 21
-161.40333373116042
 31
0.0
  0
SOLID
  5
229
100
AcDbEntity
  8
Dimension
370
              -2
390
0
 62
               0
100
AcDbTrace
 10
18.081341599999995
 20
-159.07000739999998
 30
0.0
 11
18.36492087841004
 21
-160.12833967500001
 31
0.0
 12
17.79776232158995
 22
-160.12833967500001
 32
0.0
 13
17.79776232158995
 23
-160.12833967500001
 33
0.0
  0
LINE
  5
22A
100
AcDbEntity
  8
Dimension
370
              -2
390
0
  6
Continuous
 62
               0
100
AcDbLine
 10
18.081341599999995
 20
-153.9900074
 30
0.0
 11
18.081341599999995
 21
-151.65668106883956
 31
0.0
  0
SOLID
  5
22B
100
AcDbEntity
  8
Dimension
370
              -2
390
0
 62
               0
100
AcDbTrace
 10
18.081341599999995
 20
-153.9900074
 30
0.0
 11
17.79776232158995
 21
-152.931675125
 31
0.0
 12
18.36492087841004
 22
-152.931675125
 32
0.0
 13
18.36492087841004
 23
-152.931675125
 33
0.0
  0
WIPEOUT
  5
22C
100
AcDbEntity
  8
Dimension
370
              -2
390
0
  6
Continuous
 62
               0
 92
        0
100
AcDbWipeout
 90
        0
 10
16.155180995404763
 20
24.951284389062494
 30
0.0
 11
3.8523212091904648
 21
0.0
 31
0.0
 12
0.0
 22
3.8523212091904648
 32
0.0
 13
1.0
 23
1.0
340
0
 70
               7
280
               1
281
              50
282
              50
283
               0
360
0
 71
               2
 91
        5
 14
-0.5
 24
47.832755785003066
 14
0.4999999999999998
 24
47.832755785003066
 14
0.4999999999999998
 24
47.516821719822723
 14
-0.5
 24
47.516821719822723
 14
-0.5
 24
47.832755785003066
  0
MTEXT
  5
22D
100
AcDbEntity
  8
Dimension
390
0
 62
               0
100
AcDbMText
 10
16.155180995404763
 20
-156.36719349114583
 30
0.0
 40
0.7579186197916666
 41
0.0
 71
               1
 72
               1
  1
5.08mm
  7
Helvetica
 73
               1
 44
0.9673603504928808
  0
POINT
  5
22E
100
AcDbEntity
  8
Defpoints
370
               0
390
0
 62
               0
100
AcDbPoint
 10
22.507501599999994
 20
-153.9900074
 30
0.0
  0
POINT
  5
22F
100
AcDbEntity
  8
Defpoints
370
               0
390
0
 62
               0
100
AcDbPoint
 10
22.507501599999994
 20
-159.07000739999998
 30
0.0
  0
POINT
  5
230
100
AcDbEntity
  8
Defpoints
370
               0
390
0
 62
               0
100
AcDbPoint
 10
18.081341599999995
 20
-159.07000739999998
 30
0.0
  0
ENDBLK
  5
231
100
AcDbEntity
  8
Dimension
390
0
100
AcDbBlockEnd
  0
BLOCK
  5
232
100
AcDbEntity
  8
Dimension
390
0
100
AcDbBlockBegin
  2
*D11
 70
               1
 10
0.0
 20
0.0
 30
0.0
  3
*D11
  1

  0
LINE
  5
233
100
AcDbEntity
  8
Dimension
370
              -2
390
0
  6
Continuous
 62
               0
100
AcDbLine
 10
35.867500966577026
 20
-148.88500740000001
 30
0.0
 11
41.699390333154071
 21
-148.88500740000001
 31
0.0
  0
LINE
  5
234
100
AcDbEntity
  8
Dimension
370
              -2
390
0
  6
Continuous
 62
               0
100
AcDbLine
 10
35.867500966577026
 20
-146.34500739999999
 30
0.0
 11
41.699390333154071
 21
-146.34500739999999
 31
0.0
  0
LINE
  5
235
100
AcDbEntity
  8
Dimension
370
              -2
390
0
  6
Continuous
 62
               0
100
AcDbLine
 10
40.429391599999988
 20
-146.34500739999999
 30
0.0
 11
40.429391599999988
 21
-148.88500740000001
 31
0.0
  0
LINE
  5
236
100
AcDbEntity
  8
Dimension
370
              -2
390
0
  6
Continuous
 62
               0
100
AcDbLine
 10
40.429391599999988
 20
-148.88500740000001
 30
0.0
 11
40.429391599999988
 21
-151.21833373116041
 31
0.0
  0
SOLID
  5
237
100
AcDbEntity
  8
Dimension
370
              -2
390
0
 62
               0
100
AcDbTrace
 10
40.429391599999988
 20
-148.88500740000001
 30
0.0
 11
40.712970878410033
 21
-149.943339675
 31
0.0
 12
40.14581232158995
 22
-149.943339675
 32
0.0
 13
40.14581232158995
 23
-149.943339675
 33
0.0
  0
LINE
  5
238
100
AcDbEntity
  8
Dimension
370
              -2
390
0
  6
Continuous
 62
               0
100
AcDbLine
 10
40.429391599999988
 20
-146.34500739999999
 30
0.0
 11
40.429391599999988
 21
-144.01168106883958
 31
0.0
  0
SOLID
  5
239
100
AcDbEntity
  8
Dimension
370
              -2
390
0
 62
               0
100
AcDbTrace
 10
40.429391599999988
 20
-146.34500739999999
 30
0.0
 11
40.14581232158995
 21
-145.28667512499999
 31
0.0
 12
40.712970878410033
 22
-145.28667512499999
 32
0.0
 13
40.712970878410033
 23
-145.28667512499999
 33
0.0
  0
WIPEOUT
  5
23A
100
AcDbEntity
  8
Dimension
370
              -2
390
0
  6
Continuous
 62
               0
 92
        0
100
AcDbWipeout
 90
        0
 10
38.503230995404763
 20
34.117431849999988
 30
0.0
 11
3.8523212091904639
 21
0.0
 31
0.0
 12
0.0
 22
3.8523212091904639
 32
0.0
 13
1.0
 23
1.0
340
0
 70
               7
280
               1
281
              50
282
              50
283
               0
360
0
 71
               2
 91
        5
 14
-0.5
 24
47.83275578500308
 14
0.5
 24
47.83275578500308
 14
0.5
 24
47.516821719822737
 14
-0.5
 24
47.516821719822737
 14
-0.5
 24
47.83275578500308
  0
MTEXT
  5
23B
100
AcDbEntity
  8
Dimension
390
0
 62
               0
100
AcDbMText
 10
38.503230995404763
 20
-147.20104603020832
 30
0.0
 40
0.7579186197916666
 41
0.0
 71
               1
 72
               1
  1
2.54mm
  7
Helvetica
 73
               1
 44
0.9673603504928808
  0
POINT
  5
23C
100
AcDbEntity
  8
Defpoints
370
               0
390
0
 62
               0
100
AcDbPoint
 10
35.232501599999992
 20
-146.34500739999999
 30
0.0
  0
POINT
  5
23D
100
AcDbEntity
  8
Defpoints
370
               0
390
0
 62
               0
100
AcDbPoint
 10
35.232501599999992
 20
-148.88500740000001
 30
0.0
  0
POINT
  5
23E
100
AcDbEntity
  8
Defpoints
370
               0
390
0
 62
               0
100
AcDbPoint
 10
40.429391599999988
 20
-148.88500740000001
 30
0.0
  0
ENDBLK
  5
23F
100
AcDbEntity
  8
Dimension
390
0
100
AcDbBlockEnd
  0
BLOCK
  5
240
100
AcDbEntity
  8
Dimension
390
0
100
AcDbBlockBegin
  2
*D12
 70
               1
 10
0.0
 20
0.0
 30
0.0
  3
*D12
  1

  0
LINE
  5
241
100
AcDbEntity
  8
Dimension
370
              -2
390
0
  6
Continuous
 62
               0
100
AcDbLine
 10
22.507501599999994
 20
-159.70500676657704
 30
0.0
 11
22.507501599999994
 21
-171.07000613315407
 31
0.0
  0
LINE
  5
242
100
AcDbEntity
  8
Dimension
370
              -2
390
0
  6
Continuous
 62
               0
100
AcDbLine
 10
35.232501599999992
 20
-159.70500676657704
 30
0.0
 11
35.232501599999992
 21
-171.07000613315407
 31
0.0
  0
LINE
  5
243
100
AcDbEntity
  8
Dimension
370
              -2
390
0
  6
Continuous
 62
               0
100
AcDbLine
 10
35.232501599999992
 20
-169.8000074
 30
0.0
 11
22.507501599999994
 21
-169.8000074
 31
0.0
  0
LINE
  5
244
100
AcDbEntity
  8
Dimension
370
              -2
390
0
  6
Continuous
 62
               0
100
AcDbLine
 10
22.507501599999994
 20
-169.8000074
 30
0.0
 11
20.174175268839569
 21
-169.8000074
 31
0.0
  0
SOLID
  5
245
100
AcDbEntity
  8
Dimension
370
              -2
390
0
 62
               0
100
AcDbTrace
 10
22.507501599999994
 20
-169.8000074
 30
0.0
 11
21.449169324999993
 21
-170.08358667841003
 31
0.0
 12
21.449169324999993
 22
-169.51642812158994
 32
0.0
 13
21.449169324999993
 23
-169.51642812158994
 33
0.0
  0
LINE
  5
246
100
AcDbEntity
  8
Dimension
370
              -2
390
0
  6
Continuous
 62
               0
100
AcDbLine
 10
35.232501599999992
 20
-169.8000074
 30
0.0
 11
37.56582793116042
 21
-169.8000074
 31
0.0
  0
SOLID
  5
247
100
AcDbEntity
  8
Dimension
370
              -2
390
0
 62
               0
100
AcDbTrace
 10
35.232501599999992
 20
-169.8000074
 30
0.0
 11
36.29083387499999
 21
-169.51642812158994
 31
0.0
 12
36.29083387499999
 22
-170.08358667841003
 32
0.0
 13
36.29083387499999
 23
-170.08358667841003
 33
0.0
  0
WIPEOUT
  5
248
100
AcDbEntity
  8
Dimension
370
              -2
390
0
  6
Continuous
 62
               0
 92
        0
100
AcDbWipeout
 90
        0
 10
22.764602471308127
 20
11.932433158124995
 30
0.0
 11
5.0376508810305607
 21
0.0
 31
0.0
 12
0.0
 22
5.0376508810305607
 32
0.0
 13
1.0
 23
1.0
340
0
 70
               7
280
               1
281
              50
282
              50
283
               0
360
0
 71
               2
 91
        5
 14
-0.5
 24
36.695636280912382
 14
0.5000000000000002
 24
36.695636280912382
 14
0.5000000000000002
 24
36.454039646143002
 14
-0.5
 24
36.454039646143002
 14
-0.5
 24
36.695636280912382
  0
MTEXT
  5
249
100
AcDbEntity
  8
Dimension
390
0
 62
               0
100
AcDbMText
 10
22.764602471308127
 20
-169.38604472208331
 30
0.0
 40
0.7579186197916666
 41
0.0
 71
               1
 72
               1
  1
12.725mm
  7
Helvetica
 73
               1
 44
0.9673603504928808
  0
WIPEOUT
  5
24A
100
AcDbEntity
  8
Dimension
370
              -2
390
0
  6
Continuous
 62
               0
 92
        0
100
AcDbWipeout
 90
        0
 10
27.802253352338688
 20
11.932432020624995
 30
0.0
 11
5.0270675403373728
 21
0.0
 31
0.0
 12
0.0
 22
5.0270675403373728
 32
0.0
 13
1.0
 23
1.0
340
0
 70
               7
280
               1
281
              50
282
              50
283
               0
360
0
 71
               2
 91
        5
 14
-0.5
 24
36.771837912836723
 14
0.4999999999999994
 24
36.771837912836723
 14
0.4999999999999994
 24
36.529732651621487
 14
-0.5
 24
36.529732651621487
 14
-0.5
 24
36.771837912836723
  0
MTEXT
  5
24B
100
AcDbEntity
  8
Dimension
390
0
 62
               0
100
AcDbMText
 10
27.802253352338688
 20
-169.38604585958333
 30
0.0
 40
0.7579186197916666
 41
0.0
 71
               1
 72
               1
  1
±0.125mm
  7
Helvetica
 73
               1
 44
0.9673603504928808
  0
WIPEOUT
  5
24C
100
AcDbEntity
  8
Dimension
370
              -2
390
0
  6
Continuous
 62
               0
 92
        0
100
AcDbWipeout
 90
        0
 10
32.829320892676058
 20
11.932430541874997
 30
0.0
 11
2.1060812093068133
 21
0.0
 31
0.0
 12
0.0
 22
2.1060812093068133
 32
0.0
 13
1.0
 23
1.0
340
0
 70
               7
280
               1
281
              50
282
              50
283
               0
360
0
 71
               2
 91
        5
 14
-0.5
 24
87.078322903329507
 14
0.5000000000000009
 24
87.078322903329507
 14
0.5000000000000009
 24
86.500433451169883
 14
-0.5
 24
86.500433451169883
 14
-0.5
 24
87.078322903329507
  0
MTEXT
  5
24D
100
AcDbEntity
  8
Dimension
390
0
 62
               0
100
AcDbMText
 10
32.829320892676058
 20
-169.38604514035154
 30
0.0
 40
0.7579202490234376
 41
0.0
 71
               1
 72
               1
  1
 (x4)
  7
Helvetica
 73
               1
 44
0.9673603504928806
  0
POINT
  5
24E
100
AcDbEntity
  8
Defpoints
370
               0
390
0
 62
               0
100
AcDbPoint
 10
35.232501599999992
 20
-159.07000739999998
 30
0.0
  0
POINT
  5
24F
100
AcDbEntity
  8
Defpoints
370
               0
390
0
 62
               0
100
AcDbPoint
 10
22.507501599999994
 20
-159.07000739999998
 30
0.0
  0
POINT
  5
250
100
AcDbEntity
  8
Defpoints
370
               0
390
0
 62
               0
100
AcDbPoint
 10
22.507501599999994
 20
-169.8000074
 30
0.0
  0
ENDBLK
  5
251
100
AcDbEntity
  8
Dimension
390
0
100
AcDbBlockEnd
  0
BLOCK
  5
252
100
AcDbEntity
  8
Dimension
390
0
100
AcDbBlockBegin
  2
*D13
 70
               1
 10
0.0
 20
0.0
 30
0.0
  3
*D13
  1

  0
LINE
  5
253
100
AcDbEntity
  8
Dimension
370
              -2
390
0
  6
Continuous
 62
               0
100
AcDbLine
 10
33.177721599999991
 20
-154.7687474
 30
0.0
 11
39.800004502388077
 21
-157.07417139560809
 31
0.0
  0
SOLID
  5
254
100
AcDbEntity
  8
Dimension
370
              -2
390
0
 62
               0
100
AcDbTrace
 10
33.177721599999991
 20
-154.7687474
 30
0.0
 11
33.905208517252518
 21
-154.832394258123
 31
0.0
 12
33.775920322199994
 22
-155.18761065463184
 32
0.0
 13
33.775920322199994
 23
-155.18761065463184
 33
0.0
  0
LINE
  5
255
100
AcDbEntity
  8
Dimension
370
              -2
390
0
  6
Continuous
 62
               0
100
AcDbLine
 10
39.800004502388077
 20
-157.07417139560809
 30
0.0
 11
41.799998505031411
 21
-157.07417139560809
 31
0.0
  0
WIPEOUT
  5
256
100
AcDbEntity
  8
Dimension
370
              -2
390
0
  6
Continuous
 62
               0
 92
        0
100
AcDbWipeout
 90
        0
 10
41.799998505031411
 20
24.658267854391902
 30
0.0
 11
7.0378946461882617
 21
0.0
 31
0.0
 12
0.0
 22
7.0378946461882617
 32
0.0
 13
1.0
 23
1.0
340
0
 70
               7
280
               1
281
              50
282
              50
283
               0
360
0
 71
               2
 91
        5
 14
-0.5
 24
26.408455321756808
 14
0.5000000000000002
 24
26.408455321756808
 14
0.5000000000000002
 24
26.235522994521816
 14
-0.5
 24
26.235522994521816
 14
-0.5
 24
26.408455321756808
  0
MTEXT
  5
257
100
AcDbEntity
  8
Dimension
390
0
 62
               0
100
AcDbMText
 10
41.799998505031411
 20
-156.66021002581641
 30
0.0
 40
0.7579186197916666
 41
0.0
 71
               1
 72
               1
  1
0.7 x 0.35 mm 
  7
Helvetica
 73
               1
 44
0.9673603504928808
  0
POINT
  5
258
100
AcDbEntity
  8
Defpoints
370
               0
390
0
 62
               0
100
AcDbPoint
 10
32.251421599999993
 20
-154.44626739999998
 30
0.0
  0
POINT
  5
259
100
AcDbEntity
  8
Defpoints
370
               0
390
0
 62
               0
100
AcDbPoint
 10
33.177721599999991
 20
-154.7687474
 30
0.0
  0
ENDBLK
  5
25A
100
AcDbEntity
  8
Dimension
390
0
100
AcDbBlockEnd
  0
BLOCK
  5
25B
100
AcDbEntity
  8
Dimension
390
0
100
AcDbBlockBegin
  2
*D14
 70
               1
 10
0.0
 20
0.0
 30
0.0
  3
*D14
  1

  0
LINE
  5
25C
100
AcDbEntity
  8
Dimension
370
              -2
390
0
  6
Continuous
 62
               0
100
AcDbLine
 10
25.095001599999993
 20
-155.51750676657704
 30
0.0
 11
25.095001599999993
 21
-167.47000613315407
 31
0.0
  0
LINE
  5
25D
100
AcDbEntity
  8
Dimension
370
              -2
390
0
  6
Continuous
 62
               0
100
AcDbLine
 10
33.145001599999993
 20
-155.51750676657704
 30
0.0
 11
33.145001599999993
 21
-167.47000613315407
 31
0.0
  0
LINE
  5
25E
100
AcDbEntity
  8
Dimension
370
              -2
390
0
  6
Continuous
 62
               0
100
AcDbLine
 10
33.145001599999993
 20
-166.2000074
 30
0.0
 11
25.095001599999993
 21
-166.2000074
 31
0.0
  0
LINE
  5
25F
100
AcDbEntity
  8
Dimension
370
              -2
390
0
  6
Continuous
 62
               0
100
AcDbLine
 10
25.095001599999993
 20
-166.2000074
 30
0.0
 11
22.761675268839568
 21
-166.2000074
 31
0.0
  0
SOLID
  5
260
100
AcDbEntity
  8
Dimension
370
              -2
390
0
 62
               0
100
AcDbTrace
 10
25.095001599999993
 20
-166.2000074
 30
0.0
 11
24.036669324999991
 21
-166.48358667841003
 31
0.0
 12
24.036669324999995
 22
-165.91642812158995
 32
0.0
 13
24.036669324999995
 23
-165.91642812158995
 33
0.0
  0
LINE
  5
261
100
AcDbEntity
  8
Dimension
370
              -2
390
0
  6
Continuous
 62
               0
100
AcDbLine
 10
33.145001599999993
 20
-166.2000074
 30
0.0
 11
35.478327931160422
 21
-166.2000074
 31
0.0
  0
SOLID
  5
262
100
AcDbEntity
  8
Dimension
370
              -2
390
0
 62
               0
100
AcDbTrace
 10
33.145001599999993
 20
-166.2000074
 30
0.0
 11
34.203333874999991
 21
-165.91642812158995
 31
0.0
 12
34.203333874999991
 22
-166.48358667841003
 32
0.0
 13
34.203333874999991
 23
-166.48358667841003
 33
0.0
  0
WIPEOUT
  5
263
100
AcDbEntity
  8
Dimension
370
              -2
390
0
  6
Continuous
 62
               0
 92
        0
100
AcDbWipeout
 90
        0
 10
27.352910056684056
 20
15.532431849999995
 30
0.0
 11
3.8523212091904644
 21
0.0
 31
0.0
 12
0.0
 22
3.8523212091904644
 32
0.0
 13
1.0
 23
1.0
340
0
 70
               7
280
               1
281
              50
282
              50
283
               0
360
0
 71
               2
 91
        5
 14
-0.5
 24
47.832755785003073
 14
0.5000000000000009
 24
47.832755785003073
 14
0.5000000000000009
 24
47.51682171982273
 14
-0.5
 24
47.51682171982273
 14
-0.5
 24
47.832755785003073
  0
MTEXT
  5
264
100
AcDbEntity
  8
Dimension
390
0
 62
               0
100
AcDbMText
 10
27.352910056684056
 20
-165.78604603020833
 30
0.0
 40
0.7579186197916666
 41
0.0
 71
               1
 72
               1
  1
8.05mm
  7
Helvetica
 73
               1
 44
0.9673603504928808
  0
POINT
  5
265
100
AcDbEntity
  8
Defpoints
370
               0
390
0
 62
               0
100
AcDbPoint
 10
33.145001599999993
 20
-154.88250739999998
 30
0.0
  0
POINT
  5
266
100
AcDbEntity
  8
Defpoints
370
               0
390
0
 62
               0
100
AcDbPoint
 10
25.095001599999993
 20
-154.88250739999998
 30
0.0
  0
POINT
  5
267
100
AcDbEntity
  8
Defpoints
370
               0
390
0
 62
               0
100
AcDbPoint
 10
25.095001599999993
 20
-166.2000074
 30
0.0
  0
ENDBLK
  5
268
100
AcDbEntity
  8
Dimension
390
0
100
AcDbBlockEnd
  0
BLOCK
  5
269
100
AcDbEntity
  8
Dimension
390
0
100
AcDbBlockBegin
  2
*D15
 70
               1
 10
0.0
 20
0.0
 30
0.0
  3
*D15
  1

  0
LINE
  5
26A
100
AcDbEntity
  8
Dimension
370
              -2
390
0
  6
Continuous
 62
               0
100
AcDbLine
 10
25.310002233422956
 20
-149.68250739999999
 30
0.0
 11
8.2800028668459191
 21
-149.68250739999999
 31
0.0
  0
LINE
  5
26B
100
AcDbEntity
  8
Dimension
370
              -2
390
0
  6
Continuous
 62
               0
100
AcDbLine
 10
25.310002233422956
 20
-155.7325074
 30
0.0
 11
8.2800028668459191
 21
-155.7325074
 31
0.0
  0
LINE
  5
26C
100
AcDbEntity
  8
Dimension
370
              -2
390
0
  6
Continuous
 62
               0
100
AcDbLine
 10
9.5500015999999945
 20
-149.68250739999999
 30
0.0
 11
9.5500015999999945
 21
-155.7325074
 31
0.0
  0
SOLID
  5
26D
100
AcDbEntity
  8
Dimension
370
              -2
390
0
 62
               0
100
AcDbTrace
 10
9.5500015999999945
 20
-149.68250739999999
 30
0.0
 11
9.8335808784100358
 21
-150.74083967499999
 31
0.0
 12
9.2664223215899533
 22
-150.74083967499999
 32
0.0
 13
9.2664223215899533
 23
-150.74083967499999
 33
0.0
  0
SOLID
  5
26E
100
AcDbEntity
  8
Dimension
370
              -2
390
0
 62
               0
100
AcDbTrace
 10
9.5500015999999945
 20
-155.7325074
 30
0.0
 11
9.2664223215899533
 21
-154.674175125
 31
0.0
 12
9.8335808784100358
 22
-154.674175125
 32
0.0
 13
9.8335808784100358
 23
-154.674175125
 33
0.0
  0
WIPEOUT
  5
26F
100
AcDbEntity
  8
Dimension
370
              -2
390
0
  6
Continuous
 62
               0
 92
        0
100
AcDbWipeout
 90
        0
 10
7.6238409954047626
 20
28.738937892480461
 30
0.0
 11
3.8523212091904639
 21
0.0
 31
0.0
 12
0.0
 22
3.8523212091904639
 32
0.0
 13
1.0
 23
1.0
340
0
 70
               7
280
               1
281
              50
282
              50
283
               0
360
0
 71
               2
 91
        5
 14
-0.5
 24
47.832755785003073
 14
0.5
 24
47.832755785003073
 14
0.5
 24
47.516821719822737
 14
-0.5
 24
47.516821719822737
 14
-0.5
 24
47.832755785003073
  0
MTEXT
  5
270
100
AcDbEntity
  8
Dimension
390
0
 62
               0
100
AcDbMText
 10
7.6238409954047626
 20
-152.57953998772786
 30
0.0
 40
0.7579186197916666
 41
0.0
 71
               1
 72
               1
  1
6.05mm
  7
Helvetica
 73
               1
 44
0.9673603504928808
  0
POINT
  5
271
100
AcDbEntity
  8
Defpoints
370
               0
390
0
 62
               0
100
AcDbPoint
 10
25.945001599999994
 20
-155.7325074
 30
0.0
  0
POINT
  5
272
100
AcDbEntity
  8
Defpoints
370
               0
390
0
 62
               0
100
AcDbPoint
 10
25.945001599999994
 20
-149.68250739999999
 30
0.0
  0
POINT
  5
273
100
AcDbEntity
  8
Defpoints
370
               0
390
0
 62
               0
100
AcDbPoint
 10
9.5500015999999945
 20
-149.68250739999999
 30
0.0
  0
ENDBLK
  5
274
100
AcDbEntity
  8
Dimension
390
0
100
AcDbBlockEnd
  0
BLOCK
  5
275
100
AcDbEntity
  8
Dimension
390
0
100
AcDbBlockBegin
  2
*D16
 70
               1
 10
0.0
 20
0.0
 30
0.0
  3
*D16
  1

  0
LINE
  5
276
100
AcDbEntity
  8
Dimension
370
              -2
390
0
  6
Continuous
 62
               0
100
AcDbLine
 10
24.460002233422955
 20
-150.53250739999999
 30
0.0
 11
13.730002866845918
 21
-150.53250739999999
 31
0.0
  0
LINE
  5
277
100
AcDbEntity
  8
Dimension
370
              -2
390
0
  6
Continuous
 62
               0
100
AcDbLine
 10
24.460002233422955
 20
-154.88250739999998
 30
0.0
 11
13.730002866845918
 21
-154.88250739999998
 31
0.0
  0
LINE
  5
278
100
AcDbEntity
  8
Dimension
370
              -2
390
0
  6
Continuous
 62
               0
100
AcDbLine
 10
15.000001599999994
 20
-154.88250739999998
 30
0.0
 11
15.000001599999994
 21
-150.53250739999999
 31
0.0
  0
LINE
  5
279
100
AcDbEntity
  8
Dimension
370
              -2
390
0
  6
Continuous
 62
               0
100
AcDbLine
 10
15.000001599999994
 20
-150.53250739999999
 30
0.0
 11
15.000001599999994
 21
-148.19918106883958
 31
0.0
  0
SOLID
  5
27A
100
AcDbEntity
  8
Dimension
370
              -2
390
0
 62
               0
100
AcDbTrace
 10
15.000001599999994
 20
-150.53250739999999
 30
0.0
 11
14.716422321589951
 21
-149.47417512499999
 31
0.0
 12
15.283580878410037
 22
-149.47417512499999
 32
0.0
 13
15.283580878410037
 23
-149.47417512499999
 33
0.0
  0
LINE
  5
27B
100
AcDbEntity
  8
Dimension
370
              -2
390
0
  6
Continuous
 62
               0
100
AcDbLine
 10
15.000001599999994
 20
-154.88250739999998
 30
0.0
 11
15.000001599999994
 21
-157.21583373116042
 31
0.0
  0
SOLID
  5
27C
100
AcDbEntity
  8
Dimension
370
              -2
390
0
 62
               0
100
AcDbTrace
 10
15.000001599999994
 20
-154.88250739999998
 30
0.0
 11
15.283580878410037
 21
-155.94083967500001
 31
0.0
 12
14.716422321589951
 22
-155.94083967500001
 32
0.0
 13
14.716422321589951
 23
-155.94083967500001
 33
0.0
  0
WIPEOUT
  5
27D
100
AcDbEntity
  8
Dimension
370
              -2
390
0
  6
Continuous
 62
               0
 92
        0
100
AcDbWipeout
 90
        0
 10
13.073840995404762
 20
28.939771785302728
 30
0.0
 11
3.8523212091904639
 21
0.0
 31
0.0
 12
0.0
 22
3.8523212091904639
 32
0.0
 13
1.0
 23
1.0
340
0
 70
               7
280
               1
281
              50
282
              50
283
               0
360
0
 71
               2
 91
        5
 14
-0.5
 24
47.832755785003073
 14
0.5
 24
47.832755785003073
 14
0.5
 24
47.516821719822737
 14
-0.5
 24
47.516821719822737
 14
-0.5
 24
47.832755785003073
  0
MTEXT
  5
27E
100
AcDbEntity
  8
Dimension
390
0
 62
               0
100
AcDbMText
 10
13.073840995404762
 20
-152.3787060949056
 30
0.0
 40
0.7579186197916666
 41
0.0
 71
               1
 72
               1
  1
4.35mm
  7
Helvetica
 73
               1
 44
0.9673603504928808
  0
POINT
  5
27F
100
AcDbEntity
  8
Defpoints
370
               0
390
0
 62
               0
100
AcDbPoint
 10
25.095001599999993
 20
-154.88250739999998
 30
0.0
  0
POINT
  5
280
100
AcDbEntity
  8
Defpoints
370
               0
390
0
 62
               0
100
AcDbPoint
 10
25.095001599999993
 20
-150.53250739999999
 30
0.0
  0
POINT
  5
281
100
AcDbEntity
  8
Defpoints
370
               0
390
0
 62
               0
100
AcDbPoint
 10
15.000001599999994
 20
-150.53250739999999
 30
0.0
  0
ENDBLK
  5
282
100
AcDbEntity
  8
Dimension
390
0
100
AcDbBlockEnd
  0
BLOCK
  5
283
100
AcDbEntity
  8
Dimension
390
0
100
AcDbBlockBegin
  2
*D17
 70
               1
 10
0.0
 20
0.0
 30
0.0
  3
*D17
  1

  0
LINE
  5
284
100
AcDbEntity
  8
Dimension
370
              -2
390
0
  6
Continuous
 62
               0
100
AcDbLine
 10
25.945001599999994
 20
-156.36750676657704
 30
0.0
 11
25.945001599999994
 21
-164.67784613315408
 31
0.0
  0
LINE
  5
285
100
AcDbEntity
  8
Dimension
370
              -2
390
0
  6
Continuous
 62
               0
100
AcDbLine
 10
32.295001599999992
 20
-156.36750676657704
 30
0.0
 11
32.295001599999992
 21
-164.67784613315408
 31
0.0
  0
LINE
  5
286
100
AcDbEntity
  8
Dimension
370
              -2
390
0
  6
Continuous
 62
               0
100
AcDbLine
 10
32.295001599999992
 20
-163.40784739999998
 30
0.0
 11
25.945001599999994
 21
-163.40784739999998
 31
0.0
  0
LINE
  5
287
100
AcDbEntity
  8
Dimension
370
              -2
390
0
  6
Continuous
 62
               0
100
AcDbLine
 10
25.945001599999994
 20
-163.40784739999998
 30
0.0
 11
23.611675268839566
 21
-163.40784739999998
 31
0.0
  0
SOLID
  5
288
100
AcDbEntity
  8
Dimension
370
              -2
390
0
 62
               0
100
AcDbTrace
 10
25.945001599999994
 20
-163.40784739999998
 30
0.0
 11
24.886669324999993
 21
-163.69142667841004
 31
0.0
 12
24.886669324999993
 22
-163.12426812158995
 32
0.0
 13
24.886669324999993
 23
-163.12426812158995
 33
0.0
  0
LINE
  5
289
100
AcDbEntity
  8
Dimension
370
              -2
390
0
  6
Continuous
 62
               0
100
AcDbLine
 10
32.295001599999992
 20
-163.40784739999998
 30
0.0
 11
34.62832793116042
 21
-163.40784739999998
 31
0.0
  0
SOLID
  5
28A
100
AcDbEntity
  8
Dimension
370
              -2
390
0
 62
               0
100
AcDbTrace
 10
32.295001599999992
 20
-163.40784739999998
 30
0.0
 11
33.35333387499999
 21
-163.12426812158995
 31
0.0
 12
33.35333387499999
 22
-163.69142667841004
 32
0.0
 13
33.35333387499999
 23
-163.69142667841004
 33
0.0
  0
WIPEOUT
  5
28B
100
AcDbEntity
  8
Dimension
370
              -2
390
0
  6
Continuous
 62
               0
 92
        0
100
AcDbWipeout
 90
        0
 10
27.168261161420386
 20
18.324591849999994
 30
0.0
 11
3.8523212091904648
 21
0.0
 31
0.0
 12
0.0
 22
3.8523212091904648
 32
0.0
 13
1.0
 23
1.0
340
0
 70
               7
280
               1
281
              50
282
              50
283
               0
360
0
 71
               2
 91
        5
 14
-0.5
 24
47.832755785003066
 14
0.4999999999999998
 24
47.832755785003066
 14
0.4999999999999998
 24
47.516821719822723
 14
-0.5
 24
47.516821719822723
 14
-0.5
 24
47.832755785003066
  0
MTEXT
  5
28C
100
AcDbEntity
  8
Dimension
390
0
 62
               0
100
AcDbMText
 10
27.168261161420386
 20
-162.99388603020833
 30
0.0
 40
0.7579186197916666
 41
0.0
 71
               1
 72
               1
  1
6.35mm
  7
Helvetica
 73
               1
 44
0.9673603504928808
  0
POINT
  5
28D
100
AcDbEntity
  8
Defpoints
370
               0
390
0
 62
               0
100
AcDbPoint
 10
32.295001599999992
 20
-155.7325074
 30
0.0
  0
POINT
  5
28E
100
AcDbEntity
  8
Defpoints
370
               0
390
0
 62
               0
100
AcDbPoint
 10
25.945001599999994
 20
-155.7325074
 30
0.0
  0
POINT
  5
28F
100
AcDbEntity
  8
Defpoints
370
               0
390
0
 62
               0
100
AcDbPoint
 10
25.945001599999994
 20
-163.40784739999998
 30
0.0
  0
ENDBLK
  5
290
100
AcDbEntity
  8
Dimension
390
0
100
AcDbBlockEnd
  0
BLOCK
  5
291
100
AcDbEntity
  8
Dimension
390
0
100
AcDbBlockBegin
  2
*D18
 70
               1
 10
0.0
 20
0.0
 30
0.0
  3
*D18
  1

  0
LINE
  5
292
100
AcDbEntity
  8
Dimension
370
              -2
390
0
  6
Continuous
 62
               0
100
AcDbLine
 10
22.507501599999994
 20
-145.71000803342295
 30
0.0
 11
22.507501599999994
 21
-135.28000866684593
 31
0.0
  0
LINE
  5
293
100
AcDbEntity
  8
Dimension
370
              -2
390
0
  6
Continuous
 62
               0
100
AcDbLine
 10
21.257501599999994
 20
-144.46000803342295
 30
0.0
 11
21.257501599999994
 21
-135.28000866684593
 31
0.0
  0
LINE
  5
294
100
AcDbEntity
  8
Dimension
370
              -2
390
0
  6
Continuous
 62
               0
100
AcDbLine
 10
21.257501599999994
 20
-136.5500074
 30
0.0
 11
22.507501599999994
 21
-136.5500074
 31
0.0
  0
LINE
  5
295
100
AcDbEntity
  8
Dimension
370
              -2
390
0
  6
Continuous
 62
               0
100
AcDbLine
 10
22.507501599999994
 20
-136.5500074
 30
0.0
 11
24.500001599999994
 21
-136.5500074
 31
0.0
  0
SOLID
  5
296
100
AcDbEntity
  8
Dimension
370
              -2
390
0
 62
               0
100
AcDbTrace
 10
22.507501599999994
 20
-136.5500074
 30
0.0
 11
23.565833874999992
 21
-136.26642812158997
 31
0.0
 12
23.565833874999992
 22
-136.83358667841003
 32
0.0
 13
23.565833874999992
 23
-136.83358667841003
 33
0.0
  0
LINE
  5
297
100
AcDbEntity
  8
Dimension
370
              -2
390
0
  6
Continuous
 62
               0
100
AcDbLine
 10
21.257501599999994
 20
-136.5500074
 30
0.0
 11
18.924175268839569
 21
-136.5500074
 31
0.0
  0
SOLID
  5
298
100
AcDbEntity
  8
Dimension
370
              -2
390
0
 62
               0
100
AcDbTrace
 10
21.257501599999994
 20
-136.5500074
 30
0.0
 11
20.199169324999993
 21
-136.83358667841003
 31
0.0
 12
20.199169324999993
 22
-136.26642812158994
 32
0.0
 13
20.199169324999993
 23
-136.26642812158994
 33
0.0
  0
WIPEOUT
  5
299
100
AcDbEntity
  8
Dimension
370
              -2
390
0
  6
Continuous
 62
               0
 92
        0
100
AcDbWipeout
 90
        0
 10
24.500001599999994
 20
45.182433158124994
 30
0.0
 11
3.8523212091904648
 21
0.0
 31
0.0
 12
0.0
 22
3.8523212091904648
 32
0.0
 13
1.0
 23
1.0
340
0
 70
               7
280
               1
281
              50
282
              50
283
               0
360
0
 71
               2
 91
        5
 14
-0.5
 24
47.832755785003073
 14
0.4999999999999998
 24
47.832755785003073
 14
0.4999999999999998
 24
47.516821719822723
 14
-0.5
 24
47.516821719822723
 14
-0.5
 24
47.832755785003073
  0
MTEXT
  5
29A
100
AcDbEntity
  8
Dimension
390
0
 62
               0
100
AcDbMText
 10
24.500001599999994
 20
-136.13604472208334
 30
0.0
 40
0.7579186197916666
 41
0.0
 71
               1
 72
               1
  1
1.25mm
  7
Helvetica
 73
               1
 44
0.9673603504928808
  0
WIPEOUT
  5
29B
100
AcDbEntity
  8
Dimension
370
              -2
390
0
  6
Continuous
 62
               0
 92
        0
100
AcDbWipeout
 90
        0
 10
28.352322809190458
 20
45.182432020624987
 30
0.0
 11
5.0270675403373728
 21
0.0
 31
0.0
 12
0.0
 22
5.0270675403373728
 32
0.0
 13
1.0
 23
1.0
340
0
 70
               7
280
               1
281
              50
282
              50
283
               0
360
0
 71
               2
 91
        5
 14
-0.5
 24
36.771837912836723
 14
0.5000000000000002
 24
36.771837912836723
 14
0.5000000000000002
 24
36.529732651621494
 14
-0.5
 24
36.529732651621494
 14
-0.5
 24
36.771837912836723
  0
MTEXT
  5
29C
100
AcDbEntity
  8
Dimension
390
0
 62
               0
100
AcDbMText
 10
28.352322809190458
 20
-136.13604585958333
 30
0.0
 40
0.7579186197916666
 41
0.0
 71
               1
 72
               1
  1
±0.125mm
  7
Helvetica
 73
               1
 44
0.9673603504928808
  0
WIPEOUT
  5
29D
100
AcDbEntity
  8
Dimension
370
              -2
390
0
  6
Continuous
 62
               0
 92
        0
100
AcDbWipeout
 90
        0
 10
33.379390349527831
 20
45.182430541874993
 30
0.0
 11
2.1060812093068124
 21
0.0
 31
0.0
 12
0.0
 22
2.1060812093068124
 32
0.0
 13
1.0
 23
1.0
340
0
 70
               7
280
               1
281
              50
282
              50
283
               0
360
0
 71
               2
 91
        5
 14
-0.5
 24
87.078322903329536
 14
0.5000000000000013
 24
87.078322903329536
 14
0.5000000000000013
 24
86.500433451169911
 14
-0.5
 24
86.500433451169911
 14
-0.5
 24
87.078322903329536
  0
MTEXT
  5
29E
100
AcDbEntity
  8
Dimension
390
0
 62
               0
100
AcDbMText
 10
33.379390349527831
 20
-136.13604514035157
 30
0.0
 40
0.7579202490234376
 41
0.0
 71
               1
 72
               1
  1
 (x4)
  7
Helvetica
 73
               1
 44
0.9673603504928806
  0
POINT
  5
29F
100
AcDbEntity
  8
Defpoints
370
               0
390
0
 62
               0
100
AcDbPoint
 10
21.257501599999994
 20
-145.09500739999999
 30
0.0
  0
POINT
  5
2A0
100
AcDbEntity
  8
Defpoints
370
               0
390
0
 62
               0
100
AcDbPoint
 10
22.507501599999994
 20
-146.34500739999999
 30
0.0
  0
POINT
  5
2A1
100
AcDbEntity
  8
Defpoints
370
               0
390
0
 62
               0
100
AcDbPoint
 10
22.507501599999994
 20
-136.5500074
 30
0.0
  0
ENDBLK
  5
2A2
100
AcDbEntity
  8
Dimension
390
0
100
AcDbBlockEnd
  0
BLOCK
  5
2A3
100
AcDbEntity
  8
Dimension
390
0
100
AcDbBlockBegin
  2
*D19
 70
               1
 10
0.0
 20
0.0
 30
0.0
  3
*D19
  1

  0
LINE
  5
2A4
100
AcDbEntity
  8
Dimension
370
              -2
390
0
  6
Continuous
 62
               0
100
AcDbLine
 10
20.622502233422956
 20
-145.09500739999999
 30
0.0
 11
9.630002866845917
 21
-145.09500739999999
 31
0.0
  0
LINE
  5
2A5
100
AcDbEntity
  8
Dimension
370
              -2
390
0
  6
Continuous
 62
               0
100
AcDbLine
 10
21.872502233422956
 20
-146.34500739999999
 30
0.0
 11
9.6300028668459206
 21
-146.34500739999999
 31
0.0
  0
LINE
  5
2A6
100
AcDbEntity
  8
Dimension
370
              -2
390
0
  6
Continuous
 62
               0
100
AcDbLine
 10
10.900001599999996
 20
-146.34500739999999
 30
0.0
 11
10.900001599999994
 21
-145.09500739999999
 31
0.0
  0
LINE
  5
2A7
100
AcDbEntity
  8
Dimension
370
              -2
390
0
  6
Continuous
 62
               0
100
AcDbLine
 10
10.900001599999994
 20
-145.09500739999999
 30
0.0
 11
10.900001599999994
 21
-142.3000074
 31
0.0
  0
SOLID
  5
2A8
100
AcDbEntity
  8
Dimension
370
              -2
390
0
 62
               0
100
AcDbTrace
 10
10.900001599999994
 20
-145.09500739999999
 30
0.0
 11
10.616422321589951
 21
-144.03667512499999
 31
0.0
 12
11.183580878410037
 22
-144.03667512499999
 32
0.0
 13
11.183580878410037
 23
-144.03667512499999
 33
0.0
  0
LINE
  5
2A9
100
AcDbEntity
  8
Dimension
370
              -2
390
0
  6
Continuous
 62
               0
100
AcDbLine
 10
10.900001599999996
 20
-146.34500739999999
 30
0.0
 11
10.900001599999996
 21
-148.67833373116042
 31
0.0
  0
SOLID
  5
2AA
100
AcDbEntity
  8
Dimension
370
              -2
390
0
 62
               0
100
AcDbTrace
 10
10.900001599999996
 20
-146.34500739999999
 30
0.0
 11
11.183580878410039
 21
-147.40333967499998
 31
0.0
 12
10.616422321589955
 22
-147.40333967499998
 32
0.0
 13
10.616422321589955
 23
-147.40333967499998
 33
0.0
  0
WIPEOUT
  5
2AB
100
AcDbEntity
  8
Dimension
370
              -2
390
0
  6
Continuous
 62
               0
 92
        0
100
AcDbWipeout
 90
        0
 10
5.7035990385426913
 20
39.432433158124994
 30
0.0
 11
3.8523212091904639
 21
0.0
 31
0.0
 12
0.0
 22
3.8523212091904639
 32
0.0
 13
1.0
 23
1.0
340
0
 70
               7
280
               1
281
              50
282
              50
283
               0
360
0
 71
               2
 91
        5
 14
-0.5
 24
47.83275578500308
 14
0.5
 24
47.83275578500308
 14
0.5
 24
47.516821719822737
 14
-0.5
 24
47.516821719822737
 14
-0.5
 24
47.83275578500308
  0
MTEXT
  5
2AC
100
AcDbEntity
  8
Dimension
390
0
 62
               0
100
AcDbMText
 10
5.7035990385426913
 20
-141.88604472208334
 30
0.0
 40
0.7579186197916666
 41
0.0
 71
               1
 72
               1
  1
1.25mm
  7
Helvetica
 73
               1
 44
0.9673603504928808
  0
WIPEOUT
  5
2AD
100
AcDbEntity
  8
Dimension
370
              -2
390
0
  6
Continuous
 62
               0
 92
        0
100
AcDbWipeout
 90
        0
 10
9.5559202477331553
 20
39.432432020624994
 30
0.0
 11
4.4344027044173249
 21
0.0
 31
0.0
 12
0.0
 22
4.4344027044173249
 32
0.0
 13
1.0
 23
1.0
340
0
 70
               7
280
               1
281
              50
282
              50
283
               0
360
0
 71
               2
 91
        5
 14
-0.5
 24
41.619625607832418
 14
0.5
 24
41.619625607832418
 14
0.5
 24
41.345162600945926
 14
-0.5
 24
41.345162600945926
 14
-0.5
 24
41.619625607832418
  0
MTEXT
  5
2AE
100
AcDbEntity
  8
Dimension
390
0
 62
               0
100
AcDbMText
 10
9.5559202477331553
 20
-141.88604585958333
 30
0.0
 40
0.7579186197916666
 41
0.0
 71
               1
 72
               1
  1
±0.13mm
  7
Helvetica
 73
               1
 44
0.9673603504928808
  0
WIPEOUT
  5
2AF
100
AcDbEntity
  8
Dimension
370
              -2
390
0
  6
Continuous
 62
               0
 92
        0
100
AcDbWipeout
 90
        0
 10
13.990322952150482
 20
39.432430541874993
 30
0.0
 11
2.1060812093068133
 21
0.0
 31
0.0
 12
0.0
 22
2.1060812093068133
 32
0.0
 13
1.0
 23
1.0
340
0
 70
               7
280
               1
281
              50
282
              50
283
               0
360
0
 71
               2
 91
        5
 14
-0.5
 24
87.078322903329507
 14
0.4999999999999991
 24
87.078322903329507
 14
0.4999999999999991
 24
86.500433451169883
 14
-0.5
 24
86.500433451169883
 14
-0.5
 24
87.078322903329507
  0
MTEXT
  5
2B0
100
AcDbEntity
  8
Dimension
390
0
 62
               0
100
AcDbMText
 10
13.990322952150482
 20
-141.88604514035157
 30
0.0
 40
0.7579202490234376
 41
0.0
 71
               1
 72
               1
  1
 (x4)
  7
Helvetica
 73
               1
 44
0.9673603504928806
  0
POINT
  5
2B1
100
AcDbEntity
  8
Defpoints
370
               0
390
0
 62
               0
100
AcDbPoint
 10
22.507501599999994
 20
-146.34500739999999
 30
0.0
  0
POINT
  5
2B2
100
AcDbEntity
  8
Defpoints
370
               0
390
0
 62
               0
100
AcDbPoint
 10
21.257501599999994
 20
-145.09500739999999
 30
0.0
  0
POINT
  5
2B3
100
AcDbEntity
  8
Defpoints
370
               0
390
0
 62
               0
100
AcDbPoint
 10
10.900001599999994
 20
-145.09500739999999
 30
0.0
  0
ENDBLK
  5
2B4
100
AcDbEntity
  8
Dimension
390
0
100
AcDbBlockEnd
  0
BLOCK
  5
2B5
100
AcDbEntity
  8
Dimension
390
0
100
AcDbBlockBegin
  2
*D20
 70
               1
 10
0.0
 20
0.0
 30
0.0
  3
*D20
  1

  0
LINE
  5
2B6
100
AcDbEntity
  8
Dimension
370
              -2
390
0
  6
Continuous
 62
               0
100
AcDbLine
 10
35.991161599999991
 20
-159.33919739999999
 30
0.0
 11
41.766584813334838
 21
-161.38848409339147
 31
0.0
  0
SOLID
  5
2B7
100
AcDbEntity
  8
Dimension
370
              -2
390
0
 62
               0
100
AcDbTrace
 10
35.991161599999991
 20
-159.33919739999999
 30
0.0
 11
36.718648517252518
 21
-159.40284425812303
 31
0.0
 12
36.589360322199994
 22
-159.75806065463186
 32
0.0
 13
36.589360322199994
 23
-159.75806065463186
 33
0.0
  0
LINE
  5
2B8
100
AcDbEntity
  8
Dimension
370
              -2
390
0
  6
Continuous
 62
               0
100
AcDbLine
 10
41.766584813334838
 20
-161.38848409339147
 30
0.0
 11
43.766578815978171
 21
-161.38848409339147
 31
0.0
  0
WIPEOUT
  5
2B9
100
AcDbEntity
  8
Dimension
370
              -2
390
0
  6
Continuous
 62
               0
 92
        0
100
AcDbWipeout
 90
        0
 10
43.766578815978171
 20
20.343956464733509
 30
0.0
 11
4.9741512854511285
 21
0.0
 31
0.0
 12
0.0
 22
4.9741512854511285
 32
0.0
 13
1.0
 23
1.0
340
0
 70
               7
280
               1
281
              50
282
              50
283
               0
360
0
 71
               2
 91
        5
 14
-0.5
 24
37.157706719401205
 14
0.5
 24
37.157706719401205
 14
0.5
 24
36.913025882378854
 14
-0.5
 24
36.913025882378854
 14
-0.5
 24
37.157706719401205
  0
MTEXT
  5
2BA
100
AcDbEntity
  8
Dimension
390
0
 62
               0
100
AcDbMText
 10
43.766578815978171
 20
-160.97452141547481
 30
0.0
 40
0.7579186197916666
 41
0.0
 71
               1
 72
               1
  1
Ø 1.61mm
  7
Helvetica
 73
               1
 44
0.9673603504928808
  0
WIPEOUT
  5
2BB
100
AcDbEntity
  8
Dimension
370
              -2
390
0
  6
Continuous
 62
               0
 92
        0
100
AcDbWipeout
 90
        0
 10
48.7407301014293
 20
20.343955327233509
 30
0.0
 11
4.4344027044173266
 21
0.0
 31
0.0
 12
0.0
 22
4.4344027044173266
 32
0.0
 13
1.0
 23
1.0
340
0
 70
               7
280
               1
281
              50
282
              50
283
               0
360
0
 71
               2
 91
        5
 14
-0.5
 24
41.619625607832411
 14
0.5000000000000009
 24
41.619625607832411
 14
0.5000000000000009
 24
41.345162600945912
 14
-0.5
 24
41.345162600945912
 14
-0.5
 24
41.619625607832411
  0
MTEXT
  5
2BC
100
AcDbEntity
  8
Dimension
390
0
 62
               0
100
AcDbMText
 10
48.7407301014293
 20
-160.9745225529748
 30
0.0
 40
0.7579186197916666
 41
0.0
 71
               1
 72
               1
  1
±0.05mm
  7
Helvetica
 73
               1
 44
0.9673603504928808
  0
WIPEOUT
  5
2BD
100
AcDbEntity
  8
Dimension
370
              -2
390
0
  6
Continuous
 62
               0
 92
        0
100
AcDbWipeout
 90
        0
 10
53.175132805846623
 20
20.343953848483512
 30
0.0
 11
2.1060812093068115
 21
0.0
 31
0.0
 12
0.0
 22
2.1060812093068115
 32
0.0
 13
1.0
 23
1.0
340
0
 70
               7
280
               1
281
              50
282
              50
283
               0
360
0
 71
               2
 91
        5
 14
-0.5
 24
87.078322903329592
 14
0.5000000000000018
 24
87.078322903329592
 14
0.5000000000000018
 24
86.500433451169968
 14
-0.5
 24
86.500433451169968
 14
-0.5
 24
87.078322903329592
  0
MTEXT
  5
2BE
100
AcDbEntity
  8
Dimension
390
0
 62
               0
100
AcDbMText
 10
53.175132805846623
 20
-160.97452183374304
 30
0.0
 40
0.7579202490234376
 41
0.0
 71
               1
 72
               1
  1
 (x4)
  7
Helvetica
 73
               1
 44
0.9673603504928806
  0
POINT
  5
2BF
100
AcDbEntity
  8
Defpoints
370
               0
390
0
 62
               0
100
AcDbPoint
 10
34.473841599999993
 20
-158.8008174
 30
0.0
  0
POINT
  5
2C0
100
AcDbEntity
  8
Defpoints
370
               0
390
0
 62
               0
100
AcDbPoint
 10
35.991161599999991
 20
-159.33919739999999
 30
0.0
  0
ENDBLK
  5
2C1
100
AcDbEntity
  8
Dimension
390
0
100
AcDbBlockEnd
  0
BLOCK
  5
2C2
100
AcDbEntity
  8
Dimension
390
0
100
AcDbBlockBegin
  2
*D21
 70
               1
 10
0.0
 20
0.0
 30
0.0
  3
*D21
  1

  0
LINE
  5
2C3
100
AcDbEntity
  8
Dimension
370
              -2
390
0
  6
Continuous
 62
               0
100
AcDbLine
 10
35.532591599999989
 20
-148.58405740000001
 30
0.0
 11
41.399997428479715
 21
-142.70000307656224
 31
0.0
  0
SOLID
  5
2C4
100
AcDbEntity
  8
Dimension
370
              -2
390
0
 62
               0
100
AcDbTrace
 10
35.532591599999989
 20
-148.58405740000001
 30
0.0
 11
35.89772449954566
 21
-147.95162866647195
 31
0.0
 12
36.165020333528034
 22
-148.21892450045434
 32
0.0
 13
36.165020333528034
 23
-148.21892450045434
 33
0.0
  0
LINE
  5
2C5
100
AcDbEntity
  8
Dimension
370
              -2
390
0
  6
Continuous
 62
               0
100
AcDbLine
 10
41.399997428479715
 20
-142.70000307656224
 30
0.0
 11
43.399991431123048
 21
-142.70000307656224
 31
0.0
  0
WIPEOUT
  5
2C6
100
AcDbEntity
  8
Dimension
370
              -2
390
0
  6
Continuous
 62
               0
 92
        0
100
AcDbWipeout
 90
        0
 10
42.188203617821713
 20
39.032437310937759
 30
0.0
 11
4.9741512854511285
 21
0.0
 31
0.0
 12
0.0
 22
4.9741512854511285
 32
0.0
 13
1.0
 23
1.0
340
0
 70
               7
280
               1
281
              50
282
              50
283
               0
360
0
 71
               2
 91
        5
 14
-0.5
 24
37.157706719401205
 14
0.5
 24
37.157706719401205
 14
0.5
 24
36.913025882378854
 14
-0.5
 24
36.913025882378854
 14
-0.5
 24
37.157706719401205
  0
MTEXT
  5
2C7
100
AcDbEntity
  8
Dimension
390
0
 62
               0
100
AcDbMText
 10
42.188203617821713
 20
-142.28604056927057
 30
0.0
 40
0.7579186197916666
 41
0.0
 71
               1
 72
               1
  1
Ø 0.85mm
  7
Helvetica
 73
               1
 44
0.9673603504928808
  0
WIPEOUT
  5
2C8
100
AcDbEntity
  8
Dimension
370
              -2
390
0
  6
Continuous
 62
               0
 92
        0
100
AcDbWipeout
 90
        0
 10
47.162354903272842
 20
38.459173995312753
 30
0.0
 11
1.2170795000000005
 21
0.0
 31
0.0
 12
0.0
 22
1.2170795000000005
 32
0.0
 13
1.0
 23
1.0
340
0
 70
               7
280
               1
281
              50
282
              50
283
               0
360
0
 71
               2
 91
        5
 14
-0.5
 24
150.31846214647436
 14
-0.2130434575782874
 24
150.31846214647436
 14
-0.2130434575782874
 24
149.31846214647433
 14
-0.5
 24
149.31846214647433
 14
-0.5
 24
150.31846214647436
  0
MTEXT
  5
2C9
100
AcDbEntity
  8
Dimension
390
0
 62
               0
100
AcDbMText
 10
47.336979365859015
 20
-142.85930388489555
 30
0.0
 40
0.7579186197916666
 41
0.0
 71
               2
 72
               1
  1
-
  7
Helvetica
 73
               1
 44
0.9673603504928808
  0
WIPEOUT
  5
2CA
100
AcDbEntity
  8
Dimension
370
              -2
390
0
  6
Continuous
 62
               0
 92
        0
100
AcDbWipeout
 90
        0
 10
47.511603828445189
 20
39.605698351562758
 30
0.0
 11
2.3706593436801917
 21
0.0
 31
0.0
 12
0.0
 22
2.3706593436801917
 32
0.0
 13
1.0
 23
1.0
340
0
 70
               7
280
               1
281
              50
282
              50
283
               0
360
0
 71
               2
 91
        5
 14
-0.5
 24
77.415723672442695
 14
0.4999999999999986
 24
77.415723672442695
 14
0.4999999999999986
 24
76.902330846415396
 14
-0.5
 24
76.902330846415396
 14
-0.5
 24
77.415723672442695
  0
MTEXT
  5
2CB
100
AcDbEntity
  8
Dimension
390
0
 62
               0
100
AcDbMText
 10
47.511603828445189
 20
-141.71277952864557
 30
0.0
 40
0.7579186197916666
 41
0.0
 71
               1
 72
               1
  1
0mm
  7
Helvetica
 73
               1
 44
0.9673603504928808
  0
WIPEOUT
  5
2CC
100
AcDbEntity
  8
Dimension
370
              -2
390
0
  6
Continuous
 62
               0
 92
        0
100
AcDbWipeout
 90
        0
 10
47.511603828445189
 20
38.459173995312753
 30
0.0
 11
4.4449860451105145
 21
0.0
 31
0.0
 12
0.0
 22
4.4449860451105145
 32
0.0
 13
1.0
 23
1.0
340
0
 70
               7
280
               1
281
              50
282
              50
283
               0
360
0
 71
               2
 91
        5
 14
-0.5
 24
41.521721361887089
 14
0.4999999999999992
 24
41.521721361887089
 14
0.4999999999999992
 24
41.247911840856354
 14
-0.5
 24
41.247911840856354
 14
-0.5
 24
41.521721361887089
  0
MTEXT
  5
2CD
100
AcDbEntity
  8
Dimension
390
0
 62
               0
100
AcDbMText
 10
47.511603828445189
 20
-142.85930388489555
 30
0.0
 40
0.7579186197916666
 41
0.0
 71
               1
 72
               1
  1
0.025mm
  7
Helvetica
 73
               1
 44
0.9673603504928808
  0
WIPEOUT
  5
2CE
100
AcDbEntity
  8
Dimension
370
              -2
390
0
  6
Continuous
 62
               0
 92
        0
100
AcDbWipeout
 90
        0
 10
51.9565898735557
 20
39.032434694687758
 30
0.0
 11
2.1060812093068115
 21
0.0
 31
0.0
 12
0.0
 22
2.1060812093068115
 32
0.0
 13
1.0
 23
1.0
340
0
 70
               7
280
               1
281
              50
282
              50
283
               0
360
0
 71
               2
 91
        5
 14
-0.5
 24
87.078322903329592
 14
0.4999999999999983
 24
87.078322903329592
 14
0.4999999999999983
 24
86.500433451169968
 14
-0.5
 24
86.500433451169968
 14
-0.5
 24
87.078322903329592
  0
MTEXT
  5
2CF
100
AcDbEntity
  8
Dimension
390
0
 62
               0
100
AcDbMText
 10
51.9565898735557
 20
-142.2860409875388
 30
0.0
 40
0.7579202490234376
 41
0.0
 71
               1
 72
               1
  1
 (x2)
  7
Helvetica
 73
               1
 44
0.9673603504928806
  0
POINT
  5
2D0
100
AcDbEntity
  8
Defpoints
370
               0
390
0
 62
               0
100
AcDbPoint
 10
34.932411599999995
 20
-149.18595740000001
 30
0.0
  0
POINT
  5
2D1
100
AcDbEntity
  8
Defpoints
370
               0
390
0
 62
               0
100
AcDbPoint
 10
35.532591599999989
 20
-148.58405740000001
 30
0.0
  0
ENDBLK
  5
2D2
100
AcDbEntity
  8
Dimension
390
0
100
AcDbBlockEnd
  0
BLOCK
  5
2D3
100
AcDbEntity
  8
Dimension
390
0
100
AcDbBlockBegin
  2
*D22
 70
               1
 10
0.0
 20
0.0
 30
0.0
  3
*D22
  1

  0
LINE
  5
2D4
100
AcDbEntity
  8
Dimension
370
              -2
390
0
  6
Continuous
 62
               0
100
AcDbLine
 10
26.070001599999994
 20
-154.58500676657704
 30
0.0
 11
26.070001599999994
 21
-163.17000613315406
 31
0.0
  0
LINE
  5
2D5
100
AcDbEntity
  8
Dimension
370
              -2
390
0
  6
Continuous
 62
               0
100
AcDbLine
 10
32.170001599999992
 20
-154.58500676657704
 30
0.0
 11
32.170001599999992
 21
-163.17000613315406
 31
0.0
  0
LINE
  5
2D6
100
AcDbEntity
  8
Dimension
370
              -2
390
0
  6
Continuous
 62
               0
100
AcDbLine
 10
32.170001599999992
 20
-161.90000739999999
 30
0.0
 11
26.070001599999994
 21
-161.90000739999999
 31
0.0
  0
LINE
  5
2D7
100
AcDbEntity
  8
Dimension
370
              -2
390
0
  6
Continuous
 62
               0
100
AcDbLine
 10
26.070001599999994
 20
-161.90000739999999
 30
0.0
 11
23.736675268839566
 21
-161.90000739999999
 31
0.0
  0
SOLID
  5
2D8
100
AcDbEntity
  8
Dimension
370
              -2
390
0
 62
               0
100
AcDbTrace
 10
26.070001599999994
 20
-161.90000739999999
 30
0.0
 11
25.011669324999993
 21
-162.18358667841002
 31
0.0
 12
25.011669324999993
 22
-161.61642812158996
 32
0.0
 13
25.011669324999993
 23
-161.61642812158996
 33
0.0
  0
LINE
  5
2D9
100
AcDbEntity
  8
Dimension
370
              -2
390
0
  6
Continuous
 62
               0
100
AcDbLine
 10
32.170001599999992
 20
-161.90000739999999
 30
0.0
 11
34.50332793116042
 21
-161.90000739999999
 31
0.0
  0
SOLID
  5
2DA
100
AcDbEntity
  8
Dimension
370
              -2
390
0
 62
               0
100
AcDbTrace
 10
32.170001599999992
 20
-161.90000739999999
 30
0.0
 11
33.22833387499999
 21
-161.61642812158996
 31
0.0
 12
33.22833387499999
 22
-162.18358667841002
 32
0.0
 13
33.22833387499999
 23
-162.18358667841002
 33
0.0
  0
WIPEOUT
  5
2DB
100
AcDbEntity
  8
Dimension
370
              -2
390
0
  6
Continuous
 62
               0
 92
        0
100
AcDbWipeout
 90
        0
 10
27.309069343278566
 20
19.764811849999994
 30
0.0
 11
3.6218645134428513
 21
0.0
 31
0.0
 12
0.0
 22
3.6218645134428513
 32
0.0
 13
1.0
 23
1.0
340
0
 70
               7
280
               1
281
              50
282
              50
283
               0
360
0
 71
               2
 91
        5
 14
-0.5
 24
50.844505798940382
 14
0.5
 24
50.844505798940382
 14
0.5
 24
50.471129187258533
 14
-0.5
 24
50.471129187258533
 14
-0.5
 24
50.844505798940382
  0
MTEXT
  5
2DC
100
AcDbEntity
  8
Dimension
390
0
 62
               0
100
AcDbMText
 10
27.309069343278566
 20
-161.44004728020832
 30
0.0
 40
0.8421373697916665
 41
0.0
 71
               1
 72
               1
  1
6.1mm
  7
Helvetica
 73
               1
 44
0.9673603504928808
  0
POINT
  5
2DD
100
AcDbEntity
  8
Defpoints
370
               0
390
0
 62
               0
100
AcDbPoint
 10
32.170001599999992
 20
-153.9500074
 30
0.0
  0
POINT
  5
2DE
100
AcDbEntity
  8
Defpoints
370
               0
390
0
 62
               0
100
AcDbPoint
 10
26.070001599999994
 20
-153.9500074
 30
0.0
  0
POINT
  5
2DF
100
AcDbEntity
  8
Defpoints
370
               0
390
0
 62
               0
100
AcDbPoint
 10
26.070001599999994
 20
-161.90000739999999
 30
0.0
  0
ENDBLK
  5
2E0
100
AcDbEntity
  8
Dimension
390
0
100
AcDbBlockEnd
  0
BLOCK
  5
2E1
100
AcDbEntity
  8
Dimension
390
0
100
AcDbBlockBegin
  2
*D23
 70
               1
 10
0.0
 20
0.0
 30
0.0
  3
*D23
  1

  0
LINE
  5
2E2
100
AcDbEntity
  8
Dimension
370
              -2
390
0
  6
Continuous
 62
               0
100
AcDbLine
 10
32.335000966577027
 20
-150.9575074
 30
0.0
 11
39.870000333154067
 21
-150.9575074
 31
0.0
  0
LINE
  5
2E3
100
AcDbEntity
  8
Dimension
370
              -2
390
0
  6
Continuous
 62
               0
100
AcDbLine
 10
32.335000966577027
 20
-154.4575074
 30
0.0
 11
39.870000333154067
 21
-154.4575074
 31
0.0
  0
LINE
  5
2E4
100
AcDbEntity
  8
Dimension
370
              -2
390
0
  6
Continuous
 62
               0
100
AcDbLine
 10
38.600001599999992
 20
-154.4575074
 30
0.0
 11
38.600001599999992
 21
-150.9575074
 31
0.0
  0
LINE
  5
2E5
100
AcDbEntity
  8
Dimension
370
              -2
390
0
  6
Continuous
 62
               0
100
AcDbLine
 10
38.600001599999992
 20
-150.9575074
 30
0.0
 11
38.600001599999992
 21
-148.62418106883956
 31
0.0
  0
SOLID
  5
2E6
100
AcDbEntity
  8
Dimension
370
              -2
390
0
 62
               0
100
AcDbTrace
 10
38.600001599999992
 20
-150.9575074
 30
0.0
 11
38.316422321589947
 21
-149.899175125
 31
0.0
 12
38.883580878410037
 22
-149.899175125
 32
0.0
 13
38.883580878410037
 23
-149.899175125
 33
0.0
  0
LINE
  5
2E7
100
AcDbEntity
  8
Dimension
370
              -2
390
0
  6
Continuous
 62
               0
100
AcDbLine
 10
38.600001599999992
 20
-154.4575074
 30
0.0
 11
38.600001599999992
 21
-156.79083373116043
 31
0.0
  0
SOLID
  5
2E8
100
AcDbEntity
  8
Dimension
370
              -2
390
0
 62
               0
100
AcDbTrace
 10
38.600001599999992
 20
-154.4575074
 30
0.0
 11
38.883580878410037
 21
-155.515839675
 31
0.0
 12
38.316422321589947
 22
-155.515839675
 32
0.0
 13
38.316422321589947
 23
-155.515839675
 33
0.0
  0
WIPEOUT
  5
2E9
100
AcDbEntity
  8
Dimension
370
              -2
390
0
  6
Continuous
 62
               0
 92
        0
100
AcDbWipeout
 90
        0
 10
36.730272881488716
 20
28.939672899999994
 30
0.0
 11
3.7394574370225442
 21
0.0
 31
0.0
 12
0.0
 22
3.7394574370225442
 32
0.0
 13
1.0
 23
1.0
340
0
 70
               7
280
               1
281
              50
282
              50
283
               0
360
0
 71
               2
 91
        5
 14
-0.5
 24
49.261346283749859
 14
0.500000000000002
 24
49.261346283749859
 14
0.500000000000002
 24
48.890277105033697
 14
-0.5
 24
48.890277105033697
 14
-0.5
 24
49.261346283749859
  0
MTEXT
  5
2EA
100
AcDbEntity
  8
Dimension
390
0
 62
               0
100
AcDbMText
 10
36.730272881488716
 20
-152.26518623020831
 30
0.0
 40
0.8421373697916665
 41
0.0
 71
               1
 72
               1
  1
3.5mm
  7
Helvetica (bold)
 73
               1
 44
0.9925958378970426
  0
POINT
  5
2EB
100
AcDbEntity
  8
Defpoints
370
               0
390
0
 62
               0
100
AcDbPoint
 10
31.700001599999993
 20
-154.4575074
 30
0.0
  0
POINT
  5
2EC
100
AcDbEntity
  8
Defpoints
370
               0
390
0
 62
               0
100
AcDbPoint
 10
31.700001599999993
 20
-150.9575074
 30
0.0
  0
POINT
  5
2ED
100
AcDbEntity
  8
Defpoints
370
               0
390
0
 62
               0
100
AcDbPoint
 10
38.600001599999992
 20
-150.9575074
 30
0.0
  0
ENDBLK
  5
2EE
100
AcDbEntity
  8
Dimension
390
0
100
AcDbBlockEnd
  0
ENDSEC
  0
SECTION
  2
ENTITIES
  0
WIPEOUT
  5
2EF
100
AcDbEntity
  8
Dimension
370
               5
390
0
  6
Continuous
 62
               7
 92
        0
100
AcDbWipeout
 90
        0
 10
16.421482042939992
 20
-0.3885611470000043
 30
0.0
 11
14.178685821300002
 21
0.0
 31
0.0
 12
0.0
 22
14.178685821300002
 32
0.0
 13
1.0
 23
1.0
340
0
 70
               7
280
               1
281
              50
282
              50
283
               0
360
0
 71
               2
 91
        5
 14
-0.5
 24
13.200980673439359
 14
0.4999999999999999
 24
13.200980673439359
 14
0.4999999999999999
 24
13.360217180782534
 14
-0.5
 24
13.360217180782534
 14
-0.5
 24
13.200980673439359
  0
POLYLINE
  5
2F0
100
AcDbEntity
  8
Dimension
370
               5
390
0
  6
Continuous
 62
               7
100
AcDb2dPolyline
 66
               1
 10
0.0
 20
0.0
 30
0.0
 70
               1
 75
               5
  0
VERTEX
  5
2F1
100
AcDbEntity
  8
Dimension
370
               5
390
0
  6
Continuous
 62
               7
100
AcDbVertex
100
AcDb2dVertex
 10
16.421482042939992
 20
-180.47177573810001
 30
0.0
  0
VERTEX
  5
2F2
100
AcDbEntity
  8
Dimension
370
               5
390
0
  6
Continuous
 62
               7
100
AcDbVertex
100
AcDb2dVertex
 10
30.600167864239992
 20
-180.47177573810001
 30
0.0
  0
VERTEX
  5
2F3
100
AcDbEntity
  8
Dimension
370
               5
390
0
  6
Continuous
 62
               7
100
AcDbVertex
100
AcDb2dVertex
 10
30.600167864239992
 20
-182.72954014699999
 30
0.0
  0
VERTEX
  5
2F4
100
AcDbEntity
  8
Dimension
370
               5
390
0
  6
Continuous
 62
               7
100
AcDbVertex
100
AcDb2dVertex
 10
16.421482042939992
 20
-182.72954014699999
 30
0.0
  0
SEQEND
  5
2F5
100
AcDbEntity
  8
Dimension
370
               5
390
0
  6
Continuous
 62
               7
  0
WIPEOUT
  5
2F6
100
AcDbEntity
  8
Dimension
370
               5
390
0
  6
Continuous
 62
               7
 92
        0
100
AcDbWipeout
 90
        0
 10
30.600167864239992
 20
-0.3885611470000043
 30
0.0
 11
9.9089567577000022
 21
0.0
 31
0.0
 12
0.0
 22
9.9089567577000022
 32
0.0
 13
1.0
 23
1.0
340
0
 70
               7
280
               1
281
              50
282
              50
283
               0
360
0
 71
               2
 91
        5
 14
-0.5
 24
18.673781457988685
 14
0.5000000000000002
 24
18.673781457988685
 14
0.5000000000000002
 24
18.901632327066864
 14
-0.5
 24
18.901632327066864
 14
-0.5
 24
18.673781457988685
  0
POLYLINE
  5
2F7
100
AcDbEntity
  8
Dimension
370
               5
390
0
  6
Continuous
 62
               7
100
AcDb2dPolyline
 66
               1
 10
0.0
 20
0.0
 30
0.0
 70
               1
 75
               5
  0
VERTEX
  5
2F8
100
AcDbEntity
  8
Dimension
370
               5
390
0
  6
Continuous
 62
               7
100
AcDbVertex
100
AcDb2dVertex
 10
30.600167864239992
 20
-180.47177573810001
 30
0.0
  0
VERTEX
  5
2F9
100
AcDbEntity
  8
Dimension
370
               5
390
0
  6
Continuous
 62
               7
100
AcDbVertex
100
AcDb2dVertex
 10
40.509124621939996
 20
-180.47177573810001
 30
0.0
  0
VERTEX
  5
2FA
100
AcDbEntity
  8
Dimension
370
               5
390
0
  6
Continuous
 62
               7
100
AcDbVertex
100
AcDb2dVertex
 10
40.509124621939996
 20
-182.72954014699999
 30
0.0
  0
VERTEX
  5
2FB
100
AcDbEntity
  8
Dimension
370
               5
390
0
  6
Continuous
 62
               7
100
AcDbVertex
100
AcDb2dVertex
 10
30.600167864239992
 20
-182.72954014699999
 30
0.0
  0
SEQEND
  5
2FC
100
AcDbEntity
  8
Dimension
370
               5
390
0
  6
Continuous
 62
               7
  0
WIPEOUT
  5
2FD
100
AcDbEntity
  8
Dimension
370
               5
390
0
  6
Continuous
 62
               7
 92
        0
100
AcDbWipeout
 90
        0
 10
40.509124621939996
 20
-0.3885611470000043
 30
0.0
 11
9.922923410400001
 21
0.0
 31
0.0
 12
0.0
 22
9.922923410400001
 32
0.0
 13
1.0
 23
1.0
340
0
 70
               7
280
               1
281
              50
282
              50
283
               0
360
0
 71
               2
 91
        5
 14
-0.5
 24
18.648201607840555
 14
0.4999999999999994
 24
18.648201607840555
 14
0.4999999999999994
 24
18.875731773651744
 14
-0.5
 24
18.875731773651744
 14
-0.5
 24
18.648201607840555
  0
POLYLINE
  5
2FE
100
AcDbEntity
  8
Dimension
370
               5
390
0
  6
Continuous
 62
               7
100
AcDb2dPolyline
 66
               1
 10
0.0
 20
0.0
 30
0.0
 70
               1
 75
               5
  0
VERTEX
  5
2FF
100
AcDbEntity
  8
Dimension
370
               5
390
0
  6
Continuous
 62
               7
100
AcDbVertex
100
AcDb2dVertex
 10
40.509124621939996
 20
-180.47177573810001
 30
0.0
  0
VERTEX
  5
300
100
AcDbEntity
  8
Dimension
370
               5
390
0
  6
Continuous
 62
               7
100
AcDbVertex
100
AcDb2dVertex
 10
50.432048032339992
 20
-180.47177573810001
 30
0.0
  0
VERTEX
  5
301
100
AcDbEntity
  8
Dimension
370
               5
390
0
  6
Continuous
 62
               7
100
AcDbVertex
100
AcDb2dVertex
 10
50.432048032339992
 20
-182.72954014699999
 30
0.0
  0
VERTEX
  5
302
100
AcDbEntity
  8
Dimension
370
               5
390
0
  6
Continuous
 62
               7
100
AcDbVertex
100
AcDb2dVertex
 10
40.509124621939996
 20
-182.72954014699999
 30
0.0
  0
SEQEND
  5
303
100
AcDbEntity
  8
Dimension
370
               5
390
0
  6
Continuous
 62
               7
  0
WIPEOUT
  5
304
100
AcDbEntity
  8
Dimension
370
               5
390
0
  6
Continuous
 62
               7
 92
        0
100
AcDbWipeout
 90
        0
 10
16.421482042939992
 20
-2.6463655558600081
 30
0.0
 11
18.164108502540003
 21
0.0
 31
0.0
 12
0.0
 22
18.164108502540003
 32
0.0
 13
1.0
 23
1.0
340
0
 70
               7
280
               1
281
              50
282
              50
283
               0
360
0
 71
               2
 91
        5
 14
-0.5
 24
10.414231384708906
 14
0.5
 24
10.414231384708906
 14
0.5
 24
10.538531699725429
 14
-0.5
 24
10.538531699725429
 14
-0.5
 24
10.414231384708906
  0
POLYLINE
  5
305
100
AcDbEntity
  8
Dimension
370
               5
390
0
  6
Continuous
 62
               7
100
AcDb2dPolyline
 66
               1
 10
0.0
 20
0.0
 30
0.0
 70
               1
 75
               5
  0
VERTEX
  5
306
100
AcDbEntity
  8
Dimension
370
               5
390
0
  6
Continuous
 62
               7
100
AcDbVertex
100
AcDb2dVertex
 10
16.421482042939992
 20
-182.72954014699999
 30
0.0
  0
VERTEX
  5
307
100
AcDbEntity
  8
Dimension
370
               5
390
0
  6
Continuous
 62
               7
100
AcDbVertex
100
AcDb2dVertex
 10
34.585590545479995
 20
-182.72954014699999
 30
0.0
  0
VERTEX
  5
308
100
AcDbEntity
  8
Dimension
370
               5
390
0
  6
Continuous
 62
               7
100
AcDbVertex
100
AcDb2dVertex
 10
34.585590545479995
 20
-184.98734455586001
 30
0.0
  0
VERTEX
  5
309
100
AcDbEntity
  8
Dimension
370
               5
390
0
  6
Continuous
 62
               7
100
AcDbVertex
100
AcDb2dVertex
 10
16.421482042939992
 20
-184.98734455586001
 30
0.0
  0
SEQEND
  5
30A
100
AcDbEntity
  8
Dimension
370
               5
390
0
  6
Continuous
 62
               7
  0
WIPEOUT
  5
30B
100
AcDbEntity
  8
Dimension
370
               5
390
0
  6
Continuous
 62
               7
 92
        0
100
AcDbWipeout
 90
        0
 10
34.585590545479995
 20
-2.6463655558600081
 30
0.0
 11
15.846457486860002
 21
0.0
 31
0.0
 12
0.0
 22
15.846457486860002
 32
0.0
 13
1.0
 23
1.0
340
0
 70
               7
280
               1
281
              50
282
              50
283
               0
360
0
 71
               2
 91
        5
 14
-0.5
 24
11.864254423454975
 14
0.4999999999999997
 24
11.864254423454975
 14
0.4999999999999997
 24
12.00673449578232
 14
-0.5
 24
12.00673449578232
 14
-0.5
 24
11.864254423454975
  0
POLYLINE
  5
30C
100
AcDbEntity
  8
Dimension
370
               5
390
0
  6
Continuous
 62
               7
100
AcDb2dPolyline
 66
               1
 10
0.0
 20
0.0
 30
0.0
 70
               1
 75
               5
  0
VERTEX
  5
30D
100
AcDbEntity
  8
Dimension
370
               5
390
0
  6
Continuous
 62
               7
100
AcDbVertex
100
AcDb2dVertex
 10
34.585590545479995
 20
-182.72954014699999
 30
0.0
  0
VERTEX
  5
30E
100
AcDbEntity
  8
Dimension
370
               5
390
0
  6
Continuous
 62
               7
100
AcDbVertex
100
AcDb2dVertex
 10
50.432048032339992
 20
-182.72954014699999
 30
0.0
  0
VERTEX
  5
30F
100
AcDbEntity
  8
Dimension
370
               5
390
0
  6
Continuous
 62
               7
100
AcDbVertex
100
AcDb2dVertex
 10
50.432048032339992
 20
-184.98734455586001
 30
0.0
  0
VERTEX
  5
310
100
AcDbEntity
  8
Dimension
370
               5
390
0
  6
Continuous
 62
               7
100
AcDbVertex
100
AcDb2dVertex
 10
34.585590545479995
 20
-184.98734455586001
 30
0.0
  0
SEQEND
  5
311
100
AcDbEntity
  8
Dimension
370
               5
390
0
  6
Continuous
 62
               7
  0
WIPEOUT
  5
312
100
AcDbEntity
  8
Dimension
370
               5
390
0
  6
Continuous
 62
               7
 92
        0
100
AcDbWipeout
 90
        0
 10
34.585590545479995
 20
-4.9041232981000071
 30
0.0
 11
15.846457486860002
 21
0.0
 31
0.0
 12
0.0
 22
15.846457486860002
 32
0.0
 13
1.0
 23
1.0
340
0
 70
               7
280
               1
281
              50
282
              50
283
               0
360
0
 71
               2
 91
        5
 14
-0.5
 24
11.86425736837942
 14
0.4999999999999997
 24
11.86425736837942
 14
0.4999999999999997
 24
12.006734495782318
 14
-0.5
 24
12.006734495782318
 14
-0.5
 24
11.86425736837942
  0
POLYLINE
  5
313
100
AcDbEntity
  8
Dimension
370
               5
390
0
  6
Continuous
 62
               7
100
AcDb2dPolyline
 66
               1
 10
0.0
 20
0.0
 30
0.0
 70
               1
 75
               5
  0
VERTEX
  5
314
100
AcDbEntity
  8
Dimension
370
               5
390
0
  6
Continuous
 62
               7
100
AcDbVertex
100
AcDb2dVertex
 10
34.585590545479995
 20
-184.98734455586001
 30
0.0
  0
VERTEX
  5
315
100
AcDbEntity
  8
Dimension
370
               5
390
0
  6
Continuous
 62
               7
100
AcDbVertex
100
AcDb2dVertex
 10
50.432048032339992
 20
-184.98734455586001
 30
0.0
  0
VERTEX
  5
316
100
AcDbEntity
  8
Dimension
370
               5
390
0
  6
Continuous
 62
               7
100
AcDbVertex
100
AcDb2dVertex
 10
50.432048032339992
 20
-187.24510229809999
 30
0.0
  0
VERTEX
  5
317
100
AcDbEntity
  8
Dimension
370
               5
390
0
  6
Continuous
 62
               7
100
AcDbVertex
100
AcDb2dVertex
 10
34.585590545479995
 20
-187.24510229809999
 30
0.0
  0
SEQEND
  5
318
100
AcDbEntity
  8
Dimension
370
               5
390
0
  6
Continuous
 62
               7
  0
WIPEOUT
  5
319
100
AcDbEntity
  8
Dimension
370
               5
390
0
  6
Continuous
 62
               7
 92
        0
100
AcDbWipeout
 90
        0
 10
16.421482042939992
 20
-4.9041232981000071
 30
0.0
 11
18.164108502540003
 21
0.0
 31
0.0
 12
0.0
 22
18.164108502540003
 32
0.0
 13
1.0
 23
1.0
340
0
 70
               7
280
               1
281
              50
282
              50
283
               0
360
0
 71
               2
 91
        5
 14
-0.5
 24
10.414233953875458
 14
0.5
 24
10.414233953875458
 14
0.5
 24
10.538531699725427
 14
-0.5
 24
10.538531699725427
 14
-0.5
 24
10.414233953875458
  0
POLYLINE
  5
31A
100
AcDbEntity
  8
Dimension
370
               5
390
0
  6
Continuous
 62
               7
100
AcDb2dPolyline
 66
               1
 10
0.0
 20
0.0
 30
0.0
 70
               1
 75
               5
  0
VERTEX
  5
31B
100
AcDbEntity
  8
Dimension
370
               5
390
0
  6
Continuous
 62
               7
100
AcDbVertex
100
AcDb2dVertex
 10
16.421482042939992
 20
-184.98734455586001
 30
0.0
  0
VERTEX
  5
31C
100
AcDbEntity
  8
Dimension
370
               5
390
0
  6
Continuous
 62
               7
100
AcDbVertex
100
AcDb2dVertex
 10
34.585590545479995
 20
-184.98734455586001
 30
0.0
  0
VERTEX
  5
31D
100
AcDbEntity
  8
Dimension
370
               5
390
0
  6
Continuous
 62
               7
100
AcDbVertex
100
AcDb2dVertex
 10
34.585590545479995
 20
-187.24510229809999
 30
0.0
  0
VERTEX
  5
31E
100
AcDbEntity
  8
Dimension
370
               5
390
0
  6
Continuous
 62
               7
100
AcDbVertex
100
AcDb2dVertex
 10
16.421482042939992
 20
-187.24510229809999
 30
0.0
  0
SEQEND
  5
31F
100
AcDbEntity
  8
Dimension
370
               5
390
0
  6
Continuous
 62
               7
  0
MTEXT
  5
320
100
AcDbEntity
  8
None
390
0
 62
               7
100
AcDbMText
 10
17.26814786293999
 20
-181.11104078286209
 30
0.0
 40
0.8421341405039061
 41
0.0
 71
               1
 72
               1
  1
Status: Released
  7
Arial
 73
               1
 44
0.9673603504928809
  0
MTEXT
  5
321
100
AcDbEntity
  8
None
390
0
 62
               7
100
AcDbMText
 10
17.26814786293999
 20
-183.37071185652209
 30
0.0
 40
0.8421341405039061
 41
0.0
 71
               1
 72
               1
  1
Drawing: B. Roux
  7
Arial
 73
               1
 44
0.9673603504928809
  0
WIPEOUT
  5
322
100
AcDbEntity
  8
None
370
               5
390
0
  6
Continuous
 62
               7
 92
        0
100
AcDbWipeout
 90
        0
 10
31.446833684239994
 20
0.1524826452889911
 30
0.0
 11
5.2563868622737884
 21
0.0
 31
0.0
 12
0.0
 22
5.2563868622737884
 32
0.0
 13
1.0
 23
1.0
340
0
 70
               7
280
               1
281
              50
282
              50
283
               0
360
0
 71
               2
 91
        5
 14
-0.5
 24
35.189413807933384
 14
0.5000000000000002
 24
35.189413807933384
 14
0.5000000000000002
 24
34.932143110440236
 14
-0.5
 24
34.932143110440236
 14
-0.5
 24
35.189413807933384
  0
MTEXT
  5
323
100
AcDbEntity
  8
None
390
0
 62
               7
100
AcDbMText
 10
31.446833684239994
 20
-181.05238084152208
 30
0.0
 40
0.8421341405039061
 41
0.0
 71
               1
 72
               1
  1
Scale: 3:1
  7
Arial
 73
               1
 44
0.9673603504928809
  0
MTEXT
  5
324
100
AcDbEntity
  8
None
390
0
 62
               7
100
AcDbMText
 10
41.355790441939995
 20
-181.11292744764208
 30
0.0
 40
0.8421341405039061
 41
0.0
 71
               1
 72
               1
  1
Rev: A
  7
Arial
 73
               1
 44
0.9673603504928809
  0
MTEXT
  5
325
100
AcDbEntity
  8
None
390
0
 62
               7
100
AcDbMText
 10
35.432256365479994
 20
-183.55859833530209
 30
0.0
 40
0.8421341405039061
 41
0.0
 71
               1
 72
               1
  1
Date: 11/23/04
  7
Arial
 73
               1
 44
0.9673603504928809
  0
MTEXT
  5
326
100
AcDbEntity
  8
None
390
0
 62
               7
100
AcDbMText
 10
17.26814786293999
 20
-185.74825609703103
 30
0.0
 40
0.6737063575429687
 41
0.0
 71
               1
 72
               1
  1
File: SG-MLF-7013 Dwg
  7
Arial
 73
               1
 44
0.9673603504928809
  0
WIPEOUT
  5
327
100
AcDbEntity
  8
Dimension
370
               5
390
0
  6
Continuous
 62
               7
 92
        0
100
AcDbWipeout
 90
        0
 10
-17.318150884060014
 20
-4.9041232981000071
 30
0.0
 11
33.739632927000009
 21
0.0
 31
0.0
 12
0.0
 22
33.739632927000009
 32
0.0
 13
1.0
 23
1.0
340
0
 70
               7
280
               1
281
              50
282
              50
283
               0
360
0
 71
               2
 91
        5
 14
-0.5
 24
5.770520199008919
 14
0.4999999999999998
 24
5.770520199008919
 14
0.4999999999999998
 24
5.9043557437189049
 14
-0.5
 24
5.9043557437189049
 14
-0.5
 24
5.770520199008919
  0
POLYLINE
  5
328
100
AcDbEntity
  8
Dimension
370
               5
390
0
  6
Continuous
 62
               7
100
AcDb2dPolyline
 66
               1
 10
0.0
 20
0.0
 30
0.0
 70
               1
 75
               5
  0
VERTEX
  5
329
100
AcDbEntity
  8
Dimension
370
               5
390
0
  6
Continuous
 62
               7
100
AcDbVertex
100
AcDb2dVertex
 10
-17.318150884060014
 20
-182.72954014699999
 30
0.0
  0
VERTEX
  5
32A
100
AcDbEntity
  8
Dimension
370
               5
390
0
  6
Continuous
 62
               7
100
AcDbVertex
100
AcDb2dVertex
 10
16.421482042939992
 20
-182.72954014699999
 30
0.0
  0
VERTEX
  5
32B
100
AcDbEntity
  8
Dimension
370
               5
390
0
  6
Continuous
 62
               7
100
AcDbVertex
100
AcDb2dVertex
 10
16.421482042939992
 20
-187.24510229809999
 30
0.0
  0
VERTEX
  5
32C
100
AcDbEntity
  8
Dimension
370
               5
390
0
  6
Continuous
 62
               7
100
AcDbVertex
100
AcDb2dVertex
 10
-17.318150884060014
 20
-187.24510229809999
 30
0.0
  0
SEQEND
  5
32D
100
AcDbEntity
  8
Dimension
370
               5
390
0
  6
Continuous
 62
               7
  0
WIPEOUT
  5
32E
100
AcDbEntity
  8
Dimension
370
               5
390
0
  6
Continuous
 62
               7
 92
        0
100
AcDbWipeout
 90
        0
 10
-17.318150884060014
 20
-0.3885611470000043
 30
0.0
 11
33.739632927000009
 21
0.0
 31
0.0
 12
0.0
 22
33.739632927000009
 32
0.0
 13
1.0
 23
1.0
340
0
 70
               7
280
               1
281
              50
282
              50
283
               0
360
0
 71
               2
 91
        5
 14
-0.5
 24
5.8374384653423155
 14
0.4999999999999998
 24
5.8374384653423155
 14
0.4999999999999998
 24
5.9043557437189058
 14
-0.5
 24
5.9043557437189058
 14
-0.5
 24
5.8374384653423155
  0
POLYLINE
  5
32F
100
AcDbEntity
  8
Dimension
370
               5
390
0
  6
Continuous
 62
               7
100
AcDb2dPolyline
 66
               1
 10
0.0
 20
0.0
 30
0.0
 70
               1
 75
               5
  0
VERTEX
  5
330
100
AcDbEntity
  8
Dimension
370
               5
390
0
  6
Continuous
 62
               7
100
AcDbVertex
100
AcDb2dVertex
 10
-17.318150884060014
 20
-180.47177573810001
 30
0.0
  0
VERTEX
  5
331
100
AcDbEntity
  8
Dimension
370
               5
390
0
  6
Continuous
 62
               7
100
AcDbVertex
100
AcDb2dVertex
 10
16.421482042939992
 20
-180.47177573810001
 30
0.0
  0
VERTEX
  5
332
100
AcDbEntity
  8
Dimension
370
               5
390
0
  6
Continuous
 62
               7
100
AcDbVertex
100
AcDb2dVertex
 10
16.421482042939992
 20
-182.72954014699999
 30
0.0
  0
VERTEX
  5
333
100
AcDbEntity
  8
Dimension
370
               5
390
0
  6
Continuous
 62
               7
100
AcDbVertex
100
AcDb2dVertex
 10
-17.318150884060014
 20
-182.72954014699999
 30
0.0
  0
SEQEND
  5
334
100
AcDbEntity
  8
Dimension
370
               5
390
0
  6
Continuous
 62
               7
  0
MTEXT
  5
335
100
AcDbEntity
  8
None
390
0
 62
               7
100
AcDbMText
 10
-0.4483344205600055
 20
-181.06816699448592
 30
0.0
 40
0.9823410315468748
 41
0.0
 71
               2
 72
               1
  1
SG-MLF-7013 Drawing
  7
Arial (bold)
 73
               1
 44
0.9925958378970426
  0
MTEXT
  5
336
100
AcDbEntity
  8
None
390
0
 62
               7
100
AcDbMText
 10
0.8711509266199933
 20
-183.00786073326248
 30
0.0
 40
0.6698964655195312
 41
24.492162174480001
 71
               2
 72
               1
  1
© 2004 IRONWOOD ELECTRONICS, INC.\PPO BOX 21151 ST. PAUL, MN  55121\PTele: (651) 452-8100\Pwww.ironwoodelectronics.com
  7
Arial
 73
               1
 44
0.9673603504928805
  0
INSERT
  5
337
100
AcDbEntity
  8
None
390
0
 62
               7
100
AcDbBlockReference
  2
IE i logo
 10
-13.70841449380001
 20
-184.95203792449999
 30
0.0
 41
0.6666660000000001
 42
0.6666660000000001
 43
0.6666660000000001
  0
MTEXT
  5
338
100
AcDbEntity
  8
None
390
0
 62
               7
100
AcDbMText
 10
35.432256365479994
 20
-185.74825609703103
 30
0.0
 40
0.6737063575429687
 41
0.0
 71
               1
 72
               1
  1
Modified: 
  7
Arial
 73
               1
 44
0.9673603504928809
  0
WIPEOUT
  5
339
100
AcDbEntity
  8
None
370
               9
390
0
  6
Continuous
 62
               7
 92
        0
100
AcDbWipeout
 90
        0
 10
54.428110702939989
 20
-4.9332166023400035
 30
0.0
 11
11.853321838863753
 21
0.0
 31
0.0
 12
0.0
 22
11.853321838863753
 32
0.0
 13
1.0
 23
1.0
340
0
 70
               7
280
               1
281
              50
282
              50
283
               0
360
0
 71
               2
 91
        5
 14
-0.5
 24
15.883112133356114
 14
0.5000000000000009
 24
15.883112133356114
 14
0.5000000000000009
 24
15.677754996716237
 14
-0.5
 24
15.677754996716237
 14
-0.5
 24
15.883112133356114
  0
MTEXT
  5
33A
100
AcDbEntity
  8
None
390
0
 62
               7
100
AcDbMText
 10
54.428110702939989
 20
-185.22918896679312
 30
0.0
 40
1.5158404980468749
 41
0.0
 71
               1
 72
               1
  1
PAGE 2 of 3
  7
Arial
 73
               1
 44
0.9673603504928808
  0
MTEXT
  5
33B
100
AcDbEntity
  8
None
390
0
 62
               7
100
AcDbMText
 10
-13.701014501200003
 20
-126.17116492418178
 30
0.0
 40
0.8165916313242188
 41
15.76917089748
 71
               1
 72
               1
  1
{\LRecommended PCB Layout Top View}\P
  7
Helvetica
 73
               1
 44
0.9673603504928809
  0
WIPEOUT
  5
33C
100
AcDbEntity
  8
None
370
              15
390
0
  6
Continuous
 62
               1
 92
        0
100
AcDbWipeout
 90
        0
 10
-16.53991166230001
 20
5.2088532555799887
 30
0.0
 11
23.801893295386506
 21
0.0
 31
0.0
 12
0.0
 22
23.801893295386506
 32
0.0
 13
1.0
 23
1.0
340
0
 70
               7
280
               1
281
              50
282
              50
283
               0
360
0
 71
               2
 91
        5
 14
-0.5
 24
8.1607762557839436
 14
0.5
 24
8.1607762557839436
 14
0.5
 24
7.9562409104404859
 14
-0.5
 24
7.9562409104404859
 14
-0.5
 24
8.1607762557839436
  0
MTEXT
  5
33D
100
AcDbEntity
  8
None
390
0
 62
               1
100
AcDbMText
 10
-16.53991166230001
 20
-172.45837607789656
 30
0.0
 40
0.7579202490234375
 41
0.0
 71
               1
 72
               1
  1
{\LTarget PCB Recommendations}\PTotal thickness: 1.6mm min.\PPlating: Gold or Solder finish\PPCB Pad height: Same or higher than solder mask
  7
Arial
 73
               1
 44
0.9673603504928808
  0
WIPEOUT
  5
33E
100
AcDbEntity
  8
None
370
              15
390
0
  6
Continuous
 62
               1
 92
        0
100
AcDbWipeout
 90
        0
 10
-16.598484937060004
 20
2.2019862624499922
 30
0.0
 11
35.697548497023035
 21
0.0
 31
0.0
 12
0.0
 22
35.697548497023035
 32
0.0
 13
1.0
 23
1.0
340
0
 70
               7
280
               1
281
              50
282
              50
283
               0
360
0
 71
               2
 91
        5
 14
-0.5
 24
5.6079412082094695
 14
0.5
 24
5.6079412082094695
 14
0.5
 24
5.5738469309413405
 14
-0.5
 24
5.5738469309413405
 14
-0.5
 24
5.6079412082094695
  0
MTEXT
  5
33F
100
AcDbEntity
  8
None
390
0
 62
               1
100
AcDbMText
 10
-16.598484937060004
 20
-179.11648941977654
 30
0.0
 40
0.7579202490234375
 41
0.0
 71
               1
 72
               1
  1
NOTE: Steel backing plate may be required based on end user's application
  7
New Century Schlbk
 73
               1
 44
0.9673603504928808
  0
WIPEOUT
  5
340
100
AcDbEntity
  8
None
370
               9
390
0
  6
Continuous
 62
               1
 92
        0
100
AcDbWipeout
 90
        0
 10
37.621454176279997
 20
51.637360427026394
 30
0.0
 11
28.881071118900003
 21
0.0
 31
0.0
 12
0.0
 22
28.881071118900003
 32
0.0
 13
1.0
 23
1.0
340
0
 70
               7
280
               1
281
              50
282
              50
283
               0
360
0
 71
               2
 91
        5
 14
-0.5
 24
6.8135116509122344
 14
0.4999999999999998
 24
6.8135116509122344
 14
0.4999999999999998
 24
6.6402576405040419
 14
-0.5
 24
6.6402576405040419
 14
-0.5
 24
6.8135116509122344
  0
MTEXT
  5
341
100
AcDbEntity
  8
None
390
0
 62
               1
100
AcDbMText
 10
37.621454176279997
 20
-126.00213831334744
 30
0.0
 40
1.01226634884375
 41
28.881071118900003
 71
               1
 72
               1
  1
{\L*Note: MLF pattern is not symmetrical with respect to the mounting holes.  It is offset 0.25mm to the right of center.}
  7
Arial (bold)
 73
               1
 44
0.992595837897043
  0
MTEXT
  5
342
100
AcDbEntity
  8
None
390
0
 62
               7
100
AcDbMText
 10
-12.276802592080006
 20
-167.82260498797783
 30
0.0
 40
0.6939780386601563
 41
21.898291435019999
 71
               1
 72
               1
  1
Recommended PCB Layout Tolerances:  ±0.025mm  unless stated otherwise.\P
  7
Helvetica
 73
               1
 44
0.9673603504928806
  0
INSERT
  5
343
100
AcDbEntity
  8
None
390
0
 62
               7
100
AcDbBlockReference
  2
Group-1
 10
26.864411599999993
 20
-155.47656739999999
 30
0.0
  0
DIMENSION
  5
344
100
AcDbEntity
  8
Dimension
370
               5
390
0
  6
Continuous
 62
              12
100
AcDbDimension
  2
*D5
 10
-0.2499984000000026
 20
-145.09500739999999
 30
0.0
 11
-0.2499984000000026
 21
-152.59994552561034
 31
0.0
 70
             128
 71
               5
 72
               1
 41
1.0
 42
0.0
  3
IE Standard
100
AcDbAlignedDimension
 13
21.257501599999994
 23
-160.32000739999998
 33
0.0
 14
21.257501599999994
 24
-145.09500739999999
 34
0.0
 50
90.0
100
AcDbRotatedDimension
1001
ACAD
1000
DSTYLE
1002
{
1070
             271
1070
               3
1070
             340
1005
3A
1070
              71
1070
               1
1070
              47
1040
0.125
1070
              48
1040
0.125
1070
               3
1000
<>mm sqr.
1070
             147
1040
0.132291534375
1002
}
  0
WIPEOUT
  5
345
100
AcDbEntity
  8
None
370
               5
390
0
  6
Continuous
 62
              12
 92
        0
100
AcDbWipeout
 90
        0
 10
-2.978378400000004
 20
27.981702099999993
 30
0.0
 11
5.4186498002462393
 21
0.0
 31
0.0
 12
0.0
 22
5.4186498002462393
 32
0.0
 13
1.0
 23
1.0
340
0
 70
               7
280
               1
281
              50
282
              50
283
               0
360
0
 71
               2
 91
        5
 14
-0.5
 24
34.150629902621482
 14
0.5
 24
34.150629902621482
 14
0.5
 24
33.926020535921914
 14
-0.5
 24
33.926020535921914
 14
-0.5
 24
34.150629902621482
  0
MTEXT
  5
346
100
AcDbEntity
  8
None
390
0
 62
              12
100
AcDbMText
 10
-2.978378400000004
 20
-153.33677578020831
 30
0.0
 40
0.7579186197916666
 41
0.0
 71
               1
 72
               1
  1
Socket size
  7
New Century Schlbk
 73
               1
 44
0.9673603504928808
  0
INSERT
  5
347
100
AcDbEntity
  8
Dimension
390
0
 62
               7
100
AcDbBlockReference
  2
Group-2
 10
26.864411599999993
 20
-155.47656739999999
 30
0.0
  0
WIPEOUT
  5
348
100
AcDbEntity
  8
None
370
               5
390
0
  6
Continuous
 62
               1
 92
        0
100
AcDbWipeout
 90
        0
 10
3.4543915999999939
 20
45.708452099999988
 30
0.0
 11
7.8422253988126762
 21
0.0
 31
0.0
 12
0.0
 22
7.8422253988126762
 32
0.0
 13
1.0
 23
1.0
340
0
 70
               7
280
               1
281
              50
282
              50
283
               0
360
0
 71
               2
 91
        5
 14
-0.5
 24
23.751178042855877
 14
0.5
 24
23.751178042855877
 14
0.5
 24
23.595982363299886
 14
-0.5
 24
23.595982363299886
 14
-0.5
 24
23.751178042855877
  0
MTEXT
  5
349
100
AcDbEntity
  8
None
390
0
 62
               1
100
AcDbMText
 10
3.4543915999999939
 20
-135.61002578020833
 30
0.0
 40
0.7579186197916666
 41
0.0
 71
               1
 72
               1
  1
Orientation Mark
  7
New Century Schlbk
 73
               1
 44
0.9673603504928808
  0
WIPEOUT
  5
34A
100
AcDbEntity
  8
None
370
               5
390
0
  6
Continuous
 62
              12
 92
        0
100
AcDbWipeout
 90
        0
 10
42.68338159999999
 20
18.688122099999994
 30
0.0
 11
12.117878889991568
 21
0.0
 31
0.0
 12
0.0
 22
12.117878889991568
 32
0.0
 13
1.0
 23
1.0
340
0
 70
               7
280
               1
281
              50
282
              50
283
               0
360
0
 71
               2
 91
        5
 14
-0.5
 24
15.547268639613121
 14
0.5000000000000004
 24
15.547268639613121
 14
0.5000000000000004
 24
15.446831961622784
 14
-0.5
 24
15.446831961622784
 14
-0.5
 24
15.547268639613121
  0
MTEXT
  5
34B
100
AcDbEntity
  8
None
390
0
 62
              12
100
AcDbMText
 10
42.68338159999999
 20
-162.63035578020833
 30
0.0
 40
0.7579186197916666
 41
0.0
 71
               1
 72
               1
  1
Non plated mounting hole
  7
Arial
 73
               1
 44
0.9673603504928808
  0
WIPEOUT
  5
34C
100
AcDbEntity
  8
None
370
               5
390
0
  6
Continuous
 62
              12
 92
        0
100
AcDbWipeout
 90
        0
 10
42.819431599999994
 20
37.340762099999992
 30
0.0
 11
12.350711488082316
 21
0.0
 31
0.0
 12
0.0
 22
12.350711488082316
 32
0.0
 13
1.0
 23
1.0
340
0
 70
               7
280
               1
281
              50
282
              50
283
               0
360
0
 71
               2
 91
        5
 14
-0.5
 24
15.263601204347452
 14
0.5000000000000002
 24
15.263601204347452
 14
0.5000000000000002
 24
15.165057934093394
 14
-0.5
 24
15.165057934093394
 14
-0.5
 24
15.263601204347452
  0
MTEXT
  5
34D
100
AcDbEntity
  8
None
390
0
 62
              12
100
AcDbMText
 10
42.819431599999994
 20
-143.97771578020831
 30
0.0
 40
0.7579186197916666
 41
0.0
 71
               1
 72
               1
  1
Non plated alignment hole
  7
Arial
 73
               1
 44
0.9673603504928808
  0
DIMENSION
  5
34E
100
AcDbEntity
  8
Dimension
370
               5
390
0
  6
Continuous
 62
              12
100
AcDbDimension
  2
*D7
 10
22.507501599999994
 20
-139.7000074
 30
0.0
 11
28.000001599999994
 21
-139.7000074
 31
0.0
 70
             128
 71
               5
 72
               1
 41
1.0
 42
0.0
  3
IE Standard
100
AcDbAlignedDimension
 13
25.945001599999994
 23
-150.03250739999999
 33
0.0
 14
22.507501599999994
 24
-146.34500739999999
 34
0.0
100
AcDbRotatedDimension
1001
ACAD
1000
DSTYLE
1002
{
1070
             271
1070
               4
1070
             340
1005
3A
1070
             174
1070
               0
1070
             147
1040
0.132291534375
1002
}
  0
DIMENSION
  5
34F
100
AcDbEntity
  8
Dimension
370
               5
390
0
  6
Continuous
 62
              12
100
AcDbDimension
  2
*D8
 10
19.018201599999994
 20
-149.68250739999999
 30
0.0
 11
19.018201599999994
 21
-148.0137064737915
 31
0.0
 70
             128
 71
               5
 72
               1
 41
1.0
 42
0.0
  3
IE Standard
100
AcDbAlignedDimension
 13
22.507501599999994
 23
-146.34500739999999
 33
0.0
 14
25.945001599999994
 24
-149.68250739999999
 34
0.0
 50
90.0
100
AcDbRotatedDimension
1001
ACAD
1000
DSTYLE
1002
{
1070
             271
1070
               4
1070
             340
1005
3A
1070
             147
1040
0.132291534375
1002
}
  0
DIMENSION
  5
350
100
AcDbEntity
  8
Dimension
370
               5
390
0
  6
Continuous
 62
              12
100
AcDbDimension
  2
*D9
 10
30.620001599999995
 20
-143.00000739999999
 30
0.0
 11
32.700001599999993
 21
-143.00000739999999
 31
0.0
 70
             128
 71
               5
 72
               1
 41
1.0
 42
0.0
  3
IE Standard
100
AcDbAlignedDimension
 13
31.120001599999995
 23
-150.03250739999999
 33
0.0
 14
30.620001599999995
 24
-150.03250739999999
 34
0.0
100
AcDbRotatedDimension
1001
ACAD
1000
DSTYLE
1002
{
1070
             340
1005
3A
1070
               3
1000
<>mm typ.
1070
             174
1070
               0
1070
             147
1040
0.132291534375
1002
}
  0
DIMENSION
  5
351
100
AcDbEntity
  8
Dimension
370
               5
390
0
  6
Continuous
 62
              12
100
AcDbDimension
  2
*D10
 10
18.081341599999995
 20
-159.07000739999998
 30
0.0
 11
18.081341599999995
 21
-156.78115486093751
 31
0.0
 70
             128
 71
               5
 72
               1
 41
1.0
 42
0.0
  3
IE Standard
100
AcDbAlignedDimension
 13
22.507501599999994
 23
-153.9900074
 33
0.0
 14
22.507501599999994
 24
-159.07000739999998
 34
0.0
 50
90.0
100
AcDbRotatedDimension
1001
ACAD
1000
DSTYLE
1002
{
1070
             340
1005
3A
1070
             147
1040
0.132291534375
1002
}
  0
DIMENSION
  5
352
100
AcDbEntity
  8
Dimension
370
               5
390
0
  6
Continuous
 62
              12
100
AcDbDimension
  2
*D11
 10
40.429391599999988
 20
-148.88500740000001
 30
0.0
 11
40.429391599999988
 21
-147.6150074
 31
0.0
 70
             128
 71
               5
 72
               1
 41
1.0
 42
0.0
  3
IE Standard
100
AcDbAlignedDimension
 13
35.232501599999992
 23
-146.34500739999999
 33
0.0
 14
35.232501599999992
 24
-148.88500740000001
 34
0.0
 50
90.0
100
AcDbRotatedDimension
1001
ACAD
1000
DSTYLE
1002
{
1070
             340
1005
3A
1070
             147
1040
0.132291534375
1002
}
  0
DIMENSION
  5
353
100
AcDbEntity
  8
Dimension
370
               5
390
0
  6
Continuous
 62
              12
100
AcDbDimension
  2
*D12
 10
22.507501599999994
 20
-169.8000074
 30
0.0
 11
28.850002286645498
 21
-169.8000074
 31
0.0
 70
             128
 71
               5
 72
               1
 41
1.0
 42
0.0
  3
IE Standard
100
AcDbAlignedDimension
 13
35.232501599999992
 23
-159.07000739999998
 33
0.0
 14
22.507501599999994
 24
-159.07000739999998
 34
0.0
100
AcDbRotatedDimension
1001
ACAD
1000
DSTYLE
1002
{
1070
             271
1070
               3
1070
             340
1005
3A
1070
              71
1070
               1
1070
              47
1040
0.125
1070
              48
1040
0.125
1070
               3
1000
<>mm (x4)
1070
             147
1040
0.132291534375
1002
}
  0
DIMENSION
  5
354
100
AcDbEntity
  8
Dimension
370
               5
390
0
  6
Continuous
 62
              12
100
AcDbDimension
  2
*D13
 10
32.251421599999993
 20
-154.44626739999998
 30
0.0
 11
41.799980924634148
 21
-157.07420796465033
 31
0.0
 70
               3
 71
               5
 72
               1
 41
1.0
 42
0.0
  1
0.7 x 0.35 mm 
  3
IE Standard
100
AcDbDiametricDimension
 15
33.177721599999991
 25
-154.7687474
 35
0.0
 40
7.0120999999999993
1001
ACAD
1000
DSTYLE
1002
{
1070
             271
1070
               4
1070
             172
1070
               0
1070
             289
1070
               0
1070
             342
1005
5C
1070
             340
1005
3A
1070
              75
1070
               1
1070
              76
1070
               1
1070
             174
1070
               0
1070
             147
1040
0.132291534375
1002
}
  0
DIMENSION
  5
355
100
AcDbEntity
  8
Dimension
370
               5
390
0
  6
Continuous
 62
              12
100
AcDbDimension
  2
*D14
 10
25.095001599999993
 20
-166.2000074
 30
0.0
 11
29.279070661279292
 21
-166.2000074
 31
0.0
 70
             128
 71
               5
 72
               1
 41
1.0
 42
0.0
  3
IE Standard
100
AcDbAlignedDimension
 13
33.145001599999993
 23
-154.88250739999998
 33
0.0
 14
25.095001599999993
 24
-154.88250739999998
 34
0.0
100
AcDbRotatedDimension
1001
ACAD
1000
DSTYLE
1002
{
1070
             340
1005
3A
1070
             147
1040
0.132291534375
1002
}
  0
DIMENSION
  5
356
100
AcDbEntity
  8
Dimension
370
               5
390
0
  6
Continuous
 62
              12
100
AcDbDimension
  2
*D15
 10
9.5500015999999945
 20
-149.68250739999999
 30
0.0
 11
9.5500015999999945
 21
-152.99350135751953
 31
0.0
 70
             128
 71
               5
 72
               1
 41
1.0
 42
0.0
  3
IE Standard
100
AcDbAlignedDimension
 13
25.945001599999994
 23
-155.7325074
 33
0.0
 14
25.945001599999994
 24
-149.68250739999999
 34
0.0
 50
90.0
100
AcDbRotatedDimension
1001
ACAD
1000
DSTYLE
1002
{
1070
             340
1005
3A
1070
             147
1040
0.132291534375
1002
}
  0
DIMENSION
  5
357
100
AcDbEntity
  8
Dimension
370
               5
390
0
  6
Continuous
 62
              12
100
AcDbDimension
  2
*D16
 10
15.000001599999994
 20
-150.53250739999999
 30
0.0
 11
15.000001599999994
 21
-152.79266746469725
 31
0.0
 70
             128
 71
               5
 72
               1
 41
1.0
 42
0.0
  3
IE Standard
100
AcDbAlignedDimension
 13
25.095001599999993
 23
-154.88250739999998
 33
0.0
 14
25.095001599999993
 24
-150.53250739999999
 34
0.0
 50
90.0
100
AcDbRotatedDimension
1001
ACAD
1000
DSTYLE
1002
{
1070
             340
1005
3A
1070
             147
1040
0.132291534375
1002
}
  0
DIMENSION
  5
358
100
AcDbEntity
  8
Dimension
370
               5
390
0
  6
Continuous
 62
              12
100
AcDbDimension
  2
*D17
 10
25.945001599999994
 20
-163.40784739999998
 30
0.0
 11
29.094421766015618
 21
-163.40784739999998
 31
0.0
 70
             128
 71
               5
 72
               1
 41
1.0
 42
0.0
  3
IE Standard
100
AcDbAlignedDimension
 13
32.295001599999992
 23
-155.7325074
 33
0.0
 14
25.945001599999994
 24
-155.7325074
 34
0.0
100
AcDbRotatedDimension
1001
ACAD
1000
DSTYLE
1002
{
1070
             340
1005
3A
1070
             147
1040
0.132291534375
1002
}
  0
DIMENSION
  5
359
100
AcDbEntity
  8
Dimension
370
               5
390
0
  6
Continuous
 62
              12
100
AcDbDimension
  2
*D18
 10
22.507501599999994
 20
-136.5500074
 30
0.0
 11
24.500001599999994
 21
-136.5500074
 31
0.0
 70
             128
 71
               5
 72
               1
 41
1.0
 42
0.0
  3
IE Standard
100
AcDbAlignedDimension
 13
21.257501599999994
 23
-145.09500739999999
 33
0.0
 14
22.507501599999994
 24
-146.34500739999999
 34
0.0
100
AcDbRotatedDimension
1001
ACAD
1000
DSTYLE
1002
{
1070
             271
1070
               3
1070
             340
1005
3A
1070
              71
1070
               1
1070
              47
1040
0.125
1070
              48
1040
0.125
1070
               3
1000
<>mm (x4)
1070
             174
1070
               0
1070
             147
1040
0.132291534375
1002
}
  0
DIMENSION
  5
35A
100
AcDbEntity
  8
Dimension
370
               5
390
0
  6
Continuous
 62
              12
100
AcDbDimension
  2
*D19
 10
10.900001599999994
 20
-145.09500739999999
 30
0.0
 11
10.900001599999994
 21
-142.3000074
 31
0.0
 70
             128
 71
               5
 72
               1
 41
1.0
 42
0.0
  3
IE Standard
100
AcDbAlignedDimension
 13
22.507501599999994
 23
-146.34500739999999
 33
0.0
 14
21.257501599999994
 24
-145.09500739999999
 34
0.0
 50
90.0
100
AcDbRotatedDimension
1001
ACAD
1000
DSTYLE
1002
{
1070
             340
1005
3A
1070
              71
1070
               1
1070
              47
1040
0.125
1070
              48
1040
0.125
1070
               3
1000
<>mm (x4)
1070
             174
1070
               0
1070
             147
1040
0.132291534375
1002
}
  0
LINE
  5
35B
100
AcDbEntity
  8
None
370
               5
390
0
  6
Continuous
 62
               1
100
AcDbLine
 10
11.296611599999995
 20
-136.02398740000001
 30
0.0
 11
13.800001599999995
 21
-136.02398740000001
 31
0.0
  0
LINE
  5
35C
100
AcDbEntity
  8
None
370
               5
390
0
  6
Continuous
 62
              12
100
AcDbLine
 10
13.800001599999995
 20
-136.02398740000001
 30
0.0
 11
24.632501599999994
 21
-146.55756739999998
 31
0.0
  0
SOLID
  5
35D
100
AcDbEntity
  8
None
370
               5
390
0
 62
              12
100
AcDbTrace
 10
24.632501599999994
 20
-146.55756739999998
 30
0.0
 11
24.025092025160973
 21
-146.20687931845833
 31
0.0
 12
24.281813518458328
 22
-145.95015782516097
 32
0.0
 13
24.281813518458328
 23
-145.95015782516097
 33
0.0
  0
DIMENSION
  5
35E
100
AcDbEntity
  8
Dimension
370
               5
390
0
  6
Continuous
 62
              12
100
AcDbDimension
  2
*D20
 10
34.473841599999993
 20
-158.8008174
 30
0.0
 11
43.766588795976489
 21
-161.38845380117226
 31
0.0
 70
               3
 71
               5
 72
               1
 41
1.0
 42
0.0
  3
IE Standard
100
AcDbDiametricDimension
 15
35.991161599999991
 25
-159.33919739999999
 35
0.0
 40
6.1282199999999998
1001
ACAD
1000
DSTYLE
1002
{
1070
             271
1070
               3
1070
             172
1070
               0
1070
             289
1070
               0
1070
             342
1005
5C
1070
             340
1005
3A
1070
              75
1070
               1
1070
              76
1070
               1
1070
              71
1070
               1
1070
              47
1040
0.05
1070
              48
1040
0.05
1070
               3
1000
mm (x4)
1070
             174
1070
               0
1070
             147
1040
0.132291534375
1002
}
  0
DIMENSION
  5
35F
100
AcDbEntity
  8
Dimension
370
               5
390
0
  6
Continuous
 62
              12
100
AcDbDimension
  2
*D21
 10
34.932411599999995
 20
-149.18595740000001
 30
0.0
 11
43.399911429948503
 21
-142.69991694971011
 31
0.0
 70
               3
 71
               5
 72
               1
 41
1.0
 42
0.0
  3
IE Standard
100
AcDbDiametricDimension
 15
35.532591599999989
 25
-148.58405740000001
 35
0.0
 40
8.3095499999999998
1001
ACAD
1000
DSTYLE
1002
{
1070
             271
1070
               3
1070
             172
1070
               0
1070
             289
1070
               0
1070
             342
1005
5C
1070
             340
1005
3A
1070
              75
1070
               1
1070
              76
1070
               1
1070
              71
1070
               1
1070
              48
1040
0.025
1070
               3
1000
mm (x2)
1070
             174
1070
               0
1070
             147
1040
0.132291534375
1002
}
  0
WIPEOUT
  5
360
100
AcDbEntity
  8
None
370
               5
390
0
  6
Continuous
 62
               1
 92
        0
100
AcDbWipeout
 90
        0
 10
49.960211599999994
 20
24.686472099999992
 30
0.0
 11
4.7730682608602528
 21
0.0
 31
0.0
 12
0.0
 22
4.7730682608602528
 32
0.0
 13
1.0
 23
1.0
340
0
 70
               7
280
               1
281
              50
282
              50
283
               0
360
0
 71
               2
 91
        5
 14
-0.5
 24
38.702047202052078
 14
0.4999999999999992
 24
38.702047202052078
 14
0.4999999999999992
 24
38.447058286435634
 14
-0.5
 24
38.447058286435634
 14
-0.5
 24
38.702047202052078
  0
MTEXT
  5
361
100
AcDbEntity
  8
None
390
0
 62
               1
100
AcDbMText
 10
49.960211599999994
 20
-156.63200578020832
 30
0.0
 40
0.7579186197916666
 41
0.0
 71
               1
 72
               1
  1
pad (x 44)
  7
Arial
 73
               1
 44
0.9673603504928808
  0
WIPEOUT
  5
362
100
AcDbEntity
  8
None
370
               5
390
0
  6
Continuous
 62
               7
 92
        0
100
AcDbWipeout
 90
        0
 10
31.000001599999994
 20
2.9409855999999976
 30
0.0
 11
37.15452098481903
 21
0.0
 31
0.0
 12
0.0
 22
37.15452098481903
 32
0.0
 13
1.0
 23
1.0
340
0
 70
               7
280
               1
281
              50
282
              50
283
               0
360
0
 71
               2
 91
        5
 14
-0.5
 24
5.4076390750536856
 14
0.5
 24
5.4076390750536856
 14
0.5
 24
5.2329333911168048
 14
-0.5
 24
5.2329333911168048
 14
-0.5
 24
5.4076390750536856
  0
MTEXT
  5
363
100
AcDbEntity
  8
None
390
0
 62
               7
100
AcDbMText
 10
31.000001599999994
 20
-173.168325853125
 30
0.0
 40
1.0105605468749999
 41
0.0
 71
               1
 72
               1
  1
**** To effectively conduct heat away from the package a \Pthermal pad is recommended with vias spaced\P1.0 to 1.2 mm pitch and a diameter of 0.3 to 0.33 mm.  \PIdeally 1 via for every 3 leads has been shown to work well.
  7
Arial
 73
               1
 44
0.9673603504928805
  0
LINE
  5
364
100
AcDbEntity
  8
None
370
               5
390
0
  6
Continuous
 62
               7
100
AcDbLine
 10
44.600001599999992
 20
-172.9088874
 30
0.0
 11
44.600001599999992
 21
-169.10888739999999
 31
0.0
  0
LINE
  5
365
100
AcDbEntity
  8
None
370
               5
390
0
  6
Continuous
 62
               7
100
AcDbLine
 10
44.600001599999992
 20
-169.10888739999999
 30
0.0
 11
29.391121599999991
 21
-153.90000739999999
 31
0.0
  0
SOLID
  5
366
100
AcDbEntity
  8
None
370
               5
390
0
 62
               7
100
AcDbTrace
 10
29.391121599999991
 20
-153.90000739999999
 30
0.0
 11
30.339996359168808
 21
-154.44784049763336
 31
0.0
 12
29.938954697633349
 22
-154.8488821591688
 32
0.0
 13
29.938954697633349
 23
-154.8488821591688
 33
0.0
  0
DIMENSION
  5
367
100
AcDbEntity
  8
Dimension
370
               5
390
0
  6
Continuous
 62
              12
100
AcDbDimension
  2
*D22
 10
26.070001599999994
 20
-161.90000739999999
 30
0.0
 11
29.120001599999995
 21
-161.90000739999999
 31
0.0
 71
               5
 72
               1
 41
1.0
 42
0.0
  3
IE Standard
100
AcDbAlignedDimension
 13
32.170001599999992
 23
-153.9500074
 33
0.0
 14
26.070001599999994
 24
-153.9500074
 34
0.0
100
AcDbRotatedDimension
1001
ACAD
1000
DSTYLE
1002
{
1070
             340
1005
3A
1070
             140
1040
0.8421373697916665
1070
             147
1040
0.132291534375
1002
}
  0
DIMENSION
  5
368
100
AcDbEntity
  8
Dimension
370
               5
390
0
  6
Continuous
 62
              12
100
AcDbDimension
  2
*D23
 10
38.600001599999992
 20
-150.9575074
 30
0.0
 11
38.600001599999992
 21
-152.7075074
 31
0.0
 71
               5
 72
               1
 41
1.0
 42
0.0
  3
IE Standard
100
AcDbAlignedDimension
 13
31.700001599999993
 23
-154.4575074
 33
0.0
 14
31.700001599999993
 24
-150.9575074
 34
0.0
 50
90.0
100
AcDbRotatedDimension
1001
ACAD
1000
DSTYLE
1002
{
1070
             340
1005
3B
1070
             140
1040
0.8421373697916665
1070
             147
1040
0.132291534375
1002
}
  0
ENDSEC
  0
SECTION
  2
OBJECTS
  0
DICTIONARY
  5
19
100
AcDbDictionary
280
               0
281
               1
  3
ACAD_GROUP
350
1A
  3
ACAD_MLINESTYLE
350
1B
  3
ACAD_LAYOUT
350
1E
  3
ACAD_PLOTSETTINGS
350
22
  3
ACAD_PLOTSTYLENAME
350
1F
  3
ACAD_WIPEOUT_VARS
350
23
  0
DICTIONARY
  5
1A
102
{ACAD_REACTORS
330
19
102
}
100
AcDbDictionary
280
               0
281
               1
  0
DICTIONARY
  5
1B
102
{ACAD_REACTORS
330
19
102
}
100
AcDbDictionary
280
               0
281
               1
  3
Standard
350
1C
  0
MLINESTYLE
  5
1C
102
{ACAD_REACTORS
330
1B
102
}
100
AcDbMlineStyle
  2
Standard
 70
               0
  3

 62
               0
 51
90.0
 52
90.0
 71
               2
 49
0.5
 62
             256
  6
ByLayer
 49
-0.5
 62
             256
  6
ByLayer
  0
ACDBDICTIONARYWDFLT
  5
1F
102
{ACAD_REACTORS
330
19
102
}
100
AcDbDictionary
281
               1
  3
Normal
350
1D
100
AcDbDictionaryWithDefault
340
1D
  0
ACDBPLACEHOLDER
  5
1D
102
{ACAD_REACTORS
330
1F
102
}
  0
LAYOUT
  5
20
102
{ACAD_REACTORS
330
1E
102
}
100
AcDbPlotSettings
  1

  2

  4

  6

 40
0.0
 41
0.0
 42
0.0
 43
0.0
 44
0.0
 45
0.0
 46
0.0
 47
0.0
 48
0.0
 49
0.0
140
0.0
141
0.0
142
1.0
143
1.0
 70
            1024
 72
               0
 73
               0
 74
               0
  7

 75
               0
147
1.0
148
0.0
149
0.0
100
AcDbLayout
  1
Model
 70
               0
 71
               0
 10
0.0
 20
0.0
 11
0.0
 21
0.0
 12
0.0
 22
0.0
 32
0.0
 14
0.0
 24
0.0
 34
0.0
 15
0.0
 25
0.0
 35
0.0
146
0.0
 13
0.0
 23
0.0
 33
0.0
 16
0.0
 26
0.0
 36
0.0
 17
0.0
 27
0.0
 37
0.0
 76
               0
330
A
331
0
345
0
346
0
  0
LAYOUT
  5
21
102
{ACAD_REACTORS
330
1E
102
}
100
AcDbPlotSettings
  1

  2

  4

  6

 40
0.0
 41
0.0
 42
0.0
 43
0.0
 44
0.0
 45
0.0
 46
0.0
 47
0.0
 48
0.0
 49
0.0
140
0.0
141
0.0
142
1.0
143
1.0
 70
               0
 72
               0
 73
               0
 74
               0
  7

 75
               0
147
1.0
148
0.0
149
0.0
100
AcDbLayout
  1
Layout1
 70
               0
 71
               0
 10
0.0
 20
0.0
 11
0.0
 21
0.0
 12
0.0
 22
0.0
 32
0.0
 14
0.0
 24
0.0
 34
0.0
 15
0.0
 25
0.0
 35
0.0
146
0.0
 13
0.0
 23
0.0
 33
0.0
 16
0.0
 26
0.0
 36
0.0
 17
0.0
 27
0.0
 37
0.0
 76
               0
330
B
331
0
345
0
346
0
  0
DICTIONARY
  5
1E
102
{ACAD_REACTORS
330
19
102
}
100
AcDbDictionary
280
               0
281
               1
  3
Layout1
350
21
  3
Model
350
20
  0
DICTIONARY
  5
22
102
{ACAD_REACTORS
330
19
102
}
100
AcDbDictionary
280
               0
281
               1
  0
WIPEOUTVARIABLES
  5
23
100
AcDbWipeoutVariables
 70
               0
  0
ENDSEC
  0
EOF
