  0
SECTION
  2
HEADER
  9
$ACADVER
  1
AC1015
  9
$ACADMAINTVER
 70
               6
  9
$DWGCODEPAGE
  3
ANSI_1252
  9
$INSBASE
 10
0.0
 20
0.0
 30
0.0
  9
$EXTMIN
 10
4.9730646840599952
 20
1.21414970640687
 30
-0.677334688
  9
$EXTMAX
 10
47.693880125519996
 20
33.890002517599996
 30
0.677334688
  9
$LIMMIN
 10
0.0
 20
0.0
  9
$LIMMAX
 10
0.0
 20
0.0
  9
$ORTHOMODE
 70
               0
  9
$REGENMODE
 70
               1
  9
$FILLMODE
 70
               1
  9
$QTEXTMODE
 70
               0
  9
$MIRRTEXT
 70
               1
  9
$LTSCALE
 40
4.2333417999999998
  9
$ATTMODE
 70
               1
  9
$TEXTSIZE
 40
0.2
  9
$TRACEWID
 40
1.0
  9
$TEXTSTYLE
  7
Standard
  9
$CLAYER
  8
None
  9
$CELTYPE
  6
Continuous
  9
$CECOLOR
 62
             256
  9
$CELTSCALE
 40
1.0
  9
$DISPSILH
 70
               0
  9
$DIMSCALE
 40
1.0
  9
$DIMASZ
 40
0.529167725
  9
$DIMEXO
 40
0.3175006357885214
  9
$DIMDLI
 40
6.9999859934672708
  9
$DIMRND
 40
0.0
  9
$DIMDLE
 40
0.0
  9
$DIMEXE
 40
0.6350012715770428
  9
$DIMTP
 40
0.0
  9
$DIMTM
 40
0.0
  9
$DIMTXT
 40
0.4210651041666666
  9
$DIMCEN
 40
0.0
  9
$DIMTSZ
 40
0.0
  9
$DIMTOL
 70
               0
  9
$DIMLIM
 70
               0
  9
$DIMTIH
 70
               1
  9
$DIMTOH
 70
               1
  9
$DIMSE1
 70
               0
  9
$DIMSE2
 70
               0
  9
$DIMTAD
 70
               0
  9
$DIMZIN
 70
              11
  9
$DIMBLK
  1
VW_FILLEDARROW
  9
$DIMASO
 70
               1
  9
$DIMSHO
 70
               1
  9
$DIMPOST
  1
<>mm
  9
$DIMAPOST
  1
[]"
  9
$DIMALT
 70
               0
  9
$DIMALTD
 70
               3
  9
$DIMALTF
 40
0.0393700787401575
  9
$DIMLFAC
 40
1.0
  9
$DIMTOFL
 70
               1
  9
$DIMTVP
 40
0.0
  9
$DIMTIX
 70
               1
  9
$DIMSOXD
 70
               0
  9
$DIMSAH
 70
               0
  9
$DIMBLK1
  1

  9
$DIMBLK2
  1

  9
$DIMSTYLE
  2
IE Standard
  9
$DIMCLRD
 70
               0
  9
$DIMCLRE
 70
               0
  9
$DIMCLRT
 70
               0
  9
$DIMTFAC
 40
1.0
  9
$DIMGAP
 40
0.0
  9
$DIMJUST
 70
               0
  9
$DIMSD1
 70
               0
  9
$DIMSD2
 70
               0
  9
$DIMTOLJ
 70
               1
  9
$DIMTZIN
 70
              11
  9
$DIMALTZ
 70
               3
  9
$DIMALTTZ
 70
               3
  9
$DIMUPT
 70
               0
  9
$DIMDEC
 70
               2
  9
$DIMTDEC
 70
               2
  9
$DIMALTU
 70
               2
  9
$DIMALTTD
 70
               2
  9
$DIMTXSTY
  7
Helvetica
  9
$DIMAUNIT
 70
               0
  9
$DIMADEC
 70
               0
  9
$DIMALTRND
 40
0.0
  9
$DIMAZIN
 70
               0
  9
$DIMDSEP
 70
              46
  9
$DIMATFIT
 70
               0
  9
$DIMFRAC
 70
               2
  9
$DIMLDRBLK
  1

  9
$DIMLUNIT
 70
               2
  9
$DIMLWD
 70
              -2
  9
$DIMLWE
 70
              -2
  9
$DIMTMOVE
 70
               0
  9
$LUNITS
 70
               2
  9
$LUPREC
 70
               4
  9
$SKETCHINC
 40
0.1
  9
$FILLETRAD
 40
0.0
  9
$AUNITS
 70
               0
  9
$AUPREC
 70
               0
  9
$MENU
  1
acad
  9
$ELEVATION
 40
0.0
  9
$PELEVATION
 40
0.0
  9
$THICKNESS
 40
0.0
  9
$LIMCHECK
 70
               0
  9
$CHAMFERA
 40
0.0
  9
$CHAMFERB
 40
0.0
  9
$CHAMFERC
 40
0.0
  9
$CHAMFERD
 40
0.0
  9
$SKPOLY
 70
               0
  9
$TDCREATE
 40
2454683.602870370
  9
$TDUCREATE
 40
0.000000000
  9
$TDUPDATE
 40
2454683.602870370
  9
$TDUUPDATE
 40
0.000000000
  9
$TDINDWG
 40
0.0000000000
  9
$TDUSRTIMER
 40
0.0000000000
  9
$USRTIMER
 70
               1
  9
$ANGBASE
 50
0.0
  9
$ANGDIR
 70
               0
  9
$PDMODE
 70
               1
  9
$PDSIZE
 40
-2.0
  9
$PLINEWID
 40
0.0
  9
$SPLFRAME
 70
               0
  9
$SPLINETYPE
 70
               6
  9
$SPLINESEGS
 70
               8
  9
$HANDSEED
  5
1E1
  9
$SURFTAB1
 70
               6
  9
$SURFTAB2
 70
               6
  9
$SURFTYPE
 70
               6
  9
$SURFU
 70
               6
  9
$SURFV
 70
               6
  9
$UCSBASE
  2

  9
$UCSNAME
  2

  9
$UCSORG
 10
0.0
 20
0.0
 30
0.0
  9
$UCSXDIR
 10
1.0
 20
0.0
 30
0.0
  9
$UCSYDIR
 10
0.0
 20
1.0
 30
0.0
  9
$UCSORTHOREF
  2

  9
$UCSORTHOVIEW
 70
               0
  9
$UCSORGTOP
 10
0.0
 20
0.0
 30
0.0
  9
$UCSORGBOTTOM
 10
0.0
 20
0.0
 30
0.0
  9
$UCSORGLEFT
 10
0.0
 20
0.0
 30
0.0
  9
$UCSORGRIGHT
 10
0.0
 20
0.0
 30
0.0
  9
$UCSORGFRONT
 10
0.0
 20
0.0
 30
0.0
  9
$UCSORGBACK
 10
0.0
 20
0.0
 30
0.0
  9
$PUCSBASE
  2

  9
$PUCSNAME
  2

  9
$PUCSORG
 10
0.0
 20
0.0
 30
0.0
  9
$PUCSXDIR
 10
1.0
 20
0.0
 30
0.0
  9
$PUCSYDIR
 10
0.0
 20
1.0
 30
0.0
  9
$PUCSORTHOREF
  2

  9
$PUCSORTHOVIEW
 70
               0
  9
$PUCSORGTOP
 10
0.0
 20
0.0
 30
0.0
  9
$PUCSORGBOTTOM
 10
0.0
 20
0.0
 30
0.0
  9
$PUCSORGLEFT
 10
0.0
 20
0.0
 30
0.0
  9
$PUCSORGRIGHT
 10
0.0
 20
0.0
 30
0.0
  9
$PUCSORGFRONT
 10
0.0
 20
0.0
 30
0.0
  9
$PUCSORGBACK
 10
0.0
 20
0.0
 30
0.0
  9
$USERI1
 70
               0
  9
$USERI2
 70
               0
  9
$USERI3
 70
               0
  9
$USERI4
 70
               0
  9
$USERI5
 70
               0
  9
$USERR1
 40
0.0
  9
$USERR2
 40
0.0
  9
$USERR3
 40
0.0
  9
$USERR4
 40
0.0
  9
$USERR5
 40
0.0
  9
$WORLDVIEW
 70
               1
  9
$SHADEDGE
 70
               3
  9
$SHADEDIF
 70
              70
  9
$TILEMODE
 70
               1
  9
$MAXACTVP
 70
              64
  9
$PINSBASE
 10
0.0
 20
0.0
 30
0.0
  9
$PLIMCHECK
 70
               0
  9
$PEXTMIN
 10
1.0000000000000000E+20
 20
1.0000000000000000E+20
 30
1.0000000000000000E+20
  9
$PEXTMAX
 10
-1.0000000000000000E+20
 20
-1.0000000000000000E+20
 30
-1.0000000000000000E+20
  9
$PLIMMIN
 10
0.0
 20
0.0
  9
$PLIMMAX
 10
12.0
 20
9.0
  9
$UNITMODE
 70
               0
  9
$VISRETAIN
 70
               0
  9
$PLINEGEN
 70
               1
  9
$PSLTSCALE
 70
               0
  9
$TREEDEPTH
 70
            3020
  9
$CMLSTYLE
  2
Standard
  9
$CMLJUST
 70
               0
  9
$CMLSCALE
 40
1.0
  9
$PROXYGRAPHICS
 70
               0
  9
$MEASUREMENT
 70
               1
  9
$CELWEIGHT
370
               0
  9
$ENDCAPS
280
               0
  9
$JOINSTYLE
280
               0
  9
$LWDISPLAY
290
               1
  9
$INSUNITS
 70
               4
  9
$HYPERLINKBASE
  1

  9
$STYLESHEET
  1

  9
$XEDIT
290
               1
  9
$CEPSNTYPE
380
               0
  9
$PSTYLEMODE
290
               1
  9
$FINGERPRINTGUID
  2

  9
$VERSIONGUID
  2

  9
$EXTNAMES
290
               1
  9
$PSVPSCALE
 40
0.0
  0
ENDSEC
  0
SECTION
  2
CLASSES
  0
CLASS
  1
LWPOLYLINE
  2
AcDbPolyline
  3
AutoCAD 2000
 90
        0
280
               0
281
               1
  0
CLASS
  1
IMAGE
  2
AcDbRasterImage
  3
ISM
 90
      127
280
               0
281
               1
  0
CLASS
  1
OLE2FRAME
  2
AcDbOle2Frame
  3
AutoCAD 2000
 90
        0
280
               0
281
               1
  0
CLASS
  1
HATCH
  2
AcDbHatch
  3
AutoCAD 2000
 90
        0
280
               0
281
               1
  0
CLASS
  1
DICTIONARYVAR
  2
AcDbDictionaryVar
  3
AutoCAD 2000
 90
        0
280
               0
281
               0
  0
CLASS
  1
RASTERVARIABLES
  2
AcDbRasterVariables
  3
ISM
 90
        0
280
               0
281
               0
  0
CLASS
  1
IMAGEDEF
  2
AcDbRasterImageDef
  3
ISM
 90
        0
280
               0
281
               0
  0
CLASS
  1
IMAGEDEF_REACTOR
  2
AcDbRasterImageDefReactor
  3
ISM
 90
        1
280
               0
281
               0
  0
CLASS
  1
IDBUFFER
  2
AcDbIdBuffer
  3
AutoCAD 2000
 90
        0
280
               0
281
               0
  0
CLASS
  1
SPATIAL_FILTER
  2
AcDbSpatialFilter
  3
AutoCAD 2000
 90
        0
280
               0
281
               0
  0
CLASS
  1
XRECORD
  2
AcDbXrecord
  3
AutoCAD 2000
 90
        0
280
               0
281
               0
  0
CLASS
  1
SORTENTSTABLE
  2
AcDbSortentsTable
  3
AutoCAD 2000
 90
        0
280
               0
281
               0
  0
CLASS
  1
LAYER_INDEX
  2
AcDbLayerIndex
  3
AutoCAD 2000
 90
        0
280
               0
281
               0
  0
CLASS
  1
SPATIAL_INDEX
  2
AcDbSpatialIndex
  3
AutoCAD 2000
 90
        0
280
               0
281
               0
  0
CLASS
  1
OBJECT_PTR
  2
CAseDLPNTableRecord
  3
"ASE-LPNTableRecord"
 90
        1
280
               0
281
               0
  0
CLASS
  1
LAYOUT
  2
AcDbLayout
  3
AutoCAD 2000
 90
        0
280
               0
281
               0
  0
CLASS
  1
PLOTSETTINGS
  2
AcDbPlotSettings
  3
AutoCAD 2000
 90
        0
280
               0
281
               0
  0
CLASS
  1
ACDBDICTIONARYWDFLT
  2
AcDbDictionaryWithDefault
  3
AutoCAD 2000
 90
        0
280
               0
281
               0
  0
CLASS
  1
ACDBPLACEHOLDER
  2
AcDbPlaceHolder
  3
AutoCAD 2000
 90
        0
280
               0
281
               0
  0
CLASS
  1
VBA_PROJECT
  2
AcDbVbaProject
  3
acadvba
 90
        0
280
               0
281
               0
  0
CLASS
  1
WIPEOUT
  2
AcDbWipeout
  3
WipeOut|AutoCAD Express Tool|expresstools@autodesk.com
 90
      127
280
               0
281
               1
  0
CLASS
  1
WIPEOUTVARIABLES
  2
AcDbWipeoutVariables
  3
WipeOut|AutoCAD Express Tool|expresstools@autodesk.com
 90
        0
280
               0
281
               0
  0
CLASS
  1
RTEXT
  2
RText
  3
RText|AutoCAD Express Tool|expresstools@autodesk.com
 90
        0
280
               0
281
               1
  0
CLASS
  1
ARCALIGNEDTEXT
  2
AcDbArcAlignedText
  3
ATEXT|AutoCAD Express Tool|expresstools@autodesk.com
 90
        0
280
               0
281
               1
  0
ENDSEC
  0
SECTION
  2
TABLES
  0
TABLE
  2
VPORT
  5
7
100
AcDbSymbolTable
 70
               1
  0
VPORT
  5
15
100
AcDbSymbolTableRecord
100
AcDbViewportTableRecord
  2
*ACTIVE
 70
               0
 10
0.0
 20
0.0
 11
1.0
 21
1.0
 12
26.333472404789998
 22
17.552076112003434
 13
0.0
 23
0.0
 14
1.0
 24
1.0
 15
0.0
 25
0.0
 16
0.0
 26
0.0
 36
1.0
 17
0.0
 27
0.0
 37
0.0
 40
32.675852811193124
 41
0.688564
 42
50.0
 43
0.0
 44
0.0
 50
0.0
 51
0.0
 71
               0
 72
            2000
 73
               1
 74
               1
 75
               0
 76
               0
 77
               0
 78
               0
281
               0
 65
               0
110
0.0
120
0.0
130
0.0
111
1.0
121
0.0
131
0.0
112
0.0
122
1.0
132
0.0
345
0
346
0
 79
               0
146
0.0
  0
ENDTAB
  0
TABLE
  2
LTYPE
  5
4
100
AcDbSymbolTable
 70
              21
  0
LTYPE
  5
11
100
AcDbSymbolTableRecord
100
AcDbLinetypeTableRecord
  2
ByBlock
 70
              64
  3

 72
              65
 73
               0
 40
0.0
  0
LTYPE
  5
12
100
AcDbSymbolTableRecord
100
AcDbLinetypeTableRecord
  2
ByLayer
 70
              64
  3

 72
              65
 73
               0
 40
0.0
  0
LTYPE
  5
13
100
AcDbSymbolTableRecord
100
AcDbLinetypeTableRecord
  2
Continuous
 70
              64
  3
Solid line
 72
              65
 73
               0
 40
0.0
  0
LTYPE
  5
38
100
AcDbSymbolTableRecord
100
AcDbLinetypeTableRecord
  2
STYLE_01
 70
               0
  3

 72
              65
 73
               2
 40
1.5
 49
1.0
 74
               0
 49
-0.5
 74
               0
  0
LTYPE
  5
39
100
AcDbSymbolTableRecord
100
AcDbLinetypeTableRecord
  2
STYLE_02
 70
               0
  3

 72
              65
 73
               2
 40
0.75
 49
0.5
 74
               0
 49
-0.25
 74
               0
  0
LTYPE
  5
3A
100
AcDbSymbolTableRecord
100
AcDbLinetypeTableRecord
  2
STYLE_03
 70
               0
  3

 72
              65
 73
               4
 40
4.0
 49
0.25
 74
               0
 49
-0.5
 74
               0
 49
0.5
 74
               0
 49
-0.5
 74
               0
  0
LTYPE
  5
3B
100
AcDbSymbolTableRecord
100
AcDbLinetypeTableRecord
  2
STYLE_04
 70
               0
  3

 72
              65
 73
               4
 40
5.0
 49
2.5
 74
               0
 49
-0.5
 74
               0
 49
0.5
 74
               0
 49
-0.5
 74
               0
  0
LTYPE
  5
3C
100
AcDbSymbolTableRecord
100
AcDbLinetypeTableRecord
  2
STYLE_05
 70
               0
  3

 72
              65
 73
               2
 40
0.5
 49
0.0001
 74
               0
 49
-0.4999
 74
               0
  0
LTYPE
  5
3D
100
AcDbSymbolTableRecord
100
AcDbLinetypeTableRecord
  2
STYLE_06
 70
               0
  3

 72
              65
 73
               4
 40
2.0
 49
1.0
 74
               0
 49
-0.5
 74
               0
 49
0.0001
 74
               0
 49
-0.4999
 74
               0
  0
LTYPE
  5
3E
100
AcDbSymbolTableRecord
100
AcDbLinetypeTableRecord
  2
STYLE_07
 70
               0
  3

 72
              65
 73
               6
 40
3.5
 49
1.0
 74
               0
 49
-0.5
 74
               0
 49
1.0
 74
               0
 49
-0.5
 74
               0
 49
0.0001000000000002
 74
               0
 49
-0.4998999999999998
 74
               0
  0
LTYPE
  5
3F
100
AcDbSymbolTableRecord
100
AcDbLinetypeTableRecord
  2
STYLE_08
 70
               0
  3

 72
              65
 73
               6
 40
2.5
 49
1.0
 74
               0
 49
-0.5
 74
               0
 49
0.0001
 74
               0
 49
-0.4999
 74
               0
 49
0.0001000000000002
 74
               0
 49
-0.4998999999999998
 74
               0
  0
LTYPE
  5
40
100
AcDbSymbolTableRecord
100
AcDbLinetypeTableRecord
  2
STYLE_09
 70
               0
  3

 72
              65
 73
               2
 40
0.09722900390625
 49
0.0555572509765625
 74
               0
 49
-0.0416717529296875
 74
               0
  0
LTYPE
  5
41
100
AcDbSymbolTableRecord
100
AcDbLinetypeTableRecord
  2
STYLE_10
 70
               0
  3

 72
              65
 73
               4
 40
0.59722900390625
 49
0.3055572509765625
 74
               0
 49
-0.15277099609375
 74
               0
 49
0.013885498046875
 74
               0
 49
-0.1250152587890625
 74
               0
  0
LTYPE
  5
42
100
AcDbSymbolTableRecord
100
AcDbLinetypeTableRecord
  2
STYLE_11
 70
               0
  3

 72
              65
 73
               4
 40
0.4305572509765625
 49
0.236114501953125
 74
               0
 49
-0.0833282470703125
 74
               0
 49
0.013885498046875
 74
               0
 49
-0.09722900390625
 74
               0
  0
LTYPE
  5
43
100
AcDbSymbolTableRecord
100
AcDbLinetypeTableRecord
  2
STYLE_12
 70
               0
  3

 72
              65
 73
               2
 40
0.0833282470703125
 49
0.0555572509765625
 74
               0
 49
-0.02777099609375
 74
               0
  0
LTYPE
  5
44
100
AcDbSymbolTableRecord
100
AcDbLinetypeTableRecord
  2
STYLE_13
 70
               0
  3

 72
              65
 73
               4
 40
0.068511962890625
 49
0.0428314208984375
 74
               0
 49
-0.0085601806640625
 74
               0
 49
0.0085601806640625
 74
               0
 49
-0.0085601806640625
 74
               0
  0
LTYPE
  5
45
100
AcDbSymbolTableRecord
100
AcDbLinetypeTableRecord
  2
STYLE_14
 70
               0
  3

 72
              65
 73
               2
 40
0.02569580078125
 49
0.0171356201171875
 74
               0
 49
-0.0085601806640625
 74
               0
  0
LTYPE
  5
46
100
AcDbSymbolTableRecord
100
AcDbLinetypeTableRecord
  2
STYLE_15
 70
               0
  3

 72
              65
 73
               6
 40
0.08563232421875
 49
0.0428314208984375
 74
               0
 49
-0.0085601806640625
 74
               0
 49
0.0085601806640625
 74
               0
 49
-0.0085601806640625
 74
               0
 49
0.0085601806640625
 74
               0
 49
-0.0085601806640625
 74
               0
  0
LTYPE
  5
47
100
AcDbSymbolTableRecord
100
AcDbLinetypeTableRecord
  2
STYLE_16
 70
               0
  3

 72
              65
 73
               2
 40
0.375
 49
0.25
 74
               0
 49
-0.125
 74
               0
  0
LTYPE
  5
48
100
AcDbSymbolTableRecord
100
AcDbLinetypeTableRecord
  2
STYLE_17
 70
               0
  3

 72
              65
 73
               4
 40
0.2083282470703125
 49
0.111114501953125
 74
               0
 49
-0.041656494140625
 74
               0
 49
0.013885498046875
 74
               0
 49
-0.0416717529296875
 74
               0
  0
LTYPE
  5
49
100
AcDbSymbolTableRecord
100
AcDbLinetypeTableRecord
  2
STYLE_18
 70
               0
  3

 72
              65
 73
               4
 40
0.2083282470703125
 49
0.125
 74
               0
 49
-0.041656494140625
 74
               0
 49
0.013885498046875
 74
               0
 49
-0.0277862548828125
 74
               0
  0
ENDTAB
  0
TABLE
  2
LAYER
  5
2
100
AcDbSymbolTable
 70
               6
  0
LAYER
  5
14
100
AcDbSymbolTableRecord
100
AcDbLayerTableRecord
  2
0
 70
               0
 62
               7
  6
Continuous
290
               1
370
              -3
390
1D
  0
LAYER
  5
4A
100
AcDbSymbolTableRecord
100
AcDbLayerTableRecord
  2
Defpoints
 70
               0
 62
               7
  6
Continuous
290
               0
370
              -3
390
1D
  0
LAYER
  5
4B
100
AcDbSymbolTableRecord
100
AcDbLayerTableRecord
  2
1
 70
               0
 62
               7
  6
Continuous
290
               1
370
              15
390
1D
  0
LAYER
  5
4C
100
AcDbSymbolTableRecord
100
AcDbLayerTableRecord
  2
None
 70
               0
 62
               7
  6
Continuous
290
               1
370
               5
390
1D
  0
LAYER
  5
4D
100
AcDbSymbolTableRecord
100
AcDbLayerTableRecord
  2
Dimension
 70
               0
 62
               7
  6
Continuous
290
               1
370
               5
390
1D
  0
LAYER
  5
4E
100
AcDbSymbolTableRecord
100
AcDbLayerTableRecord
  2
Solid Lines
 70
               0
 62
               7
  6
Continuous
290
               1
370
              25
390
1D
  0
ENDTAB
  0
TABLE
  2
STYLE
  5
3
100
AcDbSymbolTable
 70
               5
  0
STYLE
  5
17
100
AcDbSymbolTableRecord
100
AcDbTextStyleTableRecord
  2
Standard
 70
               0
 40
0.0
 41
1.0
 50
0.0
 71
               0
 42
0.0
  3
txt
  4

  0
STYLE
  5
34
100
AcDbSymbolTableRecord
100
AcDbTextStyleTableRecord
  2
Arial
 70
               0
 40
0.0
 41
1.0
 50
0.0
 71
               0
 42
0.0
  3
Arial
  4

1001
ACAD
1000
Arial
1071
        0
  0
STYLE
  5
35
100
AcDbSymbolTableRecord
100
AcDbTextStyleTableRecord
  2
Arial (bold)
 70
               0
 40
0.0
 41
1.0
 50
0.0
 71
               0
 42
0.0
  3
Arial
  4

1001
ACAD
1000
Arial
1071
 33554432
  0
STYLE
  5
36
100
AcDbSymbolTableRecord
100
AcDbTextStyleTableRecord
  2
Helvetica
 70
               0
 40
0.0
 41
1.0
 50
0.0
 71
               0
 42
0.0
  3
Helvetica
  4

1001
ACAD
1000
Helvetica
1071
        0
  0
STYLE
  5
37
100
AcDbSymbolTableRecord
100
AcDbTextStyleTableRecord
  2
New Century Schlbk
 70
               0
 40
0.0
 41
1.0
 50
0.0
 71
               0
 42
0.0
  3
New Century Schlbk
  4

1001
ACAD
1000
New Century Schlbk
1071
        0
  0
ENDTAB
  0
TABLE
  2
VIEW
  5
5
100
AcDbSymbolTable
 70
               0
  0
ENDTAB
  0
TABLE
  2
UCS
  5
6
100
AcDbSymbolTable
 70
               0
  0
ENDTAB
  0
TABLE
  2
APPID
  5
8
100
AcDbSymbolTable
 70
               1
  0
APPID
  5
16
100
AcDbSymbolTableRecord
100
AcDbRegAppTableRecord
  2
ACAD
 70
               0
  0
ENDTAB
  0
TABLE
  2
DIMSTYLE
  5
9
100
AcDbSymbolTable
 70
               2
100
AcDbDimStyleTable
 71
               0
  0
DIMSTYLE
105
18
100
AcDbSymbolTableRecord
100
AcDbDimStyleTableRecord
  2
Standard
 70
               0
  3

  4

 40
1.0
 41
0.18
 42
0.0625
 43
0.38
 44
0.18
 45
0.0
 46
0.0
 47
0.0
 48
0.0
 71
               0
 72
               0
 73
               1
 74
               1
 75
               0
 76
               0
 77
               0
 78
               0
 79
               0
140
0.18
141
0.09
142
0.0
143
25.399999999999999
144
1.0
145
0.0
146
1.0
147
0.09
148
0.0
170
               0
171
               2
172
               0
173
               0
174
               0
175
               0
176
               0
177
               0
178
               0
179
               0
271
               4
272
               4
273
               2
274
               2
275
               0
276
               0
277
               2
278
              46
279
               0
280
               0
281
               0
282
               0
283
               1
284
               0
285
               0
286
               0
288
               0
289
               3
340
17
341
0
342
0
343
0
344
0
371
              -2
372
              -2
  0
DIMSTYLE
105
57
100
AcDbSymbolTableRecord
100
AcDbDimStyleTableRecord
  2
IE Standard
 70
               0
  3
<>mm
  4
[]"
 40
1.0
 41
0.529167725
 42
0.3175006357885214
 43
6.9999859934672708
 44
0.6350012715770428
 45
0.0
 46
0.0
 47
0.0
 48
0.0
 71
               0
 72
               0
 73
               1
 74
               1
 75
               0
 76
               0
 77
               0
 78
              11
 79
               0
140
0.4210651041666666
141
0.0
142
0.0
143
0.0393700787401575
144
1.0
145
0.0
146
1.0
147
0.0
148
0.0
170
               0
171
               3
172
               1
173
               0
174
               1
175
               0
176
               0
177
               0
178
               0
179
               0
271
               2
272
               2
273
               2
274
               2
275
               0
276
               2
277
               2
278
              46
279
               0
280
               0
281
               0
282
               0
283
               1
284
              11
285
               3
286
               3
288
               0
289
               0
340
36
341
53
342
4F
343
0
344
0
371
              -2
372
              -2
  0
ENDTAB
  0
TABLE
  2
BLOCK_RECORD
  5
1
100
AcDbSymbolTable
 70
              18
  0
BLOCK_RECORD
  5
A
100
AcDbSymbolTableRecord
100
AcDbBlockTableRecord
  2
*MODEL_SPACE
340
20
  0
BLOCK_RECORD
  5
B
100
AcDbSymbolTableRecord
100
AcDbBlockTableRecord
  2
*PAPER_SPACE
340
21
  0
BLOCK_RECORD
  5
4F
100
AcDbSymbolTableRecord
100
AcDbBlockTableRecord
  2
VW_FILLEDARROW
340
0
  0
BLOCK_RECORD
  5
53
100
AcDbSymbolTableRecord
100
AcDbBlockTableRecord
  2
VW_FILLEDARROW-1
340
0
  0
BLOCK_RECORD
  5
24
100
AcDbSymbolTableRecord
100
AcDbBlockTableRecord
  2
IE i logo
340
0
102
{BLKREFS
331
16B
102
}
  0
BLOCK_RECORD
  5
25
100
AcDbSymbolTableRecord
100
AcDbBlockTableRecord
  2
©2006_address
340
0
102
{BLKREFS
331
16F
102
}
  0
BLOCK_RECORD
  5
26
100
AcDbSymbolTableRecord
100
AcDbBlockTableRecord
  2
*D4
340
0
  0
BLOCK_RECORD
  5
27
100
AcDbSymbolTableRecord
100
AcDbBlockTableRecord
  2
*D5
340
0
  0
BLOCK_RECORD
  5
28
100
AcDbSymbolTableRecord
100
AcDbBlockTableRecord
  2
*D6
340
0
  0
BLOCK_RECORD
  5
29
100
AcDbSymbolTableRecord
100
AcDbBlockTableRecord
  2
*D7
340
0
  0
BLOCK_RECORD
  5
2A
100
AcDbSymbolTableRecord
100
AcDbBlockTableRecord
  2
*D8
340
0
  0
BLOCK_RECORD
  5
2B
100
AcDbSymbolTableRecord
100
AcDbBlockTableRecord
  2
*D9
340
0
  0
BLOCK_RECORD
  5
2C
100
AcDbSymbolTableRecord
100
AcDbBlockTableRecord
  2
Group
340
0
102
{BLKREFS
331
1CE
102
}
  0
BLOCK_RECORD
  5
2D
100
AcDbSymbolTableRecord
100
AcDbBlockTableRecord
  2
Group-1
340
0
102
{BLKREFS
331
1D6
102
}
  0
BLOCK_RECORD
  5
2E
100
AcDbSymbolTableRecord
100
AcDbBlockTableRecord
  2
*D12
340
0
  0
BLOCK_RECORD
  5
2F
100
AcDbSymbolTableRecord
100
AcDbBlockTableRecord
  2
*D13
340
0
  0
BLOCK_RECORD
  5
30
100
AcDbSymbolTableRecord
100
AcDbBlockTableRecord
  2
Group-2
340
0
102
{BLKREFS
331
1D9
102
}
  0
BLOCK_RECORD
  5
31
100
AcDbSymbolTableRecord
100
AcDbBlockTableRecord
  2
*D15
340
0
  0
BLOCK_RECORD
  5
32
100
AcDbSymbolTableRecord
100
AcDbBlockTableRecord
  2
Group-3
340
0
102
{BLKREFS
331
1DB
102
}
  0
BLOCK_RECORD
  5
33
100
AcDbSymbolTableRecord
100
AcDbBlockTableRecord
  2
*D17
340
0
  0
ENDTAB
  0
ENDSEC
  0
SECTION
  2
BLOCKS
  0
BLOCK
  5
D
100
AcDbEntity
  8
0
390
0
100
AcDbBlockBegin
  2
*MODEL_SPACE
 70
               0
 10
0.0
 20
0.0
 30
0.0
  3
*MODEL_SPACE
  1

  0
ENDBLK
  5
E
100
AcDbEntity
  8
0
390
0
100
AcDbBlockEnd
  0
BLOCK
  5
F
100
AcDbEntity
 67
               1
  8
0
390
0
100
AcDbBlockBegin
  2
*PAPER_SPACE
 70
               0
 10
0.0
 20
0.0
 30
0.0
  3
*PAPER_SPACE
  1

  0
ENDBLK
  5
10
100
AcDbEntity
 67
               1
  8
0
390
0
100
AcDbBlockEnd
  0
BLOCK
  5
50
100
AcDbEntity
  8
0
370
              -2
390
0
  6
ByBlock
 62
               0
100
AcDbBlockBegin
  2
VW_FILLEDARROW
 70
               0
 10
0.0
 20
0.0
 30
0.0
  3
VW_FILLEDARROW
  1

  0
SOLID
  5
51
100
AcDbEntity
  8
0
370
              -2
390
0
 62
               0
100
AcDbTrace
 10
0.0
 20
0.0
 30
0.0
 11
-0.9999409647216795
 21
-0.2679333739759718
 31
0.0
 12
-0.9999409647216795
 22
0.2679333739759721
 32
0.0
 13
-0.9999409647216795
 23
0.2679333739759721
 33
0.0
  0
ENDBLK
  5
52
100
AcDbEntity
  8
0
390
0
100
AcDbBlockEnd
  0
BLOCK
  5
54
100
AcDbEntity
  8
0
370
              -2
390
0
  6
ByBlock
 62
               0
100
AcDbBlockBegin
  2
VW_FILLEDARROW-1
 70
               0
 10
0.0
 20
0.0
 30
0.0
  3
VW_FILLEDARROW
  1

  0
SOLID
  5
55
100
AcDbEntity
  8
0
370
              -2
390
0
 62
               0
100
AcDbTrace
 10
0.0
 20
0.0
 30
0.0
 11
-0.6663689271362304
 21
-0.1785530158873466
 31
0.0
 12
-0.6663689271362304
 22
0.1785530158873468
 32
0.0
 13
-0.6663689271362304
 23
0.1785530158873468
 33
0.0
  0
ENDBLK
  5
56
100
AcDbEntity
  8
0
390
0
100
AcDbBlockEnd
  0
BLOCK
  5
58
100
AcDbEntity
  8
None
390
0
100
AcDbBlockBegin
  2
IE i logo
 70
               0
 10
0.0
 20
0.0
 30
0.0
  3
IE i logo
  1

  0
CIRCLE
  5
59
102
{ACAD_REACTORS
330
5A
102
}
100
AcDbEntity
  8
None
370
               5
390
0
  6
Continuous
 62
               7
100
AcDbCircle
 10
0.0
 20
0.0
 30
0.0
 40
2.6707900018721049
  0
HATCH
  5
5A
100
AcDbEntity
  8
None
370
               0
390
0
  6
Continuous
 62
               7
100
AcDbHatch
 10
0.0
 20
0.0
 30
0.0
210
0.0
220
0.0
230
1.0
  2
SOLID
 70
               1
 71
               1
 91
        1
 92
        1
 93
        1
 72
               2
 10
0.0
 20
0.0
 40
2.6707900018721049
 50
0.0
 51
360.0
 73
               0
 97
        1
330
59
 75
               0
 76
               1
 98
        1
 10
0.0
 20
0.0
  0
WIPEOUT
  5
5B
100
AcDbEntity
  8
None
370
               5
390
0
  6
Continuous
 62
               7
 92
        0
100
AcDbWipeout
 90
        0
 10
-1.01559
 20
0.73569
 30
0.0
 11
0.6889700000000001
 21
0.0
 31
0.0
 12
0.0
 22
0.6889700000000001
 32
0.0
 13
1.0
 23
1.0
340
0
 70
               7
280
               1
281
              50
282
              50
283
               0
360
0
 71
               2
 91
       97
 14
-0.384131384530531
 24
0.0667881039813055
 14
-0.3634758906411018
 24
0.0346239223043094
 14
-0.3415474367534144
 24
0.00272054661306
 14
-0.3183460228674687
 24
-0.0289220230924422
 14
-0.2938716489832648
 24
-0.0603037868121978
 14
-0.2681243151008025
 24
-0.0914247445462067
 14
-0.2411040212200821
 24
-0.1222848962944686
 14
-0.2128107673411033
 24
-0.1528842420569836
 14
-0.1832445534638663
 24
-0.1832227818337517
 14
-0.1529111164129063
 24
-0.2127940984367968
 14
-0.1223161930127582
 24
-0.2410917746781425
 14
-0.0914597832634222
 24
-0.2681158105577891
 14
-0.0603418871648982
 24
-0.2938662060757359
 14
-0.0289625047171866
 24
-0.3183429612319839
 14
0.0026783640797133
 24
-0.3415460760265321
 14
0.0345807192258009
 24
-0.3634755504593811
 14
0.0667445607210765
 24
-0.384131384530531
 14
0.0986291130237893
 24
-0.4031788394269708
 14
0.1296936005921883
 24
-0.4202831763356896
 14
0.1599380234262741
 24
-0.4354443952566872
 14
0.1893623815260462
 24
-0.4486624961899646
 14
0.2179666748915049
 24
-0.4599374791355209
 14
0.2457509035226498
 24
-0.4692693440933564
 14
0.2727150674194813
 24
-0.4766580910634712
 14
0.2988591665819992
 24
-0.4821037200458653
 14
0.3237520773763735
 24
-0.485530597304672
 14
0.3469626761687736
 24
-0.4868630891040248
 14
0.3684909629591999
 24
-0.4861011954439233
 14
0.3883369377476522
 24
-0.483244916324368
 14
0.4065006005341306
 24
-0.4782942517453585
 14
0.4229819513186351
 24
-0.4712492017068954
 14
0.4377809901011655
 24
-0.4621097662089782
 14
0.450897716881722
 24
-0.4508759452516074
 14
0.462126435113285
 24
-0.4377544559269632
 14
0.4712614482488352
 24
-0.4229520153272275
 14
0.4783027562883724
 24
-0.4064686234523998
 14
0.4832503592318967
 24
-0.3883042803024801
 14
0.4861042570794083
 24
-0.3684589858774687
 14
0.486864449830907
 24
-0.3469327401773656
 14
0.4855309374863926
 24
-0.3237255432021711
 14
0.4821037200458654
 24
-0.2988373949518843
 14
0.4766580910634716
 24
-0.2726983985151745
 14
0.4692693440933567
 24
-0.24573865698071
 14
0.4599374791355212
 24
-0.217958170348491
 14
0.4486624961899646
 24
-0.1893569386185173
 14
0.4354443952566874
 24
-0.1599349617907888
 14
0.4202831763356894
 24
-0.1296922398653057
 14
0.4031788394269706
 24
-0.0986287728420684
 14
0.384131384530531
 24
-0.0667445607210762
 14
0.363475890641102
 24
-0.0345803790440801
 14
0.3415474367534145
 24
-0.0026770033528307
 14
0.3183460228674687
 24
0.0289655663526718
 14
0.2938716489832648
 24
0.0603473300724272
 14
0.2681243151008025
 24
0.0914682878064358
 14
0.2411040212200821
 24
0.1223284395546979
 14
0.2128107673411033
 24
0.1529277853172129
 14
0.1832445534638663
 24
0.1832663250939811
 14
0.1529111164129063
 24
0.2128376416970262
 14
0.1223161930127581
 24
0.2411353179383721
 14
0.0914597832634222
 24
0.2681593538180184
 14
0.0603418871648983
 24
0.2939097493359655
 14
0.0289625047171866
 24
0.3183865044922132
 14
-0.0026783640797133
 24
0.3415896192867617
 14
-0.0345807192258009
 24
0.3635190937196106
 14
-0.0667445607210765
 24
0.3841749277907604
 14
-0.0986291130237892
 24
0.4032220425054794
 14
-0.1296936005921883
 24
0.4203253588690366
 14
-0.159938023426274
 24
0.4354848768814319
 14
-0.1893623815260462
 24
0.4487005965426653
 14
-0.2179666748915049
 24
0.4599725178527369
 14
-0.2457509035226499
 24
0.4693006408116466
 14
-0.2727150674194813
 24
0.4766849654193943
 14
-0.2988591665819992
 24
0.4821254916759801
 14
-0.3237520773763735
 24
0.4855476063906992
 14
-0.3469626761687736
 24
0.4868766963728464
 14
-0.3684909629591999
 24
0.486112761622422
 14
-0.3883369377476522
 24
0.4832558021394255
 14
-0.4065006005341306
 24
0.4783058179238573
 14
-0.4229819513186351
 24
0.4712628089757174
 14
-0.4377809901011655
 24
0.4621267752950057
 14
-0.450897716881722
 24
0.450897716881722
 14
-0.462126435113285
 24
0.437781330282886
 14
-0.4712614482488352
 24
0.4229833120455172
 14
-0.4783027562883724
 24
0.4065036621696155
 14
-0.4832503592318967
 24
0.388342380655181
 14
-0.4861042570794085
 24
0.3684994675022135
 14
-0.486864449830907
 24
0.3469749227107132
 14
-0.4855309374863926
 24
0.32376874628068
 14
-0.4821037200458657
 24
0.2988809382121138
 14
-0.4766580910634715
 24
0.2727419417754038
 14
-0.4692693440933567
 24
0.2457822002409394
 14
-0.4599374791355211
 24
0.2180017136087203
 14
-0.4486624961899646
 24
0.1894004818787466
 14
-0.4354443952566874
 24
0.1599785050510182
 14
-0.4202831763356894
 24
0.1297357831255353
 14
-0.4031788394269706
 24
0.0986723161022978
 14
-0.384131384530531
 24
0.0667881039813055
  0
SPLINE
  5
5C
100
AcDbEntity
  8
None
370
               5
390
0
  6
Continuous
 62
               7
100
AcDbSpline
210
0.0
220
0.0
230
1.0
 70
               9
 71
               2
 72
              17
 73
              14
 74
               0
 42
0.000001
 43
0.000001
 40
0.0
 40
0.0
 40
0.0
 40
1.0
 40
2.0
 40
3.0
 40
4.0
 40
5.0
 40
6.0
 40
7.0
 40
8.0
 40
9.0
 40
10.0
 40
11.0
 40
12.0
 40
12.0
 40
12.0
 10
-0.9357599999999999
 20
1.03416
 30
0.0
 10
-0.8805899999999999
 20
1.1231599999999999
 30
0.0
 10
-0.71412
 20
1.2896599999999998
 30
0.0
 10
-0.5361199999999999
 20
1.3999999999999999
 30
0.0
 10
-0.39428
 20
1.4246599999999998
 30
0.0
 10
-0.32662
 20
1.3569699999999998
 30
0.0
 10
-0.35128
 20
1.2151599999999998
 30
0.0
 10
-0.46162
 20
1.0371599999999999
 30
0.0
 10
-0.6280899999999999
 20
0.8706599999999999
 30
0.0
 10
-0.80609
 20
0.7603199999999999
 30
0.0
 10
-0.9479299999999999
 20
0.73569
 30
0.0
 10
-1.01559
 20
0.8033499999999999
 30
0.0
 10
-0.9909299999999999
 20
0.9451599999999999
 30
0.0
 10
-0.9357599999999999
 20
1.03416
 30
0.0
  0
WIPEOUT
  5
5D
100
AcDbEntity
  8
None
370
               5
390
0
  6
Continuous
 62
               7
 92
        0
100
AcDbWipeout
 90
        0
 10
-1.7197799999999999
 20
-1.8961899999999998
 30
0.0
 11
1.8520599999999998
 21
0.0
 31
0.0
 12
0.0
 22
1.8520599999999998
 32
0.0
 13
1.0
 23
1.0
340
0
 70
               7
280
               1
281
              50
282
              50
283
               0
360
0
 71
               2
 91
       36
 14
-0.4523827521786551
 24
0.3095202099284041
 14
-0.2500026996965541
 24
0.1190404198568081
 14
-0.2142911136788225
 24
0.1190404198568081
 14
-0.0714231720354632
 24
0.3690377201602539
 14
0.0
 24
0.4523827521786551
 14
0.0714231720354633
 24
0.5
 14
0.2142857142857143
 24
0.5
 14
0.3690539183395787
 24
0.4047493061779856
 14
0.4761940757858817
 24
0.3095202099284041
 14
0.5
 24
0.2380916384998327
 14
0.5
 24
0.1071347580531948
 14
0.4880997375894949
 24
0.0714231720354632
 14
0.4642884139822685
 24
0.0714231720354632
 14
0.4285768279645368
 24
0.0829562757146097
 14
0.3214258717320173
 24
0.1666522682850447
 14
0.274726520739069
 24
0.1785579300886581
 14
0.2142857142857143
 24
0.1666522682850447
 14
0.190479790071596
 24
0.1070915629083291
 14
0.1428625422502512
 24
0.0238059242141183
 14
0.1190404198568082
 24
-0.0833450320184012
 14
0.1071347580531948
 24
-0.2142911136788225
 14
0.0714231720354633
 24
-0.2857304838936103
 14
0.0238059242141184
 24
-0.3452533935185685
 14
-0.0238059242141183
 24
-0.3866289429068173
 14
-0.0714231720354632
 24
-0.3866289429068173
 14
-0.1309622798397461
 24
-0.3571536559290736
 14
-0.1785741282679827
 24
-0.2976361456972236
 14
-0.2619029621070591
 24
-0.178579527661091
 14
-0.342424111529864
 24
-0.1071563556256276
 14
-0.4727114672310832
 24
0.0238059242141183
 14
-0.5
 24
0.0714231720354632
 14
-0.5
 24
0.1547520058745397
 14
-0.5
 24
0.2380916384998327
 14
-0.5
 24
0.2857088863211775
 14
-0.4880997375894949
 24
0.3214204723389091
 14
-0.4523827521786551
 24
0.3095202099284041
  0
POLYLINE
  5
5E
100
AcDbEntity
  8
None
370
               5
390
0
  6
Continuous
 62
               7
100
AcDb2dPolyline
 66
               1
 10
0.0
 20
0.0
 30
0.0
 70
               1
 75
               5
  0
VERTEX
  5
5F
100
AcDbEntity
  8
None
370
               5
390
0
  6
Continuous
 62
               7
100
AcDbVertex
100
AcDb2dVertex
 10
-1.6315899999999999
 20
-1.5434099999999999
 30
0.0
  0
VERTEX
  5
60
100
AcDbEntity
  8
None
370
               5
390
0
  6
Continuous
 62
               7
100
AcDbVertex
100
AcDb2dVertex
 10
-1.2567699999999999
 20
-1.1906299999999999
 30
0.0
  0
VERTEX
  5
61
100
AcDbEntity
  8
None
370
               5
390
0
  6
Continuous
 62
               7
100
AcDbVertex
100
AcDb2dVertex
 10
-1.1906299999999999
 20
-1.1906299999999999
 30
0.0
  0
VERTEX
  5
62
100
AcDbEntity
  8
None
370
               5
390
0
  6
Continuous
 62
               7
100
AcDbVertex
100
AcDb2dVertex
 10
-0.9260299999999999
 20
-1.6536399999999998
 30
0.0
  0
VERTEX
  5
63
100
AcDbEntity
  8
None
370
               5
390
0
  6
Continuous
 62
               7
100
AcDbVertex
100
AcDb2dVertex
 10
-0.79375
 20
-1.8079999999999998
 30
0.0
  0
VERTEX
  5
64
100
AcDbEntity
  8
None
370
               5
390
0
  6
Continuous
 62
               7
100
AcDbVertex
100
AcDb2dVertex
 10
-0.6614699999999999
 20
-1.8961899999999998
 30
0.0
  0
VERTEX
  5
65
100
AcDbEntity
  8
None
370
               5
390
0
  6
Continuous
 62
               7
100
AcDbVertex
100
AcDb2dVertex
 10
-0.39688
 20
-1.8961899999999998
 30
0.0
  0
VERTEX
  5
66
100
AcDbEntity
  8
None
370
               5
390
0
  6
Continuous
 62
               7
100
AcDbVertex
100
AcDb2dVertex
 10
-0.11024
 20
-1.7197799999999999
 30
0.0
  0
VERTEX
  5
67
100
AcDbEntity
  8
None
370
               5
390
0
  6
Continuous
 62
               7
100
AcDbVertex
100
AcDb2dVertex
 10
0.08819
 20
-1.5434099999999999
 30
0.0
  0
VERTEX
  5
68
100
AcDbEntity
  8
None
370
               5
390
0
  6
Continuous
 62
               7
100
AcDbVertex
100
AcDb2dVertex
 10
0.13228
 20
-1.4111199999999999
 30
0.0
  0
VERTEX
  5
69
100
AcDbEntity
  8
None
370
               5
390
0
  6
Continuous
 62
               7
100
AcDbVertex
100
AcDb2dVertex
 10
0.13228
 20
-1.16858
 30
0.0
  0
VERTEX
  5
6A
100
AcDbEntity
  8
None
370
               5
390
0
  6
Continuous
 62
               7
100
AcDbVertex
100
AcDb2dVertex
 10
0.11024
 20
-1.1024399999999999
 30
0.0
  0
VERTEX
  5
6B
100
AcDbEntity
  8
None
370
               5
390
0
  6
Continuous
 62
               7
100
AcDbVertex
100
AcDb2dVertex
 10
0.06614
 20
-1.1024399999999999
 30
0.0
  0
VERTEX
  5
6C
100
AcDbEntity
  8
None
370
               5
390
0
  6
Continuous
 62
               7
100
AcDbVertex
100
AcDb2dVertex
 10
0.0
 20
-1.1237999999999999
 30
0.0
  0
VERTEX
  5
6D
100
AcDbEntity
  8
None
370
               5
390
0
  6
Continuous
 62
               7
100
AcDbVertex
100
AcDb2dVertex
 10
-0.19845
 20
-1.2788099999999998
 30
0.0
  0
VERTEX
  5
6E
100
AcDbEntity
  8
None
370
               5
390
0
  6
Continuous
 62
               7
100
AcDbVertex
100
AcDb2dVertex
 10
-0.28494
 20
-1.3008599999999999
 30
0.0
  0
VERTEX
  5
6F
100
AcDbEntity
  8
None
370
               5
390
0
  6
Continuous
 62
               7
100
AcDbVertex
100
AcDb2dVertex
 10
-0.39688
 20
-1.2788099999999998
 30
0.0
  0
VERTEX
  5
70
100
AcDbEntity
  8
None
370
               5
390
0
  6
Continuous
 62
               7
100
AcDbVertex
100
AcDb2dVertex
 10
-0.44097
 20
-1.1684999999999999
 30
0.0
  0
VERTEX
  5
71
100
AcDbEntity
  8
None
370
               5
390
0
  6
Continuous
 62
               7
100
AcDbVertex
100
AcDb2dVertex
 10
-0.52916
 20
-1.0142499999999999
 30
0.0
  0
VERTEX
  5
72
100
AcDbEntity
  8
None
370
               5
390
0
  6
Continuous
 62
               7
100
AcDbVertex
100
AcDb2dVertex
 10
-0.5732799999999999
 20
-0.8158
 30
0.0
  0
VERTEX
  5
73
100
AcDbEntity
  8
None
370
               5
390
0
  6
Continuous
 62
               7
100
AcDbVertex
100
AcDb2dVertex
 10
-0.5953299999999999
 20
-0.5732799999999999
 30
0.0
  0
VERTEX
  5
74
100
AcDbEntity
  8
None
370
               5
390
0
  6
Continuous
 62
               7
100
AcDbVertex
100
AcDb2dVertex
 10
-0.6614699999999999
 20
-0.44097
 30
0.0
  0
VERTEX
  5
75
100
AcDbEntity
  8
None
370
               5
390
0
  6
Continuous
 62
               7
100
AcDbVertex
100
AcDb2dVertex
 10
-0.7496599999999999
 20
-0.33073
 30
0.0
  0
VERTEX
  5
76
100
AcDbEntity
  8
None
370
               5
390
0
  6
Continuous
 62
               7
100
AcDbVertex
100
AcDb2dVertex
 10
-0.8378399999999999
 20
-0.2541
 30
0.0
  0
VERTEX
  5
77
100
AcDbEntity
  8
None
370
               5
390
0
  6
Continuous
 62
               7
100
AcDbVertex
100
AcDb2dVertex
 10
-0.9260299999999999
 20
-0.2541
 30
0.0
  0
VERTEX
  5
78
100
AcDbEntity
  8
None
370
               5
390
0
  6
Continuous
 62
               7
100
AcDbVertex
100
AcDb2dVertex
 10
-1.0363
 20
-0.30869
 30
0.0
  0
VERTEX
  5
79
100
AcDbEntity
  8
None
370
               5
390
0
  6
Continuous
 62
               7
100
AcDbVertex
100
AcDb2dVertex
 10
-1.1244799999999999
 20
-0.41892
 30
0.0
  0
VERTEX
  5
7A
100
AcDbEntity
  8
None
370
               5
390
0
  6
Continuous
 62
               7
100
AcDbVertex
100
AcDb2dVertex
 10
-1.2788099999999998
 20
-0.63942
 30
0.0
  0
VERTEX
  5
7B
100
AcDbEntity
  8
None
370
               5
390
0
  6
Continuous
 62
               7
100
AcDbVertex
100
AcDb2dVertex
 10
-1.4279399999999998
 20
-0.7716999999999999
 30
0.0
  0
VERTEX
  5
7C
100
AcDbEntity
  8
None
370
               5
390
0
  6
Continuous
 62
               7
100
AcDbVertex
100
AcDb2dVertex
 10
-1.6692399999999998
 20
-1.0142499999999999
 30
0.0
  0
VERTEX
  5
7D
100
AcDbEntity
  8
None
370
               5
390
0
  6
Continuous
 62
               7
100
AcDbVertex
100
AcDb2dVertex
 10
-1.7197799999999999
 20
-1.1024399999999999
 30
0.0
  0
VERTEX
  5
7E
100
AcDbEntity
  8
None
370
               5
390
0
  6
Continuous
 62
               7
100
AcDbVertex
100
AcDb2dVertex
 10
-1.7197799999999999
 20
-1.2567699999999999
 30
0.0
  0
VERTEX
  5
7F
100
AcDbEntity
  8
None
370
               5
390
0
  6
Continuous
 62
               7
100
AcDbVertex
100
AcDb2dVertex
 10
-1.7197799999999999
 20
-1.4111199999999999
 30
0.0
  0
VERTEX
  5
80
100
AcDbEntity
  8
None
370
               5
390
0
  6
Continuous
 62
               7
100
AcDbVertex
100
AcDb2dVertex
 10
-1.7197799999999999
 20
-1.4993099999999999
 30
0.0
  0
VERTEX
  5
81
100
AcDbEntity
  8
None
370
               5
390
0
  6
Continuous
 62
               7
100
AcDbVertex
100
AcDb2dVertex
 10
-1.6977399999999998
 20
-1.5654499999999998
 30
0.0
  0
SEQEND
  5
82
100
AcDbEntity
  8
None
370
               5
390
0
  6
Continuous
 62
               7
  0
POLYLINE
  5
83
100
AcDbEntity
  8
None
370
               5
390
0
  6
Continuous
 62
               7
100
AcDb2dPolyline
 66
               1
 10
0.0
 20
0.0
 30
0.0
 75
               5
  0
VERTEX
  5
84
100
AcDbEntity
  8
None
370
               5
390
0
  6
Continuous
 62
               7
100
AcDbVertex
100
AcDb2dVertex
 10
-1.7197799999999999
 20
-1.1410199999999999
 30
0.0
  0
VERTEX
  5
85
100
AcDbEntity
  8
None
370
               5
390
0
  6
Continuous
 62
               7
100
AcDbVertex
100
AcDb2dVertex
 10
-1.7197799999999999
 20
-1.45522
 30
0.0
  0
VERTEX
  5
86
100
AcDbEntity
  8
None
370
               5
390
0
  6
Continuous
 62
               7
100
AcDbVertex
100
AcDb2dVertex
 10
-1.7197799999999999
 20
-1.4772599999999998
 30
0.0
  0
VERTEX
  5
87
100
AcDbEntity
  8
None
370
               5
390
0
  6
Continuous
 62
               7
100
AcDbVertex
100
AcDb2dVertex
 10
-1.71427
 20
-1.5158499999999999
 30
0.0
  0
SEQEND
  5
88
100
AcDbEntity
  8
None
370
               5
390
0
  6
Continuous
 62
               7
  0
ENDBLK
  5
89
100
AcDbEntity
  8
None
390
0
100
AcDbBlockEnd
  0
BLOCK
  5
8A
100
AcDbEntity
  8
None
390
0
100
AcDbBlockBegin
  2
©2006_address
 70
               0
 10
0.0
 20
0.0
 30
0.0
  3
©2006_address
  1

  0
MTEXT
  5
8B
100
AcDbEntity
  8
None
390
0
 62
               7
100
AcDbMText
 10
0.0
 20
2.7477645770833359
 30
0.0
 40
0.9298981770833332
 41
36.738279999999996
 71
               2
 72
               1
  1
© 2006 IRONWOOD ELECTRONICS, INC.\P11351 Rupp Drive, Suite 400, Burnsville, MN 55337\PTele: (952) 229-8200\Pwww.ironwoodelectronics.com
  7
Arial
 73
               1
 44
0.9673603504928808
  0
ENDBLK
  5
8C
100
AcDbEntity
  8
None
390
0
100
AcDbBlockEnd
  0
BLOCK
  5
8D
100
AcDbEntity
  8
Dimension
390
0
100
AcDbBlockBegin
  2
*D4
 70
               1
 10
0.0
 20
0.0
 30
0.0
  3
*D4
  1

  0
LINE
  5
8E
100
AcDbEntity
  8
Dimension
370
              -2
390
0
  6
Continuous
 62
               0
100
AcDbLine
 10
26.245001599999995
 20
25.82250323578852
 30
0.0
 11
26.245001599999995
 21
30.496926871577038
 31
0.0
  0
LINE
  5
8F
100
AcDbEntity
  8
Dimension
370
              -2
390
0
  6
Continuous
 62
               0
100
AcDbLine
 10
26.745001599999995
 20
25.82250323578852
 30
0.0
 11
26.745001599999995
 21
30.496926871577038
 31
0.0
  0
LINE
  5
90
100
AcDbEntity
  8
Dimension
370
              -2
390
0
  6
Continuous
 62
               0
100
AcDbLine
 10
26.745001599999995
 20
29.861925599999996
 30
0.0
 11
26.245001599999995
 21
29.861925599999996
 31
0.0
  0
LINE
  5
91
100
AcDbEntity
  8
Dimension
370
              -2
390
0
  6
Continuous
 62
               0
100
AcDbLine
 10
26.245001599999995
 20
29.861925599999996
 30
0.0
 11
25.078334934426785
 21
29.861925599999996
 31
0.0
  0
SOLID
  5
92
100
AcDbEntity
  8
Dimension
370
              -2
390
0
 62
               0
100
AcDbTrace
 10
26.245001599999995
 20
29.861925599999996
 30
0.0
 11
25.715833874999994
 21
29.72013553542563
 31
0.0
 12
25.715833874999994
 22
30.003715664574361
 32
0.0
 13
25.715833874999994
 23
30.003715664574361
 33
0.0
  0
LINE
  5
93
100
AcDbEntity
  8
Dimension
370
              -2
390
0
  6
Continuous
 62
               0
100
AcDbLine
 10
26.745001599999995
 20
29.861925599999996
 30
0.0
 11
28.100001599999995
 21
29.861925599999996
 31
0.0
  0
SOLID
  5
94
100
AcDbEntity
  8
Dimension
370
              -2
390
0
 62
               0
100
AcDbTrace
 10
26.745001599999995
 20
29.861925599999996
 30
0.0
 11
27.274169324999995
 21
30.003715664574361
 31
0.0
 12
27.274169324999995
 22
29.72013553542563
 32
0.0
 13
27.274169324999995
 23
29.72013553542563
 33
0.0
  0
WIPEOUT
  5
95
100
AcDbEntity
  8
Dimension
370
              -2
390
0
  6
Continuous
 62
               0
 92
        0
100
AcDbWipeout
 90
        0
 10
28.100001599999995
 20
55.690457599999995
 30
0.0
 11
2.9221611804081062
 21
0.0
 31
0.0
 12
0.0
 22
2.9221611804081062
 32
0.0
 13
1.0
 23
1.0
340
0
 70
               7
280
               1
281
              50
282
              50
283
               0
360
0
 71
               2
 91
        5
 14
-0.5
 24
9.4545399396297487
 14
0.5000000000000002
 24
9.4545399396297487
 14
0.5000000000000002
 24
9.2231516080985045
 14
-0.5
 24
9.2231516080985045
 14
-0.5
 24
9.4545399396297487
  0
MTEXT
  5
96
100
AcDbEntity
  8
Dimension
390
0
 62
               0
100
AcDbMText
 10
28.100001599999995
 20
30.091903704166665
 30
0.0
 40
0.4210651041666666
 41
0.0
 71
               1
 72
               1
  1
0.5mm typ.
  7
Helvetica
 73
               1
 44
0.9673603504928805
  0
POINT
  5
97
100
AcDbEntity
  8
Defpoints
370
               0
390
0
 62
               0
100
AcDbPoint
 10
26.745001599999995
 20
25.505002599999997
 30
0.0
  0
POINT
  5
98
100
AcDbEntity
  8
Defpoints
370
               0
390
0
 62
               0
100
AcDbPoint
 10
26.245001599999995
 20
25.505002599999997
 30
0.0
  0
POINT
  5
99
100
AcDbEntity
  8
Defpoints
370
               0
390
0
 62
               0
100
AcDbPoint
 10
26.245001599999995
 20
29.861925599999996
 30
0.0
  0
ENDBLK
  5
9A
100
AcDbEntity
  8
Dimension
390
0
100
AcDbBlockEnd
  0
BLOCK
  5
9B
100
AcDbEntity
  8
Dimension
390
0
100
AcDbBlockBegin
  2
*D5
 70
               1
 10
0.0
 20
0.0
 30
0.0
  3
*D5
  1

  0
LINE
  5
9C
100
AcDbEntity
  8
Dimension
370
              -2
390
0
  6
Continuous
 62
               0
100
AcDbLine
 10
29.354541599999994
 20
18.540632599999995
 30
0.0
 11
33.18750857369816
 21
15.812501942385499
 31
0.0
  0
SOLID
  5
9D
100
AcDbEntity
  8
Dimension
370
              -2
390
0
 62
               0
100
AcDbTrace
 10
29.354541599999994
 20
18.540632599999995
 30
0.0
 11
29.695423550729807
 21
18.409780278922106
 31
0.0
 12
29.584327868484664
 22
18.256870190437478
 32
0.0
 13
29.584327868484664
 23
18.256870190437478
 33
0.0
  0
LINE
  5
9E
100
AcDbEntity
  8
Dimension
370
              -2
390
0
  6
Continuous
 62
               0
100
AcDbLine
 10
33.18750857369816
 20
15.812501942385499
 30
0.0
 11
34.18750857501383
 21
15.812501942385499
 31
0.0
  0
WIPEOUT
  5
9F
100
AcDbEntity
  8
Dimension
370
              -2
390
0
  6
Continuous
 62
               0
 92
        0
100
AcDbWipeout
 90
        0
 10
34.18750857501383
 20
41.641033942385498
 30
0.0
 11
4.2391912967430949
 21
0.0
 31
0.0
 12
0.0
 22
4.2391912967430949
 32
0.0
 13
1.0
 23
1.0
340
0
 70
               7
280
               1
281
              50
282
              50
283
               0
360
0
 71
               2
 91
        5
 14
-0.5
 24
6.6725473488548159
 14
0.4999999999999998
 24
6.6725473488548159
 14
0.4999999999999998
 24
6.5130466439634187
 14
-0.5
 24
6.5130466439634187
 14
-0.5
 24
6.6725473488548159
  0
MTEXT
  5
A0
100
AcDbEntity
  8
Dimension
390
0
 62
               0
100
AcDbMText
 10
34.18750857501383
 20
16.042480046552164
 30
0.0
 40
0.4210651041666666
 41
0.0
 71
               1
 72
               1
  1
0.94 x 0.28 mm 
  7
Helvetica
 73
               1
 44
0.9673603504928805
  0
POINT
  5
A1
100
AcDbEntity
  8
Defpoints
370
               0
390
0
 62
               0
100
AcDbPoint
 10
28.555461599999994
 20
19.109372599999997
 30
0.0
  0
POINT
  5
A2
100
AcDbEntity
  8
Defpoints
370
               0
390
0
 62
               0
100
AcDbPoint
 10
29.354541599999994
 20
18.540632599999995
 30
0.0
  0
ENDBLK
  5
A3
100
AcDbEntity
  8
Dimension
390
0
100
AcDbBlockEnd
  0
BLOCK
  5
A4
100
AcDbEntity
  8
Dimension
390
0
100
AcDbBlockBegin
  2
*D6
 70
               1
 10
0.0
 20
0.0
 30
0.0
  3
*D6
  1

  0
LINE
  5
A5
100
AcDbEntity
  8
Dimension
370
              -2
390
0
  6
Continuous
 62
               0
100
AcDbLine
 10
19.070001599999998
 20
16.367501964211474
 30
0.0
 11
19.070001599999998
 21
9.5150013284229544
 31
0.0
  0
LINE
  5
A6
100
AcDbEntity
  8
Dimension
370
              -2
390
0
  6
Continuous
 62
               0
100
AcDbLine
 10
29.430001599999997
 20
16.367501964211474
 30
0.0
 11
29.430001599999997
 21
9.5150013284229544
 31
0.0
  0
LINE
  5
A7
100
AcDbEntity
  8
Dimension
370
              -2
390
0
  6
Continuous
 62
               0
100
AcDbLine
 10
19.070001599999998
 20
10.150002599999997
 30
0.0
 11
29.430001599999997
 21
10.150002599999997
 31
0.0
  0
SOLID
  5
A8
100
AcDbEntity
  8
Dimension
370
              -2
390
0
 62
               0
100
AcDbTrace
 10
19.070001599999998
 20
10.150002599999997
 30
0.0
 11
19.599169324999995
 21
10.291792664574361
 31
0.0
 12
19.599169324999995
 22
10.008212535425633
 32
0.0
 13
19.599169324999995
 23
10.008212535425633
 33
0.0
  0
SOLID
  5
A9
100
AcDbEntity
  8
Dimension
370
              -2
390
0
 62
               0
100
AcDbTrace
 10
29.430001599999997
 20
10.150002599999997
 30
0.0
 11
28.900833874999996
 21
10.008212535425633
 31
0.0
 12
28.900833874999996
 22
10.291792664574361
 32
0.0
 13
28.900833874999996
 23
10.291792664574361
 33
0.0
  0
WIPEOUT
  5
AA
100
AcDbEntity
  8
Dimension
370
              -2
390
0
  6
Continuous
 62
               0
 92
        0
100
AcDbWipeout
 90
        0
 10
23.220000621483894
 20
35.978534599999996
 30
0.0
 11
2.4694318886728284
 21
0.0
 31
0.0
 12
0.0
 22
2.4694318886728284
 32
0.0
 13
1.0
 23
1.0
340
0
 70
               7
280
               1
281
              50
282
              50
283
               0
360
0
 71
               2
 91
        5
 14
-0.5
 24
11.0962060018845
 14
0.5000000000000004
 24
11.0962060018845
 14
0.5000000000000004
 24
10.822396465731067
 14
-0.5
 24
10.822396465731067
 14
-0.5
 24
11.0962060018845
  0
MTEXT
  5
AB
100
AcDbEntity
  8
Dimension
390
0
 62
               0
100
AcDbMText
 10
23.220000621483894
 20
10.379980704166664
 30
0.0
 40
0.4210651041666666
 41
0.0
 71
               1
 72
               1
  1
10.36mm
  7
Helvetica
 73
               1
 44
0.9673603504928805
  0
POINT
  5
AC
100
AcDbEntity
  8
Defpoints
370
               0
390
0
 62
               0
100
AcDbPoint
 10
29.430001599999997
 20
16.685002599999997
 30
0.0
  0
POINT
  5
AD
100
AcDbEntity
  8
Defpoints
370
               0
390
0
 62
               0
100
AcDbPoint
 10
19.070001599999998
 20
16.685002599999997
 30
0.0
  0
POINT
  5
AE
100
AcDbEntity
  8
Defpoints
370
               0
390
0
 62
               0
100
AcDbPoint
 10
19.070001599999998
 20
10.150002599999997
 30
0.0
  0
ENDBLK
  5
AF
100
AcDbEntity
  8
Dimension
390
0
100
AcDbBlockEnd
  0
BLOCK
  5
B0
100
AcDbEntity
  8
Dimension
390
0
100
AcDbBlockBegin
  2
*D7
 70
               1
 10
0.0
 20
0.0
 30
0.0
  3
*D7
  1

  0
LINE
  5
B1
100
AcDbEntity
  8
Dimension
370
              -2
390
0
  6
Continuous
 62
               0
100
AcDbLine
 10
19.792500964211474
 20
26.005002599999994
 30
0.0
 11
10.415000328422956
 21
26.005002599999994
 31
0.0
  0
LINE
  5
B2
100
AcDbEntity
  8
Dimension
370
              -2
390
0
  6
Continuous
 62
               0
100
AcDbLine
 10
19.792500964211474
 20
15.645002599999996
 30
0.0
 11
10.415000328422956
 21
15.645002599999996
 31
0.0
  0
LINE
  5
B3
100
AcDbEntity
  8
Dimension
370
              -2
390
0
  6
Continuous
 62
               0
100
AcDbLine
 10
11.050001599999998
 20
26.005002599999994
 30
0.0
 11
11.050001599999998
 21
15.645002599999996
 31
0.0
  0
SOLID
  5
B4
100
AcDbEntity
  8
Dimension
370
              -2
390
0
 62
               0
100
AcDbTrace
 10
11.050001599999998
 20
26.005002599999994
 30
0.0
 11
11.191791664574362
 21
25.475834874999993
 31
0.0
 12
10.908211535425634
 22
25.475834874999993
 32
0.0
 13
10.908211535425634
 23
25.475834874999993
 33
0.0
  0
SOLID
  5
B5
100
AcDbEntity
  8
Dimension
370
              -2
390
0
 62
               0
100
AcDbTrace
 10
11.050001599999998
 20
15.645002599999996
 30
0.0
 11
10.908211535425634
 21
16.174170324999995
 31
0.0
 12
11.191791664574362
 22
16.174170324999995
 32
0.0
 13
11.191791664574362
 23
16.174170324999995
 33
0.0
  0
WIPEOUT
  5
B6
100
AcDbEntity
  8
Dimension
370
              -2
390
0
  6
Continuous
 62
               0
 92
        0
100
AcDbWipeout
 90
        0
 10
9.8152856556635832
 20
46.328519951562498
 30
0.0
 11
2.4694318886728279
 21
0.0
 31
0.0
 12
0.0
 22
2.4694318886728279
 32
0.0
 13
1.0
 23
1.0
340
0
 70
               7
280
               1
281
              50
282
              50
283
               0
360
0
 71
               2
 91
        5
 14
-0.5
 24
11.096206001884502
 14
0.5
 24
11.096206001884502
 14
0.5
 24
10.822396465731071
 14
-0.5
 24
10.822396465731071
 14
-0.5
 24
11.096206001884502
  0
MTEXT
  5
B7
100
AcDbEntity
  8
Dimension
390
0
 62
               0
100
AcDbMText
 10
9.8152856556635832
 20
20.729966055729165
 30
0.0
 40
0.4210651041666666
 41
0.0
 71
               1
 72
               1
  1
10.36mm
  7
Helvetica
 73
               1
 44
0.9673603504928805
  0
POINT
  5
B8
100
AcDbEntity
  8
Defpoints
370
               0
390
0
 62
               0
100
AcDbPoint
 10
20.110001599999997
 20
15.645002599999996
 30
0.0
  0
POINT
  5
B9
100
AcDbEntity
  8
Defpoints
370
               0
390
0
 62
               0
100
AcDbPoint
 10
20.110001599999997
 20
26.005002599999994
 30
0.0
  0
POINT
  5
BA
100
AcDbEntity
  8
Defpoints
370
               0
390
0
 62
               0
100
AcDbPoint
 10
11.050001599999998
 20
26.005002599999994
 30
0.0
  0
ENDBLK
  5
BB
100
AcDbEntity
  8
Dimension
390
0
100
AcDbBlockEnd
  0
BLOCK
  5
BC
100
AcDbEntity
  8
Dimension
390
0
100
AcDbBlockBegin
  2
*D8
 70
               1
 10
0.0
 20
0.0
 30
0.0
  3
*D8
  1

  0
LINE
  5
BD
100
AcDbEntity
  8
Dimension
370
              -2
390
0
  6
Continuous
 62
               0
100
AcDbLine
 10
18.752500964211475
 20
24.965002599999995
 30
0.0
 11
13.165000328422954
 21
24.965002599999995
 31
0.0
  0
LINE
  5
BE
100
AcDbEntity
  8
Dimension
370
              -2
390
0
  6
Continuous
 62
               0
100
AcDbLine
 10
18.752500964211475
 20
16.685002599999997
 30
0.0
 11
13.165000328422954
 21
16.685002599999997
 31
0.0
  0
LINE
  5
BF
100
AcDbEntity
  8
Dimension
370
              -2
390
0
  6
Continuous
 62
               0
100
AcDbLine
 10
13.800001599999996
 20
24.965002599999995
 30
0.0
 11
13.800001599999996
 21
16.685002599999997
 31
0.0
  0
SOLID
  5
C0
100
AcDbEntity
  8
Dimension
370
              -2
390
0
 62
               0
100
AcDbTrace
 10
13.800001599999996
 20
24.965002599999995
 30
0.0
 11
13.94179166457436
 21
24.435834874999994
 31
0.0
 12
13.658211535425632
 22
24.435834874999994
 32
0.0
 13
13.658211535425632
 23
24.435834874999994
 33
0.0
  0
SOLID
  5
C1
100
AcDbEntity
  8
Dimension
370
              -2
390
0
 62
               0
100
AcDbTrace
 10
13.800001599999996
 20
16.685002599999997
 30
0.0
 11
13.658211535425632
 21
17.214170324999998
 31
0.0
 12
13.94179166457436
 22
17.214170324999998
 32
0.0
 13
13.94179166457436
 23
17.214170324999998
 33
0.0
  0
WIPEOUT
  5
C2
100
AcDbEntity
  8
Dimension
370
              -2
390
0
  6
Continuous
 62
               0
 92
        0
100
AcDbWipeout
 90
        0
 10
12.729914448241772
 20
46.761936699609372
 30
0.0
 11
2.1401743035164511
 21
0.0
 31
0.0
 12
0.0
 22
2.1401743035164511
 32
0.0
 13
1.0
 23
1.0
340
0
 70
               7
280
               1
281
              50
282
              50
283
               0
360
0
 71
               2
 91
        5
 14
-0.5
 24
12.72639154063596
 14
0.5
 24
12.72639154063596
 14
0.5
 24
12.410457460458924
 14
-0.5
 24
12.410457460458924
 14
-0.5
 24
12.72639154063596
  0
MTEXT
  5
C3
100
AcDbEntity
  8
Dimension
390
0
 62
               0
100
AcDbMText
 10
12.729914448241772
 20
21.163382803776042
 30
0.0
 40
0.4210651041666666
 41
0.0
 71
               1
 72
               1
  1
8.28mm
  7
Helvetica
 73
               1
 44
0.9673603504928805
  0
POINT
  5
C4
100
AcDbEntity
  8
Defpoints
370
               0
390
0
 62
               0
100
AcDbPoint
 10
19.070001599999998
 20
16.685002599999997
 30
0.0
  0
POINT
  5
C5
100
AcDbEntity
  8
Defpoints
370
               0
390
0
 62
               0
100
AcDbPoint
 10
19.070001599999998
 20
24.965002599999995
 30
0.0
  0
POINT
  5
C6
100
AcDbEntity
  8
Defpoints
370
               0
390
0
 62
               0
100
AcDbPoint
 10
13.800001599999996
 20
24.965002599999995
 30
0.0
  0
ENDBLK
  5
C7
100
AcDbEntity
  8
Dimension
390
0
100
AcDbBlockEnd
  0
BLOCK
  5
C8
100
AcDbEntity
  8
Dimension
390
0
100
AcDbBlockBegin
  2
*D9
 70
               1
 10
0.0
 20
0.0
 30
0.0
  3
*D9
  1

  0
LINE
  5
C9
100
AcDbEntity
  8
Dimension
370
              -2
390
0
  6
Continuous
 62
               0
100
AcDbLine
 10
20.110001599999997
 20
15.327501964211475
 30
0.0
 11
20.110001599999997
 21
11.065001328422953
 31
0.0
  0
LINE
  5
CA
100
AcDbEntity
  8
Dimension
370
              -2
390
0
  6
Continuous
 62
               0
100
AcDbLine
 10
28.390001599999994
 20
15.327501964211475
 30
0.0
 11
28.390001599999994
 21
11.065001328422953
 31
0.0
  0
LINE
  5
CB
100
AcDbEntity
  8
Dimension
370
              -2
390
0
  6
Continuous
 62
               0
100
AcDbLine
 10
20.110001599999997
 20
11.700002599999996
 30
0.0
 11
28.390001599999994
 21
11.700002599999996
 31
0.0
  0
SOLID
  5
CC
100
AcDbEntity
  8
Dimension
370
              -2
390
0
 62
               0
100
AcDbTrace
 10
20.110001599999997
 20
11.700002599999996
 30
0.0
 11
20.639169324999997
 21
11.84179266457436
 31
0.0
 12
20.639169324999997
 22
11.558212535425632
 32
0.0
 13
20.639169324999997
 23
11.558212535425632
 33
0.0
  0
SOLID
  5
CD
100
AcDbEntity
  8
Dimension
370
              -2
390
0
 62
               0
100
AcDbTrace
 10
28.390001599999994
 20
11.700002599999996
 30
0.0
 11
27.860833874999994
 21
11.558212535425632
 31
0.0
 12
27.860833874999994
 22
11.84179266457436
 32
0.0
 13
27.860833874999994
 23
11.84179266457436
 33
0.0
  0
WIPEOUT
  5
CE
100
AcDbEntity
  8
Dimension
370
              -2
390
0
  6
Continuous
 62
               0
 92
        0
100
AcDbWipeout
 90
        0
 10
23.146559956054269
 20
37.528534599999993
 30
0.0
 11
2.1401743035164511
 21
0.0
 31
0.0
 12
0.0
 22
2.1401743035164511
 32
0.0
 13
1.0
 23
1.0
340
0
 70
               7
280
               1
281
              50
282
              50
283
               0
360
0
 71
               2
 91
        5
 14
-0.5
 24
12.72639154063596
 14
0.5000000000000009
 24
12.72639154063596
 14
0.5000000000000009
 24
12.410457460458924
 14
-0.5
 24
12.410457460458924
 14
-0.5
 24
12.72639154063596
  0
MTEXT
  5
CF
100
AcDbEntity
  8
Dimension
390
0
 62
               0
100
AcDbMText
 10
23.146559956054269
 20
11.929980704166663
 30
0.0
 40
0.4210651041666666
 41
0.0
 71
               1
 72
               1
  1
8.28mm
  7
Helvetica
 73
               1
 44
0.9673603504928805
  0
POINT
  5
D0
100
AcDbEntity
  8
Defpoints
370
               0
390
0
 62
               0
100
AcDbPoint
 10
28.390001599999994
 20
15.645002599999996
 30
0.0
  0
POINT
  5
D1
100
AcDbEntity
  8
Defpoints
370
               0
390
0
 62
               0
100
AcDbPoint
 10
20.110001599999997
 20
15.645002599999996
 30
0.0
  0
POINT
  5
D2
100
AcDbEntity
  8
Defpoints
370
               0
390
0
 62
               0
100
AcDbPoint
 10
20.110001599999997
 20
11.700002599999996
 30
0.0
  0
ENDBLK
  5
D3
100
AcDbEntity
  8
Dimension
390
0
100
AcDbBlockEnd
  0
BLOCK
  5
D4
100
AcDbEntity
  8
Dimension
390
0
100
AcDbBlockBegin
  2
Group
 70
               0
 10
0.0
 20
0.0
 30
0.0
  3
Group
  1

  0
LINE
  5
D5
100
AcDbEntity
  8
None
370
               9
390
0
  6
Continuous
 62
              12
100
AcDbLine
 10
-3.3894099999999998
 20
20.2272
 30
0.0
 11
-2.1394099999999998
 21
20.2272
 31
0.0
  0
LINE
  5
D6
100
AcDbEntity
  8
None
370
               9
390
0
  6
Continuous
 62
              12
100
AcDbLine
 10
-2.7644099999999998
 20
19.6022
 30
0.0
 11
-2.7644099999999998
 21
20.8522
 31
0.0
  0
LINE
  5
D7
100
AcDbEntity
  8
None
370
               9
390
0
  6
Continuous
 62
              12
100
AcDbLine
 10
-11.126909999999999
 20
20.2272
 30
0.0
 11
-3.8894099999999998
 21
20.2272
 31
0.0
  0
LINE
  5
D8
100
AcDbEntity
  8
None
370
               9
390
0
  6
Continuous
 62
              12
100
AcDbLine
 10
-1.6394099999999998
 20
20.2272
 30
0.0
 11
5.5980899999999991
 21
20.2272
 31
0.0
  0
LINE
  5
D9
100
AcDbEntity
  8
None
370
               9
390
0
  6
Continuous
 62
              12
100
AcDbLine
 10
-2.7644099999999998
 20
28.589699999999997
 30
0.0
 11
-2.7644099999999998
 21
21.3522
 31
0.0
  0
LINE
  5
DA
100
AcDbEntity
  8
None
370
               9
390
0
  6
Continuous
 62
              12
100
AcDbLine
 10
-2.7644099999999998
 20
19.1022
 30
0.0
 11
-2.7644099999999998
 21
11.864699999999999
 31
0.0
  0
ENDBLK
  5
DB
100
AcDbEntity
  8
Dimension
390
0
100
AcDbBlockEnd
  0
BLOCK
  5
DC
100
AcDbEntity
  8
Dimension
390
0
100
AcDbBlockBegin
  2
Group-1
 70
               0
 10
0.0
 20
0.0
 30
0.0
  3
Group-1
  1

  0
LINE
  5
DD
100
AcDbEntity
  8
None
370
               9
390
0
  6
Continuous
 62
               7
100
AcDbLine
 10
-6.931076666557761
 20
24.937199999999997
 30
0.0
 11
-6.0977433334422386
 21
24.937199999999997
 31
0.0
  0
LINE
  5
DE
100
AcDbEntity
  8
None
370
               9
390
0
  6
Continuous
 62
               7
100
AcDbLine
 10
-6.5144099999999998
 20
24.520533333442238
 30
0.0
 11
-6.5144099999999998
 21
25.353866666557757
 31
0.0
  0
ENDBLK
  5
DF
100
AcDbEntity
  8
Dimension
390
0
100
AcDbBlockEnd
  0
BLOCK
  5
E0
100
AcDbEntity
  8
Dimension
390
0
100
AcDbBlockBegin
  2
*D12
 70
               1
 10
0.0
 20
0.0
 30
0.0
  3
*D12
  1

  0
LINE
  5
E1
100
AcDbEntity
  8
Dimension
370
              -2
390
0
  6
Continuous
 62
               0
100
AcDbLine
 10
20.250001599999997
 20
26.322503235788517
 30
0.0
 11
20.250001599999997
 21
28.396921891715934
 31
0.0
  0
LINE
  5
E2
100
AcDbEntity
  8
Dimension
370
              -2
390
0
  6
Continuous
 62
               0
100
AcDbLine
 10
18.312501599999997
 20
26.830003235788517
 30
0.0
 11
18.312501599999997
 21
28.396921891715934
 31
0.0
  0
LINE
  5
E3
100
AcDbEntity
  8
Dimension
370
              -2
390
0
  6
Continuous
 62
               0
100
AcDbLine
 10
18.312501599999997
 20
27.761920620138891
 30
0.0
 11
20.250001599999997
 21
27.761920620138891
 31
0.0
  0
LINE
  5
E4
100
AcDbEntity
  8
Dimension
370
              -2
390
0
  6
Continuous
 62
               0
100
AcDbLine
 10
20.250001599999997
 20
27.761920620138891
 30
0.0
 11
21.264358691871294
 21
27.761920620138891
 31
0.0
  0
SOLID
  5
E5
100
AcDbEntity
  8
Dimension
370
              -2
390
0
 62
               0
100
AcDbTrace
 10
20.250001599999997
 20
27.761920620138891
 30
0.0
 11
20.779169324999994
 21
27.903710684713257
 31
0.0
 12
20.779169324999994
 22
27.620130555564526
 32
0.0
 13
20.779169324999994
 23
27.620130555564526
 33
0.0
  0
LINE
  5
E6
100
AcDbEntity
  8
Dimension
370
              -2
390
0
  6
Continuous
 62
               0
100
AcDbLine
 10
18.312501599999997
 20
27.761920620138891
 30
0.0
 11
17.145834934426787
 21
27.761920620138891
 31
0.0
  0
SOLID
  5
E7
100
AcDbEntity
  8
Dimension
370
              -2
390
0
 62
               0
100
AcDbTrace
 10
18.312501599999997
 20
27.761920620138891
 30
0.0
 11
17.783333874999997
 21
27.620130555564526
 31
0.0
 12
17.783333874999997
 22
27.903710684713257
 32
0.0
 13
17.783333874999997
 23
27.903710684713257
 33
0.0
  0
WIPEOUT
  5
E8
100
AcDbEntity
  8
Dimension
370
              -2
390
0
  6
Continuous
 62
               0
 92
        0
100
AcDbWipeout
 90
        0
 10
21.264358691871294
 20
53.590450240277775
 30
0.0
 11
2.7987094356854225
 21
0.0
 31
0.0
 12
0.0
 22
2.7987094356854225
 32
0.0
 13
1.0
 23
1.0
340
0
 70
               7
280
               1
281
              50
282
              50
283
               0
360
0
 71
               2
 91
        5
 14
-0.5
 24
9.8495268448943563
 14
0.5000000000000007
 24
9.8495268448943563
 14
0.5000000000000007
 24
9.6079302178559267
 14
-0.5
 24
9.6079302178559267
 14
-0.5
 24
9.8495268448943563
  0
MTEXT
  5
E9
100
AcDbEntity
  8
Dimension
390
0
 62
               0
100
AcDbMText
 10
21.264358691871294
 20
27.991900343214706
 30
0.0
 40
0.4210680682146991
 41
0.0
 71
               1
 72
               1
  1
1.9375mm
  7
Helvetica
 73
               1
 44
0.9673603504928806
  0
POINT
  5
EA
100
AcDbEntity
  8
Defpoints
370
               0
390
0
 62
               0
100
AcDbPoint
 10
18.312501599999997
 20
26.512502599999994
 30
0.0
  0
POINT
  5
EB
100
AcDbEntity
  8
Defpoints
370
               0
390
0
 62
               0
100
AcDbPoint
 10
20.250001599999997
 20
26.005002599999994
 30
0.0
  0
POINT
  5
EC
100
AcDbEntity
  8
Defpoints
370
               0
390
0
 62
               0
100
AcDbPoint
 10
20.250001599999997
 20
27.761920620138891
 30
0.0
  0
ENDBLK
  5
ED
100
AcDbEntity
  8
Dimension
390
0
100
AcDbBlockEnd
  0
BLOCK
  5
EE
100
AcDbEntity
  8
Dimension
390
0
100
AcDbBlockBegin
  2
*D13
 70
               1
 10
0.0
 20
0.0
 30
0.0
  3
*D13
  1

  0
LINE
  5
EF
100
AcDbEntity
  8
Dimension
370
              -2
390
0
  6
Continuous
 62
               0
100
AcDbLine
 10
17.995000964211474
 20
26.512502599999994
 30
0.0
 11
15.064998728422957
 21
26.512502599999994
 31
0.0
  0
LINE
  5
F0
100
AcDbEntity
  8
Dimension
370
              -2
390
0
  6
Continuous
 62
               0
100
AcDbLine
 10
19.515834297653711
 20
25.535002599999995
 30
0.0
 11
15.064998728422957
 21
25.535002599999995
 31
0.0
  0
LINE
  5
F1
100
AcDbEntity
  8
Dimension
370
              -2
390
0
  6
Continuous
 62
               0
100
AcDbLine
 10
15.699999999999999
 20
25.535002599999995
 30
0.0
 11
15.699999999999999
 21
26.512502599999994
 31
0.0
  0
LINE
  5
F2
100
AcDbEntity
  8
Dimension
370
              -2
390
0
  6
Continuous
 62
               0
100
AcDbLine
 10
15.699999999999999
 20
26.512502599999994
 30
0.0
 11
15.699999999999999
 21
27.800000000000004
 31
0.0
  0
SOLID
  5
F3
100
AcDbEntity
  8
Dimension
370
              -2
390
0
 62
               0
100
AcDbTrace
 10
15.699999999999999
 20
26.512502599999994
 30
0.0
 11
15.558209935425635
 21
27.041670324999995
 31
0.0
 12
15.841790064574363
 22
27.041670324999995
 32
0.0
 13
15.841790064574363
 23
27.041670324999995
 33
0.0
  0
LINE
  5
F4
100
AcDbEntity
  8
Dimension
370
              -2
390
0
  6
Continuous
 62
               0
100
AcDbLine
 10
15.699999999999999
 20
25.535002599999995
 30
0.0
 11
15.699999999999999
 21
24.368335934426785
 31
0.0
  0
SOLID
  5
F5
100
AcDbEntity
  8
Dimension
370
              -2
390
0
 62
               0
100
AcDbTrace
 10
15.699999999999999
 20
25.535002599999995
 30
0.0
 11
15.841790064574363
 21
25.005834874999994
 31
0.0
 12
15.558209935425635
 22
25.005834874999994
 32
0.0
 13
15.558209935425635
 23
25.005834874999994
 33
0.0
  0
WIPEOUT
  5
F6
100
AcDbEntity
  8
Dimension
370
              -2
390
0
  6
Continuous
 62
               0
 92
        0
100
AcDbWipeout
 90
        0
 10
14.300645282157287
 20
53.628529620138892
 30
0.0
 11
2.7987094356854225
 21
0.0
 31
0.0
 12
0.0
 22
2.7987094356854225
 32
0.0
 13
1.0
 23
1.0
340
0
 70
               7
280
               1
281
              50
282
              50
283
               0
360
0
 71
               2
 91
        5
 14
-0.5
 24
9.849526844894358
 14
0.4999999999999993
 24
9.849526844894358
 14
0.4999999999999993
 24
9.6079302178559285
 14
-0.5
 24
9.6079302178559285
 14
-0.5
 24
9.849526844894358
  0
MTEXT
  5
F7
100
AcDbEntity
  8
Dimension
390
0
 62
               0
100
AcDbMText
 10
14.300645282157287
 20
28.029979723075819
 30
0.0
 40
0.4210680682146991
 41
0.0
 71
               1
 72
               1
  1
0.9775mm
  7
Helvetica
 73
               1
 44
0.9673603504928806
  0
POINT
  5
F8
100
AcDbEntity
  8
Defpoints
370
               0
390
0
 62
               0
100
AcDbPoint
 10
19.833334933442234
 20
25.535002599999995
 30
0.0
  0
POINT
  5
F9
100
AcDbEntity
  8
Defpoints
370
               0
390
0
 62
               0
100
AcDbPoint
 10
18.312501599999997
 20
26.512502599999994
 30
0.0
  0
POINT
  5
FA
100
AcDbEntity
  8
Defpoints
370
               0
390
0
 62
               0
100
AcDbPoint
 10
15.699999999999999
 20
26.512502599999994
 30
0.0
  0
ENDBLK
  5
FB
100
AcDbEntity
  8
Dimension
390
0
100
AcDbBlockEnd
  0
BLOCK
  5
FC
100
AcDbEntity
  8
Dimension
390
0
100
AcDbBlockBegin
  2
Group-2
 70
               0
 10
0.0
 20
0.0
 30
0.0
  3
Group-2
  1

  0
LINE
  5
FD
100
AcDbEntity
  8
None
370
               9
390
0
  6
Continuous
 62
               7
100
AcDbLine
 10
1.0689233334422386
 20
24.937199999999997
 30
0.0
 11
1.9022566665577609
 21
24.937199999999997
 31
0.0
  0
LINE
  5
FE
100
AcDbEntity
  8
None
370
               9
390
0
  6
Continuous
 62
               7
100
AcDbLine
 10
1.4855899999999997
 20
24.520533333442238
 30
0.0
 11
1.4855899999999997
 21
25.353866666557757
 31
0.0
  0
ENDBLK
  5
FF
100
AcDbEntity
  8
Dimension
390
0
100
AcDbBlockEnd
  0
BLOCK
  5
100
100
AcDbEntity
  8
Dimension
390
0
100
AcDbBlockBegin
  2
*D15
 70
               1
 10
0.0
 20
0.0
 30
0.0
  3
*D15
  1

  0
LINE
  5
101
100
AcDbEntity
  8
Dimension
370
              -2
390
0
  6
Continuous
 62
               0
100
AcDbLine
 10
28.250001599999994
 20
26.269169902346277
 30
0.0
 11
28.250001599999994
 21
28.135001271577046
 31
0.0
  0
LINE
  5
102
100
AcDbEntity
  8
Dimension
370
              -2
390
0
  6
Continuous
 62
               0
100
AcDbLine
 10
29.687501599999994
 20
26.830003235788517
 30
0.0
 11
29.687501599999994
 21
28.135001271577046
 31
0.0
  0
LINE
  5
103
100
AcDbEntity
  8
Dimension
370
              -2
390
0
  6
Continuous
 62
               0
100
AcDbLine
 10
29.687501599999994
 20
27.500000000000004
 30
0.0
 11
28.250001599999994
 21
27.500000000000004
 31
0.0
  0
LINE
  5
104
100
AcDbEntity
  8
Dimension
370
              -2
390
0
  6
Continuous
 62
               0
100
AcDbLine
 10
28.250001599999994
 20
27.500000000000004
 30
0.0
 11
27.083334934426787
 21
27.500000000000004
 31
0.0
  0
SOLID
  5
105
100
AcDbEntity
  8
Dimension
370
              -2
390
0
 62
               0
100
AcDbTrace
 10
28.250001599999994
 20
27.500000000000004
 30
0.0
 11
27.720833874999997
 21
27.358209935425638
 31
0.0
 12
27.720833874999997
 22
27.641790064574369
 32
0.0
 13
27.720833874999997
 23
27.641790064574369
 33
0.0
  0
LINE
  5
106
100
AcDbEntity
  8
Dimension
370
              -2
390
0
  6
Continuous
 62
               0
100
AcDbLine
 10
29.687501599999994
 20
27.500000000000004
 30
0.0
 11
30.854168265573204
 21
27.500000000000004
 31
0.0
  0
SOLID
  5
107
100
AcDbEntity
  8
Dimension
370
              -2
390
0
 62
               0
100
AcDbTrace
 10
29.687501599999994
 20
27.500000000000004
 30
0.0
 11
30.216669324999994
 21
27.641790064574369
 31
0.0
 12
30.216669324999994
 22
27.358209935425638
 32
0.0
 13
30.216669324999994
 23
27.358209935425638
 33
0.0
  0
WIPEOUT
  5
108
100
AcDbEntity
  8
Dimension
370
              -2
390
0
  6
Continuous
 62
               0
 92
        0
100
AcDbWipeout
 90
        0
 10
30.854168265573204
 20
53.328529620138895
 30
0.0
 11
2.1401895552717631
 21
0.0
 31
0.0
 12
0.0
 22
2.1401895552717631
 32
0.0
 13
1.0
 23
1.0
340
0
 70
               7
280
               1
281
              50
282
              50
283
               0
360
0
 71
               2
 91
        5
 14
-0.5
 24
12.726304411002204
 14
0.5000000000000004
 24
12.726304411002204
 14
0.5000000000000004
 24
12.410370358312013
 14
-0.5
 24
12.410370358312013
 14
-0.5
 24
12.726304411002204
  0
MTEXT
  5
109
100
AcDbEntity
  8
Dimension
390
0
 62
               0
100
AcDbMText
 10
30.854168265573204
 20
27.729979723075818
 30
0.0
 40
0.4210680682146991
 41
0.0
 71
               1
 72
               1
  1
1.44mm
  7
Helvetica
 73
               1
 44
0.9673603504928806
  0
POINT
  5
10A
100
AcDbEntity
  8
Defpoints
370
               0
390
0
 62
               0
100
AcDbPoint
 10
29.687501599999994
 20
26.512502599999994
 30
0.0
  0
POINT
  5
10B
100
AcDbEntity
  8
Defpoints
370
               0
390
0
 62
               0
100
AcDbPoint
 10
28.250001599999994
 20
25.951669266557754
 30
0.0
  0
POINT
  5
10C
100
AcDbEntity
  8
Defpoints
370
               0
390
0
 62
               0
100
AcDbPoint
 10
28.250001599999994
 20
27.500000000000004
 30
0.0
  0
ENDBLK
  5
10D
100
AcDbEntity
  8
Dimension
390
0
100
AcDbBlockEnd
  0
BLOCK
  5
10E
100
AcDbEntity
  8
Dimension
390
0
100
AcDbBlockBegin
  2
Group-3
 70
               0
 10
0.0
 20
0.0
 30
0.0
  3
Group-3
  1

  0
LINE
  5
10F
100
AcDbEntity
  8
None
370
               9
390
0
  6
Continuous
 62
               7
100
AcDbLine
 10
-6.931076666557761
 20
15.517199999999999
 30
0.0
 11
-6.0977433334422386
 21
15.517199999999999
 31
0.0
  0
LINE
  5
110
100
AcDbEntity
  8
None
370
               9
390
0
  6
Continuous
 62
               7
100
AcDbLine
 10
-6.5144099999999998
 20
15.100533333442238
 30
0.0
 11
-6.5144099999999998
 21
15.93386666655776
 31
0.0
  0
ENDBLK
  5
111
100
AcDbEntity
  8
Dimension
390
0
100
AcDbBlockEnd
  0
BLOCK
  5
112
100
AcDbEntity
  8
Dimension
390
0
100
AcDbBlockBegin
  2
*D17
 70
               1
 10
0.0
 20
0.0
 30
0.0
  3
*D17
  1

  0
LINE
  5
113
100
AcDbEntity
  8
Dimension
370
              -2
390
0
  6
Continuous
 62
               0
100
AcDbLine
 10
19.515834297653711
 20
16.115002599999997
 30
0.0
 11
15.184998728422958
 21
16.115002599999997
 31
0.0
  0
LINE
  5
114
100
AcDbEntity
  8
Dimension
370
              -2
390
0
  6
Continuous
 62
               0
100
AcDbLine
 10
17.995000964211474
 20
15.137502599999994
 30
0.0
 11
15.184998728422958
 21
15.137502599999994
 31
0.0
  0
LINE
  5
115
100
AcDbEntity
  8
Dimension
370
              -2
390
0
  6
Continuous
 62
               0
100
AcDbLine
 10
15.82
 20
15.137502599999994
 30
0.0
 11
15.82
 21
16.115002599999997
 31
0.0
  0
LINE
  5
116
100
AcDbEntity
  8
Dimension
370
              -2
390
0
  6
Continuous
 62
               0
100
AcDbLine
 10
15.82
 20
16.115002599999997
 30
0.0
 11
15.82
 21
17.281669265573207
 31
0.0
  0
SOLID
  5
117
100
AcDbEntity
  8
Dimension
370
              -2
390
0
 62
               0
100
AcDbTrace
 10
15.82
 20
16.115002599999997
 30
0.0
 11
15.678209935425636
 21
16.644170324999997
 31
0.0
 12
15.961790064574364
 22
16.644170324999997
 32
0.0
 13
15.961790064574364
 23
16.644170324999997
 33
0.0
  0
LINE
  5
118
100
AcDbEntity
  8
Dimension
370
              -2
390
0
  6
Continuous
 62
               0
100
AcDbLine
 10
15.82
 20
15.137502599999994
 30
0.0
 11
15.82
 21
13.384375838673341
 31
0.0
  0
SOLID
  5
119
100
AcDbEntity
  8
Dimension
370
              -2
390
0
 62
               0
100
AcDbTrace
 10
15.82
 20
15.137502599999994
 30
0.0
 11
15.961790064574364
 21
14.608334874999994
 31
0.0
 12
15.678209935425636
 22
14.608334874999994
 32
0.0
 13
15.678209935425636
 23
14.608334874999994
 33
0.0
  0
WIPEOUT
  5
11A
100
AcDbEntity
  8
Dimension
370
              -2
390
0
  6
Continuous
 62
               0
 92
        0
100
AcDbWipeout
 90
        0
 10
14.749905222364118
 20
39.21290545881223
 30
0.0
 11
2.1401895552717622
 21
0.0
 31
0.0
 12
0.0
 22
2.1401895552717622
 32
0.0
 13
1.0
 23
1.0
340
0
 70
               7
280
               1
281
              50
282
              50
283
               0
360
0
 71
               2
 91
        5
 14
-0.5
 24
12.726304411002209
 14
0.5
 24
12.726304411002209
 14
0.5
 24
12.41037035831202
 14
-0.5
 24
12.41037035831202
 14
-0.5
 24
12.726304411002209
  0
MTEXT
  5
11B
100
AcDbEntity
  8
Dimension
390
0
 62
               0
100
AcDbMText
 10
14.749905222364118
 20
13.61435556174915
 30
0.0
 40
0.4210680682146991
 41
0.0
 71
               1
 72
               1
  1
0.98mm
  7
Helvetica
 73
               1
 44
0.9673603504928806
  0
POINT
  5
11C
100
AcDbEntity
  8
Defpoints
370
               0
390
0
 62
               0
100
AcDbPoint
 10
18.312501599999997
 20
15.137502599999994
 30
0.0
  0
POINT
  5
11D
100
AcDbEntity
  8
Defpoints
370
               0
390
0
 62
               0
100
AcDbPoint
 10
19.833334933442234
 20
16.115002599999997
 30
0.0
  0
POINT
  5
11E
100
AcDbEntity
  8
Defpoints
370
               0
390
0
 62
               0
100
AcDbPoint
 10
15.82
 20
16.115002599999997
 30
0.0
  0
ENDBLK
  5
11F
100
AcDbEntity
  8
Dimension
390
0
100
AcDbBlockEnd
  0
ENDSEC
  0
SECTION
  2
ENTITIES
  0
MTEXT
  5
120
100
AcDbEntity
  8
None
390
0
 62
               7
100
AcDbMText
 10
28.658712055259997
 20
5.8290739692230487
 30
0.0
 40
0.3469900602981771
 41
19.035168070259999
 71
               1
 72
               1
  1
Recommended PCB Layout Tolerances:  ±0.025mm [±0.001"] unless stated otherwise.\P
  7
Helvetica
 73
               1
 44
0.9673603504928806
  0
MTEXT
  5
121
100
AcDbEntity
  8
None
390
0
 62
               7
100
AcDbMText
 10
6.0308001328599978
 20
33.781902792720416
 30
0.0
 40
0.421068333454427
 41
7.8846091025199998
 71
               1
 72
               1
  1
{\LRecommended PCB Layout Top View}\P
  7
Helvetica
 73
               1
 44
0.9673603504928809
  0
WIPEOUT
  5
122
100
AcDbEntity
  8
None
370
              15
390
0
  6
Continuous
 62
              12
 92
        0
100
AcDbWipeout
 90
        0
 10
5.8564164507599976
 20
33.052390842599998
 30
0.0
 11
11.900982350568899
 21
0.0
 31
0.0
 12
0.0
 22
11.900982350568899
 32
0.0
 13
1.0
 23
1.0
340
0
 70
               7
280
               1
281
              50
282
              50
283
               0
360
0
 71
               2
 91
        5
 14
-0.5
 24
2.6986932027295349
 14
0.5
 24
2.6986932027295349
 14
0.5
 24
2.4941578573860772
 14
-0.5
 24
2.4941578573860772
 14
-0.5
 24
2.6986932027295349
  0
MTEXT
  5
123
100
AcDbEntity
  8
None
390
0
 62
              12
100
AcDbMText
 10
5.8564164507599976
 20
9.2226636864932274
 30
0.0
 40
0.3789612613932292
 41
0.0
 71
               1
 72
               1
  1
{\LTarget PCB Recommendations}\PTotal thickness: 1.6mm min.\PPlating: Gold or Solder finish\PPCB Pad height: Same or higher than solder mask
  7
Arial
 73
               1
 44
0.9673603504928806
  0
WIPEOUT
  5
124
100
AcDbEntity
  8
Dimension
370
               5
390
0
  6
Continuous
 62
               7
 92
        0
100
AcDbWipeout
 90
        0
 10
21.842931757059997
 20
29.638546555306867
 30
0.0
 11
7.0893641787000004
 21
0.0
 31
0.0
 12
0.0
 22
7.0893641787000004
 32
0.0
 13
1.0
 23
1.0
340
0
 70
               7
280
               1
281
              50
282
              50
283
               0
360
0
 71
               2
 91
        5
 14
-0.5
 24
4.031730459570106
 14
0.4999999999999998
 24
4.031730459570106
 14
0.4999999999999998
 24
4.1909669669132796
 14
-0.5
 24
4.1909669669132796
 14
-0.5
 24
4.031730459570106
  0
POLYLINE
  5
125
100
AcDbEntity
  8
Dimension
370
               5
390
0
  6
Continuous
 62
               7
100
AcDb2dPolyline
 66
               1
 10
0.0
 20
0.0
 30
0.0
 70
               1
 75
               5
  0
VERTEX
  5
126
100
AcDbEntity
  8
Dimension
370
               5
390
0
  6
Continuous
 62
               7
100
AcDbVertex
100
AcDb2dVertex
 10
21.842931757059997
 20
4.6008231464068707
 30
0.0
  0
VERTEX
  5
127
100
AcDbEntity
  8
Dimension
370
               5
390
0
  6
Continuous
 62
               7
100
AcDbVertex
100
AcDb2dVertex
 10
28.932295935759996
 20
4.6008231464068707
 30
0.0
  0
VERTEX
  5
128
100
AcDbEntity
  8
Dimension
370
               5
390
0
  6
Continuous
 62
               7
100
AcDbVertex
100
AcDb2dVertex
 10
28.932295935759996
 20
3.4719375553068703
 30
0.0
  0
VERTEX
  5
129
100
AcDbEntity
  8
Dimension
370
               5
390
0
  6
Continuous
 62
               7
100
AcDbVertex
100
AcDb2dVertex
 10
21.842931757059997
 20
3.4719375553068703
 30
0.0
  0
SEQEND
  5
12A
100
AcDbEntity
  8
Dimension
370
               5
390
0
  6
Continuous
 62
               7
  0
WIPEOUT
  5
12B
100
AcDbEntity
  8
Dimension
370
               5
390
0
  6
Continuous
 62
               7
 92
        0
100
AcDbWipeout
 90
        0
 10
28.932295935759996
 20
29.638546555306867
 30
0.0
 11
4.954493242299999
 21
0.0
 31
0.0
 12
0.0
 22
4.954493242299999
 32
0.0
 13
1.0
 23
1.0
340
0
 70
               7
280
               1
281
              50
282
              50
283
               0
360
0
 71
               2
 91
        5
 14
-0.5
 24
5.553538714138373
 14
0.4999999999999994
 24
5.553538714138373
 14
0.4999999999999994
 24
5.7813895832165487
 14
-0.5
 24
5.7813895832165487
 14
-0.5
 24
5.553538714138373
  0
POLYLINE
  5
12C
100
AcDbEntity
  8
Dimension
370
               5
390
0
  6
Continuous
 62
               7
100
AcDb2dPolyline
 66
               1
 10
0.0
 20
0.0
 30
0.0
 70
               1
 75
               5
  0
VERTEX
  5
12D
100
AcDbEntity
  8
Dimension
370
               5
390
0
  6
Continuous
 62
               7
100
AcDbVertex
100
AcDb2dVertex
 10
28.932295935759996
 20
4.6008231464068707
 30
0.0
  0
VERTEX
  5
12E
100
AcDbEntity
  8
Dimension
370
               5
390
0
  6
Continuous
 62
               7
100
AcDbVertex
100
AcDb2dVertex
 10
33.886789178059992
 20
4.6008231464068707
 30
0.0
  0
VERTEX
  5
12F
100
AcDbEntity
  8
Dimension
370
               5
390
0
  6
Continuous
 62
               7
100
AcDbVertex
100
AcDb2dVertex
 10
33.886789178059992
 20
3.4719375553068703
 30
0.0
  0
VERTEX
  5
130
100
AcDbEntity
  8
Dimension
370
               5
390
0
  6
Continuous
 62
               7
100
AcDbVertex
100
AcDb2dVertex
 10
28.932295935759996
 20
3.4719375553068703
 30
0.0
  0
SEQEND
  5
131
100
AcDbEntity
  8
Dimension
370
               5
390
0
  6
Continuous
 62
               7
  0
WIPEOUT
  5
132
100
AcDbEntity
  8
Dimension
370
               5
390
0
  6
Continuous
 62
               7
 92
        0
100
AcDbWipeout
 90
        0
 10
33.886789178059992
 20
29.638546555306867
 30
0.0
 11
4.9614765896000002
 21
0.0
 31
0.0
 12
0.0
 22
4.9614765896000002
 32
0.0
 13
1.0
 23
1.0
340
0
 70
               7
280
               1
281
              50
282
              50
283
               0
360
0
 71
               2
 91
        5
 14
-0.5
 24
5.5464257881177597
 14
0.5000000000000007
 24
5.5464257881177597
 14
0.5000000000000007
 24
5.7739559539289447
 14
-0.5
 24
5.7739559539289447
 14
-0.5
 24
5.5464257881177597
  0
POLYLINE
  5
133
100
AcDbEntity
  8
Dimension
370
               5
390
0
  6
Continuous
 62
               7
100
AcDb2dPolyline
 66
               1
 10
0.0
 20
0.0
 30
0.0
 70
               1
 75
               5
  0
VERTEX
  5
134
100
AcDbEntity
  8
Dimension
370
               5
390
0
  6
Continuous
 62
               7
100
AcDbVertex
100
AcDb2dVertex
 10
33.886789178059992
 20
4.6008231464068707
 30
0.0
  0
VERTEX
  5
135
100
AcDbEntity
  8
Dimension
370
               5
390
0
  6
Continuous
 62
               7
100
AcDbVertex
100
AcDb2dVertex
 10
38.848265767659996
 20
4.6008231464068707
 30
0.0
  0
VERTEX
  5
136
100
AcDbEntity
  8
Dimension
370
               5
390
0
  6
Continuous
 62
               7
100
AcDbVertex
100
AcDb2dVertex
 10
38.848265767659996
 20
3.4719375553068703
 30
0.0
  0
VERTEX
  5
137
100
AcDbEntity
  8
Dimension
370
               5
390
0
  6
Continuous
 62
               7
100
AcDbVertex
100
AcDb2dVertex
 10
33.886789178059992
 20
3.4719375553068703
 30
0.0
  0
SEQEND
  5
138
100
AcDbEntity
  8
Dimension
370
               5
390
0
  6
Continuous
 62
               7
  0
WIPEOUT
  5
139
100
AcDbEntity
  8
Dimension
370
               5
390
0
  6
Continuous
 62
               7
 92
        0
100
AcDbWipeout
 90
        0
 10
21.842931757059997
 20
28.509640964166866
 30
0.0
 11
9.0820814974600008
 21
0.0
 31
0.0
 12
0.0
 22
9.0820814974600008
 32
0.0
 13
1.0
 23
1.0
340
0
 70
               7
280
               1
281
              50
282
              50
283
               0
360
0
 71
               2
 91
        5
 14
-0.5
 24
3.2568243486762731
 14
0.4999999999999998
 24
3.2568243486762731
 14
0.4999999999999998
 24
3.3811246636927947
 14
-0.5
 24
3.3811246636927947
 14
-0.5
 24
3.2568243486762731
  0
POLYLINE
  5
13A
100
AcDbEntity
  8
Dimension
370
               5
390
0
  6
Continuous
 62
               7
100
AcDb2dPolyline
 66
               1
 10
0.0
 20
0.0
 30
0.0
 70
               1
 75
               5
  0
VERTEX
  5
13B
100
AcDbEntity
  8
Dimension
370
               5
390
0
  6
Continuous
 62
               7
100
AcDbVertex
100
AcDb2dVertex
 10
21.842931757059997
 20
3.4719375553068703
 30
0.0
  0
VERTEX
  5
13C
100
AcDbEntity
  8
Dimension
370
               5
390
0
  6
Continuous
 62
               7
100
AcDbVertex
100
AcDb2dVertex
 10
30.925013254519996
 20
3.4719375553068703
 30
0.0
  0
VERTEX
  5
13D
100
AcDbEntity
  8
Dimension
370
               5
390
0
  6
Continuous
 62
               7
100
AcDbVertex
100
AcDb2dVertex
 10
30.925013254519996
 20
2.3430319641668693
 30
0.0
  0
VERTEX
  5
13E
100
AcDbEntity
  8
Dimension
370
               5
390
0
  6
Continuous
 62
               7
100
AcDbVertex
100
AcDb2dVertex
 10
21.842931757059997
 20
2.3430319641668693
 30
0.0
  0
SEQEND
  5
13F
100
AcDbEntity
  8
Dimension
370
               5
390
0
  6
Continuous
 62
               7
  0
WIPEOUT
  5
140
100
AcDbEntity
  8
Dimension
370
               5
390
0
  6
Continuous
 62
               7
 92
        0
100
AcDbWipeout
 90
        0
 10
30.925013254519996
 20
28.509640964166866
 30
0.0
 11
7.9232525131399996
 21
0.0
 31
0.0
 12
0.0
 22
7.9232525131399996
 32
0.0
 13
1.0
 23
1.0
340
0
 70
               7
280
               1
281
              50
282
              50
283
               0
360
0
 71
               2
 91
        5
 14
-0.5
 24
3.6600284564119625
 14
0.5
 24
3.6600284564119625
 14
0.5
 24
3.802508528739307
 14
-0.5
 24
3.802508528739307
 14
-0.5
 24
3.6600284564119625
  0
POLYLINE
  5
141
100
AcDbEntity
  8
Dimension
370
               5
390
0
  6
Continuous
 62
               7
100
AcDb2dPolyline
 66
               1
 10
0.0
 20
0.0
 30
0.0
 70
               1
 75
               5
  0
VERTEX
  5
142
100
AcDbEntity
  8
Dimension
370
               5
390
0
  6
Continuous
 62
               7
100
AcDbVertex
100
AcDb2dVertex
 10
30.925013254519996
 20
3.4719375553068703
 30
0.0
  0
VERTEX
  5
143
100
AcDbEntity
  8
Dimension
370
               5
390
0
  6
Continuous
 62
               7
100
AcDbVertex
100
AcDb2dVertex
 10
38.848265767659996
 20
3.4719375553068703
 30
0.0
  0
VERTEX
  5
144
100
AcDbEntity
  8
Dimension
370
               5
390
0
  6
Continuous
 62
               7
100
AcDbVertex
100
AcDb2dVertex
 10
38.848265767659996
 20
2.3430319641668693
 30
0.0
  0
VERTEX
  5
145
100
AcDbEntity
  8
Dimension
370
               5
390
0
  6
Continuous
 62
               7
100
AcDbVertex
100
AcDb2dVertex
 10
30.925013254519996
 20
2.3430319641668693
 30
0.0
  0
SEQEND
  5
146
100
AcDbEntity
  8
Dimension
370
               5
390
0
  6
Continuous
 62
               7
  0
WIPEOUT
  5
147
100
AcDbEntity
  8
Dimension
370
               5
390
0
  6
Continuous
 62
               7
 92
        0
100
AcDbWipeout
 90
        0
 10
30.925013254519996
 20
27.380758706406869
 30
0.0
 11
7.9232525131399996
 21
0.0
 31
0.0
 12
0.0
 22
7.9232525131399996
 32
0.0
 13
1.0
 23
1.0
340
0
 70
               7
280
               1
281
              50
282
              50
283
               0
360
0
 71
               2
 91
        5
 14
-0.5
 24
3.6600314013364068
 14
0.5
 24
3.6600314013364068
 14
0.5
 24
3.802508528739307
 14
-0.5
 24
3.802508528739307
 14
-0.5
 24
3.6600314013364068
  0
POLYLINE
  5
148
100
AcDbEntity
  8
Dimension
370
               5
390
0
  6
Continuous
 62
               7
100
AcDb2dPolyline
 66
               1
 10
0.0
 20
0.0
 30
0.0
 70
               1
 75
               5
  0
VERTEX
  5
149
100
AcDbEntity
  8
Dimension
370
               5
390
0
  6
Continuous
 62
               7
100
AcDbVertex
100
AcDb2dVertex
 10
30.925013254519996
 20
2.3430319641668693
 30
0.0
  0
VERTEX
  5
14A
100
AcDbEntity
  8
Dimension
370
               5
390
0
  6
Continuous
 62
               7
100
AcDbVertex
100
AcDb2dVertex
 10
38.848265767659996
 20
2.3430319641668693
 30
0.0
  0
VERTEX
  5
14B
100
AcDbEntity
  8
Dimension
370
               5
390
0
  6
Continuous
 62
               7
100
AcDbVertex
100
AcDb2dVertex
 10
38.848265767659996
 20
1.21414970640687
 30
0.0
  0
VERTEX
  5
14C
100
AcDbEntity
  8
Dimension
370
               5
390
0
  6
Continuous
 62
               7
100
AcDbVertex
100
AcDb2dVertex
 10
30.925013254519996
 20
1.21414970640687
 30
0.0
  0
SEQEND
  5
14D
100
AcDbEntity
  8
Dimension
370
               5
390
0
  6
Continuous
 62
               7
  0
WIPEOUT
  5
14E
100
AcDbEntity
  8
Dimension
370
               5
390
0
  6
Continuous
 62
               7
 92
        0
100
AcDbWipeout
 90
        0
 10
21.842931757059997
 20
27.380758706406869
 30
0.0
 11
9.0820814974600008
 21
0.0
 31
0.0
 12
0.0
 22
9.0820814974600008
 32
0.0
 13
1.0
 23
1.0
340
0
 70
               7
280
               1
281
              50
282
              50
283
               0
360
0
 71
               2
 91
        5
 14
-0.5
 24
3.2568269178428246
 14
0.4999999999999998
 24
3.2568269178428246
 14
0.4999999999999998
 24
3.3811246636927947
 14
-0.5
 24
3.3811246636927947
 14
-0.5
 24
3.2568269178428246
  0
POLYLINE
  5
14F
100
AcDbEntity
  8
Dimension
370
               5
390
0
  6
Continuous
 62
               7
100
AcDb2dPolyline
 66
               1
 10
0.0
 20
0.0
 30
0.0
 70
               1
 75
               5
  0
VERTEX
  5
150
100
AcDbEntity
  8
Dimension
370
               5
390
0
  6
Continuous
 62
               7
100
AcDbVertex
100
AcDb2dVertex
 10
21.842931757059997
 20
2.3430319641668693
 30
0.0
  0
VERTEX
  5
151
100
AcDbEntity
  8
Dimension
370
               5
390
0
  6
Continuous
 62
               7
100
AcDbVertex
100
AcDb2dVertex
 10
30.925013254519996
 20
2.3430319641668693
 30
0.0
  0
VERTEX
  5
152
100
AcDbEntity
  8
Dimension
370
               5
390
0
  6
Continuous
 62
               7
100
AcDbVertex
100
AcDb2dVertex
 10
30.925013254519996
 20
1.21414970640687
 30
0.0
  0
VERTEX
  5
153
100
AcDbEntity
  8
Dimension
370
               5
390
0
  6
Continuous
 62
               7
100
AcDbVertex
100
AcDb2dVertex
 10
21.842931757059997
 20
1.21414970640687
 30
0.0
  0
SEQEND
  5
154
100
AcDbEntity
  8
Dimension
370
               5
390
0
  6
Continuous
 62
               7
  0
MTEXT
  5
155
100
AcDbEntity
  8
None
390
0
 62
               7
100
AcDbMText
 10
22.266265937059995
 20
4.2811896651272976
 30
0.0
 40
0.421068333454427
 41
0.0
 71
               1
 72
               1
  1
Status: Released
  7
Arial
 73
               1
 44
0.9673603504928809
  0
MTEXT
  5
156
100
AcDbEntity
  8
None
390
0
 62
               7
100
AcDbMText
 10
22.266265937059995
 20
3.1513507387872974
 30
0.0
 40
0.421068333454427
 41
0.0
 71
               1
 72
               1
  1
Drawing: H. Hansen
  7
Arial
 73
               1
 44
0.9673603504928809
  0
WIPEOUT
  5
157
100
AcDbEntity
  8
None
370
               5
390
0
  6
Continuous
 62
               7
 92
        0
100
AcDbWipeout
 90
        0
 10
29.355630115759997
 20
29.909069263017869
 30
0.0
 11
2.6282013157250725
 21
0.0
 31
0.0
 12
0.0
 22
2.6282013157250725
 32
0.0
 13
1.0
 23
1.0
340
0
 70
               7
280
               1
281
              50
282
              50
283
               0
360
0
 71
               2
 91
        5
 14
-0.5
 24
10.456090061838019
 14
0.4999999999999997
 24
10.456090061838019
 14
0.4999999999999997
 24
10.198819364344869
 14
-0.5
 24
10.198819364344869
 14
-0.5
 24
10.456090061838019
  0
MTEXT
  5
158
100
AcDbEntity
  8
None
390
0
 62
               7
100
AcDbMText
 10
29.355630115759997
 20
4.310519723787297
 30
0.0
 40
0.421068333454427
 41
0.0
 71
               1
 72
               1
  1
Scale: 6:1
  7
Arial
 73
               1
 44
0.9673603504928809
  0
MTEXT
  5
159
100
AcDbEntity
  8
None
390
0
 62
               7
100
AcDbMText
 10
34.310123358059997
 20
4.2802463299072979
 30
0.0
 40
0.421068333454427
 41
0.0
 71
               1
 72
               1
  1
Rev: C
  7
Arial
 73
               1
 44
0.9673603504928809
  0
MTEXT
  5
15A
100
AcDbEntity
  8
None
390
0
 62
               7
100
AcDbMText
 10
31.348347434519994
 20
3.0574072175672975
 30
0.0
 40
0.421068333454427
 41
0.0
 71
               1
 72
               1
  1
Date: 8/22/05
  7
Arial
 73
               1
 44
0.9673603504928809
  0
MTEXT
  5
15B
100
AcDbEntity
  8
None
390
0
 62
               7
100
AcDbMText
 10
22.222105848739997
 20
1.9375650143457026
 30
0.0
 40
0.2947471172708333
 41
9.0820814974600008
 71
               1
 72
               1
  1
File: SG-MLF-7015 Dwg
  7
Arial
 73
               1
 44
0.9673603504928808
  0
WIPEOUT
  5
15C
100
AcDbEntity
  8
Dimension
370
               5
390
0
  6
Continuous
 62
               7
 92
        0
100
AcDbWipeout
 90
        0
 10
4.9730646840599952
 20
27.380758706406869
 30
0.0
 11
16.869867072999998
 21
0.0
 31
0.0
 12
0.0
 22
16.869867072999998
 32
0.0
 13
1.0
 23
1.0
340
0
 70
               7
280
               1
281
              50
282
              50
283
               0
360
0
 71
               2
 91
        5
 14
-0.5
 24
1.9172501210377499
 14
0.5000000000000002
 24
1.9172501210377499
 14
0.5000000000000002
 24
2.0510856657477352
 14
-0.5
 24
2.0510856657477352
 14
-0.5
 24
1.9172501210377499
  0
POLYLINE
  5
15D
100
AcDbEntity
  8
Dimension
370
               5
390
0
  6
Continuous
 62
               7
100
AcDb2dPolyline
 66
               1
 10
0.0
 20
0.0
 30
0.0
 70
               1
 75
               5
  0
VERTEX
  5
15E
100
AcDbEntity
  8
Dimension
370
               5
390
0
  6
Continuous
 62
               7
100
AcDbVertex
100
AcDb2dVertex
 10
4.9730646840599952
 20
3.4719375553068703
 30
0.0
  0
VERTEX
  5
15F
100
AcDbEntity
  8
Dimension
370
               5
390
0
  6
Continuous
 62
               7
100
AcDbVertex
100
AcDb2dVertex
 10
21.842931757059997
 20
3.4719375553068703
 30
0.0
  0
VERTEX
  5
160
100
AcDbEntity
  8
Dimension
370
               5
390
0
  6
Continuous
 62
               7
100
AcDbVertex
100
AcDb2dVertex
 10
21.842931757059997
 20
1.21414970640687
 30
0.0
  0
VERTEX
  5
161
100
AcDbEntity
  8
Dimension
370
               5
390
0
  6
Continuous
 62
               7
100
AcDbVertex
100
AcDb2dVertex
 10
4.9730646840599952
 20
1.21414970640687
 30
0.0
  0
SEQEND
  5
162
100
AcDbEntity
  8
Dimension
370
               5
390
0
  6
Continuous
 62
               7
  0
WIPEOUT
  5
163
100
AcDbEntity
  8
Dimension
370
               5
390
0
  6
Continuous
 62
               7
 92
        0
100
AcDbWipeout
 90
        0
 10
4.9730646840599952
 20
29.638546555306867
 30
0.0
 11
16.869867072999998
 21
0.0
 31
0.0
 12
0.0
 22
16.869867072999998
 32
0.0
 13
1.0
 23
1.0
340
0
 70
               7
280
               1
281
              50
282
              50
283
               0
360
0
 71
               2
 91
        5
 14
-0.5
 24
1.9841683873711455
 14
0.5000000000000002
 24
1.9841683873711455
 14
0.5000000000000002
 24
2.0510856657477352
 14
-0.5
 24
2.0510856657477352
 14
-0.5
 24
1.9841683873711455
  0
POLYLINE
  5
164
100
AcDbEntity
  8
Dimension
370
               5
390
0
  6
Continuous
 62
               7
100
AcDb2dPolyline
 66
               1
 10
0.0
 20
0.0
 30
0.0
 70
               1
 75
               5
  0
VERTEX
  5
165
100
AcDbEntity
  8
Dimension
370
               5
390
0
  6
Continuous
 62
               7
100
AcDbVertex
100
AcDb2dVertex
 10
4.9730646840599952
 20
4.6008231464068707
 30
0.0
  0
VERTEX
  5
166
100
AcDbEntity
  8
Dimension
370
               5
390
0
  6
Continuous
 62
               7
100
AcDbVertex
100
AcDb2dVertex
 10
21.842931757059997
 20
4.6008231464068707
 30
0.0
  0
VERTEX
  5
167
100
AcDbEntity
  8
Dimension
370
               5
390
0
  6
Continuous
 62
               7
100
AcDbVertex
100
AcDb2dVertex
 10
21.842931757059997
 20
3.4719375553068703
 30
0.0
  0
VERTEX
  5
168
100
AcDbEntity
  8
Dimension
370
               5
390
0
  6
Continuous
 62
               7
100
AcDbVertex
100
AcDb2dVertex
 10
4.9730646840599952
 20
3.4719375553068703
 30
0.0
  0
SEQEND
  5
169
100
AcDbEntity
  8
Dimension
370
               5
390
0
  6
Continuous
 62
               7
  0
MTEXT
  5
16A
100
AcDbEntity
  8
None
390
0
 62
               7
100
AcDbMText
 10
13.807999020559997
 20
4.3026266236261286
 30
0.0
 40
0.4911719892864582
 41
0.0
 71
               2
 72
               1
  1
SG-MLF-7015 Drawing
  7
Arial (bold)
 73
               1
 44
0.9925958378970426
  0
INSERT
  5
16B
100
AcDbEntity
  8
None
390
0
 62
               7
100
AcDbBlockReference
  2
IE i logo
 10
6.7779382937999983
 20
2.3606853328068698
 30
0.0
 41
0.333334
 42
0.333334
 43
0.333334
  0
MTEXT
  5
16C
100
AcDbEntity
  8
None
390
0
 62
               7
100
AcDbMText
 10
31.348347434519994
 20
2.0307951643472966
 30
0.0
 40
0.421068333454427
 41
0.0
 71
               1
 72
               1
  1
Modified: 05/29/08
  7
Arial
 73
               1
 44
0.9673603504928809
  0
WIPEOUT
  5
16D
100
AcDbEntity
  8
None
370
               9
390
0
  6
Continuous
 62
               7
 92
        0
100
AcDbWipeout
 90
        0
 10
40.509635757059996
 20
27.773886425994068
 30
0.0
 11
5.0705936365543165
 21
0.0
 31
0.0
 12
0.0
 22
5.0705936365543165
 32
0.0
 13
1.0
 23
1.0
340
0
 70
               7
280
               1
281
              50
282
              50
283
               0
360
0
 71
               2
 91
        5
 14
-0.5
 24
5.6604626352549356
 14
0.4999999999999994
 24
5.6604626352549356
 14
0.4999999999999994
 24
5.4689041947815147
 14
-0.5
 24
5.4689041947815147
 14
-0.5
 24
5.6604626352549356
  0
MTEXT
  5
16E
100
AcDbEntity
  8
None
390
0
 62
               7
100
AcDbMText
 10
40.509635757059996
 20
2.4025587387757361
 30
0.0
 40
0.5894942345416665
 41
0.0
 71
               1
 72
               1
  1
PAGE 2 OF 4
  7
Arial (bold)
 73
               1
 44
0.9925958378970429
  0
INSERT
  5
16F
100
AcDbEntity
  8
None
390
0
 62
               7
100
AcDbBlockReference
  2
©2006_address
 10
15.242918023725597
 20
2.3728778238584707
 30
0.0
 41
0.333334
 42
0.333334
 43
0.333334
  0
CIRCLE
  5
170
102
{ACAD_REACTORS
330
171
102
}
100
AcDbEntity
  8
None
370
               9
390
0
  6
Continuous
 62
               7
100
AcDbCircle
 10
19.762501599999997
 20
26.762502599999994
 30
0.0
 40
0.2124400000000009
  0
HATCH
  5
171
100
AcDbEntity
  8
None
370
               0
390
0
  6
Continuous
 62
               7
100
AcDbHatch
 10
0.0
 20
0.0
 30
0.0
210
0.0
220
0.0
230
1.0
  2
SOLID
 70
               1
 71
               1
 91
        1
 92
        1
 93
        1
 72
               2
 10
19.762501599999997
 20
26.762502599999994
 40
0.2124400000000009
 50
0.0
 51
360.0
 73
               0
 97
        1
330
170
 75
               0
 76
               1
 98
        1
 10
0.0
 20
0.0
  0
WIPEOUT
  5
172
100
AcDbEntity
  8
None
370
               9
390
0
  6
Continuous
 62
              12
 92
        0
100
AcDbWipeout
 90
        0
 10
10.734391599999999
 20
56.107517599999994
 30
0.0
 11
4.3567836759398357
 21
0.0
 31
0.0
 12
0.0
 22
4.3567836759398357
 32
0.0
 13
1.0
 23
1.0
340
0
 70
               7
280
               1
281
              50
282
              50
283
               0
360
0
 71
               2
 91
        5
 14
-0.5
 24
6.5059463462700835
 14
0.5
 24
6.5059463462700835
 14
0.5
 24
6.3507506674637124
 14
-0.5
 24
6.3507506674637124
 14
-0.5
 24
6.5059463462700835
  0
MTEXT
  5
173
100
AcDbEntity
  8
None
390
0
 62
              12
100
AcDbMText
 10
10.734391599999999
 20
30.508963704166661
 30
0.0
 40
0.4210651041666666
 41
0.0
 71
               1
 72
               1
  1
Orientation Mark
  7
New Century Schlbk
 73
               1
 44
0.9673603504928805
  0
DIMENSION
  5
174
100
AcDbEntity
  8
Dimension
370
               9
390
0
  6
Continuous
 62
              12
100
AcDbDimension
  2
*D4
 10
26.245001599999995
 20
29.861925599999996
 30
0.0
 11
28.100001599999995
 21
29.861925599999996
 31
0.0
 70
             128
 71
               5
 72
               1
 41
1.0
 42
0.0
  3
IE Standard
100
AcDbAlignedDimension
 13
26.745001599999995
 23
25.505002599999997
 33
0.0
 14
26.245001599999995
 24
25.505002599999997
 34
0.0
100
AcDbRotatedDimension
1001
ACAD
1000
DSTYLE
1002
{
1070
             340
1005
34
1070
               3
1000
<>mm typ.
1070
             174
1070
               0
1070
             147
1040
0.066145965625
1002
}
  0
DIMENSION
  5
175
100
AcDbEntity
  8
Dimension
370
               9
390
0
  6
Continuous
 62
              12
100
AcDbDimension
  2
*D5
 10
28.555461599999994
 20
19.109372599999997
 30
0.0
 11
34.187524928224654
 21
15.812531612181237
 31
0.0
 70
               3
 71
               5
 72
               1
 41
1.0
 42
0.0
  1
0.94 x 0.28 mm 
  3
IE Standard
100
AcDbDiametricDimension
 15
29.354541599999994
 25
18.540632599999995
 35
0.0
 40
4.7047099999999995
1001
ACAD
1000
DSTYLE
1002
{
1070
             271
1070
               4
1070
             172
1070
               0
1070
             289
1070
               0
1070
             342
1005
53
1070
             340
1005
34
1070
              75
1070
               1
1070
              76
1070
               1
1070
             174
1070
               0
1070
             147
1040
0.066145965625
1002
}
  0
DIMENSION
  5
176
100
AcDbEntity
  8
Dimension
370
               9
390
0
  6
Continuous
 62
              12
100
AcDbDimension
  2
*D6
 10
19.070001599999998
 20
10.150002599999997
 30
0.0
 11
24.454716565820309
 21
10.150002599999997
 31
0.0
 70
             128
 71
               5
 72
               1
 41
1.0
 42
0.0
  3
IE Standard
100
AcDbAlignedDimension
 13
29.430001599999997
 23
16.685002599999997
 33
0.0
 14
19.070001599999998
 24
16.685002599999997
 34
0.0
100
AcDbRotatedDimension
1001
ACAD
1000
DSTYLE
1002
{
1070
             340
1005
34
1070
             147
1040
0.066145965625
1002
}
  0
DIMENSION
  5
177
100
AcDbEntity
  8
Dimension
370
               9
390
0
  6
Continuous
 62
              12
100
AcDbDimension
  2
*D7
 10
11.050001599999998
 20
26.005002599999994
 30
0.0
 11
11.050001599999998
 21
20.499987951562495
 31
0.0
 70
             128
 71
               5
 72
               1
 41
1.0
 42
0.0
  3
IE Standard
100
AcDbAlignedDimension
 13
20.110001599999997
 23
15.645002599999996
 33
0.0
 14
20.110001599999997
 24
26.005002599999994
 34
0.0
 50
90.0
100
AcDbRotatedDimension
1001
ACAD
1000
DSTYLE
1002
{
1070
             340
1005
34
1070
             147
1040
0.066145965625
1002
}
  0
DIMENSION
  5
178
100
AcDbEntity
  8
Dimension
370
               9
390
0
  6
Continuous
 62
              12
100
AcDbDimension
  2
*D8
 10
13.800001599999996
 20
24.965002599999995
 30
0.0
 11
13.800001599999996
 21
20.933404699609373
 31
0.0
 70
             128
 71
               5
 72
               1
 41
1.0
 42
0.0
  3
IE Standard
100
AcDbAlignedDimension
 13
19.070001599999998
 23
16.685002599999997
 33
0.0
 14
19.070001599999998
 24
24.965002599999995
 34
0.0
 50
90.0
100
AcDbRotatedDimension
1001
ACAD
1000
DSTYLE
1002
{
1070
             340
1005
34
1070
             147
1040
0.066145965625
1002
}
  0
DIMENSION
  5
179
100
AcDbEntity
  8
Dimension
370
               9
390
0
  6
Continuous
 62
              12
100
AcDbDimension
  2
*D9
 10
20.110001599999997
 20
11.700002599999996
 30
0.0
 11
24.216647107812495
 21
11.700002599999996
 31
0.0
 70
             128
 71
               5
 72
               1
 41
1.0
 42
0.0
  3
IE Standard
100
AcDbAlignedDimension
 13
28.390001599999994
 23
15.645002599999996
 33
0.0
 14
20.110001599999997
 24
15.645002599999996
 34
0.0
100
AcDbRotatedDimension
1001
ACAD
1000
DSTYLE
1002
{
1070
             340
1005
34
1070
             147
1040
0.066145965625
1002
}
  0
WIPEOUT
  5
17A
100
AcDbEntity
  8
None
370
               9
390
0
  6
Continuous
 62
              12
 92
        0
100
AcDbWipeout
 90
        0
 10
38.525852980279772
 20
41.600659262506525
 30
0.0
 11
2.6516995605595799
 21
0.0
 31
0.0
 12
0.0
 22
2.6516995605595799
 32
0.0
 13
1.0
 23
1.0
340
0
 70
               7
280
               1
281
              50
282
              50
283
               0
360
0
 71
               2
 91
        5
 14
-0.5
 24
10.367863384371544
 14
0.500000000000002
 24
10.367863384371544
 14
0.500000000000002
 24
10.112874467053434
 14
-0.5
 24
10.112874467053434
 14
-0.5
 24
10.367863384371544
  0
MTEXT
  5
17B
100
AcDbEntity
  8
None
390
0
 62
              12
100
AcDbMText
 10
38.525852980279772
 20
16.002105366673195
 30
0.0
 40
0.4210651041666666
 41
0.0
 71
               1
 72
               1
  1
pad (x 68)
  7
Arial
 73
               1
 44
0.9673603504928805
  0
SOLID
  5
17C
100
AcDbEntity
  8
None
370
               9
390
0
  6
Continuous
 62
               7
100
AcDbTrace
 10
20.110001599999997
 20
15.645002599999996
 30
0.0
 11
20.110001599999997
 21
16.585002599999996
 31
0.0
 12
20.390001599999998
 22
15.645002599999996
 32
0.0
 13
20.390001599999998
 23
16.585002599999996
 33
0.0
  0
SOLID
  5
17D
100
AcDbEntity
  8
None
370
               9
390
0
  6
Continuous
 62
               7
100
AcDbTrace
 10
20.610001599999997
 20
15.645002599999996
 30
0.0
 11
20.610001599999997
 21
16.585002599999996
 31
0.0
 12
20.890001599999998
 22
15.645002599999996
 32
0.0
 13
20.890001599999998
 23
16.585002599999996
 33
0.0
  0
SOLID
  5
17E
100
AcDbEntity
  8
None
370
               9
390
0
  6
Continuous
 62
               7
100
AcDbTrace
 10
21.110001599999997
 20
15.645002599999996
 30
0.0
 11
21.110001599999997
 21
16.585002599999996
 31
0.0
 12
21.390001599999998
 22
15.645002599999996
 32
0.0
 13
21.390001599999998
 23
16.585002599999996
 33
0.0
  0
SOLID
  5
17F
100
AcDbEntity
  8
None
370
               9
390
0
  6
Continuous
 62
               7
100
AcDbTrace
 10
21.610001599999997
 20
15.645002599999996
 30
0.0
 11
21.610001599999997
 21
16.585002599999996
 31
0.0
 12
21.890001599999998
 22
15.645002599999996
 32
0.0
 13
21.890001599999998
 23
16.585002599999996
 33
0.0
  0
SOLID
  5
180
100
AcDbEntity
  8
None
370
               9
390
0
  6
Continuous
 62
               7
100
AcDbTrace
 10
22.110001599999997
 20
15.645002599999996
 30
0.0
 11
22.110001599999997
 21
16.585002599999996
 31
0.0
 12
22.390001599999998
 22
15.645002599999996
 32
0.0
 13
22.390001599999998
 23
16.585002599999996
 33
0.0
  0
SOLID
  5
181
100
AcDbEntity
  8
None
370
               9
390
0
  6
Continuous
 62
               7
100
AcDbTrace
 10
22.610001599999997
 20
15.645002599999996
 30
0.0
 11
22.610001599999997
 21
16.585002599999996
 31
0.0
 12
22.890001599999994
 22
15.645002599999996
 32
0.0
 13
22.890001599999994
 23
16.585002599999996
 33
0.0
  0
SOLID
  5
182
100
AcDbEntity
  8
None
370
               9
390
0
  6
Continuous
 62
               7
100
AcDbTrace
 10
23.110001599999997
 20
15.645002599999996
 30
0.0
 11
23.110001599999997
 21
16.585002599999996
 31
0.0
 12
23.390001599999994
 22
15.645002599999996
 32
0.0
 13
23.390001599999994
 23
16.585002599999996
 33
0.0
  0
SOLID
  5
183
100
AcDbEntity
  8
None
370
               9
390
0
  6
Continuous
 62
               7
100
AcDbTrace
 10
23.610001599999997
 20
15.645002599999996
 30
0.0
 11
23.610001599999997
 21
16.585002599999996
 31
0.0
 12
23.890001599999994
 22
15.645002599999996
 32
0.0
 13
23.890001599999994
 23
16.585002599999996
 33
0.0
  0
SOLID
  5
184
100
AcDbEntity
  8
None
370
               9
390
0
  6
Continuous
 62
               7
100
AcDbTrace
 10
24.110001599999997
 20
15.645002599999996
 30
0.0
 11
24.110001599999997
 21
16.585002599999996
 31
0.0
 12
24.390001599999994
 22
15.645002599999996
 32
0.0
 13
24.390001599999994
 23
16.585002599999996
 33
0.0
  0
SOLID
  5
185
100
AcDbEntity
  8
None
370
               9
390
0
  6
Continuous
 62
               7
100
AcDbTrace
 10
24.610001599999997
 20
15.645002599999996
 30
0.0
 11
24.610001599999997
 21
16.585002599999996
 31
0.0
 12
24.890001599999994
 22
15.645002599999996
 32
0.0
 13
24.890001599999994
 23
16.585002599999996
 33
0.0
  0
SOLID
  5
186
100
AcDbEntity
  8
None
370
               9
390
0
  6
Continuous
 62
               7
100
AcDbTrace
 10
25.110001599999997
 20
15.645002599999996
 30
0.0
 11
25.110001599999997
 21
16.585002599999996
 31
0.0
 12
25.390001599999994
 22
15.645002599999996
 32
0.0
 13
25.390001599999994
 23
16.585002599999996
 33
0.0
  0
SOLID
  5
187
100
AcDbEntity
  8
None
370
               9
390
0
  6
Continuous
 62
               7
100
AcDbTrace
 10
25.610001599999997
 20
15.645002599999996
 30
0.0
 11
25.610001599999997
 21
16.585002599999996
 31
0.0
 12
25.890001599999994
 22
15.645002599999996
 32
0.0
 13
25.890001599999994
 23
16.585002599999996
 33
0.0
  0
SOLID
  5
188
100
AcDbEntity
  8
None
370
               9
390
0
  6
Continuous
 62
               7
100
AcDbTrace
 10
26.110001599999997
 20
15.645002599999996
 30
0.0
 11
26.110001599999997
 21
16.585002599999996
 31
0.0
 12
26.390001599999994
 22
15.645002599999996
 32
0.0
 13
26.390001599999994
 23
16.585002599999996
 33
0.0
  0
SOLID
  5
189
100
AcDbEntity
  8
None
370
               9
390
0
  6
Continuous
 62
               7
100
AcDbTrace
 10
26.610001599999997
 20
15.645002599999996
 30
0.0
 11
26.610001599999997
 21
16.585002599999996
 31
0.0
 12
26.890001599999994
 22
15.645002599999996
 32
0.0
 13
26.890001599999994
 23
16.585002599999996
 33
0.0
  0
SOLID
  5
18A
100
AcDbEntity
  8
None
370
               9
390
0
  6
Continuous
 62
               7
100
AcDbTrace
 10
27.110001599999997
 20
15.645002599999996
 30
0.0
 11
27.110001599999997
 21
16.585002599999996
 31
0.0
 12
27.390001599999994
 22
15.645002599999996
 32
0.0
 13
27.390001599999994
 23
16.585002599999996
 33
0.0
  0
SOLID
  5
18B
100
AcDbEntity
  8
None
370
               9
390
0
  6
Continuous
 62
               7
100
AcDbTrace
 10
27.610001599999997
 20
15.645002599999996
 30
0.0
 11
27.610001599999997
 21
16.585002599999996
 31
0.0
 12
27.890001599999994
 22
15.645002599999996
 32
0.0
 13
27.890001599999994
 23
16.585002599999996
 33
0.0
  0
SOLID
  5
18C
100
AcDbEntity
  8
None
370
               9
390
0
  6
Continuous
 62
               7
100
AcDbTrace
 10
28.110001599999997
 20
15.645002599999996
 30
0.0
 11
28.110001599999997
 21
16.585002599999996
 31
0.0
 12
28.390001599999994
 22
15.645002599999996
 32
0.0
 13
28.390001599999994
 23
16.585002599999996
 33
0.0
  0
SOLID
  5
18D
100
AcDbEntity
  8
None
370
               9
390
0
  6
Continuous
 62
               7
100
AcDbTrace
 10
20.110001599999997
 20
25.065002599999996
 30
0.0
 11
20.110001599999997
 21
26.005002599999994
 31
0.0
 12
20.390001599999998
 22
25.065002599999996
 32
0.0
 13
20.390001599999998
 23
26.005002599999994
 33
0.0
  0
SOLID
  5
18E
100
AcDbEntity
  8
None
370
               9
390
0
  6
Continuous
 62
               7
100
AcDbTrace
 10
20.610001599999997
 20
25.065002599999996
 30
0.0
 11
20.610001599999997
 21
26.005002599999994
 31
0.0
 12
20.890001599999998
 22
25.065002599999996
 32
0.0
 13
20.890001599999998
 23
26.005002599999994
 33
0.0
  0
SOLID
  5
18F
100
AcDbEntity
  8
None
370
               9
390
0
  6
Continuous
 62
               7
100
AcDbTrace
 10
21.110001599999997
 20
25.065002599999996
 30
0.0
 11
21.110001599999997
 21
26.005002599999994
 31
0.0
 12
21.390001599999998
 22
25.065002599999996
 32
0.0
 13
21.390001599999998
 23
26.005002599999994
 33
0.0
  0
SOLID
  5
190
100
AcDbEntity
  8
None
370
               9
390
0
  6
Continuous
 62
               7
100
AcDbTrace
 10
21.610001599999997
 20
25.065002599999996
 30
0.0
 11
21.610001599999997
 21
26.005002599999994
 31
0.0
 12
21.890001599999998
 22
25.065002599999996
 32
0.0
 13
21.890001599999998
 23
26.005002599999994
 33
0.0
  0
SOLID
  5
191
100
AcDbEntity
  8
None
370
               9
390
0
  6
Continuous
 62
               7
100
AcDbTrace
 10
22.110001599999997
 20
25.065002599999996
 30
0.0
 11
22.110001599999997
 21
26.005002599999994
 31
0.0
 12
22.390001599999998
 22
25.065002599999996
 32
0.0
 13
22.390001599999998
 23
26.005002599999994
 33
0.0
  0
SOLID
  5
192
100
AcDbEntity
  8
None
370
               9
390
0
  6
Continuous
 62
               7
100
AcDbTrace
 10
22.610001599999997
 20
25.065002599999996
 30
0.0
 11
22.610001599999997
 21
26.005002599999994
 31
0.0
 12
22.890001599999994
 22
25.065002599999996
 32
0.0
 13
22.890001599999994
 23
26.005002599999994
 33
0.0
  0
SOLID
  5
193
100
AcDbEntity
  8
None
370
               9
390
0
  6
Continuous
 62
               7
100
AcDbTrace
 10
23.110001599999997
 20
25.065002599999996
 30
0.0
 11
23.110001599999997
 21
26.005002599999994
 31
0.0
 12
23.390001599999994
 22
25.065002599999996
 32
0.0
 13
23.390001599999994
 23
26.005002599999994
 33
0.0
  0
SOLID
  5
194
100
AcDbEntity
  8
None
370
               9
390
0
  6
Continuous
 62
               7
100
AcDbTrace
 10
23.610001599999997
 20
25.065002599999996
 30
0.0
 11
23.610001599999997
 21
26.005002599999994
 31
0.0
 12
23.890001599999994
 22
25.065002599999996
 32
0.0
 13
23.890001599999994
 23
26.005002599999994
 33
0.0
  0
SOLID
  5
195
100
AcDbEntity
  8
None
370
               9
390
0
  6
Continuous
 62
               7
100
AcDbTrace
 10
24.110001599999997
 20
25.065002599999996
 30
0.0
 11
24.110001599999997
 21
26.005002599999994
 31
0.0
 12
24.390001599999994
 22
25.065002599999996
 32
0.0
 13
24.390001599999994
 23
26.005002599999994
 33
0.0
  0
SOLID
  5
196
100
AcDbEntity
  8
None
370
               9
390
0
  6
Continuous
 62
               7
100
AcDbTrace
 10
24.610001599999997
 20
25.065002599999996
 30
0.0
 11
24.610001599999997
 21
26.005002599999994
 31
0.0
 12
24.890001599999994
 22
25.065002599999996
 32
0.0
 13
24.890001599999994
 23
26.005002599999994
 33
0.0
  0
SOLID
  5
197
100
AcDbEntity
  8
None
370
               9
390
0
  6
Continuous
 62
               7
100
AcDbTrace
 10
25.110001599999997
 20
25.065002599999996
 30
0.0
 11
25.110001599999997
 21
26.005002599999994
 31
0.0
 12
25.390001599999994
 22
25.065002599999996
 32
0.0
 13
25.390001599999994
 23
26.005002599999994
 33
0.0
  0
SOLID
  5
198
100
AcDbEntity
  8
None
370
               9
390
0
  6
Continuous
 62
               7
100
AcDbTrace
 10
25.610001599999997
 20
25.065002599999996
 30
0.0
 11
25.610001599999997
 21
26.005002599999994
 31
0.0
 12
25.890001599999994
 22
25.065002599999996
 32
0.0
 13
25.890001599999994
 23
26.005002599999994
 33
0.0
  0
SOLID
  5
199
100
AcDbEntity
  8
None
370
               9
390
0
  6
Continuous
 62
               7
100
AcDbTrace
 10
26.110001599999997
 20
25.065002599999996
 30
0.0
 11
26.110001599999997
 21
26.005002599999994
 31
0.0
 12
26.390001599999994
 22
25.065002599999996
 32
0.0
 13
26.390001599999994
 23
26.005002599999994
 33
0.0
  0
SOLID
  5
19A
100
AcDbEntity
  8
None
370
               9
390
0
  6
Continuous
 62
               7
100
AcDbTrace
 10
26.610001599999997
 20
25.065002599999996
 30
0.0
 11
26.610001599999997
 21
26.005002599999994
 31
0.0
 12
26.890001599999994
 22
25.065002599999996
 32
0.0
 13
26.890001599999994
 23
26.005002599999994
 33
0.0
  0
SOLID
  5
19B
100
AcDbEntity
  8
None
370
               9
390
0
  6
Continuous
 62
               7
100
AcDbTrace
 10
27.110001599999997
 20
25.065002599999996
 30
0.0
 11
27.110001599999997
 21
26.005002599999994
 31
0.0
 12
27.390001599999994
 22
25.065002599999996
 32
0.0
 13
27.390001599999994
 23
26.005002599999994
 33
0.0
  0
SOLID
  5
19C
100
AcDbEntity
  8
None
370
               9
390
0
  6
Continuous
 62
               7
100
AcDbTrace
 10
27.610001599999997
 20
25.065002599999996
 30
0.0
 11
27.610001599999997
 21
26.005002599999994
 31
0.0
 12
27.890001599999994
 22
25.065002599999996
 32
0.0
 13
27.890001599999994
 23
26.005002599999994
 33
0.0
  0
SOLID
  5
19D
100
AcDbEntity
  8
None
370
               9
390
0
  6
Continuous
 62
               7
100
AcDbTrace
 10
28.110001599999997
 20
25.065002599999996
 30
0.0
 11
28.110001599999997
 21
26.005002599999994
 31
0.0
 12
28.390001599999994
 22
25.065002599999996
 32
0.0
 13
28.390001599999994
 23
26.005002599999994
 33
0.0
  0
SOLID
  5
19E
100
AcDbEntity
  8
None
370
               9
390
0
  6
Continuous
 62
               7
100
AcDbTrace
 10
28.490001599999996
 20
16.685002599999997
 30
0.0
 11
28.490001599999996
 21
16.965002599999995
 31
0.0
 12
29.430001599999997
 22
16.685002599999997
 32
0.0
 13
29.430001599999997
 23
16.965002599999995
 33
0.0
  0
SOLID
  5
19F
100
AcDbEntity
  8
None
370
               9
390
0
  6
Continuous
 62
               7
100
AcDbTrace
 10
28.490001599999996
 20
17.185002599999997
 30
0.0
 11
28.490001599999996
 21
17.465002599999995
 31
0.0
 12
29.430001599999997
 22
17.185002599999997
 32
0.0
 13
29.430001599999997
 23
17.465002599999995
 33
0.0
  0
SOLID
  5
1A0
100
AcDbEntity
  8
None
370
               9
390
0
  6
Continuous
 62
               7
100
AcDbTrace
 10
28.490001599999996
 20
17.685002599999997
 30
0.0
 11
28.490001599999996
 21
17.965002599999995
 31
0.0
 12
29.430001599999997
 22
17.685002599999997
 32
0.0
 13
29.430001599999997
 23
17.965002599999995
 33
0.0
  0
SOLID
  5
1A1
100
AcDbEntity
  8
None
370
               9
390
0
  6
Continuous
 62
               7
100
AcDbTrace
 10
28.490001599999996
 20
18.185002599999997
 30
0.0
 11
28.490001599999996
 21
18.465002599999995
 31
0.0
 12
29.430001599999997
 22
18.185002599999997
 32
0.0
 13
29.430001599999997
 23
18.465002599999995
 33
0.0
  0
SOLID
  5
1A2
100
AcDbEntity
  8
None
370
               9
390
0
  6
Continuous
 62
               7
100
AcDbTrace
 10
28.490001599999996
 20
18.685002599999997
 30
0.0
 11
28.490001599999996
 21
18.965002599999995
 31
0.0
 12
29.430001599999997
 22
18.685002599999997
 32
0.0
 13
29.430001599999997
 23
18.965002599999995
 33
0.0
  0
SOLID
  5
1A3
100
AcDbEntity
  8
None
370
               9
390
0
  6
Continuous
 62
               7
100
AcDbTrace
 10
28.490001599999996
 20
19.185002599999997
 30
0.0
 11
28.490001599999996
 21
19.465002599999995
 31
0.0
 12
29.430001599999997
 22
19.185002599999997
 32
0.0
 13
29.430001599999997
 23
19.465002599999995
 33
0.0
  0
SOLID
  5
1A4
100
AcDbEntity
  8
None
370
               9
390
0
  6
Continuous
 62
               7
100
AcDbTrace
 10
28.490001599999996
 20
19.685002599999997
 30
0.0
 11
28.490001599999996
 21
19.965002599999995
 31
0.0
 12
29.430001599999997
 22
19.685002599999997
 32
0.0
 13
29.430001599999997
 23
19.965002599999995
 33
0.0
  0
SOLID
  5
1A5
100
AcDbEntity
  8
None
370
               9
390
0
  6
Continuous
 62
               7
100
AcDbTrace
 10
28.490001599999996
 20
20.185002599999997
 30
0.0
 11
28.490001599999996
 21
20.465002599999995
 31
0.0
 12
29.430001599999997
 22
20.185002599999997
 32
0.0
 13
29.430001599999997
 23
20.465002599999995
 33
0.0
  0
SOLID
  5
1A6
100
AcDbEntity
  8
None
370
               9
390
0
  6
Continuous
 62
               7
100
AcDbTrace
 10
28.490001599999996
 20
20.685002599999997
 30
0.0
 11
28.490001599999996
 21
20.965002599999995
 31
0.0
 12
29.430001599999997
 22
20.685002599999997
 32
0.0
 13
29.430001599999997
 23
20.965002599999995
 33
0.0
  0
SOLID
  5
1A7
100
AcDbEntity
  8
None
370
               9
390
0
  6
Continuous
 62
               7
100
AcDbTrace
 10
28.490001599999996
 20
21.185002599999997
 30
0.0
 11
28.490001599999996
 21
21.465002599999995
 31
0.0
 12
29.430001599999997
 22
21.185002599999997
 32
0.0
 13
29.430001599999997
 23
21.465002599999995
 33
0.0
  0
SOLID
  5
1A8
100
AcDbEntity
  8
None
370
               9
390
0
  6
Continuous
 62
               7
100
AcDbTrace
 10
28.490001599999996
 20
21.685002599999997
 30
0.0
 11
28.490001599999996
 21
21.965002599999995
 31
0.0
 12
29.430001599999997
 22
21.685002599999997
 32
0.0
 13
29.430001599999997
 23
21.965002599999995
 33
0.0
  0
SOLID
  5
1A9
100
AcDbEntity
  8
None
370
               9
390
0
  6
Continuous
 62
               7
100
AcDbTrace
 10
28.490001599999996
 20
22.185002599999997
 30
0.0
 11
28.490001599999996
 21
22.465002599999995
 31
0.0
 12
29.430001599999997
 22
22.185002599999997
 32
0.0
 13
29.430001599999997
 23
22.465002599999995
 33
0.0
  0
SOLID
  5
1AA
100
AcDbEntity
  8
None
370
               9
390
0
  6
Continuous
 62
               7
100
AcDbTrace
 10
28.490001599999996
 20
22.685002599999997
 30
0.0
 11
28.490001599999996
 21
22.965002599999995
 31
0.0
 12
29.430001599999997
 22
22.685002599999997
 32
0.0
 13
29.430001599999997
 23
22.965002599999995
 33
0.0
  0
SOLID
  5
1AB
100
AcDbEntity
  8
None
370
               9
390
0
  6
Continuous
 62
               7
100
AcDbTrace
 10
28.490001599999996
 20
23.185002599999997
 30
0.0
 11
28.490001599999996
 21
23.465002599999995
 31
0.0
 12
29.430001599999997
 22
23.185002599999997
 32
0.0
 13
29.430001599999997
 23
23.465002599999995
 33
0.0
  0
SOLID
  5
1AC
100
AcDbEntity
  8
None
370
               9
390
0
  6
Continuous
 62
               7
100
AcDbTrace
 10
28.490001599999996
 20
23.685002599999997
 30
0.0
 11
28.490001599999996
 21
23.965002599999995
 31
0.0
 12
29.430001599999997
 22
23.685002599999997
 32
0.0
 13
29.430001599999997
 23
23.965002599999995
 33
0.0
  0
SOLID
  5
1AD
100
AcDbEntity
  8
None
370
               9
390
0
  6
Continuous
 62
               7
100
AcDbTrace
 10
28.490001599999996
 20
24.185002599999997
 30
0.0
 11
28.490001599999996
 21
24.465002599999995
 31
0.0
 12
29.430001599999997
 22
24.185002599999997
 32
0.0
 13
29.430001599999997
 23
24.465002599999995
 33
0.0
  0
SOLID
  5
1AE
100
AcDbEntity
  8
None
370
               9
390
0
  6
Continuous
 62
               7
100
AcDbTrace
 10
28.490001599999996
 20
24.685002599999997
 30
0.0
 11
28.490001599999996
 21
24.965002599999995
 31
0.0
 12
29.430001599999997
 22
24.685002599999997
 32
0.0
 13
29.430001599999997
 23
24.965002599999995
 33
0.0
  0
SOLID
  5
1AF
100
AcDbEntity
  8
None
370
               9
390
0
  6
Continuous
 62
               7
100
AcDbTrace
 10
19.070001599999998
 20
16.685002599999997
 30
0.0
 11
19.070001599999998
 21
16.965002599999995
 31
0.0
 12
20.010001599999995
 22
16.685002599999997
 32
0.0
 13
20.010001599999995
 23
16.965002599999995
 33
0.0
  0
SOLID
  5
1B0
100
AcDbEntity
  8
None
370
               9
390
0
  6
Continuous
 62
               7
100
AcDbTrace
 10
19.070001599999998
 20
17.185002599999997
 30
0.0
 11
19.070001599999998
 21
17.465002599999995
 31
0.0
 12
20.010001599999995
 22
17.185002599999997
 32
0.0
 13
20.010001599999995
 23
17.465002599999995
 33
0.0
  0
SOLID
  5
1B1
100
AcDbEntity
  8
None
370
               9
390
0
  6
Continuous
 62
               7
100
AcDbTrace
 10
19.070001599999998
 20
17.685002599999997
 30
0.0
 11
19.070001599999998
 21
17.965002599999995
 31
0.0
 12
20.010001599999995
 22
17.685002599999997
 32
0.0
 13
20.010001599999995
 23
17.965002599999995
 33
0.0
  0
SOLID
  5
1B2
100
AcDbEntity
  8
None
370
               9
390
0
  6
Continuous
 62
               7
100
AcDbTrace
 10
19.070001599999998
 20
18.185002599999997
 30
0.0
 11
19.070001599999998
 21
18.465002599999995
 31
0.0
 12
20.010001599999995
 22
18.185002599999997
 32
0.0
 13
20.010001599999995
 23
18.465002599999995
 33
0.0
  0
SOLID
  5
1B3
100
AcDbEntity
  8
None
370
               9
390
0
  6
Continuous
 62
               7
100
AcDbTrace
 10
19.070001599999998
 20
18.685002599999997
 30
0.0
 11
19.070001599999998
 21
18.965002599999995
 31
0.0
 12
20.010001599999995
 22
18.685002599999997
 32
0.0
 13
20.010001599999995
 23
18.965002599999995
 33
0.0
  0
SOLID
  5
1B4
100
AcDbEntity
  8
None
370
               9
390
0
  6
Continuous
 62
               7
100
AcDbTrace
 10
19.070001599999998
 20
19.185002599999997
 30
0.0
 11
19.070001599999998
 21
19.465002599999995
 31
0.0
 12
20.010001599999995
 22
19.185002599999997
 32
0.0
 13
20.010001599999995
 23
19.465002599999995
 33
0.0
  0
SOLID
  5
1B5
100
AcDbEntity
  8
None
370
               9
390
0
  6
Continuous
 62
               7
100
AcDbTrace
 10
19.070001599999998
 20
19.685002599999997
 30
0.0
 11
19.070001599999998
 21
19.965002599999995
 31
0.0
 12
20.010001599999995
 22
19.685002599999997
 32
0.0
 13
20.010001599999995
 23
19.965002599999995
 33
0.0
  0
SOLID
  5
1B6
100
AcDbEntity
  8
None
370
               9
390
0
  6
Continuous
 62
               7
100
AcDbTrace
 10
19.070001599999998
 20
20.185002599999997
 30
0.0
 11
19.070001599999998
 21
20.465002599999995
 31
0.0
 12
20.010001599999995
 22
20.185002599999997
 32
0.0
 13
20.010001599999995
 23
20.465002599999995
 33
0.0
  0
SOLID
  5
1B7
100
AcDbEntity
  8
None
370
               9
390
0
  6
Continuous
 62
               7
100
AcDbTrace
 10
19.070001599999998
 20
20.685002599999997
 30
0.0
 11
19.070001599999998
 21
20.965002599999995
 31
0.0
 12
20.010001599999995
 22
20.685002599999997
 32
0.0
 13
20.010001599999995
 23
20.965002599999995
 33
0.0
  0
SOLID
  5
1B8
100
AcDbEntity
  8
None
370
               9
390
0
  6
Continuous
 62
               7
100
AcDbTrace
 10
19.070001599999998
 20
21.185002599999997
 30
0.0
 11
19.070001599999998
 21
21.465002599999995
 31
0.0
 12
20.010001599999995
 22
21.185002599999997
 32
0.0
 13
20.010001599999995
 23
21.465002599999995
 33
0.0
  0
SOLID
  5
1B9
100
AcDbEntity
  8
None
370
               9
390
0
  6
Continuous
 62
               7
100
AcDbTrace
 10
19.070001599999998
 20
21.685002599999997
 30
0.0
 11
19.070001599999998
 21
21.965002599999995
 31
0.0
 12
20.010001599999995
 22
21.685002599999997
 32
0.0
 13
20.010001599999995
 23
21.965002599999995
 33
0.0
  0
SOLID
  5
1BA
100
AcDbEntity
  8
None
370
               9
390
0
  6
Continuous
 62
               7
100
AcDbTrace
 10
19.070001599999998
 20
22.185002599999997
 30
0.0
 11
19.070001599999998
 21
22.465002599999995
 31
0.0
 12
20.010001599999995
 22
22.185002599999997
 32
0.0
 13
20.010001599999995
 23
22.465002599999995
 33
0.0
  0
SOLID
  5
1BB
100
AcDbEntity
  8
None
370
               9
390
0
  6
Continuous
 62
               7
100
AcDbTrace
 10
19.070001599999998
 20
22.685002599999997
 30
0.0
 11
19.070001599999998
 21
22.965002599999995
 31
0.0
 12
20.010001599999995
 22
22.685002599999997
 32
0.0
 13
20.010001599999995
 23
22.965002599999995
 33
0.0
  0
SOLID
  5
1BC
100
AcDbEntity
  8
None
370
               9
390
0
  6
Continuous
 62
               7
100
AcDbTrace
 10
19.070001599999998
 20
23.185002599999997
 30
0.0
 11
19.070001599999998
 21
23.465002599999995
 31
0.0
 12
20.010001599999995
 22
23.185002599999997
 32
0.0
 13
20.010001599999995
 23
23.465002599999995
 33
0.0
  0
SOLID
  5
1BD
100
AcDbEntity
  8
None
370
               9
390
0
  6
Continuous
 62
               7
100
AcDbTrace
 10
19.070001599999998
 20
23.685002599999997
 30
0.0
 11
19.070001599999998
 21
23.965002599999995
 31
0.0
 12
20.010001599999995
 22
23.685002599999997
 32
0.0
 13
20.010001599999995
 23
23.965002599999995
 33
0.0
  0
SOLID
  5
1BE
100
AcDbEntity
  8
None
370
               9
390
0
  6
Continuous
 62
               7
100
AcDbTrace
 10
19.070001599999998
 20
24.185002599999997
 30
0.0
 11
19.070001599999998
 21
24.465002599999995
 31
0.0
 12
20.010001599999995
 22
24.185002599999997
 32
0.0
 13
20.010001599999995
 23
24.465002599999995
 33
0.0
  0
SOLID
  5
1BF
100
AcDbEntity
  8
None
370
               9
390
0
  6
Continuous
 62
               7
100
AcDbTrace
 10
19.070001599999998
 20
24.685002599999997
 30
0.0
 11
19.070001599999998
 21
24.965002599999995
 31
0.0
 12
20.010001599999995
 22
24.685002599999997
 32
0.0
 13
20.010001599999995
 23
24.965002599999995
 33
0.0
  0
POLYLINE
  5
1C0
102
{ACAD_REACTORS
330
1C6
102
}
100
AcDbEntity
  8
None
370
               9
390
0
  6
Continuous
 62
               7
100
AcDb2dPolyline
 66
               1
 10
0.0
 20
0.0
 30
0.0
 70
               1
 75
               5
  0
VERTEX
  5
1C1
100
AcDbEntity
  8
None
370
               9
390
0
  6
Continuous
 62
               7
100
AcDbVertex
100
AcDb2dVertex
 10
20.210001599999995
 20
24.865002599999997
 30
0.0
  0
VERTEX
  5
1C2
100
AcDbEntity
  8
None
370
               9
390
0
  6
Continuous
 62
               7
100
AcDbVertex
100
AcDb2dVertex
 10
28.290001599999997
 20
24.865002599999997
 30
0.0
  0
VERTEX
  5
1C3
100
AcDbEntity
  8
None
370
               9
390
0
  6
Continuous
 62
               7
100
AcDbVertex
100
AcDb2dVertex
 10
28.290001599999997
 20
16.785002599999995
 30
0.0
  0
VERTEX
  5
1C4
100
AcDbEntity
  8
None
370
               9
390
0
  6
Continuous
 62
               7
100
AcDbVertex
100
AcDb2dVertex
 10
20.210001599999995
 20
16.785002599999995
 30
0.0
  0
SEQEND
  5
1C5
100
AcDbEntity
  8
None
370
               9
390
0
  6
Continuous
 62
               7
  0
HATCH
  5
1C6
100
AcDbEntity
  8
None
370
               0
390
0
  6
Continuous
 62
             253
100
AcDbHatch
 10
0.0
 20
0.0
 30
0.0
210
0.0
220
0.0
230
1.0
  2
SOLID
 70
               1
 71
               1
 91
        1
 92
        1
 93
        4
 72
               1
 10
20.210001599999995
 20
24.865002599999997
 11
28.290001599999997
 21
24.865002599999997
 72
               1
 10
28.290001599999997
 20
24.865002599999997
 11
28.290001599999997
 21
16.785002599999995
 72
               1
 10
28.290001599999997
 20
16.785002599999995
 11
20.210001599999995
 21
16.785002599999995
 72
               1
 10
20.210001599999995
 20
16.785002599999995
 11
20.210001599999995
 21
24.865002599999997
 97
        1
330
1C0
 75
               0
 76
               1
 98
        1
 10
0.0
 20
0.0
  0
WIPEOUT
  5
1C7
100
AcDbEntity
  8
None
370
               9
390
0
  6
Continuous
 62
              12
 92
        0
100
AcDbWipeout
 90
        0
 10
34.700001599999993
 20
37.478537599999996
 30
0.0
 11
9.8189320379644993
 21
0.0
 31
0.0
 12
0.0
 22
9.8189320379644993
 32
0.0
 13
1.0
 23
1.0
340
0
 70
               7
280
               1
281
              50
282
              50
283
               0
360
0
 71
               2
 91
        5
 14
-0.5
 24
3.164913953862587
 14
0.5000000000000002
 24
3.164913953862587
 14
0.5000000000000002
 24
3.0960516786797379
 14
-0.5
 24
3.0960516786797379
 14
-0.5
 24
3.164913953862587
  0
MTEXT
  5
1C8
100
AcDbEntity
  8
None
390
0
 62
              12
100
AcDbMText
 10
34.700001599999993
 20
11.879983704166664
 30
0.0
 40
0.4210651041666666
 41
0.0
 71
               1
 72
               1
  1
8.08mm x 8.08mm thermal /GND pad
  7
Arial
 73
               1
 44
0.9673603504928805
  0
LINE
  5
1C9
100
AcDbEntity
  8
None
370
               9
390
0
  6
Continuous
 62
              12
100
AcDbLine
 10
33.350001599999999
 20
11.650002599999997
 30
0.0
 11
25.731601599999994
 21
17.494762599999998
 31
0.0
  0
SOLID
  5
1CA
100
AcDbEntity
  8
None
370
               9
390
0
 62
              12
100
AcDbTrace
 10
25.731601599999994
 20
17.494762599999998
 30
0.0
 11
26.235886138103975
 21
17.280706513370966
 31
0.0
 12
26.061296777419226
 22
17.057242322092584
 32
0.0
 13
26.061296777419226
 23
17.057242322092584
 33
0.0
  0
LINE
  5
1CB
100
AcDbEntity
  8
None
370
               9
390
0
  6
Continuous
 62
              12
100
AcDbLine
 10
15.376611599999997
 20
30.308522599999996
 30
0.0
 11
16.487501599999995
 21
30.308522599999996
 31
0.0
  0
LINE
  5
1CC
100
AcDbEntity
  8
None
370
               9
390
0
  6
Continuous
 62
              12
100
AcDbLine
 10
16.487501599999995
 20
30.308522599999996
 30
0.0
 11
19.600561599999995
 21
26.900002599999997
 31
0.0
  0
SOLID
  5
1CD
100
AcDbEntity
  8
None
370
               9
390
0
 62
              12
100
AcDbTrace
 10
19.600561599999995
 20
26.900002599999997
 30
0.0
 11
19.306448945145558
 21
27.091001591317948
 31
0.0
 12
19.441352064980542
 22
27.212468906005768
 32
0.0
 13
19.441352064980542
 23
27.212468906005768
 33
0.0
  0
INSERT
  5
1CE
100
AcDbEntity
  8
Dimension
390
0
 62
              12
100
AcDbBlockReference
  2
Group
 10
26.764411599999995
 20
0.5978025999999977
 30
0.0
  0
LINE
  5
1CF
100
AcDbEntity
  8
None
370
               9
390
0
  6
Continuous
 62
              12
100
AcDbLine
 10
33.350001599999999
 20
11.650002599999997
 30
0.0
 11
34.700001599999993
 21
11.650002599999997
 31
0.0
  0
POLYLINE
  5
1D0
100
AcDbEntity
  8
None
370
               9
390
0
  6
STYLE_12
 62
              12
100
AcDb2dPolyline
 66
               1
 10
0.0
 20
0.0
 30
0.0
 70
               1
 75
               5
  0
VERTEX
  5
1D1
100
AcDbEntity
  8
None
370
               9
390
0
  6
STYLE_12
 62
              12
100
AcDbVertex
100
AcDb2dVertex
 10
18.312501599999997
 20
26.512502599999994
 30
0.0
  0
VERTEX
  5
1D2
100
AcDbEntity
  8
None
370
               9
390
0
  6
STYLE_12
 62
              12
100
AcDbVertex
100
AcDb2dVertex
 10
29.687501599999994
 20
26.512502599999994
 30
0.0
  0
VERTEX
  5
1D3
100
AcDbEntity
  8
None
370
               9
390
0
  6
STYLE_12
 62
              12
100
AcDbVertex
100
AcDb2dVertex
 10
29.687501599999994
 20
15.137502599999994
 30
0.0
  0
VERTEX
  5
1D4
100
AcDbEntity
  8
None
370
               9
390
0
  6
STYLE_12
 62
              12
100
AcDbVertex
100
AcDb2dVertex
 10
18.312501599999997
 20
15.137502599999994
 30
0.0
  0
SEQEND
  5
1D5
100
AcDbEntity
  8
None
370
               9
390
0
  6
STYLE_12
 62
              12
  0
INSERT
  5
1D6
100
AcDbEntity
  8
Dimension
390
0
 62
               7
100
AcDbBlockReference
  2
Group-1
 10
26.764411599999995
 20
0.5978025999999977
 30
0.0
  0
DIMENSION
  5
1D7
100
AcDbEntity
  8
Dimension
370
               9
390
0
  6
Continuous
 62
              12
100
AcDbDimension
  2
*D12
 10
20.250001599999997
 20
27.761920620138891
 30
0.0
 11
21.264358691871294
 21
27.761920620138891
 31
0.0
 70
             128
 71
               5
 72
               1
 41
1.0
 42
0.0
  3
IE Standard
100
AcDbAlignedDimension
 13
18.312501599999997
 23
26.512502599999994
 33
0.0
 14
20.250001599999997
 24
26.005002599999994
 34
0.0
100
AcDbRotatedDimension
1001
ACAD
1000
DSTYLE
1002
{
1070
             271
1070
               4
1070
             340
1005
34
1070
             140
1040
0.4210680682146991
1070
             174
1070
               0
1070
             147
1040
0.066145965625
1002
}
  0
DIMENSION
  5
1D8
100
AcDbEntity
  8
Dimension
370
               9
390
0
  6
Continuous
 62
              12
100
AcDbDimension
  2
*D13
 10
15.699999999999999
 20
26.512502599999994
 30
0.0
 11
15.699999999999999
 21
27.800000000000004
 31
0.0
 70
             128
 71
               5
 72
               1
 41
1.0
 42
0.0
  3
IE Standard
100
AcDbAlignedDimension
 13
19.833334933442234
 23
25.535002599999995
 33
0.0
 14
18.312501599999997
 24
26.512502599999994
 34
0.0
 50
90.0
100
AcDbRotatedDimension
1001
ACAD
1000
DSTYLE
1002
{
1070
             271
1070
               4
1070
             340
1005
34
1070
             140
1040
0.4210680682146991
1070
             174
1070
               0
1070
             147
1040
0.066145965625
1002
}
  0
INSERT
  5
1D9
100
AcDbEntity
  8
Dimension
390
0
 62
               7
100
AcDbBlockReference
  2
Group-2
 10
26.764411599999995
 20
0.5978025999999977
 30
0.0
  0
DIMENSION
  5
1DA
100
AcDbEntity
  8
Dimension
370
               9
390
0
  6
Continuous
 62
              12
100
AcDbDimension
  2
*D15
 10
28.250001599999994
 20
27.500000000000004
 30
0.0
 11
30.854168265573204
 21
27.500000000000004
 31
0.0
 70
             128
 71
               5
 72
               1
 41
1.0
 42
0.0
  3
IE Standard
100
AcDbAlignedDimension
 13
29.687501599999994
 23
26.512502599999994
 33
0.0
 14
28.250001599999994
 24
25.951669266557754
 34
0.0
100
AcDbRotatedDimension
1001
ACAD
1000
DSTYLE
1002
{
1070
             340
1005
34
1070
             140
1040
0.4210680682146991
1070
             174
1070
               0
1070
             147
1040
0.066145965625
1002
}
  0
INSERT
  5
1DB
100
AcDbEntity
  8
Dimension
390
0
 62
               7
100
AcDbBlockReference
  2
Group-3
 10
26.764411599999995
 20
0.5978025999999977
 30
0.0
  0
DIMENSION
  5
1DC
100
AcDbEntity
  8
Dimension
370
               9
390
0
  6
Continuous
 62
              12
100
AcDbDimension
  2
*D17
 10
15.82
 20
16.115002599999997
 30
0.0
 11
15.82
 21
13.384375838673341
 31
0.0
 70
             128
 71
               5
 72
               1
 41
1.0
 42
0.0
  3
IE Standard
100
AcDbAlignedDimension
 13
18.312501599999997
 23
15.137502599999994
 33
0.0
 14
19.833334933442234
 24
16.115002599999997
 34
0.0
 50
90.0
100
AcDbRotatedDimension
1001
ACAD
1000
DSTYLE
1002
{
1070
             340
1005
34
1070
             140
1040
0.4210680682146991
1070
             174
1070
               0
1070
             147
1040
0.066145965625
1002
}
  0
WIPEOUT
  5
1DD
100
AcDbEntity
  8
None
370
               9
390
0
  6
Continuous
 62
              12
 92
        0
100
AcDbWipeout
 90
        0
 10
31.860000000000003
 20
51.438066116249999
 30
0.0
 11
3.249089957102691
 21
0.0
 31
0.0
 12
0.0
 22
3.249089957102691
 32
0.0
 13
1.0
 23
1.0
340
0
 70
               7
280
               1
281
              50
282
              50
283
               0
360
0
 71
               2
 91
        5
 14
-0.5
 24
8.5535193994239336
 14
0.5000000000000009
 24
8.5535193994239336
 14
0.5000000000000009
 24
8.3662229897262907
 14
-0.5
 24
8.3662229897262907
 14
-0.5
 24
8.5535193994239336
  0
MTEXT
  5
1DE
100
AcDbEntity
  8
None
390
0
 62
              12
100
AcDbMText
 10
31.860000000000003
 20
25.782710308893233
 30
0.0
 40
0.3789612613932291
 41
0.0
 71
               1
 72
               1
  1
socket outline
  7
Arial
 73
               1
 44
0.9673603504928806
  0
LINE
  5
1DF
100
AcDbEntity
  8
None
370
               9
390
0
  6
Continuous
 62
              12
100
AcDbLine
 10
31.719999999999999
 20
25.540000000000003
 30
0.0
 11
29.687501599999994
 21
25.540000000000003
 31
0.0
  0
SOLID
  5
1E0
100
AcDbEntity
  8
None
370
               9
390
0
 62
              12
100
AcDbTrace
 10
29.687501599999994
 20
25.540000000000003
 30
0.0
 11
30.026241291149894
 21
25.630765026687985
 31
0.0
 12
30.026241291149894
 22
25.44923497331202
 32
0.0
 13
30.026241291149894
 23
25.44923497331202
 33
0.0
  0
ENDSEC
  0
SECTION
  2
OBJECTS
  0
DICTIONARY
  5
19
100
AcDbDictionary
280
               0
281
               1
  3
ACAD_GROUP
350
1A
  3
ACAD_MLINESTYLE
350
1B
  3
ACAD_LAYOUT
350
1E
  3
ACAD_PLOTSETTINGS
350
22
  3
ACAD_PLOTSTYLENAME
350
1F
  3
ACAD_WIPEOUT_VARS
350
23
  0
DICTIONARY
  5
1A
102
{ACAD_REACTORS
330
19
102
}
100
AcDbDictionary
280
               0
281
               1
  0
DICTIONARY
  5
1B
102
{ACAD_REACTORS
330
19
102
}
100
AcDbDictionary
280
               0
281
               1
  3
Standard
350
1C
  0
MLINESTYLE
  5
1C
102
{ACAD_REACTORS
330
1B
102
}
100
AcDbMlineStyle
  2
Standard
 70
               0
  3

 62
               0
 51
90.0
 52
90.0
 71
               2
 49
0.5
 62
             256
  6
ByLayer
 49
-0.5
 62
             256
  6
ByLayer
  0
ACDBDICTIONARYWDFLT
  5
1F
102
{ACAD_REACTORS
330
19
102
}
100
AcDbDictionary
281
               1
  3
Normal
350
1D
100
AcDbDictionaryWithDefault
340
1D
  0
ACDBPLACEHOLDER
  5
1D
102
{ACAD_REACTORS
330
1F
102
}
  0
LAYOUT
  5
20
102
{ACAD_REACTORS
330
1E
102
}
100
AcDbPlotSettings
  1

  2

  4

  6

 40
0.0
 41
0.0
 42
0.0
 43
0.0
 44
0.0
 45
0.0
 46
0.0
 47
0.0
 48
0.0
 49
0.0
140
0.0
141
0.0
142
1.0
143
1.0
 70
            1024
 72
               0
 73
               0
 74
               0
  7

 75
               0
147
1.0
148
0.0
149
0.0
100
AcDbLayout
  1
Model
 70
               0
 71
               0
 10
0.0
 20
0.0
 11
0.0
 21
0.0
 12
0.0
 22
0.0
 32
0.0
 14
0.0
 24
0.0
 34
0.0
 15
0.0
 25
0.0
 35
0.0
146
0.0
 13
0.0
 23
0.0
 33
0.0
 16
0.0
 26
0.0
 36
0.0
 17
0.0
 27
0.0
 37
0.0
 76
               0
330
A
331
0
345
0
346
0
  0
LAYOUT
  5
21
102
{ACAD_REACTORS
330
1E
102
}
100
AcDbPlotSettings
  1

  2

  4

  6

 40
0.0
 41
0.0
 42
0.0
 43
0.0
 44
0.0
 45
0.0
 46
0.0
 47
0.0
 48
0.0
 49
0.0
140
0.0
141
0.0
142
1.0
143
1.0
 70
               0
 72
               0
 73
               0
 74
               0
  7

 75
               0
147
1.0
148
0.0
149
0.0
100
AcDbLayout
  1
Layout1
 70
               0
 71
               0
 10
0.0
 20
0.0
 11
0.0
 21
0.0
 12
0.0
 22
0.0
 32
0.0
 14
0.0
 24
0.0
 34
0.0
 15
0.0
 25
0.0
 35
0.0
146
0.0
 13
0.0
 23
0.0
 33
0.0
 16
0.0
 26
0.0
 36
0.0
 17
0.0
 27
0.0
 37
0.0
 76
               0
330
B
331
0
345
0
346
0
  0
DICTIONARY
  5
1E
102
{ACAD_REACTORS
330
19
102
}
100
AcDbDictionary
280
               0
281
               1
  3
Layout1
350
21
  3
Model
350
20
  0
DICTIONARY
  5
22
102
{ACAD_REACTORS
330
19
102
}
100
AcDbDictionary
280
               0
281
               1
  0
WIPEOUTVARIABLES
  5
23
100
AcDbWipeoutVariables
 70
               0
  0
ENDSEC
  0
EOF
