  0
SECTION
  2
HEADER
  9
$ACADVER
  1
AC1015
  9
$ACADMAINTVER
 70
               6
  9
$DWGCODEPAGE
  3
ANSI_1252
  9
$INSBASE
 10
0.0
 20
0.0
 30
0.0
  9
$EXTMIN
 10
-6.3041856677890529
 20
-150.83090372743484
 30
-1.349375
  9
$EXTMAX
 10
59.455819026288253
 20
-99.49128914541798
 30
1.349375
  9
$LIMMIN
 10
0.0
 20
0.0
  9
$LIMMAX
 10
0.0
 20
0.0
  9
$ORTHOMODE
 70
               0
  9
$REGENMODE
 70
               1
  9
$FILLMODE
 70
               1
  9
$QTEXTMODE
 70
               0
  9
$MIRRTEXT
 70
               1
  9
$LTSCALE
 40
3.1749999999999998
  9
$ATTMODE
 70
               1
  9
$TEXTSIZE
 40
0.2
  9
$TRACEWID
 40
1.0
  9
$TEXTSTYLE
  7
Standard
  9
$CLAYER
  8
AM_HID
  9
$CELTYPE
  6
Continuous
  9
$CECOLOR
 62
             256
  9
$CELTSCALE
 40
1.0
  9
$DISPSILH
 70
               0
  9
$DIMSCALE
 40
1.0
  9
$DIMASZ
 40
0.79375
  9
$DIMEXO
 40
0.4762500011827797
  9
$DIMDLI
 40
6.9999859934672708
  9
$DIMRND
 40
0.0
  9
$DIMDLE
 40
0.0
  9
$DIMEXE
 40
0.9525000023655593
  9
$DIMTP
 40
0.0
  9
$DIMTM
 40
0.0
  9
$DIMTXT
 40
0.6315976562499999
  9
$DIMCEN
 40
0.0
  9
$DIMTSZ
 40
0.0
  9
$DIMTOL
 70
               0
  9
$DIMLIM
 70
               0
  9
$DIMTIH
 70
               1
  9
$DIMTOH
 70
               1
  9
$DIMSE1
 70
               0
  9
$DIMSE2
 70
               0
  9
$DIMTAD
 70
               0
  9
$DIMZIN
 70
              11
  9
$DIMBLK
  1
VW_FILLEDARROW
  9
$DIMASO
 70
               1
  9
$DIMSHO
 70
               1
  9
$DIMPOST
  1
<>mm
  9
$DIMAPOST
  1
[]"
  9
$DIMALT
 70
               0
  9
$DIMALTD
 70
               3
  9
$DIMALTF
 40
0.0393700787401575
  9
$DIMLFAC
 40
1.0
  9
$DIMTOFL
 70
               1
  9
$DIMTVP
 40
0.0
  9
$DIMTIX
 70
               1
  9
$DIMSOXD
 70
               0
  9
$DIMSAH
 70
               0
  9
$DIMBLK1
  1

  9
$DIMBLK2
  1

  9
$DIMSTYLE
  2
IE Standard
  9
$DIMCLRD
 70
               0
  9
$DIMCLRE
 70
               0
  9
$DIMCLRT
 70
               0
  9
$DIMTFAC
 40
1.0
  9
$DIMGAP
 40
0.0
  9
$DIMJUST
 70
               0
  9
$DIMSD1
 70
               0
  9
$DIMSD2
 70
               0
  9
$DIMTOLJ
 70
               1
  9
$DIMTZIN
 70
              11
  9
$DIMALTZ
 70
               3
  9
$DIMALTTZ
 70
               3
  9
$DIMUPT
 70
               0
  9
$DIMDEC
 70
               2
  9
$DIMTDEC
 70
               2
  9
$DIMALTU
 70
               2
  9
$DIMALTTD
 70
               2
  9
$DIMTXSTY
  7
Helvetica
  9
$DIMAUNIT
 70
               0
  9
$DIMADEC
 70
               0
  9
$DIMALTRND
 40
0.0
  9
$DIMAZIN
 70
               0
  9
$DIMDSEP
 70
              46
  9
$DIMATFIT
 70
               0
  9
$DIMFRAC
 70
               2
  9
$DIMLDRBLK
  1

  9
$DIMLUNIT
 70
               2
  9
$DIMLWD
 70
              -2
  9
$DIMLWE
 70
              -2
  9
$DIMTMOVE
 70
               0
  9
$LUNITS
 70
               2
  9
$LUPREC
 70
               4
  9
$SKETCHINC
 40
0.1
  9
$FILLETRAD
 40
0.0
  9
$AUNITS
 70
               0
  9
$AUPREC
 70
               0
  9
$MENU
  1
acad
  9
$ELEVATION
 40
0.0
  9
$PELEVATION
 40
0.0
  9
$THICKNESS
 40
0.0
  9
$LIMCHECK
 70
               0
  9
$CHAMFERA
 40
0.0
  9
$CHAMFERB
 40
0.0
  9
$CHAMFERC
 40
0.0
  9
$CHAMFERD
 40
0.0
  9
$SKPOLY
 70
               0
  9
$TDCREATE
 40
2455267.577395834
  9
$TDUCREATE
 40
0.000000000
  9
$TDUPDATE
 40
2455267.577395834
  9
$TDUUPDATE
 40
0.000000000
  9
$TDINDWG
 40
0.0000000000
  9
$TDUSRTIMER
 40
0.0000000000
  9
$USRTIMER
 70
               1
  9
$ANGBASE
 50
0.0
  9
$ANGDIR
 70
               0
  9
$PDMODE
 70
               1
  9
$PDSIZE
 40
-2.0
  9
$PLINEWID
 40
0.0
  9
$SPLFRAME
 70
               0
  9
$SPLINETYPE
 70
               6
  9
$SPLINESEGS
 70
               8
  9
$HANDSEED
  5
36B
  9
$SURFTAB1
 70
               6
  9
$SURFTAB2
 70
               6
  9
$SURFTYPE
 70
               6
  9
$SURFU
 70
               6
  9
$SURFV
 70
               6
  9
$UCSBASE
  2

  9
$UCSNAME
  2

  9
$UCSORG
 10
0.0
 20
0.0
 30
0.0
  9
$UCSXDIR
 10
1.0
 20
0.0
 30
0.0
  9
$UCSYDIR
 10
0.0
 20
1.0
 30
0.0
  9
$UCSORTHOREF
  2

  9
$UCSORTHOVIEW
 70
               0
  9
$UCSORGTOP
 10
0.0
 20
0.0
 30
0.0
  9
$UCSORGBOTTOM
 10
0.0
 20
0.0
 30
0.0
  9
$UCSORGLEFT
 10
0.0
 20
0.0
 30
0.0
  9
$UCSORGRIGHT
 10
0.0
 20
0.0
 30
0.0
  9
$UCSORGFRONT
 10
0.0
 20
0.0
 30
0.0
  9
$UCSORGBACK
 10
0.0
 20
0.0
 30
0.0
  9
$PUCSBASE
  2

  9
$PUCSNAME
  2

  9
$PUCSORG
 10
0.0
 20
0.0
 30
0.0
  9
$PUCSXDIR
 10
1.0
 20
0.0
 30
0.0
  9
$PUCSYDIR
 10
0.0
 20
1.0
 30
0.0
  9
$PUCSORTHOREF
  2

  9
$PUCSORTHOVIEW
 70
               0
  9
$PUCSORGTOP
 10
0.0
 20
0.0
 30
0.0
  9
$PUCSORGBOTTOM
 10
0.0
 20
0.0
 30
0.0
  9
$PUCSORGLEFT
 10
0.0
 20
0.0
 30
0.0
  9
$PUCSORGRIGHT
 10
0.0
 20
0.0
 30
0.0
  9
$PUCSORGFRONT
 10
0.0
 20
0.0
 30
0.0
  9
$PUCSORGBACK
 10
0.0
 20
0.0
 30
0.0
  9
$USERI1
 70
               0
  9
$USERI2
 70
               0
  9
$USERI3
 70
               0
  9
$USERI4
 70
               0
  9
$USERI5
 70
               0
  9
$USERR1
 40
0.0
  9
$USERR2
 40
0.0
  9
$USERR3
 40
0.0
  9
$USERR4
 40
0.0
  9
$USERR5
 40
0.0
  9
$WORLDVIEW
 70
               1
  9
$SHADEDGE
 70
               3
  9
$SHADEDIF
 70
              70
  9
$TILEMODE
 70
               1
  9
$MAXACTVP
 70
              64
  9
$PINSBASE
 10
0.0
 20
0.0
 30
0.0
  9
$PLIMCHECK
 70
               0
  9
$PEXTMIN
 10
1.0000000000000000E+20
 20
1.0000000000000000E+20
 30
1.0000000000000000E+20
  9
$PEXTMAX
 10
-1.0000000000000000E+20
 20
-1.0000000000000000E+20
 30
-1.0000000000000000E+20
  9
$PLIMMIN
 10
0.0
 20
0.0
  9
$PLIMMAX
 10
12.0
 20
9.0
  9
$UNITMODE
 70
               0
  9
$VISRETAIN
 70
               0
  9
$PLINEGEN
 70
               1
  9
$PSLTSCALE
 70
               0
  9
$TREEDEPTH
 70
            3020
  9
$CMLSTYLE
  2
Standard
  9
$CMLJUST
 70
               0
  9
$CMLSCALE
 40
1.0
  9
$PROXYGRAPHICS
 70
               0
  9
$MEASUREMENT
 70
               1
  9
$CELWEIGHT
370
               0
  9
$ENDCAPS
280
               0
  9
$JOINSTYLE
280
               0
  9
$LWDISPLAY
290
               1
  9
$INSUNITS
 70
               4
  9
$HYPERLINKBASE
  1

  9
$STYLESHEET
  1

  9
$XEDIT
290
               1
  9
$CEPSNTYPE
380
               0
  9
$PSTYLEMODE
290
               1
  9
$FINGERPRINTGUID
  2

  9
$VERSIONGUID
  2

  9
$EXTNAMES
290
               1
  9
$PSVPSCALE
 40
0.0
  0
ENDSEC
  0
SECTION
  2
CLASSES
  0
CLASS
  1
LWPOLYLINE
  2
AcDbPolyline
  3
AutoCAD 2000
 90
        0
280
               0
281
               1
  0
CLASS
  1
IMAGE
  2
AcDbRasterImage
  3
ISM
 90
      127
280
               0
281
               1
  0
CLASS
  1
OLE2FRAME
  2
AcDbOle2Frame
  3
AutoCAD 2000
 90
        0
280
               0
281
               1
  0
CLASS
  1
HATCH
  2
AcDbHatch
  3
AutoCAD 2000
 90
        0
280
               0
281
               1
  0
CLASS
  1
DICTIONARYVAR
  2
AcDbDictionaryVar
  3
AutoCAD 2000
 90
        0
280
               0
281
               0
  0
CLASS
  1
RASTERVARIABLES
  2
AcDbRasterVariables
  3
ISM
 90
        0
280
               0
281
               0
  0
CLASS
  1
IMAGEDEF
  2
AcDbRasterImageDef
  3
ISM
 90
        0
280
               0
281
               0
  0
CLASS
  1
IMAGEDEF_REACTOR
  2
AcDbRasterImageDefReactor
  3
ISM
 90
        1
280
               0
281
               0
  0
CLASS
  1
IDBUFFER
  2
AcDbIdBuffer
  3
AutoCAD 2000
 90
        0
280
               0
281
               0
  0
CLASS
  1
SPATIAL_FILTER
  2
AcDbSpatialFilter
  3
AutoCAD 2000
 90
        0
280
               0
281
               0
  0
CLASS
  1
XRECORD
  2
AcDbXrecord
  3
AutoCAD 2000
 90
        0
280
               0
281
               0
  0
CLASS
  1
SORTENTSTABLE
  2
AcDbSortentsTable
  3
AutoCAD 2000
 90
        0
280
               0
281
               0
  0
CLASS
  1
LAYER_INDEX
  2
AcDbLayerIndex
  3
AutoCAD 2000
 90
        0
280
               0
281
               0
  0
CLASS
  1
SPATIAL_INDEX
  2
AcDbSpatialIndex
  3
AutoCAD 2000
 90
        0
280
               0
281
               0
  0
CLASS
  1
OBJECT_PTR
  2
CAseDLPNTableRecord
  3
"ASE-LPNTableRecord"
 90
        1
280
               0
281
               0
  0
CLASS
  1
LAYOUT
  2
AcDbLayout
  3
AutoCAD 2000
 90
        0
280
               0
281
               0
  0
CLASS
  1
PLOTSETTINGS
  2
AcDbPlotSettings
  3
AutoCAD 2000
 90
        0
280
               0
281
               0
  0
CLASS
  1
ACDBDICTIONARYWDFLT
  2
AcDbDictionaryWithDefault
  3
AutoCAD 2000
 90
        0
280
               0
281
               0
  0
CLASS
  1
ACDBPLACEHOLDER
  2
AcDbPlaceHolder
  3
AutoCAD 2000
 90
        0
280
               0
281
               0
  0
CLASS
  1
VBA_PROJECT
  2
AcDbVbaProject
  3
acadvba
 90
        0
280
               0
281
               0
  0
CLASS
  1
WIPEOUT
  2
AcDbWipeout
  3
WipeOut|AutoCAD Express Tool|expresstools@autodesk.com
 90
      127
280
               0
281
               1
  0
CLASS
  1
WIPEOUTVARIABLES
  2
AcDbWipeoutVariables
  3
WipeOut|AutoCAD Express Tool|expresstools@autodesk.com
 90
        0
280
               0
281
               0
  0
CLASS
  1
RTEXT
  2
RText
  3
RText|AutoCAD Express Tool|expresstools@autodesk.com
 90
        0
280
               0
281
               1
  0
CLASS
  1
ARCALIGNEDTEXT
  2
AcDbArcAlignedText
  3
ATEXT|AutoCAD Express Tool|expresstools@autodesk.com
 90
        0
280
               0
281
               1
  0
ENDSEC
  0
SECTION
  2
TABLES
  0
TABLE
  2
VPORT
  5
7
100
AcDbSymbolTable
 70
               1
  0
VPORT
  5
15
100
AcDbSymbolTableRecord
100
AcDbViewportTableRecord
  2
*ACTIVE
 70
               0
 10
0.0
 20
0.0
 11
1.0
 21
1.0
 12
26.575816679249602
 22
-125.16109643642642
 13
0.0
 23
0.0
 14
1.0
 24
1.0
 15
0.0
 25
0.0
 16
0.0
 26
0.0
 36
1.0
 17
0.0
 27
0.0
 37
0.0
 40
51.339614582016864
 41
0.688564
 42
50.0
 43
0.0
 44
0.0
 50
0.0
 51
0.0
 71
               0
 72
            2000
 73
               1
 74
               1
 75
               0
 76
               0
 77
               0
 78
               0
281
               0
 65
               0
110
0.0
120
0.0
130
0.0
111
1.0
121
0.0
131
0.0
112
0.0
122
1.0
132
0.0
345
0
346
0
 79
               0
146
0.0
  0
ENDTAB
  0
TABLE
  2
LTYPE
  5
4
100
AcDbSymbolTable
 70
              28
  0
LTYPE
  5
11
100
AcDbSymbolTableRecord
100
AcDbLinetypeTableRecord
  2
ByBlock
 70
              64
  3

 72
              65
 73
               0
 40
0.0
  0
LTYPE
  5
12
100
AcDbSymbolTableRecord
100
AcDbLinetypeTableRecord
  2
ByLayer
 70
              64
  3

 72
              65
 73
               0
 40
0.0
  0
LTYPE
  5
13
100
AcDbSymbolTableRecord
100
AcDbLinetypeTableRecord
  2
Continuous
 70
              64
  3
Solid line
 72
              65
 73
               0
 40
0.0
  0
LTYPE
  5
41
100
AcDbSymbolTableRecord
100
AcDbLinetypeTableRecord
  2
STYLE_01
 70
               0
  3

 72
              65
 73
               2
 40
3.0
 49
2.0
 74
               0
 49
-1.0
 74
               0
  0
LTYPE
  5
42
100
AcDbSymbolTableRecord
100
AcDbLinetypeTableRecord
  2
STYLE_02
 70
               0
  3

 72
              65
 73
               2
 40
1.5
 49
1.0
 74
               0
 49
-0.5
 74
               0
  0
LTYPE
  5
43
100
AcDbSymbolTableRecord
100
AcDbLinetypeTableRecord
  2
STYLE_03
 70
               0
  3

 72
              65
 73
               4
 40
8.0
 49
0.5
 74
               0
 49
-1.0
 74
               0
 49
1.0
 74
               0
 49
-1.0
 74
               0
  0
LTYPE
  5
44
100
AcDbSymbolTableRecord
100
AcDbLinetypeTableRecord
  2
STYLE_04
 70
               0
  3

 72
              65
 73
               4
 40
10.0
 49
5.0
 74
               0
 49
-1.0
 74
               0
 49
1.0
 74
               0
 49
-1.0
 74
               0
  0
LTYPE
  5
45
100
AcDbSymbolTableRecord
100
AcDbLinetypeTableRecord
  2
STYLE_05
 70
               0
  3

 72
              65
 73
               2
 40
1.0
 49
0.0002
 74
               0
 49
-0.9998
 74
               0
  0
LTYPE
  5
46
100
AcDbSymbolTableRecord
100
AcDbLinetypeTableRecord
  2
STYLE_06
 70
               0
  3

 72
              65
 73
               4
 40
4.0
 49
2.0
 74
               0
 49
-1.0
 74
               0
 49
0.0002
 74
               0
 49
-0.9998
 74
               0
  0
LTYPE
  5
47
100
AcDbSymbolTableRecord
100
AcDbLinetypeTableRecord
  2
STYLE_07
 70
               0
  3

 72
              65
 73
               6
 40
7.0
 49
2.0
 74
               0
 49
-1.0
 74
               0
 49
2.0
 74
               0
 49
-1.0
 74
               0
 49
0.0002000000000004
 74
               0
 49
-0.9997999999999996
 74
               0
  0
LTYPE
  5
48
100
AcDbSymbolTableRecord
100
AcDbLinetypeTableRecord
  2
STYLE_08
 70
               0
  3

 72
              65
 73
               6
 40
5.0
 49
2.0
 74
               0
 49
-1.0
 74
               0
 49
0.0002
 74
               0
 49
-0.9998
 74
               0
 49
0.0002000000000004
 74
               0
 49
-0.9997999999999996
 74
               0
  0
LTYPE
  5
49
100
AcDbSymbolTableRecord
100
AcDbLinetypeTableRecord
  2
STYLE_09
 70
               0
  3

 72
              65
 73
               2
 40
0.1944580078125
 49
0.111114501953125
 74
               0
 49
-0.083343505859375
 74
               0
  0
LTYPE
  5
4A
100
AcDbSymbolTableRecord
100
AcDbLinetypeTableRecord
  2
STYLE_10
 70
               0
  3

 72
              65
 73
               4
 40
1.1944580078125
 49
0.611114501953125
 74
               0
 49
-0.3055419921875
 74
               0
 49
0.02777099609375
 74
               0
 49
-0.250030517578125
 74
               0
  0
LTYPE
  5
4B
100
AcDbSymbolTableRecord
100
AcDbLinetypeTableRecord
  2
STYLE_11
 70
               0
  3

 72
              65
 73
               4
 40
0.861114501953125
 49
0.47222900390625
 74
               0
 49
-0.166656494140625
 74
               0
 49
0.02777099609375
 74
               0
 49
-0.1944580078125
 74
               0
  0
LTYPE
  5
4C
100
AcDbSymbolTableRecord
100
AcDbLinetypeTableRecord
  2
STYLE_12
 70
               0
  3

 72
              65
 73
               2
 40
0.166656494140625
 49
0.111114501953125
 74
               0
 49
-0.0555419921875
 74
               0
  0
LTYPE
  5
4D
100
AcDbSymbolTableRecord
100
AcDbLinetypeTableRecord
  2
STYLE_13
 70
               0
  3

 72
              65
 73
               4
 40
0.13702392578125
 49
0.085662841796875
 74
               0
 49
-0.017120361328125
 74
               0
 49
0.017120361328125
 74
               0
 49
-0.017120361328125
 74
               0
  0
LTYPE
  5
4E
100
AcDbSymbolTableRecord
100
AcDbLinetypeTableRecord
  2
STYLE_14
 70
               0
  3

 72
              65
 73
               2
 40
0.0513916015625
 49
0.034271240234375
 74
               0
 49
-0.017120361328125
 74
               0
  0
LTYPE
  5
4F
100
AcDbSymbolTableRecord
100
AcDbLinetypeTableRecord
  2
STYLE_15
 70
               0
  3

 72
              65
 73
               6
 40
0.1712646484375
 49
0.085662841796875
 74
               0
 49
-0.017120361328125
 74
               0
 49
0.017120361328125
 74
               0
 49
-0.017120361328125
 74
               0
 49
0.017120361328125
 74
               0
 49
-0.017120361328125
 74
               0
  0
LTYPE
  5
50
100
AcDbSymbolTableRecord
100
AcDbLinetypeTableRecord
  2
STYLE_16
 70
               0
  3

 72
              65
 73
               2
 40
0.75
 49
0.5
 74
               0
 49
-0.25
 74
               0
  0
LTYPE
  5
51
100
AcDbSymbolTableRecord
100
AcDbLinetypeTableRecord
  2
STYLE_17
 70
               0
  3

 72
              65
 73
               4
 40
0.416656494140625
 49
0.25
 74
               0
 49
-0.08331298828125
 74
               0
 49
0.02777099609375
 74
               0
 49
-0.055572509765625
 74
               0
  0
LTYPE
  5
52
100
AcDbSymbolTableRecord
100
AcDbLinetypeTableRecord
  2
STYLE_18
 70
               0
  3

 72
              65
 73
               6
 40
1.083343505859375
 49
0.5
 74
               0
 49
-0.111114501953125
 74
               0
 49
0.111114501953125
 74
               0
 49
-0.111114501953125
 74
               0
 49
0.111114501953125
 74
               0
 49
-0.138885498046875
 74
               0
  0
LTYPE
  5
53
100
AcDbSymbolTableRecord
100
AcDbLinetypeTableRecord
  2
STYLE_19
 70
               0
  3

 72
              65
 73
               4
 40
0.916656494140625
 49
0.52777099609375
 74
               0
 49
-0.16668701171875
 74
               0
 49
0.0555419921875
 74
               0
 49
-0.166656494140625
 74
               0
  0
LTYPE
  5
54
100
AcDbSymbolTableRecord
100
AcDbLinetypeTableRecord
  2
STYLE_20
 70
               0
  3

 72
              65
 73
               2
 40
0.166656494140625
 49
0.08331298828125
 74
               0
 49
-0.083343505859375
 74
               0
  0
LTYPE
  5
55
100
AcDbSymbolTableRecord
100
AcDbLinetypeTableRecord
  2
STYLE_21
 70
               0
  3

 72
              65
 73
               2
 40
0.342992125984252
 49
0.171496062992126
 74
               0
 49
-0.171496062992126
 74
               0
  0
LTYPE
  5
56
100
AcDbSymbolTableRecord
100
AcDbLinetypeTableRecord
  2
STYLE_22
 70
               0
  3

 72
              65
 73
               2
 40
0.257244094488189
 49
0.1286220472440945
 74
               0
 49
-0.1286220472440945
 74
               0
  0
LTYPE
  5
57
100
AcDbSymbolTableRecord
100
AcDbLinetypeTableRecord
  2
STYLE_23
 70
               0
  3

 72
              65
 73
               4
 40
0.3149606299212598
 49
0.1968503937007874
 74
               0
 49
-0.0393700787401575
 74
               0
 49
0.0393700787401575
 74
               0
 49
-0.0393700787401575
 74
               0
  0
LTYPE
  5
58
100
AcDbSymbolTableRecord
100
AcDbLinetypeTableRecord
  2
STYLE_24
 70
               0
  3

 72
              65
 73
               6
 40
0.0295275590551181
 49
0.0147637795275591
 74
               0
 49
-0.0029527559055118
 74
               0
 49
0.0029527559055118
 74
               0
 49
-0.0029527559055118
 74
               0
 49
0.0029527559055118
 74
               0
 49
-0.0029527559055118
 74
               0
  0
LTYPE
  5
59
100
AcDbSymbolTableRecord
100
AcDbLinetypeTableRecord
  2
STYLE_25
 70
               0
  3

 72
              65
 73
               2
 40
0.15
 49
0.1
 74
               0
 49
-0.05
 74
               0
  0
ENDTAB
  0
TABLE
  2
LAYER
  5
2
100
AcDbSymbolTable
 70
              23
  0
LAYER
  5
14
100
AcDbSymbolTableRecord
100
AcDbLayerTableRecord
  2
0
 70
               0
 62
               7
  6
Continuous
290
               1
370
              15
390
1D
  0
LAYER
  5
5A
100
AcDbSymbolTableRecord
100
AcDbLayerTableRecord
  2
Defpoints
 70
               0
 62
               7
  6
Continuous
290
               0
370
              -3
390
1D
  0
LAYER
  5
5B
100
AcDbSymbolTableRecord
100
AcDbLayerTableRecord
  2
ASSEMBLY_OUTLINES_TOP
 70
               0
 62
             102
  6
Continuous
290
               1
370
              15
390
1D
  0
LAYER
  5
5C
100
AcDbSymbolTableRecord
100
AcDbLayerTableRecord
  2
None
 70
               0
 62
               7
  6
Continuous
290
               1
370
               5
390
1D
  0
LAYER
  5
5D
100
AcDbSymbolTableRecord
100
AcDbLayerTableRecord
  2
Dimension
 70
               0
 62
               7
  6
Continuous
290
               1
370
               5
390
1D
  0
LAYER
  5
5E
100
AcDbSymbolTableRecord
100
AcDbLayerTableRecord
  2
Solid Lines
 70
               0
 62
               7
  6
Continuous
290
               1
370
              25
390
1D
  0
LAYER
  5
5F
100
AcDbSymbolTableRecord
100
AcDbLayerTableRecord
  2
MOUNTING_HOLES_LAYER_TOP
 70
               0
 62
              52
  6
Continuous
290
               1
370
              15
390
1D
  0
LAYER
  5
60
100
AcDbSymbolTableRecord
100
AcDbLayerTableRecord
  2
CENTER
 70
               0
 62
               6
  6
STYLE_23
290
               1
370
              15
390
1D
  0
LAYER
  5
61
100
AcDbSymbolTableRecord
100
AcDbLayerTableRecord
  2
DIM
 70
               0
 62
               3
  6
Continuous
290
               1
370
              15
390
1D
  0
LAYER
  5
62
100
AcDbSymbolTableRecord
100
AcDbLayerTableRecord
  2
PLATING
 70
               0
 62
               6
  6
Continuous
290
               1
370
              15
390
1D
  0
LAYER
  5
63
100
AcDbSymbolTableRecord
100
AcDbLayerTableRecord
  2
half etch & plating
 70
               0
 62
               4
  6
Continuous
290
               1
370
              15
390
1D
  0
LAYER
  5
64
100
AcDbSymbolTableRecord
100
AcDbLayerTableRecord
  2
LINE
 70
               0
 62
               5
  6
Continuous
290
               1
370
              15
390
1D
  0
LAYER
  5
65
100
AcDbSymbolTableRecord
100
AcDbLayerTableRecord
  2
CU-TOP
 70
               0
 62
               2
  6
STYLE_24
290
               1
370
              15
390
1D
  0
LAYER
  5
66
100
AcDbSymbolTableRecord
100
AcDbLayerTableRecord
  2
LF
 70
               0
 62
             253
  6
Continuous
290
               1
370
              15
390
1D
  0
LAYER
  5
67
100
AcDbSymbolTableRecord
100
AcDbLayerTableRecord
  2
AM_HID
 70
               0
 62
               7
  6
STYLE_18
290
               1
370
              15
390
1D
  0
LAYER
  5
68
100
AcDbSymbolTableRecord
100
AcDbLayerTableRecord
  2
AM_VIS
 70
               0
 62
               7
  6
Continuous
290
               1
370
              15
390
1D
  0
LAYER
  5
69
100
AcDbSymbolTableRecord
100
AcDbLayerTableRecord
  2
02___PRT_ALL_AXES
 70
               0
 62
               7
  6
Continuous
290
               1
370
              15
390
1D
  0
LAYER
  5
6A
100
AcDbSymbolTableRecord
100
AcDbLayerTableRecord
  2
DEFAULT_2
 70
               0
 62
               8
  6
STYLE_21
290
               1
370
              15
390
1D
  0
LAYER
  5
6B
100
AcDbSymbolTableRecord
100
AcDbLayerTableRecord
  2
PART_PADS_SMD_TOP
 70
               0
 62
             150
  6
Continuous
290
               1
370
              15
390
1D
  0
LAYER
  5
6C
100
AcDbSymbolTableRecord
100
AcDbLayerTableRecord
  2
BOARD_OUTLINE
 70
               0
 62
               1
  6
Continuous
290
               1
370
              15
390
1D
  0
LAYER
  5
6D
100
AcDbSymbolTableRecord
100
AcDbLayerTableRecord
  2
PART_HOLES_LAYER_TOP
 70
               0
 62
              14
  6
Continuous
290
               1
370
              15
390
1D
  0
LAYER
  5
6E
100
AcDbSymbolTableRecord
100
AcDbLayerTableRecord
  2
PART_PADS_LAYER_TOP
 70
               0
 62
               6
  6
Continuous
290
               1
370
              15
390
1D
  0
LAYER
  5
6F
100
AcDbSymbolTableRecord
100
AcDbLayerTableRecord
  2
PLACEMENT_OUTLINES_TOP
 70
               0
 62
               2
  6
Continuous
290
               1
370
              15
390
1D
  0
ENDTAB
  0
TABLE
  2
STYLE
  5
3
100
AcDbSymbolTable
 70
               6
  0
STYLE
  5
17
100
AcDbSymbolTableRecord
100
AcDbTextStyleTableRecord
  2
Standard
 70
               0
 40
0.0
 41
1.0
 50
0.0
 71
               0
 42
0.0
  3
txt
  4

  0
STYLE
  5
3C
100
AcDbSymbolTableRecord
100
AcDbTextStyleTableRecord
  2
Arial
 70
               0
 40
0.0
 41
1.0
 50
0.0
 71
               0
 42
0.0
  3
Arial
  4

1001
ACAD
1000
Arial
1071
        0
  0
STYLE
  5
3D
100
AcDbSymbolTableRecord
100
AcDbTextStyleTableRecord
  2
Arial (bold)
 70
               0
 40
0.0
 41
1.0
 50
0.0
 71
               0
 42
0.0
  3
Arial
  4

1001
ACAD
1000
Arial
1071
 33554432
  0
STYLE
  5
3E
100
AcDbSymbolTableRecord
100
AcDbTextStyleTableRecord
  2
Helvetica
 70
               0
 40
0.0
 41
1.0
 50
0.0
 71
               0
 42
0.0
  3
Helvetica
  4

1001
ACAD
1000
Helvetica
1071
        0
  0
STYLE
  5
3F
100
AcDbSymbolTableRecord
100
AcDbTextStyleTableRecord
  2
Helvetica (bold)
 70
               0
 40
0.0
 41
1.0
 50
0.0
 71
               0
 42
0.0
  3
Helvetica
  4

1001
ACAD
1000
Helvetica
1071
 33554432
  0
STYLE
  5
40
100
AcDbSymbolTableRecord
100
AcDbTextStyleTableRecord
  2
New Century Schlbk
 70
               0
 40
0.0
 41
1.0
 50
0.0
 71
               0
 42
0.0
  3
New Century Schlbk
  4

1001
ACAD
1000
New Century Schlbk
1071
        0
  0
ENDTAB
  0
TABLE
  2
VIEW
  5
5
100
AcDbSymbolTable
 70
               0
  0
ENDTAB
  0
TABLE
  2
UCS
  5
6
100
AcDbSymbolTable
 70
               0
  0
ENDTAB
  0
TABLE
  2
APPID
  5
8
100
AcDbSymbolTable
 70
               1
  0
APPID
  5
16
100
AcDbSymbolTableRecord
100
AcDbRegAppTableRecord
  2
ACAD
 70
               0
  0
ENDTAB
  0
TABLE
  2
DIMSTYLE
  5
9
100
AcDbSymbolTable
 70
               2
100
AcDbDimStyleTable
 71
               0
  0
DIMSTYLE
105
18
100
AcDbSymbolTableRecord
100
AcDbDimStyleTableRecord
  2
Standard
 70
               0
  3

  4

 40
1.0
 41
0.18
 42
0.0625
 43
0.38
 44
0.18
 45
0.0
 46
0.0
 47
0.0
 48
0.0
 71
               0
 72
               0
 73
               1
 74
               1
 75
               0
 76
               0
 77
               0
 78
               0
 79
               0
140
0.18
141
0.09
142
0.0
143
25.399999999999999
144
1.0
145
0.0
146
1.0
147
0.09
148
0.0
170
               0
171
               2
172
               0
173
               0
174
               0
175
               0
176
               0
177
               0
178
               0
179
               0
271
               4
272
               4
273
               2
274
               2
275
               0
276
               0
277
               2
278
              46
279
               0
280
               0
281
               0
282
               0
283
               1
284
               0
285
               0
286
               0
288
               0
289
               3
340
17
341
0
342
0
343
0
344
0
371
              -2
372
              -2
  0
DIMSTYLE
105
78
100
AcDbSymbolTableRecord
100
AcDbDimStyleTableRecord
  2
IE Standard
 70
               0
  3
<>mm
  4
[]"
 40
1.0
 41
0.79375
 42
0.4762500011827797
 43
6.9999859934672708
 44
0.9525000023655593
 45
0.0
 46
0.0
 47
0.0
 48
0.0
 71
               0
 72
               0
 73
               1
 74
               1
 75
               0
 76
               0
 77
               0
 78
              11
 79
               0
140
0.6315976562499999
141
0.0
142
0.0
143
0.0393700787401575
144
1.0
145
0.0
146
1.0
147
0.0
148
0.0
170
               0
171
               3
172
               1
173
               0
174
               1
175
               0
176
               0
177
               0
178
               0
179
               0
271
               2
272
               2
273
               2
274
               2
275
               0
276
               2
277
               2
278
              46
279
               0
280
               0
281
               0
282
               0
283
               1
284
              11
285
               3
286
               3
288
               0
289
               0
340
3E
341
74
342
70
343
0
344
0
371
              -2
372
              -2
  0
ENDTAB
  0
TABLE
  2
BLOCK_RECORD
  5
1
100
AcDbSymbolTable
 70
              26
  0
BLOCK_RECORD
  5
A
100
AcDbSymbolTableRecord
100
AcDbBlockTableRecord
  2
*MODEL_SPACE
340
20
  0
BLOCK_RECORD
  5
B
100
AcDbSymbolTableRecord
100
AcDbBlockTableRecord
  2
*PAPER_SPACE
340
21
  0
BLOCK_RECORD
  5
70
100
AcDbSymbolTableRecord
100
AcDbBlockTableRecord
  2
VW_FILLEDARROW
340
0
  0
BLOCK_RECORD
  5
74
100
AcDbSymbolTableRecord
100
AcDbBlockTableRecord
  2
VW_FILLEDARROW-1
340
0
  0
BLOCK_RECORD
  5
24
100
AcDbSymbolTableRecord
100
AcDbBlockTableRecord
  2
IE i logo
340
0
102
{BLKREFS
331
F1
102
}
  0
BLOCK_RECORD
  5
25
100
AcDbSymbolTableRecord
100
AcDbBlockTableRecord
  2
Group
340
0
102
{BLKREFS
331
F6
102
}
  0
BLOCK_RECORD
  5
26
100
AcDbSymbolTableRecord
100
AcDbBlockTableRecord
  2
CBT-QFN-7000 TB
340
0
102
{BLKREFS
331
312
102
}
  0
BLOCK_RECORD
  5
27
100
AcDbSymbolTableRecord
100
AcDbBlockTableRecord
  2
Group-1
340
0
102
{BLKREFS
331
31F
102
}
  0
BLOCK_RECORD
  5
28
100
AcDbSymbolTableRecord
100
AcDbBlockTableRecord
  2
*D6
340
0
  0
BLOCK_RECORD
  5
29
100
AcDbSymbolTableRecord
100
AcDbBlockTableRecord
  2
*D7
340
0
  0
BLOCK_RECORD
  5
2A
100
AcDbSymbolTableRecord
100
AcDbBlockTableRecord
  2
*D8
340
0
  0
BLOCK_RECORD
  5
2B
100
AcDbSymbolTableRecord
100
AcDbBlockTableRecord
  2
*D9
340
0
  0
BLOCK_RECORD
  5
2C
100
AcDbSymbolTableRecord
100
AcDbBlockTableRecord
  2
*D10
340
0
  0
BLOCK_RECORD
  5
2D
100
AcDbSymbolTableRecord
100
AcDbBlockTableRecord
  2
*D11
340
0
  0
BLOCK_RECORD
  5
2E
100
AcDbSymbolTableRecord
100
AcDbBlockTableRecord
  2
*D12
340
0
  0
BLOCK_RECORD
  5
2F
100
AcDbSymbolTableRecord
100
AcDbBlockTableRecord
  2
*D13
340
0
  0
BLOCK_RECORD
  5
30
100
AcDbSymbolTableRecord
100
AcDbBlockTableRecord
  2
*D14
340
0
  0
BLOCK_RECORD
  5
31
100
AcDbSymbolTableRecord
100
AcDbBlockTableRecord
  2
Group-2
340
0
102
{BLKREFS
331
34F
102
}
  0
BLOCK_RECORD
  5
32
100
AcDbSymbolTableRecord
100
AcDbBlockTableRecord
  2
*D16
340
0
  0
BLOCK_RECORD
  5
33
100
AcDbSymbolTableRecord
100
AcDbBlockTableRecord
  2
*D17
340
0
  0
BLOCK_RECORD
  5
34
100
AcDbSymbolTableRecord
100
AcDbBlockTableRecord
  2
*D18
340
0
  0
BLOCK_RECORD
  5
35
100
AcDbSymbolTableRecord
100
AcDbBlockTableRecord
  2
Symbol-1
340
0
102
{BLKREFS
331
1B9
331
1EE
331
1EF
331
1F0
331
1F1
331
1F2
331
1F3
331
1F4
331
1F5
331
1F6
331
1F7
331
1F8
331
1F9
331
1FA
331
1FB
331
1FC
331
1FD
331
1FE
331
1FF
331
200
331
201
331
202
331
203
331
204
331
205
331
206
331
207
331
208
331
209
331
20A
331
20B
331
20C
331
20D
331
20E
331
20F
331
210
331
211
331
212
331
213
331
214
331
215
331
216
331
217
331
218
331
219
331
21A
331
21B
331
21C
331
21D
331
21E
331
21F
331
220
331
221
331
222
331
223
331
224
331
225
331
226
331
227
331
228
331
229
331
22A
331
22B
331
22C
331
22D
331
22E
331
22F
331
230
331
231
331
232
331
233
331
234
331
235
331
236
331
237
331
238
331
239
331
23A
331
23B
331
23C
331
23D
331
23E
331
23F
331
240
331
241
331
242
331
243
331
244
331
245
331
246
331
247
331
248
331
249
331
24A
331
24B
331
24C
331
24D
331
24E
331
24F
331
250
331
251
331
252
331
253
331
254
331
255
331
256
331
257
331
258
331
259
331
25A
331
25B
331
25C
331
25D
331
25E
331
25F
331
260
331
261
331
262
331
263
331
264
331
265
331
266
331
267
331
268
331
269
331
26A
331
26B
331
26C
331
26D
331
26E
331
26F
331
270
331
271
331
272
331
273
331
274
331
275
331
276
331
277
331
278
331
279
331
27A
331
27B
331
27C
331
27D
331
27E
331
27F
331
280
331
281
331
282
331
283
331
284
331
285
331
286
331
287
331
288
331
289
331
28A
331
28B
331
28C
331
28D
331
28E
331
28F
331
290
331
291
331
292
331
293
331
294
331
295
331
296
331
297
331
298
331
299
331
29A
331
29B
331
29C
331
29D
331
29E
331
29F
331
2A0
331
2A1
331
2A2
331
2A3
331
2A4
331
2A5
331
2A6
331
2A7
331
2A8
331
2A9
331
2AA
331
2AB
331
2AC
331
2AD
331
2AE
331
2AF
331
2B0
331
2B1
331
2B2
331
2B3
331
2B4
331
2B5
331
2B6
331
2B7
331
2B8
331
2B9
331
2BA
331
2BB
331
2BC
331
2BD
331
2BE
331
2BF
331
2C0
331
2C1
331
2C2
331
2C3
331
2C4
331
2C5
331
2C6
331
2C7
331
2C8
331
2C9
331
2CA
331
2CB
331
2CC
331
2CD
331
2CE
331
2CF
331
2D0
331
2D1
331
2D2
331
2D3
331
2D4
331
2D5
331
2D6
331
2D7
331
2D9
102
}
  0
BLOCK_RECORD
  5
36
100
AcDbSymbolTableRecord
100
AcDbBlockTableRecord
  2
Group-3
340
0
102
{BLKREFS
331
2D8
102
}
  0
BLOCK_RECORD
  5
37
100
AcDbSymbolTableRecord
100
AcDbBlockTableRecord
  2
Group-4
340
0
102
{BLKREFS
331
35A
102
}
  0
BLOCK_RECORD
  5
38
100
AcDbSymbolTableRecord
100
AcDbBlockTableRecord
  2
Group-5
340
0
102
{BLKREFS
331
2F0
102
}
  0
BLOCK_RECORD
  5
39
100
AcDbSymbolTableRecord
100
AcDbBlockTableRecord
  2
Group-6
340
0
102
{BLKREFS
331
364
102
}
  0
BLOCK_RECORD
  5
3A
100
AcDbSymbolTableRecord
100
AcDbBlockTableRecord
  2
*D24
340
0
  0
BLOCK_RECORD
  5
3B
100
AcDbSymbolTableRecord
100
AcDbBlockTableRecord
  2
*D25
340
0
  0
ENDTAB
  0
ENDSEC
  0
SECTION
  2
BLOCKS
  0
BLOCK
  5
D
100
AcDbEntity
  8
0
390
0
100
AcDbBlockBegin
  2
*MODEL_SPACE
 70
               0
 10
0.0
 20
0.0
 30
0.0
  3
*MODEL_SPACE
  1

  0
ENDBLK
  5
E
100
AcDbEntity
  8
0
390
0
100
AcDbBlockEnd
  0
BLOCK
  5
F
100
AcDbEntity
 67
               1
  8
0
390
0
100
AcDbBlockBegin
  2
*PAPER_SPACE
 70
               0
 10
0.0
 20
0.0
 30
0.0
  3
*PAPER_SPACE
  1

  0
ENDBLK
  5
10
100
AcDbEntity
 67
               1
  8
0
390
0
100
AcDbBlockEnd
  0
BLOCK
  5
71
100
AcDbEntity
  8
0
370
              -2
390
0
  6
ByBlock
 62
               0
100
AcDbBlockBegin
  2
VW_FILLEDARROW
 70
               0
 10
0.0
 20
0.0
 30
0.0
  3
VW_FILLEDARROW
  1

  0
SOLID
  5
72
100
AcDbEntity
  8
0
370
              -2
390
0
 62
               0
100
AcDbTrace
 10
0.0
 20
0.0
 30
0.0
 11
0.9999389648437499
 21
0.2679328381102956
 31
0.0
 12
0.9999389648437499
 22
-0.2679328381102956
 32
0.0
 13
0.9999389648437499
 23
-0.2679328381102956
 33
0.0
  0
ENDBLK
  5
73
100
AcDbEntity
  8
0
390
0
100
AcDbBlockEnd
  0
BLOCK
  5
75
100
AcDbEntity
  8
0
370
              -2
390
0
  6
ByBlock
 62
               0
100
AcDbBlockBegin
  2
VW_FILLEDARROW-1
 70
               0
 10
0.0
 20
0.0
 30
0.0
  3
VW_FILLEDARROW
  1

  0
SOLID
  5
76
100
AcDbEntity
  8
0
370
              -2
390
0
 62
               0
100
AcDbTrace
 10
0.0
 20
0.0
 30
0.0
 11
0.6662384033203125
 21
0.1785180421362783
 31
0.0
 12
0.6662384033203125
 22
-0.1785180421362783
 32
0.0
 13
0.6662384033203125
 23
-0.1785180421362783
 33
0.0
  0
ENDBLK
  5
77
100
AcDbEntity
  8
0
390
0
100
AcDbBlockEnd
  0
BLOCK
  5
79
100
AcDbEntity
  8
None
390
0
100
AcDbBlockBegin
  2
IE i logo
 70
               0
 10
0.0
 20
0.0
 30
0.0
  3
IE i logo
  1

  0
CIRCLE
  5
7A
102
{ACAD_REACTORS
330
7B
102
}
100
AcDbEntity
  8
None
370
               5
390
0
  6
Continuous
 62
               7
100
AcDbCircle
 10
0.0
 20
0.0
 30
0.0
 40
2.6707900018721049
  0
HATCH
  5
7B
100
AcDbEntity
  8
None
370
               0
390
0
  6
Continuous
 62
               7
100
AcDbHatch
 10
0.0
 20
0.0
 30
0.0
210
0.0
220
0.0
230
1.0
  2
SOLID
 70
               1
 71
               1
 91
        1
 92
        1
 93
        1
 72
               2
 10
0.0
 20
0.0
 40
2.6707900018721049
 50
0.0
 51
360.0
 73
               0
 97
        1
330
7A
 75
               0
 76
               1
 98
        1
 10
0.0
 20
0.0
  0
WIPEOUT
  5
7C
100
AcDbEntity
  8
None
370
               5
390
0
  6
Continuous
 62
               7
 92
        0
100
AcDbWipeout
 90
        0
 10
-1.01559
 20
0.73569
 30
0.0
 11
0.6889700000000001
 21
0.0
 31
0.0
 12
0.0
 22
0.6889700000000001
 32
0.0
 13
1.0
 23
1.0
340
0
 70
               7
280
               1
281
              50
282
              50
283
               0
360
0
 71
               2
 91
       97
 14
-0.384131384530531
 24
0.0667881039813055
 14
-0.3634758906411018
 24
0.0346239223043094
 14
-0.3415474367534144
 24
0.00272054661306
 14
-0.3183460228674687
 24
-0.0289220230924422
 14
-0.2938716489832648
 24
-0.0603037868121978
 14
-0.2681243151008025
 24
-0.0914247445462067
 14
-0.2411040212200821
 24
-0.1222848962944686
 14
-0.2128107673411033
 24
-0.1528842420569836
 14
-0.1832445534638663
 24
-0.1832227818337517
 14
-0.1529111164129063
 24
-0.2127940984367968
 14
-0.1223161930127582
 24
-0.2410917746781425
 14
-0.0914597832634222
 24
-0.2681158105577891
 14
-0.0603418871648982
 24
-0.2938662060757359
 14
-0.0289625047171866
 24
-0.3183429612319839
 14
0.0026783640797133
 24
-0.3415460760265321
 14
0.0345807192258009
 24
-0.3634755504593811
 14
0.0667445607210765
 24
-0.384131384530531
 14
0.0986291130237893
 24
-0.4031788394269708
 14
0.1296936005921883
 24
-0.4202831763356896
 14
0.1599380234262741
 24
-0.4354443952566872
 14
0.1893623815260462
 24
-0.4486624961899646
 14
0.2179666748915049
 24
-0.4599374791355209
 14
0.2457509035226498
 24
-0.4692693440933564
 14
0.2727150674194813
 24
-0.4766580910634712
 14
0.2988591665819992
 24
-0.4821037200458653
 14
0.3237520773763735
 24
-0.485530597304672
 14
0.3469626761687736
 24
-0.4868630891040248
 14
0.3684909629591999
 24
-0.4861011954439233
 14
0.3883369377476522
 24
-0.483244916324368
 14
0.4065006005341306
 24
-0.4782942517453585
 14
0.4229819513186351
 24
-0.4712492017068954
 14
0.4377809901011655
 24
-0.4621097662089782
 14
0.450897716881722
 24
-0.4508759452516074
 14
0.462126435113285
 24
-0.4377544559269632
 14
0.4712614482488352
 24
-0.4229520153272275
 14
0.4783027562883724
 24
-0.4064686234523998
 14
0.4832503592318967
 24
-0.3883042803024801
 14
0.4861042570794083
 24
-0.3684589858774687
 14
0.486864449830907
 24
-0.3469327401773656
 14
0.4855309374863926
 24
-0.3237255432021711
 14
0.4821037200458654
 24
-0.2988373949518843
 14
0.4766580910634716
 24
-0.2726983985151745
 14
0.4692693440933567
 24
-0.24573865698071
 14
0.4599374791355212
 24
-0.217958170348491
 14
0.4486624961899646
 24
-0.1893569386185173
 14
0.4354443952566874
 24
-0.1599349617907888
 14
0.4202831763356894
 24
-0.1296922398653057
 14
0.4031788394269706
 24
-0.0986287728420684
 14
0.384131384530531
 24
-0.0667445607210762
 14
0.363475890641102
 24
-0.0345803790440801
 14
0.3415474367534145
 24
-0.0026770033528307
 14
0.3183460228674687
 24
0.0289655663526718
 14
0.2938716489832648
 24
0.0603473300724272
 14
0.2681243151008025
 24
0.0914682878064358
 14
0.2411040212200821
 24
0.1223284395546979
 14
0.2128107673411033
 24
0.1529277853172129
 14
0.1832445534638663
 24
0.1832663250939811
 14
0.1529111164129063
 24
0.2128376416970262
 14
0.1223161930127581
 24
0.2411353179383721
 14
0.0914597832634222
 24
0.2681593538180184
 14
0.0603418871648983
 24
0.2939097493359655
 14
0.0289625047171866
 24
0.3183865044922132
 14
-0.0026783640797133
 24
0.3415896192867617
 14
-0.0345807192258009
 24
0.3635190937196106
 14
-0.0667445607210765
 24
0.3841749277907604
 14
-0.0986291130237892
 24
0.4032220425054794
 14
-0.1296936005921883
 24
0.4203253588690366
 14
-0.159938023426274
 24
0.4354848768814319
 14
-0.1893623815260462
 24
0.4487005965426653
 14
-0.2179666748915049
 24
0.4599725178527369
 14
-0.2457509035226499
 24
0.4693006408116466
 14
-0.2727150674194813
 24
0.4766849654193943
 14
-0.2988591665819992
 24
0.4821254916759801
 14
-0.3237520773763735
 24
0.4855476063906992
 14
-0.3469626761687736
 24
0.4868766963728464
 14
-0.3684909629591999
 24
0.486112761622422
 14
-0.3883369377476522
 24
0.4832558021394255
 14
-0.4065006005341306
 24
0.4783058179238573
 14
-0.4229819513186351
 24
0.4712628089757174
 14
-0.4377809901011655
 24
0.4621267752950057
 14
-0.450897716881722
 24
0.450897716881722
 14
-0.462126435113285
 24
0.437781330282886
 14
-0.4712614482488352
 24
0.4229833120455172
 14
-0.4783027562883724
 24
0.4065036621696155
 14
-0.4832503592318967
 24
0.388342380655181
 14
-0.4861042570794085
 24
0.3684994675022135
 14
-0.486864449830907
 24
0.3469749227107132
 14
-0.4855309374863926
 24
0.32376874628068
 14
-0.4821037200458657
 24
0.2988809382121138
 14
-0.4766580910634715
 24
0.2727419417754038
 14
-0.4692693440933567
 24
0.2457822002409394
 14
-0.4599374791355211
 24
0.2180017136087203
 14
-0.4486624961899646
 24
0.1894004818787466
 14
-0.4354443952566874
 24
0.1599785050510182
 14
-0.4202831763356894
 24
0.1297357831255353
 14
-0.4031788394269706
 24
0.0986723161022978
 14
-0.384131384530531
 24
0.0667881039813055
  0
SPLINE
  5
7D
100
AcDbEntity
  8
None
370
               5
390
0
  6
Continuous
 62
               7
100
AcDbSpline
210
0.0
220
0.0
230
1.0
 70
               9
 71
               2
 72
              17
 73
              14
 74
               0
 42
0.000001
 43
0.000001
 40
0.0
 40
0.0
 40
0.0
 40
1.0
 40
2.0
 40
3.0
 40
4.0
 40
5.0
 40
6.0
 40
7.0
 40
8.0
 40
9.0
 40
10.0
 40
11.0
 40
12.0
 40
12.0
 40
12.0
 10
-0.9357599999999999
 20
1.03416
 30
0.0
 10
-0.8805899999999999
 20
1.1231599999999999
 30
0.0
 10
-0.71412
 20
1.2896599999999998
 30
0.0
 10
-0.5361199999999999
 20
1.3999999999999999
 30
0.0
 10
-0.39428
 20
1.4246599999999998
 30
0.0
 10
-0.32662
 20
1.3569699999999998
 30
0.0
 10
-0.35128
 20
1.2151599999999998
 30
0.0
 10
-0.46162
 20
1.0371599999999999
 30
0.0
 10
-0.6280899999999999
 20
0.8706599999999999
 30
0.0
 10
-0.80609
 20
0.7603199999999999
 30
0.0
 10
-0.9479299999999999
 20
0.73569
 30
0.0
 10
-1.01559
 20
0.8033499999999999
 30
0.0
 10
-0.9909299999999999
 20
0.9451599999999999
 30
0.0
 10
-0.9357599999999999
 20
1.03416
 30
0.0
  0
WIPEOUT
  5
7E
100
AcDbEntity
  8
None
370
               5
390
0
  6
Continuous
 62
               7
 92
        0
100
AcDbWipeout
 90
        0
 10
-1.7197799999999999
 20
-1.8961899999999998
 30
0.0
 11
1.8520599999999998
 21
0.0
 31
0.0
 12
0.0
 22
1.8520599999999998
 32
0.0
 13
1.0
 23
1.0
340
0
 70
               7
280
               1
281
              50
282
              50
283
               0
360
0
 71
               2
 91
       36
 14
-0.4523827521786551
 24
0.3095202099284041
 14
-0.2500026996965541
 24
0.1190404198568081
 14
-0.2142911136788225
 24
0.1190404198568081
 14
-0.0714231720354632
 24
0.3690377201602539
 14
0.0
 24
0.4523827521786551
 14
0.0714231720354633
 24
0.5
 14
0.2142857142857143
 24
0.5
 14
0.3690539183395787
 24
0.4047493061779856
 14
0.4761940757858817
 24
0.3095202099284041
 14
0.5
 24
0.2380916384998327
 14
0.5
 24
0.1071347580531948
 14
0.4880997375894949
 24
0.0714231720354632
 14
0.4642884139822685
 24
0.0714231720354632
 14
0.4285768279645368
 24
0.0829562757146097
 14
0.3214258717320173
 24
0.1666522682850447
 14
0.274726520739069
 24
0.1785579300886581
 14
0.2142857142857143
 24
0.1666522682850447
 14
0.190479790071596
 24
0.1070915629083291
 14
0.1428625422502512
 24
0.0238059242141183
 14
0.1190404198568082
 24
-0.0833450320184012
 14
0.1071347580531948
 24
-0.2142911136788225
 14
0.0714231720354633
 24
-0.2857304838936103
 14
0.0238059242141184
 24
-0.3452533935185685
 14
-0.0238059242141183
 24
-0.3866289429068173
 14
-0.0714231720354632
 24
-0.3866289429068173
 14
-0.1309622798397461
 24
-0.3571536559290736
 14
-0.1785741282679827
 24
-0.2976361456972236
 14
-0.2619029621070591
 24
-0.178579527661091
 14
-0.342424111529864
 24
-0.1071563556256276
 14
-0.4727114672310832
 24
0.0238059242141183
 14
-0.5
 24
0.0714231720354632
 14
-0.5
 24
0.1547520058745397
 14
-0.5
 24
0.2380916384998327
 14
-0.5
 24
0.2857088863211775
 14
-0.4880997375894949
 24
0.3214204723389091
 14
-0.4523827521786551
 24
0.3095202099284041
  0
POLYLINE
  5
7F
100
AcDbEntity
  8
None
370
               5
390
0
  6
Continuous
 62
               7
100
AcDb2dPolyline
 66
               1
 10
0.0
 20
0.0
 30
0.0
 70
               1
 75
               5
  0
VERTEX
  5
80
100
AcDbEntity
  8
None
370
               5
390
0
  6
Continuous
 62
               7
100
AcDbVertex
100
AcDb2dVertex
 10
-1.6315899999999999
 20
-1.5434099999999999
 30
0.0
  0
VERTEX
  5
81
100
AcDbEntity
  8
None
370
               5
390
0
  6
Continuous
 62
               7
100
AcDbVertex
100
AcDb2dVertex
 10
-1.2567699999999999
 20
-1.1906299999999999
 30
0.0
  0
VERTEX
  5
82
100
AcDbEntity
  8
None
370
               5
390
0
  6
Continuous
 62
               7
100
AcDbVertex
100
AcDb2dVertex
 10
-1.1906299999999999
 20
-1.1906299999999999
 30
0.0
  0
VERTEX
  5
83
100
AcDbEntity
  8
None
370
               5
390
0
  6
Continuous
 62
               7
100
AcDbVertex
100
AcDb2dVertex
 10
-0.9260299999999999
 20
-1.6536399999999998
 30
0.0
  0
VERTEX
  5
84
100
AcDbEntity
  8
None
370
               5
390
0
  6
Continuous
 62
               7
100
AcDbVertex
100
AcDb2dVertex
 10
-0.79375
 20
-1.8079999999999998
 30
0.0
  0
VERTEX
  5
85
100
AcDbEntity
  8
None
370
               5
390
0
  6
Continuous
 62
               7
100
AcDbVertex
100
AcDb2dVertex
 10
-0.6614699999999999
 20
-1.8961899999999998
 30
0.0
  0
VERTEX
  5
86
100
AcDbEntity
  8
None
370
               5
390
0
  6
Continuous
 62
               7
100
AcDbVertex
100
AcDb2dVertex
 10
-0.39688
 20
-1.8961899999999998
 30
0.0
  0
VERTEX
  5
87
100
AcDbEntity
  8
None
370
               5
390
0
  6
Continuous
 62
               7
100
AcDbVertex
100
AcDb2dVertex
 10
-0.11024
 20
-1.7197799999999999
 30
0.0
  0
VERTEX
  5
88
100
AcDbEntity
  8
None
370
               5
390
0
  6
Continuous
 62
               7
100
AcDbVertex
100
AcDb2dVertex
 10
0.08819
 20
-1.5434099999999999
 30
0.0
  0
VERTEX
  5
89
100
AcDbEntity
  8
None
370
               5
390
0
  6
Continuous
 62
               7
100
AcDbVertex
100
AcDb2dVertex
 10
0.13228
 20
-1.4111199999999999
 30
0.0
  0
VERTEX
  5
8A
100
AcDbEntity
  8
None
370
               5
390
0
  6
Continuous
 62
               7
100
AcDbVertex
100
AcDb2dVertex
 10
0.13228
 20
-1.16858
 30
0.0
  0
VERTEX
  5
8B
100
AcDbEntity
  8
None
370
               5
390
0
  6
Continuous
 62
               7
100
AcDbVertex
100
AcDb2dVertex
 10
0.11024
 20
-1.1024399999999999
 30
0.0
  0
VERTEX
  5
8C
100
AcDbEntity
  8
None
370
               5
390
0
  6
Continuous
 62
               7
100
AcDbVertex
100
AcDb2dVertex
 10
0.06614
 20
-1.1024399999999999
 30
0.0
  0
VERTEX
  5
8D
100
AcDbEntity
  8
None
370
               5
390
0
  6
Continuous
 62
               7
100
AcDbVertex
100
AcDb2dVertex
 10
0.0
 20
-1.1237999999999999
 30
0.0
  0
VERTEX
  5
8E
100
AcDbEntity
  8
None
370
               5
390
0
  6
Continuous
 62
               7
100
AcDbVertex
100
AcDb2dVertex
 10
-0.19845
 20
-1.2788099999999998
 30
0.0
  0
VERTEX
  5
8F
100
AcDbEntity
  8
None
370
               5
390
0
  6
Continuous
 62
               7
100
AcDbVertex
100
AcDb2dVertex
 10
-0.28494
 20
-1.3008599999999999
 30
0.0
  0
VERTEX
  5
90
100
AcDbEntity
  8
None
370
               5
390
0
  6
Continuous
 62
               7
100
AcDbVertex
100
AcDb2dVertex
 10
-0.39688
 20
-1.2788099999999998
 30
0.0
  0
VERTEX
  5
91
100
AcDbEntity
  8
None
370
               5
390
0
  6
Continuous
 62
               7
100
AcDbVertex
100
AcDb2dVertex
 10
-0.44097
 20
-1.1684999999999999
 30
0.0
  0
VERTEX
  5
92
100
AcDbEntity
  8
None
370
               5
390
0
  6
Continuous
 62
               7
100
AcDbVertex
100
AcDb2dVertex
 10
-0.52916
 20
-1.0142499999999999
 30
0.0
  0
VERTEX
  5
93
100
AcDbEntity
  8
None
370
               5
390
0
  6
Continuous
 62
               7
100
AcDbVertex
100
AcDb2dVertex
 10
-0.5732799999999999
 20
-0.8158
 30
0.0
  0
VERTEX
  5
94
100
AcDbEntity
  8
None
370
               5
390
0
  6
Continuous
 62
               7
100
AcDbVertex
100
AcDb2dVertex
 10
-0.5953299999999999
 20
-0.5732799999999999
 30
0.0
  0
VERTEX
  5
95
100
AcDbEntity
  8
None
370
               5
390
0
  6
Continuous
 62
               7
100
AcDbVertex
100
AcDb2dVertex
 10
-0.6614699999999999
 20
-0.44097
 30
0.0
  0
VERTEX
  5
96
100
AcDbEntity
  8
None
370
               5
390
0
  6
Continuous
 62
               7
100
AcDbVertex
100
AcDb2dVertex
 10
-0.7496599999999999
 20
-0.33073
 30
0.0
  0
VERTEX
  5
97
100
AcDbEntity
  8
None
370
               5
390
0
  6
Continuous
 62
               7
100
AcDbVertex
100
AcDb2dVertex
 10
-0.8378399999999999
 20
-0.2541
 30
0.0
  0
VERTEX
  5
98
100
AcDbEntity
  8
None
370
               5
390
0
  6
Continuous
 62
               7
100
AcDbVertex
100
AcDb2dVertex
 10
-0.9260299999999999
 20
-0.2541
 30
0.0
  0
VERTEX
  5
99
100
AcDbEntity
  8
None
370
               5
390
0
  6
Continuous
 62
               7
100
AcDbVertex
100
AcDb2dVertex
 10
-1.0363
 20
-0.30869
 30
0.0
  0
VERTEX
  5
9A
100
AcDbEntity
  8
None
370
               5
390
0
  6
Continuous
 62
               7
100
AcDbVertex
100
AcDb2dVertex
 10
-1.1244799999999999
 20
-0.41892
 30
0.0
  0
VERTEX
  5
9B
100
AcDbEntity
  8
None
370
               5
390
0
  6
Continuous
 62
               7
100
AcDbVertex
100
AcDb2dVertex
 10
-1.2788099999999998
 20
-0.63942
 30
0.0
  0
VERTEX
  5
9C
100
AcDbEntity
  8
None
370
               5
390
0
  6
Continuous
 62
               7
100
AcDbVertex
100
AcDb2dVertex
 10
-1.4279399999999998
 20
-0.7716999999999999
 30
0.0
  0
VERTEX
  5
9D
100
AcDbEntity
  8
None
370
               5
390
0
  6
Continuous
 62
               7
100
AcDbVertex
100
AcDb2dVertex
 10
-1.6692399999999998
 20
-1.0142499999999999
 30
0.0
  0
VERTEX
  5
9E
100
AcDbEntity
  8
None
370
               5
390
0
  6
Continuous
 62
               7
100
AcDbVertex
100
AcDb2dVertex
 10
-1.7197799999999999
 20
-1.1024399999999999
 30
0.0
  0
VERTEX
  5
9F
100
AcDbEntity
  8
None
370
               5
390
0
  6
Continuous
 62
               7
100
AcDbVertex
100
AcDb2dVertex
 10
-1.7197799999999999
 20
-1.2567699999999999
 30
0.0
  0
VERTEX
  5
A0
100
AcDbEntity
  8
None
370
               5
390
0
  6
Continuous
 62
               7
100
AcDbVertex
100
AcDb2dVertex
 10
-1.7197799999999999
 20
-1.4111199999999999
 30
0.0
  0
VERTEX
  5
A1
100
AcDbEntity
  8
None
370
               5
390
0
  6
Continuous
 62
               7
100
AcDbVertex
100
AcDb2dVertex
 10
-1.7197799999999999
 20
-1.4993099999999999
 30
0.0
  0
VERTEX
  5
A2
100
AcDbEntity
  8
None
370
               5
390
0
  6
Continuous
 62
               7
100
AcDbVertex
100
AcDb2dVertex
 10
-1.6977399999999998
 20
-1.5654499999999998
 30
0.0
  0
SEQEND
  5
A3
100
AcDbEntity
  8
None
370
               5
390
0
  6
Continuous
 62
               7
  0
POLYLINE
  5
A4
100
AcDbEntity
  8
None
370
               5
390
0
  6
Continuous
 62
               7
100
AcDb2dPolyline
 66
               1
 10
0.0
 20
0.0
 30
0.0
 75
               5
  0
VERTEX
  5
A5
100
AcDbEntity
  8
None
370
               5
390
0
  6
Continuous
 62
               7
100
AcDbVertex
100
AcDb2dVertex
 10
-1.7197799999999999
 20
-1.1410199999999999
 30
0.0
  0
VERTEX
  5
A6
100
AcDbEntity
  8
None
370
               5
390
0
  6
Continuous
 62
               7
100
AcDbVertex
100
AcDb2dVertex
 10
-1.7197799999999999
 20
-1.45522
 30
0.0
  0
VERTEX
  5
A7
100
AcDbEntity
  8
None
370
               5
390
0
  6
Continuous
 62
               7
100
AcDbVertex
100
AcDb2dVertex
 10
-1.7197799999999999
 20
-1.4772599999999998
 30
0.0
  0
VERTEX
  5
A8
100
AcDbEntity
  8
None
370
               5
390
0
  6
Continuous
 62
               7
100
AcDbVertex
100
AcDb2dVertex
 10
-1.71427
 20
-1.5158499999999999
 30
0.0
  0
SEQEND
  5
A9
100
AcDbEntity
  8
None
370
               5
390
0
  6
Continuous
 62
               7
  0
ENDBLK
  5
AA
100
AcDbEntity
  8
None
390
0
100
AcDbBlockEnd
  0
BLOCK
  5
AB
100
AcDbEntity
  8
AM_HID
390
0
100
AcDbBlockBegin
  2
Group
 70
               0
 10
0.0
 20
0.0
 30
0.0
  3
Group
  1

  0
WIPEOUT
  5
AC
100
AcDbEntity
  8
Dimension
370
               5
390
0
  6
Continuous
 62
               7
 92
        0
100
AcDbWipeout
 90
        0
 10
-0.2032000000000025
 20
1.6933499999999952
 30
0.0
 11
21.268049999999999
 21
0.0
 31
0.0
 12
0.0
 22
21.268049999999999
 32
0.0
 13
1.0
 23
1.0
340
0
 70
               7
280
               1
281
              50
282
              50
283
               0
360
0
 71
               2
 91
        5
 14
-0.5
 24
0.3407634926568255
 14
0.5
 24
0.3407634926568255
 14
0.5
 24
0.5
 14
-0.5
 24
0.5
 14
-0.5
 24
0.3407634926568255
  0
POLYLINE
  5
AD
100
AcDbEntity
  8
Dimension
370
               5
390
0
  6
Continuous
 62
               7
100
AcDb2dPolyline
 66
               1
 10
0.0
 20
0.0
 30
0.0
 70
               1
 75
               5
  0
VERTEX
  5
AE
100
AcDbEntity
  8
Dimension
370
               5
390
0
  6
Continuous
 62
               7
100
AcDbVertex
100
AcDb2dVertex
 10
-0.2032000000000025
 20
5.0799999999999983
 30
0.0
  0
VERTEX
  5
AF
100
AcDbEntity
  8
Dimension
370
               5
390
0
  6
Continuous
 62
               7
100
AcDbVertex
100
AcDb2dVertex
 10
21.064849999999996
 20
5.0799999999999983
 30
0.0
  0
VERTEX
  5
B0
100
AcDbEntity
  8
Dimension
370
               5
390
0
  6
Continuous
 62
               7
100
AcDbVertex
100
AcDb2dVertex
 10
21.064849999999996
 20
1.6933499999999952
 30
0.0
  0
VERTEX
  5
B1
100
AcDbEntity
  8
Dimension
370
               5
390
0
  6
Continuous
 62
               7
100
AcDbVertex
100
AcDb2dVertex
 10
-0.2032000000000025
 20
1.6933499999999952
 30
0.0
  0
SEQEND
  5
B2
100
AcDbEntity
  8
Dimension
370
               5
390
0
  6
Continuous
 62
               7
  0
WIPEOUT
  5
B3
100
AcDbEntity
  8
Dimension
370
               5
390
0
  6
Continuous
 62
               7
 92
        0
100
AcDbWipeout
 90
        0
 10
21.064849999999996
 20
1.6933499999999952
 30
0.0
 11
14.863449999999997
 21
0.0
 31
0.0
 12
0.0
 22
14.863449999999997
 32
0.0
 13
1.0
 23
1.0
340
0
 70
               7
280
               1
281
              50
282
              50
283
               0
360
0
 71
               2
 91
        5
 14
-0.5
 24
0.2721491309218248
 14
0.5
 24
0.2721491309218248
 14
0.5
 24
0.5
 14
-0.5
 24
0.5
 14
-0.5
 24
0.2721491309218248
  0
POLYLINE
  5
B4
100
AcDbEntity
  8
Dimension
370
               5
390
0
  6
Continuous
 62
               7
100
AcDb2dPolyline
 66
               1
 10
0.0
 20
0.0
 30
0.0
 70
               1
 75
               5
  0
VERTEX
  5
B5
100
AcDbEntity
  8
Dimension
370
               5
390
0
  6
Continuous
 62
               7
100
AcDbVertex
100
AcDb2dVertex
 10
21.064849999999996
 20
5.0799999999999983
 30
0.0
  0
VERTEX
  5
B6
100
AcDbEntity
  8
Dimension
370
               5
390
0
  6
Continuous
 62
               7
100
AcDbVertex
100
AcDb2dVertex
 10
35.928299999999993
 20
5.0799999999999983
 30
0.0
  0
VERTEX
  5
B7
100
AcDbEntity
  8
Dimension
370
               5
390
0
  6
Continuous
 62
               7
100
AcDbVertex
100
AcDb2dVertex
 10
35.928299999999993
 20
1.6933499999999952
 30
0.0
  0
VERTEX
  5
B8
100
AcDbEntity
  8
Dimension
370
               5
390
0
  6
Continuous
 62
               7
100
AcDbVertex
100
AcDb2dVertex
 10
21.064849999999996
 20
1.6933499999999952
 30
0.0
  0
SEQEND
  5
B9
100
AcDbEntity
  8
Dimension
370
               5
390
0
  6
Continuous
 62
               7
  0
WIPEOUT
  5
BA
100
AcDbEntity
  8
Dimension
370
               5
390
0
  6
Continuous
 62
               7
 92
        0
100
AcDbWipeout
 90
        0
 10
35.928299999999993
 20
1.6933499999999952
 30
0.0
 11
14.884399999999999
 21
0.0
 31
0.0
 12
0.0
 22
14.884399999999999
 32
0.0
 13
1.0
 23
1.0
340
0
 70
               7
280
               1
281
              50
282
              50
283
               0
360
0
 71
               2
 91
        5
 14
-0.5
 24
0.2724698341888149
 14
0.5
 24
0.2724698341888149
 14
0.5
 24
0.5
 14
-0.5
 24
0.5
 14
-0.5
 24
0.2724698341888149
  0
POLYLINE
  5
BB
100
AcDbEntity
  8
Dimension
370
               5
390
0
  6
Continuous
 62
               7
100
AcDb2dPolyline
 66
               1
 10
0.0
 20
0.0
 30
0.0
 70
               1
 75
               5
  0
VERTEX
  5
BC
100
AcDbEntity
  8
Dimension
370
               5
390
0
  6
Continuous
 62
               7
100
AcDbVertex
100
AcDb2dVertex
 10
35.928299999999993
 20
5.0799999999999983
 30
0.0
  0
VERTEX
  5
BD
100
AcDbEntity
  8
Dimension
370
               5
390
0
  6
Continuous
 62
               7
100
AcDbVertex
100
AcDb2dVertex
 10
50.812699999999992
 20
5.0799999999999983
 30
0.0
  0
VERTEX
  5
BE
100
AcDbEntity
  8
Dimension
370
               5
390
0
  6
Continuous
 62
               7
100
AcDbVertex
100
AcDb2dVertex
 10
50.812699999999992
 20
1.6933499999999952
 30
0.0
  0
VERTEX
  5
BF
100
AcDbEntity
  8
Dimension
370
               5
390
0
  6
Continuous
 62
               7
100
AcDbVertex
100
AcDb2dVertex
 10
35.928299999999993
 20
1.6933499999999952
 30
0.0
  0
SEQEND
  5
C0
100
AcDbEntity
  8
Dimension
370
               5
390
0
  6
Continuous
 62
               7
  0
WIPEOUT
  5
C1
100
AcDbEntity
  8
Dimension
370
               5
390
0
  6
Continuous
 62
               7
 92
        0
100
AcDbWipeout
 90
        0
 10
-0.2032000000000025
 20
-1.6933599999999984
 30
0.0
 11
27.246189999999999
 21
0.0
 31
0.0
 12
0.0
 22
27.246189999999999
 32
0.0
 13
1.0
 23
1.0
340
0
 70
               7
280
               1
281
              50
282
              50
283
               0
360
0
 71
               2
 91
        5
 14
-0.5
 24
0.3756996849834787
 14
0.5
 24
0.3756996849834787
 14
0.5
 24
0.5
 14
-0.5
 24
0.5
 14
-0.5
 24
0.3756996849834787
  0
POLYLINE
  5
C2
100
AcDbEntity
  8
Dimension
370
               5
390
0
  6
Continuous
 62
               7
100
AcDb2dPolyline
 66
               1
 10
0.0
 20
0.0
 30
0.0
 70
               1
 75
               5
  0
VERTEX
  5
C3
100
AcDbEntity
  8
Dimension
370
               5
390
0
  6
Continuous
 62
               7
100
AcDbVertex
100
AcDb2dVertex
 10
-0.2032000000000025
 20
1.6933499999999952
 30
0.0
  0
VERTEX
  5
C4
100
AcDbEntity
  8
Dimension
370
               5
390
0
  6
Continuous
 62
               7
100
AcDbVertex
100
AcDb2dVertex
 10
27.042989999999996
 20
1.6933499999999952
 30
0.0
  0
VERTEX
  5
C5
100
AcDbEntity
  8
Dimension
370
               5
390
0
  6
Continuous
 62
               7
100
AcDbVertex
100
AcDb2dVertex
 10
27.042989999999996
 20
-1.6933599999999984
 30
0.0
  0
VERTEX
  5
C6
100
AcDbEntity
  8
Dimension
370
               5
390
0
  6
Continuous
 62
               7
100
AcDbVertex
100
AcDb2dVertex
 10
-0.2032000000000025
 20
-1.6933599999999984
 30
0.0
  0
SEQEND
  5
C7
100
AcDbEntity
  8
Dimension
370
               5
390
0
  6
Continuous
 62
               7
  0
WIPEOUT
  5
C8
100
AcDbEntity
  8
Dimension
370
               5
390
0
  6
Continuous
 62
               7
 92
        0
100
AcDbWipeout
 90
        0
 10
27.042989999999996
 20
-1.6933599999999984
 30
0.0
 11
23.769709999999996
 21
0.0
 31
0.0
 12
0.0
 22
23.769709999999996
 32
0.0
 13
1.0
 23
1.0
340
0
 70
               7
280
               1
281
              50
282
              50
283
               0
360
0
 71
               2
 91
        5
 14
-0.5
 24
0.357519927672656
 14
0.5
 24
0.357519927672656
 14
0.5
 24
0.5
 14
-0.5
 24
0.5
 14
-0.5
 24
0.357519927672656
  0
POLYLINE
  5
C9
100
AcDbEntity
  8
Dimension
370
               5
390
0
  6
Continuous
 62
               7
100
AcDb2dPolyline
 66
               1
 10
0.0
 20
0.0
 30
0.0
 70
               1
 75
               5
  0
VERTEX
  5
CA
100
AcDbEntity
  8
Dimension
370
               5
390
0
  6
Continuous
 62
               7
100
AcDbVertex
100
AcDb2dVertex
 10
27.042989999999996
 20
1.6933499999999952
 30
0.0
  0
VERTEX
  5
CB
100
AcDbEntity
  8
Dimension
370
               5
390
0
  6
Continuous
 62
               7
100
AcDbVertex
100
AcDb2dVertex
 10
50.812699999999992
 20
1.6933499999999952
 30
0.0
  0
VERTEX
  5
CC
100
AcDbEntity
  8
Dimension
370
               5
390
0
  6
Continuous
 62
               7
100
AcDbVertex
100
AcDb2dVertex
 10
50.812699999999992
 20
-1.6933599999999984
 30
0.0
  0
VERTEX
  5
CD
100
AcDbEntity
  8
Dimension
370
               5
390
0
  6
Continuous
 62
               7
100
AcDbVertex
100
AcDb2dVertex
 10
27.042989999999996
 20
-1.6933599999999984
 30
0.0
  0
SEQEND
  5
CE
100
AcDbEntity
  8
Dimension
370
               5
390
0
  6
Continuous
 62
               7
  0
WIPEOUT
  5
CF
100
AcDbEntity
  8
Dimension
370
               5
390
0
  6
Continuous
 62
               7
 92
        0
100
AcDbWipeout
 90
        0
 10
27.042989999999996
 20
-5.0799999999999983
 30
0.0
 11
23.769709999999996
 21
0.0
 31
0.0
 12
0.0
 22
23.769709999999996
 32
0.0
 13
1.0
 23
1.0
340
0
 70
               7
280
               1
281
              50
282
              50
283
               0
360
0
 71
               2
 91
        5
 14
-0.5
 24
0.3575228725970994
 14
0.5
 24
0.3575228725970994
 14
0.5
 24
0.5
 14
-0.5
 24
0.5
 14
-0.5
 24
0.3575228725970994
  0
POLYLINE
  5
D0
100
AcDbEntity
  8
Dimension
370
               5
390
0
  6
Continuous
 62
               7
100
AcDb2dPolyline
 66
               1
 10
0.0
 20
0.0
 30
0.0
 70
               1
 75
               5
  0
VERTEX
  5
D1
100
AcDbEntity
  8
Dimension
370
               5
390
0
  6
Continuous
 62
               7
100
AcDbVertex
100
AcDb2dVertex
 10
27.042989999999996
 20
-1.6933599999999984
 30
0.0
  0
VERTEX
  5
D2
100
AcDbEntity
  8
Dimension
370
               5
390
0
  6
Continuous
 62
               7
100
AcDbVertex
100
AcDb2dVertex
 10
50.812699999999992
 20
-1.6933599999999984
 30
0.0
  0
VERTEX
  5
D3
100
AcDbEntity
  8
Dimension
370
               5
390
0
  6
Continuous
 62
               7
100
AcDbVertex
100
AcDb2dVertex
 10
50.812699999999992
 20
-5.0799999999999983
 30
0.0
  0
VERTEX
  5
D4
100
AcDbEntity
  8
Dimension
370
               5
390
0
  6
Continuous
 62
               7
100
AcDbVertex
100
AcDb2dVertex
 10
27.042989999999996
 20
-5.0799999999999983
 30
0.0
  0
SEQEND
  5
D5
100
AcDbEntity
  8
Dimension
370
               5
390
0
  6
Continuous
 62
               7
  0
WIPEOUT
  5
D6
100
AcDbEntity
  8
Dimension
370
               5
390
0
  6
Continuous
 62
               7
 92
        0
100
AcDbWipeout
 90
        0
 10
-0.2032000000000025
 20
-5.0799999999999983
 30
0.0
 11
27.246189999999999
 21
0.0
 31
0.0
 12
0.0
 22
27.246189999999999
 32
0.0
 13
1.0
 23
1.0
340
0
 70
               7
280
               1
281
              50
282
              50
283
               0
360
0
 71
               2
 91
        5
 14
-0.5
 24
0.3757022541500298
 14
0.5
 24
0.3757022541500298
 14
0.5
 24
0.5
 14
-0.5
 24
0.5
 14
-0.5
 24
0.3757022541500298
  0
POLYLINE
  5
D7
100
AcDbEntity
  8
Dimension
370
               5
390
0
  6
Continuous
 62
               7
100
AcDb2dPolyline
 66
               1
 10
0.0
 20
0.0
 30
0.0
 70
               1
 75
               5
  0
VERTEX
  5
D8
100
AcDbEntity
  8
Dimension
370
               5
390
0
  6
Continuous
 62
               7
100
AcDbVertex
100
AcDb2dVertex
 10
-0.2032000000000025
 20
-1.6933599999999984
 30
0.0
  0
VERTEX
  5
D9
100
AcDbEntity
  8
Dimension
370
               5
390
0
  6
Continuous
 62
               7
100
AcDbVertex
100
AcDb2dVertex
 10
27.042989999999996
 20
-1.6933599999999984
 30
0.0
  0
VERTEX
  5
DA
100
AcDbEntity
  8
Dimension
370
               5
390
0
  6
Continuous
 62
               7
100
AcDbVertex
100
AcDb2dVertex
 10
27.042989999999996
 20
-5.0799999999999983
 30
0.0
  0
VERTEX
  5
DB
100
AcDbEntity
  8
Dimension
370
               5
390
0
  6
Continuous
 62
               7
100
AcDbVertex
100
AcDb2dVertex
 10
-0.2032000000000025
 20
-5.0799999999999983
 30
0.0
  0
SEQEND
  5
DC
100
AcDbEntity
  8
Dimension
370
               5
390
0
  6
Continuous
 62
               7
  0
MTEXT
  5
DD
100
AcDbEntity
  8
None
390
0
 62
               7
100
AcDbMText
 10
1.0667999999999989
 20
4.1211014739583396
 30
0.0
 40
1.263202473958333
 41
0.0
 71
               1
 72
               1
  1
Status: Released
  7
Arial
 73
               1
 44
0.9673603504928809
  0
MTEXT
  5
DE
100
AcDbEntity
  8
None
390
0
 62
               7
100
AcDbMText
 10
1.0667999999999989
 20
0.7315914739583382
 30
0.0
 40
1.263202473958333
 41
0.0
 71
               1
 72
               1
  1
Drawing: Vinayak R
  7
Arial
 73
               1
 44
0.9673603504928809
  0
MTEXT
  5
DF
100
AcDbEntity
  8
None
390
0
 62
               7
100
AcDbMText
 10
37.198299999999996
 20
4.1182714739583366
 30
0.0
 40
1.263202473958333
 41
0.0
 71
               1
 72
               1
  1
Rev: A
  7
Arial
 73
               1
 44
0.9673603504928809
  0
MTEXT
  5
E0
100
AcDbEntity
  8
None
390
0
 62
               7
100
AcDbMText
 10
28.312989999999996
 20
0.4497614739583389
 30
0.0
 40
1.263202473958333
 41
0.0
 71
               1
 72
               1
  1
Date: 3/1/10
  7
Arial
 73
               1
 44
0.9673603504928809
  0
MTEXT
  5
E1
100
AcDbEntity
  8
None
390
0
 62
               7
100
AcDbMText
 10
1.1343199999999989
 20
-2.9097584166666652
 30
0.0
 40
0.8842395833333331
 41
22.062479999999997
 71
               1
 72
               1
  1
File: CBT-QFN-7000 Dwg
  7
Arial
 73
               1
 44
0.9673603504928806
  0
WIPEOUT
  5
E2
100
AcDbEntity
  8
Dimension
370
               5
390
0
  6
Continuous
 62
               7
 92
        0
100
AcDbWipeout
 90
        0
 10
-50.812699999999992
 20
-5.0799999999999983
 30
0.0
 11
50.60949999999999
 21
0.0
 31
0.0
 12
0.0
 22
50.60949999999999
 32
0.0
 13
1.0
 23
1.0
340
0
 70
               7
280
               1
281
              50
282
              50
283
               0
360
0
 71
               2
 91
        5
 14
-0.5
 24
0.3661644552900149
 14
0.5
 24
0.3661644552900149
 14
0.5
 24
0.5
 14
-0.5
 24
0.5
 14
-0.5
 24
0.3661644552900149
  0
POLYLINE
  5
E3
100
AcDbEntity
  8
Dimension
370
               5
390
0
  6
Continuous
 62
               7
100
AcDb2dPolyline
 66
               1
 10
0.0
 20
0.0
 30
0.0
 70
               1
 75
               5
  0
VERTEX
  5
E4
100
AcDbEntity
  8
Dimension
370
               5
390
0
  6
Continuous
 62
               7
100
AcDbVertex
100
AcDb2dVertex
 10
-50.812699999999992
 20
1.6933499999999952
 30
0.0
  0
VERTEX
  5
E5
100
AcDbEntity
  8
Dimension
370
               5
390
0
  6
Continuous
 62
               7
100
AcDbVertex
100
AcDb2dVertex
 10
-0.2032000000000025
 20
1.6933499999999952
 30
0.0
  0
VERTEX
  5
E6
100
AcDbEntity
  8
Dimension
370
               5
390
0
  6
Continuous
 62
               7
100
AcDbVertex
100
AcDb2dVertex
 10
-0.2032000000000025
 20
-5.0799999999999983
 30
0.0
  0
VERTEX
  5
E7
100
AcDbEntity
  8
Dimension
370
               5
390
0
  6
Continuous
 62
               7
100
AcDbVertex
100
AcDb2dVertex
 10
-50.812699999999992
 20
-5.0799999999999983
 30
0.0
  0
SEQEND
  5
E8
100
AcDbEntity
  8
Dimension
370
               5
390
0
  6
Continuous
 62
               7
  0
WIPEOUT
  5
E9
100
AcDbEntity
  8
Dimension
370
               5
390
0
  6
Continuous
 62
               7
 92
        0
100
AcDbWipeout
 90
        0
 10
-50.812699999999992
 20
1.6933499999999952
 30
0.0
 11
50.60949999999999
 21
0.0
 31
0.0
 12
0.0
 22
50.60949999999999
 32
0.0
 13
1.0
 23
1.0
340
0
 70
               7
280
               1
281
              50
282
              50
283
               0
360
0
 71
               2
 91
        5
 14
-0.5
 24
0.4330827216234106
 14
0.5
 24
0.4330827216234106
 14
0.5
 24
0.5
 14
-0.5
 24
0.5
 14
-0.5
 24
0.4330827216234106
  0
POLYLINE
  5
EA
100
AcDbEntity
  8
Dimension
370
               5
390
0
  6
Continuous
 62
               7
100
AcDb2dPolyline
 66
               1
 10
0.0
 20
0.0
 30
0.0
 70
               1
 75
               5
  0
VERTEX
  5
EB
100
AcDbEntity
  8
Dimension
370
               5
390
0
  6
Continuous
 62
               7
100
AcDbVertex
100
AcDb2dVertex
 10
-50.812699999999992
 20
5.0799999999999983
 30
0.0
  0
VERTEX
  5
EC
100
AcDbEntity
  8
Dimension
370
               5
390
0
  6
Continuous
 62
               7
100
AcDbVertex
100
AcDb2dVertex
 10
-0.2032000000000025
 20
5.0799999999999983
 30
0.0
  0
VERTEX
  5
ED
100
AcDbEntity
  8
Dimension
370
               5
390
0
  6
Continuous
 62
               7
100
AcDbVertex
100
AcDb2dVertex
 10
-0.2032000000000025
 20
1.6933499999999952
 30
0.0
  0
VERTEX
  5
EE
100
AcDbEntity
  8
Dimension
370
               5
390
0
  6
Continuous
 62
               7
100
AcDbVertex
100
AcDb2dVertex
 10
-50.812699999999992
 20
1.6933499999999952
 30
0.0
  0
SEQEND
  5
EF
100
AcDbEntity
  8
Dimension
370
               5
390
0
  6
Continuous
 62
               7
  0
MTEXT
  5
F0
100
AcDbEntity
  8
None
390
0
 62
               7
100
AcDbMText
 10
-24.203200000000002
 20
4.185412220833328
 30
0.0
 40
1.4735130208333329
 41
0.0
 71
               2
 72
               1
  1
CBT-QFN-7000  Drawing
  7
Arial (bold)
 73
               1
 44
0.9925958378970426
  0
INSERT
  5
F1
100
AcDbEntity
  8
None
390
0
 62
               7
100
AcDbBlockReference
  2
IE i logo
 10
-45.398089999999996
 20
-1.6403999999999996
 30
0.0
  0
MTEXT
  5
F2
100
AcDbEntity
  8
None
390
0
 62
               7
100
AcDbMText
 10
28.312989999999996
 20
-2.6300685260416623
 30
0.0
 40
1.263202473958333
 41
0.0
 71
               1
 72
               1
  1
Modified: 
  7
Arial
 73
               1
 44
0.9673603504928809
  0
MTEXT
  5
F3
100
AcDbEntity
  8
None
390
0
 62
               7
100
AcDbMText
 10
-24.834061599999998
 20
1.062449080277563
 30
0.0
 40
1.1368815104166665
 41
36.738279999999996
 71
               2
 72
               1
  1
© 2010 IRONWOOD ELECTRONICS, INC.\PTele: (952) 229-8200\Pwww.ironwoodelectronics.com
  7
Arial
 73
               1
 44
0.9673603504928806
  0
ENDBLK
  5
F4
100
AcDbEntity
  8
AM_HID
390
0
100
AcDbBlockEnd
  0
BLOCK
  5
F5
100
AcDbEntity
  8
None
390
0
100
AcDbBlockBegin
  2
CBT-QFN-7000 TB
 70
               0
 10
0.0
 20
0.0
 30
0.0
  3
CBT-QFN-7000 TB
  1

  0
INSERT
  5
F6
100
AcDbEntity
  8
AM_HID
390
0
 62
               7
100
AcDbBlockReference
  2
Group
 10
0.0
 20
0.0
 30
0.0
  0
ENDBLK
  5
F7
100
AcDbEntity
  8
None
390
0
100
AcDbBlockEnd
  0
BLOCK
  5
F8
100
AcDbEntity
  8
None
390
0
100
AcDbBlockBegin
  2
Group-1
 70
               0
 10
0.0
 20
0.0
 30
0.0
  3
Group-1
  1

  0
WIPEOUT
  5
F9
100
AcDbEntity
  8
None
370
               9
390
0
  6
STYLE_20
 62
               1
 92
        0
100
AcDbWipeout
 90
        0
 10
-8.064284892294415
 20
15.522900799206914
 30
0.0
 11
37.225000000000001
 21
0.0
 31
0.0
 12
0.0
 22
37.225000000000001
 32
0.0
 13
1.0
 23
1.0
340
0
 70
               7
280
               1
281
              50
282
              50
283
               0
360
0
 71
               2
 91
       41
 14
-0.4470412976035034
 24
0.5
 14
-0.0902320402071075
 24
0.5
 14
-0.0799003099030187
 24
0.4989824133832426
 14
-0.069965622200415
 24
0.4959687588159831
 14
-0.0608097615762703
 24
0.4910748493531643
 14
-0.0527845826197046
 24
0.4844887551909065
 14
-0.0461984884574468
 24
0.4764635762343409
 14
-0.041304578994628
 24
0.4673077156101961
 14
-0.0382909244273685
 24
0.4573730279075924
 14
-0.0372733378106112
 24
0.4470412976035036
 14
-0.0372733378106112
 24
0.4462726662189381
 14
-0.0372733378106112
 24
-0.4462726662189389
 14
-0.0372733378106112
 24
-0.4470412976035036
 14
-0.0382909244273686
 24
-0.4573730279075925
 14
-0.0413045789946281
 24
-0.4673077156101961
 14
-0.0461984884574468
 24
-0.476463576234341
 14
-0.0527845826197046
 24
-0.4844887551909065
 14
-0.0608097615762703
 24
-0.4910748493531644
 14
-0.069965622200415
 24
-0.4959687588159831
 14
-0.0799003099030187
 24
-0.4989824133832426
 14
-0.0902320402071075
 24
-0.5
 14
-0.4470412976035034
 24
-0.5
 14
-0.4573730279075922
 24
-0.4989824133832426
 14
-0.467307715610196
 24
-0.4959687588159831
 14
-0.4764635762343408
 24
-0.4910748493531644
 14
-0.4844887551909063
 24
-0.4844887551909065
 14
-0.4910748493531643
 24
-0.4764635762343408
 14
-0.495968758815983
 24
-0.4673077156101961
 14
-0.4989824133832425
 24
-0.4573730279075923
 14
-0.5
 24
-0.4470412976035034
 14
-0.5
 24
-0.4462726662189389
 14
-0.5
 24
0.4462726662189381
 14
-0.5
 24
0.4470412976035034
 14
-0.4989824133832426
 24
0.4573730279075923
 14
-0.495968758815983
 24
0.467307715610196
 14
-0.4910748493531643
 24
0.4764635762343408
 14
-0.4844887551909064
 24
0.4844887551909065
 14
-0.4764635762343408
 24
0.4910748493531643
 14
-0.467307715610196
 24
0.4959687588159831
 14
-0.4573730279075922
 24
0.4989824133832426
 14
-0.4470412976035034
 24
0.5
  0
LWPOLYLINE
  5
FA
102
{ACAD_REACTORS
330
FB
102
}
100
AcDbEntity
  8
None
370
               9
390
0
  6
STYLE_20
 62
               1
100
AcDbPolyline
 90
       12
 70
             129
 10
-6.092897195584829
 20
15.522900799206914
 10
7.1893274109960075
 20
15.522900799206914
 42
0.414213562373095
 10
9.1607151077055864
 20
17.494288495916493
 10
9.1607151077055864
 20
17.522900799206944
 10
9.1607151077055864
 20
50.747900799206917
 10
9.1607151077055864
 20
50.77651310249734
 42
0.414213562373095
 10
7.1893274109960075
 20
52.747900799206917
 10
-6.092897195584829
 20
52.747900799206917
 42
0.414213562373095
 10
-8.064284892294415
 20
50.776513102497333
 10
-8.064284892294415
 20
50.747900799206917
 10
-8.064284892294415
 20
17.522900799206944
 10
-8.064284892294415
 20
17.4942884959165
 42
0.4142135623730953
  0
HATCH
  5
FB
100
AcDbEntity
  8
None
370
               5
390
0
  6
Continuous
 62
               7
100
AcDbHatch
 10
0.0
 20
0.0
 30
0.0
210
0.0
220
0.0
230
1.0
  2
Hatch_Name-1
 70
               0
 71
               1
 91
        1
 92
        1
 93
       12
 72
               1
 10
-6.092897195584829
 20
15.522900799206914
 11
7.1893274109960075
 21
15.522900799206914
 72
               2
 10
7.1893274109960066
 20
17.494288495916493
 40
1.9713876967095789
 50
-89.999999999999972
 51
0.0
 73
               1
 72
               1
 10
9.1607151077055864
 20
17.494288495916493
 11
9.1607151077055864
 21
17.522900799206944
 72
               1
 10
9.1607151077055864
 20
17.522900799206944
 11
9.1607151077055864
 21
50.747900799206917
 72
               1
 10
9.1607151077055864
 20
50.747900799206917
 11
9.1607151077055864
 21
50.77651310249734
 72
               2
 10
7.1893274109960075
 20
50.77651310249734
 40
1.971387696709578
 50
0.0
 51
90.0
 73
               1
 72
               1
 10
7.1893274109960075
 20
52.747900799206917
 11
-6.092897195584829
 21
52.747900799206917
 72
               2
 10
-6.0928971955848299
 20
50.776513102497333
 40
1.9713876967095854
 50
89.999999999999972
 51
180.0
 73
               1
 72
               1
 10
-8.064284892294415
 20
50.776513102497333
 11
-8.064284892294415
 21
50.747900799206917
 72
               1
 10
-8.064284892294415
 20
50.747900799206917
 11
-8.064284892294415
 21
17.522900799206944
 72
               1
 10
-8.064284892294415
 20
17.522900799206944
 11
-8.064284892294415
 21
17.4942884959165
 72
               2
 10
-6.0928971955848299
 20
17.4942884959165
 40
1.9713876967095854
 50
180.0
 51
270.0
 73
               1
 97
        1
330
FA
 75
               0
 76
               2
 52
0.0
 41
1.0
 77
               0
 78
               1
 53
-42.780344446802111
 43
0.0
 44
0.0
 45
0.6173611111111111
 46
0.5291666666666666
 79
               0
 98
        1
 10
0.0
 20
0.0
  0
ENDBLK
  5
FC
100
AcDbEntity
  8
None
390
0
100
AcDbBlockEnd
  0
BLOCK
  5
FD
100
AcDbEntity
  8
Dimension
390
0
100
AcDbBlockBegin
  2
*D6
 70
               1
 10
0.0
 20
0.0
 30
0.0
  3
*D6
  1

  0
LINE
  5
FE
100
AcDbEntity
  8
Dimension
370
              -2
390
0
  6
Continuous
 62
               0
100
AcDbLine
 10
20.05012670770558
 20
-114.54992903745034
 30
0.0
 11
20.05012670770558
 21
-107.85737985334409
 31
0.0
  0
LINE
  5
FF
100
AcDbEntity
  8
Dimension
370
              -2
390
0
  6
Continuous
 62
               0
100
AcDbLine
 10
18.80012670770558
 20
-113.29992903745033
 30
0.0
 11
18.80012670770558
 21
-107.85737985334409
 31
0.0
  0
LINE
  5
100
100
AcDbEntity
  8
Dimension
370
              -2
390
0
  6
Continuous
 62
               0
100
AcDbLine
 10
18.80012670770558
 20
-108.80987985570965
 30
0.0
 11
20.05012670770558
 21
-108.80987985570965
 31
0.0
  0
LINE
  5
101
100
AcDbEntity
  8
Dimension
370
              -2
390
0
  6
Continuous
 62
               0
100
AcDbLine
 10
20.05012670770558
 20
-108.80987985570965
 30
0.0
 11
21.800123206072399
 21
-108.80987985570965
 31
0.0
  0
SOLID
  5
102
100
AcDbEntity
  8
Dimension
370
              -2
390
0
 62
               0
100
AcDbTrace
 10
20.05012670770558
 20
-108.80987985570965
 30
0.0
 11
20.843876707705579
 21
-108.59719518421744
 31
0.0
 12
20.843876707705579
 22
-109.02256452720185
 32
0.0
 13
20.843876707705579
 23
-109.02256452720185
 33
0.0
  0
LINE
  5
103
100
AcDbEntity
  8
Dimension
370
              -2
390
0
  6
Continuous
 62
               0
100
AcDbLine
 10
18.80012670770558
 20
-108.80987985570965
 30
0.0
 11
13.000125107705589
 21
-108.80987985570965
 31
0.0
  0
SOLID
  5
104
100
AcDbEntity
  8
Dimension
370
              -2
390
0
 62
               0
100
AcDbTrace
 10
18.80012670770558
 20
-108.80987985570965
 30
0.0
 11
18.006376707705584
 21
-109.02256452720185
 31
0.0
 12
18.006376707705584
 22
-108.59719518421744
 32
0.0
 13
18.006376707705584
 23
-108.59719518421744
 33
0.0
  0
WIPEOUT
  5
105
100
AcDbEntity
  8
Dimension
370
              -2
390
0
  6
Continuous
 62
               0
 92
        0
100
AcDbWipeout
 90
        0
 10
4.3394657534427097
 20
73.023986199845893
 30
0.0
 11
3.2102614270316217
 21
0.0
 31
0.0
 12
0.0
 22
3.2102614270316217
 32
0.0
 13
1.0
 23
1.0
340
0
 70
               7
280
               1
281
              50
282
              50
283
               0
360
0
 71
               2
 91
        5
 14
-0.5
 24
57.299417475667127
 14
0.5
 24
57.299417475667127
 14
0.5
 24
56.983483392710582
 14
-0.5
 24
56.983483392710582
 14
-0.5
 24
57.299417475667127
  0
MTEXT
  5
106
100
AcDbEntity
  8
Dimension
390
0
 62
               0
100
AcDbMText
 10
4.3394657534427097
 20
-108.46491014390409
 30
0.0
 40
0.6315976562499999
 41
0.0
 71
               1
 72
               1
  1
1.25mm
  7
Helvetica
 73
               1
 44
0.9673603504928808
  0
WIPEOUT
  5
107
100
AcDbEntity
  8
Dimension
370
              -2
390
0
  6
Continuous
 62
               0
 92
        0
100
AcDbWipeout
 90
        0
 10
7.5497271804743313
 20
73.023983977623672
 30
0.0
 11
3.6953285164303242
 21
0.0
 31
0.0
 12
0.0
 22
3.6953285164303242
 32
0.0
 13
1.0
 23
1.0
340
0
 70
               7
280
               1
281
              50
282
              50
283
               0
360
0
 71
               2
 91
        5
 14
-0.5
 24
49.843645142581479
 14
0.5
 24
49.843645142581479
 14
0.5
 24
49.569182129214603
 14
-0.5
 24
49.569182129214603
 14
-0.5
 24
49.843645142581479
  0
MTEXT
  5
108
100
AcDbEntity
  8
Dimension
390
0
 62
               0
100
AcDbMText
 10
7.5497271804743313
 20
-108.4649123661263
 30
0.0
 40
0.6315976562499999
 41
0.0
 71
               1
 72
               1
  1
±0.13mm
  7
Helvetica
 73
               1
 44
0.9673603504928808
  0
WIPEOUT
  5
109
100
AcDbEntity
  8
Dimension
370
              -2
390
0
  6
Continuous
 62
               0
 92
        0
100
AcDbWipeout
 90
        0
 10
11.245055696904657
 20
73.023981088734786
 30
0.0
 11
1.7550694108009335
 21
0.0
 31
0.0
 12
0.0
 22
1.7550694108009335
 32
0.0
 13
1.0
 23
1.0
340
0
 70
               7
280
               1
281
              50
282
              50
283
               0
360
0
 71
               2
 91
        5
 14
-0.5
 24
104.39388469643937
 14
0.5
 24
104.39388469643937
 14
0.5
 24
103.81599523812544
 14
-0.5
 24
103.81599523812544
 14
-0.5
 24
104.39388469643937
  0
MTEXT
  5
10A
100
AcDbEntity
  8
Dimension
390
0
 62
               0
100
AcDbMText
 10
11.245055696904657
 20
-108.46491096103372
 30
0.0
 40
0.6316008391203704
 41
0.0
 71
               1
 72
               1
  1
 (x4)
  7
Helvetica
 73
               1
 44
0.9673603504928805
  0
POINT
  5
10B
100
AcDbEntity
  8
Defpoints
370
               0
390
0
 62
               0
100
AcDbPoint
 10
18.80012670770558
 20
-113.7761790386331
 30
0.0
  0
POINT
  5
10C
100
AcDbEntity
  8
Defpoints
370
               0
390
0
 62
               0
100
AcDbPoint
 10
20.05012670770558
 20
-115.0261790386331
 30
0.0
  0
POINT
  5
10D
100
AcDbEntity
  8
Defpoints
370
               0
390
0
 62
               0
100
AcDbPoint
 10
20.05012670770558
 20
-108.80987985570965
 30
0.0
  0
ENDBLK
  5
10E
100
AcDbEntity
  8
Dimension
390
0
100
AcDbBlockEnd
  0
BLOCK
  5
10F
100
AcDbEntity
  8
Dimension
390
0
100
AcDbBlockBegin
  2
*D7
 70
               1
 10
0.0
 20
0.0
 30
0.0
  3
*D7
  1

  0
LINE
  5
110
100
AcDbEntity
  8
Dimension
370
              -2
390
0
  6
Continuous
 62
               0
100
AcDbLine
 10
18.323876706522803
 20
-113.7761790386331
 30
0.0
 11
9.5723648390095271
 21
-113.7761790386331
 31
0.0
  0
LINE
  5
111
100
AcDbEntity
  8
Dimension
370
              -2
390
0
  6
Continuous
 62
               0
100
AcDbLine
 10
19.5738767065228
 20
-115.0261790386331
 30
0.0
 11
9.5723648390095271
 21
-115.0261790386331
 31
0.0
  0
LINE
  5
112
100
AcDbEntity
  8
Dimension
370
              -2
390
0
  6
Continuous
 62
               0
100
AcDbLine
 10
10.524864841375088
 20
-115.0261790386331
 30
0.0
 11
10.524864841375088
 21
-113.7761790386331
 31
0.0
  0
LINE
  5
113
100
AcDbEntity
  8
Dimension
370
              -2
390
0
  6
Continuous
 62
               0
100
AcDbLine
 10
10.524864841375088
 20
-113.7761790386331
 30
0.0
 11
10.524864841375088
 21
-110.94580320529977
 31
0.0
  0
SOLID
  5
114
100
AcDbEntity
  8
Dimension
370
              -2
390
0
 62
               0
100
AcDbTrace
 10
10.524864841375088
 20
-113.7761790386331
 30
0.0
 11
10.312180169882883
 21
-112.9824290386331
 31
0.0
 12
10.737549512867293
 22
-112.9824290386331
 32
0.0
 13
10.737549512867293
 23
-112.9824290386331
 33
0.0
  0
LINE
  5
115
100
AcDbEntity
  8
Dimension
370
              -2
390
0
  6
Continuous
 62
               0
100
AcDbLine
 10
10.524864841375088
 20
-115.0261790386331
 30
0.0
 11
10.524864841375088
 21
-116.77617553699993
 31
0.0
  0
SOLID
  5
116
100
AcDbEntity
  8
Dimension
370
              -2
390
0
 62
               0
100
AcDbTrace
 10
10.524864841375088
 20
-115.0261790386331
 30
0.0
 11
10.73754951286729
 21
-115.81992903863312
 31
0.0
 12
10.312180169882883
 22
-115.81992903863312
 32
0.0
 13
10.312180169882883
 23
-115.81992903863312
 33
0.0
  0
WIPEOUT
  5
117
100
AcDbEntity
  8
Dimension
370
              -2
390
0
  6
Continuous
 62
               0
 92
        0
100
AcDbWipeout
 90
        0
 10
6.1945351642436464
 20
70.888062850255778
 30
0.0
 11
3.2102614270316217
 21
0.0
 31
0.0
 12
0.0
 22
3.2102614270316217
 32
0.0
 13
1.0
 23
1.0
340
0
 70
               7
280
               1
281
              50
282
              50
283
               0
360
0
 71
               2
 91
        5
 14
-0.5
 24
57.299417475667134
 14
0.5
 24
57.299417475667134
 14
0.5
 24
56.983483392710582
 14
-0.5
 24
56.983483392710582
 14
-0.5
 24
57.299417475667134
  0
MTEXT
  5
118
100
AcDbEntity
  8
Dimension
390
0
 62
               0
100
AcDbMText
 10
6.1945351642436464
 20
-110.60083349349421
 30
0.0
 40
0.6315976562499999
 41
0.0
 71
               1
 72
               1
  1
1.25mm
  7
Helvetica
 73
               1
 44
0.9673603504928808
  0
WIPEOUT
  5
119
100
AcDbEntity
  8
Dimension
370
              -2
390
0
  6
Continuous
 62
               0
 92
        0
100
AcDbWipeout
 90
        0
 10
9.404796591275268
 20
70.888060628033557
 30
0.0
 11
3.6953285164303242
 21
0.0
 31
0.0
 12
0.0
 22
3.6953285164303242
 32
0.0
 13
1.0
 23
1.0
340
0
 70
               7
280
               1
281
              50
282
              50
283
               0
360
0
 71
               2
 91
        5
 14
-0.5
 24
49.843645142581479
 14
0.5
 24
49.843645142581479
 14
0.5
 24
49.56918212921461
 14
-0.5
 24
49.56918212921461
 14
-0.5
 24
49.843645142581479
  0
MTEXT
  5
11A
100
AcDbEntity
  8
Dimension
390
0
 62
               0
100
AcDbMText
 10
9.404796591275268
 20
-110.60083571571643
 30
0.0
 40
0.6315976562499999
 41
0.0
 71
               1
 72
               1
  1
±0.13mm
  7
Helvetica
 73
               1
 44
0.9673603504928808
  0
WIPEOUT
  5
11B
100
AcDbEntity
  8
Dimension
370
              -2
390
0
  6
Continuous
 62
               0
 92
        0
100
AcDbWipeout
 90
        0
 10
13.100125107705594
 20
70.888057739144671
 30
0.0
 11
1.7550694108009335
 21
0.0
 31
0.0
 12
0.0
 22
1.7550694108009335
 32
0.0
 13
1.0
 23
1.0
340
0
 70
               7
280
               1
281
              50
282
              50
283
               0
360
0
 71
               2
 91
        5
 14
-0.5
 24
104.39388469643939
 14
0.5
 24
104.39388469643939
 14
0.5
 24
103.81599523812544
 14
-0.5
 24
103.81599523812544
 14
-0.5
 24
104.39388469643939
  0
MTEXT
  5
11C
100
AcDbEntity
  8
Dimension
390
0
 62
               0
100
AcDbMText
 10
13.100125107705594
 20
-110.60083431062384
 30
0.0
 40
0.6316008391203704
 41
0.0
 71
               1
 72
               1
  1
 (x4)
  7
Helvetica
 73
               1
 44
0.9673603504928805
  0
POINT
  5
11D
100
AcDbEntity
  8
Defpoints
370
               0
390
0
 62
               0
100
AcDbPoint
 10
20.05012670770558
 20
-115.0261790386331
 30
0.0
  0
POINT
  5
11E
100
AcDbEntity
  8
Defpoints
370
               0
390
0
 62
               0
100
AcDbPoint
 10
18.80012670770558
 20
-113.7761790386331
 30
0.0
  0
POINT
  5
11F
100
AcDbEntity
  8
Defpoints
370
               0
390
0
 62
               0
100
AcDbPoint
 10
10.524864841375088
 20
-113.7761790386331
 30
0.0
  0
ENDBLK
  5
120
100
AcDbEntity
  8
Dimension
390
0
100
AcDbBlockEnd
  0
BLOCK
  5
121
100
AcDbEntity
  8
Dimension
390
0
100
AcDbBlockBegin
  2
*D8
 70
               1
 10
0.0
 20
0.0
 30
0.0
  3
*D8
  1

  0
LINE
  5
122
100
AcDbEntity
  8
Dimension
370
              -2
390
0
  6
Continuous
 62
               0
100
AcDbLine
 10
18.80012670770558
 20
-131.47742903981572
 30
0.0
 11
18.80012670770558
 21
-135.1745858503765
 31
0.0
  0
LINE
  5
123
100
AcDbEntity
  8
Dimension
370
              -2
390
0
  6
Continuous
 62
               0
100
AcDbLine
 10
36.025126707705581
 20
-131.47742903981572
 30
0.0
 11
36.025126707705581
 21
-135.1745858503765
 31
0.0
  0
LINE
  5
124
100
AcDbEntity
  8
Dimension
370
              -2
390
0
  6
Continuous
 62
               0
100
AcDbLine
 10
36.025126707705581
 20
-134.22208584801092
 30
0.0
 11
39.900000000000006
 21
-134.22208584801092
 31
0.0
  0
LINE
  5
125
100
AcDbEntity
  8
Dimension
370
              -2
390
0
  6
Continuous
 62
               0
100
AcDbLine
 10
18.80012670770558
 20
-134.22208584801092
 30
0.0
 11
36.025126707705581
 21
-134.22208584801092
 31
0.0
  0
SOLID
  5
126
100
AcDbEntity
  8
Dimension
370
              -2
390
0
 62
               0
100
AcDbTrace
 10
18.80012670770558
 20
-134.22208584801092
 30
0.0
 11
19.593876707705583
 21
-134.00940117651874
 31
0.0
 12
19.593876707705583
 22
-134.43477051950313
 32
0.0
 13
19.593876707705583
 23
-134.43477051950313
 33
0.0
  0
SOLID
  5
127
100
AcDbEntity
  8
Dimension
370
              -2
390
0
 62
               0
100
AcDbTrace
 10
36.025126707705581
 20
-134.22208584801092
 30
0.0
 11
35.231376707705579
 21
-134.43477051950313
 31
0.0
 12
35.231376707705579
 22
-134.00940117651874
 32
0.0
 13
35.231376707705579
 23
-134.00940117651874
 33
0.0
  0
WIPEOUT
  5
128
100
AcDbEntity
  8
Dimension
370
              -2
390
0
  6
Continuous
 62
               0
 92
        0
100
AcDbWipeout
 90
        0
 10
39.900000000000006
 20
47.598551174211281
 30
0.0
 11
4.2862283335791673
 21
0.0
 31
0.0
 12
0.0
 22
4.2862283335791673
 32
0.0
 13
1.0
 23
1.0
340
0
 70
               7
280
               1
281
              50
282
              50
283
               0
360
0
 71
               2
 91
        5
 14
-0.5
 24
43.041125859185897
 14
0.4999999999999983
 24
43.041125859185897
 14
0.4999999999999983
 24
42.798327501513953
 14
-0.5
 24
42.798327501513953
 14
-0.5
 24
43.041125859185897
  0
MTEXT
  5
129
100
AcDbEntity
  8
Dimension
390
0
 62
               0
100
AcDbMText
 10
39.900000000000006
 20
-133.8903451695387
 30
0.0
 40
0.6315976562499999
 41
0.0
 71
               1
 72
               1
  1
17.225mm
  7
Helvetica (bold)
 73
               1
 44
0.9925958378970431
  0
WIPEOUT
  5
12A
100
AcDbEntity
  8
Dimension
370
              -2
390
0
  6
Continuous
 62
               0
 92
        0
100
AcDbWipeout
 90
        0
 10
44.186228333579166
 20
47.598548951989059
 30
0.0
 11
4.277409023708767
 21
0.0
 31
0.0
 12
0.0
 22
4.277409023708767
 32
0.0
 13
1.0
 23
1.0
340
0
 70
               7
280
               1
281
              50
282
              50
283
               0
360
0
 71
               2
 91
        5
 14
-0.5
 24
43.128838623877868
 14
0.5000000000000009
 24
43.128838623877868
 14
0.5000000000000009
 24
42.885539656154251
 14
-0.5
 24
42.885539656154251
 14
-0.5
 24
43.128838623877868
  0
MTEXT
  5
12B
100
AcDbEntity
  8
Dimension
390
0
 62
               0
100
AcDbMText
 10
44.186228333579166
 20
-133.89034739176094
 30
0.0
 40
0.6315976562499999
 41
0.0
 71
               1
 72
               1
  1
±0.125mm
  7
Helvetica (bold)
 73
               1
 44
0.9925958378970431
  0
WIPEOUT
  5
12C
100
AcDbEntity
  8
Dimension
370
              -2
390
0
  6
Continuous
 62
               0
 92
        0
100
AcDbWipeout
 90
        0
 10
48.463637357287936
 20
47.598545929766836
 30
0.0
 11
1.8168055891990669
 21
0.0
 31
0.0
 12
0.0
 22
1.8168055891990669
 32
0.0
 13
1.0
 23
1.0
340
0
 70
               7
280
               1
281
              50
282
              50
283
               0
360
0
 71
               2
 91
        5
 14
-0.5
 24
100.86350619131706
 14
0.500000000000002
 24
100.86350619131706
 14
0.500000000000002
 24
100.29069066794385
 14
-0.5
 24
100.29069066794385
 14
-0.5
 24
100.86350619131706
  0
MTEXT
  5
12D
100
AcDbEntity
  8
Dimension
390
0
 62
               0
100
AcDbMText
 10
48.463637357287936
 20
-133.89034612000168
 30
0.0
 40
0.6316008391203704
 41
0.0
 71
               1
 72
               1
  1
 (x4)
  7
Helvetica (bold)
 73
               1
 44
0.9925958378970426
  0
POINT
  5
12E
100
AcDbEntity
  8
Defpoints
370
               0
390
0
 62
               0
100
AcDbPoint
 10
36.025126707705581
 20
-131.00117903863293
 30
0.0
  0
POINT
  5
12F
100
AcDbEntity
  8
Defpoints
370
               0
390
0
 62
               0
100
AcDbPoint
 10
18.80012670770558
 20
-131.00117903863293
 30
0.0
  0
POINT
  5
130
100
AcDbEntity
  8
Defpoints
370
               0
390
0
 62
               0
100
AcDbPoint
 10
18.80012670770558
 20
-134.22208584801092
 30
0.0
  0
ENDBLK
  5
131
100
AcDbEntity
  8
Dimension
390
0
100
AcDbBlockEnd
  0
BLOCK
  5
132
100
AcDbEntity
  8
Dimension
390
0
100
AcDbBlockBegin
  2
*D9
 70
               1
 10
0.0
 20
0.0
 30
0.0
  3
*D9
  1

  0
LINE
  5
133
100
AcDbEntity
  8
Dimension
370
              -2
390
0
  6
Continuous
 62
               0
100
AcDbLine
 10
35.251376708888365
 20
-115.0261790386331
 30
0.0
 11
48.469786710071141
 21
-115.0261790386331
 31
0.0
  0
LINE
  5
134
100
AcDbEntity
  8
Dimension
370
              -2
390
0
  6
Continuous
 62
               0
100
AcDbLine
 10
35.251376708888365
 20
-117.56617903863315
 30
0.0
 11
48.469786710071148
 21
-117.56617903863315
 31
0.0
  0
LINE
  5
135
100
AcDbEntity
  8
Dimension
370
              -2
390
0
  6
Continuous
 62
               0
100
AcDbLine
 10
47.51728670770558
 20
-117.56617903863315
 30
0.0
 11
47.51728670770558
 21
-115.0261790386331
 31
0.0
  0
LINE
  5
136
100
AcDbEntity
  8
Dimension
370
              -2
390
0
  6
Continuous
 62
               0
100
AcDbLine
 10
47.51728670770558
 20
-115.0261790386331
 30
0.0
 11
47.51728670770558
 21
-113.27618254026629
 31
0.0
  0
SOLID
  5
137
100
AcDbEntity
  8
Dimension
370
              -2
390
0
 62
               0
100
AcDbTrace
 10
47.51728670770558
 20
-115.0261790386331
 30
0.0
 11
47.304602036213382
 21
-114.23242903863311
 31
0.0
 12
47.729971379197792
 22
-114.23242903863311
 32
0.0
 13
47.729971379197792
 23
-114.23242903863311
 33
0.0
  0
LINE
  5
138
100
AcDbEntity
  8
Dimension
370
              -2
390
0
  6
Continuous
 62
               0
100
AcDbLine
 10
47.51728670770558
 20
-117.56617903863315
 30
0.0
 11
47.51728670770558
 21
-119.31617553699996
 31
0.0
  0
SOLID
  5
139
100
AcDbEntity
  8
Dimension
370
              -2
390
0
 62
               0
100
AcDbTrace
 10
47.51728670770558
 20
-117.56617903863315
 30
0.0
 11
47.729971379197785
 21
-118.35992903863315
 31
0.0
 12
47.304602036213382
 22
-118.35992903863315
 32
0.0
 13
47.304602036213382
 23
-118.35992903863315
 33
0.0
  0
WIPEOUT
  5
13A
100
AcDbEntity
  8
Dimension
370
              -2
390
0
  6
Continuous
 62
               0
 92
        0
100
AcDbWipeout
 90
        0
 10
45.912147751529673
 20
65.537681905811297
 30
0.0
 11
3.2102779123518204
 21
0.0
 31
0.0
 12
0.0
 22
3.2102779123518204
 32
0.0
 13
1.0
 23
1.0
340
0
 70
               7
280
               1
281
              50
282
              50
283
               0
360
0
 71
               2
 91
        5
 14
-0.5
 24
57.299125801049001
 14
0.5
 24
57.299125801049001
 14
0.5
 24
56.983191748358806
 14
-0.5
 24
56.983191748358806
 14
-0.5
 24
57.299125801049001
  0
MTEXT
  5
13B
100
AcDbEntity
  8
Dimension
390
0
 62
               0
100
AcDbMText
 10
45.912147751529673
 20
-115.95121014395721
 30
0.0
 40
0.6316008391203704
 41
0.0
 71
               1
 72
               1
  1
2.54mm
  7
Helvetica
 73
               1
 44
0.9673603504928805
  0
POINT
  5
13C
100
AcDbEntity
  8
Defpoints
370
               0
390
0
 62
               0
100
AcDbPoint
 10
34.775126707705581
 20
-117.56617903863315
 30
0.0
  0
POINT
  5
13D
100
AcDbEntity
  8
Defpoints
370
               0
390
0
 62
               0
100
AcDbPoint
 10
34.775126707705581
 20
-115.0261790386331
 30
0.0
  0
POINT
  5
13E
100
AcDbEntity
  8
Defpoints
370
               0
390
0
 62
               0
100
AcDbPoint
 10
47.51728670770558
 20
-115.0261790386331
 30
0.0
  0
ENDBLK
  5
13F
100
AcDbEntity
  8
Dimension
390
0
100
AcDbBlockEnd
  0
BLOCK
  5
140
100
AcDbEntity
  8
Dimension
390
0
100
AcDbBlockBegin
  2
*D10
 70
               1
 10
0.0
 20
0.0
 30
0.0
  3
*D10
  1

  0
LINE
  5
141
100
AcDbEntity
  8
Dimension
370
              -2
390
0
  6
Continuous
 62
               0
100
AcDbLine
 10
19.5738767065228
 20
-115.0261790386331
 30
0.0
 11
6.1476251053400297
 21
-115.0261790386331
 31
0.0
  0
LINE
  5
142
100
AcDbEntity
  8
Dimension
370
              -2
390
0
  6
Continuous
 62
               0
100
AcDbLine
 10
22.436376706522825
 20
-118.13867903863311
 30
0.0
 11
6.1476251053400262
 21
-118.13867903863311
 31
0.0
  0
LINE
  5
143
100
AcDbEntity
  8
Dimension
370
              -2
390
0
  6
Continuous
 62
               0
100
AcDbLine
 10
7.1001251077055869
 20
-118.13867903863311
 30
0.0
 11
7.1001251077055869
 21
-115.0261790386331
 31
0.0
  0
LINE
  5
144
100
AcDbEntity
  8
Dimension
370
              -2
390
0
  6
Continuous
 62
               0
100
AcDbLine
 10
7.1001251077055869
 20
-115.0261790386331
 30
0.0
 11
7.1001251077055869
 21
-113.27618254026629
 31
0.0
  0
SOLID
  5
145
100
AcDbEntity
  8
Dimension
370
              -2
390
0
 62
               0
100
AcDbTrace
 10
7.1001251077055869
 20
-115.0261790386331
 30
0.0
 11
6.8874404362133816
 21
-114.23242903863311
 31
0.0
 12
7.3128097791977922
 22
-114.23242903863311
 32
0.0
 13
7.3128097791977922
 23
-114.23242903863311
 33
0.0
  0
LINE
  5
146
100
AcDbEntity
  8
Dimension
370
              -2
390
0
  6
Continuous
 62
               0
100
AcDbLine
 10
7.1001251077055869
 20
-118.13867903863311
 30
0.0
 11
7.1001251077055869
 21
-119.88867553699993
 31
0.0
  0
SOLID
  5
147
100
AcDbEntity
  8
Dimension
370
              -2
390
0
 62
               0
100
AcDbTrace
 10
7.1001251077055869
 20
-118.13867903863311
 30
0.0
 11
7.3128097791977886
 21
-118.93242903863312
 31
0.0
 12
6.8874404362133816
 22
-118.93242903863312
 32
0.0
 13
6.8874404362133816
 23
-118.93242903863312
 33
0.0
  0
WIPEOUT
  5
148
100
AcDbEntity
  8
Dimension
370
              -2
390
0
  6
Continuous
 62
               0
 92
        0
100
AcDbWipeout
 90
        0
 10
5.0011079949206696
 20
65.25143446136687
 30
0.0
 11
4.1980342255698311
 21
0.0
 31
0.0
 12
0.0
 22
4.1980342255698311
 32
0.0
 13
1.0
 23
1.0
340
0
 70
               7
280
               1
281
              50
282
              50
283
               0
360
0
 71
               2
 91
        5
 14
-0.5
 24
43.934848122337414
 14
0.5
 24
43.934848122337414
 14
0.5
 24
43.693251473643507
 14
-0.5
 24
43.693251473643507
 14
-0.5
 24
43.934848122337414
  0
MTEXT
  5
149
100
AcDbEntity
  8
Dimension
390
0
 62
               0
100
AcDbMText
 10
5.0011079949206696
 20
-116.23746188238312
 30
0.0
 40
0.6315976562499999
 41
0.0
 71
               1
 72
               1
  1
3.1125mm
  7
Helvetica
 73
               1
 44
0.9673603504928808
  0
POINT
  5
14A
100
AcDbEntity
  8
Defpoints
370
               0
390
0
 62
               0
100
AcDbPoint
 10
22.912626707705606
 20
-118.13867903863311
 30
0.0
  0
POINT
  5
14B
100
AcDbEntity
  8
Defpoints
370
               0
390
0
 62
               0
100
AcDbPoint
 10
20.05012670770558
 20
-115.0261790386331
 30
0.0
  0
POINT
  5
14C
100
AcDbEntity
  8
Defpoints
370
               0
390
0
 62
               0
100
AcDbPoint
 10
7.1001251077055869
 20
-115.0261790386331
 30
0.0
  0
ENDBLK
  5
14D
100
AcDbEntity
  8
Dimension
390
0
100
AcDbBlockEnd
  0
BLOCK
  5
14E
100
AcDbEntity
  8
Dimension
390
0
100
AcDbBlockBegin
  2
*D11
 70
               1
 10
0.0
 20
0.0
 30
0.0
  3
*D11
  1

  0
LINE
  5
14F
100
AcDbEntity
  8
Dimension
370
              -2
390
0
  6
Continuous
 62
               0
100
AcDbLine
 10
22.912626707705606
 20
-117.66242903745034
 30
0.0
 11
22.912626707705606
 21
-100.19802903626763
 31
0.0
  0
LINE
  5
150
100
AcDbEntity
  8
Dimension
370
              -2
390
0
  6
Continuous
 62
               0
100
AcDbLine
 10
20.05012670770558
 20
-114.54992903745034
 30
0.0
 11
20.05012670770558
 21
-100.19802903626763
 31
0.0
  0
LINE
  5
151
100
AcDbEntity
  8
Dimension
370
              -2
390
0
  6
Continuous
 62
               0
100
AcDbLine
 10
20.05012670770558
 20
-101.1505290386332
 30
0.0
 11
22.912626707705606
 21
-101.1505290386332
 31
0.0
  0
LINE
  5
152
100
AcDbEntity
  8
Dimension
370
              -2
390
0
  6
Continuous
 62
               0
100
AcDbLine
 10
22.912626707705606
 20
-101.1505290386332
 30
0.0
 11
27.450125107705613
 21
-101.1505290386332
 31
0.0
  0
SOLID
  5
153
100
AcDbEntity
  8
Dimension
370
              -2
390
0
 62
               0
100
AcDbTrace
 10
22.912626707705606
 20
-101.1505290386332
 30
0.0
 11
23.706376707705605
 21
-100.937844367141
 31
0.0
 12
23.706376707705605
 22
-101.36321371012539
 32
0.0
 13
23.706376707705605
 23
-101.36321371012539
 33
0.0
  0
LINE
  5
154
100
AcDbEntity
  8
Dimension
370
              -2
390
0
  6
Continuous
 62
               0
100
AcDbLine
 10
20.05012670770558
 20
-101.1505290386332
 30
0.0
 11
18.300130209338761
 21
-101.1505290386332
 31
0.0
  0
SOLID
  5
155
100
AcDbEntity
  8
Dimension
370
              -2
390
0
 62
               0
100
AcDbTrace
 10
20.05012670770558
 20
-101.1505290386332
 30
0.0
 11
19.256376707705581
 21
-101.36321371012539
 31
0.0
 12
19.256376707705581
 22
-100.937844367141
 32
0.0
 13
19.256376707705581
 23
-100.937844367141
 33
0.0
  0
WIPEOUT
  5
156
100
AcDbEntity
  8
Dimension
370
              -2
390
0
  6
Continuous
 62
               0
 92
        0
100
AcDbWipeout
 90
        0
 10
27.450125107705613
 20
80.683334461366798
 30
0.0
 11
4.1980342255698311
 21
0.0
 31
0.0
 12
0.0
 22
4.1980342255698311
 32
0.0
 13
1.0
 23
1.0
340
0
 70
               7
280
               1
281
              50
282
              50
283
               0
360
0
 71
               2
 91
        5
 14
-0.5
 24
43.934848122337421
 14
0.5
 24
43.934848122337421
 14
0.5
 24
43.693251473643507
 14
-0.5
 24
43.693251473643507
 14
-0.5
 24
43.934848122337421
  0
MTEXT
  5
157
100
AcDbEntity
  8
Dimension
390
0
 62
               0
100
AcDbMText
 10
27.450125107705613
 20
-100.80556188238319
 30
0.0
 40
0.6315976562499999
 41
0.0
 71
               1
 72
               1
  1
2.8625mm
  7
Helvetica
 73
               1
 44
0.9673603504928808
  0
POINT
  5
158
100
AcDbEntity
  8
Defpoints
370
               0
390
0
 62
               0
100
AcDbPoint
 10
20.05012670770558
 20
-115.0261790386331
 30
0.0
  0
POINT
  5
159
100
AcDbEntity
  8
Defpoints
370
               0
390
0
 62
               0
100
AcDbPoint
 10
22.912626707705606
 20
-118.13867903863311
 30
0.0
  0
POINT
  5
15A
100
AcDbEntity
  8
Defpoints
370
               0
390
0
 62
               0
100
AcDbPoint
 10
22.912626707705606
 20
-101.1505290386332
 30
0.0
  0
ENDBLK
  5
15B
100
AcDbEntity
  8
Dimension
390
0
100
AcDbBlockEnd
  0
BLOCK
  5
15C
100
AcDbEntity
  8
Dimension
390
0
100
AcDbBlockBegin
  2
*D12
 70
               1
 10
0.0
 20
0.0
 30
0.0
  3
*D12
  1

  0
LINE
  5
15D
100
AcDbEntity
  8
Dimension
370
              -2
390
0
  6
Continuous
 62
               0
100
AcDbLine
 10
30.407627332786056
 20
-117.16742841236982
 30
0.0
 11
30.407627332786056
 21
-107.31737952001085
 31
0.0
  0
LINE
  5
15E
100
AcDbEntity
  8
Dimension
370
              -2
390
0
  6
Continuous
 62
               0
100
AcDbLine
 10
30.907627332786056
 20
-117.16742841236982
 30
0.0
 11
30.907627332786056
 21
-107.31737952001085
 31
0.0
  0
LINE
  5
15F
100
AcDbEntity
  8
Dimension
370
              -2
390
0
  6
Continuous
 62
               0
100
AcDbLine
 10
30.907627332786056
 20
-108.26987952237641
 30
0.0
 11
30.407627332786056
 21
-108.26987952237641
 31
0.0
  0
LINE
  5
160
100
AcDbEntity
  8
Dimension
370
              -2
390
0
  6
Continuous
 62
               0
100
AcDbLine
 10
30.407627332786056
 20
-108.26987952237641
 30
0.0
 11
28.657630834419237
 21
-108.26987952237641
 31
0.0
  0
SOLID
  5
161
100
AcDbEntity
  8
Dimension
370
              -2
390
0
 62
               0
100
AcDbTrace
 10
30.407627332786056
 20
-108.26987952237641
 30
0.0
 11
29.613877332786053
 21
-108.48256419386861
 31
0.0
 12
29.613877332786053
 22
-108.0571948508842
 32
0.0
 13
29.613877332786053
 23
-108.0571948508842
 33
0.0
  0
LINE
  5
162
100
AcDbEntity
  8
Dimension
370
              -2
390
0
  6
Continuous
 62
               0
100
AcDbLine
 10
30.907627332786056
 20
-108.26987952237641
 30
0.0
 11
40.690125107705597
 21
-108.26987952237641
 31
0.0
  0
SOLID
  5
163
100
AcDbEntity
  8
Dimension
370
              -2
390
0
 62
               0
100
AcDbTrace
 10
30.907627332786056
 20
-108.26987952237641
 30
0.0
 11
31.701377332786056
 21
-108.0571948508842
 31
0.0
 12
31.701377332786056
 22
-108.48256419386861
 32
0.0
 13
31.701377332786056
 23
-108.48256419386861
 33
0.0
  0
WIPEOUT
  5
164
100
AcDbEntity
  8
Dimension
370
              -2
390
0
  6
Continuous
 62
               0
 92
        0
100
AcDbWipeout
 90
        0
 10
40.690125107705597
 20
73.563983977623579
 30
0.0
 11
4.383241751458911
 21
0.0
 31
0.0
 12
0.0
 22
4.383241751458911
 32
0.0
 13
1.0
 23
1.0
340
0
 70
               7
280
               1
281
              50
282
              50
283
               0
360
0
 71
               2
 91
        5
 14
-0.5
 24
42.099571581765922
 14
0.5
 24
42.099571581765922
 14
0.5
 24
41.868183249223584
 14
-0.5
 24
41.868183249223584
 14
-0.5
 24
42.099571581765922
  0
MTEXT
  5
165
100
AcDbEntity
  8
Dimension
390
0
 62
               0
100
AcDbMText
 10
40.690125107705597
 20
-107.92491236612639
 30
0.0
 40
0.6315976562499999
 41
0.0
 71
               1
 72
               1
  1
0.5mm typ.
  7
Helvetica
 73
               1
 44
0.9673603504928808
  0
POINT
  5
166
100
AcDbEntity
  8
Defpoints
370
               0
390
0
 62
               0
100
AcDbPoint
 10
30.907627332786056
 20
-117.64367841355261
 30
0.0
  0
POINT
  5
167
100
AcDbEntity
  8
Defpoints
370
               0
390
0
 62
               0
100
AcDbPoint
 10
30.407627332786056
 20
-117.64367841355261
 30
0.0
  0
POINT
  5
168
100
AcDbEntity
  8
Defpoints
370
               0
390
0
 62
               0
100
AcDbPoint
 10
30.407627332786056
 20
-108.26987952237641
 30
0.0
  0
ENDBLK
  5
169
100
AcDbEntity
  8
Dimension
390
0
100
AcDbBlockEnd
  0
BLOCK
  5
16A
100
AcDbEntity
  8
Dimension
390
0
100
AcDbBlockBegin
  2
*D13
 70
               1
 10
0.0
 20
0.0
 30
0.0
  3
*D13
  1

  0
LINE
  5
16B
100
AcDbEntity
  8
Dimension
370
              -2
390
0
  6
Continuous
 62
               0
100
AcDbLine
 10
35.193236449702574
 20
-117.64239743304817
 30
0.0
 11
45.437646090523231
 21
-119.50987952237639
 31
0.0
  0
SOLID
  5
16C
100
AcDbEntity
  8
Dimension
370
              -2
390
0
 62
               0
100
AcDbTrace
 10
35.193236449702574
 20
-117.64239743304817
 30
0.0
 11
35.73960217729914
 21
-117.60419181956215
 31
0.0
 12
35.685505856301383
 22
-117.88249326500039
 32
0.0
 13
35.685505856301383
 23
-117.88249326500039
 33
0.0
  0
LINE
  5
16D
100
AcDbEntity
  8
Dimension
370
              -2
390
0
  6
Continuous
 62
               0
100
AcDbLine
 10
45.437646090523231
 20
-119.50987952237639
 30
0.0
 11
46.937643092502732
 21
-119.50987952237639
 31
0.0
  0
WIPEOUT
  5
16E
100
AcDbEntity
  8
Dimension
370
              -2
390
0
  6
Continuous
 62
               0
 92
        0
100
AcDbWipeout
 90
        0
 10
46.937643092502725
 20
62.32398142206803
 30
0.0
 11
4.1451388888888872
 21
0.0
 31
0.0
 12
0.0
 22
4.1451388888888872
 32
0.0
 13
1.0
 23
1.0
340
0
 70
               7
280
               1
281
              50
282
              50
283
               0
360
0
 71
               2
 91
        5
 14
-0.5
 24
44.489112038867503
 14
0.5000000000000018
 24
44.489112038867503
 14
0.5000000000000018
 24
44.24443118780367
 14
-0.5
 24
44.24443118780367
 14
-0.5
 24
44.489112038867503
  0
MTEXT
  5
16F
100
AcDbEntity
  8
Dimension
390
0
 62
               0
100
AcDbMText
 10
46.937643092502725
 20
-119.16491062770048
 30
0.0
 40
0.6316008391203704
 41
0.0
 71
               1
 72
               1
  1
Ø 0.85mm
  7
Helvetica
 73
               1
 44
0.9673603504928805
  0
WIPEOUT
  5
170
100
AcDbEntity
  8
Dimension
370
              -2
390
0
  6
Continuous
 62
               0
 92
        0
100
AcDbWipeout
 90
        0
 10
51.082781981391619
 20
62.32398142206803
 30
0.0
 11
4.1892361111111107
 21
0.0
 31
0.0
 12
0.0
 22
4.1892361111111107
 32
0.0
 13
1.0
 23
1.0
340
0
 70
               7
280
               1
281
              50
282
              50
283
               0
360
0
 71
               2
 91
        5
 14
-0.5
 24
44.026068754247831
 14
0.4999999999999991
 24
44.026068754247831
 14
0.4999999999999991
 24
43.783963491089928
 14
-0.5
 24
43.783963491089928
 14
-0.5
 24
44.026068754247831
  0
MTEXT
  5
171
100
AcDbEntity
  8
Dimension
390
0
 62
               0
100
AcDbMText
 10
51.082781981391619
 20
-119.16491062770048
 30
0.0
 40
0.6316008391203704
 41
0.0
 71
               1
 72
               1
  1
±0.025mm
  7
Helvetica
 73
               1
 44
0.9673603504928805
  0
WIPEOUT
  5
172
100
AcDbEntity
  8
Dimension
370
              -2
390
0
  6
Continuous
 62
               0
 92
        0
100
AcDbWipeout
 90
        0
 10
55.272018092502734
 20
62.32398142206803
 30
0.0
 11
1.7550694108009353
 21
0.0
 31
0.0
 12
0.0
 22
1.7550694108009353
 32
0.0
 13
1.0
 23
1.0
340
0
 70
               7
280
               1
281
              50
282
              50
283
               0
360
0
 71
               2
 91
        5
 14
-0.5
 24
104.39388469643929
 14
0.499999999999996
 24
104.39388469643929
 14
0.499999999999996
 24
103.81599523812534
 14
-0.5
 24
103.81599523812534
 14
-0.5
 24
104.39388469643929
  0
MTEXT
  5
173
100
AcDbEntity
  8
Dimension
390
0
 62
               0
100
AcDbMText
 10
55.272018092502734
 20
-119.16491062770048
 30
0.0
 40
0.6316008391203704
 41
0.0
 71
               1
 72
               1
  1
 (x2)
  7
Helvetica
 73
               1
 44
0.9673603504928805
  0
POINT
  5
174
100
AcDbEntity
  8
Defpoints
370
               0
390
0
 62
               0
100
AcDbPoint
 10
34.357016965708588
 20
-117.48996064421814
 30
0.0
  0
POINT
  5
175
100
AcDbEntity
  8
Defpoints
370
               0
390
0
 62
               0
100
AcDbPoint
 10
35.193236449702574
 20
-117.64239743304817
 30
0.0
  0
ENDBLK
  5
176
100
AcDbEntity
  8
Dimension
390
0
100
AcDbBlockEnd
  0
BLOCK
  5
177
100
AcDbEntity
  8
Dimension
390
0
100
AcDbBlockBegin
  2
*D14
 70
               1
 10
0.0
 20
0.0
 30
0.0
  3
*D14
  1

  0
LINE
  5
178
100
AcDbEntity
  8
Dimension
370
              -2
390
0
  6
Continuous
 62
               0
100
AcDbLine
 10
35.576911717877714
 20
-129.82305252096998
 30
0.0
 11
44.490523275156789
 21
-130.62208504801092
 31
0.0
  0
SOLID
  5
179
100
AcDbEntity
  8
Dimension
370
              -2
390
0
 62
               0
100
AcDbTrace
 10
35.576911717877714
 20
-129.82305252096998
 30
0.0
 11
36.117868520307944
 21
-129.73737338057731
 31
0.0
 12
36.088233621328627
 22
-130.01933061003064
 32
0.0
 13
36.088233621328627
 23
-130.01933061003064
 33
0.0
  0
LINE
  5
17A
100
AcDbEntity
  8
Dimension
370
              -2
390
0
  6
Continuous
 62
               0
100
AcDbLine
 10
44.490523275156789
 20
-130.62208504801092
 30
0.0
 11
45.990520277136298
 21
-130.62208504801092
 31
0.0
  0
WIPEOUT
  5
17B
100
AcDbEntity
  8
Dimension
370
              -2
390
0
  6
Continuous
 62
               0
 92
        0
100
AcDbWipeout
 90
        0
 10
45.990520277136298
 20
51.211781007544623
 30
0.0
 11
4.1451180299123109
 21
0.0
 31
0.0
 12
0.0
 22
4.1451180299123109
 32
0.0
 13
1.0
 23
1.0
340
0
 70
               7
280
               1
281
              50
282
              50
283
               0
360
0
 71
               2
 91
        5
 14
-0.5
 24
44.489333399960479
 14
0.5
 24
44.489333399960479
 14
0.5
 24
44.244652550662337
 14
-0.5
 24
44.244652550662337
 14
-0.5
 24
44.489333399960479
  0
MTEXT
  5
17C
100
AcDbEntity
  8
Dimension
390
0
 62
               0
100
AcDbMText
 10
45.990520277136298
 20
-130.27711533620536
 30
0.0
 40
0.6315976562499999
 41
0.0
 71
               1
 72
               1
  1
Ø 1.61mm
  7
Helvetica
 73
               1
 44
0.9673603504928808
  0
WIPEOUT
  5
17D
100
AcDbEntity
  8
Dimension
370
              -2
390
0
  6
Continuous
 62
               0
 92
        0
100
AcDbWipeout
 90
        0
 10
50.135638307048609
 20
51.211778785322402
 30
0.0
 11
3.695328516430326
 21
0.0
 31
0.0
 12
0.0
 22
3.695328516430326
 32
0.0
 13
1.0
 23
1.0
340
0
 70
               7
280
               1
281
              50
282
              50
283
               0
360
0
 71
               2
 91
        5
 14
-0.5
 24
49.843645142581451
 14
0.499999999999999
 24
49.843645142581451
 14
0.499999999999999
 24
49.569182129214582
 14
-0.5
 24
49.569182129214582
 14
-0.5
 24
49.843645142581451
  0
MTEXT
  5
17E
100
AcDbEntity
  8
Dimension
390
0
 62
               0
100
AcDbMText
 10
50.135638307048609
 20
-130.27711755842759
 30
0.0
 40
0.6315976562499999
 41
0.0
 71
               1
 72
               1
  1
±0.05mm
  7
Helvetica
 73
               1
 44
0.9673603504928808
  0
WIPEOUT
  5
17F
100
AcDbEntity
  8
Dimension
370
              -2
390
0
  6
Continuous
 62
               0
 92
        0
100
AcDbWipeout
 90
        0
 10
53.830966823478931
 20
51.211775896433508
 30
0.0
 11
1.7550694108009353
 21
0.0
 31
0.0
 12
0.0
 22
1.7550694108009353
 32
0.0
 13
1.0
 23
1.0
340
0
 70
               7
280
               1
281
              50
282
              50
283
               0
360
0
 71
               2
 91
        5
 14
-0.5
 24
104.39388469643929
 14
0.5
 24
104.39388469643929
 14
0.5
 24
103.81599523812534
 14
-0.5
 24
103.81599523812534
 14
-0.5
 24
104.39388469643929
  0
MTEXT
  5
180
100
AcDbEntity
  8
Dimension
390
0
 62
               0
100
AcDbMText
 10
53.830966823478931
 20
-130.27711615333499
 30
0.0
 40
0.6316008391203704
 41
0.0
 71
               1
 72
               1
  1
 (x4)
  7
Helvetica
 73
               1
 44
0.9673603504928805
  0
POINT
  5
181
100
AcDbEntity
  8
Defpoints
370
               0
390
0
 62
               0
100
AcDbPoint
 10
33.973341697533449
 20
-129.6793055562959
 30
0.0
  0
POINT
  5
182
100
AcDbEntity
  8
Defpoints
370
               0
390
0
 62
               0
100
AcDbPoint
 10
35.576911717877714
 20
-129.82305252096998
 30
0.0
  0
ENDBLK
  5
183
100
AcDbEntity
  8
Dimension
390
0
100
AcDbBlockEnd
  0
BLOCK
  5
184
100
AcDbEntity
  8
Dimension
390
0
100
AcDbBlockBegin
  2
Group-2
 70
               0
 10
0.0
 20
0.0
 30
0.0
  3
Group-2
  1

  0
LINE
  5
185
100
AcDbEntity
  8
None
370
               9
390
0
  6
Continuous
 62
               5
100
AcDbLine
 10
-0.0767836421335435
 20
33.087888361367007
 30
0.0
 11
1.1732138575447415
 21
33.087888361367007
 31
0.0
  0
LINE
  5
186
100
AcDbEntity
  8
None
370
               9
390
0
  6
Continuous
 62
               5
100
AcDbLine
 10
0.5482151077055997
 20
32.462889611527892
 30
0.0
 11
0.5482151077055997
 21
33.712887111206129
 31
0.0
  0
LINE
  5
187
100
AcDbEntity
  8
None
370
               9
390
0
  6
Continuous
 62
               5
100
AcDbLine
 10
-10.066783393284163
 20
33.087888361367007
 30
0.0
 11
-0.5767826408220791
 21
33.087888361367007
 31
0.0
  0
LINE
  5
188
100
AcDbEntity
  8
None
370
               9
390
0
  6
Continuous
 62
               5
100
AcDbLine
 10
1.6732128562332746
 20
33.087888361367007
 30
0.0
 11
11.163213608695337
 21
33.087888361367007
 31
0.0
  0
LINE
  5
189
100
AcDbEntity
  8
None
370
               9
390
0
  6
Continuous
 62
               5
100
AcDbLine
 10
0.5482151077055997
 20
43.702886862356635
 30
0.0
 11
0.5482151077055997
 21
34.21288610989464
 31
0.0
  0
LINE
  5
18A
100
AcDbEntity
  8
None
370
               9
390
0
  6
Continuous
 62
               5
100
AcDbLine
 10
0.5482151077055997
 20
31.962890612839377
 30
0.0
 11
0.5482151077055997
 21
22.472889860377304
 31
0.0
  0
ENDBLK
  5
18B
100
AcDbEntity
  8
Dimension
390
0
100
AcDbBlockEnd
  0
BLOCK
  5
18C
100
AcDbEntity
  8
Dimension
390
0
100
AcDbBlockBegin
  2
*D16
 70
               1
 10
0.0
 20
0.0
 30
0.0
  3
*D16
  1

  0
LINE
  5
18D
100
AcDbEntity
  8
Dimension
370
              -2
390
0
  6
Continuous
 62
               0
100
AcDbLine
 10
20.05012670770558
 20
-130.22742903981572
 30
0.0
 11
20.05012670770558
 21
-132.96237952474175
 31
0.0
  0
LINE
  5
18E
100
AcDbEntity
  8
Dimension
370
              -2
390
0
  6
Continuous
 62
               0
100
AcDbLine
 10
34.775126707705581
 20
-130.22742903981572
 30
0.0
 11
34.775126707705581
 21
-132.96237952474175
 31
0.0
  0
LINE
  5
18F
100
AcDbEntity
  8
Dimension
370
              -2
390
0
  6
Continuous
 62
               0
100
AcDbLine
 10
20.05012670770558
 20
-132.0098795223762
 30
0.0
 11
34.775126707705581
 21
-132.0098795223762
 31
0.0
  0
SOLID
  5
190
100
AcDbEntity
  8
Dimension
370
              -2
390
0
 62
               0
100
AcDbTrace
 10
20.05012670770558
 20
-132.0098795223762
 30
0.0
 11
20.843876707705579
 21
-131.79719485088398
 31
0.0
 12
20.843876707705579
 22
-132.22256419386838
 32
0.0
 13
20.843876707705579
 23
-132.22256419386838
 33
0.0
  0
SOLID
  5
191
100
AcDbEntity
  8
Dimension
370
              -2
390
0
 62
               0
100
AcDbTrace
 10
34.775126707705581
 20
-132.0098795223762
 30
0.0
 11
33.981376707705586
 21
-132.22256419386838
 31
0.0
 12
33.981376707705586
 22
-131.79719485088398
 32
0.0
 13
33.981376707705586
 23
-131.79719485088398
 33
0.0
  0
WIPEOUT
  5
192
100
AcDbEntity
  8
Dimension
370
              -2
390
0
  6
Continuous
 62
               0
 92
        0
100
AcDbWipeout
 90
        0
 10
24.823452639579774
 20
49.823983977623797
 30
0.0
 11
5.9530947208404541
 21
0.0
 31
0.0
 12
0.0
 22
5.9530947208404541
 32
0.0
 13
1.0
 23
1.0
340
0
 70
               7
280
               1
281
              50
282
              50
283
               0
360
0
 71
               2
 91
        5
 14
-0.5
 24
31.129611580286969
 14
0.5
 24
31.129611580286969
 14
0.5
 24
30.959241201927394
 14
-0.5
 24
30.959241201927394
 14
-0.5
 24
31.129611580286969
  0
MTEXT
  5
193
100
AcDbEntity
  8
Dimension
390
0
 62
               0
100
AcDbMText
 10
24.823452639579774
 20
-131.6649123661262
 30
0.0
 40
0.6315976562499999
 41
0.0
 71
               1
 72
               1
  1
14.725mm (x4)
  7
Helvetica
 73
               1
 44
0.9673603504928808
  0
POINT
  5
194
100
AcDbEntity
  8
Defpoints
370
               0
390
0
 62
               0
100
AcDbPoint
 10
34.775126707705581
 20
-129.75117903863293
 30
0.0
  0
POINT
  5
195
100
AcDbEntity
  8
Defpoints
370
               0
390
0
 62
               0
100
AcDbPoint
 10
20.05012670770558
 20
-129.75117903863293
 30
0.0
  0
POINT
  5
196
100
AcDbEntity
  8
Defpoints
370
               0
390
0
 62
               0
100
AcDbPoint
 10
20.05012670770558
 20
-132.0098795223762
 30
0.0
  0
ENDBLK
  5
197
100
AcDbEntity
  8
Dimension
390
0
100
AcDbBlockEnd
  0
BLOCK
  5
198
100
AcDbEntity
  8
Dimension
390
0
100
AcDbBlockBegin
  2
*D17
 70
               1
 10
0.0
 20
0.0
 30
0.0
  3
*D17
  1

  0
LINE
  5
199
100
AcDbEntity
  8
Dimension
370
              -2
390
0
  6
Continuous
 62
               0
100
AcDbLine
 10
19.5738767065228
 20
-129.75117903863293
 30
0.0
 11
7.2476251053400311
 21
-129.75117903863293
 31
0.0
  0
LINE
  5
19A
100
AcDbEntity
  8
Dimension
370
              -2
390
0
  6
Continuous
 62
               0
100
AcDbLine
 10
19.5738767065228
 20
-124.67117903863294
 30
0.0
 11
7.2476251053400311
 21
-124.67117903863294
 31
0.0
  0
LINE
  5
19B
100
AcDbEntity
  8
Dimension
370
              -2
390
0
  6
Continuous
 62
               0
100
AcDbLine
 10
8.2001251077055919
 20
-129.75117903863293
 30
0.0
 11
8.2001251077055919
 21
-124.67117903863294
 31
0.0
  0
SOLID
  5
19C
100
AcDbEntity
  8
Dimension
370
              -2
390
0
 62
               0
100
AcDbTrace
 10
8.2001251077055919
 20
-129.75117903863293
 30
0.0
 11
7.9874404362133866
 21
-128.95742903863294
 31
0.0
 12
8.4128097791977972
 22
-128.95742903863294
 32
0.0
 13
8.4128097791977972
 23
-128.95742903863294
 33
0.0
  0
SOLID
  5
19D
100
AcDbEntity
  8
Dimension
370
              -2
390
0
 62
               0
100
AcDbTrace
 10
8.2001251077055919
 20
-124.67117903863294
 30
0.0
 11
8.4128097791977936
 21
-125.46492903863293
 31
0.0
 12
7.9874404362133866
 22
-125.46492903863293
 32
0.0
 13
7.9874404362133866
 23
-125.46492903863293
 33
0.0
  0
WIPEOUT
  5
19E
100
AcDbEntity
  8
Dimension
370
              -2
390
0
  6
Continuous
 62
               0
 92
        0
100
AcDbWipeout
 90
        0
 10
6.5949943941897793
 20
54.623983977623766
 30
0.0
 11
3.2102614270316217
 21
0.0
 31
0.0
 12
0.0
 22
3.2102614270316217
 32
0.0
 13
1.0
 23
1.0
340
0
 70
               7
280
               1
281
              50
282
              50
283
               0
360
0
 71
               2
 91
        5
 14
-0.5
 24
57.299417475667134
 14
0.5
 24
57.299417475667134
 14
0.5
 24
56.983483392710589
 14
-0.5
 24
56.983483392710589
 14
-0.5
 24
57.299417475667134
  0
MTEXT
  5
19F
100
AcDbEntity
  8
Dimension
390
0
 62
               0
100
AcDbMText
 10
6.5949943941897793
 20
-126.86491236612622
 30
0.0
 40
0.6315976562499999
 41
0.0
 71
               1
 72
               1
  1
5.08mm
  7
Helvetica
 73
               1
 44
0.9673603504928808
  0
POINT
  5
1A0
100
AcDbEntity
  8
Defpoints
370
               0
390
0
 62
               0
100
AcDbPoint
 10
20.05012670770558
 20
-124.67117903863294
 30
0.0
  0
POINT
  5
1A1
100
AcDbEntity
  8
Defpoints
370
               0
390
0
 62
               0
100
AcDbPoint
 10
20.05012670770558
 20
-129.75117903863293
 30
0.0
  0
POINT
  5
1A2
100
AcDbEntity
  8
Defpoints
370
               0
390
0
 62
               0
100
AcDbPoint
 10
8.2001251077055919
 20
-129.75117903863293
 30
0.0
  0
ENDBLK
  5
1A3
100
AcDbEntity
  8
Dimension
390
0
100
AcDbBlockEnd
  0
BLOCK
  5
1A4
100
AcDbEntity
  8
Dimension
390
0
100
AcDbBlockBegin
  2
*D18
 70
               1
 10
0.0
 20
0.0
 30
0.0
  3
*D18
  1

  0
LINE
  5
1A5
100
AcDbEntity
  8
Dimension
370
              -2
390
0
  6
Continuous
 62
               0
100
AcDbLine
 10
32.546351125308178
 20
-123.15719336111167
 30
0.0
 11
46.650125107705598
 21
-125.10987952237623
 31
0.0
  0
SOLID
  5
1A6
100
AcDbEntity
  8
Dimension
370
              -2
390
0
 62
               0
100
AcDbTrace
 10
32.546351125308178
 20
-123.15719336111167
 30
0.0
 11
33.089968550348146
 21
-123.09044553427896
 31
0.0
 12
33.050511538749021
 22
-123.37119675994711
 32
0.0
 13
33.050511538749021
 23
-123.37119675994711
 33
0.0
  0
LINE
  5
1A7
100
AcDbEntity
  8
Dimension
370
              -2
390
0
  6
Continuous
 62
               0
100
AcDbLine
 10
46.650125107705598
 20
-125.10987952237623
 30
0.0
 11
48.1501221096851
 21
-125.10987952237623
 31
0.0
  0
WIPEOUT
  5
1A8
100
AcDbEntity
  8
Dimension
370
              -2
390
0
  6
Continuous
 62
               0
 92
        0
100
AcDbWipeout
 90
        0
 10
48.1501221096851
 20
56.723981422068199
 30
0.0
 11
6.8879859765370703
 21
0.0
 31
0.0
 12
0.0
 22
6.8879859765370703
 32
0.0
 13
1.0
 23
1.0
340
0
 70
               7
280
               1
281
              50
282
              50
283
               0
360
0
 71
               2
 91
        5
 14
-0.5
 24
26.972321462488193
 14
0.4999999999999994
 24
26.972321462488193
 14
0.4999999999999994
 24
26.825074340533249
 14
-0.5
 24
26.825074340533249
 14
-0.5
 24
26.972321462488193
  0
MTEXT
  5
1A9
100
AcDbEntity
  8
Dimension
390
0
 62
               0
100
AcDbMText
 10
48.1501221096851
 20
-124.7649106277003
 30
0.0
 40
0.6316008391203704
 41
0.0
 71
               1
 72
               1
  1
Ø 0.27mm (x221)
  7
Helvetica
 73
               1
 44
0.9673603504928805
  0
POINT
  5
1AA
100
AcDbEntity
  8
Defpoints
370
               0
390
0
 62
               0
100
AcDbPoint
 10
32.278902290102991
 20
-123.12016471615442
 30
0.0
  0
POINT
  5
1AB
100
AcDbEntity
  8
Defpoints
370
               0
390
0
 62
               0
100
AcDbPoint
 10
32.546351125308178
 20
-123.15719336111167
 30
0.0
  0
ENDBLK
  5
1AC
100
AcDbEntity
  8
Dimension
390
0
100
AcDbBlockEnd
  0
BLOCK
  5
1AD
100
AcDbEntity
  8
None
390
0
100
AcDbBlockBegin
  2
Symbol-1
 70
               0
 10
0.0
 20
0.0
 30
0.0
  3
Symbol-1
  1

  0
CIRCLE
  5
1AE
100
AcDbEntity
  8
LINE
390
0
 62
               5
100
AcDbCircle
 10
0.0
 20
0.0
 30
0.0
 40
0.134999999999998
  0
ENDBLK
  5
1AF
100
AcDbEntity
  8
None
390
0
100
AcDbBlockEnd
  0
BLOCK
  5
1B0
100
AcDbEntity
  8
Dimension
390
0
100
AcDbBlockBegin
  2
Group-3
 70
               0
 10
0.0
 20
0.0
 30
0.0
  3
Group-3
  1

  0
LINE
  5
1B1
100
AcDbEntity
  8
AM_HID
370
               9
390
0
  6
Continuous
 62
               7
100
AcDbLine
 10
-0.0767836421335355
 20
33.087888361367
 30
0.0
 11
1.1732138575447526
 21
33.087888361367
 31
0.0
  0
LINE
  5
1B2
100
AcDbEntity
  8
AM_HID
370
               9
390
0
  6
Continuous
 62
               7
100
AcDbLine
 10
0.5482151077056165
 20
32.462889611527878
 30
0.0
 11
0.5482151077056165
 21
33.712887111206115
 31
0.0
  0
LINE
  5
1B3
100
AcDbEntity
  8
AM_HID
370
               9
390
0
  6
Continuous
 62
               7
100
AcDbLine
 10
-5.5517833932841381
 20
33.087888361367
 30
0.0
 11
-0.5767826408220622
 21
33.087888361367
 31
0.0
  0
LINE
  5
1B4
100
AcDbEntity
  8
AM_HID
370
               9
390
0
  6
Continuous
 62
               7
100
AcDbLine
 10
1.6732128562332915
 20
33.087888361367
 30
0.0
 11
6.6482136086953378
 21
33.087888361367
 31
0.0
  0
LINE
  5
1B5
100
AcDbEntity
  8
AM_HID
370
               9
390
0
  6
Continuous
 62
               7
100
AcDbLine
 10
0.5482151077056165
 20
38.937886862356706
 30
0.0
 11
0.5482151077056165
 21
34.212886109894633
 31
0.0
  0
LINE
  5
1B6
100
AcDbEntity
  8
AM_HID
370
               9
390
0
  6
Continuous
 62
               7
100
AcDbLine
 10
0.5482151077056165
 20
31.96289061283937
 30
0.0
 11
0.5482151077056165
 21
27.237889860377248
 31
0.0
  0
ENDBLK
  5
1B7
100
AcDbEntity
  8
Dimension
390
0
100
AcDbBlockEnd
  0
BLOCK
  5
1B8
100
AcDbEntity
  8
AM_HID
390
0
100
AcDbBlockBegin
  2
Group-4
 70
               0
 10
0.0
 20
0.0
 30
0.0
  3
Group-4
  1

  0
INSERT
  5
1B9
100
AcDbEntity
  8
AM_HID
390
0
 62
               7
100
AcDbBlockReference
  2
Symbol-1
 10
5.5482151077056203
 20
36.3378883613669
 30
0.0
  0
LWPOLYLINE
  5
1BA
100
AcDbEntity
  8
LINE
390
0
100
AcDbPolyline
 90
        6
 70
             129
 10
3.5331651077055999
 20
35.962888361366801
 42
-0.414213562373268
 10
3.6331651077056226
 20
35.862888361366835
 10
3.6331651077056226
 20
35.387888361366834
 42
-0.4142135623730742
 10
3.5331651077055999
 20
35.287888361366818
 42
-0.4142135623730235
 10
3.4331651077056056
 20
35.387888361366834
 10
3.4331651077056056
 20
35.862888361366835
 42
-0.4142135623730118
  0
LWPOLYLINE
  5
1BB
100
AcDbEntity
  8
LINE
390
0
100
AcDbPolyline
 90
        6
 70
             129
 10
3.6331651077056226
 20
32.887888361366933
 10
3.6331651077056226
 20
32.787888361366917
 42
-0.4142135623725539
 10
3.5331651077055999
 20
32.687888361367072
 42
-0.4142135623735425
 10
3.4331651077056056
 20
32.787888361366917
 10
3.4331651077056056
 20
32.887888361366933
 42
-0.4142135623731783
 10
3.5331651077055999
 20
32.987888361366956
 42
-0.4142135623730938
  0
LWPOLYLINE
  5
1BC
100
AcDbEntity
  8
LINE
390
0
100
AcDbPolyline
 90
       10
 70
             129
 10
3.6331651077056226
 20
30.85056836136695
 10
3.6331651077056226
 20
30.762888361367086
 10
3.6331651077056226
 20
30.662888361366949
 10
3.6331651077056226
 20
30.337888361367103
 42
-0.4142135623732615
 10
3.5331651077055999
 20
30.237888361366995
 42
-0.4142135623728466
 10
3.4331651077056056
 20
30.337888361367074
 10
3.4331651077056056
 20
30.718518361366957
 10
3.4331651077056056
 20
30.812888361366984
 10
3.4331651077056056
 20
30.85056836136695
 42
-0.4142135623735113
 10
3.5331651077055999
 20
30.950568361367086
 42
-0.4142135623727569
  0
LWPOLYLINE
  5
1BD
100
AcDbEntity
  8
LINE
390
0
100
AcDbPolyline
 90
        9
 70
             129
 10
1.8982151077055953
 20
29.853188361367042
 42
-0.414213562373095
 10
1.9982151077056176
 20
29.953188361367065
 10
2.1482151077055951
 20
29.953188361367065
 10
2.5982151077056117
 20
29.953188361367065
 42
-0.4142135623730144
 10
2.6982151077056065
 20
29.853188361367042
 42
-0.4142135623733343
 10
2.5982151077056117
 20
29.753188361366963
 10
2.0732151077056065
 20
29.753188361366963
 10
1.9982151077056176
 20
29.753188361366963
 42
-0.4142135623729286
 10
1.8982151077055953
 20
29.853188361367042
  0
LWPOLYLINE
  5
1BE
100
AcDbEntity
  8
LINE
390
0
100
AcDbPolyline
 90
        6
 70
             129
 10
1.0232151077055966
 20
29.753188361366963
 42
-0.4142135623728414
 10
0.9232151077056024
 20
29.853188361367042
 42
-0.4142135623731783
 10
1.0232151077055966
 20
29.953188361367065
 10
1.073215107705608
 20
29.953188361367065
 42
-0.4142135623730086
 10
1.1732151077056021
 20
29.853188361367042
 42
-0.4142135623733448
 10
1.073215107705608
 20
29.753188361366963
  0
LWPOLYLINE
  5
1BF
100
AcDbEntity
  8
LINE
390
0
100
AcDbPolyline
 90
        7
 70
             129
 10
-0.4767848922944059
 20
29.953188361367065
 10
-0.3017848922943942
 20
29.953188361367065
 10
0.1232151077056183
 20
29.953188361367065
 42
-0.4142135623730114
 10
0.2232151077056132
 20
29.853188361367042
 42
-0.4142135623733448
 10
0.1232151077056183
 20
29.753188361366963
 10
-0.4767848922944059
 20
29.753188361366963
 42
-0.4142135623728442
 10
-0.5767848922944006
 20
29.853188361367042
 42
-0.4142135623731783
  0
LWPOLYLINE
  5
1C0
100
AcDbEntity
  8
LINE
390
0
100
AcDbPolyline
 90
        6
 70
             129
 10
-2.336734892294408
 20
31.362888361366995
 10
-2.336734892294408
 20
31.262888361367086
 42
-0.4142135623735113
 10
-2.4367348922944028
 20
31.162888361366949
 42
-0.4142135623726775
 10
-2.5367348922943975
 20
31.262888361367086
 10
-2.5367348922943975
 20
31.362888361366995
 42
-0.4142135623730118
 10
-2.4367348922944028
 20
31.462888361366961
 42
-0.414213562373177
  0
LWPOLYLINE
  5
1C1
100
AcDbEntity
  8
LINE
390
0
100
AcDbPolyline
 90
        6
 70
             129
 10
-2.336734892294408
 20
35.912888361366797
 10
-2.336734892294408
 20
35.762888361366933
 42
-0.4142135623735113
 10
-2.4367348922944028
 20
35.662888361366797
 42
-0.4142135623726879
 10
-2.5367348922943975
 20
35.762888361366933
 10
-2.5367348922943975
 20
35.912888361366797
 42
-0.4142135623731783
 10
-2.4367348922944028
 20
36.012888361366812
 42
-0.4142135623730287
  0
LWPOLYLINE
  5
1C2
100
AcDbEntity
  8
LINE
390
0
100
AcDbPolyline
 90
        6
 70
             129
 10
-1.5017848922943855
 20
29.953188361367065
 10
-1.3767848922943853
 20
29.953188361367065
 42
-0.4142135623730118
 10
-1.2767848922943905
 20
29.853188361367042
 42
-0.4142135623733448
 10
-1.3767848922943853
 20
29.753188361366963
 10
-1.5017848922943855
 20
29.753188361366963
 42
-0.4142135623729298
 10
-1.6017848922944085
 20
29.853188361367042
 42
-0.414213562373095
  0
LWPOLYLINE
  5
1C3
100
AcDbEntity
  8
LINE
390
0
100
AcDbPolyline
 90
        6
 70
             129
 10
-2.4367348922944028
 20
30.512868361367079
 42
-0.4142135623726801
 10
-2.336734892294408
 20
30.412868361366943
 10
-2.336734892294408
 20
30.262888361367086
 42
-0.4142135623731783
 10
-2.4367348922944028
 20
30.162888361367063
 42
-0.4142135623730131
 10
-2.5367348922943975
 20
30.262888361367086
 10
-2.5367348922943975
 20
30.412868361366943
 42
-0.4142135623735113
  0
LWPOLYLINE
  5
1C4
100
AcDbEntity
  8
LINE
390
0
100
AcDbPolyline
 90
        6
 70
             129
 10
-2.336734892294408
 20
33.912888361366875
 10
-2.336734892294408
 20
33.762888361367011
 42
-0.4142135623734904
 10
-2.4367348922944028
 20
33.662888361366882
 42
-0.4142135623727009
 10
-2.5367348922943975
 20
33.762888361367011
 10
-2.5367348922943975
 20
33.912888361366875
 42
-0.4142135623734696
 10
-2.4367348922944028
 20
34.012888361367004
 42
-0.4142135623727191
  0
LWPOLYLINE
  5
1C5
100
AcDbEntity
  8
LINE
390
0
100
AcDbPolyline
 90
        6
 70
             129
 10
-2.5367348922943975
 20
32.787888361366917
 10
-2.5367348922943975
 20
32.91288836136691
 42
-0.4142135623735113
 10
-2.4367348922944028
 20
33.012888361367047
 42
-0.4142135623726697
 10
-2.336734892294408
 20
32.91288836136691
 10
-2.336734892294408
 20
32.787888361366917
 42
-0.4142135623726372
 10
-2.4367348922944028
 20
32.687888361367072
 42
-0.4142135623735399
  0
LWPOLYLINE
  5
1C6
100
AcDbEntity
  8
LINE
390
0
100
AcDbPolyline
 90
        6
 70
             129
 10
-2.336734892294408
 20
34.912888361366946
 10
-2.336734892294408
 20
34.762888361366862
 42
-0.4142135623731783
 10
-2.4367348922944028
 20
34.662888361366839
 42
-0.4142135623730235
 10
-2.5367348922943975
 20
34.762888361366862
 10
-2.5367348922943975
 20
34.912888361366946
 42
-0.4142135623731575
 10
-2.4367348922944028
 20
35.012888361366961
 42
-0.4142135623730495
  0
LWPOLYLINE
  5
1C7
100
AcDbEntity
  8
LINE
390
0
100
AcDbPolyline
 90
        6
 70
             129
 10
-1.9767848922944091
 20
36.422588361366785
 10
-1.4517848922944026
 20
36.422588361366785
 42
-0.4142135623731711
 10
-1.351784892294408
 20
36.322588361366819
 42
-0.4142135623728245
 10
-1.4517848922944026
 20
36.222588361366917
 10
-1.9767848922944091
 20
36.222588361366917
 42
-0.4142135623733721
 10
-2.0767848922944037
 20
36.322588361366819
 42
-0.4142135623730118
  0
LWPOLYLINE
  5
1C8
100
AcDbEntity
  8
LINE
390
0
100
AcDbPolyline
 90
        6
 70
             129
 10
-0.4517848922944002
 20
36.422588361366785
 10
0.1481951077056178
 20
36.422588361366785
 42
-0.4142135623731807
 10
0.2481951077056123
 20
36.322588361366819
 42
-0.4142135623731367
 10
0.1481951077056178
 20
36.222588361366917
 10
-0.4517848922944002
 20
36.222588361366917
 42
-0.4142135623733864
 10
-0.5517848922943949
 20
36.322588361366819
 42
-0.4142135623730118
  0
LWPOLYLINE
  5
1C9
100
AcDbEntity
  8
LINE
390
0
100
AcDbPolyline
 90
        6
 70
             129
 10
0.9482351077056145
 20
36.422588361366785
 10
1.5976951077056181
 20
36.422588361366785
 42
-0.4142135623731815
 10
1.6976951077056126
 20
36.322588361366819
 42
-0.4142135623728245
 10
1.5976951077056181
 20
36.222588361366917
 10
0.9482351077056145
 20
36.222588361366917
 42
-0.4142135623733734
 10
0.8482351077056201
 20
36.322588361366819
 42
-0.4142135623730118
  0
LWPOLYLINE
  5
1CA
100
AcDbEntity
  8
LINE
390
0
100
AcDbPolyline
 90
        6
 70
             129
 10
2.4487351077056005
 20
36.422588361366785
 10
3.0731951077056006
 20
36.422588361366785
 42
-0.4142135623731809
 10
3.1731951077055953
 20
36.322588361366819
 42
-0.4142135623728037
 10
3.0731951077056006
 20
36.222588361366917
 10
2.4487351077056005
 20
36.222588361366917
 42
-0.4142135623733682
 10
2.3487351077056062
 20
36.322588361366819
 42
-0.4142135623730118
  0
LWPOLYLINE
  5
1CB
100
AcDbEntity
  8
LINE
390
0
100
AcDbPolyline
 90
        7
 70
             129
 10
3.6331651077056226
 20
34.437888361367001
 10
3.6331651077056226
 20
34.287888361366853
 42
-0.4142135623725747
 10
3.5331651077055999
 20
34.187888361367008
 42
-0.4142135623735216
 10
3.4331651077056056
 20
34.287888361366853
 10
3.4331651077056056
 20
34.427938361366998
 10
3.4331651077056056
 20
34.437888361367001
 42
-0.4142135623726788
 10
3.5331651077055999
 20
34.537888361366846
 42
-0.4142135623736075
  0
LWPOLYLINE
  5
1CC
100
AcDbEntity
  8
LINE
390
0
100
AcDbPolyline
 90
        6
 70
             129
 10
3.6331651077056226
 20
33.412888361366889
 10
3.6331651077056226
 20
33.28788836136701
 42
-0.4142135623729077
 10
3.5331651077055999
 20
33.187888361367051
 42
-0.4142135623731939
 10
3.4331651077056056
 20
33.28788836136701
 10
3.4331651077056056
 20
33.412888361366889
 42
-0.4142135623735113
 10
3.5331651077055999
 20
33.512888361367025
 42
-0.4142135623727672
  0
LWPOLYLINE
  5
1CD
100
AcDbEntity
  8
LINE
390
0
100
AcDbPolyline
 90
        6
 70
             129
 10
-2.4367348922944028
 20
30.962888361367074
 42
-0.4142135623728453
 10
-2.336734892294408
 20
30.862888361366995
 10
-2.336734892294408
 20
30.81290836136699
 42
-0.4142135623728453
 10
-2.4367348922944028
 20
30.712908361367081
 42
-0.4142135623733474
 10
-2.5367348922943975
 20
30.81290836136699
 10
-2.5367348922943975
 20
30.862888361366995
 42
-0.4142135623733448
  0
LWPOLYLINE
  5
1CE
100
AcDbEntity
  8
LINE
390
0
100
AcDbPolyline
 90
        6
 70
             129
 10
-2.336734892294408
 20
31.912888361366949
 10
-2.336734892294408
 20
31.812888361367097
 42
-0.4142135623735113
 10
-2.4367348922944028
 20
31.712888361366961
 42
-0.4142135623726775
 10
-2.5367348922943975
 20
31.812888361367097
 10
-2.5367348922943975
 20
31.912888361366949
 42
-0.4142135623735009
 10
-2.4367348922944028
 20
32.012888361367082
 42
-0.4142135623727048
  0
LWPOLYLINE
  5
1CF
100
AcDbEntity
  8
LINE
390
0
100
AcDbPolyline
 90
        7
 70
             129
 10
-1.0114848922943938
 20
36.422588361366785
 10
-0.8767848922943843
 20
36.422588361366785
 42
-0.4142135623731887
 10
-0.7767848922943894
 20
36.322588361366819
 42
-0.4142135623728245
 10
-0.8767848922943843
 20
36.222588361366917
 10
-1.0267848922943901
 20
36.222588361366917
 42
-0.4142135623733675
 10
-1.1267848922943848
 20
36.322588361366819
 42
-0.414213562372991
 10
-1.0267848922943901
 20
36.422588361366785
  0
LWPOLYLINE
  5
1D0
100
AcDbEntity
  8
LINE
390
0
100
AcDbPolyline
 90
        8
 70
             129
 10
3.6331651077056226
 20
34.96288836136695
 10
3.6331651077056226
 20
34.837888361366844
 42
-0.4142135623728869
 10
3.5331651077055999
 20
34.737888361366885
 42
-0.4142135623732147
 10
3.4331651077056056
 20
34.837888361366844
 10
3.4331651077056056
 20
34.95293836136684
 10
3.4331651077056056
 20
34.987888361366871
 42
-0.4142135623730118
 10
3.5331651077055999
 20
35.087888361366836
 42
-0.4142135623732576
 10
3.6331651077056226
 20
34.987888361366871
  0
LWPOLYLINE
  5
1D1
100
AcDbEntity
  8
LINE
390
0
100
AcDbPolyline
 90
        6
 70
             129
 10
1.9987351077056121
 20
36.422588361366785
 10
2.0476951077056063
 20
36.422588361366785
 42
-0.4142135623731822
 10
2.1476951077056006
 20
36.322588361366819
 42
-0.4142135623728037
 10
2.0476951077056063
 20
36.222588361366917
 10
1.9987351077056121
 20
36.222588361366917
 42
-0.4142135623733799
 10
1.8987351077056183
 20
36.322588361366819
 42
-0.4142135623730118
  0
LWPOLYLINE
  5
1D2
100
AcDbEntity
  8
LINE
390
0
100
AcDbPolyline
 90
        8
 70
             129
 10
-1.6667348922943905
 20
35.952588361366828
 10
2.7631651077056167
 20
35.952588361366828
 42
-0.4142135623730843
 10
3.1631651077056233
 20
35.552588361366809
 10
3.1631651077056233
 20
30.623188361367081
 42
-0.4142135623731549
 10
2.7631651077056167
 20
30.22318836136699
 10
-1.6667348922943905
 20
30.22318836136699
 42
-0.4142135623730318
 10
-2.0667348922943969
 20
30.623188361367081
 10
-2.0667348922943969
 20
35.552588361366809
 42
-0.4142135623731054
  0
CIRCLE
  5
1D3
100
AcDbEntity
  8
LINE
390
0
100
AcDbCircle
 10
5.4382151077056138
 20
28.447888361367088
 30
0.0
 40
0.2250000000000227
  0
LWPOLYLINE
  5
1D4
100
AcDbEntity
  8
LINE
390
0
100
AcDbPolyline
 90
        8
 70
             129
 10
5.4932151077056206
 20
29.452888361367084
 10
5.5632151077056138
 20
29.452888361367084
 42
-0.4142135623726788
 10
5.6632151077056072
 20
29.352888361366947
 10
5.6632151077056072
 20
29.322888361367088
 42
-0.4142135623735216
 10
5.5632151077056138
 20
29.222888361366952
 10
5.4932151077056206
 20
29.222888361366952
 42
-0.4142135623727672
 10
5.3932151077055979
 20
29.322888361367088
 10
5.3932151077055979
 20
29.352888361366947
 42
-0.4142135623734176
  0
LWPOLYLINE
  5
1D5
100
AcDbEntity
  8
LINE
390
0
100
AcDbPolyline
 90
        8
 70
             129
 10
5.4932151077056206
 20
36.95288836136676
 10
5.5632151077056138
 20
36.95288836136676
 42
-0.4142135623730456
 10
5.6632151077056072
 20
36.852888361366752
 10
5.6632151077056072
 20
36.822888361366893
 42
-0.4142135623735113
 10
5.5632151077056138
 20
36.722888361366763
 10
5.4932151077056206
 20
36.722888361366763
 42
-0.4142135623727751
 10
5.3932151077055979
 20
36.822888361366893
 10
5.3932151077055979
 20
36.852888361366752
 42
-0.4142135623730534
  0
LWPOLYLINE
  5
1D6
102
{ACAD_REACTORS
330
1D7
102
}
100
AcDbEntity
  8
LINE
390
0
100
AcDbPolyline
 90
        8
 70
             129
 10
5.4132151077056081
 20
37.952888361366902
 10
5.4632151077056195
 20
37.952888361366902
 42
-0.414213562373082
 10
5.6632151077056072
 20
37.752888361366907
 10
5.6632151077056072
 20
37.702888361366895
 42
-0.4142135623731054
 10
5.4632151077056195
 20
37.5028883613669
 10
5.4132151077056081
 20
37.5028883613669
 42
-0.4142135623730794
 10
5.2132151077056204
 20
37.702888361366895
 10
5.2132151077056204
 20
37.752888361366907
 42
-0.4142135623731054
  0
HATCH
  5
1D7
100
AcDbEntity
  8
LINE
370
               0
390
0
  6
Continuous
 62
               5
100
AcDbHatch
 10
0.0
 20
0.0
 30
0.0
210
0.0
220
0.0
230
1.0
  2
SOLID
 70
               1
 71
               1
 91
        1
 92
        1
 93
        8
 72
               1
 10
5.4132151077056081
 20
37.952888361366902
 11
5.4632151077056195
 21
37.952888361366902
 72
               2
 10
5.4632151077056106
 20
37.752888361366907
 40
0.1999999999999962
 50
270.00000000000256
 51
360.0
 73
               0
 72
               1
 10
5.6632151077056072
 20
37.752888361366907
 11
5.6632151077056072
 21
37.702888361366895
 72
               2
 10
5.4632151077056186
 20
37.702888361366881
 40
0.1999999999999882
 50
359.99999999999591
 51
449.99999999999977
 73
               0
 72
               1
 10
5.4632151077056195
 20
37.5028883613669
 11
5.4132151077056081
 21
37.5028883613669
 72
               2
 10
5.4132151077056179
 20
37.702888361366895
 40
0.199999999999997
 50
450.00000000000284
 51
540.0
 73
               0
 72
               1
 10
5.2132151077056204
 20
37.702888361366895
 11
5.2132151077056204
 21
37.752888361366907
 72
               2
 10
5.413215107705609
 20
37.752888361366921
 40
0.1999999999999882
 50
539.99999999999591
 51
629.99999999999966
 73
               0
 97
        1
330
1D6
 75
               0
 76
               1
 98
        1
 10
0.0
 20
0.0
  0
LWPOLYLINE
  5
1D8
100
AcDbEntity
  8
LINE
390
0
100
AcDbPolyline
 90
        8
 70
             129
 10
4.5132151077056042
 20
28.45288836136697
 10
4.5832151077055974
 20
28.45288836136697
 42
-0.4142135623730976
 10
4.6832151077056201
 20
28.352888361366947
 10
4.6832151077056201
 20
28.322888361367088
 42
-0.414213562373428
 10
4.5832151077055974
 20
28.222888361366952
 10
4.5132151077056042
 20
28.222888361366952
 42
-0.4142135623726736
 10
4.4132151077056108
 20
28.322888361367088
 10
4.4132151077056108
 20
28.352888361366947
 42
-0.4142135623731783
  0
LWPOLYLINE
  5
1D9
100
AcDbEntity
  8
LINE
390
0
100
AcDbPolyline
 90
        8
 70
             129
 10
4.5132151077056042
 20
36.452888361366789
 10
4.5832151077055974
 20
36.452888361366789
 42
-0.4142135623731211
 10
4.6832151077056201
 20
36.352888361366773
 10
4.6832151077056201
 20
36.3228883613668
 42
-0.4142135623727205
 10
4.5832151077055974
 20
36.222888361366898
 10
4.5132151077056042
 20
36.222888361366898
 42
-0.4142135623733786
 10
4.4132151077056108
 20
36.3228883613668
 10
4.4132151077056108
 20
36.352888361366773
 42
-0.4142135623731575
  0
LWPOLYLINE
  5
1DA
100
AcDbEntity
  8
LINE
390
0
100
AcDbPolyline
 90
        8
 70
             129
 10
4.5132151077056042
 20
37.952888361366902
 10
4.5832151077055974
 20
37.952888361366902
 42
-0.4142135623727256
 10
4.6832151077056201
 20
37.852888361366759
 10
4.6832151077056201
 20
37.8228883613669
 42
-0.4142135623734072
 10
4.5832151077055974
 20
37.722888361366763
 10
4.5132151077056042
 20
37.722888361366763
 42
-0.414213562372684
 10
4.4132151077056108
 20
37.8228883613669
 10
4.4132151077056108
 20
37.852888361366759
 42
-0.4142135623735529
  0
LWPOLYLINE
  5
1DB
100
AcDbEntity
  8
LINE
390
0
100
AcDbPolyline
 90
        8
 70
             129
 10
-2.4867848922944016
 20
29.952888361367084
 10
-2.4167848922944084
 20
29.952888361367084
 42
-0.4142135623727569
 10
-2.3167848922943852
 20
29.852888361366947
 10
-2.3167848922943852
 20
29.822888361366974
 42
-0.414213562373095
 10
-2.4167848922944084
 20
29.722888361366952
 10
-2.4867848922944016
 20
29.722888361366952
 42
-0.4142135623730131
 10
-2.5867848922943963
 20
29.822888361366974
 10
-2.5867848922943963
 20
29.852888361366947
 42
-0.4142135623735113
  0
LWPOLYLINE
  5
1DC
100
AcDbEntity
  8
LINE
390
0
100
AcDbPolyline
 90
        8
 70
             129
 10
-2.4867848922944016
 20
36.452888361366789
 10
-2.4167848922944084
 20
36.452888361366789
 42
-0.4142135623731185
 10
-2.3167848922943852
 20
36.352888361366773
 10
-2.3167848922943852
 20
36.3228883613668
 42
-0.4142135623727205
 10
-2.4167848922944084
 20
36.222888361366898
 10
-2.4867848922944016
 20
36.222888361366898
 42
-0.4142135623733812
 10
-2.5867848922943963
 20
36.3228883613668
 10
-2.5867848922943963
 20
36.352888361366773
 42
-0.4142135623731367
  0
LWPOLYLINE
  5
1DD
100
AcDbEntity
  8
LINE
390
0
100
AcDbPolyline
 90
        8
 70
             129
 10
-2.9667848922943931
 20
30.012888361366972
 10
-2.936784892294392
 20
30.012888361366972
 42
-0.4142135623730157
 10
-2.8367848922943972
 20
29.912888361366949
 10
-2.8367848922943972
 20
29.762888361366972
 42
-0.4142135623731783
 10
-2.936784892294392
 20
29.662888361366949
 10
-2.9667848922943931
 20
29.662888361366949
 42
-0.4142135623730118
 10
-3.0667848922943879
 20
29.762888361366972
 10
-3.0667848922943879
 20
29.912888361366949
 42
-0.4142135623731783
  0
LWPOLYLINE
  5
1DE
100
AcDbEntity
  8
LINE
390
0
100
AcDbPolyline
 90
        8
 70
             129
 10
-2.9667848922943931
 20
33.012888361367047
 10
-2.936784892294392
 20
33.012888361367047
 42
-0.4142135623726749
 10
-2.8367848922943972
 20
32.91288836136691
 10
-2.8367848922943972
 20
32.76288836136694
 42
-0.4142135623731367
 10
-2.936784892294392
 20
32.662888361366925
 10
-2.9667848922943931
 20
32.662888361366925
 42
-0.4142135623730495
 10
-3.0667848922943879
 20
32.76288836136694
 10
-3.0667848922943879
 20
32.91288836136691
 42
-0.4142135623735113
  0
LWPOLYLINE
  5
1DF
100
AcDbEntity
  8
LINE
390
0
100
AcDbPolyline
 90
        8
 70
             129
 10
-2.9667848922943931
 20
35.012888361366961
 10
-2.936784892294392
 20
35.012888361366961
 42
-0.4142135623730547
 10
-2.8367848922943972
 20
34.912888361366946
 10
-2.8367848922943972
 20
34.762888361366862
 42
-0.4142135623731783
 10
-2.936784892294392
 20
34.662888361366839
 10
-2.9667848922943931
 20
34.662888361366839
 42
-0.4142135623730222
 10
-3.0667848922943879
 20
34.762888361366862
 10
-3.0667848922943879
 20
34.912888361366946
 42
-0.4142135623731367
  0
LWPOLYLINE
  5
1E0
100
AcDbEntity
  8
LINE
390
0
100
AcDbPolyline
 90
        8
 70
             129
 10
-2.9667848922943931
 20
35.987888361366835
 10
-2.936784892294392
 20
35.987888361366835
 42
-0.4142135623730053
 10
-2.8367848922943972
 20
35.887888361366812
 10
-2.8367848922943972
 20
35.787888361366797
 42
-0.414213562372658
 10
-2.936784892294392
 20
35.687888361366944
 10
-2.9667848922943931
 20
35.687888361366944
 42
-0.4142135623735204
 10
-3.0667848922943879
 20
35.787888361366797
 10
-3.0667848922943879
 20
35.887888361366812
 42
-0.4142135623731575
  0
LWPOLYLINE
  5
1E1
100
AcDbEntity
  8
LINE
390
0
100
AcDbPolyline
 90
        8
 70
             129
 10
-2.9667848922943931
 20
36.487888361366814
 10
-2.936784892294392
 20
36.487888361366814
 42
-0.4142135623733864
 10
-2.8367848922943972
 20
36.387888361366912
 10
-2.8367848922943972
 20
36.287888361366775
 42
-0.4142135623729702
 10
-2.936784892294392
 20
36.187888361366817
 10
-2.9667848922943931
 20
36.187888361366817
 42
-0.4142135623732095
 10
-3.0667848922943879
 20
36.287888361366775
 10
-3.0667848922943879
 20
36.387888361366912
 42
-0.4142135623728245
  0
LWPOLYLINE
  5
1E2
100
AcDbEntity
  8
LINE
390
0
100
AcDbPolyline
 90
        8
 70
             129
 10
-3.4867848922943909
 20
28.95288836136697
 10
-3.4167848922943973
 20
28.95288836136697
 42
-0.4142135623730924
 10
-3.3167848922943746
 20
28.852888361366947
 10
-3.3167848922943746
 20
28.822888361367088
 42
-0.4142135623732615
 10
-3.4167848922943977
 20
28.722888361366952
 10
-3.4867848922943909
 20
28.722888361366952
 42
-0.4142135623726879
 10
-3.5867848922943857
 20
28.822888361367088
 10
-3.5867848922943857
 20
28.852888361366947
 42
-0.4142135623731783
  0
LWPOLYLINE
  5
1E3
100
AcDbEntity
  8
LINE
390
0
100
AcDbPolyline
 90
        8
 70
             129
 10
-3.4667848922943807
 20
29.512888361367086
 10
-3.4367848922943796
 20
29.512888361367086
 42
-0.4142135623726697
 10
-3.3367848922943848
 20
29.412888361366949
 10
-3.3367848922943848
 20
29.262888361367086
 42
-0.4142135623735113
 10
-3.4367848922943796
 20
29.162888361366949
 10
-3.4667848922943807
 20
29.162888361366949
 42
-0.4142135623726879
 10
-3.5667848922943755
 20
29.262888361367086
 10
-3.5667848922943755
 20
29.412888361366949
 42
-0.4142135623735113
  0
LWPOLYLINE
  5
1E4
100
AcDbEntity
  8
LINE
390
0
100
AcDbPolyline
 90
        8
 70
             129
 10
-3.4667848922943807
 20
32.512888361366954
 10
-3.4367848922943796
 20
32.512888361366954
 42
-0.4142135623733422
 10
-3.3367848922943848
 20
32.412888361367045
 10
-3.3367848922943848
 20
32.262888361366961
 42
-0.4142135623731783
 10
-3.4367848922943796
 20
32.162888361366946
 10
-3.4667848922943807
 20
32.162888361366946
 42
-0.4142135623730235
 10
-3.5667848922943755
 20
32.262888361366961
 10
-3.5667848922943755
 20
32.412888361367045
 42
-0.4142135623728453
  0
LWPOLYLINE
  5
1E5
100
AcDbEntity
  8
LINE
390
0
100
AcDbPolyline
 90
        8
 70
             129
 10
-3.4667848922943807
 20
37.012888361366876
 10
-3.4367848922943796
 20
37.012888361366876
 42
-0.4142135623727165
 10
-3.3367848922943848
 20
36.912888361366754
 10
-3.3367848922943848
 20
36.762888361366777
 42
-0.4142135623728453
 10
-3.4367848922943796
 20
36.662888361366875
 10
-3.4667848922943807
 20
36.662888361366875
 42
-0.414213562373363
 10
-3.5667848922943755
 20
36.762888361366777
 10
-3.5667848922943755
 20
36.912888361366754
 42
-0.4142135623734488
  0
LWPOLYLINE
  5
1E6
100
AcDbEntity
  8
LINE
390
0
100
AcDbPolyline
 90
        8
 70
             129
 10
-3.9667848922943825
 20
36.012888361366812
 10
-3.9367848922943813
 20
36.012888361366812
 42
-0.4142135623730235
 10
-3.8367848922943866
 20
35.912888361366797
 10
-3.8367848922943866
 20
35.762888361366933
 42
-0.4142135623735113
 10
-3.9367848922943813
 20
35.662888361366797
 10
-3.9667848922943825
 20
35.662888361366797
 42
-0.4142135623726723
 10
-4.0667848922943772
 20
35.762888361366933
 10
-4.0667848922943772
 20
35.912888361366797
 42
-0.4142135623731783
  0
CIRCLE
  5
1E7
100
AcDbEntity
  8
LINE
390
0
100
AcDbCircle
 10
-4.3417848922943829
 20
28.447888361367088
 30
0.0
 40
0.2250000000000227
  0
LWPOLYLINE
  5
1E8
100
AcDbEntity
  8
LINE
390
0
100
AcDbPolyline
 90
        8
 70
             129
 10
-4.4667848922943829
 20
29.452888361367084
 10
-4.3967848922943897
 20
29.452888361367084
 42
-0.4142135623726762
 10
-4.2967848922943954
 20
29.352888361366947
 10
-4.2967848922943954
 20
29.322888361367088
 42
-0.4142135623735113
 10
-4.3967848922943897
 20
29.222888361366952
 10
-4.4667848922943829
 20
29.222888361366952
 42
-0.4142135623726814
 10
-4.5667848922943772
 20
29.322888361367088
 10
-4.5667848922943772
 20
29.352888361366947
 42
-0.4142135623735113
  0
LWPOLYLINE
  5
1E9
100
AcDbEntity
  8
LINE
390
0
100
AcDbPolyline
 90
        8
 70
             129
 10
-4.4667848922943829
 20
36.512888361366905
 10
-4.4367848922943818
 20
36.512888361366905
 42
-0.4142135623730456
 10
-4.3367848922943875
 20
36.412888361366889
 10
-4.3367848922943875
 20
36.262888361366798
 42
-0.4142135623731367
 10
-4.4367848922943818
 20
36.162888361366782
 10
-4.4667848922943829
 20
36.162888361366782
 42
-0.4142135623730378
 10
-4.5667848922943772
 20
36.262888361366798
 10
-4.5667848922943772
 20
36.412888361366889
 42
-0.4142135623731575
  0
LWPOLYLINE
  5
1EA
100
AcDbEntity
  8
LINE
390
0
100
AcDbPolyline
 90
        8
 70
             129
 10
-4.4667848922943829
 20
36.95288836136676
 10
-4.3967848922943897
 20
36.95288836136676
 42
-0.4142135623730508
 10
-4.2967848922943954
 20
36.852888361366752
 10
-4.2967848922943954
 20
36.822888361366893
 42
-0.4142135623735113
 10
-4.3967848922943897
 20
36.722888361366763
 10
-4.4667848922943829
 20
36.722888361366763
 42
-0.4142135623726996
 10
-4.5667848922943772
 20
36.822888361366893
 10
-4.5667848922943772
 20
36.852888361366752
 42
-0.4142135623731367
  0
CIRCLE
  5
1EB
100
AcDbEntity
  8
LINE
390
0
100
AcDbCircle
 10
-4.3417848922943829
 20
37.727888361366873
 30
0.0
 40
0.2250000000000298
  0
LWPOLYLINE
  5
1EC
100
AcDbEntity
  8
LINE
390
0
100
AcDbPolyline
 90
        8
 70
             129
 10
0.648215107705597
 20
36.842888361366761
 10
0.648215107705597
 20
36.317588361366823
 42
-0.4142135623731611
 10
0.5532151077055978
 20
36.222588361366917
 10
0.5432351077056132
 20
36.222588361366917
 42
-0.4142135623733904
 10
0.448235107705614
 20
36.317588361366823
 10
0.448235107705614
 20
36.842888361366761
 42
-0.4142135623731389
 10
0.5432351077056132
 20
36.937888361366888
 10
0.5532151077055978
 20
36.937888361366888
 42
-0.4142135623726945
  0
LWPOLYLINE
  5
1ED
100
AcDbEntity
  8
LINE
390
0
100
AcDbPolyline
 90
        8
 70
             129
 10
-4.4667848922943829
 20
29.952888361367084
 10
-4.3967848922943897
 20
29.952888361367084
 42
-0.4142135623726762
 10
-4.2967848922943954
 20
29.852888361366947
 10
-4.2967848922943954
 20
29.822888361366974
 42
-0.4142135623731783
 10
-4.3967848922943897
 20
29.722888361366952
 10
-4.4667848922943829
 20
29.722888361366952
 42
-0.4142135623730196
 10
-4.5667848922943772
 20
29.822888361366974
 10
-4.5667848922943772
 20
29.852888361366947
 42
-0.4142135623735113
  0
INSERT
  5
1EE
100
AcDbEntity
  8
AM_HID
390
0
 62
               7
100
AcDbBlockReference
  2
Symbol-1
 10
-2.9517848922943855
 20
37.837888361366893
 30
0.0
  0
INSERT
  5
1EF
100
AcDbEntity
  8
AM_HID
390
0
 62
               7
100
AcDbBlockReference
  2
Symbol-1
 10
-2.4517848922943837
 20
37.837888361366893
 30
0.0
  0
INSERT
  5
1F0
100
AcDbEntity
  8
AM_HID
390
0
 62
               7
100
AcDbBlockReference
  2
Symbol-1
 10
-1.9517848922943821
 20
37.837888361366893
 30
0.0
  0
INSERT
  5
1F1
100
AcDbEntity
  8
AM_HID
390
0
 62
               7
100
AcDbBlockReference
  2
Symbol-1
 10
-1.4517848922943812
 20
37.837888361366893
 30
0.0
  0
INSERT
  5
1F2
100
AcDbEntity
  8
AM_HID
390
0
 62
               7
100
AcDbBlockReference
  2
Symbol-1
 10
-0.9517848922943802
 20
37.837888361366893
 30
0.0
  0
INSERT
  5
1F3
100
AcDbEntity
  8
AM_HID
390
0
 62
               7
100
AcDbBlockReference
  2
Symbol-1
 10
-0.4517848922943789
 20
37.837888361366893
 30
0.0
  0
INSERT
  5
1F4
100
AcDbEntity
  8
AM_HID
390
0
 62
               7
100
AcDbBlockReference
  2
Symbol-1
 10
0.0482151077056224
 20
37.837888361366893
 30
0.0
  0
INSERT
  5
1F5
100
AcDbEntity
  8
AM_HID
390
0
 62
               7
100
AcDbBlockReference
  2
Symbol-1
 10
0.5482151077056237
 20
37.837888361366893
 30
0.0
  0
INSERT
  5
1F6
100
AcDbEntity
  8
AM_HID
390
0
 62
               7
100
AcDbBlockReference
  2
Symbol-1
 10
1.0482151077056236
 20
37.837888361366893
 30
0.0
  0
INSERT
  5
1F7
100
AcDbEntity
  8
AM_HID
390
0
 62
               7
100
AcDbBlockReference
  2
Symbol-1
 10
1.5482151077056228
 20
37.837888361366893
 30
0.0
  0
INSERT
  5
1F8
100
AcDbEntity
  8
AM_HID
390
0
 62
               7
100
AcDbBlockReference
  2
Symbol-1
 10
2.0482151077056221
 20
37.837888361366893
 30
0.0
  0
INSERT
  5
1F9
100
AcDbEntity
  8
AM_HID
390
0
 62
               7
100
AcDbBlockReference
  2
Symbol-1
 10
2.5482151077056221
 20
37.837888361366893
 30
0.0
  0
INSERT
  5
1FA
100
AcDbEntity
  8
AM_HID
390
0
 62
               7
100
AcDbBlockReference
  2
Symbol-1
 10
3.0482151077056225
 20
37.837888361366893
 30
0.0
  0
INSERT
  5
1FB
100
AcDbEntity
  8
AM_HID
390
0
 62
               7
100
AcDbBlockReference
  2
Symbol-1
 10
3.5482151077056234
 20
37.837888361366893
 30
0.0
  0
INSERT
  5
1FC
100
AcDbEntity
  8
AM_HID
390
0
 62
               7
100
AcDbBlockReference
  2
Symbol-1
 10
4.0482151077056239
 20
37.837888361366893
 30
0.0
  0
INSERT
  5
1FD
100
AcDbEntity
  8
AM_HID
390
0
 62
               7
100
AcDbBlockReference
  2
Symbol-1
 10
-3.4517848922943872
 20
37.337888361366879
 30
0.0
  0
INSERT
  5
1FE
100
AcDbEntity
  8
AM_HID
390
0
 62
               7
100
AcDbBlockReference
  2
Symbol-1
 10
-2.9517848922943855
 20
37.337888361366879
 30
0.0
  0
INSERT
  5
1FF
100
AcDbEntity
  8
AM_HID
390
0
 62
               7
100
AcDbBlockReference
  2
Symbol-1
 10
-2.4517848922943837
 20
37.337888361366879
 30
0.0
  0
INSERT
  5
200
100
AcDbEntity
  8
AM_HID
390
0
 62
               7
100
AcDbBlockReference
  2
Symbol-1
 10
-1.9517848922943821
 20
37.337888361366879
 30
0.0
  0
INSERT
  5
201
100
AcDbEntity
  8
AM_HID
390
0
 62
               7
100
AcDbBlockReference
  2
Symbol-1
 10
-1.4517848922943812
 20
37.337888361366879
 30
0.0
  0
INSERT
  5
202
100
AcDbEntity
  8
AM_HID
390
0
 62
               7
100
AcDbBlockReference
  2
Symbol-1
 10
-0.9517848922943802
 20
37.337888361366879
 30
0.0
  0
INSERT
  5
203
100
AcDbEntity
  8
AM_HID
390
0
 62
               7
100
AcDbBlockReference
  2
Symbol-1
 10
-0.4517848922943789
 20
37.337888361366879
 30
0.0
  0
INSERT
  5
204
100
AcDbEntity
  8
AM_HID
390
0
 62
               7
100
AcDbBlockReference
  2
Symbol-1
 10
0.0482151077056224
 20
37.337888361366879
 30
0.0
  0
INSERT
  5
205
100
AcDbEntity
  8
AM_HID
390
0
 62
               7
100
AcDbBlockReference
  2
Symbol-1
 10
0.5482151077056237
 20
37.337888361366879
 30
0.0
  0
INSERT
  5
206
100
AcDbEntity
  8
AM_HID
390
0
 62
               7
100
AcDbBlockReference
  2
Symbol-1
 10
1.0482151077056236
 20
37.337888361366879
 30
0.0
  0
INSERT
  5
207
100
AcDbEntity
  8
AM_HID
390
0
 62
               7
100
AcDbBlockReference
  2
Symbol-1
 10
1.5482151077056228
 20
37.337888361366879
 30
0.0
  0
INSERT
  5
208
100
AcDbEntity
  8
AM_HID
390
0
 62
               7
100
AcDbBlockReference
  2
Symbol-1
 10
2.0482151077056221
 20
37.337888361366879
 30
0.0
  0
INSERT
  5
209
100
AcDbEntity
  8
AM_HID
390
0
 62
               7
100
AcDbBlockReference
  2
Symbol-1
 10
2.5482151077056221
 20
37.337888361366879
 30
0.0
  0
INSERT
  5
20A
100
AcDbEntity
  8
AM_HID
390
0
 62
               7
100
AcDbBlockReference
  2
Symbol-1
 10
3.0482151077056225
 20
37.337888361366879
 30
0.0
  0
INSERT
  5
20B
100
AcDbEntity
  8
AM_HID
390
0
 62
               7
100
AcDbBlockReference
  2
Symbol-1
 10
3.5482151077056234
 20
37.337888361366879
 30
0.0
  0
INSERT
  5
20C
100
AcDbEntity
  8
AM_HID
390
0
 62
               7
100
AcDbBlockReference
  2
Symbol-1
 10
4.0482151077056239
 20
37.337888361366879
 30
0.0
  0
INSERT
  5
20D
100
AcDbEntity
  8
AM_HID
390
0
 62
               7
100
AcDbBlockReference
  2
Symbol-1
 10
4.5482151077056221
 20
37.337888361366879
 30
0.0
  0
INSERT
  5
20E
100
AcDbEntity
  8
AM_HID
390
0
 62
               7
100
AcDbBlockReference
  2
Symbol-1
 10
-2.9517848922943855
 20
36.837888361366879
 30
0.0
  0
INSERT
  5
20F
100
AcDbEntity
  8
AM_HID
390
0
 62
               7
100
AcDbBlockReference
  2
Symbol-1
 10
-2.4517848922943837
 20
36.837888361366879
 30
0.0
  0
INSERT
  5
210
100
AcDbEntity
  8
AM_HID
390
0
 62
               7
100
AcDbBlockReference
  2
Symbol-1
 10
-1.9517848922943821
 20
36.837888361366879
 30
0.0
  0
INSERT
  5
211
100
AcDbEntity
  8
AM_HID
390
0
 62
               7
100
AcDbBlockReference
  2
Symbol-1
 10
-1.4517848922943812
 20
36.837888361366879
 30
0.0
  0
INSERT
  5
212
100
AcDbEntity
  8
AM_HID
390
0
 62
               7
100
AcDbBlockReference
  2
Symbol-1
 10
-0.9517848922943802
 20
36.837888361366879
 30
0.0
  0
INSERT
  5
213
100
AcDbEntity
  8
AM_HID
390
0
 62
               7
100
AcDbBlockReference
  2
Symbol-1
 10
-0.4517848922943789
 20
36.837888361366879
 30
0.0
  0
INSERT
  5
214
100
AcDbEntity
  8
AM_HID
390
0
 62
               7
100
AcDbBlockReference
  2
Symbol-1
 10
0.0482151077056224
 20
36.837888361366879
 30
0.0
  0
INSERT
  5
215
100
AcDbEntity
  8
AM_HID
390
0
 62
               7
100
AcDbBlockReference
  2
Symbol-1
 10
1.0482151077056236
 20
36.837888361366879
 30
0.0
  0
INSERT
  5
216
100
AcDbEntity
  8
AM_HID
390
0
 62
               7
100
AcDbBlockReference
  2
Symbol-1
 10
1.5482151077056228
 20
36.837888361366879
 30
0.0
  0
INSERT
  5
217
100
AcDbEntity
  8
AM_HID
390
0
 62
               7
100
AcDbBlockReference
  2
Symbol-1
 10
2.0482151077056221
 20
36.837888361366879
 30
0.0
  0
INSERT
  5
218
100
AcDbEntity
  8
AM_HID
390
0
 62
               7
100
AcDbBlockReference
  2
Symbol-1
 10
2.5482151077056221
 20
36.837888361366879
 30
0.0
  0
INSERT
  5
219
100
AcDbEntity
  8
AM_HID
390
0
 62
               7
100
AcDbBlockReference
  2
Symbol-1
 10
3.0482151077056225
 20
36.837888361366879
 30
0.0
  0
INSERT
  5
21A
100
AcDbEntity
  8
AM_HID
390
0
 62
               7
100
AcDbBlockReference
  2
Symbol-1
 10
3.5482151077056234
 20
36.837888361366879
 30
0.0
  0
INSERT
  5
21B
100
AcDbEntity
  8
AM_HID
390
0
 62
               7
100
AcDbBlockReference
  2
Symbol-1
 10
4.0482151077056239
 20
36.837888361366879
 30
0.0
  0
INSERT
  5
21C
100
AcDbEntity
  8
AM_HID
390
0
 62
               7
100
AcDbBlockReference
  2
Symbol-1
 10
4.5482151077056221
 20
36.837888361366879
 30
0.0
  0
INSERT
  5
21D
100
AcDbEntity
  8
AM_HID
390
0
 62
               7
100
AcDbBlockReference
  2
Symbol-1
 10
5.0482151077056212
 20
36.837888361366879
 30
0.0
  0
INSERT
  5
21E
100
AcDbEntity
  8
AM_HID
390
0
 62
               7
100
AcDbBlockReference
  2
Symbol-1
 10
-3.4517848922943872
 20
36.3378883613669
 30
0.0
  0
INSERT
  5
21F
100
AcDbEntity
  8
AM_HID
390
0
 62
               7
100
AcDbBlockReference
  2
Symbol-1
 10
3.5482151077056234
 20
36.3378883613669
 30
0.0
  0
INSERT
  5
220
100
AcDbEntity
  8
AM_HID
390
0
 62
               7
100
AcDbBlockReference
  2
Symbol-1
 10
4.0482151077056239
 20
36.3378883613669
 30
0.0
  0
INSERT
  5
221
100
AcDbEntity
  8
AM_HID
390
0
 62
               7
100
AcDbBlockReference
  2
Symbol-1
 10
5.0482151077056212
 20
36.3378883613669
 30
0.0
  0
INSERT
  5
222
100
AcDbEntity
  8
AM_HID
390
0
 62
               7
100
AcDbBlockReference
  2
Symbol-1
 10
-3.4517848922943872
 20
35.837888361366915
 30
0.0
  0
INSERT
  5
223
100
AcDbEntity
  8
AM_HID
390
0
 62
               7
100
AcDbBlockReference
  2
Symbol-1
 10
4.0482151077056239
 20
35.837888361366915
 30
0.0
  0
INSERT
  5
224
100
AcDbEntity
  8
AM_HID
390
0
 62
               7
100
AcDbBlockReference
  2
Symbol-1
 10
4.5482151077056221
 20
35.837888361366915
 30
0.0
  0
INSERT
  5
225
100
AcDbEntity
  8
AM_HID
390
0
 62
               7
100
AcDbBlockReference
  2
Symbol-1
 10
5.0482151077056212
 20
35.837888361366915
 30
0.0
  0
INSERT
  5
226
100
AcDbEntity
  8
AM_HID
390
0
 62
               7
100
AcDbBlockReference
  2
Symbol-1
 10
5.5482151077056203
 20
35.837888361366915
 30
0.0
  0
INSERT
  5
227
100
AcDbEntity
  8
AM_HID
390
0
 62
               7
100
AcDbBlockReference
  2
Symbol-1
 10
-3.4517848922943872
 20
35.337888361366936
 30
0.0
  0
INSERT
  5
228
100
AcDbEntity
  8
AM_HID
390
0
 62
               7
100
AcDbBlockReference
  2
Symbol-1
 10
-2.9517848922943855
 20
35.337888361366936
 30
0.0
  0
INSERT
  5
229
100
AcDbEntity
  8
AM_HID
390
0
 62
               7
100
AcDbBlockReference
  2
Symbol-1
 10
-2.4517848922943837
 20
35.337888361366936
 30
0.0
  0
INSERT
  5
22A
100
AcDbEntity
  8
AM_HID
390
0
 62
               7
100
AcDbBlockReference
  2
Symbol-1
 10
4.0482151077056239
 20
35.337888361366936
 30
0.0
  0
INSERT
  5
22B
100
AcDbEntity
  8
AM_HID
390
0
 62
               7
100
AcDbBlockReference
  2
Symbol-1
 10
4.5482151077056221
 20
35.337888361366936
 30
0.0
  0
INSERT
  5
22C
100
AcDbEntity
  8
AM_HID
390
0
 62
               7
100
AcDbBlockReference
  2
Symbol-1
 10
5.0482151077056212
 20
35.337888361366936
 30
0.0
  0
INSERT
  5
22D
100
AcDbEntity
  8
AM_HID
390
0
 62
               7
100
AcDbBlockReference
  2
Symbol-1
 10
5.5482151077056203
 20
35.337888361366936
 30
0.0
  0
INSERT
  5
22E
100
AcDbEntity
  8
AM_HID
390
0
 62
               7
100
AcDbBlockReference
  2
Symbol-1
 10
-3.4517848922943872
 20
34.837888361366957
 30
0.0
  0
INSERT
  5
22F
100
AcDbEntity
  8
AM_HID
390
0
 62
               7
100
AcDbBlockReference
  2
Symbol-1
 10
4.0482151077056239
 20
34.837888361366957
 30
0.0
  0
INSERT
  5
230
100
AcDbEntity
  8
AM_HID
390
0
 62
               7
100
AcDbBlockReference
  2
Symbol-1
 10
4.5482151077056221
 20
34.837888361366957
 30
0.0
  0
INSERT
  5
231
100
AcDbEntity
  8
AM_HID
390
0
 62
               7
100
AcDbBlockReference
  2
Symbol-1
 10
5.0482151077056212
 20
34.837888361366957
 30
0.0
  0
INSERT
  5
232
100
AcDbEntity
  8
AM_HID
390
0
 62
               7
100
AcDbBlockReference
  2
Symbol-1
 10
5.5482151077056203
 20
34.837888361366957
 30
0.0
  0
INSERT
  5
233
100
AcDbEntity
  8
AM_HID
390
0
 62
               7
100
AcDbBlockReference
  2
Symbol-1
 10
-3.4517848922943872
 20
34.337888361366979
 30
0.0
  0
INSERT
  5
234
100
AcDbEntity
  8
AM_HID
390
0
 62
               7
100
AcDbBlockReference
  2
Symbol-1
 10
-2.9517848922943855
 20
34.337888361366979
 30
0.0
  0
INSERT
  5
235
100
AcDbEntity
  8
AM_HID
390
0
 62
               7
100
AcDbBlockReference
  2
Symbol-1
 10
-2.4517848922943837
 20
34.337888361366979
 30
0.0
  0
INSERT
  5
236
100
AcDbEntity
  8
AM_HID
390
0
 62
               7
100
AcDbBlockReference
  2
Symbol-1
 10
4.0482151077056239
 20
34.337888361366979
 30
0.0
  0
INSERT
  5
237
100
AcDbEntity
  8
AM_HID
390
0
 62
               7
100
AcDbBlockReference
  2
Symbol-1
 10
4.5482151077056221
 20
34.337888361366979
 30
0.0
  0
INSERT
  5
238
100
AcDbEntity
  8
AM_HID
390
0
 62
               7
100
AcDbBlockReference
  2
Symbol-1
 10
5.0482151077056212
 20
34.337888361366979
 30
0.0
  0
INSERT
  5
239
100
AcDbEntity
  8
AM_HID
390
0
 62
               7
100
AcDbBlockReference
  2
Symbol-1
 10
5.5482151077056203
 20
34.337888361366979
 30
0.0
  0
INSERT
  5
23A
100
AcDbEntity
  8
AM_HID
390
0
 62
               7
100
AcDbBlockReference
  2
Symbol-1
 10
-3.4517848922943872
 20
33.837888361367
 30
0.0
  0
INSERT
  5
23B
100
AcDbEntity
  8
AM_HID
390
0
 62
               7
100
AcDbBlockReference
  2
Symbol-1
 10
-2.9517848922943855
 20
33.837888361367
 30
0.0
  0
INSERT
  5
23C
100
AcDbEntity
  8
AM_HID
390
0
 62
               7
100
AcDbBlockReference
  2
Symbol-1
 10
3.5482151077056234
 20
33.837888361367
 30
0.0
  0
INSERT
  5
23D
100
AcDbEntity
  8
AM_HID
390
0
 62
               7
100
AcDbBlockReference
  2
Symbol-1
 10
4.0482151077056239
 20
33.837888361367
 30
0.0
  0
INSERT
  5
23E
100
AcDbEntity
  8
AM_HID
390
0
 62
               7
100
AcDbBlockReference
  2
Symbol-1
 10
4.5482151077056221
 20
33.837888361367
 30
0.0
  0
INSERT
  5
23F
100
AcDbEntity
  8
AM_HID
390
0
 62
               7
100
AcDbBlockReference
  2
Symbol-1
 10
5.0482151077056212
 20
33.837888361367
 30
0.0
  0
INSERT
  5
240
100
AcDbEntity
  8
AM_HID
390
0
 62
               7
100
AcDbBlockReference
  2
Symbol-1
 10
5.5482151077056203
 20
33.837888361367
 30
0.0
  0
INSERT
  5
241
100
AcDbEntity
  8
AM_HID
390
0
 62
               7
100
AcDbBlockReference
  2
Symbol-1
 10
-3.4517848922943872
 20
33.337888361367021
 30
0.0
  0
INSERT
  5
242
100
AcDbEntity
  8
AM_HID
390
0
 62
               7
100
AcDbBlockReference
  2
Symbol-1
 10
-2.9517848922943855
 20
33.337888361367021
 30
0.0
  0
INSERT
  5
243
100
AcDbEntity
  8
AM_HID
390
0
 62
               7
100
AcDbBlockReference
  2
Symbol-1
 10
-2.4517848922943837
 20
33.337888361367021
 30
0.0
  0
INSERT
  5
244
100
AcDbEntity
  8
AM_HID
390
0
 62
               7
100
AcDbBlockReference
  2
Symbol-1
 10
4.0482151077056239
 20
33.337888361367021
 30
0.0
  0
INSERT
  5
245
100
AcDbEntity
  8
AM_HID
390
0
 62
               7
100
AcDbBlockReference
  2
Symbol-1
 10
4.5482151077056221
 20
33.337888361367021
 30
0.0
  0
INSERT
  5
246
100
AcDbEntity
  8
AM_HID
390
0
 62
               7
100
AcDbBlockReference
  2
Symbol-1
 10
5.0482151077056212
 20
33.337888361367021
 30
0.0
  0
INSERT
  5
247
100
AcDbEntity
  8
AM_HID
390
0
 62
               7
100
AcDbBlockReference
  2
Symbol-1
 10
5.5482151077056203
 20
33.337888361367021
 30
0.0
  0
INSERT
  5
248
100
AcDbEntity
  8
AM_HID
390
0
 62
               7
100
AcDbBlockReference
  2
Symbol-1
 10
-3.4517848922943872
 20
32.837888361367042
 30
0.0
  0
INSERT
  5
249
100
AcDbEntity
  8
AM_HID
390
0
 62
               7
100
AcDbBlockReference
  2
Symbol-1
 10
4.0482151077056239
 20
32.837888361367042
 30
0.0
  0
INSERT
  5
24A
100
AcDbEntity
  8
AM_HID
390
0
 62
               7
100
AcDbBlockReference
  2
Symbol-1
 10
4.5482151077056221
 20
32.837888361367042
 30
0.0
  0
INSERT
  5
24B
100
AcDbEntity
  8
AM_HID
390
0
 62
               7
100
AcDbBlockReference
  2
Symbol-1
 10
5.0482151077056212
 20
32.837888361367042
 30
0.0
  0
INSERT
  5
24C
100
AcDbEntity
  8
AM_HID
390
0
 62
               7
100
AcDbBlockReference
  2
Symbol-1
 10
5.5482151077056203
 20
32.837888361367042
 30
0.0
  0
INSERT
  5
24D
100
AcDbEntity
  8
AM_HID
390
0
 62
               7
100
AcDbBlockReference
  2
Symbol-1
 10
-2.9517848922943855
 20
32.337888361367064
 30
0.0
  0
INSERT
  5
24E
100
AcDbEntity
  8
AM_HID
390
0
 62
               7
100
AcDbBlockReference
  2
Symbol-1
 10
-2.4517848922943837
 20
32.337888361367064
 30
0.0
  0
INSERT
  5
24F
100
AcDbEntity
  8
AM_HID
390
0
 62
               7
100
AcDbBlockReference
  2
Symbol-1
 10
3.5482151077056234
 20
32.337888361367064
 30
0.0
  0
INSERT
  5
250
100
AcDbEntity
  8
AM_HID
390
0
 62
               7
100
AcDbBlockReference
  2
Symbol-1
 10
4.0482151077056239
 20
32.337888361367064
 30
0.0
  0
INSERT
  5
251
100
AcDbEntity
  8
AM_HID
390
0
 62
               7
100
AcDbBlockReference
  2
Symbol-1
 10
4.5482151077056221
 20
32.337888361367064
 30
0.0
  0
INSERT
  5
252
100
AcDbEntity
  8
AM_HID
390
0
 62
               7
100
AcDbBlockReference
  2
Symbol-1
 10
5.0482151077056212
 20
32.337888361367064
 30
0.0
  0
INSERT
  5
253
100
AcDbEntity
  8
AM_HID
390
0
 62
               7
100
AcDbBlockReference
  2
Symbol-1
 10
5.5482151077056203
 20
32.337888361367064
 30
0.0
  0
INSERT
  5
254
100
AcDbEntity
  8
AM_HID
390
0
 62
               7
100
AcDbBlockReference
  2
Symbol-1
 10
-3.4517848922943872
 20
31.837888361367074
 30
0.0
  0
INSERT
  5
255
100
AcDbEntity
  8
AM_HID
390
0
 62
               7
100
AcDbBlockReference
  2
Symbol-1
 10
-2.9517848922943855
 20
31.837888361367074
 30
0.0
  0
INSERT
  5
256
100
AcDbEntity
  8
AM_HID
390
0
 62
               7
100
AcDbBlockReference
  2
Symbol-1
 10
3.5482151077056234
 20
31.837888361367074
 30
0.0
  0
INSERT
  5
257
100
AcDbEntity
  8
AM_HID
390
0
 62
               7
100
AcDbBlockReference
  2
Symbol-1
 10
4.0482151077056239
 20
31.837888361367074
 30
0.0
  0
INSERT
  5
258
100
AcDbEntity
  8
AM_HID
390
0
 62
               7
100
AcDbBlockReference
  2
Symbol-1
 10
4.5482151077056221
 20
31.837888361367074
 30
0.0
  0
INSERT
  5
259
100
AcDbEntity
  8
AM_HID
390
0
 62
               7
100
AcDbBlockReference
  2
Symbol-1
 10
5.0482151077056212
 20
31.837888361367074
 30
0.0
  0
INSERT
  5
25A
100
AcDbEntity
  8
AM_HID
390
0
 62
               7
100
AcDbBlockReference
  2
Symbol-1
 10
5.5482151077056203
 20
31.837888361367074
 30
0.0
  0
INSERT
  5
25B
100
AcDbEntity
  8
AM_HID
390
0
 62
               7
100
AcDbBlockReference
  2
Symbol-1
 10
-3.4517848922943872
 20
31.337888361367074
 30
0.0
  0
INSERT
  5
25C
100
AcDbEntity
  8
AM_HID
390
0
 62
               7
100
AcDbBlockReference
  2
Symbol-1
 10
-2.9517848922943855
 20
31.337888361367074
 30
0.0
  0
INSERT
  5
25D
100
AcDbEntity
  8
AM_HID
390
0
 62
               7
100
AcDbBlockReference
  2
Symbol-1
 10
3.5482151077056234
 20
31.337888361367074
 30
0.0
  0
INSERT
  5
25E
100
AcDbEntity
  8
AM_HID
390
0
 62
               7
100
AcDbBlockReference
  2
Symbol-1
 10
4.0482151077056239
 20
31.337888361367074
 30
0.0
  0
INSERT
  5
25F
100
AcDbEntity
  8
AM_HID
390
0
 62
               7
100
AcDbBlockReference
  2
Symbol-1
 10
4.5482151077056221
 20
31.337888361367074
 30
0.0
  0
INSERT
  5
260
100
AcDbEntity
  8
AM_HID
390
0
 62
               7
100
AcDbBlockReference
  2
Symbol-1
 10
5.0482151077056212
 20
31.337888361367074
 30
0.0
  0
INSERT
  5
261
100
AcDbEntity
  8
AM_HID
390
0
 62
               7
100
AcDbBlockReference
  2
Symbol-1
 10
5.5482151077056203
 20
31.337888361367074
 30
0.0
  0
INSERT
  5
262
100
AcDbEntity
  8
AM_HID
390
0
 62
               7
100
AcDbBlockReference
  2
Symbol-1
 10
-3.4517848922943872
 20
30.837888361367074
 30
0.0
  0
INSERT
  5
263
100
AcDbEntity
  8
AM_HID
390
0
 62
               7
100
AcDbBlockReference
  2
Symbol-1
 10
-2.9517848922943855
 20
30.837888361367074
 30
0.0
  0
INSERT
  5
264
100
AcDbEntity
  8
AM_HID
390
0
 62
               7
100
AcDbBlockReference
  2
Symbol-1
 10
4.0482151077056239
 20
30.837888361367074
 30
0.0
  0
INSERT
  5
265
100
AcDbEntity
  8
AM_HID
390
0
 62
               7
100
AcDbBlockReference
  2
Symbol-1
 10
4.5482151077056221
 20
30.837888361367074
 30
0.0
  0
INSERT
  5
266
100
AcDbEntity
  8
AM_HID
390
0
 62
               7
100
AcDbBlockReference
  2
Symbol-1
 10
5.0482151077056212
 20
30.837888361367074
 30
0.0
  0
INSERT
  5
267
100
AcDbEntity
  8
AM_HID
390
0
 62
               7
100
AcDbBlockReference
  2
Symbol-1
 10
5.5482151077056203
 20
30.837888361367074
 30
0.0
  0
INSERT
  5
268
100
AcDbEntity
  8
AM_HID
390
0
 62
               7
100
AcDbBlockReference
  2
Symbol-1
 10
-3.4517848922943872
 20
30.337888361367074
 30
0.0
  0
INSERT
  5
269
100
AcDbEntity
  8
AM_HID
390
0
 62
               7
100
AcDbBlockReference
  2
Symbol-1
 10
-2.9517848922943855
 20
30.337888361367074
 30
0.0
  0
INSERT
  5
26A
100
AcDbEntity
  8
AM_HID
390
0
 62
               7
100
AcDbBlockReference
  2
Symbol-1
 10
4.0482151077056239
 20
30.337888361367074
 30
0.0
  0
INSERT
  5
26B
100
AcDbEntity
  8
AM_HID
390
0
 62
               7
100
AcDbBlockReference
  2
Symbol-1
 10
4.5482151077056221
 20
30.337888361367074
 30
0.0
  0
INSERT
  5
26C
100
AcDbEntity
  8
AM_HID
390
0
 62
               7
100
AcDbBlockReference
  2
Symbol-1
 10
5.0482151077056212
 20
30.337888361367074
 30
0.0
  0
INSERT
  5
26D
100
AcDbEntity
  8
AM_HID
390
0
 62
               7
100
AcDbBlockReference
  2
Symbol-1
 10
5.5482151077056203
 20
30.337888361367074
 30
0.0
  0
INSERT
  5
26E
100
AcDbEntity
  8
AM_HID
390
0
 62
               7
100
AcDbBlockReference
  2
Symbol-1
 10
-3.4517848922943872
 20
29.837888361367074
 30
0.0
  0
INSERT
  5
26F
100
AcDbEntity
  8
AM_HID
390
0
 62
               7
100
AcDbBlockReference
  2
Symbol-1
 10
-1.9517848922943821
 20
29.837888361367074
 30
0.0
  0
INSERT
  5
270
100
AcDbEntity
  8
AM_HID
390
0
 62
               7
100
AcDbBlockReference
  2
Symbol-1
 10
-0.9517848922943802
 20
29.837888361367074
 30
0.0
  0
INSERT
  5
271
100
AcDbEntity
  8
AM_HID
390
0
 62
               7
100
AcDbBlockReference
  2
Symbol-1
 10
0.5482151077056237
 20
29.837888361367074
 30
0.0
  0
INSERT
  5
272
100
AcDbEntity
  8
AM_HID
390
0
 62
               7
100
AcDbBlockReference
  2
Symbol-1
 10
1.5482151077056228
 20
29.837888361367074
 30
0.0
  0
INSERT
  5
273
100
AcDbEntity
  8
AM_HID
390
0
 62
               7
100
AcDbBlockReference
  2
Symbol-1
 10
3.0482151077056225
 20
29.837888361367074
 30
0.0
  0
INSERT
  5
274
100
AcDbEntity
  8
AM_HID
390
0
 62
               7
100
AcDbBlockReference
  2
Symbol-1
 10
3.5482151077056234
 20
29.837888361367074
 30
0.0
  0
INSERT
  5
275
100
AcDbEntity
  8
AM_HID
390
0
 62
               7
100
AcDbBlockReference
  2
Symbol-1
 10
4.0482151077056239
 20
29.837888361367074
 30
0.0
  0
INSERT
  5
276
100
AcDbEntity
  8
AM_HID
390
0
 62
               7
100
AcDbBlockReference
  2
Symbol-1
 10
4.5482151077056221
 20
29.837888361367074
 30
0.0
  0
INSERT
  5
277
100
AcDbEntity
  8
AM_HID
390
0
 62
               7
100
AcDbBlockReference
  2
Symbol-1
 10
5.0482151077056212
 20
29.837888361367074
 30
0.0
  0
INSERT
  5
278
100
AcDbEntity
  8
AM_HID
390
0
 62
               7
100
AcDbBlockReference
  2
Symbol-1
 10
5.5482151077056203
 20
29.837888361367074
 30
0.0
  0
INSERT
  5
279
100
AcDbEntity
  8
AM_HID
390
0
 62
               7
100
AcDbBlockReference
  2
Symbol-1
 10
-2.9517848922943855
 20
29.337888361367074
 30
0.0
  0
INSERT
  5
27A
100
AcDbEntity
  8
AM_HID
390
0
 62
               7
100
AcDbBlockReference
  2
Symbol-1
 10
-2.4517848922943837
 20
29.337888361367074
 30
0.0
  0
INSERT
  5
27B
100
AcDbEntity
  8
AM_HID
390
0
 62
               7
100
AcDbBlockReference
  2
Symbol-1
 10
-1.9517848922943821
 20
29.337888361367074
 30
0.0
  0
INSERT
  5
27C
100
AcDbEntity
  8
AM_HID
390
0
 62
               7
100
AcDbBlockReference
  2
Symbol-1
 10
-1.4517848922943812
 20
29.337888361367074
 30
0.0
  0
INSERT
  5
27D
100
AcDbEntity
  8
AM_HID
390
0
 62
               7
100
AcDbBlockReference
  2
Symbol-1
 10
-0.9517848922943802
 20
29.337888361367074
 30
0.0
  0
INSERT
  5
27E
100
AcDbEntity
  8
AM_HID
390
0
 62
               7
100
AcDbBlockReference
  2
Symbol-1
 10
-0.4517848922943789
 20
29.337888361367074
 30
0.0
  0
INSERT
  5
27F
100
AcDbEntity
  8
AM_HID
390
0
 62
               7
100
AcDbBlockReference
  2
Symbol-1
 10
0.0482151077056224
 20
29.337888361367074
 30
0.0
  0
INSERT
  5
280
100
AcDbEntity
  8
AM_HID
390
0
 62
               7
100
AcDbBlockReference
  2
Symbol-1
 10
0.5482151077056237
 20
29.337888361367074
 30
0.0
  0
INSERT
  5
281
100
AcDbEntity
  8
AM_HID
390
0
 62
               7
100
AcDbBlockReference
  2
Symbol-1
 10
1.0482151077056236
 20
29.337888361367074
 30
0.0
  0
INSERT
  5
282
100
AcDbEntity
  8
AM_HID
390
0
 62
               7
100
AcDbBlockReference
  2
Symbol-1
 10
1.5482151077056228
 20
29.337888361367074
 30
0.0
  0
INSERT
  5
283
100
AcDbEntity
  8
AM_HID
390
0
 62
               7
100
AcDbBlockReference
  2
Symbol-1
 10
2.0482151077056221
 20
29.337888361367074
 30
0.0
  0
INSERT
  5
284
100
AcDbEntity
  8
AM_HID
390
0
 62
               7
100
AcDbBlockReference
  2
Symbol-1
 10
2.5482151077056221
 20
29.337888361367074
 30
0.0
  0
INSERT
  5
285
100
AcDbEntity
  8
AM_HID
390
0
 62
               7
100
AcDbBlockReference
  2
Symbol-1
 10
3.0482151077056225
 20
29.337888361367074
 30
0.0
  0
INSERT
  5
286
100
AcDbEntity
  8
AM_HID
390
0
 62
               7
100
AcDbBlockReference
  2
Symbol-1
 10
3.5482151077056234
 20
29.337888361367074
 30
0.0
  0
INSERT
  5
287
100
AcDbEntity
  8
AM_HID
390
0
 62
               7
100
AcDbBlockReference
  2
Symbol-1
 10
4.0482151077056239
 20
29.337888361367074
 30
0.0
  0
INSERT
  5
288
100
AcDbEntity
  8
AM_HID
390
0
 62
               7
100
AcDbBlockReference
  2
Symbol-1
 10
4.5482151077056221
 20
29.337888361367074
 30
0.0
  0
INSERT
  5
289
100
AcDbEntity
  8
AM_HID
390
0
 62
               7
100
AcDbBlockReference
  2
Symbol-1
 10
5.0482151077056212
 20
29.337888361367074
 30
0.0
  0
INSERT
  5
28A
100
AcDbEntity
  8
AM_HID
390
0
 62
               7
100
AcDbBlockReference
  2
Symbol-1
 10
-2.9517848922943855
 20
28.837888361367074
 30
0.0
  0
INSERT
  5
28B
100
AcDbEntity
  8
AM_HID
390
0
 62
               7
100
AcDbBlockReference
  2
Symbol-1
 10
-2.4517848922943837
 20
28.837888361367074
 30
0.0
  0
INSERT
  5
28C
100
AcDbEntity
  8
AM_HID
390
0
 62
               7
100
AcDbBlockReference
  2
Symbol-1
 10
-1.9517848922943821
 20
28.837888361367074
 30
0.0
  0
INSERT
  5
28D
100
AcDbEntity
  8
AM_HID
390
0
 62
               7
100
AcDbBlockReference
  2
Symbol-1
 10
-1.4517848922943812
 20
28.837888361367074
 30
0.0
  0
INSERT
  5
28E
100
AcDbEntity
  8
AM_HID
390
0
 62
               7
100
AcDbBlockReference
  2
Symbol-1
 10
-0.9517848922943802
 20
28.837888361367074
 30
0.0
  0
INSERT
  5
28F
100
AcDbEntity
  8
AM_HID
390
0
 62
               7
100
AcDbBlockReference
  2
Symbol-1
 10
-0.4517848922943789
 20
28.837888361367074
 30
0.0
  0
INSERT
  5
290
100
AcDbEntity
  8
AM_HID
390
0
 62
               7
100
AcDbBlockReference
  2
Symbol-1
 10
0.0482151077056224
 20
28.837888361367074
 30
0.0
  0
INSERT
  5
291
100
AcDbEntity
  8
AM_HID
390
0
 62
               7
100
AcDbBlockReference
  2
Symbol-1
 10
0.5482151077056237
 20
28.837888361367074
 30
0.0
  0
INSERT
  5
292
100
AcDbEntity
  8
AM_HID
390
0
 62
               7
100
AcDbBlockReference
  2
Symbol-1
 10
1.0482151077056236
 20
28.837888361367074
 30
0.0
  0
INSERT
  5
293
100
AcDbEntity
  8
AM_HID
390
0
 62
               7
100
AcDbBlockReference
  2
Symbol-1
 10
1.5482151077056228
 20
28.837888361367074
 30
0.0
  0
INSERT
  5
294
100
AcDbEntity
  8
AM_HID
390
0
 62
               7
100
AcDbBlockReference
  2
Symbol-1
 10
2.0482151077056221
 20
28.837888361367074
 30
0.0
  0
INSERT
  5
295
100
AcDbEntity
  8
AM_HID
390
0
 62
               7
100
AcDbBlockReference
  2
Symbol-1
 10
2.5482151077056221
 20
28.837888361367074
 30
0.0
  0
INSERT
  5
296
100
AcDbEntity
  8
AM_HID
390
0
 62
               7
100
AcDbBlockReference
  2
Symbol-1
 10
3.0482151077056225
 20
28.837888361367074
 30
0.0
  0
INSERT
  5
297
100
AcDbEntity
  8
AM_HID
390
0
 62
               7
100
AcDbBlockReference
  2
Symbol-1
 10
3.5482151077056234
 20
28.837888361367074
 30
0.0
  0
INSERT
  5
298
100
AcDbEntity
  8
AM_HID
390
0
 62
               7
100
AcDbBlockReference
  2
Symbol-1
 10
4.0482151077056239
 20
28.837888361367074
 30
0.0
  0
INSERT
  5
299
100
AcDbEntity
  8
AM_HID
390
0
 62
               7
100
AcDbBlockReference
  2
Symbol-1
 10
4.5482151077056221
 20
28.837888361367074
 30
0.0
  0
INSERT
  5
29A
100
AcDbEntity
  8
AM_HID
390
0
 62
               7
100
AcDbBlockReference
  2
Symbol-1
 10
5.0482151077056212
 20
28.837888361367074
 30
0.0
  0
INSERT
  5
29B
100
AcDbEntity
  8
AM_HID
390
0
 62
               7
100
AcDbBlockReference
  2
Symbol-1
 10
-3.4517848922943872
 20
28.337888361367074
 30
0.0
  0
INSERT
  5
29C
100
AcDbEntity
  8
AM_HID
390
0
 62
               7
100
AcDbBlockReference
  2
Symbol-1
 10
-2.9517848922943855
 20
28.337888361367074
 30
0.0
  0
INSERT
  5
29D
100
AcDbEntity
  8
AM_HID
390
0
 62
               7
100
AcDbBlockReference
  2
Symbol-1
 10
-2.4517848922943837
 20
28.337888361367074
 30
0.0
  0
INSERT
  5
29E
100
AcDbEntity
  8
AM_HID
390
0
 62
               7
100
AcDbBlockReference
  2
Symbol-1
 10
-1.9517848922943821
 20
28.337888361367074
 30
0.0
  0
INSERT
  5
29F
100
AcDbEntity
  8
AM_HID
390
0
 62
               7
100
AcDbBlockReference
  2
Symbol-1
 10
-1.4517848922943812
 20
28.337888361367074
 30
0.0
  0
INSERT
  5
2A0
100
AcDbEntity
  8
AM_HID
390
0
 62
               7
100
AcDbBlockReference
  2
Symbol-1
 10
-0.9517848922943802
 20
28.337888361367074
 30
0.0
  0
INSERT
  5
2A1
100
AcDbEntity
  8
AM_HID
390
0
 62
               7
100
AcDbBlockReference
  2
Symbol-1
 10
-0.4517848922943789
 20
28.337888361367074
 30
0.0
  0
INSERT
  5
2A2
100
AcDbEntity
  8
AM_HID
390
0
 62
               7
100
AcDbBlockReference
  2
Symbol-1
 10
0.0482151077056224
 20
28.337888361367074
 30
0.0
  0
INSERT
  5
2A3
100
AcDbEntity
  8
AM_HID
390
0
 62
               7
100
AcDbBlockReference
  2
Symbol-1
 10
0.5482151077056237
 20
28.337888361367074
 30
0.0
  0
INSERT
  5
2A4
100
AcDbEntity
  8
AM_HID
390
0
 62
               7
100
AcDbBlockReference
  2
Symbol-1
 10
1.0482151077056236
 20
28.337888361367074
 30
0.0
  0
INSERT
  5
2A5
100
AcDbEntity
  8
AM_HID
390
0
 62
               7
100
AcDbBlockReference
  2
Symbol-1
 10
1.5482151077056228
 20
28.337888361367074
 30
0.0
  0
INSERT
  5
2A6
100
AcDbEntity
  8
AM_HID
390
0
 62
               7
100
AcDbBlockReference
  2
Symbol-1
 10
2.0482151077056221
 20
28.337888361367074
 30
0.0
  0
INSERT
  5
2A7
100
AcDbEntity
  8
AM_HID
390
0
 62
               7
100
AcDbBlockReference
  2
Symbol-1
 10
2.5482151077056221
 20
28.337888361367074
 30
0.0
  0
INSERT
  5
2A8
100
AcDbEntity
  8
AM_HID
390
0
 62
               7
100
AcDbBlockReference
  2
Symbol-1
 10
3.0482151077056225
 20
28.337888361367074
 30
0.0
  0
INSERT
  5
2A9
100
AcDbEntity
  8
AM_HID
390
0
 62
               7
100
AcDbBlockReference
  2
Symbol-1
 10
3.5482151077056234
 20
28.337888361367074
 30
0.0
  0
INSERT
  5
2AA
100
AcDbEntity
  8
AM_HID
390
0
 62
               7
100
AcDbBlockReference
  2
Symbol-1
 10
4.0482151077056239
 20
28.337888361367074
 30
0.0
  0
INSERT
  5
2AB
100
AcDbEntity
  8
AM_HID
390
0
 62
               7
100
AcDbBlockReference
  2
Symbol-1
 10
-3.4517848922943872
 20
37.337888361366879
 30
0.0
  0
INSERT
  5
2AC
100
AcDbEntity
  8
AM_HID
390
0
 62
               7
100
AcDbBlockReference
  2
Symbol-1
 10
-3.951784892294389
 20
37.337888361366879
 30
0.0
  0
INSERT
  5
2AD
100
AcDbEntity
  8
AM_HID
390
0
 62
               7
100
AcDbBlockReference
  2
Symbol-1
 10
-3.951784892294389
 20
36.837888361366879
 30
0.0
  0
INSERT
  5
2AE
100
AcDbEntity
  8
AM_HID
390
0
 62
               7
100
AcDbBlockReference
  2
Symbol-1
 10
-3.4517848922943872
 20
36.3378883613669
 30
0.0
  0
INSERT
  5
2AF
100
AcDbEntity
  8
AM_HID
390
0
 62
               7
100
AcDbBlockReference
  2
Symbol-1
 10
-3.951784892294389
 20
36.3378883613669
 30
0.0
  0
INSERT
  5
2B0
100
AcDbEntity
  8
AM_HID
390
0
 62
               7
100
AcDbBlockReference
  2
Symbol-1
 10
-3.4517848922943872
 20
35.837888361366915
 30
0.0
  0
INSERT
  5
2B1
100
AcDbEntity
  8
AM_HID
390
0
 62
               7
100
AcDbBlockReference
  2
Symbol-1
 10
-4.4517848922943895
 20
35.837888361366915
 30
0.0
  0
INSERT
  5
2B2
100
AcDbEntity
  8
AM_HID
390
0
 62
               7
100
AcDbBlockReference
  2
Symbol-1
 10
-3.4517848922943872
 20
35.337888361366936
 30
0.0
  0
INSERT
  5
2B3
100
AcDbEntity
  8
AM_HID
390
0
 62
               7
100
AcDbBlockReference
  2
Symbol-1
 10
-3.951784892294389
 20
35.337888361366936
 30
0.0
  0
INSERT
  5
2B4
100
AcDbEntity
  8
AM_HID
390
0
 62
               7
100
AcDbBlockReference
  2
Symbol-1
 10
-4.4517848922943895
 20
35.337888361366936
 30
0.0
  0
INSERT
  5
2B5
100
AcDbEntity
  8
AM_HID
390
0
 62
               7
100
AcDbBlockReference
  2
Symbol-1
 10
-3.4517848922943872
 20
34.837888361366957
 30
0.0
  0
INSERT
  5
2B6
100
AcDbEntity
  8
AM_HID
390
0
 62
               7
100
AcDbBlockReference
  2
Symbol-1
 10
-3.951784892294389
 20
34.837888361366957
 30
0.0
  0
INSERT
  5
2B7
100
AcDbEntity
  8
AM_HID
390
0
 62
               7
100
AcDbBlockReference
  2
Symbol-1
 10
-4.4517848922943895
 20
34.837888361366957
 30
0.0
  0
INSERT
  5
2B8
100
AcDbEntity
  8
AM_HID
390
0
 62
               7
100
AcDbBlockReference
  2
Symbol-1
 10
-3.4517848922943872
 20
34.337888361366979
 30
0.0
  0
INSERT
  5
2B9
100
AcDbEntity
  8
AM_HID
390
0
 62
               7
100
AcDbBlockReference
  2
Symbol-1
 10
-3.951784892294389
 20
34.337888361366979
 30
0.0
  0
INSERT
  5
2BA
100
AcDbEntity
  8
AM_HID
390
0
 62
               7
100
AcDbBlockReference
  2
Symbol-1
 10
-4.4517848922943895
 20
34.337888361366979
 30
0.0
  0
INSERT
  5
2BB
100
AcDbEntity
  8
AM_HID
390
0
 62
               7
100
AcDbBlockReference
  2
Symbol-1
 10
-3.4517848922943872
 20
33.837888361367
 30
0.0
  0
INSERT
  5
2BC
100
AcDbEntity
  8
AM_HID
390
0
 62
               7
100
AcDbBlockReference
  2
Symbol-1
 10
-3.951784892294389
 20
33.837888361367
 30
0.0
  0
INSERT
  5
2BD
100
AcDbEntity
  8
AM_HID
390
0
 62
               7
100
AcDbBlockReference
  2
Symbol-1
 10
-4.4517848922943895
 20
33.837888361367
 30
0.0
  0
INSERT
  5
2BE
100
AcDbEntity
  8
AM_HID
390
0
 62
               7
100
AcDbBlockReference
  2
Symbol-1
 10
-3.4517848922943872
 20
33.337888361367021
 30
0.0
  0
INSERT
  5
2BF
100
AcDbEntity
  8
AM_HID
390
0
 62
               7
100
AcDbBlockReference
  2
Symbol-1
 10
-3.951784892294389
 20
33.337888361367021
 30
0.0
  0
INSERT
  5
2C0
100
AcDbEntity
  8
AM_HID
390
0
 62
               7
100
AcDbBlockReference
  2
Symbol-1
 10
-4.4517848922943895
 20
33.337888361367021
 30
0.0
  0
INSERT
  5
2C1
100
AcDbEntity
  8
AM_HID
390
0
 62
               7
100
AcDbBlockReference
  2
Symbol-1
 10
-3.4517848922943872
 20
32.837888361367042
 30
0.0
  0
INSERT
  5
2C2
100
AcDbEntity
  8
AM_HID
390
0
 62
               7
100
AcDbBlockReference
  2
Symbol-1
 10
-3.951784892294389
 20
32.837888361367042
 30
0.0
  0
INSERT
  5
2C3
100
AcDbEntity
  8
AM_HID
390
0
 62
               7
100
AcDbBlockReference
  2
Symbol-1
 10
-4.4517848922943895
 20
32.837888361367042
 30
0.0
  0
INSERT
  5
2C4
100
AcDbEntity
  8
AM_HID
390
0
 62
               7
100
AcDbBlockReference
  2
Symbol-1
 10
-3.951784892294389
 20
32.337888361367064
 30
0.0
  0
INSERT
  5
2C5
100
AcDbEntity
  8
AM_HID
390
0
 62
               7
100
AcDbBlockReference
  2
Symbol-1
 10
-4.4517848922943895
 20
32.337888361367064
 30
0.0
  0
INSERT
  5
2C6
100
AcDbEntity
  8
AM_HID
390
0
 62
               7
100
AcDbBlockReference
  2
Symbol-1
 10
-3.4517848922943872
 20
31.837888361367074
 30
0.0
  0
INSERT
  5
2C7
100
AcDbEntity
  8
AM_HID
390
0
 62
               7
100
AcDbBlockReference
  2
Symbol-1
 10
-3.951784892294389
 20
31.837888361367074
 30
0.0
  0
INSERT
  5
2C8
100
AcDbEntity
  8
AM_HID
390
0
 62
               7
100
AcDbBlockReference
  2
Symbol-1
 10
-4.4517848922943895
 20
31.837888361367074
 30
0.0
  0
INSERT
  5
2C9
100
AcDbEntity
  8
AM_HID
390
0
 62
               7
100
AcDbBlockReference
  2
Symbol-1
 10
-3.4517848922943872
 20
31.337888361367074
 30
0.0
  0
INSERT
  5
2CA
100
AcDbEntity
  8
AM_HID
390
0
 62
               7
100
AcDbBlockReference
  2
Symbol-1
 10
-3.951784892294389
 20
31.337888361367074
 30
0.0
  0
INSERT
  5
2CB
100
AcDbEntity
  8
AM_HID
390
0
 62
               7
100
AcDbBlockReference
  2
Symbol-1
 10
-4.4517848922943895
 20
31.337888361367074
 30
0.0
  0
INSERT
  5
2CC
100
AcDbEntity
  8
AM_HID
390
0
 62
               7
100
AcDbBlockReference
  2
Symbol-1
 10
-3.4517848922943872
 20
30.837888361367074
 30
0.0
  0
INSERT
  5
2CD
100
AcDbEntity
  8
AM_HID
390
0
 62
               7
100
AcDbBlockReference
  2
Symbol-1
 10
-3.951784892294389
 20
30.837888361367074
 30
0.0
  0
INSERT
  5
2CE
100
AcDbEntity
  8
AM_HID
390
0
 62
               7
100
AcDbBlockReference
  2
Symbol-1
 10
-4.4517848922943895
 20
30.837888361367074
 30
0.0
  0
INSERT
  5
2CF
100
AcDbEntity
  8
AM_HID
390
0
 62
               7
100
AcDbBlockReference
  2
Symbol-1
 10
-3.4517848922943872
 20
30.337888361367074
 30
0.0
  0
INSERT
  5
2D0
100
AcDbEntity
  8
AM_HID
390
0
 62
               7
100
AcDbBlockReference
  2
Symbol-1
 10
-3.951784892294389
 20
30.337888361367074
 30
0.0
  0
INSERT
  5
2D1
100
AcDbEntity
  8
AM_HID
390
0
 62
               7
100
AcDbBlockReference
  2
Symbol-1
 10
-4.4517848922943895
 20
30.337888361367074
 30
0.0
  0
INSERT
  5
2D2
100
AcDbEntity
  8
AM_HID
390
0
 62
               7
100
AcDbBlockReference
  2
Symbol-1
 10
-3.4517848922943872
 20
29.837888361367074
 30
0.0
  0
INSERT
  5
2D3
100
AcDbEntity
  8
AM_HID
390
0
 62
               7
100
AcDbBlockReference
  2
Symbol-1
 10
-3.951784892294389
 20
29.837888361367074
 30
0.0
  0
INSERT
  5
2D4
100
AcDbEntity
  8
AM_HID
390
0
 62
               7
100
AcDbBlockReference
  2
Symbol-1
 10
-3.951784892294389
 20
29.337888361367074
 30
0.0
  0
INSERT
  5
2D5
100
AcDbEntity
  8
AM_HID
390
0
 62
               7
100
AcDbBlockReference
  2
Symbol-1
 10
-3.951784892294389
 20
28.837888361367074
 30
0.0
  0
INSERT
  5
2D6
100
AcDbEntity
  8
AM_HID
390
0
 62
               7
100
AcDbBlockReference
  2
Symbol-1
 10
-3.4517848922943872
 20
28.337888361367074
 30
0.0
  0
INSERT
  5
2D7
100
AcDbEntity
  8
AM_HID
390
0
 62
               7
100
AcDbBlockReference
  2
Symbol-1
 10
-3.4517848922944014
 20
37.837888361366893
 30
0.0
  0
INSERT
  5
2D8
100
AcDbEntity
  8
Dimension
390
0
 62
               7
100
AcDbBlockReference
  2
Group-3
 10
0.0
 20
0.0
 30
0.0
  0
INSERT
  5
2D9
100
AcDbEntity
  8
AM_HID
390
0
 62
               7
100
AcDbBlockReference
  2
Symbol-1
 10
5.0482151077056212
 20
37.337888361366879
 30
0.0
  0
ENDBLK
  5
2DA
100
AcDbEntity
  8
AM_HID
390
0
100
AcDbBlockEnd
  0
BLOCK
  5
2DB
100
AcDbEntity
  8
None
390
0
100
AcDbBlockBegin
  2
Group-5
 70
               0
 10
0.0
 20
0.0
 30
0.0
  3
Group-5
  1

  0
LINE
  5
2DC
100
AcDbEntity
  8
None
370
              13
390
0
  6
STYLE_12
 62
             115
100
AcDbLine
 10
-1.0517848922944335
 20
14.433634381016189
 30
0.0
 11
2.1482151077055551
 21
14.433634381016189
 31
0.0
  0
LINE
  5
2DD
100
AcDbEntity
  8
None
370
              13
390
0
  6
STYLE_12
 62
             115
100
AcDbLine
 10
-1.0517848922944335
 20
14.433634381016189
 30
0.0
 11
-1.0517848922944335
 21
15.433634381016189
 31
0.0
  0
LINE
  5
2DE
100
AcDbEntity
  8
None
370
              13
390
0
  6
STYLE_12
 62
             115
100
AcDbLine
 10
2.1482151077055551
 20
14.433634381016189
 30
0.0
 11
2.1482151077055551
 21
15.433634381016189
 31
0.0
  0
ENDBLK
  5
2DF
100
AcDbEntity
  8
None
390
0
100
AcDbBlockEnd
  0
BLOCK
  5
2E0
100
AcDbEntity
  8
None
390
0
100
AcDbBlockBegin
  2
Group-6
 70
               0
 10
0.0
 20
0.0
 30
0.0
  3
Group-6
  1

  0
POLYLINE
  5
2E1
100
AcDbEntity
  8
None
370
              13
390
0
  6
Continuous
 62
             115
100
AcDb2dPolyline
 66
               1
 10
0.0
 20
0.0
 30
0.0
 70
               1
 75
               5
  0
VERTEX
  5
2E2
100
AcDbEntity
  8
None
370
              13
390
0
  6
Continuous
 62
             115
100
AcDbVertex
100
AcDb2dVertex
 10
-3.7017848922944108
 20
19.433634381016244
 30
0.0
  0
VERTEX
  5
2E3
100
AcDbEntity
  8
None
370
              13
390
0
  6
Continuous
 62
             115
100
AcDbVertex
100
AcDb2dVertex
 10
4.7982151077055892
 20
19.433634381016244
 30
0.0
  0
VERTEX
  5
2E4
100
AcDbEntity
  8
None
370
              13
390
0
  6
Continuous
 62
             115
100
AcDbVertex
100
AcDb2dVertex
 10
4.7982151077055892
 20
15.433634381016189
 30
0.0
  0
VERTEX
  5
2E5
100
AcDbEntity
  8
None
370
              13
390
0
  6
Continuous
 62
             115
100
AcDbVertex
100
AcDb2dVertex
 10
-3.7017848922944108
 20
15.433634381016189
 30
0.0
  0
SEQEND
  5
2E6
100
AcDbEntity
  8
None
370
              13
390
0
  6
Continuous
 62
             115
  0
POLYLINE
  5
2E7
100
AcDbEntity
  8
None
370
              13
390
0
  6
Continuous
 62
             115
100
AcDb2dPolyline
 66
               1
 10
0.0
 20
0.0
 30
0.0
 70
               1
 75
               5
  0
VERTEX
  5
2E8
100
AcDbEntity
  8
None
370
              13
390
0
  6
Continuous
 62
             115
100
AcDbVertex
100
AcDb2dVertex
 10
-3.7017848922944108
 20
15.433634381016189
 30
0.0
  0
VERTEX
  5
2E9
100
AcDbEntity
  8
None
370
              13
390
0
  6
Continuous
 62
             115
100
AcDbVertex
100
AcDb2dVertex
 10
4.7982151077055892
 20
15.433634381016189
 30
0.0
  0
VERTEX
  5
2EA
100
AcDbEntity
  8
None
370
              13
390
0
  6
Continuous
 62
             115
100
AcDbVertex
100
AcDb2dVertex
 10
4.7982151077055892
 20
13.433634381016176
 30
0.0
  0
VERTEX
  5
2EB
100
AcDbEntity
  8
None
370
              13
390
0
  6
Continuous
 62
             115
100
AcDbVertex
100
AcDb2dVertex
 10
-3.7017848922944108
 20
13.433634381016176
 30
0.0
  0
SEQEND
  5
2EC
100
AcDbEntity
  8
None
370
              13
390
0
  6
Continuous
 62
             115
  0
LINE
  5
2ED
100
AcDbEntity
  8
None
370
              13
390
0
  6
STYLE_12
 62
             115
100
AcDbLine
 10
-3.7017848922944108
 20
18.183634381016233
 30
0.0
 11
4.7982151077055892
 21
18.183634381016233
 31
0.0
  0
LINE
  5
2EE
100
AcDbEntity
  8
None
370
              13
390
0
  6
STYLE_12
 62
             115
100
AcDbLine
 10
-3.7017848922944108
 20
14.683634381016189
 30
0.0
 11
4.7982151077055892
 21
14.683634381016189
 31
0.0
  0
LINE
  5
2EF
100
AcDbEntity
  8
None
370
              13
390
0
  6
STYLE_12
 62
             115
100
AcDbLine
 10
-3.7017848922944108
 20
18.433634381016223
 30
0.0
 11
4.7982151077055892
 21
18.433634381016223
 31
0.0
  0
INSERT
  5
2F0
100
AcDbEntity
  8
None
390
0
 62
             115
100
AcDbBlockReference
  2
Group-5
 10
0.0
 20
0.0
 30
0.0
  0
ENDBLK
  5
2F1
100
AcDbEntity
  8
None
390
0
100
AcDbBlockEnd
  0
BLOCK
  5
2F2
100
AcDbEntity
  8
Dimension
390
0
100
AcDbBlockBegin
  2
*D24
 70
               1
 10
0.0
 20
0.0
 30
0.0
  3
*D24
  1

  0
LINE
  5
2F3
100
AcDbEntity
  8
Dimension
370
              -2
390
0
  6
Continuous
 62
               0
100
AcDbLine
 10
32.138876708888361
 20
-142.04293301898383
 30
0.0
 11
41.852500002365559
 21
-142.04293301898383
 31
0.0
  0
LINE
  5
2F4
100
AcDbEntity
  8
Dimension
370
              -2
390
0
  6
Continuous
 62
               0
100
AcDbLine
 10
32.138876708888361
 20
-136.04293301898375
 30
0.0
 11
41.852500002365559
 21
-136.04293301898375
 31
0.0
  0
LINE
  5
2F5
100
AcDbEntity
  8
Dimension
370
              -2
390
0
  6
Continuous
 62
               0
100
AcDbLine
 10
40.900000000000006
 20
-142.04293301898383
 30
0.0
 11
40.900000000000006
 21
-136.04293301898375
 31
0.0
  0
SOLID
  5
2F6
100
AcDbEntity
  8
Dimension
370
              -2
390
0
 62
               0
100
AcDbTrace
 10
40.900000000000006
 20
-142.04293301898383
 30
0.0
 11
40.6873153285078
 21
-141.24918301898381
 31
0.0
 12
41.112684671492204
 22
-141.24918301898381
 32
0.0
 13
41.112684671492204
 23
-141.24918301898381
 33
0.0
  0
SOLID
  5
2F7
100
AcDbEntity
  8
Dimension
370
              -2
390
0
 62
               0
100
AcDbTrace
 10
40.900000000000006
 20
-136.04293301898375
 30
0.0
 11
41.112684671492204
 21
-136.83668301898376
 31
0.0
 12
40.6873153285078
 22
-136.83668301898376
 32
0.0
 13
40.6873153285078
 23
-136.83668301898376
 33
0.0
  0
WIPEOUT
  5
2F8
100
AcDbEntity
  8
Dimension
370
              -2
390
0
  6
Continuous
 62
               0
 92
        0
100
AcDbWipeout
 90
        0
 10
40.011000006728707
 20
42.385233481016201
 30
0.0
 11
1.7779999865425964
 21
0.0
 31
0.0
 12
0.0
 22
1.7779999865425964
 32
0.0
 13
1.0
 23
1.0
340
0
 70
               7
280
               1
281
              50
282
              50
283
               0
360
0
 71
               2
 91
        5
 14
-0.5
 24
103.05398221603504
 14
0.5
 24
103.05398221603504
 14
0.5
 24
102.54058935500639
 14
-0.5
 24
102.54058935500639
 14
-0.5
 24
103.05398221603504
  0
MTEXT
  5
2F9
100
AcDbEntity
  8
Dimension
390
0
 62
               0
100
AcDbMText
 10
40.011000006728707
 20
-139.18886726377545
 30
0.0
 40
0.5684407552083333
 41
0.0
 71
               1
 72
               1
  1
6mm
  7
Helvetica
 73
               1
 44
0.9673603504928806
  0
POINT
  5
2FA
100
AcDbEntity
  8
Defpoints
370
               0
390
0
 62
               0
100
AcDbPoint
 10
31.662626707705584
 20
-136.04293301898375
 30
0.0
  0
POINT
  5
2FB
100
AcDbEntity
  8
Defpoints
370
               0
390
0
 62
               0
100
AcDbPoint
 10
31.662626707705584
 20
-142.04293301898383
 30
0.0
  0
POINT
  5
2FC
100
AcDbEntity
  8
Defpoints
370
               0
390
0
 62
               0
100
AcDbPoint
 10
40.900000000000006
 20
-142.04293301898383
 30
0.0
  0
ENDBLK
  5
2FD
100
AcDbEntity
  8
Dimension
390
0
100
AcDbBlockEnd
  0
BLOCK
  5
2FE
100
AcDbEntity
  8
Dimension
390
0
100
AcDbBlockBegin
  2
*D25
 70
               1
 10
0.0
 20
0.0
 30
0.0
  3
*D25
  1

  0
LINE
  5
2FF
100
AcDbEntity
  8
Dimension
370
              -2
390
0
  6
Continuous
 62
               0
100
AcDbLine
 10
23.162626707705584
 20
-142.51918302016659
 30
0.0
 11
23.162626707705584
 21
-143.97458505037659
 31
0.0
  0
LINE
  5
300
100
AcDbEntity
  8
Dimension
370
              -2
390
0
  6
Continuous
 62
               0
100
AcDbLine
 10
31.662626707705584
 20
-142.51918302016659
 30
0.0
 11
31.662626707705584
 21
-143.97458505037659
 31
0.0
  0
LINE
  5
301
100
AcDbEntity
  8
Dimension
370
              -2
390
0
  6
Continuous
 62
               0
100
AcDbLine
 10
23.162626707705584
 20
-143.02208504801104
 30
0.0
 11
31.662626707705584
 21
-143.02208504801104
 31
0.0
  0
SOLID
  5
302
100
AcDbEntity
  8
Dimension
370
              -2
390
0
 62
               0
100
AcDbTrace
 10
23.162626707705584
 20
-143.02208504801104
 30
0.0
 11
23.956376707705584
 21
-142.80940037651882
 31
0.0
 12
23.956376707705584
 22
-143.23476971950322
 32
0.0
 13
23.956376707705584
 23
-143.23476971950322
 33
0.0
  0
SOLID
  5
303
100
AcDbEntity
  8
Dimension
370
              -2
390
0
 62
               0
100
AcDbTrace
 10
31.662626707705584
 20
-143.02208504801104
 30
0.0
 11
30.868876707705581
 21
-143.23476971950322
 31
0.0
 12
30.868876707705581
 22
-142.80940037651882
 32
0.0
 13
30.868876707705581
 23
-142.80940037651882
 33
0.0
  0
WIPEOUT
  5
304
100
AcDbEntity
  8
Dimension
370
              -2
390
0
  6
Continuous
 62
               0
 92
        0
100
AcDbWipeout
 90
        0
 10
26.190251653875965
 20
38.862487701988961
 30
0.0
 11
2.4447501076592335
 21
0.0
 31
0.0
 12
0.0
 22
2.4447501076592335
 32
0.0
 13
1.0
 23
1.0
340
0
 70
               7
280
               1
281
              50
282
              50
283
               0
360
0
 71
               2
 91
        5
 14
-0.5
 24
75.084710489934437
 14
0.5000000000000007
 24
75.084710489934437
 14
0.5000000000000007
 24
74.711333883000165
 14
-0.5
 24
74.711333883000165
 14
-0.5
 24
75.084710489934437
  0
MTEXT
  5
305
100
AcDbEntity
  8
Dimension
390
0
 62
               0
100
AcDbMText
 10
26.190251653875965
 20
-142.7116130428027
 30
0.0
 40
0.5684407552083333
 41
0.0
 71
               1
 72
               1
  1
8.5mm
  7
Helvetica
 73
               1
 44
0.9673603504928806
  0
POINT
  5
306
100
AcDbEntity
  8
Defpoints
370
               0
390
0
 62
               0
100
AcDbPoint
 10
31.662626707705584
 20
-142.04293301898383
 30
0.0
  0
POINT
  5
307
100
AcDbEntity
  8
Defpoints
370
               0
390
0
 62
               0
100
AcDbPoint
 10
23.162626707705584
 20
-142.04293301898383
 30
0.0
  0
POINT
  5
308
100
AcDbEntity
  8
Defpoints
370
               0
390
0
 62
               0
100
AcDbPoint
 10
23.162626707705584
 20
-143.02208504801104
 30
0.0
  0
ENDBLK
  5
309
100
AcDbEntity
  8
Dimension
390
0
100
AcDbBlockEnd
  0
ENDSEC
  0
SECTION
  2
ENTITIES
  0
WIPEOUT
  5
30A
100
AcDbEntity
  8
None
370
               9
390
0
  6
Continuous
 62
               7
 92
        0
100
AcDbWipeout
 90
        0
 10
48.03720659999999
 20
31.542986572565155
 30
0.0
 11
8.8900002691480822
 21
0.0
 31
0.0
 12
0.0
 22
8.8900002691480822
 32
0.0
 13
1.0
 23
1.0
340
0
 70
               7
280
               1
281
              50
282
              50
283
               0
360
0
 71
               2
 91
        5
 14
-0.5
 24
21.010795666991974
 14
0.5000000000000009
 24
21.010795666991974
 14
0.5000000000000009
 24
20.805438530352095
 14
-0.5
 24
20.805438530352095
 14
-0.5
 24
21.010795666991974
  0
MTEXT
  5
30B
100
AcDbEntity
  8
None
390
0
 62
               7
100
AcDbMText
 10
48.03720659999999
 20
-149.26423591701817
 30
0.0
 40
1.1368815104166665
 41
0.0
 71
               1
 72
               1
  1
PAGE 2 of 5
  7
Arial
 73
               1
 44
0.9673603504928806
  0
MTEXT
  5
30C
100
AcDbEntity
  8
None
390
0
 62
               7
100
AcDbMText
 10
47.014511599999992
 20
-146.01362487795569
 30
0.0
 40
0.5204840494791666
 41
12.317694200000009
 71
               1
 72
               1
  1
Recommended PCB Layout Tolerances:  ±0.025mm [±0.001"] unless stated otherwise.\P
  7
Helvetica
 73
               1
 44
0.9673603504928806
  0
MTEXT
  5
30D
100
AcDbEntity
  8
None
390
0
 62
               7
100
AcDbMText
 10
-5.0565734000000049
 20
-102.54747859149742
 30
0.0
 40
0.6124443359374999
 41
11.826889999999999
 71
               1
 72
               1
  1
{\LRecommended PCB Layout Top View}\P
  7
Helvetica
 73
               1
 44
0.9673603504928809
  0
WIPEOUT
  5
30E
100
AcDbEntity
  8
None
370
              15
390
0
  6
Continuous
 62
               1
 92
        0
100
AcDbWipeout
 90
        0
 10
-5.5888633999999975
 20
37.778671572565131
 30
0.0
 11
19.018251291910804
 21
0.0
 31
0.0
 12
0.0
 22
19.018251291910804
 32
0.0
 13
1.0
 23
1.0
340
0
 70
               7
280
               1
281
              50
282
              50
283
               0
360
0
 71
               2
 91
        5
 14
-0.5
 24
10.087683757105294
 14
0.5
 24
10.087683757105294
 14
0.5
 24
9.8906887788344182
 14
-0.5
 24
9.8906887788344182
 14
-0.5
 24
10.087683757105294
  0
MTEXT
  5
30F
100
AcDbEntity
  8
None
390
0
 62
               1
100
AcDbMText
 10
-5.5888633999999975
 20
-140.98555417222653
 30
0.0
 40
0.5684407552083333
 41
0.0
 71
               1
 72
               1
  1
{\LTarget PCB Recommendations}\PTotal thickness: 1mm min.\PPlating: Gold or Solder finish\PPCB Pad height: Same or higher than solder mask
  7
Arial (bold)
 73
               1
 44
0.9925958378970429
  0
WIPEOUT
  5
310
100
AcDbEntity
  8
None
370
               9
390
0
  6
Continuous
 62
               7
 92
        0
100
AcDbWipeout
 90
        0
 10
39.569716815351697
 20
37.215659822565129
 30
0.0
 11
19.385151269700792
 21
0.0
 31
0.0
 12
0.0
 22
19.385151269700792
 32
0.0
 13
1.0
 23
1.0
340
0
 70
               7
280
               1
281
              50
282
              50
283
               0
360
0
 71
               2
 91
        5
 14
-0.5
 24
9.9062190417363922
 14
0.4999999999999997
 24
9.9062190417363922
 14
0.4999999999999997
 24
9.8538987510206191
 14
-0.5
 24
9.8538987510206191
 14
-0.5
 24
9.9062190417363922
  0
MTEXT
  5
311
100
AcDbEntity
  8
None
390
0
 62
               7
100
AcDbMText
 10
39.569716815351697
 20
-144.2732316904557
 30
0.0
 40
0.6316012369791665
 41
0.0
 71
               1
 72
               1
  1
All dimensions are in mm unless stated otherwise
  7
Arial
 73
               1
 44
0.9673603504928809
  0
INSERT
  5
312
100
AcDbEntity
  8
AM_HID
390
0
 62
               7
100
AcDbBlockReference
  2
CBT-QFN-7000 TB
 10
20.633805799999998
 20
-148.29090372743485
 30
0.0
 41
0.5
 42
0.5
 43
0.5
  0
WIPEOUT
  5
313
100
AcDbEntity
  8
None
370
               5
390
0
  6
Continuous
 62
               7
 92
        0
100
AcDbWipeout
 90
        0
 10
31.451230799999998
 20
35.252533522565138
 30
0.0
 11
3.9422940889994305
 21
0.0
 31
0.0
 12
0.0
 22
3.9422940889994305
 32
0.0
 13
1.0
 23
1.0
340
0
 70
               7
280
               1
281
              50
282
              50
283
               0
360
0
 71
               2
 91
        5
 14
-0.5
 24
46.752505491359429
 14
0.4999999999999987
 24
46.752505491359429
 14
0.4999999999999987
 24
46.495234793866281
 14
-0.5
 24
46.495234793866281
 14
-0.5
 24
46.752505491359429
  0
MTEXT
  5
314
100
AcDbEntity
  8
None
390
0
 62
               7
100
AcDbMText
 10
31.451230799999998
 20
-146.23635799045567
 30
0.0
 40
0.6316012369791665
 41
0.0
 71
               1
 72
               1
  1
Scale: 4:1
  7
Arial
 73
               1
 44
0.9673603504928809
  0
WIPEOUT
  5
315
100
AcDbEntity
  8
None
370
               9
390
0
  6
STYLE_12
 62
               7
 92
        0
100
AcDbWipeout
 90
        0
 10
17.547626707705582
 20
50.087299961367052
 30
0.0
 11
19.729999999999997
 21
0.0
 31
0.0
 12
0.0
 22
19.729999999999997
 32
0.0
 13
1.0
 23
1.0
340
0
 70
               7
280
               1
281
              50
282
              50
283
               0
360
0
 71
               2
 91
        5
 14
-0.5
 24
8.7418134313228677
 14
0.5
 24
8.7418134313228677
 14
0.5
 24
9.7418134313228588
 14
-0.5
 24
9.7418134313228588
 14
-0.5
 24
8.7418134313228677
  0
POLYLINE
  5
316
100
AcDbEntity
  8
None
370
               9
390
0
  6
STYLE_12
 62
               7
100
AcDb2dPolyline
 66
               1
 10
0.0
 20
0.0
 30
0.0
 70
               1
 75
               5
  0
VERTEX
  5
317
100
AcDbEntity
  8
None
370
               9
390
0
  6
STYLE_12
 62
               7
100
AcDbVertex
100
AcDb2dVertex
 10
17.547626707705582
 20
-112.52367903863311
 30
0.0
  0
VERTEX
  5
318
100
AcDbEntity
  8
None
370
               9
390
0
  6
STYLE_12
 62
               7
100
AcDbVertex
100
AcDb2dVertex
 10
37.277626707705579
 20
-112.52367903863311
 30
0.0
  0
VERTEX
  5
319
100
AcDbEntity
  8
None
370
               9
390
0
  6
STYLE_12
 62
               7
100
AcDbVertex
100
AcDb2dVertex
 10
37.277626707705579
 20
-132.25367903863292
 30
0.0
  0
VERTEX
  5
31A
100
AcDbEntity
  8
None
370
               9
390
0
  6
STYLE_12
 62
               7
100
AcDbVertex
100
AcDb2dVertex
 10
17.547626707705582
 20
-132.25367903863292
 30
0.0
  0
SEQEND
  5
31B
100
AcDbEntity
  8
None
370
               9
390
0
  6
STYLE_12
 62
               7
  0
WIPEOUT
  5
31C
100
AcDbEntity
  8
None
370
              13
390
0
  6
STYLE_12
 62
               5
 92
        0
100
AcDbWipeout
 90
        0
 10
11.15550267192026
 20
40.33979996136695
 30
0.0
 11
39.225000000000009
 21
0.0
 31
0.0
 12
0.0
 22
39.225000000000009
 32
0.0
 13
1.0
 23
1.0
340
0
 70
               7
280
               1
281
              50
282
              50
283
               0
360
0
 71
               2
 91
       81
 14
-0.3776290630975143
 24
4.1485909241555117
 14
-0.3776290630975143
 24
4.378036430847672
 14
-0.3786087811139206
 24
4.387983674800056
 14
-0.3815102851492014
 24
4.3975486517458293
 14
-0.3862220720304629
 24
4.4063637849850643
 14
-0.3925630704302588
 24
4.4140903138909637
 14
-0.4002895993361579
 24
4.4204313122907593
 14
-0.4091047325753937
 24
4.4251430991720202
 14
-0.4186697095211661
 24
4.4280446032073009
 14
-0.4286169534735499
 24
4.4290243212237081
 14
-0.4490121096239643
 24
4.4290243212237081
 14
-0.4589593535763482
 24
4.4300040392401154
 14
-0.4685243305221206
 24
4.4329055432753961
 14
-0.4773394637613564
 24
4.437617330156657
 14
-0.4850659926672555
 24
4.4439583285564535
 14
-0.4914069910670514
 24
4.4516848574623529
 14
-0.4961187779483129
 24
4.4604999907015888
 14
-0.4990202819835937
 24
4.4700649676473603
 14
-0.5
 24
4.4800122115997443
 14
-0.5
 24
4.8171696367112773
 14
-0.4990202819835937
 24
4.8271168806636604
 14
-0.4961187779483129
 24
4.8366818576094337
 14
-0.4914069910670514
 24
4.8454969908486696
 14
-0.4850659926672555
 24
4.853223519754569
 14
-0.4773394637613564
 24
4.8595645181543645
 14
-0.4685243305221206
 24
4.8642763050356255
 14
-0.4589593535763482
 24
4.867177809070907
 14
-0.4490121096239643
 24
4.8681575270873134
 14
-0.4286169534735499
 24
4.8681575270873134
 14
-0.4186697095211661
 24
4.8691372451037189
 14
-0.4091047325753937
 24
4.8720387491390005
 14
-0.4002895993361579
 24
4.8767505360202614
 14
-0.3925630704302588
 24
4.8830915344200569
 14
-0.3862220720304629
 24
4.8908180633259564
 14
-0.3815102851492014
 24
4.8996331965651923
 14
-0.3786087811139206
 24
4.9091981735109638
 14
-0.3776290630975143
 24
4.9191454174633487
 14
-0.3776290630975143
 24
5.1485909241555126
 14
-0.1991714467813894
 24
5.1485909241555126
 14
-0.1991714467813894
 24
5.1428547864882086
 14
0.0302740599107713
 24
5.1428547864882086
 14
0.0302740599107713
 24
5.1485909241555126
 14
0.2087316762268959
 24
5.1485909241555126
 14
0.2087316762268959
 24
4.9191454174633487
 14
0.2097113942433021
 24
4.9091981735109638
 14
0.212612898278583
 24
4.8996331965651923
 14
0.2173246851598445
 24
4.8908180633259564
 14
0.2236656835596405
 24
4.8830915344200569
 14
0.2313922124655395
 24
4.8767505360202614
 14
0.2402073457047752
 24
4.8720387491390005
 14
0.2497723226505477
 24
4.8691372451037189
 14
0.2597195666029316
 24
4.8681575270873134
 14
0.2801147227533458
 24
4.8681575270873134
 14
0.2900619667057296
 24
4.867177809070907
 14
0.2996269436515019
 24
4.8642763050356255
 14
0.3084420768907378
 24
4.8595645181543645
 14
0.3161686057966369
 24
4.853223519754569
 14
0.3225096041964326
 24
4.8454969908486696
 14
0.3272213910776943
 24
4.8366818576094337
 14
0.330122895112975
 24
4.8271168806636604
 14
0.3311026131293815
 24
4.8171696367112773
 14
0.3311026131293815
 24
4.4800122115997443
 14
0.3301228951129752
 24
4.4700649676473594
 14
0.3272213910776943
 24
4.460499990701587
 14
0.3225096041964328
 24
4.451684857462352
 14
0.3161686057966369
 24
4.4439583285564517
 14
0.3084420768907378
 24
4.4376173301566562
 14
0.2996269436515021
 24
4.4329055432753961
 14
0.2900619667057296
 24
4.4300040392401137
 14
0.2801147227533458
 24
4.4290243212237081
 14
0.2597195666029316
 24
4.4290243212237081
 14
0.2497723226505477
 24
4.4280446032073009
 14
0.2402073457047752
 24
4.4251430991720202
 14
0.2313922124655395
 24
4.4204313122907593
 14
0.2236656835596405
 24
4.4140903138909637
 14
0.2173246851598445
 24
4.4063637849850643
 14
0.212612898278583
 24
4.3975486517458293
 14
0.2097113942433021
 24
4.387983674800056
 14
0.2087316762268959
 24
4.378036430847672
 14
0.2087316762268959
 24
4.1485909241555117
 14
-0.3776290630975143
 24
4.1485909241555117
  0
LWPOLYLINE
  5
31D
102
{ACAD_REACTORS
330
31E
102
}
100
AcDbEntity
  8
None
370
              13
390
0
  6
STYLE_12
 62
               5
100
AcDbPolyline
 90
       24
 70
             129
 10
15.955502671920264
 20
-102.77617903863302
 10
15.955502671920264
 20
-111.77617903863302
 42
-0.414213562373095
 10
13.955502671920264
 20
-113.77617903863302
 10
13.15550267192026
 20
-113.77617903863302
 42
0.4142135623730992
 10
11.15550267192026
 20
-115.77617903863305
 10
11.15550267192026
 20
-129.00117903863293
 42
0.4142135623730945
 10
13.15550267192026
 20
-131.00117903863293
 10
13.955502671920264
 20
-131.00117903863293
 42
-0.4142135623730945
 10
15.955502671920264
 20
-133.00117903863293
 10
15.955502671920264
 20
-142.00117903863304
 10
22.955502671920264
 20
-142.00117903863304
 10
22.955502671920264
 20
-141.77617903863307
 10
31.955502671920268
 20
-141.77617903863307
 10
31.955502671920268
 20
-142.00117903863304
 10
38.955502671920257
 20
-142.00117903863304
 10
38.955502671920257
 20
-133.00117903863293
 42
-0.4142135623730955
 10
40.955502671920257
 20
-131.00117903863293
 10
41.755502671920254
 20
-131.00117903863293
 42
0.4142135623730935
 10
43.755502671920254
 20
-129.00117903863293
 10
43.755502671920254
 20
-115.77617903863302
 42
0.414213562373095
 10
41.755502671920254
 20
-113.77617903863302
 10
40.955502671920257
 20
-113.77617903863302
 42
-0.414213562373095
 10
38.955502671920257
 20
-111.77617903863302
 10
38.955502671920257
 20
-102.77617903863302
  0
HATCH
  5
31E
100
AcDbEntity
  8
None
370
               5
390
0
  6
Continuous
 62
               7
100
AcDbHatch
 10
0.0
 20
0.0
 30
0.0
210
0.0
220
0.0
230
1.0
  2
Hatch_Name-2
 70
               0
 71
               1
 91
        1
 92
        1
 93
       24
 72
               1
 10
15.955502671920264
 20
-102.77617903863302
 11
15.955502671920264
 21
-111.77617903863302
 72
               2
 10
13.955502671920264
 20
-111.77617903863302
 40
2.0
 50
360.0
 51
450.0
 73
               0
 72
               1
 10
13.955502671920264
 20
-113.77617903863302
 11
13.15550267192026
 21
-113.77617903863302
 72
               2
 10
13.15550267192026
 20
-115.77617903863302
 40
2.0
 50
90.0
 51
180.0000000000008
 73
               1
 72
               1
 10
11.15550267192026
 20
-115.77617903863305
 11
11.15550267192026
 21
-129.00117903863293
 72
               2
 10
13.155502671920262
 20
-129.00117903863293
 40
2.0000000000000018
 50
180.0
 51
269.99999999999994
 73
               1
 72
               1
 10
13.15550267192026
 20
-131.00117903863293
 11
13.955502671920264
 21
-131.00117903863293
 72
               2
 10
13.955502671920263
 20
-133.00117903863293
 40
2.0000000000000018
 50
270.00000000000006
 51
360.0
 73
               0
 72
               1
 10
15.955502671920264
 20
-133.00117903863293
 11
15.955502671920264
 21
-142.00117903863304
 72
               1
 10
15.955502671920264
 20
-142.00117903863304
 11
22.955502671920264
 21
-142.00117903863304
 72
               1
 10
22.955502671920264
 20
-142.00117903863304
 11
22.955502671920264
 21
-141.77617903863307
 72
               1
 10
22.955502671920264
 20
-141.77617903863307
 11
31.955502671920268
 21
-141.77617903863307
 72
               1
 10
31.955502671920268
 20
-141.77617903863307
 11
31.955502671920268
 21
-142.00117903863304
 72
               1
 10
31.955502671920268
 20
-142.00117903863304
 11
38.955502671920257
 21
-142.00117903863304
 72
               1
 10
38.955502671920257
 20
-142.00117903863304
 11
38.955502671920257
 21
-133.00117903863293
 72
               2
 10
40.955502671920257
 20
-133.00117903863293
 40
1.9999999999999984
 50
180.0
 51
270.0
 73
               0
 72
               1
 10
40.955502671920257
 20
-131.00117903863293
 11
41.755502671920254
 21
-131.00117903863293
 72
               2
 10
41.755502671920247
 20
-129.00117903863293
 40
2.0000000000000053
 50
-89.999999999999801
 51
0.0
 73
               1
 72
               1
 10
43.755502671920254
 20
-129.00117903863293
 11
43.755502671920254
 21
-115.77617903863302
 72
               2
 10
41.755502671920254
 20
-115.77617903863302
 40
2.0
 50
0.0
 51
90.0
 73
               1
 72
               1
 10
41.755502671920254
 20
-113.77617903863302
 11
40.955502671920257
 21
-113.77617903863302
 72
               2
 10
40.955502671920257
 20
-111.77617903863302
 40
2.0
 50
450.0
 51
540.0
 73
               0
 72
               1
 10
38.955502671920257
 20
-111.77617903863302
 11
38.955502671920257
 21
-102.77617903863302
 72
               1
 10
38.955502671920257
 20
-102.77617903863302
 11
15.955502671920264
 21
-102.77617903863302
 97
        1
330
31D
 75
               0
 76
               2
 52
0.0
 41
1.0
 77
               0
 78
               1
 53
45.0
 43
0.0
 44
0.0
 45
0.7937499999999998
 46
-0.3527777777777778
 79
               0
 98
        1
 10
0.0
 20
0.0
  0
INSERT
  5
31F
100
AcDbEntity
  8
None
390
0
 62
               7
100
AcDbBlockReference
  2
Group-1
 10
26.864411599999993
 20
-155.47656739999999
 30
0.0
  0
WIPEOUT
  5
320
100
AcDbEntity
  8
None
370
               9
390
0
  6
Continuous
 62
              12
 92
        0
100
AcDbWipeout
 90
        0
 10
-3.405943292294328
 20
64.123837961366846
 30
0.0
 11
4.9901799999999987
 21
0.0
 31
0.0
 12
0.0
 22
4.9901799999999987
 32
0.0
 13
1.0
 23
1.0
340
0
 70
               7
280
               1
281
              50
282
              50
283
               0
360
0
 71
               2
 91
        5
 14
-0.5
 24
37.039960281993849
 14
0.5
 24
37.039960281993849
 14
0.5
 24
36.633469534165116
 14
-0.5
 24
36.633469534165116
 14
-0.5
 24
37.039960281993849
  0
MTEXT
  5
321
100
AcDbEntity
  8
None
390
0
 62
              12
100
AcDbMText
 10
-3.405943292294328
 20
-116.35082738238314
 30
0.0
 40
0.6315976562499999
 41
4.9901799999999996
 71
               1
 72
               1
  1
Socket Body Size
  7
New Century Schlbk
 73
               1
 44
0.9673603504928808
  0
LINE
  5
322
100
AcDbEntity
  8
None
370
               9
390
0
  6
Continuous
 62
              12
100
AcDbLine
 10
-0.284303292294414
 20
-117.35429903863314
 30
0.0
 11
3.090066707705585
 21
-120.72867903863305
 31
0.0
  0
LINE
  5
323
100
AcDbEntity
  8
None
370
               9
390
0
  6
Continuous
 62
              12
100
AcDbLine
 10
3.090066707705585
 20
-120.72867903863305
 30
0.0
 11
18.884756707705581
 21
-120.72867903863305
 31
0.0
  0
SOLID
  5
324
100
AcDbEntity
  8
None
370
               9
390
0
 62
              12
100
AcDbTrace
 10
18.884756707705581
 20
-120.72867903863305
 30
0.0
 11
18.091006707705581
 21
-120.94136371012524
 31
0.0
 12
18.091006707705581
 22
-120.51599436714085
 32
0.0
 13
18.091006707705581
 23
-120.51599436714085
 33
0.0
  0
WIPEOUT
  5
325
100
AcDbEntity
  8
None
370
               9
390
0
  6
Continuous
 62
              12
 92
        0
100
AcDbWipeout
 90
        0
 10
46.673993080572671
 20
50.089048961367034
 30
0.0
 11
10.098212750752765
 21
0.0
 31
0.0
 12
0.0
 22
10.098212750752765
 32
0.0
 13
1.0
 23
1.0
340
0
 70
               7
280
               1
281
              50
282
              50
283
               0
360
0
 71
               2
 91
        5
 14
-0.5
 24
18.556757517453523
 14
0.5
 24
18.556757517453523
 14
0.5
 24
18.456320833751807
 14
-0.5
 24
18.456320833751807
 14
-0.5
 24
18.556757517453523
  0
MTEXT
  5
326
100
AcDbEntity
  8
None
390
0
 62
              12
100
AcDbMText
 10
46.673993080572671
 20
-131.39984738238294
 30
0.0
 40
0.6315976562499999
 41
0.0
 71
               1
 72
               1
  1
Non plated mounting hole
  7
Arial
 73
               1
 44
0.9673603504928808
  0
WIPEOUT
  5
327
100
AcDbEntity
  8
None
370
               9
390
0
  6
Continuous
 62
              12
 92
        0
100
AcDbWipeout
 90
        0
 10
46.916152111490021
 20
61.246608961366917
 30
0.0
 11
10.292239586512245
 21
0.0
 31
0.0
 12
0.0
 22
10.292239586512245
 32
0.0
 13
1.0
 23
1.0
340
0
 70
               7
280
               1
281
              50
282
              50
283
               0
360
0
 71
               2
 91
        5
 14
-0.5
 24
18.216355849212242
 14
0.5
 24
18.216355849212242
 14
0.5
 24
18.117812573817726
 14
-0.5
 24
18.117812573817726
 14
-0.5
 24
18.216355849212242
  0
MTEXT
  5
328
100
AcDbEntity
  8
None
390
0
 62
              12
100
AcDbMText
 10
46.916152111490021
 20
-120.24228738238307
 30
0.0
 40
0.6315976562499999
 41
0.0
 71
               1
 72
               1
  1
Non plated alignment hole
  7
Arial
 73
               1
 44
0.9673603504928808
  0
DIMENSION
  5
329
100
AcDbEntity
  8
Dimension
370
               9
390
0
  6
Continuous
 62
              12
100
AcDbDimension
  2
*D6
 10
20.05012670770558
 20
-108.80987985570965
 30
0.0
 11
13.000125107705589
 21
-108.80987985570965
 31
0.0
 70
             128
 71
               5
 72
               1
 41
1.0
 42
0.0
  3
IE Standard
100
AcDbAlignedDimension
 13
18.80012670770558
 23
-113.7761790386331
 33
0.0
 14
20.05012670770558
 24
-115.0261790386331
 34
0.0
100
AcDbRotatedDimension
1001
ACAD
1000
DSTYLE
1002
{
1070
             340
1005
3C
1070
              71
1070
               1
1070
              47
1040
0.125
1070
              48
1040
0.125
1070
               3
1000
<>mm (x4)
1070
             174
1070
               0
1070
             147
1040
0.09921875
1002
}
  0
DIMENSION
  5
32A
100
AcDbEntity
  8
Dimension
370
               9
390
0
  6
Continuous
 62
              12
100
AcDbDimension
  2
*D7
 10
10.524864841375088
 20
-113.7761790386331
 30
0.0
 11
10.524864841375088
 21
-110.94580320529977
 31
0.0
 70
             128
 71
               5
 72
               1
 41
1.0
 42
0.0
  3
IE Standard
100
AcDbAlignedDimension
 13
20.05012670770558
 23
-115.0261790386331
 33
0.0
 14
18.80012670770558
 24
-113.7761790386331
 34
0.0
 50
90.0
100
AcDbRotatedDimension
1001
ACAD
1000
DSTYLE
1002
{
1070
             340
1005
3C
1070
              71
1070
               1
1070
              47
1040
0.125
1070
              48
1040
0.125
1070
               3
1000
<>mm (x4)
1070
             174
1070
               0
1070
             147
1040
0.09921875
1002
}
  0
DIMENSION
  5
32B
100
AcDbEntity
  8
Dimension
370
               9
390
0
  6
Continuous
 62
              12
100
AcDbDimension
  2
*D8
 10
18.80012670770558
 20
-134.22208584801092
 30
0.0
 11
39.899999999999999
 21
-134.22208584801092
 31
0.0
 70
             128
 71
               5
 72
               1
 41
1.0
 42
0.0
  3
IE Standard
100
AcDbAlignedDimension
 13
36.025126707705581
 23
-131.00117903863293
 33
0.0
 14
18.80012670770558
 24
-131.00117903863293
 34
0.0
100
AcDbRotatedDimension
1001
ACAD
1000
DSTYLE
1002
{
1070
             271
1070
               3
1070
             340
1005
3D
1070
              71
1070
               1
1070
              47
1040
0.125
1070
              48
1040
0.125
1070
               3
1000
<>mm (x4)
1070
             174
1070
               0
1070
             147
1040
0.09921875
1002
}
  0
WIPEOUT
  5
32C
100
AcDbEntity
  8
None
370
               9
390
0
  6
STYLE_12
 62
               7
 92
        0
100
AcDbWipeout
 90
        0
 10
18.80012670770558
 20
51.339799961367049
 30
0.0
 11
17.224999999999998
 21
0.0
 31
0.0
 12
0.0
 22
17.224999999999998
 32
0.0
 13
1.0
 23
1.0
340
0
 70
               7
280
               1
281
              50
282
              50
283
               0
360
0
 71
               2
 91
        5
 14
-0.5
 24
10.085833323657484
 14
0.5000000000000002
 24
10.085833323657484
 14
0.5000000000000002
 24
11.085833323657475
 14
-0.5
 24
11.085833323657475
 14
-0.5
 24
10.085833323657484
  0
POLYLINE
  5
32D
100
AcDbEntity
  8
None
370
               9
390
0
  6
STYLE_12
 62
               7
100
AcDb2dPolyline
 66
               1
 10
0.0
 20
0.0
 30
0.0
 70
               1
 75
               5
  0
VERTEX
  5
32E
100
AcDbEntity
  8
None
370
               9
390
0
  6
STYLE_12
 62
               7
100
AcDbVertex
100
AcDb2dVertex
 10
18.80012670770558
 20
-113.7761790386331
 30
0.0
  0
VERTEX
  5
32F
100
AcDbEntity
  8
None
370
               9
390
0
  6
STYLE_12
 62
               7
100
AcDbVertex
100
AcDb2dVertex
 10
36.025126707705581
 20
-113.7761790386331
 30
0.0
  0
VERTEX
  5
330
100
AcDbEntity
  8
None
370
               9
390
0
  6
STYLE_12
 62
               7
100
AcDbVertex
100
AcDb2dVertex
 10
36.025126707705581
 20
-131.00117903863293
 30
0.0
  0
VERTEX
  5
331
100
AcDbEntity
  8
None
370
               9
390
0
  6
STYLE_12
 62
               7
100
AcDbVertex
100
AcDb2dVertex
 10
18.80012670770558
 20
-131.00117903863293
 30
0.0
  0
SEQEND
  5
332
100
AcDbEntity
  8
None
370
               9
390
0
  6
STYLE_12
 62
               7
  0
CIRCLE
  5
333
100
AcDbEntity
  8
None
370
               9
390
0
  6
Continuous
 62
               7
100
AcDbCircle
 10
20.05012670770558
 20
-115.0261790386331
 30
0.0
 40
0.8050000000000015
  0
CIRCLE
  5
334
100
AcDbEntity
  8
None
370
               9
390
0
  6
Continuous
 62
               7
100
AcDbCircle
 10
34.775126707705581
 20
-129.75117903863293
 30
0.0
 40
0.8049999999999979
  0
CIRCLE
  5
335
100
AcDbEntity
  8
None
370
               9
390
0
  6
Continuous
 62
               7
100
AcDbCircle
 10
20.05012670770558
 20
-129.75117903863293
 30
0.0
 40
0.8050000000000015
  0
CIRCLE
  5
336
100
AcDbEntity
  8
None
370
               9
390
0
  6
Continuous
 62
               7
100
AcDbCircle
 10
34.775126707705581
 20
-115.0261790386331
 30
0.0
 40
0.8049999999999979
  0
CIRCLE
  5
337
100
AcDbEntity
  8
None
370
               9
390
0
  6
Continuous
 62
               7
100
AcDbCircle
 10
34.775126707705581
 20
-117.56617903863315
 30
0.0
 40
0.4249999999999989
  0
CIRCLE
  5
338
100
AcDbEntity
  8
None
370
               9
390
0
  6
Continuous
 62
               7
100
AcDbCircle
 10
20.05012670770558
 20
-124.67117903863294
 30
0.0
 40
0.4250000000000007
  0
DIMENSION
  5
339
100
AcDbEntity
  8
Dimension
370
               9
390
0
  6
Continuous
 62
              12
100
AcDbDimension
  2
*D9
 10
47.51728670770558
 20
-115.0261790386331
 30
0.0
 11
47.51728670770558
 21
-116.29617903863314
 31
0.0
 70
             128
 71
               5
 72
               1
 41
1.0
 42
0.0
  3
IE Standard
100
AcDbAlignedDimension
 13
34.775126707705581
 23
-117.56617903863315
 33
0.0
 14
34.775126707705581
 24
-115.0261790386331
 34
0.0
 50
90.0
100
AcDbRotatedDimension
1001
ACAD
1000
DSTYLE
1002
{
1070
             271
1070
               3
1070
             340
1005
3C
1070
             140
1040
0.6316008391203704
1070
             147
1040
0.09921875
1002
}
  0
DIMENSION
  5
33A
100
AcDbEntity
  8
Dimension
370
               9
390
0
  6
Continuous
 62
              12
100
AcDbDimension
  2
*D10
 10
7.1001251077055869
 20
-115.0261790386331
 30
0.0
 11
7.1001251077055869
 21
-116.58242903863311
 31
0.0
 70
             128
 71
               5
 72
               1
 41
1.0
 42
0.0
  3
IE Standard
100
AcDbAlignedDimension
 13
22.912626707705606
 23
-118.13867903863311
 33
0.0
 14
20.05012670770558
 24
-115.0261790386331
 34
0.0
 50
90.0
100
AcDbRotatedDimension
1001
ACAD
1000
DSTYLE
1002
{
1070
             271
1070
               4
1070
             340
1005
3C
1070
             147
1040
0.09921875
1002
}
  0
DIMENSION
  5
33B
100
AcDbEntity
  8
Dimension
370
               9
390
0
  6
Continuous
 62
              12
100
AcDbDimension
  2
*D11
 10
22.912626707705606
 20
-101.1505290386332
 30
0.0
 11
27.450125107705613
 21
-101.1505290386332
 31
0.0
 70
             128
 71
               5
 72
               1
 41
1.0
 42
0.0
  3
IE Standard
100
AcDbAlignedDimension
 13
20.05012670770558
 23
-115.0261790386331
 33
0.0
 14
22.912626707705606
 24
-118.13867903863311
 34
0.0
100
AcDbRotatedDimension
1001
ACAD
1000
DSTYLE
1002
{
1070
             271
1070
               4
1070
             340
1005
3C
1070
             174
1070
               0
1070
             147
1040
0.09921875
1002
}
  0
DIMENSION
  5
33C
100
AcDbEntity
  8
Dimension
370
               9
390
0
  6
Continuous
 62
              12
100
AcDbDimension
  2
*D12
 10
30.407627332786056
 20
-108.26987952237641
 30
0.0
 11
40.690125107705597
 21
-108.26987952237641
 31
0.0
 70
             128
 71
               5
 72
               1
 41
1.0
 42
0.0
  3
IE Standard
100
AcDbAlignedDimension
 13
30.907627332786056
 23
-117.64367841355261
 33
0.0
 14
30.407627332786056
 24
-117.64367841355261
 34
0.0
100
AcDbRotatedDimension
1001
ACAD
1000
DSTYLE
1002
{
1070
             340
1005
3C
1070
               3
1000
<>mm typ.
1070
             174
1070
               0
1070
             147
1040
0.09921875
1002
}
  0
DIMENSION
  5
33D
100
AcDbEntity
  8
Dimension
370
               9
390
0
  6
Continuous
 62
              12
100
AcDbDimension
  2
*D13
 10
34.357016965708588
 20
-117.48996064421814
 30
0.0
 11
46.937643092502697
 21
-119.50987952237662
 31
0.0
 70
               3
 71
               5
 72
               1
 41
1.0
 42
0.0
  3
IE Standard
100
AcDbDiametricDimension
 15
35.193236449702574
 25
-117.64239743304817
 35
0.0
 40
10.413232843017624
1001
ACAD
1000
DSTYLE
1002
{
1070
             271
1070
               3
1070
             172
1070
               0
1070
             289
1070
               0
1070
             342
1005
74
1070
             340
1005
3C
1070
             140
1040
0.6316008391203704
1070
              75
1070
               1
1070
              76
1070
               1
1070
              71
1070
               1
1070
              47
1040
0.025
1070
              48
1040
0.025
1070
               3
1000
mm (x2)
1070
             174
1070
               0
1070
             147
1040
0.09921875
1002
}
  0
DIMENSION
  5
33E
100
AcDbEntity
  8
Dimension
370
               9
390
0
  6
Continuous
 62
              12
100
AcDbDimension
  2
*D14
 10
33.973341697533449
 20
-129.6793055562959
 30
0.0
 11
45.990520277136298
 21
-130.62208504801094
 31
0.0
 70
               3
 71
               5
 72
               1
 41
1.0
 42
0.0
  3
IE Standard
100
AcDbDiametricDimension
 15
35.576911717877714
 25
-129.82305252096998
 35
0.0
 40
8.9493532712329902
1001
ACAD
1000
DSTYLE
1002
{
1070
             172
1070
               0
1070
             289
1070
               0
1070
             342
1005
74
1070
             340
1005
3C
1070
              75
1070
               1
1070
              76
1070
               1
1070
              71
1070
               1
1070
              47
1040
0.05
1070
              48
1040
0.05
1070
               3
1000
mm (x4)
1070
             174
1070
               0
1070
             147
1040
0.09921875
1002
}
  0
LINE
  5
33F
100
AcDbEntity
  8
AM_HID
370
               9
390
0
  6
Continuous
 62
              12
100
AcDbLine
 10
30.500125107705603
 20
-106.1098795223763
 30
0.0
 11
35.800512922547924
 21
-100.1098795223763
 31
0.0
  0
SOLID
  5
340
100
AcDbEntity
  8
AM_HID
370
               9
390
0
 62
              12
100
AcDbTrace
 10
30.500125107705603
 20
-106.1098795223763
 30
0.0
 11
30.738938932607134
 21
-105.6411810007647
 31
0.0
 12
30.941293207651061
 22
-105.82338160839521
 32
0.0
 13
30.941293207651061
 23
-105.82338160839521
 33
0.0
  0
LINE
  5
341
100
AcDbEntity
  8
AM_HID
370
               9
390
0
  6
Continuous
 62
              12
100
AcDbLine
 10
35.800512922547924
 20
-100.1098795223763
 30
0.0
 11
38.285231869002622
 21
-100.1098795223763
 31
0.0
  0
WIPEOUT
  5
342
100
AcDbEntity
  8
None
370
               9
390
0
  6
Continuous
 62
              12
 92
        0
100
AcDbWipeout
 90
        0
 10
39.081062585529956
 20
81.835458854582001
 30
0.0
 11
7.0907978057861314
 21
0.0
 31
0.0
 12
0.0
 22
7.0907978057861314
 32
0.0
 13
1.0
 23
1.0
340
0
 70
               7
280
               1
281
              50
282
              50
283
               0
360
0
 71
               2
 91
        5
 14
-0.5
 24
26.215157023827238
 14
0.5
 24
26.215157023827238
 14
0.5
 24
26.072122202107685
 14
-0.5
 24
26.072122202107685
 14
-0.5
 24
26.215157023827238
  0
MTEXT
  5
343
100
AcDbEntity
  8
None
390
0
 62
              12
100
AcDbMText
 10
39.081062585529956
 20
-99.65343748916797
 30
0.0
 40
0.6315976562499999
 41
0.0
 71
               1
 72
               1
  1
Keep out Area (A)
  7
Arial
 73
               1
 44
0.9673603504928808
  0
LINE
  5
344
100
AcDbEntity
  8
AM_HID
370
               9
390
0
  6
Continuous
 62
               5
100
AcDbLine
 10
37.642622172474226
 20
-105.80633650720547
 30
0.0
 11
39.822660121988989
 21
-103.62629855769072
 31
0.0
  0
SOLID
  5
345
100
AcDbEntity
  8
AM_HID
370
               9
390
0
 62
               5
100
AcDbTrace
 10
37.642622172474226
 20
-105.80633650720547
 30
0.0
 11
37.905638496646802
 21
-105.35077887051857
 31
0.0
 12
38.098179809161131
 22
-105.5433201830329
 32
0.0
 13
38.098179809161131
 23
-105.5433201830329
 33
0.0
  0
LINE
  5
346
100
AcDbEntity
  8
AM_HID
370
               9
390
0
  6
Continuous
 62
               5
100
AcDbLine
 10
39.822660121988989
 20
-103.62629855769072
 30
0.0
 11
42.30737906844368
 21
-103.62629855769072
 31
0.0
  0
WIPEOUT
  5
347
100
AcDbEntity
  8
None
370
               9
390
0
  6
Continuous
 62
               5
 92
        0
100
AcDbWipeout
 90
        0
 10
42.733060110197037
 20
78.171997068105483
 30
0.0
 11
7.0907978057861314
 21
0.0
 31
0.0
 12
0.0
 22
7.0907978057861314
 32
0.0
 13
1.0
 23
1.0
340
0
 70
               7
280
               1
281
              50
282
              50
283
               0
360
0
 71
               2
 91
        5
 14
-0.5
 24
26.215157023827238
 14
0.5
 24
26.215157023827238
 14
0.5
 24
26.072122202107685
 14
-0.5
 24
26.072122202107685
 14
-0.5
 24
26.215157023827238
  0
MTEXT
  5
348
100
AcDbEntity
  8
None
390
0
 62
               5
100
AcDbMText
 10
42.733060110197037
 20
-103.31689927564449
 30
0.0
 40
0.6315976562499999
 41
0.0
 71
               1
 72
               1
  1
Keep out Area (B)
  7
Arial
 73
               1
 44
0.9673603504928808
  0
WIPEOUT
  5
349
100
AcDbEntity
  8
None
370
               9
390
0
  6
Continuous
 62
              12
 92
        0
100
AcDbWipeout
 90
        0
 10
-6.2326528504695311
 20
45.371613024560645
 30
0.0
 11
19.746635988023538
 21
0.0
 31
0.0
 12
0.0
 22
19.746635988023538
 32
0.0
 13
1.0
 23
1.0
340
0
 70
               7
280
               1
281
              50
282
              50
283
               0
360
0
 71
               2
 91
        5
 14
-0.5
 24
9.7340274622265266
 14
0.5
 24
9.7340274622265266
 14
0.5
 24
9.6826652453600612
 14
-0.5
 24
9.6826652453600612
 14
-0.5
 24
9.7340274622265266
  0
MTEXT
  5
34A
100
AcDbEntity
  8
None
390
0
 62
              12
100
AcDbMText
 10
-6.2326528504695311
 20
-136.11728331918934
 30
0.0
 40
0.6315976562499999
 41
0.0
 71
               1
 72
               1
  1
Keep out Area (A): Max. component height 3.5mm
  7
Arial
 73
               1
 44
0.9673603504928808
  0
WIPEOUT
  5
34B
100
AcDbEntity
  8
None
370
               9
390
0
  6
Continuous
 62
               5
 92
        0
100
AcDbWipeout
 90
        0
 10
-6.3041856677890529
 20
44.023983977623708
 30
0.0
 11
19.693720128801129
 21
0.0
 31
0.0
 12
0.0
 22
19.693720128801129
 32
0.0
 13
1.0
 23
1.0
340
0
 70
               7
280
               1
281
              50
282
              50
283
               0
360
0
 71
               2
 91
        5
 14
-0.5
 24
9.7588387469432458
 14
0.5
 24
9.7588387469432458
 14
0.5
 24
9.7073385228430382
 14
-0.5
 24
9.7073385228430382
 14
-0.5
 24
9.7588387469432458
  0
MTEXT
  5
34C
100
AcDbEntity
  8
None
390
0
 62
               5
100
AcDbMText
 10
-6.3041856677890529
 20
-137.46491236612627
 30
0.0
 40
0.6315976562499999
 41
0.0
 71
               1
 72
               1
  1
Keep out Area (B): Max. Component height 10mm
  7
Arial
 73
               1
 44
0.9673603504928808
  0
WIPEOUT
  5
34D
100
AcDbEntity
  8
AM_HID
370
               9
390
0
  6
Continuous
 62
              12
 92
        0
100
AcDbWipeout
 90
        0
 10
50.38061055838088
 20
47.559784957962833
 30
0.0
 11
9.0752084679073732
 21
0.0
 31
0.0
 12
0.0
 22
9.0752084679073732
 32
0.0
 13
1.0
 23
1.0
340
0
 70
               7
280
               1
281
              50
282
              50
283
               0
360
0
 71
               2
 91
        5
 14
-0.5
 24
20.592208310675367
 14
0.5
 24
20.592208310675367
 14
0.5
 24
20.477533871170792
 14
-0.5
 24
20.477533871170792
 14
-0.5
 24
20.592208310675367
  0
MTEXT
  5
34E
100
AcDbEntity
  8
AM_HID
390
0
 62
              12
100
AcDbMText
 10
50.38061055838088
 20
-133.92910709180566
 30
0.0
 40
0.6316008391203704
 41
0.0
 71
               1
 72
               1
  1
 (No component area)
  7
Arial (bold)
 73
               1
 44
0.9925958378970426
  0
INSERT
  5
34F
100
AcDbEntity
  8
Dimension
390
0
 62
               5
100
AcDbBlockReference
  2
Group-2
 10
26.864411599999993
 20
-155.47656739999999
 30
0.0
  0
LINE
  5
350
100
AcDbEntity
  8
AM_HID
370
               9
390
0
  6
Continuous
 62
              12
100
AcDbLine
 10
30.487577957866634
 20
-125.1662087170658
 30
0.0
 11
44.842005509736488
 21
-127.59720747781952
 31
0.0
  0
SOLID
  5
351
100
AcDbEntity
  8
AM_HID
370
               9
390
0
 62
              12
100
AcDbTrace
 10
30.487577957866634
 20
-125.1662087170658
 30
0.0
 11
31.011608893171228
 21
-125.12036195088976
 31
0.0
 12
30.964325443297351
 22
-125.38851972052828
 32
0.0
 13
30.964325443297351
 23
-125.38851972052828
 33
0.0
  0
LINE
  5
352
100
AcDbEntity
  8
AM_HID
370
               9
390
0
  6
Continuous
 62
              12
100
AcDbLine
 10
44.842005509736488
 20
-127.62432514539128
 30
0.0
 11
46.292005509736484
 21
-127.62432514539128
 31
0.0
  0
WIPEOUT
  5
353
100
AcDbEntity
  8
None
370
               9
390
0
  6
Continuous
 62
              12
 92
        0
100
AcDbWipeout
 90
        0
 10
46.145070911644282
 20
52.997674819301139
 30
0.0
 11
8.8546779473622657
 21
0.0
 31
0.0
 12
0.0
 22
8.8546779473622657
 32
0.0
 13
1.0
 23
1.0
340
0
 70
               7
280
               1
281
              50
282
              50
283
               0
360
0
 71
               2
 91
        5
 14
-0.5
 24
21.092615573818566
 14
0.4999999999999996
 24
21.092615573818566
 14
0.4999999999999996
 24
20.863531917466695
 14
-0.5
 24
20.863531917466695
 14
-0.5
 24
21.092615573818566
  0
MTEXT
  5
354
100
AcDbEntity
  8
None
390
0
 62
              12
100
AcDbMText
 10
46.145070911644282
 20
-127.47699052444885
 30
0.0
 40
0.6315976562499999
 41
0.0
 71
               1
 72
               1
  1
Same size as \Pshown on the package
  7
Arial
 73
               1
 44
0.9673603504928808
  0
DIMENSION
  5
355
100
AcDbEntity
  8
Dimension
370
               9
390
0
  6
Continuous
 62
              12
100
AcDbDimension
  2
*D16
 10
20.05012670770558
 20
-132.0098795223762
 30
0.0
 11
27.800000000000001
 21
-132.0098795223762
 31
0.0
 70
             128
 71
               5
 72
               1
 41
1.0
 42
0.0
  3
IE Standard
100
AcDbAlignedDimension
 13
34.775126707705581
 23
-129.75117903863293
 33
0.0
 14
20.05012670770558
 24
-129.75117903863293
 34
0.0
100
AcDbRotatedDimension
1001
ACAD
1000
DSTYLE
1002
{
1070
             271
1070
               3
1070
             340
1005
3C
1070
               3
1000
<>mm (x4)
1070
             147
1040
0.09921875
1002
}
  0
DIMENSION
  5
356
100
AcDbEntity
  8
Dimension
370
               9
390
0
  6
Continuous
 62
              12
100
AcDbDimension
  2
*D17
 10
8.2001251077055919
 20
-129.75117903863293
 30
0.0
 11
8.2001251077055919
 21
-127.20987952237623
 31
0.0
 70
             128
 71
               5
 72
               1
 41
1.0
 42
0.0
  3
IE Standard
100
AcDbAlignedDimension
 13
20.05012670770558
 23
-124.67117903863294
 33
0.0
 14
20.05012670770558
 24
-129.75117903863293
 34
0.0
 50
90.0
100
AcDbRotatedDimension
1001
ACAD
1000
DSTYLE
1002
{
1070
             271
1070
               3
1070
             340
1005
3C
1070
             147
1040
0.09921875
1002
}
  0
WIPEOUT
  5
357
100
AcDbEntity
  8
AM_HID
370
               9
390
0
  6
Continuous
 62
               7
 92
        0
100
AcDbWipeout
 90
        0
 10
32.277626707705586
 20
59.067299961366956
 30
0.0
 11
0.269999999999996
 21
0.0
 31
0.0
 12
0.0
 22
0.269999999999996
 32
0.0
 13
1.0
 23
1.0
340
0
 70
               7
280
               1
281
              50
282
              50
283
               0
360
0
 71
               2
 91
        9
 14
-0.4330127018922089
 24
675.58695925926918
 14
-0.4829629131445354
 24
675.20754973671785
 14
-0.2499999999999868
 24
674.90394655737691
 14
0.1294095225512577
 24
674.85399634612463
 14
0.4330127018922352
 24
675.08695925926918
 14
0.4829629131445353
 24
675.46636878182039
 14
0.2499999999999868
 24
675.76997196116133
 14
-0.1294095225512578
 24
675.81992217241373
 14
-0.4330127018922089
 24
675.58695925926918
  0
CIRCLE
  5
358
100
AcDbEntity
  8
AM_HID
370
               9
390
0
  6
Continuous
 62
               7
100
AcDbCircle
 10
32.412626707705584
 20
-123.13867903863303
 30
0.0
 40
0.1349999999999984
  0
DIMENSION
  5
359
100
AcDbEntity
  8
Dimension
370
               9
390
0
  6
Continuous
 62
              12
100
AcDbDimension
  2
*D18
 10
32.278902290102991
 20
-123.12016471615442
 30
0.0
 11
48.150122109685128
 21
-125.10987952237598
 31
0.0
 70
               3
 71
               5
 72
               1
 41
1.0
 42
0.0
  3
IE Standard
100
AcDbDiametricDimension
 15
32.546351125308178
 25
-123.15719336111167
 35
0.0
 40
14.238308319141865
1001
ACAD
1000
DSTYLE
1002
{
1070
             172
1070
               0
1070
             289
1070
               0
1070
             342
1005
74
1070
             340
1005
3C
1070
             140
1040
0.6316008391203704
1070
              75
1070
               1
1070
              76
1070
               1
1070
               3
1000
mm (x221)
1070
             174
1070
               0
1070
             147
1040
0.09921875
1002
}
  0
INSERT
  5
35A
100
AcDbEntity
  8
AM_HID
390
0
 62
               7
100
AcDbBlockReference
  2
Group-4
 10
26.864411599999993
 20
-155.47656739999999
 30
0.0
  0
CIRCLE
  5
35B
102
{ACAD_REACTORS
330
35C
102
}
100
AcDbEntity
  8
None
370
               9
390
0
  6
Continuous
 62
             180
100
AcDbCircle
 10
33.300125107705597
 20
-115.40987952237633
 30
0.0
 40
0.2500014851955963
  0
HATCH
  5
35C
100
AcDbEntity
  8
None
370
               0
390
0
  6
Continuous
 62
             180
100
AcDbHatch
 10
0.0
 20
0.0
 30
0.0
210
0.0
220
0.0
230
1.0
  2
SOLID
 70
               1
 71
               1
 91
        1
 92
        1
 93
        1
 72
               2
 10
33.300125107705597
 20
-115.40987952237633
 40
0.2500014851955963
 50
0.0
 51
360.0
 73
               0
 97
        1
330
35B
 75
               0
 76
               1
 98
        1
 10
0.0
 20
0.0
  0
WIPEOUT
  5
35D
100
AcDbEntity
  8
None
370
               9
390
0
  6
Continuous
 62
              12
 92
        0
100
AcDbWipeout
 90
        0
 10
44.496139408601778
 20
71.962829918662834
 30
0.0
 11
6.5351752281188951
 21
0.0
 31
0.0
 12
0.0
 22
6.5351752281188951
 32
0.0
 13
1.0
 23
1.0
340
0
 70
               7
280
               1
281
              50
282
              50
283
               0
360
0
 71
               2
 91
        5
 14
-0.5
 24
28.401467464168608
 14
0.5
 24
28.401467464168608
 14
0.5
 24
28.246271778575345
 14
-0.5
 24
28.246271778575345
 14
-0.5
 24
28.401467464168608
  0
MTEXT
  5
35E
100
AcDbEntity
  8
None
390
0
 62
              12
100
AcDbMText
 10
44.496139408601778
 20
-109.52606642508715
 30
0.0
 40
0.6315976562499999
 41
0.0
 71
               1
 72
               1
  1
Orientation Mark
  7
New Century Schlbk
 73
               1
 44
0.9673603504928808
  0
LINE
  5
35F
100
AcDbEntity
  8
None
370
               9
390
0
  6
Continuous
 62
              12
100
AcDbLine
 10
41.075125107705588
 20
-109.80987952237631
 30
0.0
 11
44.525125107705591
 21
-109.80987952237631
 31
0.0
  0
LINE
  5
360
100
AcDbEntity
  8
None
370
               9
390
0
  6
Continuous
 62
              12
100
AcDbLine
 10
33.300125107705597
 20
-115.15987803718073
 30
0.0
 11
41.191003098630517
 21
-109.80987952237631
 31
0.0
  0
SOLID
  5
361
100
AcDbEntity
  8
None
370
               9
390
0
 62
              12
100
AcDbTrace
 10
33.300125107705597
 20
-115.15987803718073
 30
0.0
 11
33.645233576196219
 21
-114.76287615796468
 31
0.0
 12
33.797498748087634
 22
-114.9886185586748
 32
0.0
 13
33.797498748087634
 23
-114.9886185586748
 33
0.0
  0
WIPEOUT
  5
362
100
AcDbEntity
  8
None
370
               9
390
0
  6
Continuous
 62
              12
 92
        0
100
AcDbWipeout
 90
        0
 10
55.649361579829161
 20
56.151965487486009
 30
0.0
 11
3.5007635278764297
 21
0.0
 31
0.0
 12
0.0
 22
3.5007635278764297
 32
0.0
 13
1.0
 23
1.0
340
0
 70
               7
280
               1
281
              50
282
              50
283
               0
360
0
 71
               2
 91
        5
 14
-0.5
 24
52.586059954643211
 14
0.5
 24
52.586059954643211
 14
0.5
 24
52.00662578725445
 14
-0.5
 24
52.00662578725445
 14
-0.5
 24
52.586059954643211
  0
MTEXT
  5
363
100
AcDbEntity
  8
None
390
0
 62
              12
100
AcDbMText
 10
55.649361579829161
 20
-124.32269985626397
 30
0.0
 40
0.6315976562499999
 41
3.5007635278764333
 71
               1
 72
               1
  1
Circular pads
  7
Arial
 73
               1
 44
0.9673603504928808
  0
INSERT
  5
364
100
AcDbEntity
  8
None
390
0
 62
             115
100
AcDbBlockReference
  2
Group-6
 10
26.864411599999993
 20
-155.47656739999999
 30
0.0
  0
DIMENSION
  5
365
100
AcDbEntity
  8
Dimension
370
               9
390
0
  6
Continuous
 62
              12
100
AcDbDimension
  2
*D24
 10
40.900000000000006
 20
-142.04293301898383
 30
0.0
 11
40.900000000000006
 21
-139.49933926898379
 31
0.0
 70
             128
 71
               5
 72
               1
 41
1.0
 42
0.0
  3
IE Standard
100
AcDbAlignedDimension
 13
31.662626707705584
 23
-136.04293301898375
 33
0.0
 14
31.662626707705584
 24
-142.04293301898383
 34
0.0
 50
90.0
100
AcDbRotatedDimension
1001
ACAD
1000
DSTYLE
1002
{
1070
             340
1005
3C
1070
             140
1040
0.5684407552083333
1070
             147
1040
0.09921875
1002
}
  0
DIMENSION
  5
366
100
AcDbEntity
  8
Dimension
370
               9
390
0
  6
Continuous
 62
              12
100
AcDbDimension
  2
*D25
 10
23.162626707705584
 20
-143.02208504801104
 30
0.0
 11
27.412626707705584
 21
-143.02208504801104
 31
0.0
 71
               5
 72
               1
 41
1.0
 42
0.0
  3
IE Standard
100
AcDbAlignedDimension
 13
31.662626707705584
 23
-142.04293301898383
 33
0.0
 14
23.162626707705584
 24
-142.04293301898383
 34
0.0
100
AcDbRotatedDimension
1001
ACAD
1000
DSTYLE
1002
{
1070
             340
1005
3C
1070
             140
1040
0.5684407552083333
1070
             147
1040
0.09921875
1002
}
  0
LINE
  5
367
100
AcDbEntity
  8
AM_HID
370
               9
390
0
  6
Continuous
 62
               7
100
AcDbLine
 10
31.662626707705584
 20
-138.92208504801101
 30
0.0
 11
45.700000000000003
 21
-138.92208504801101
 31
0.0
  0
SOLID
  5
368
100
AcDbEntity
  8
AM_HID
370
               9
390
0
 62
               7
100
AcDbTrace
 10
31.662626707705584
 20
-138.92208504801101
 30
0.0
 11
32.170735228213395
 21
-138.78593778027357
 31
0.0
 12
32.170735228213395
 22
-139.05823231574846
 32
0.0
 13
32.170735228213395
 23
-139.05823231574846
 33
0.0
  0
WIPEOUT
  5
369
100
AcDbEntity
  8
AM_HID
370
               9
390
0
  6
Continuous
 62
               7
 92
        0
100
AcDbWipeout
 90
        0
 10
45.700000000000003
 20
43.007443950544356
 30
0.0
 11
12.548837015363905
 21
0.0
 31
0.0
 12
0.0
 22
12.548837015363905
 32
0.0
 13
1.0
 23
1.0
340
0
 70
               7
280
               1
281
              50
282
              50
283
               0
360
0
 71
               2
 91
        5
 14
-0.5
 24
15.030508187870689
 14
0.4999999999999997
 24
15.030508187870689
 14
0.4999999999999997
 24
14.949907093107383
 14
-0.5
 24
14.949907093107383
 14
-0.5
 24
15.030508187870689
  0
MTEXT
  5
36A
100
AcDbEntity
  8
AM_HID
390
0
 62
               7
100
AcDbMText
 10
45.700000000000003
 20
-138.50539250325164
 30
0.0
 40
0.6138522916606474
 41
0.0
 71
               1
 72
               1
  1
{\C12;\lMax. component height 2.8mm}
  7
Arial (bold)
 73
               1
 44
0.9925958378970429
  0
ENDSEC
  0
SECTION
  2
OBJECTS
  0
DICTIONARY
  5
19
100
AcDbDictionary
280
               0
281
               1
  3
ACAD_GROUP
350
1A
  3
ACAD_MLINESTYLE
350
1B
  3
ACAD_LAYOUT
350
1E
  3
ACAD_PLOTSETTINGS
350
22
  3
ACAD_PLOTSTYLENAME
350
1F
  3
ACAD_WIPEOUT_VARS
350
23
  0
DICTIONARY
  5
1A
102
{ACAD_REACTORS
330
19
102
}
100
AcDbDictionary
280
               0
281
               1
  0
DICTIONARY
  5
1B
102
{ACAD_REACTORS
330
19
102
}
100
AcDbDictionary
280
               0
281
               1
  3
Standard
350
1C
  0
MLINESTYLE
  5
1C
102
{ACAD_REACTORS
330
1B
102
}
100
AcDbMlineStyle
  2
Standard
 70
               0
  3

 62
               0
 51
90.0
 52
90.0
 71
               2
 49
0.5
 62
             256
  6
ByLayer
 49
-0.5
 62
             256
  6
ByLayer
  0
ACDBDICTIONARYWDFLT
  5
1F
102
{ACAD_REACTORS
330
19
102
}
100
AcDbDictionary
281
               1
  3
Normal
350
1D
100
AcDbDictionaryWithDefault
340
1D
  0
ACDBPLACEHOLDER
  5
1D
102
{ACAD_REACTORS
330
1F
102
}
  0
LAYOUT
  5
20
102
{ACAD_REACTORS
330
1E
102
}
100
AcDbPlotSettings
  1

  2

  4

  6

 40
0.0
 41
0.0
 42
0.0
 43
0.0
 44
0.0
 45
0.0
 46
0.0
 47
0.0
 48
0.0
 49
0.0
140
0.0
141
0.0
142
1.0
143
1.0
 70
            1024
 72
               0
 73
               0
 74
               0
  7

 75
               0
147
1.0
148
0.0
149
0.0
100
AcDbLayout
  1
Model
 70
               0
 71
               0
 10
0.0
 20
0.0
 11
0.0
 21
0.0
 12
0.0
 22
0.0
 32
0.0
 14
0.0
 24
0.0
 34
0.0
 15
0.0
 25
0.0
 35
0.0
146
0.0
 13
0.0
 23
0.0
 33
0.0
 16
0.0
 26
0.0
 36
0.0
 17
0.0
 27
0.0
 37
0.0
 76
               0
330
A
331
0
345
0
346
0
  0
LAYOUT
  5
21
102
{ACAD_REACTORS
330
1E
102
}
100
AcDbPlotSettings
  1

  2

  4

  6

 40
0.0
 41
0.0
 42
0.0
 43
0.0
 44
0.0
 45
0.0
 46
0.0
 47
0.0
 48
0.0
 49
0.0
140
0.0
141
0.0
142
1.0
143
1.0
 70
               0
 72
               0
 73
               0
 74
               0
  7

 75
               0
147
1.0
148
0.0
149
0.0
100
AcDbLayout
  1
Layout1
 70
               0
 71
               0
 10
0.0
 20
0.0
 11
0.0
 21
0.0
 12
0.0
 22
0.0
 32
0.0
 14
0.0
 24
0.0
 34
0.0
 15
0.0
 25
0.0
 35
0.0
146
0.0
 13
0.0
 23
0.0
 33
0.0
 16
0.0
 26
0.0
 36
0.0
 17
0.0
 27
0.0
 37
0.0
 76
               0
330
B
331
0
345
0
346
0
  0
DICTIONARY
  5
1E
102
{ACAD_REACTORS
330
19
102
}
100
AcDbDictionary
280
               0
281
               1
  3
Layout1
350
21
  3
Model
350
20
  0
DICTIONARY
  5
22
102
{ACAD_REACTORS
330
19
102
}
100
AcDbDictionary
280
               0
281
               1
  0
WIPEOUTVARIABLES
  5
23
100
AcDbWipeoutVariables
 70
               0
  0
ENDSEC
  0
EOF
