  0
SECTION
  2
HEADER
  9
$ACADVER
  1
AC1014
  9
$ACADMAINTVER
 70
     9
  9
$DWGCODEPAGE
  3
ANSI_1252
  9
$INSBASE
 10
0.0
 20
0.0
 30
0.0
  9
$EXTMIN
 10
0.0
 20
0.0
 30
0.0
  9
$EXTMAX
 10
46.5666666667
 20
35.9833333333
 30
0.0
  9
$LIMMIN
 10
0.0
 20
0.0
  9
$LIMMAX
 10
46.5666666667
 20
35.9833333333
  9
$ORTHOMODE
 70
     0
  9
$REGENMODE
 70
     1
  9
$FILLMODE
 70
     1
  9
$QTEXTMODE
 70
     0
  9
$MIRRTEXT
 70
     1
  9
$DRAGMODE
 70
     2
  9
$LTSCALE
 40
0.1666666667
  9
$OSMODE
 70
   511
  9
$ATTMODE
 70
     1
  9
$TEXTSIZE
 40
0.5291666667
  9
$TRACEWID
 40
1.0
  9
$TEXTSTYLE
  7
STANDARD
  9
$CLAYER
  8
0
  9
$CELTYPE
  6
BYLAYER
  9
$CECOLOR
 62
   256
  9
$CELTSCALE
 40
1.0
  9
$DELOBJ
 70
     1
  9
$DISPSILH
 70
     0
  9
$DIMSCALE
 40
1.0
  9
$DIMASZ
 40
0.3852478027
  9
$DIMEXO
 40
0.2116666667
  9
$DIMDLI
 40
3.75
  9
$DIMRND
 40
0.0
  9
$DIMDLE
 40
0.0
  9
$DIMEXE
 40
0.5291666667
  9
$DIMTP
 40
0.0
  9
$DIMTM
 40
0.0
  9
$DIMTXT
 40
0.5291666667
  9
$DIMCEN
 40
2.5
  9
$DIMTSZ
 40
0.0
  9
$DIMTOL
 70
     0
  9
$DIMLIM
 70
     0
  9
$DIMTIH
 70
     1
  9
$DIMTOH
 70
     1
  9
$DIMSE1
 70
     0
  9
$DIMSE2
 70
     0
  9
$DIMTAD
 70
     0
  9
$DIMZIN
 70
     1
  9
$DIMBLK
  1

  9
$DIMASO
 70
     1
  9
$DIMSHO
 70
     1
  9
$DIMPOST
  1

  9
$DIMAPOST
  1

  9
$DIMALT
 70
     0
  9
$DIMALTD
 70
     3
  9
$DIMALTF
 40
0.0393700787
  9
$DIMLFAC
 40
1.0
  9
$DIMTOFL
 70
     1
  9
$DIMTVP
 40
0.0
  9
$DIMTIX
 70
     0
  9
$DIMSOXD
 70
     0
  9
$DIMSAH
 70
     0
  9
$DIMBLK1
  1

  9
$DIMBLK2
  1

  9
$DIMSTYLE
  2
ISO-25
  9
$DIMCLRD
 70
     0
  9
$DIMCLRE
 70
     0
  9
$DIMCLRT
 70
     0
  9
$DIMTFAC
 40
1.0
  9
$DIMGAP
 40
0.254
  9
$DIMJUST
 70
     0
  9
$DIMSD1
 70
     0
  9
$DIMSD2
 70
     0
  9
$DIMTOLJ
 70
     0
  9
$DIMTZIN
 70
     1
  9
$DIMALTZ
 70
     0
  9
$DIMALTTZ
 70
     0
  9
$DIMFIT
 70
     3
  9
$DIMUPT
 70
     0
  9
$DIMUNIT
 70
     2
  9
$DIMDEC
 70
     3
  9
$DIMTDEC
 70
     3
  9
$DIMALTU
 70
     2
  9
$DIMALTTD
 70
     3
  9
$DIMTXSTY
  7
STANDARD
  9
$DIMAUNIT
 70
     0
  9
$LUNITS
 70
     2
  9
$LUPREC
 70
     4
  9
$SKETCHINC
 40
1.0
  9
$FILLETRAD
 40
10.0
  9
$AUNITS
 70
     0
  9
$AUPREC
 70
     2
  9
$MENU
  1
.
  9
$ELEVATION
 40
0.0
  9
$PELEVATION
 40
0.0
  9
$THICKNESS
 40
0.0
  9
$LIMCHECK
 70
     0
  9
$CHAMFERA
 40
0.0
  9
$CHAMFERB
 40
0.0
  9
$CHAMFERC
 40
0.0
  9
$CHAMFERD
 40
0.0
  9
$SKPOLY
 70
     0
  9
$TDCREATE
 40
2456968.574189618
  9
$TDUPDATE
 40
2456968.579290058
  9
$TDINDWG
 40
0.0008706481
  9
$TDUSRTIMER
 40
2456968.828420637
  9
$USRTIMER
 70
     1
  9
$ANGBASE
 50
0.0
  9
$ANGDIR
 70
     0
  9
$PDMODE
 70
     0
  9
$PDSIZE
 40
-1.0
  9
$PLINEWID
 40
0.0
  9
$COORDS
 70
     1
  9
$SPLFRAME
 70
     0
  9
$SPLINETYPE
 70
     6
  9
$SPLINESEGS
 70
     8
  9
$ATTDIA
 70
     0
  9
$ATTREQ
 70
     1
  9
$HANDLING
 70
     1
  9
$HANDSEED
  5
1DC
  9
$SURFTAB1
 70
     6
  9
$SURFTAB2
 70
     6
  9
$SURFTYPE
 70
     6
  9
$SURFU
 70
     6
  9
$SURFV
 70
     6
  9
$UCSNAME
  2

  9
$UCSORG
 10
0.0
 20
0.0
 30
0.0
  9
$UCSXDIR
 10
1.0
 20
0.0
 30
0.0
  9
$UCSYDIR
 10
0.0
 20
1.0
 30
0.0
  9
$PUCSNAME
  2

  9
$PUCSORG
 10
0.0
 20
0.0
 30
0.0
  9
$PUCSXDIR
 10
1.0
 20
0.0
 30
0.0
  9
$PUCSYDIR
 10
0.0
 20
1.0
 30
0.0
  9
$USERI1
 70
     0
  9
$USERI2
 70
     0
  9
$USERI3
 70
     0
  9
$USERI4
 70
     0
  9
$USERI5
 70
     0
  9
$USERR1
 40
0.0
  9
$USERR2
 40
0.0
  9
$USERR3
 40
0.0
  9
$USERR4
 40
0.0
  9
$USERR5
 40
0.0
  9
$WORLDVIEW
 70
     1
  9
$SHADEDGE
 70
     3
  9
$SHADEDIF
 70
    70
  9
$TILEMODE
 70
     1
  9
$MAXACTVP
 70
    64
  9
$PINSBASE
 10
0.0
 20
0.0
 30
0.0
  9
$PLIMCHECK
 70
     0
  9
$PEXTMIN
 10
1.000000000000000E+20
 20
1.000000000000000E+20
 30
1.000000000000000E+20
  9
$PEXTMAX
 10
-1.000000000000000E+20
 20
-1.000000000000000E+20
 30
-1.000000000000000E+20
  9
$PLIMMIN
 10
0.0
 20
0.0
  9
$PLIMMAX
 10
0.0
 20
0.0
  9
$UNITMODE
 70
     0
  9
$VISRETAIN
 70
     1
  9
$PLINEGEN
 70
     0
  9
$PSLTSCALE
 70
     1
  9
$TREEDEPTH
 70
  3020
  9
$PICKSTYLE
 70
     0
  9
$CMLSTYLE
  2
STANDARD
  9
$CMLJUST
 70
     0
  9
$CMLSCALE
 40
20.0
  9
$PROXYGRAPHICS
 70
     1
  9
$MEASUREMENT
 70
     1
  0
ENDSEC
  0
SECTION
  2
CLASSES
  0
CLASS
  1
ACDBDICTIONARYWDFLT
  2
AcDbDictionaryWithDefault
  3
ObjectDBX Classes
 90
        0
280
     0
281
     0
  0
CLASS
  1
VISUALSTYLE
  2
AcDbVisualStyle
  3
ObjectDBX Classes
 90
     4095
280
     0
281
     0
  0
CLASS
  1
MATERIAL
  2
AcDbMaterial
  3
ObjectDBX Classes
 90
     1153
280
     0
281
     0
  0
CLASS
  1
SCALE
  2
AcDbScale
  3
ObjectDBX Classes
 90
     1153
280
     0
281
     0
  0
CLASS
  1
SUN
  2
AcDbSun
  3
SCENEOE
 90
     1153
280
     0
281
     0
  0
CLASS
  1
ACDBPLACEHOLDER
  2
AcDbPlaceHolder
  3
ObjectDBX Classes
 90
        0
280
     0
281
     0
  0
CLASS
  1
LAYOUT
  2
AcDbLayout
  3
ObjectDBX Classes
 90
        0
280
     0
281
     0
  0
CLASS
  1
TABLESTYLE
  2
AcDbTableStyle
  3
ObjectDBX Classes
 90
     4095
280
     0
281
     0
  0
CLASS
  1
RASTERVARIABLES
  2
AcDbRasterVariables
  3
ISM
 90
        0
280
     0
281
     0
  0
CLASS
  1
XRECORD
  2
AcDbXrecord
  3
ObjectDBX Classes
 90
        0
280
     0
281
     0
  0
CLASS
  1
LWPOLYLINE
  2
AcDbPolyline
  3
ObjectDBX Classes
 90
        0
280
     0
281
     1
  0
CLASS
  1
HATCH
  2
AcDbHatch
  3
ObjectDBX Classes
 90
        0
280
     0
281
     1
  0
ENDSEC
  0
SECTION
  2
TABLES
  0
TABLE
  2
VPORT
  5
8
330
0
100
AcDbSymbolTable
 70
     1
  0
VPORT
  5
29
330
8
100
AcDbSymbolTableRecord
100
AcDbViewportTableRecord
  2
*ACTIVE
 70
     0
 10
0.0
 20
0.0
 11
1.0
 21
1.0
 12
27.47269502814684
 22
15.14924828461435
 13
0.0
 23
0.0
 14
10.0
 24
10.0
 15
10.0
 25
10.0
 16
0.0
 26
0.0
 36
1.0
 17
0.0
 27
0.0
 37
0.0
 40
35.98333333329999
 41
1.92603550295858
 42
50.0
 43
0.0
 44
0.0
 50
0.0
 51
0.0
 71
    16
 72
  2000
 73
     1
 74
     3
 75
     0
 76
     0
 77
     0
 78
     0
  0
ENDTAB
  0
TABLE
  2
LTYPE
  5
5
330
0
100
AcDbSymbolTable
 70
     6
  0
LTYPE
  5
14
330
5
100
AcDbSymbolTableRecord
100
AcDbLinetypeTableRecord
  2
BYBLOCK
 70
     0
  3

 72
    65
 73
     0
 40
0.0
  0
LTYPE
  5
15
330
5
100
AcDbSymbolTableRecord
100
AcDbLinetypeTableRecord
  2
BYLAYER
 70
     0
  3

 72
    65
 73
     0
 40
0.0
  0
LTYPE
  5
16
330
5
100
AcDbSymbolTableRecord
100
AcDbLinetypeTableRecord
  2
CONTINUOUS
 70
     0
  3
Solid line
 72
    65
 73
     0
 40
0.0
  0
LTYPE
  5
6A
330
5
100
AcDbSymbolTableRecord
100
AcDbLinetypeTableRecord
  2
HIDDEN
 70
     0
  3
Hidden __ __ __ __ __ __ __ __ __ __ __ __ __ __
 72
    65
 73
     2
 40
1.905
 49
1.27
 74
     0
 49
-0.635
 74
     0
  0
LTYPE
  5
6B
330
5
100
AcDbSymbolTableRecord
100
AcDbLinetypeTableRecord
  2
PHANTOM
 70
     0
  3
Phantom ______  __  __  ______  __  __  ______
 72
    65
 73
     6
 40
12.7
 49
6.35
 74
     0
 49
-1.27
 74
     0
 49
1.27
 74
     0
 49
-1.27
 74
     0
 49
1.27
 74
     0
 49
-1.27
 74
     0
  0
LTYPE
  5
6C
330
5
100
AcDbSymbolTableRecord
100
AcDbLinetypeTableRecord
  2
CENTER
 70
     0
  3
Center ____ _ ____ _ ____ _ ____ _ ____ _ ____
 72
    65
 73
     4
 40
10.16
 49
6.35
 74
     0
 49
-1.27
 74
     0
 49
1.27
 74
     0
 49
-1.27
 74
     0
  0
LTYPE
  5
6D
330
5
100
AcDbSymbolTableRecord
100
AcDbLinetypeTableRecord
  2
CENTERX2
 70
     0
  3
Center (2x) ________  __  ________  __  _____
 72
    65
 73
     4
 40
20.32
 49
12.7
 74
     0
 49
-2.54
 74
     0
 49
2.54
 74
     0
 49
-2.54
 74
     0
  0
LTYPE
  5
6E
330
5
100
AcDbSymbolTableRecord
100
AcDbLinetypeTableRecord
  2
DOT2
 70
     0
  3
Dot (.5x) ........................................
 72
    65
 73
     2
 40
0.635
 49
0.0
 74
     0
 49
-0.635
 74
     0
  0
ENDTAB
  0
TABLE
  2
LAYER
  5
2
330
0
100
AcDbSymbolTable
 70
     6
  0
LAYER
  5
10
330
2
100
AcDbSymbolTableRecord
100
AcDbLayerTableRecord
  2
0
 70
     0
 62
     7
  6
CONTINUOUS
  0
LAYER
  5
6F
330
2
100
AcDbSymbolTableRecord
100
AcDbLayerTableRecord
  2
FORMAT
 70
     0
 62
     7
  6
CONTINUOUS
  0
LAYER
  5
70
330
2
100
AcDbSymbolTableRecord
100
AcDbLayerTableRecord
  2
NONE
 70
     0
 62
   179
  6
CONTINUOUS
  0
LAYER
  5
71
330
2
100
AcDbSymbolTableRecord
100
AcDbLayerTableRecord
  2
DIMENSION
 70
     0
 62
   179
  6
CONTINUOUS
  0
LAYER
  5
72
330
2
100
AcDbSymbolTableRecord
100
AcDbLayerTableRecord
  2
PAGE_FRAME
 70
     0
 62
   179
  6
CONTINUOUS
  0
LAYER
  5
73
330
2
100
AcDbSymbolTableRecord
100
AcDbLayerTableRecord
  2
LAYOUT
 70
     0
 62
   179
  6
CONTINUOUS
  0
ENDTAB
  0
TABLE
  2
STYLE
  5
3
330
0
100
AcDbSymbolTable
 70
     3
  0
STYLE
  5
11
330
3
100
AcDbSymbolTableRecord
100
AcDbTextStyleTableRecord
  2
STANDARD
 70
     0
 40
0.0
 41
1.0
 50
0.0
 71
     0
 42
0.5291666667
  3
txt
  4

  0
STYLE
  5
87
330
3
100
AcDbSymbolTableRecord
100
AcDbTextStyleTableRecord
  2
SLDTEXTSTYLE0
 70
     0
 40
0.0
 41
0.605
 50
0.0
 71
     0
 42
0.5291666667
  3
TXT
  4

  0
STYLE
  5
B0
330
3
100
AcDbSymbolTableRecord
100
AcDbTextStyleTableRecord
  2
SLDTEXTSTYLE1
 70
     0
 40
0.0
 41
0.575
 50
0.0
 71
     0
 42
0.5291666667
  3
TXT
  4

  0
ENDTAB
  0
TABLE
  2
VIEW
  5
6
330
0
100
AcDbSymbolTable
 70
     0
  0
ENDTAB
  0
TABLE
  2
UCS
  5
7
330
0
100
AcDbSymbolTable
 70
     0
  0
ENDTAB
  0
TABLE
  2
APPID
  5
9
330
0
100
AcDbSymbolTable
 70
     1
  0
APPID
  5
12
330
9
100
AcDbSymbolTableRecord
100
AcDbRegAppTableRecord
  2
ACAD
 70
     0
  0
ENDTAB
  0
TABLE
  2
DIMSTYLE
  5
A
330
0
100
AcDbSymbolTable
 70
     7
  0
DIMSTYLE
105
27
330
A
100
AcDbSymbolTableRecord
100
AcDbDimStyleTableRecord
  2
ISO-25
 70
     0
  3

  4

  5

  6

  7

 40
1.0
 41
2.5
 42
0.625
 43
3.75
 44
1.25
 45
0.0
 46
0.0
 47
0.0
 48
0.0
140
2.5
141
2.5
142
0.0
143
0.0393700787
144
1.0
145
0.0
146
1.0
147
0.625
 71
     0
 72
     0
 73
     0
 74
     0
 75
     0
 76
     0
 77
     1
 78
     8
170
     0
171
     3
172
     1
173
     0
174
     0
175
     0
176
     0
177
     0
178
     0
270
     2
271
     2
272
     2
273
     2
274
     3
340
11
275
     0
280
     0
281
     0
282
     0
283
     0
284
     8
285
     0
286
     0
287
     3
288
     0
  0
DIMSTYLE
105
129
102
{ACAD_REACTORS
330
128
330
134
330
15F
330
16A
330
175
330
180
102
}
330
A
100
AcDbSymbolTableRecord
100
AcDbDimStyleTableRecord
  2
SLDDIMSTYLE0
 70
     0
  3

  4

  5

  6

  7

 40
1.0
 41
0.3852478027
 42
0.0625
 43
0.38
 44
0.0
 45
0.000000001
 46
0.0
 47
0.0
 48
0.0
140
0.3852478027
141
0.09
142
0.0
143
25.4
144
1.0
145
0.0
146
1.0
147
0.0963119507
 71
     0
 72
     0
 73
     1
 74
     1
 75
     0
 76
     0
 77
     0
 78
     4
170
     0
171
     2
172
     0
173
     1
174
     0
175
     0
176
     0
177
     0
178
     0
270
     2
271
     3
272
     3
273
     2
274
     2
340
87
275
     0
280
     0
281
     0
282
     0
283
     1
284
    12
285
     0
286
     0
287
     3
288
     0
  0
DIMSTYLE
105
140
102
{ACAD_REACTORS
330
13F
102
}
330
A
100
AcDbSymbolTableRecord
100
AcDbDimStyleTableRecord
  2
SLDDIMSTYLE1
 70
     0
  3

  4

  5

  6

  7

 40
1.0
 41
0.3852478027
 42
0.0625
 43
0.38
 44
0.0
 45
0.000000001
 46
0.0
 47
0.0
 48
0.0
140
0.3852478027
141
0.09
142
0.0
143
25.4
144
1.0
145
0.0
146
1.0
147
0.0963119507
 71
     0
 72
     0
 73
     1
 74
     1
 75
     0
 76
     0
 77
     0
 78
     4
170
     0
171
     2
172
     1
173
     1
174
     0
175
     0
176
     0
177
     0
178
     0
270
     2
271
     3
272
     3
273
     2
274
     2
340
87
275
     0
280
     0
281
     0
282
     0
283
     1
284
    12
285
     0
286
     0
288
     0
  0
DIMSTYLE
105
14C
102
{ACAD_REACTORS
330
14B
102
}
330
A
100
AcDbSymbolTableRecord
100
AcDbDimStyleTableRecord
  2
SLDDIMSTYLE2
 70
     0
  3

  4

  5

  6

  7

 40
1.0
 41
0.3852478027
 42
0.0625
 43
0.38
 44
0.0
 45
0.000000001
 46
0.0
 47
0.0
 48
0.0
140
0.3852478027
141
0.0
142
0.0
143
25.4
144
1.0
145
0.0
146
1.0
147
0.0963119507
 71
     0
 72
     0
 73
     1
 74
     1
 75
     0
 76
     0
 77
     0
 78
     4
170
     0
171
     2
172
     0
173
     1
174
     0
175
     0
176
     0
177
     0
178
     0
270
     2
271
     3
272
     3
273
     2
274
     2
340
87
275
     0
280
     0
281
     0
282
     0
283
     1
284
    12
285
     0
286
     0
287
     3
288
     0
  0
DIMSTYLE
105
156
102
{ACAD_REACTORS
330
155
330
1AD
102
}
330
A
100
AcDbSymbolTableRecord
100
AcDbDimStyleTableRecord
  2
SLDDIMSTYLE3
 70
     0
  3

  4

  5

  6

  7

 40
1.0
 41
0.3852478027
 42
0.0625
 43
0.38
 44
0.0
 45
0.000000001
 46
0.0
 47
0.0
 48
0.0
140
0.3852478027
141
0.0
142
0.0
143
25.4
144
1.0
145
0.0
146
1.0
147
0.0963119507
 71
     0
 72
     0
 73
     1
 74
     1
 75
     0
 76
     0
 77
     0
 78
     0
170
     0
171
     2
172
     0
173
     1
174
     0
175
     0
176
     0
177
     0
178
     0
270
     2
271
     3
272
     3
273
     2
274
     2
340
87
275
     0
280
     0
281
     0
282
     0
283
     1
284
    12
285
     0
286
     0
287
     3
288
     0
  0
DIMSTYLE
105
18C
102
{ACAD_REACTORS
330
18B
102
}
330
A
100
AcDbSymbolTableRecord
100
AcDbDimStyleTableRecord
  2
SLDDIMSTYLE4
 70
     0
  3

  4

  5

  6

  7

 40
1.0
 41
0.3852478027
 42
0.0625
 43
0.38
 44
0.0
 45
0.000000001
 46
0.0
 47
0.0
 48
0.0
140
0.3852478027
141
0.09
142
0.0
143
25.4
144
1.0
145
0.0
146
1.0
147
0.0963119507
 71
     0
 72
     0
 73
     1
 74
     1
 75
     0
 76
     0
 77
     0
 78
     0
170
     0
171
     2
172
     1
173
     1
174
     0
175
     0
176
     0
177
     0
178
     0
270
     2
271
     3
272
     3
273
     2
274
     2
340
87
275
     0
280
     0
281
     0
282
     0
283
     1
284
    12
285
     0
286
     0
288
     0
  0
DIMSTYLE
105
199
102
{ACAD_REACTORS
330
198
102
}
330
A
100
AcDbSymbolTableRecord
100
AcDbDimStyleTableRecord
  2
SLDDIMSTYLE5
 70
     0
  3

  4

  5

  6

  7

 40
1.0
 41
0.3852478027
 42
0.0625
 43
0.38
 44
0.0
 45
0.000000001
 46
0.0
 47
0.125
 48
0.125
140
0.3852478027
141
0.09
142
0.0
143
25.4
144
1.0
145
0.0
146
1.0
147
0.0963119507
 71
     1
 72
     0
 73
     1
 74
     1
 75
     0
 76
     0
 77
     0
 78
    12
170
     0
171
     2
172
     0
173
     1
174
     0
175
     0
176
     0
177
     0
178
     0
270
     2
271
     3
272
     3
273
     2
274
     2
340
87
275
     0
280
     0
281
     0
282
     0
283
     1
284
     8
285
     0
286
     0
287
     3
288
     0
  0
ENDTAB
  0
TABLE
  2
BLOCK_RECORD
  5
1
330
0
100
AcDbSymbolTable
 70
    19
  0
BLOCK_RECORD
  5
1F
330
1
100
AcDbSymbolTableRecord
100
AcDbBlockTableRecord
  2
*MODEL_SPACE
  0
BLOCK_RECORD
  5
1B
330
1
100
AcDbSymbolTableRecord
100
AcDbBlockTableRecord
  2
*PAPER_SPACE
  0
BLOCK_RECORD
  5
23
330
1
100
AcDbSymbolTableRecord
100
AcDbBlockTableRecord
  2
*PAPER_SPACE0
  0
BLOCK_RECORD
  5
84
330
1
100
AcDbSymbolTableRecord
100
AcDbBlockTableRecord
  2
SW_NOTE_0
  0
BLOCK_RECORD
  5
8D
330
1
100
AcDbSymbolTableRecord
100
AcDbBlockTableRecord
  2
SW_NOTE_1
  0
BLOCK_RECORD
  5
94
330
1
100
AcDbSymbolTableRecord
100
AcDbBlockTableRecord
  2
SW_NOTE_2
  0
BLOCK_RECORD
  5
9B
330
1
100
AcDbSymbolTableRecord
100
AcDbBlockTableRecord
  2
SW_NOTE_3
  0
BLOCK_RECORD
  5
A7
330
1
100
AcDbSymbolTableRecord
100
AcDbBlockTableRecord
  2
SW_NOTE_4
  0
BLOCK_RECORD
  5
12A
330
1
100
AcDbSymbolTableRecord
100
AcDbBlockTableRecord
  2
_D
  0
BLOCK_RECORD
  5
135
330
1
100
AcDbSymbolTableRecord
100
AcDbBlockTableRecord
  2
_D_1
  0
BLOCK_RECORD
  5
141
330
1
100
AcDbSymbolTableRecord
100
AcDbBlockTableRecord
  2
_D_2
  0
BLOCK_RECORD
  5
14D
330
1
100
AcDbSymbolTableRecord
100
AcDbBlockTableRecord
  2
_D_3
  0
BLOCK_RECORD
  5
157
330
1
100
AcDbSymbolTableRecord
100
AcDbBlockTableRecord
  2
_D_4
  0
BLOCK_RECORD
  5
160
330
1
100
AcDbSymbolTableRecord
100
AcDbBlockTableRecord
  2
_D_5
  0
BLOCK_RECORD
  5
16B
330
1
100
AcDbSymbolTableRecord
100
AcDbBlockTableRecord
  2
_D_6
  0
BLOCK_RECORD
  5
176
330
1
100
AcDbSymbolTableRecord
100
AcDbBlockTableRecord
  2
_D_7
  0
BLOCK_RECORD
  5
181
330
1
100
AcDbSymbolTableRecord
100
AcDbBlockTableRecord
  2
_D_8
  0
BLOCK_RECORD
  5
18D
330
1
100
AcDbSymbolTableRecord
100
AcDbBlockTableRecord
  2
_D_9
  0
BLOCK_RECORD
  5
19A
330
1
100
AcDbSymbolTableRecord
100
AcDbBlockTableRecord
  2
_D_10
  0
BLOCK_RECORD
  5
1A3
330
1
100
AcDbSymbolTableRecord
100
AcDbBlockTableRecord
  2
SW_SYMBOL_MOD_BOX
  0
BLOCK_RECORD
  5
1AE
330
1
100
AcDbSymbolTableRecord
100
AcDbBlockTableRecord
  2
_D_11
  0
ENDTAB
  0
ENDSEC
  0
SECTION
  2
BLOCKS
  0
BLOCK
  5
20
330
1F
100
AcDbEntity
  8
0
100
AcDbBlockBegin
  2
*MODEL_SPACE
 70
     0
 10
0.0
 20
0.0
 30
0.0
  3
*MODEL_SPACE
  1

  0
ENDBLK
  5
21
330
1F
100
AcDbEntity
  8
0
100
AcDbBlockEnd
  0
BLOCK
  5
1C
330
1B
100
AcDbEntity
 67
     1
  8
0
100
AcDbBlockBegin
  2
*PAPER_SPACE
 70
     0
 10
0.0
 20
0.0
 30
0.0
  3
*PAPER_SPACE
  1

  0
ENDBLK
  5
1D
330
1B
100
AcDbEntity
 67
     1
  8
0
100
AcDbBlockEnd
  0
BLOCK
  5
24
330
23
100
AcDbEntity
  8
0
100
AcDbBlockBegin
  2
*PAPER_SPACE0
 70
     0
 10
0.0
 20
0.0
 30
0.0
  3
*PAPER_SPACE0
  1
*Paper_Space0
  0
ENDBLK
  5
25
330
23
100
AcDbEntity
  8
0
100
AcDbBlockEnd
  0
BLOCK
  5
85
330
84
100
AcDbEntity
  8
0
100
AcDbBlockBegin
  2
SW_NOTE_0
 70
     0
 10
0.0
 20
0.0
 30
0.0
  3
SW_NOTE_0
  1
SW_NOTE_0
  0
MTEXT
  5
88
330
84
100
AcDbEntity
  8
LAYOUT
 62
     0
100
AcDbMText
 10
0.0
 20
0.682131679
 30
0.0
 40
0.5291666667
 41
0.0
 71
     1
 72
     1
  1
\LTarget PCB Recommendations
  7
SLDTEXTSTYLE0
  0
MTEXT
  5
89
330
84
100
AcDbEntity
  8
LAYOUT
 62
     0
100
AcDbMText
 10
0.0
 20
-0.0234238681
 30
0.0
 40
0.5291666667
 41
0.0
 71
     1
 72
     1
  1
Total thickness: 1.6mm min.
  7
SLDTEXTSTYLE0
  0
MTEXT
  5
8A
330
84
100
AcDbEntity
  8
LAYOUT
 62
     0
100
AcDbMText
 10
0.0
 20
-0.7289794151
 30
0.0
 40
0.5291666667
 41
0.0
 71
     1
 72
     1
  1
Plating: Gold or Solder finish
  7
SLDTEXTSTYLE0
  0
MTEXT
  5
8B
330
84
100
AcDbEntity
  8
LAYOUT
 62
     0
100
AcDbMText
 10
0.0
 20
-1.4345349621
 30
0.0
 40
0.5291666667
 41
0.0
 71
     1
 72
     1
  1
PCB Pad height: Same or higher than solder mask
  7
SLDTEXTSTYLE0
  0
ENDBLK
  5
86
330
84
100
AcDbEntity
  8
0
100
AcDbBlockEnd
  0
BLOCK
  5
8E
330
8D
100
AcDbEntity
  8
0
100
AcDbBlockBegin
  2
SW_NOTE_1
 70
     0
 10
0.0
 20
0.0
 30
0.0
  3
SW_NOTE_1
  1
SW_NOTE_1
  0
MTEXT
  5
90
330
8D
100
AcDbEntity
  8
LAYOUT
 62
     0
100
AcDbMText
 10
0.0
 20
0.682131679
 30
0.0
 40
0.5291666667
 41
0.0
 71
     1
 72
     1
  1
Note: Full BGA pattern shown.
  7
SLDTEXTSTYLE0
  0
MTEXT
  5
91
330
8D
100
AcDbEntity
  8
LAYOUT
 62
     0
100
AcDbMText
 10
0.0
 20
-0.0234238681
 30
0.0
 40
0.5291666667
 41
0.0
 71
     1
 72
     1
  1
Please adjust pattern according
  7
SLDTEXTSTYLE0
  0
MTEXT
  5
92
330
8D
100
AcDbEntity
  8
LAYOUT
 62
     0
100
AcDbMText
 10
0.0
 20
-0.7289794151
 30
0.0
 40
0.5291666667
 41
0.0
 71
     1
 72
     1
  1
to individual requirements.
  7
SLDTEXTSTYLE0
  0
ENDBLK
  5
8F
330
8D
100
AcDbEntity
  8
0
100
AcDbBlockEnd
  0
BLOCK
  5
95
330
94
100
AcDbEntity
  8
0
100
AcDbBlockBegin
  2
SW_NOTE_2
 70
     0
 10
0.0
 20
0.0
 30
0.0
  3
SW_NOTE_2
  1
SW_NOTE_2
  0
MTEXT
  5
97
330
94
100
AcDbEntity
  8
0
  6
CONTINUOUS
 62
     0
100
AcDbMText
 10
2.7230034722
 20
0.4547544526
 30
0.0
 40
0.3527777778
 41
0.0
 71
     2
 72
     1
  1
Ironwood Electronics, Inc.
  7
SLDTEXTSTYLE0
  0
MTEXT
  5
98
330
94
100
AcDbEntity
  8
0
  6
CONTINUOUS
 62
     0
100
AcDbMText
 10
2.7123868302
 20
-0.015615912
 30
0.0
 40
0.3527777778
 41
0.0
 71
     2
 72
     1
  1
Tele: (800) 404-0204
  7
SLDTEXTSTYLE0
  0
MTEXT
  5
99
330
94
100
AcDbEntity
  8
0
  6
CONTINUOUS
 62
     0
100
AcDbMText
 10
2.6936053298
 20
-0.4859862767
 30
0.0
 40
0.3527777778
 41
0.0
 71
     2
 72
     1
  1
www.ironwoodelectronics.com
  7
SLDTEXTSTYLE0
  0
ENDBLK
  5
96
330
94
100
AcDbEntity
  8
0
100
AcDbBlockEnd
  0
BLOCK
  5
9C
330
9B
100
AcDbEntity
  8
0
100
AcDbBlockBegin
  2
SW_NOTE_3
 70
     0
 10
0.0
 20
0.0
 30
0.0
  3
SW_NOTE_3
  1
SW_NOTE_3
  0
MTEXT
  5
9E
330
9B
100
AcDbEntity
  8
0
  6
CONTINUOUS
 62
     0
100
AcDbMText
 10
0.0
 20
0.3410658395
 30
0.0
 40
0.2645833333
 41
0.0
 71
     1
 72
     1
  1
\LTolerances:
  7
SLDTEXTSTYLE0
  0
MTEXT
  5
9F
330
9B
100
AcDbEntity
  8
0
  6
CONTINUOUS
 62
     0
100
AcDbMText
 10
1.9415027042
 20
0.3410658395
 30
0.0
 40
0.2645833333
 41
0.0
 71
     1
 72
     1
  1
Hole diameters ±0.03mm [±0.001"], Pitches (from true position) ±0.025mm [±0.001"], substrate thickness tolerance ±10%, all
  7
SLDTEXTSTYLE0
  0
MTEXT
  5
A0
330
9B
100
AcDbEntity
  8
0
  6
CONTINUOUS
 62
     0
100
AcDbMText
 10
0.0
 20
-0.011711934
 30
0.0
 40
0.2645833333
 41
0.0
 71
     1
 72
     1
  1
other tolerances ±0.13mm [±0.005"] unless stated otherwise.  Materials and specifications are subject to change without notice.
  7
SLDTEXTSTYLE0
  0
ENDBLK
  5
9D
330
9B
100
AcDbEntity
  8
0
100
AcDbBlockEnd
  0
BLOCK
  5
A8
330
A7
100
AcDbEntity
  8
0
100
AcDbBlockBegin
  2
SW_NOTE_4
 70
     0
 10
0.0
 20
0.0
 30
0.0
  3
SW_NOTE_4
  1
SW_NOTE_4
  0
MTEXT
  5
AA
330
A7
100
AcDbEntity
  8
0
  6
CONTINUOUS
 62
     0
100
AcDbMText
 10
0.0
 20
0.5115987592
 30
0.0
 40
0.396875
 41
0.0
 71
     1
 72
     1
  1
Material: N/A
  7
SLDTEXTSTYLE0
  0
MTEXT
  5
AB
330
A7
100
AcDbEntity
  8
0
  6
CONTINUOUS
 62
     0
100
AcDbMText
 10
0.0
 20
-0.017567901
 30
0.0
 40
0.396875
 41
0.0
 71
     1
 72
     1
  1
Finish: N/A
  7
SLDTEXTSTYLE0
  0
MTEXT
  5
AC
330
A7
100
AcDbEntity
  8
0
  6
CONTINUOUS
 62
     0
100
AcDbMText
 10
0.0
 20
-0.5467345613
 30
0.0
 40
0.396875
 41
0.0
 71
     1
 72
     1
  1
Weight: 11.89
  7
SLDTEXTSTYLE0
  0
ENDBLK
  5
A9
330
A7
100
AcDbEntity
  8
0
100
AcDbBlockEnd
  0
BLOCK
  5
12B
330
12A
100
AcDbEntity
  8
0
100
AcDbBlockBegin
  2
_D
 70
     0
 10
0.0
 20
0.0
 30
0.0
  3
_D
  1
_D
  0
SOLID
  5
12D
330
12A
100
AcDbEntity
  8
LAYOUT
100
AcDbTrace
 10
23.5682982319
 20
10.7072542898
 30
0.0
 11
23.1830504291
 21
10.7665231825
 31
0.0
 12
23.1830504291
 22
10.6479853971
 32
0.0
 13
23.1830504291
 23
10.6479853971
 33
0.0
  0
SOLID
  5
12E
330
12A
100
AcDbEntity
  8
LAYOUT
100
AcDbTrace
 10
19.9682982319
 20
10.7072542898
 30
0.0
 11
20.3535460346
 21
10.6479853971
 31
0.0
 12
20.3535460346
 22
10.7665231825
 32
0.0
 13
20.3535460346
 23
10.7665231825
 33
0.0
  0
LINE
  5
12F
330
12A
100
AcDbEntity
  8
LAYOUT
100
AcDbLine
 10
23.5682982319
 20
11.4562321937
 30
0.0
 11
23.5682982319
 21
10.1780876231
 31
0.0
  0
LINE
  5
130
330
12A
100
AcDbEntity
  8
LAYOUT
100
AcDbLine
 10
19.9682982319
 20
16.1747542898
 30
0.0
 11
19.9682982319
 21
10.1780876231
 31
0.0
  0
LINE
  5
131
330
12A
100
AcDbEntity
  8
LAYOUT
100
AcDbLine
 10
23.5682982319
 20
10.7072542898
 30
0.0
 11
22.387909259
 21
10.7072542898
 31
0.0
  0
LINE
  5
132
330
12A
100
AcDbEntity
  8
LAYOUT
100
AcDbLine
 10
19.9682982319
 20
10.7072542898
 30
0.0
 11
21.0649927053
 21
10.7072542898
 31
0.0
  0
MTEXT
  5
133
330
12A
100
AcDbEntity
  8
LAYOUT
100
AcDbMText
 10
21.0649927053
 20
10.9230341978
 30
0.0
 40
0.396875
 41
0.0
 71
     1
 72
     1
  1
3.600
  7
SLDTEXTSTYLE0
  0
ENDBLK
  5
12C
330
12A
100
AcDbEntity
  8
0
100
AcDbBlockEnd
  0
BLOCK
  5
136
330
135
100
AcDbEntity
  8
0
100
AcDbBlockBegin
  2
_D_1
 70
     0
 10
0.0
 20
0.0
 30
0.0
  3
_D_1
  1
_D_1
  0
SOLID
  5
138
330
135
100
AcDbEntity
  8
LAYOUT
100
AcDbTrace
 10
15.9557982319
 20
29.3514215037
 30
0.0
 11
16.3410460346
 21
29.2921526109
 31
0.0
 12
16.3410460346
 22
29.4106903964
 32
0.0
 13
16.3410460346
 23
29.4106903964
 33
0.0
  0
SOLID
  5
139
330
135
100
AcDbEntity
  8
LAYOUT
100
AcDbTrace
 10
17.2057982319
 20
29.3514215037
 30
0.0
 11
16.8205504291
 21
29.4106903964
 31
0.0
 12
16.8205504291
 22
29.2921526109
 32
0.0
 13
16.8205504291
 23
29.2921526109
 33
0.0
  0
LINE
  5
13A
330
135
100
AcDbEntity
  8
LAYOUT
100
AcDbLine
 10
15.9557982319
 20
27.8105876231
 30
0.0
 11
15.9557982319
 21
29.8805881703
 31
0.0
  0
LINE
  5
13B
330
135
100
AcDbEntity
  8
LAYOUT
100
AcDbLine
 10
17.2057982319
 20
26.5605876231
 30
0.0
 11
17.2057982319
 21
29.8805881703
 31
0.0
  0
LINE
  5
13C
330
135
100
AcDbEntity
  8
LAYOUT
100
AcDbLine
 10
15.9557982319
 20
29.3514215037
 30
0.0
 11
14.3167214999
 21
29.3514215037
 31
0.0
  0
LINE
  5
13D
330
135
100
AcDbEntity
  8
LAYOUT
100
AcDbLine
 10
17.2057982319
 20
29.3514215037
 30
0.0
 11
15.9557982319
 21
29.3514215037
 31
0.0
  0
MTEXT
  5
13E
330
135
100
AcDbEntity
  8
LAYOUT
100
AcDbMText
 10
12.9938049462
 20
29.5672014116
 30
0.0
 40
0.396875
 41
0.0
 71
     1
 72
     1
  1
1.250
  7
SLDTEXTSTYLE0
  0
ENDBLK
  5
137
330
135
100
AcDbEntity
  8
0
100
AcDbBlockEnd
  0
BLOCK
  5
142
330
141
100
AcDbEntity
  8
0
100
AcDbBlockBegin
  2
_D_2
 70
     0
 10
0.0
 20
0.0
 30
0.0
  3
_D_2
  1
_D_2
  0
SOLID
  5
144
330
141
100
AcDbEntity
  8
LAYOUT
100
AcDbTrace
 10
13.655263223
 20
26.3489209565
 30
0.0
 11
13.5959943303
 21
25.9636731537
 31
0.0
 12
13.7145321158
 22
25.9636731537
 32
0.0
 13
13.7145321158
 23
25.9636731537
 33
0.0
  0
SOLID
  5
145
330
141
100
AcDbEntity
  8
LAYOUT
100
AcDbTrace
 10
13.655263223
 20
27.5989209565
 30
0.0
 11
13.7145321158
 21
27.9841687592
 31
0.0
 12
13.5959943303
 22
27.9841687592
 32
0.0
 13
13.5959943303
 23
27.9841687592
 33
0.0
  0
LINE
  5
146
330
141
100
AcDbEntity
  8
LAYOUT
100
AcDbLine
 10
16.9941315652
 20
26.3489209565
 30
0.0
 11
13.1260965564
 21
26.3489209565
 31
0.0
  0
LINE
  5
147
330
141
100
AcDbEntity
  8
LAYOUT
100
AcDbLine
 10
15.7441315652
 20
27.5989209565
 30
0.0
 11
13.1260965564
 21
27.5989209565
 31
0.0
  0
LINE
  5
148
330
141
100
AcDbEntity
  8
LAYOUT
100
AcDbLine
 10
13.655263223
 20
26.3489209565
 30
0.0
 11
13.655263223
 21
25.6080597974
 31
0.0
  0
LINE
  5
149
330
141
100
AcDbEntity
  8
LAYOUT
100
AcDbLine
 10
13.655263223
 20
27.5989209565
 30
0.0
 11
13.655263223
 21
28.3397821156
 31
0.0
  0
MTEXT
  5
14A
330
141
100
AcDbEntity
  8
LAYOUT
100
AcDbMText
 10
12.9938049462
 20
27.0865441575
 30
0.0
 40
0.396875
 41
0.0
 71
     1
 72
     1
  1
1.250
  7
SLDTEXTSTYLE0
  0
ENDBLK
  5
143
330
141
100
AcDbEntity
  8
0
100
AcDbBlockEnd
  0
BLOCK
  5
14E
330
14D
100
AcDbEntity
  8
0
100
AcDbBlockBegin
  2
_D_3
 70
     0
 10
0.0
 20
0.0
 30
0.0
  3
_D_3
  1
_D_3
  0
SOLID
  5
150
330
14D
100
AcDbEntity
  8
LAYOUT
100
AcDbTrace
 10
30.4864347963
 20
12.9740802004
 30
0.0
 11
30.6917475724
 21
12.6427565895
 31
0.0
 12
30.7818419398
 22
12.7197904233
 32
0.0
 13
30.7818419398
 23
12.7197904233
 33
0.0
  0
LINE
  5
151
330
14D
100
AcDbEntity
  8
LAYOUT
100
AcDbLine
 10
30.4864347963
 20
12.9740802004
 30
0.0
 11
31.8991020247
 21
11.3219053824
 31
0.0
  0
LINE
  5
152
330
14D
100
AcDbEntity
  8
LAYOUT
100
AcDbLine
 10
31.8991020247
 20
11.3219053824
 30
0.0
 11
32.7324353581
 21
11.3219053824
 31
0.0
  0
MTEXT
  5
153
330
14D
100
AcDbEntity
  8
LAYOUT
100
AcDbMText
 10
32.7324353581
 20
11.512696858
 30
0.0
 40
0.396875
 41
0.0
 71
     1
 72
     1
  1
%%c
  7
SLDTEXTSTYLE0
  0
MTEXT
  5
154
330
14D
100
AcDbEntity
  8
LAYOUT
100
AcDbMText
 10
33.2944912094
 20
11.512696858
 30
0.0
 40
0.396875
 41
0.0
 71
     1
 72
     1
  1
1.710
  7
SLDTEXTSTYLE0
  0
ENDBLK
  5
14F
330
14D
100
AcDbEntity
  8
0
100
AcDbBlockEnd
  0
BLOCK
  5
158
330
157
100
AcDbEntity
  8
0
100
AcDbBlockBegin
  2
_D_4
 70
     0
 10
0.0
 20
0.0
 30
0.0
  3
_D_4
  1
_D_4
  0
SOLID
  5
15A
330
157
100
AcDbEntity
  8
LAYOUT
100
AcDbTrace
 10
30.3450776817
 20
23.7140656062
 30
0.0
 11
30.707379508
 21
23.5703086661
 31
0.0
 12
30.7338358448
 22
23.6858563568
 32
0.0
 13
30.7338358448
 23
23.6858563568
 33
0.0
  0
LINE
  5
15B
330
157
100
AcDbEntity
  8
LAYOUT
100
AcDbLine
 10
30.3450776817
 20
23.7140656062
 30
0.0
 11
34.5229458296
 21
22.7574814773
 31
0.0
  0
LINE
  5
15C
330
157
100
AcDbEntity
  8
LAYOUT
100
AcDbLine
 10
34.5229458296
 20
22.7574814773
 30
0.0
 11
35.3562791629
 21
22.7574814773
 31
0.0
  0
MTEXT
  5
15D
330
157
100
AcDbEntity
  8
LAYOUT
100
AcDbMText
 10
35.3562791629
 20
22.9482729529
 30
0.0
 40
0.396875
 41
0.0
 71
     1
 72
     1
  1
%%c
  7
SLDTEXTSTYLE0
  0
MTEXT
  5
15E
330
157
100
AcDbEntity
  8
LAYOUT
100
AcDbMText
 10
35.9183350142
 20
22.9482729529
 30
0.0
 40
0.396875
 41
0.0
 71
     1
 72
     1
  1
0.850
  7
SLDTEXTSTYLE0
  0
ENDBLK
  5
159
330
157
100
AcDbEntity
  8
0
100
AcDbBlockEnd
  0
BLOCK
  5
161
330
160
100
AcDbEntity
  8
0
100
AcDbBlockBegin
  2
_D_5
 70
     0
 10
0.0
 20
0.0
 30
0.0
  3
_D_5
  1
_D_5
  0
SOLID
  5
163
330
160
100
AcDbEntity
  8
LAYOUT
100
AcDbTrace
 10
13.655263223
 20
18.7039209565
 30
0.0
 11
13.5959943303
 21
18.3186731537
 31
0.0
 12
13.7145321158
 22
18.3186731537
 32
0.0
 13
13.7145321158
 23
18.3186731537
 33
0.0
  0
SOLID
  5
164
330
160
100
AcDbEntity
  8
LAYOUT
100
AcDbTrace
 10
13.655263223
 20
13.6239209565
 30
0.0
 11
13.7145321158
 21
14.0091687592
 31
0.0
 12
13.5959943303
 22
14.0091687592
 32
0.0
 13
13.5959943303
 23
14.0091687592
 33
0.0
  0
LINE
  5
165
330
160
100
AcDbEntity
  8
LAYOUT
100
AcDbLine
 10
16.9941315652
 20
18.7039209565
 30
0.0
 11
13.1260965564
 21
18.7039209565
 31
0.0
  0
LINE
  5
166
330
160
100
AcDbEntity
  8
LAYOUT
100
AcDbLine
 10
16.9941315652
 20
13.6239209565
 30
0.0
 11
13.1260965564
 21
13.6239209565
 31
0.0
  0
LINE
  5
167
330
160
100
AcDbEntity
  8
LAYOUT
100
AcDbLine
 10
13.655263223
 20
18.7039209565
 30
0.0
 11
13.655263223
 21
15.9499833163
 31
0.0
  0
LINE
  5
168
330
160
100
AcDbEntity
  8
LAYOUT
100
AcDbLine
 10
13.655263223
 20
13.6239209565
 30
0.0
 11
13.655263223
 21
15.3583455944
 31
0.0
  0
MTEXT
  5
169
330
160
100
AcDbEntity
  8
LAYOUT
100
AcDbMText
 10
12.9938049462
 20
15.8699443633
 30
0.0
 40
0.396875
 41
0.0
 71
     1
 72
     1
  1
5.080
  7
SLDTEXTSTYLE0
  0
ENDBLK
  5
162
330
160
100
AcDbEntity
  8
0
100
AcDbBlockEnd
  0
BLOCK
  5
16C
330
16B
100
AcDbEntity
  8
0
100
AcDbBlockBegin
  2
_D_6
 70
     0
 10
0.0
 20
0.0
 30
0.0
  3
_D_6
  1
_D_6
  0
SOLID
  5
16E
330
16B
100
AcDbEntity
  8
LAYOUT
100
AcDbTrace
 10
33.6749215412
 20
23.8089209565
 30
0.0
 11
33.7341904339
 21
24.1941687592
 31
0.0
 12
33.6156526484
 22
24.1941687592
 32
0.0
 13
33.6156526484
 23
24.1941687592
 33
0.0
  0
SOLID
  5
16F
330
16B
100
AcDbEntity
  8
LAYOUT
100
AcDbTrace
 10
33.6749215412
 20
26.3489209565
 30
0.0
 11
33.6156526484
 21
25.9636731537
 31
0.0
 12
33.7341904339
 22
25.9636731537
 32
0.0
 13
33.7341904339
 23
25.9636731537
 33
0.0
  0
LINE
  5
170
330
16B
100
AcDbEntity
  8
LAYOUT
100
AcDbLine
 10
30.1424648985
 20
23.8089209565
 30
0.0
 11
34.2040882078
 21
23.8089209565
 31
0.0
  0
LINE
  5
171
330
16B
100
AcDbEntity
  8
LAYOUT
100
AcDbLine
 10
30.1424648985
 20
26.3489209565
 30
0.0
 11
34.2040882078
 21
26.3489209565
 31
0.0
  0
LINE
  5
172
330
16B
100
AcDbEntity
  8
LAYOUT
100
AcDbLine
 10
33.6749215412
 20
23.8089209565
 30
0.0
 11
33.6749215412
 21
24.8851592862
 31
0.0
  0
LINE
  5
173
330
16B
100
AcDbEntity
  8
LAYOUT
100
AcDbLine
 10
33.6749215412
 20
26.3489209565
 30
0.0
 11
33.6749215412
 21
25.4767970081
 31
0.0
  0
MTEXT
  5
174
330
16B
100
AcDbEntity
  8
LAYOUT
100
AcDbMText
 10
33.0134632643
 20
25.3967580552
 30
0.0
 40
0.396875
 41
0.0
 71
     1
 72
     1
  1
2.540
  7
SLDTEXTSTYLE0
  0
ENDBLK
  5
16D
330
16B
100
AcDbEntity
  8
0
100
AcDbBlockEnd
  0
BLOCK
  5
177
330
176
100
AcDbEntity
  8
0
100
AcDbBlockBegin
  2
_D_7
 70
     0
 10
0.0
 20
0.0
 30
0.0
  3
_D_7
  1
_D_7
  0
SOLID
  5
179
330
176
100
AcDbEntity
  8
LAYOUT
100
AcDbTrace
 10
19.9682982319
 20
29.3514215037
 30
0.0
 11
20.3535460346
 21
29.2921526109
 31
0.0
 12
20.3535460346
 22
29.4106903964
 32
0.0
 13
20.3535460346
 23
29.4106903964
 33
0.0
  0
SOLID
  5
17A
330
176
100
AcDbEntity
  8
LAYOUT
100
AcDbTrace
 10
23.5682982319
 20
29.3514215037
 30
0.0
 11
23.1830504291
 21
29.4106903964
 31
0.0
 12
23.1830504291
 22
29.2921526109
 32
0.0
 13
23.1830504291
 23
29.2921526109
 33
0.0
  0
LINE
  5
17B
330
176
100
AcDbEntity
  8
LAYOUT
100
AcDbLine
 10
19.9682982319
 20
23.7980876231
 30
0.0
 11
19.9682982319
 21
29.8805881703
 31
0.0
  0
LINE
  5
17C
330
176
100
AcDbEntity
  8
LAYOUT
100
AcDbLine
 10
23.5682982319
 20
28.2272542898
 30
0.0
 11
23.5682982319
 21
29.8805881703
 31
0.0
  0
LINE
  5
17D
330
176
100
AcDbEntity
  8
LAYOUT
100
AcDbLine
 10
19.9682982319
 20
29.3514215037
 30
0.0
 11
21.0649927053
 21
29.3514215037
 31
0.0
  0
LINE
  5
17E
330
176
100
AcDbEntity
  8
LAYOUT
100
AcDbLine
 10
23.5682982319
 20
29.3514215037
 30
0.0
 11
22.387909259
 21
29.3514215037
 31
0.0
  0
MTEXT
  5
17F
330
176
100
AcDbEntity
  8
LAYOUT
100
AcDbMText
 10
21.0649927053
 20
29.5672014116
 30
0.0
 40
0.396875
 41
0.0
 71
     1
 72
     1
  1
3.600
  7
SLDTEXTSTYLE0
  0
ENDBLK
  5
178
330
176
100
AcDbEntity
  8
0
100
AcDbBlockEnd
  0
BLOCK
  5
182
330
181
100
AcDbEntity
  8
0
100
AcDbBlockBegin
  2
_D_8
 70
     0
 10
0.0
 20
0.0
 30
0.0
  3
_D_8
  1
_D_8
  0
SOLID
  5
184
330
181
100
AcDbEntity
  8
LAYOUT
100
AcDbTrace
 10
13.655263223
 20
23.5864209565
 30
0.0
 11
13.5959943303
 21
23.2011731537
 31
0.0
 12
13.7145321158
 22
23.2011731537
 32
0.0
 13
13.7145321158
 23
23.2011731537
 33
0.0
  0
SOLID
  5
185
330
181
100
AcDbEntity
  8
LAYOUT
100
AcDbTrace
 10
13.655263223
 20
19.9864209565
 30
0.0
 11
13.7145321158
 21
20.3716687592
 31
0.0
 12
13.5959943303
 22
20.3716687592
 32
0.0
 13
13.5959943303
 23
20.3716687592
 33
0.0
  0
LINE
  5
186
330
181
100
AcDbEntity
  8
LAYOUT
100
AcDbLine
 10
19.7566315652
 20
23.5864209565
 30
0.0
 11
13.1260965564
 21
23.5864209565
 31
0.0
  0
LINE
  5
187
330
181
100
AcDbEntity
  8
LAYOUT
100
AcDbLine
 10
15.3274648985
 20
19.9864209565
 30
0.0
 11
13.1260965564
 21
19.9864209565
 31
0.0
  0
LINE
  5
188
330
181
100
AcDbEntity
  8
LAYOUT
100
AcDbLine
 10
13.655263223
 20
23.5864209565
 30
0.0
 11
13.655263223
 21
22.4487877744
 31
0.0
  0
LINE
  5
189
330
181
100
AcDbEntity
  8
LAYOUT
100
AcDbLine
 10
13.655263223
 20
19.9864209565
 30
0.0
 11
13.655263223
 21
21.8571500525
 31
0.0
  0
MTEXT
  5
18A
330
181
100
AcDbEntity
  8
LAYOUT
100
AcDbMText
 10
12.9938049462
 20
22.3687488214
 30
0.0
 40
0.396875
 41
0.0
 71
     1
 72
     1
  1
3.600
  7
SLDTEXTSTYLE0
  0
ENDBLK
  5
183
330
181
100
AcDbEntity
  8
0
100
AcDbBlockEnd
  0
BLOCK
  5
18E
330
18D
100
AcDbEntity
  8
0
100
AcDbBlockBegin
  2
_D_9
 70
     0
 10
0.0
 20
0.0
 30
0.0
  3
_D_9
  1
_D_9
  0
SOLID
  5
190
330
18D
100
AcDbEntity
  8
LAYOUT
100
AcDbTrace
 10
33.6749215412
 20
17.9864209565
 30
0.0
 11
33.6156526484
 21
17.6011731537
 31
0.0
 12
33.7341904339
 22
17.6011731537
 32
0.0
 13
33.7341904339
 23
17.6011731537
 33
0.0
  0
SOLID
  5
191
330
18D
100
AcDbEntity
  8
LAYOUT
100
AcDbTrace
 10
33.6749215412
 20
18.7864209565
 30
0.0
 11
33.7341904339
 21
19.1716687592
 31
0.0
 12
33.6156526484
 22
19.1716687592
 32
0.0
 13
33.6156526484
 23
19.1716687592
 33
0.0
  0
LINE
  5
192
330
18D
100
AcDbEntity
  8
LAYOUT
100
AcDbLine
 10
27.3799648985
 20
17.9864209565
 30
0.0
 11
34.2040882078
 21
17.9864209565
 31
0.0
  0
LINE
  5
193
330
18D
100
AcDbEntity
  8
LAYOUT
100
AcDbLine
 10
27.3799648985
 20
18.7864209565
 30
0.0
 11
34.2040882078
 21
18.7864209565
 31
0.0
  0
LINE
  5
194
330
18D
100
AcDbEntity
  8
LAYOUT
100
AcDbLine
 10
33.6749215412
 20
17.9864209565
 30
0.0
 11
33.6749215412
 21
17.2455597974
 31
0.0
  0
LINE
  5
195
330
18D
100
AcDbEntity
  8
LAYOUT
100
AcDbLine
 10
33.6749215412
 20
18.7864209565
 30
0.0
 11
33.6749215412
 21
19.5272821156
 31
0.0
  0
MTEXT
  5
196
330
18D
100
AcDbEntity
  8
LAYOUT
100
AcDbMText
 10
32.5136946936
 20
18.6877037801
 30
0.0
 40
0.396875
 41
0.0
 71
     1
 72
     1
  1
0.800
  7
SLDTEXTSTYLE0
  0
MTEXT
  5
197
330
18D
100
AcDbEntity
  8
LAYOUT
100
AcDbMText
 10
33.9854395275
 20
18.6877037801
 30
0.0
 40
0.396875
 41
0.0
 71
     1
 72
     1
  1
typ.
  7
SLDTEXTSTYLE0
  0
ENDBLK
  5
18F
330
18D
100
AcDbEntity
  8
0
100
AcDbBlockEnd
  0
BLOCK
  5
19B
330
19A
100
AcDbEntity
  8
0
100
AcDbBlockBegin
  2
_D_10
 70
     0
 10
0.0
 20
0.0
 30
0.0
  3
_D_10
  1
_D_10
  0
SOLID
  5
19D
330
19A
100
AcDbEntity
  8
LAYOUT
100
AcDbTrace
 10
10.0391315652
 20
27.5989209565
 30
0.0
 11
9.9798626725
 21
27.2136731537
 31
0.0
 12
10.0984004579
 22
27.2136731537
 32
0.0
 13
10.0984004579
 23
27.2136731537
 33
0.0
  0
SOLID
  5
19E
330
19A
100
AcDbEntity
  8
LAYOUT
100
AcDbTrace
 10
10.0391315652
 20
12.3739209565
 30
0.0
 11
10.0984004579
 21
12.7591687592
 31
0.0
 12
9.9798626725
 22
12.7591687592
 32
0.0
 13
9.9798626725
 23
12.7591687592
 33
0.0
  0
LINE
  5
19F
330
19A
100
AcDbEntity
  8
LAYOUT
100
AcDbLine
 10
15.7441315652
 20
27.5989209565
 30
0.0
 11
9.5099648985
 21
27.5989209565
 31
0.0
  0
LINE
  5
1A0
330
19A
100
AcDbEntity
  8
LAYOUT
100
AcDbLine
 10
15.7441315652
 20
12.3739209565
 30
0.0
 11
9.5099648985
 21
12.3739209565
 31
0.0
  0
LINE
  5
1A1
330
19A
100
AcDbEntity
  8
LAYOUT
100
AcDbLine
 10
10.0391315652
 20
27.5989209565
 30
0.0
 11
10.0391315652
 21
19.7520807842
 31
0.0
  0
LINE
  5
1A2
330
19A
100
AcDbEntity
  8
LAYOUT
100
AcDbLine
 10
10.0391315652
 20
12.3739209565
 30
0.0
 11
10.0391315652
 21
19.1604430623
 31
0.0
  0
INSERT
  5
1AA
330
19A
100
AcDbEntity
  8
LAYOUT
100
AcDbBlockReference
  2
SW_SYMBOL_MOD_BOX
 10
8.1578337322
 20
19.2178049516
 30
0.0
 41
0.0030695926
 42
0.0030695926
 43
0.0030695926
  0
MTEXT
  5
1AB
330
19A
100
AcDbEntity
  8
LAYOUT
100
AcDbMText
 10
8.6903076742
 20
19.6720418312
 30
0.0
 40
0.396875
 41
0.0
 71
     1
 72
     1
  1
15.225
  7
SLDTEXTSTYLE0
  0
MTEXT
  5
1AC
330
19A
100
AcDbEntity
  8
LAYOUT
100
AcDbMText
 10
10.3072057834
 20
19.6720418312
 30
0.0
 40
0.396875
 41
0.0
 71
     1
 72
     1
  1
±0.125
  7
SLDTEXTSTYLE0
  0
ENDBLK
  5
19C
330
19A
100
AcDbEntity
  8
0
100
AcDbBlockEnd
  0
BLOCK
  5
1A4
330
1A3
100
AcDbEntity
  8
0
100
AcDbBlockBegin
  2
SW_SYMBOL_MOD_BOX
 70
     0
 10
0.0
 20
0.0
 30
0.0
  3
SW_SYMBOL_MOD_BOX
  1
SW_SYMBOL_MOD_BOX
  0
LINE
  5
1A6
330
1A3
100
AcDbEntity
  8
LAYOUT
 62
     0
100
AcDbLine
 10
33.3333333333
 20
33.3333333333
 30
0.0
 11
133.3333333333
 21
33.3333333333
 31
0.0
  0
LINE
  5
1A7
330
1A3
100
AcDbEntity
  8
LAYOUT
 62
     0
100
AcDbLine
 10
33.3333333333
 20
33.3333333333
 30
0.0
 11
33.3333333333
 21
133.3333333333
 31
0.0
  0
LINE
  5
1A8
330
1A3
100
AcDbEntity
  8
LAYOUT
 62
     0
100
AcDbLine
 10
33.3333333333
 20
133.3333333333
 30
0.0
 11
133.3333333333
 21
133.3333333333
 31
0.0
  0
LINE
  5
1A9
330
1A3
100
AcDbEntity
  8
LAYOUT
 62
     0
100
AcDbLine
 10
133.3333333333
 20
133.3333333333
 30
0.0
 11
133.3333333333
 21
33.3333333333
 31
0.0
  0
ENDBLK
  5
1A5
330
1A3
100
AcDbEntity
  8
0
100
AcDbBlockEnd
  0
BLOCK
  5
1AF
330
1AE
100
AcDbEntity
  8
0
100
AcDbBlockBegin
  2
_D_11
 70
     0
 10
0.0
 20
0.0
 30
0.0
  3
_D_11
  1
_D_11
  0
SOLID
  5
1B1
330
1AE
100
AcDbEntity
  8
LAYOUT
100
AcDbTrace
 10
27.4051060541
 20
17.1062832291
 30
0.0
 11
27.7510261293
 21
16.926650346
 31
0.0
 12
27.7890235242
 22
17.0389330453
 32
0.0
 13
27.7890235242
 23
17.0389330453
 33
0.0
  0
LINE
  5
1B2
330
1AE
100
AcDbEntity
  8
LAYOUT
100
AcDbLine
 10
27.4051060541
 20
17.1062832291
 30
0.0
 11
31.6961322133
 21
15.6541644553
 31
0.0
  0
LINE
  5
1B3
330
1AE
100
AcDbEntity
  8
LAYOUT
100
AcDbLine
 10
31.6961322133
 20
15.6541644553
 30
0.0
 11
32.5294655466
 21
15.6541644553
 31
0.0
  0
MTEXT
  5
1B4
330
1AE
100
AcDbEntity
  8
LAYOUT
100
AcDbMText
 10
32.5294655466
 20
15.8449559309
 30
0.0
 40
0.396875
 41
0.0
 71
     1
 72
     1
  1
%%c
  7
SLDTEXTSTYLE0
  0
MTEXT
  5
1B5
330
1AE
100
AcDbEntity
  8
LAYOUT
100
AcDbMText
 10
33.091521398
 20
15.8449559309
 30
0.0
 40
0.396875
 41
0.0
 71
     1
 72
     1
  1
0.500
  7
SLDTEXTSTYLE0
  0
MTEXT
  5
1B6
330
1AE
100
AcDbEntity
  8
LAYOUT
100
AcDbMText
 10
34.563266193
 20
15.8449559309
 30
0.0
 40
0.396875
 41
0.0
 71
     1
 72
     1
  1
pad (x100)
  7
SLDTEXTSTYLE0
  0
ENDBLK
  5
1B0
330
1AE
100
AcDbEntity
  8
0
100
AcDbBlockEnd
  0
ENDSEC
  0
SECTION
  2
ENTITIES
  0
INSERT
  5
8C
330
1F
100
AcDbEntity
  8
LAYOUT
 62
     7
100
AcDbBlockReference
  2
SW_NOTE_0
 10
1.5252068022
 20
8.836735329
 30
0.0
  0
INSERT
  5
93
330
1F
100
AcDbEntity
  8
LAYOUT
 62
     7
100
AcDbBlockReference
  2
SW_NOTE_1
 10
35.6053046265
 20
33.7148160244
 30
0.0
  0
INSERT
  5
A1
330
1F
100
AcDbEntity
  8
0
  6
CONTINUOUS
 62
     7
100
AcDbBlockReference
  2
SW_NOTE_3
 10
1.474588489
 20
4.1405396531
 30
0.0
  0
MTEXT
  5
A2
330
1F
100
AcDbEntity
  8
0
  6
CONTINUOUS
 62
     7
100
AcDbMText
 10
1.5108153143
 20
5.8992427102
 30
0.0
 40
0.5291666667
 41
0.0
 71
     1
 72
     1
  1
\LDescription: Recommended PCB Layout
  7
SLDTEXTSTYLE0
  0
MTEXT
  5
A3
330
1F
100
AcDbEntity
  8
0
  6
CONTINUOUS
 62
     7
100
AcDbMText
 10
1.474588489
 20
4.9893657215
 30
0.0
 40
0.2645833333
 41
0.0
 71
     1
 72
     1
  1
Primary dimension units are millimeters, Secondary dimension units are [inches], Weight is in grams.
  7
SLDTEXTSTYLE0
  0
LINE
  5
B5
330
1F
100
AcDbEntity
  8
0
  6
CONTINUOUS
 62
     7
100
AcDbLine
 10
32.4307983109
 20
28.8489210355
 30
0.0
 11
14.7057981529
 21
28.8489210355
 31
0.0
  0
LINE
  5
B6
330
1F
100
AcDbEntity
  8
0
  6
CONTINUOUS
 62
     7
100
AcDbLine
 10
32.4307983109
 20
11.1239208775
 30
0.0
 11
32.4307983109
 21
28.8489210355
 31
0.0
  0
LINE
  5
B7
330
1F
100
AcDbEntity
  8
0
  6
CONTINUOUS
 62
     7
100
AcDbLine
 10
14.7057981529
 20
11.1239208775
 30
0.0
 11
32.4307983109
 21
11.1239208775
 31
0.0
  0
LINE
  5
B8
330
1F
100
AcDbEntity
  8
0
  6
CONTINUOUS
 62
     7
100
AcDbLine
 10
14.7057981529
 20
28.8489210355
 30
0.0
 11
14.7057981529
 21
11.1239208775
 31
0.0
  0
LINE
  5
B9
330
1F
100
AcDbEntity
  8
0
  6
CONTINUOUS
 62
     7
100
AcDbLine
 10
17.5682981797
 20
18.9257739978
 30
0.0
 11
17.5682981797
 21
18.4820679417
 31
0.0
  0
CIRCLE
  5
BA
330
1F
100
AcDbEntity
  8
0
  6
CONTINUOUS
 62
     7
100
AcDbCircle
 10
25.5682982319
 20
18.7864209565
 30
0.0
 40
0.25
  0
CIRCLE
  5
BB
330
1F
100
AcDbEntity
  8
0
  6
CONTINUOUS
 62
     7
100
AcDbCircle
 10
26.3682982319
 20
18.7864209565
 30
0.0
 40
0.25
  0
CIRCLE
  5
BC
330
1F
100
AcDbEntity
  8
0
  6
CONTINUOUS
 62
     7
100
AcDbCircle
 10
27.1682982319
 20
18.7864209565
 30
0.0
 40
0.25
  0
CIRCLE
  5
BD
330
1F
100
AcDbEntity
  8
0
  6
CONTINUOUS
 62
     7
100
AcDbCircle
 10
19.9682982319
 20
19.5864209565
 30
0.0
 40
0.25
  0
CIRCLE
  5
BE
330
1F
100
AcDbEntity
  8
0
  6
CONTINUOUS
 62
     7
100
AcDbCircle
 10
20.7682982319
 20
19.5864209565
 30
0.0
 40
0.25
  0
CIRCLE
  5
BF
330
1F
100
AcDbEntity
  8
0
  6
CONTINUOUS
 62
     7
100
AcDbCircle
 10
21.5682982319
 20
19.5864209565
 30
0.0
 40
0.25
  0
CIRCLE
  5
C0
330
1F
100
AcDbEntity
  8
0
  6
CONTINUOUS
 62
     7
100
AcDbCircle
 10
22.3682982319
 20
19.5864209565
 30
0.0
 40
0.25
  0
CIRCLE
  5
C1
330
1F
100
AcDbEntity
  8
0
  6
CONTINUOUS
 62
     7
100
AcDbCircle
 10
23.1682982319
 20
19.5864209565
 30
0.0
 40
0.25
  0
CIRCLE
  5
C2
330
1F
100
AcDbEntity
  8
0
  6
CONTINUOUS
 62
     7
100
AcDbCircle
 10
23.9682982319
 20
19.5864209565
 30
0.0
 40
0.25
  0
CIRCLE
  5
C3
330
1F
100
AcDbEntity
  8
0
  6
CONTINUOUS
 62
     7
100
AcDbCircle
 10
24.7682982319
 20
19.5864209565
 30
0.0
 40
0.25
  0
CIRCLE
  5
C4
330
1F
100
AcDbEntity
  8
0
  6
CONTINUOUS
 62
     7
100
AcDbCircle
 10
25.5682982319
 20
19.5864209565
 30
0.0
 40
0.25
  0
CIRCLE
  5
C5
330
1F
100
AcDbEntity
  8
0
  6
CONTINUOUS
 62
     7
100
AcDbCircle
 10
26.3682982319
 20
19.5864209565
 30
0.0
 40
0.25
  0
CIRCLE
  5
C6
330
1F
100
AcDbEntity
  8
0
  6
CONTINUOUS
 62
     7
100
AcDbCircle
 10
27.1682982319
 20
19.5864209565
 30
0.0
 40
0.25
  0
CIRCLE
  5
C7
330
1F
100
AcDbEntity
  8
0
  6
CONTINUOUS
 62
     7
100
AcDbCircle
 10
19.9682982319
 20
20.3864209565
 30
0.0
 40
0.25
  0
CIRCLE
  5
C8
330
1F
100
AcDbEntity
  8
0
  6
CONTINUOUS
 62
     7
100
AcDbCircle
 10
20.7682982319
 20
20.3864209565
 30
0.0
 40
0.25
  0
CIRCLE
  5
C9
330
1F
100
AcDbEntity
  8
0
  6
CONTINUOUS
 62
     7
100
AcDbCircle
 10
21.5682982319
 20
20.3864209565
 30
0.0
 40
0.25
  0
CIRCLE
  5
CA
330
1F
100
AcDbEntity
  8
0
  6
CONTINUOUS
 62
     7
100
AcDbCircle
 10
22.3682982319
 20
20.3864209565
 30
0.0
 40
0.25
  0
CIRCLE
  5
CB
330
1F
100
AcDbEntity
  8
0
  6
CONTINUOUS
 62
     7
100
AcDbCircle
 10
23.1682982319
 20
20.3864209565
 30
0.0
 40
0.25
  0
CIRCLE
  5
CC
330
1F
100
AcDbEntity
  8
0
  6
CONTINUOUS
 62
     7
100
AcDbCircle
 10
23.9682982319
 20
20.3864209565
 30
0.0
 40
0.25
  0
CIRCLE
  5
CD
330
1F
100
AcDbEntity
  8
0
  6
CONTINUOUS
 62
     7
100
AcDbCircle
 10
24.7682982319
 20
20.3864209565
 30
0.0
 40
0.25
  0
CIRCLE
  5
CE
330
1F
100
AcDbEntity
  8
0
  6
CONTINUOUS
 62
     7
100
AcDbCircle
 10
25.5682982319
 20
20.3864209565
 30
0.0
 40
0.25
  0
CIRCLE
  5
CF
330
1F
100
AcDbEntity
  8
0
  6
CONTINUOUS
 62
     7
100
AcDbCircle
 10
26.3682982319
 20
20.3864209565
 30
0.0
 40
0.25
  0
CIRCLE
  5
D0
330
1F
100
AcDbEntity
  8
0
  6
CONTINUOUS
 62
     7
100
AcDbCircle
 10
27.1682982319
 20
20.3864209565
 30
0.0
 40
0.25
  0
CIRCLE
  5
D1
330
1F
100
AcDbEntity
  8
0
  6
CONTINUOUS
 62
     7
100
AcDbCircle
 10
19.9682982319
 20
21.1864209565
 30
0.0
 40
0.25
  0
CIRCLE
  5
D2
330
1F
100
AcDbEntity
  8
0
  6
CONTINUOUS
 62
     7
100
AcDbCircle
 10
20.7682982319
 20
21.1864209565
 30
0.0
 40
0.25
  0
CIRCLE
  5
D3
330
1F
100
AcDbEntity
  8
0
  6
CONTINUOUS
 62
     7
100
AcDbCircle
 10
21.5682982319
 20
21.1864209565
 30
0.0
 40
0.25
  0
CIRCLE
  5
D4
330
1F
100
AcDbEntity
  8
0
  6
CONTINUOUS
 62
     7
100
AcDbCircle
 10
22.3682982319
 20
21.1864209565
 30
0.0
 40
0.25
  0
CIRCLE
  5
D5
330
1F
100
AcDbEntity
  8
0
  6
CONTINUOUS
 62
     7
100
AcDbCircle
 10
23.1682982319
 20
21.1864209565
 30
0.0
 40
0.25
  0
CIRCLE
  5
D6
330
1F
100
AcDbEntity
  8
0
  6
CONTINUOUS
 62
     7
100
AcDbCircle
 10
23.9682982319
 20
21.1864209565
 30
0.0
 40
0.25
  0
CIRCLE
  5
D7
330
1F
100
AcDbEntity
  8
0
  6
CONTINUOUS
 62
     7
100
AcDbCircle
 10
19.9682982319
 20
16.3864209565
 30
0.0
 40
0.25
  0
CIRCLE
  5
D8
330
1F
100
AcDbEntity
  8
0
  6
CONTINUOUS
 62
     7
100
AcDbCircle
 10
20.7682982319
 20
16.3864209565
 30
0.0
 40
0.25
  0
CIRCLE
  5
D9
330
1F
100
AcDbEntity
  8
0
  6
CONTINUOUS
 62
     7
100
AcDbCircle
 10
21.5682982319
 20
16.3864209565
 30
0.0
 40
0.25
  0
CIRCLE
  5
DA
330
1F
100
AcDbEntity
  8
0
  6
CONTINUOUS
 62
     7
100
AcDbCircle
 10
22.3682982319
 20
16.3864209565
 30
0.0
 40
0.25
  0
CIRCLE
  5
DB
330
1F
100
AcDbEntity
  8
0
  6
CONTINUOUS
 62
     7
100
AcDbCircle
 10
23.1682982319
 20
16.3864209565
 30
0.0
 40
0.25
  0
CIRCLE
  5
DC
330
1F
100
AcDbEntity
  8
0
  6
CONTINUOUS
 62
     7
100
AcDbCircle
 10
23.9682982319
 20
16.3864209565
 30
0.0
 40
0.25
  0
CIRCLE
  5
DD
330
1F
100
AcDbEntity
  8
0
  6
CONTINUOUS
 62
     7
100
AcDbCircle
 10
24.7682982319
 20
16.3864209565
 30
0.0
 40
0.25
  0
CIRCLE
  5
DE
330
1F
100
AcDbEntity
  8
0
  6
CONTINUOUS
 62
     7
100
AcDbCircle
 10
25.5682982319
 20
16.3864209565
 30
0.0
 40
0.25
  0
CIRCLE
  5
DF
330
1F
100
AcDbEntity
  8
0
  6
CONTINUOUS
 62
     7
100
AcDbCircle
 10
26.3682982319
 20
16.3864209565
 30
0.0
 40
0.25
  0
CIRCLE
  5
E0
330
1F
100
AcDbEntity
  8
0
  6
CONTINUOUS
 62
     7
100
AcDbCircle
 10
27.1682982319
 20
16.3864209565
 30
0.0
 40
0.25
  0
CIRCLE
  5
E1
330
1F
100
AcDbEntity
  8
0
  6
CONTINUOUS
 62
     7
100
AcDbCircle
 10
19.9682982319
 20
17.1864209565
 30
0.0
 40
0.25
  0
CIRCLE
  5
E2
330
1F
100
AcDbEntity
  8
0
  6
CONTINUOUS
 62
     7
100
AcDbCircle
 10
20.7682982319
 20
17.1864209565
 30
0.0
 40
0.25
  0
CIRCLE
  5
E3
330
1F
100
AcDbEntity
  8
0
  6
CONTINUOUS
 62
     7
100
AcDbCircle
 10
21.5682982319
 20
17.1864209565
 30
0.0
 40
0.25
  0
CIRCLE
  5
E4
330
1F
100
AcDbEntity
  8
0
  6
CONTINUOUS
 62
     7
100
AcDbCircle
 10
22.3682982319
 20
17.1864209565
 30
0.0
 40
0.25
  0
CIRCLE
  5
E5
330
1F
100
AcDbEntity
  8
0
  6
CONTINUOUS
 62
     7
100
AcDbCircle
 10
23.1682982319
 20
17.1864209565
 30
0.0
 40
0.25
  0
CIRCLE
  5
E6
330
1F
100
AcDbEntity
  8
0
  6
CONTINUOUS
 62
     7
100
AcDbCircle
 10
23.9682982319
 20
17.1864209565
 30
0.0
 40
0.25
  0
CIRCLE
  5
E7
330
1F
100
AcDbEntity
  8
0
  6
CONTINUOUS
 62
     7
100
AcDbCircle
 10
24.7682982319
 20
17.1864209565
 30
0.0
 40
0.25
  0
CIRCLE
  5
E8
330
1F
100
AcDbEntity
  8
0
  6
CONTINUOUS
 62
     7
100
AcDbCircle
 10
25.5682982319
 20
17.1864209565
 30
0.0
 40
0.25
  0
CIRCLE
  5
E9
330
1F
100
AcDbEntity
  8
0
  6
CONTINUOUS
 62
     7
100
AcDbCircle
 10
26.3682982319
 20
17.1864209565
 30
0.0
 40
0.25
  0
CIRCLE
  5
EA
330
1F
100
AcDbEntity
  8
0
  6
CONTINUOUS
 62
     7
100
AcDbCircle
 10
27.1682982319
 20
17.1864209565
 30
0.0
 40
0.25
  0
CIRCLE
  5
EB
330
1F
100
AcDbEntity
  8
0
  6
CONTINUOUS
 62
     7
100
AcDbCircle
 10
19.9682982319
 20
17.9864209565
 30
0.0
 40
0.25
  0
CIRCLE
  5
EC
330
1F
100
AcDbEntity
  8
0
  6
CONTINUOUS
 62
     7
100
AcDbCircle
 10
20.7682982319
 20
17.9864209565
 30
0.0
 40
0.25
  0
CIRCLE
  5
ED
330
1F
100
AcDbEntity
  8
0
  6
CONTINUOUS
 62
     7
100
AcDbCircle
 10
21.5682982319
 20
17.9864209565
 30
0.0
 40
0.25
  0
CIRCLE
  5
EE
330
1F
100
AcDbEntity
  8
0
  6
CONTINUOUS
 62
     7
100
AcDbCircle
 10
22.3682982319
 20
17.9864209565
 30
0.0
 40
0.25
  0
CIRCLE
  5
EF
330
1F
100
AcDbEntity
  8
0
  6
CONTINUOUS
 62
     7
100
AcDbCircle
 10
23.1682982319
 20
17.9864209565
 30
0.0
 40
0.25
  0
CIRCLE
  5
F0
330
1F
100
AcDbEntity
  8
0
  6
CONTINUOUS
 62
     7
100
AcDbCircle
 10
23.9682982319
 20
17.9864209565
 30
0.0
 40
0.25
  0
CIRCLE
  5
F1
330
1F
100
AcDbEntity
  8
0
  6
CONTINUOUS
 62
     7
100
AcDbCircle
 10
24.7682982319
 20
17.9864209565
 30
0.0
 40
0.25
  0
CIRCLE
  5
F2
330
1F
100
AcDbEntity
  8
0
  6
CONTINUOUS
 62
     7
100
AcDbCircle
 10
25.5682982319
 20
17.9864209565
 30
0.0
 40
0.25
  0
CIRCLE
  5
F3
330
1F
100
AcDbEntity
  8
0
  6
CONTINUOUS
 62
     7
100
AcDbCircle
 10
26.3682982319
 20
17.9864209565
 30
0.0
 40
0.25
  0
CIRCLE
  5
F4
330
1F
100
AcDbEntity
  8
0
  6
CONTINUOUS
 62
     7
100
AcDbCircle
 10
27.1682982319
 20
17.9864209565
 30
0.0
 40
0.25
  0
CIRCLE
  5
F5
330
1F
100
AcDbEntity
  8
0
  6
CONTINUOUS
 62
     7
100
AcDbCircle
 10
19.9682982319
 20
18.7864209565
 30
0.0
 40
0.25
  0
CIRCLE
  5
F6
330
1F
100
AcDbEntity
  8
0
  6
CONTINUOUS
 62
     7
100
AcDbCircle
 10
20.7682982319
 20
18.7864209565
 30
0.0
 40
0.25
  0
CIRCLE
  5
F7
330
1F
100
AcDbEntity
  8
0
  6
CONTINUOUS
 62
     7
100
AcDbCircle
 10
21.5682982319
 20
18.7864209565
 30
0.0
 40
0.25
  0
CIRCLE
  5
F8
330
1F
100
AcDbEntity
  8
0
  6
CONTINUOUS
 62
     7
100
AcDbCircle
 10
22.3682982319
 20
18.7864209565
 30
0.0
 40
0.25
  0
CIRCLE
  5
F9
330
1F
100
AcDbEntity
  8
0
  6
CONTINUOUS
 62
     7
100
AcDbCircle
 10
23.1682982319
 20
18.7864209565
 30
0.0
 40
0.25
  0
CIRCLE
  5
FA
330
1F
100
AcDbEntity
  8
0
  6
CONTINUOUS
 62
     7
100
AcDbCircle
 10
23.9682982319
 20
18.7864209565
 30
0.0
 40
0.25
  0
CIRCLE
  5
FB
330
1F
100
AcDbEntity
  8
0
  6
CONTINUOUS
 62
     7
100
AcDbCircle
 10
24.7682982319
 20
18.7864209565
 30
0.0
 40
0.25
  0
CIRCLE
  5
FC
330
1F
100
AcDbEntity
  8
0
  6
CONTINUOUS
 62
     7
100
AcDbCircle
 10
19.9682982319
 20
21.9864209565
 30
0.0
 40
0.25
  0
CIRCLE
  5
FD
330
1F
100
AcDbEntity
  8
0
  6
CONTINUOUS
 62
     7
100
AcDbCircle
 10
20.7682982319
 20
21.9864209565
 30
0.0
 40
0.25
  0
CIRCLE
  5
FE
330
1F
100
AcDbEntity
  8
0
  6
CONTINUOUS
 62
     7
100
AcDbCircle
 10
21.5682982319
 20
21.9864209565
 30
0.0
 40
0.25
  0
CIRCLE
  5
FF
330
1F
100
AcDbEntity
  8
0
  6
CONTINUOUS
 62
     7
100
AcDbCircle
 10
22.3682982319
 20
21.9864209565
 30
0.0
 40
0.25
  0
CIRCLE
  5
100
330
1F
100
AcDbEntity
  8
0
  6
CONTINUOUS
 62
     7
100
AcDbCircle
 10
23.1682982319
 20
21.9864209565
 30
0.0
 40
0.25
  0
CIRCLE
  5
101
330
1F
100
AcDbEntity
  8
0
  6
CONTINUOUS
 62
     7
100
AcDbCircle
 10
23.9682982319
 20
21.9864209565
 30
0.0
 40
0.25
  0
CIRCLE
  5
102
330
1F
100
AcDbEntity
  8
0
  6
CONTINUOUS
 62
     7
100
AcDbCircle
 10
24.7682982319
 20
21.9864209565
 30
0.0
 40
0.25
  0
CIRCLE
  5
103
330
1F
100
AcDbEntity
  8
0
  6
CONTINUOUS
 62
     7
100
AcDbCircle
 10
25.5682982319
 20
21.9864209565
 30
0.0
 40
0.25
  0
CIRCLE
  5
104
330
1F
100
AcDbEntity
  8
0
  6
CONTINUOUS
 62
     7
100
AcDbCircle
 10
26.3682982319
 20
21.9864209565
 30
0.0
 40
0.25
  0
CIRCLE
  5
105
330
1F
100
AcDbEntity
  8
0
  6
CONTINUOUS
 62
     7
100
AcDbCircle
 10
27.1682982319
 20
21.9864209565
 30
0.0
 40
0.25
  0
CIRCLE
  5
106
330
1F
100
AcDbEntity
  8
0
  6
CONTINUOUS
 62
     7
100
AcDbCircle
 10
19.9682982319
 20
22.7864209565
 30
0.0
 40
0.25
  0
CIRCLE
  5
107
330
1F
100
AcDbEntity
  8
0
  6
CONTINUOUS
 62
     7
100
AcDbCircle
 10
20.7682982319
 20
22.7864209565
 30
0.0
 40
0.25
  0
CIRCLE
  5
108
330
1F
100
AcDbEntity
  8
0
  6
CONTINUOUS
 62
     7
100
AcDbCircle
 10
21.5682982319
 20
22.7864209565
 30
0.0
 40
0.25
  0
CIRCLE
  5
109
330
1F
100
AcDbEntity
  8
0
  6
CONTINUOUS
 62
     7
100
AcDbCircle
 10
22.3682982319
 20
22.7864209565
 30
0.0
 40
0.25
  0
CIRCLE
  5
10A
330
1F
100
AcDbEntity
  8
0
  6
CONTINUOUS
 62
     7
100
AcDbCircle
 10
23.1682982319
 20
22.7864209565
 30
0.0
 40
0.25
  0
CIRCLE
  5
10B
330
1F
100
AcDbEntity
  8
0
  6
CONTINUOUS
 62
     7
100
AcDbCircle
 10
23.9682982319
 20
22.7864209565
 30
0.0
 40
0.25
  0
CIRCLE
  5
10C
330
1F
100
AcDbEntity
  8
0
  6
CONTINUOUS
 62
     7
100
AcDbCircle
 10
24.7682982319
 20
22.7864209565
 30
0.0
 40
0.25
  0
CIRCLE
  5
10D
330
1F
100
AcDbEntity
  8
0
  6
CONTINUOUS
 62
     7
100
AcDbCircle
 10
25.5682982319
 20
22.7864209565
 30
0.0
 40
0.25
  0
CIRCLE
  5
10E
330
1F
100
AcDbEntity
  8
0
  6
CONTINUOUS
 62
     7
100
AcDbCircle
 10
26.3682982319
 20
22.7864209565
 30
0.0
 40
0.25
  0
CIRCLE
  5
10F
330
1F
100
AcDbEntity
  8
0
  6
CONTINUOUS
 62
     7
100
AcDbCircle
 10
27.1682982319
 20
22.7864209565
 30
0.0
 40
0.25
  0
CIRCLE
  5
110
330
1F
100
AcDbEntity
  8
0
  6
CONTINUOUS
 62
     7
100
AcDbCircle
 10
19.9682982319
 20
23.5864209565
 30
0.0
 40
0.25
  0
CIRCLE
  5
111
330
1F
100
AcDbEntity
  8
0
  6
CONTINUOUS
 62
     7
100
AcDbCircle
 10
20.7682982319
 20
23.5864209565
 30
0.0
 40
0.25
  0
CIRCLE
  5
112
330
1F
100
AcDbEntity
  8
0
  6
CONTINUOUS
 62
     7
100
AcDbCircle
 10
21.5682982319
 20
23.5864209565
 30
0.0
 40
0.25
  0
CIRCLE
  5
113
330
1F
100
AcDbEntity
  8
0
  6
CONTINUOUS
 62
     7
100
AcDbCircle
 10
22.3682982319
 20
23.5864209565
 30
0.0
 40
0.25
  0
CIRCLE
  5
114
330
1F
100
AcDbEntity
  8
0
  6
CONTINUOUS
 62
     7
100
AcDbCircle
 10
23.1682982319
 20
23.5864209565
 30
0.0
 40
0.25
  0
CIRCLE
  5
115
330
1F
100
AcDbEntity
  8
0
  6
CONTINUOUS
 62
     7
100
AcDbCircle
 10
23.9682982319
 20
23.5864209565
 30
0.0
 40
0.25
  0
CIRCLE
  5
116
330
1F
100
AcDbEntity
  8
0
  6
CONTINUOUS
 62
     7
100
AcDbCircle
 10
24.7682982319
 20
23.5864209565
 30
0.0
 40
0.25
  0
CIRCLE
  5
117
330
1F
100
AcDbEntity
  8
0
  6
CONTINUOUS
 62
     7
100
AcDbCircle
 10
25.5682982319
 20
23.5864209565
 30
0.0
 40
0.25
  0
CIRCLE
  5
118
330
1F
100
AcDbEntity
  8
0
  6
CONTINUOUS
 62
     7
100
AcDbCircle
 10
26.3682982319
 20
23.5864209565
 30
0.0
 40
0.25
  0
CIRCLE
  5
119
330
1F
100
AcDbEntity
  8
0
  6
CONTINUOUS
 62
     7
100
AcDbCircle
 10
24.7682982319
 20
21.1864209565
 30
0.0
 40
0.25
  0
CIRCLE
  5
11A
330
1F
100
AcDbEntity
  8
0
  6
CONTINUOUS
 62
     7
100
AcDbCircle
 10
25.5682982319
 20
21.1864209565
 30
0.0
 40
0.25
  0
CIRCLE
  5
11B
330
1F
100
AcDbEntity
  8
0
  6
CONTINUOUS
 62
     7
100
AcDbCircle
 10
26.3682982319
 20
21.1864209565
 30
0.0
 40
0.25
  0
CIRCLE
  5
11C
330
1F
100
AcDbEntity
  8
0
  6
CONTINUOUS
 62
     7
100
AcDbCircle
 10
27.1682982319
 20
21.1864209565
 30
0.0
 40
0.25
  0
CIRCLE
  5
11D
330
1F
100
AcDbEntity
  8
0
  6
CONTINUOUS
 62
     7
100
AcDbCircle
 10
27.1682982319
 20
23.5864209565
 30
0.0
 40
0.25
  0
CIRCLE
  5
11E
330
1F
100
AcDbEntity
  8
0
  6
CONTINUOUS
 62
     7
100
AcDbCircle
 10
17.2057982319
 20
26.3489209565
 30
0.0
 40
0.8550000000000004
  0
CIRCLE
  5
11F
330
1F
100
AcDbEntity
  8
0
  6
CONTINUOUS
 62
     7
100
AcDbCircle
 10
29.9307982319
 20
26.3489209565
 30
0.0
 40
0.8550000000000004
  0
CIRCLE
  5
120
330
1F
100
AcDbEntity
  8
0
  6
CONTINUOUS
 62
     7
100
AcDbCircle
 10
29.9307982319
 20
23.8089209565
 30
0.0
 40
0.4250000000000043
  0
CIRCLE
  5
121
330
1F
100
AcDbEntity
  8
0
  6
CONTINUOUS
 62
     7
100
AcDbCircle
 10
29.9307982319
 20
13.6239209565
 30
0.0
 40
0.8550000000000022
  0
CIRCLE
  5
122
330
1F
100
AcDbEntity
  8
0
  6
CONTINUOUS
 62
     7
100
AcDbCircle
 10
17.2057982319
 20
13.6239209565
 30
0.0
 40
0.8550000000000022
  0
LINE
  5
123
330
1F
100
AcDbEntity
  8
0
  6
CONTINUOUS
 62
     7
100
AcDbLine
 10
15.9557983578
 20
12.3739210824
 30
0.0
 11
31.180798106
 21
12.3739210824
 31
0.0
  0
LINE
  5
124
330
1F
100
AcDbEntity
  8
0
  6
CONTINUOUS
 62
     7
100
AcDbLine
 10
15.9557983578
 20
27.5989208306
 30
0.0
 11
15.9557983578
 21
12.3739210824
 31
0.0
  0
LINE
  5
125
330
1F
100
AcDbEntity
  8
0
  6
CONTINUOUS
 62
     7
100
AcDbLine
 10
31.180798106
 20
27.5989208306
 30
0.0
 11
15.9557983578
 21
27.5989208306
 31
0.0
  0
LINE
  5
126
330
1F
100
AcDbEntity
  8
0
  6
CONTINUOUS
 62
     7
100
AcDbLine
 10
31.180798106
 20
12.3739210824
 30
0.0
 11
31.180798106
 21
27.5989208306
 31
0.0
  0
CIRCLE
  5
127
330
1F
100
AcDbEntity
  8
0
  6
CONTINUOUS
 62
     7
100
AcDbCircle
 10
17.2057982319
 20
18.7039209565
 30
0.0
 40
0.4250000000000007
  0
DIMENSION
  5
128
330
1F
100
AcDbEntity
  8
LAYOUT
100
AcDbDimension
  2
_D
 10
19.9682982319
 20
10.7072542898
 30
0.0
 11
21.7264509821
 21
10.7072542898
 31
0.0
 70
   160
  1
<>
  3
SLDDIMSTYLE0
100
AcDbAlignedDimension
 13
23.5682982319
 23
19.9864209565
 33
0.0
 14
19.9682982319
 24
16.3864209565
 34
0.0
100
AcDbRotatedDimension
  0
DIMENSION
  5
134
330
1F
100
AcDbEntity
  8
LAYOUT
100
AcDbDimension
  2
_D_1
 10
17.2057982319
 20
29.3514215037
 30
0.0
 11
13.655263223
 21
29.3514215037
 31
0.0
 70
   160
  1
<>
  3
SLDDIMSTYLE0
100
AcDbAlignedDimension
 13
15.9557982319
 23
27.5989209565
 33
0.0
 14
17.2057982319
 24
26.3489209565
 34
0.0
100
AcDbRotatedDimension
  0
DIMENSION
  5
13F
330
1F
100
AcDbEntity
  8
LAYOUT
100
AcDbDimension
  2
_D_2
 10
13.655263223
 20
27.5989209565
 30
0.0
 11
13.655263223
 21
26.8707642496
 31
0.0
 70
   160
  1
<>
  3
SLDDIMSTYLE1
100
AcDbAlignedDimension
 13
17.2057982319
 23
26.3489209565
 33
0.0
 14
15.9557982319
 24
27.5989209565
 34
0.0
 50
90.0
100
AcDbRotatedDimension
  0
DIMENSION
  5
14B
330
1F
100
AcDbEntity
  8
LAYOUT
100
AcDbDimension
  2
_D_3
 10
29.3751616674
 20
14.2737617125
 30
0.0
 11
33.6749215412
 21
11.3219053824
 31
0.0
 70
   163
  1
<>
  3
SLDDIMSTYLE2
100
AcDbDiametricDimension
 15
30.4864347963
 25
12.9740802004
 35
0.0
 40
0.0
  0
DIMENSION
  5
155
330
1F
100
AcDbEntity
  8
LAYOUT
100
AcDbDimension
  2
_D_4
 10
29.5165187821
 20
23.9037763068
 30
0.0
 11
36.298765346
 21
22.7574814773
 31
0.0
 70
   163
  1
<>
  3
SLDDIMSTYLE3
100
AcDbDiametricDimension
 15
30.3450776817
 25
23.7140656062
 35
0.0
 40
0.0
  0
DIMENSION
  5
15F
330
1F
100
AcDbEntity
  8
LAYOUT
100
AcDbDimension
  2
_D_5
 10
13.655263223
 20
13.6239209565
 30
0.0
 11
13.655263223
 21
15.6541644553
 31
0.0
 70
   160
  1
<>
  3
SLDDIMSTYLE0
100
AcDbAlignedDimension
 13
17.2057982319
 23
18.7039209565
 33
0.0
 14
17.2057982319
 24
13.6239209565
 34
0.0
 50
90.0
100
AcDbRotatedDimension
  0
DIMENSION
  5
16A
330
1F
100
AcDbEntity
  8
LAYOUT
100
AcDbDimension
  2
_D_6
 10
33.6749215412
 20
26.3489209565
 30
0.0
 11
33.6749215412
 21
25.1809781472
 31
0.0
 70
   160
  1
<>
  3
SLDDIMSTYLE0
100
AcDbAlignedDimension
 13
29.9307982319
 23
23.8089209565
 33
0.0
 14
29.9307982319
 24
26.3489209565
 34
0.0
 50
90.0
100
AcDbRotatedDimension
  0
DIMENSION
  5
175
330
1F
100
AcDbEntity
  8
LAYOUT
100
AcDbDimension
  2
_D_7
 10
23.5682982319
 20
29.3514215037
 30
0.0
 11
21.7264509821
 21
29.3514215037
 31
0.0
 70
   160
  1
<>
  3
SLDDIMSTYLE0
100
AcDbAlignedDimension
 13
19.9682982319
 23
23.5864209565
 33
0.0
 14
23.5682982319
 24
28.0155876231
 34
0.0
100
AcDbRotatedDimension
  0
DIMENSION
  5
180
330
1F
100
AcDbEntity
  8
LAYOUT
100
AcDbDimension
  2
_D_8
 10
13.655263223
 20
19.9864209565
 30
0.0
 11
13.655263223
 21
22.1529689135
 31
0.0
 70
   160
  1
<>
  3
SLDDIMSTYLE0
100
AcDbAlignedDimension
 13
19.9682982319
 23
23.5864209565
 33
0.0
 14
15.5391315652
 24
19.9864209565
 34
0.0
 50
90.0
100
AcDbRotatedDimension
  0
DIMENSION
  5
18B
330
1F
100
AcDbEntity
  8
LAYOUT
100
AcDbDimension
  2
_D_9
 10
33.6749215412
 20
18.7864209565
 30
0.0
 11
33.6749215412
 21
18.4719238722
 31
0.0
 70
   160
  1
<> typ.
  3
SLDDIMSTYLE4
100
AcDbAlignedDimension
 13
27.1682982319
 23
17.9864209565
 33
0.0
 14
27.1682982319
 24
18.7864209565
 34
0.0
 50
90.0
100
AcDbRotatedDimension
  0
DIMENSION
  5
198
330
1F
100
AcDbEntity
  8
LAYOUT
100
AcDbDimension
  2
_D_10
 10
10.0391315652
 20
12.3739209565
 30
0.0
 11
10.0391315652
 21
19.4562619232
 31
0.0
 70
   160
  1
{\fGDT;o}<>
  3
SLDDIMSTYLE5
100
AcDbAlignedDimension
 13
15.9557982319
 23
27.5989209565
 33
0.0
 14
15.9557982319
 24
12.3739209565
 34
0.0
 50
90.0
100
AcDbRotatedDimension
  0
DIMENSION
  5
1AD
330
1F
100
AcDbEntity
  8
LAYOUT
100
AcDbDimension
  2
_D_11
 10
26.9314904097
 20
17.2665586838
 30
0.0
 11
34.809567658
 21
15.6541644553
 31
0.0
 70
   163
  1
<> pad (x100)
  3
SLDDIMSTYLE3
100
AcDbDiametricDimension
 15
27.4051060541
 25
17.1062832291
 35
0.0
 40
0.0
  0
LINE
  5
1B7
330
1F
100
AcDbEntity
  8
LAYOUT
  6
CENTERX2
 62
     7
100
AcDbLine
 10
23.5682982319
 20
28.0155876231
 30
0.0
 11
23.5682982319
 21
11.9572542898
 31
0.0
  0
LINE
  5
1B8
330
1F
100
AcDbEntity
  8
LAYOUT
  6
CENTERX2
 62
     7
100
AcDbLine
 10
15.5391315652
 20
19.9864209565
 30
0.0
 11
31.5974648985
 21
19.9864209565
 31
0.0
  0
ENDSEC
  0
SECTION
  2
OBJECTS
  0
DICTIONARY
  5
C
330
0
100
AcDbDictionary
  3
ACAD_GROUP
350
D
  3
ACAD_IMAGE_VARS
350
1DA
  3
ACAD_MLINESTYLE
350
17
  3
ACAD_SCALELIST
350
47
  3
APPDATA
350
1D8
  3
DWGPROPS
350
1DB
  0
DICTIONARY
  5
D
102
{ACAD_REACTORS
330
C
102
}
330
C
100
AcDbDictionary
  0
RASTERVARIABLES
  5
1DA
102
{ACAD_REACTORS
330
C
102
}
330
C
100
AcDbRasterVariables
 90
        0
 70
     1
 71
     1
 72
     1
  0
DICTIONARY
  5
17
102
{ACAD_REACTORS
330
C
102
}
330
C
100
AcDbDictionary
  3
STANDARD
350
18
  0
DICTIONARY
  5
47
102
{ACAD_REACTORS
330
C
102
}
330
C
100
AcDbDictionary
  0
DICTIONARY
  5
1D8
102
{ACAD_REACTORS
330
C
102
}
330
C
100
AcDbDictionary
  0
XRECORD
  5
1DB
102
{ACAD_REACTORS
330
C
102
}
330
C
100
AcDbXrecord
  1
DWGPROPS COOKIE
  2

  3

  4

  6

  7

  8
sueh
  9

300
=
301
=
302
=
303
=
304
=
305
=
306
=
307
=
308
=
309
=
 40
0.0
 41
2456968.824189618
 42
2456968.829290058
  1

 90
        0
  0
MLINESTYLE
  5
18
102
{ACAD_REACTORS
330
17
102
}
330
17
100
AcDbMlineStyle
  2
Standard
 70
     0
  3

 62
   256
 51
90.0
 52
90.0
 71
     2
 49
0.5
 62
   256
  6
BYLAYER
 49
-0.5
 62
   256
  6
BYLAYER
  0
ENDSEC
  0
EOF
