  0
SECTION
  2
HEADER
  9
$ACADVER
  1
AC1014
  9
$ACADMAINTVER
 70
     9
  9
$DWGCODEPAGE
  3
ANSI_1252
  9
$INSBASE
 10
0.0
 20
0.0
 30
0.0
  9
$EXTMIN
 10
0.0
 20
0.0
 30
0.0
  9
$EXTMAX
 10
39.9142857143
 20
30.8428571429
 30
0.0
  9
$LIMMIN
 10
0.0
 20
0.0
  9
$LIMMAX
 10
39.9142857143
 20
30.8428571429
  9
$ORTHOMODE
 70
     0
  9
$REGENMODE
 70
     1
  9
$FILLMODE
 70
     1
  9
$QTEXTMODE
 70
     0
  9
$MIRRTEXT
 70
     1
  9
$DRAGMODE
 70
     2
  9
$LTSCALE
 40
0.1428571429
  9
$OSMODE
 70
   511
  9
$ATTMODE
 70
     1
  9
$TEXTSIZE
 40
0.4535714286
  9
$TRACEWID
 40
1.0
  9
$TEXTSTYLE
  7
STANDARD
  9
$CLAYER
  8
0
  9
$CELTYPE
  6
BYLAYER
  9
$CECOLOR
 62
   256
  9
$CELTSCALE
 40
1.0
  9
$DELOBJ
 70
     1
  9
$DISPSILH
 70
     0
  9
$DIMSCALE
 40
1.0
  9
$DIMASZ
 40
0.4717142857
  9
$DIMEXO
 40
0.1814285714
  9
$DIMDLI
 40
3.75
  9
$DIMRND
 40
0.0
  9
$DIMDLE
 40
0.0
  9
$DIMEXE
 40
0.4535714286
  9
$DIMTP
 40
0.0
  9
$DIMTM
 40
0.0
  9
$DIMTXT
 40
0.4535714286
  9
$DIMCEN
 40
2.5
  9
$DIMTSZ
 40
0.0
  9
$DIMTOL
 70
     0
  9
$DIMLIM
 70
     0
  9
$DIMTIH
 70
     1
  9
$DIMTOH
 70
     1
  9
$DIMSE1
 70
     0
  9
$DIMSE2
 70
     0
  9
$DIMTAD
 70
     0
  9
$DIMZIN
 70
     1
  9
$DIMBLK
  1

  9
$DIMASO
 70
     1
  9
$DIMSHO
 70
     1
  9
$DIMPOST
  1

  9
$DIMAPOST
  1

  9
$DIMALT
 70
     0
  9
$DIMALTD
 70
     3
  9
$DIMALTF
 40
0.0393700787
  9
$DIMLFAC
 40
1.0
  9
$DIMTOFL
 70
     1
  9
$DIMTVP
 40
0.0
  9
$DIMTIX
 70
     0
  9
$DIMSOXD
 70
     0
  9
$DIMSAH
 70
     0
  9
$DIMBLK1
  1

  9
$DIMBLK2
  1

  9
$DIMSTYLE
  2
ISO-25
  9
$DIMCLRD
 70
     0
  9
$DIMCLRE
 70
     0
  9
$DIMCLRT
 70
     0
  9
$DIMTFAC
 40
1.0
  9
$DIMGAP
 40
0.2177142857
  9
$DIMJUST
 70
     0
  9
$DIMSD1
 70
     0
  9
$DIMSD2
 70
     0
  9
$DIMTOLJ
 70
     0
  9
$DIMTZIN
 70
     1
  9
$DIMALTZ
 70
     0
  9
$DIMALTTZ
 70
     0
  9
$DIMFIT
 70
     3
  9
$DIMUPT
 70
     0
  9
$DIMUNIT
 70
     2
  9
$DIMDEC
 70
     4
  9
$DIMTDEC
 70
     4
  9
$DIMALTU
 70
     2
  9
$DIMALTTD
 70
     3
  9
$DIMTXSTY
  7
STANDARD
  9
$DIMAUNIT
 70
     0
  9
$LUNITS
 70
     2
  9
$LUPREC
 70
     4
  9
$SKETCHINC
 40
1.0
  9
$FILLETRAD
 40
10.0
  9
$AUNITS
 70
     0
  9
$AUPREC
 70
     0
  9
$MENU
  1
.
  9
$ELEVATION
 40
0.0
  9
$PELEVATION
 40
0.0
  9
$THICKNESS
 40
0.0
  9
$LIMCHECK
 70
     0
  9
$CHAMFERA
 40
0.0
  9
$CHAMFERB
 40
0.0
  9
$CHAMFERC
 40
0.0
  9
$CHAMFERD
 40
0.0
  9
$SKPOLY
 70
     0
  9
$TDCREATE
 40
2457277.544765127
  9
$TDUPDATE
 40
2457277.550918796
  9
$TDINDWG
 40
0.0007869097
  9
$TDUSRTIMER
 40
2457277.758467234
  9
$USRTIMER
 70
     1
  9
$ANGBASE
 50
0.0
  9
$ANGDIR
 70
     0
  9
$PDMODE
 70
     0
  9
$PDSIZE
 40
-1.0
  9
$PLINEWID
 40
0.0
  9
$COORDS
 70
     1
  9
$SPLFRAME
 70
     0
  9
$SPLINETYPE
 70
     6
  9
$SPLINESEGS
 70
     8
  9
$ATTDIA
 70
     0
  9
$ATTREQ
 70
     1
  9
$HANDLING
 70
     1
  9
$HANDSEED
  5
303
  9
$SURFTAB1
 70
     6
  9
$SURFTAB2
 70
     6
  9
$SURFTYPE
 70
     6
  9
$SURFU
 70
     6
  9
$SURFV
 70
     6
  9
$UCSNAME
  2

  9
$UCSORG
 10
0.0
 20
0.0
 30
0.0
  9
$UCSXDIR
 10
1.0
 20
0.0
 30
0.0
  9
$UCSYDIR
 10
0.0
 20
1.0
 30
0.0
  9
$PUCSNAME
  2

  9
$PUCSORG
 10
0.0
 20
0.0
 30
0.0
  9
$PUCSXDIR
 10
1.0
 20
0.0
 30
0.0
  9
$PUCSYDIR
 10
0.0
 20
1.0
 30
0.0
  9
$USERI1
 70
     0
  9
$USERI2
 70
     0
  9
$USERI3
 70
     0
  9
$USERI4
 70
     0
  9
$USERI5
 70
     0
  9
$USERR1
 40
0.0
  9
$USERR2
 40
0.0
  9
$USERR3
 40
0.0
  9
$USERR4
 40
0.0
  9
$USERR5
 40
0.0
  9
$WORLDVIEW
 70
     1
  9
$SHADEDGE
 70
     3
  9
$SHADEDIF
 70
    70
  9
$TILEMODE
 70
     1
  9
$MAXACTVP
 70
    64
  9
$PINSBASE
 10
0.0
 20
0.0
 30
0.0
  9
$PLIMCHECK
 70
     0
  9
$PEXTMIN
 10
1.000000000000000E+20
 20
1.000000000000000E+20
 30
1.000000000000000E+20
  9
$PEXTMAX
 10
-1.000000000000000E+20
 20
-1.000000000000000E+20
 30
-1.000000000000000E+20
  9
$PLIMMIN
 10
0.0
 20
0.0
  9
$PLIMMAX
 10
0.0
 20
0.0
  9
$UNITMODE
 70
     0
  9
$VISRETAIN
 70
     1
  9
$PLINEGEN
 70
     0
  9
$PSLTSCALE
 70
     1
  9
$TREEDEPTH
 70
  3020
  9
$PICKSTYLE
 70
     0
  9
$CMLSTYLE
  2
STANDARD
  9
$CMLJUST
 70
     0
  9
$CMLSCALE
 40
20.0
  9
$PROXYGRAPHICS
 70
     1
  9
$MEASUREMENT
 70
     1
  0
ENDSEC
  0
SECTION
  2
CLASSES
  0
CLASS
  1
ACDBDICTIONARYWDFLT
  2
AcDbDictionaryWithDefault
  3
ObjectDBX Classes
 90
        0
280
     0
281
     0
  0
CLASS
  1
VISUALSTYLE
  2
AcDbVisualStyle
  3
ObjectDBX Classes
 90
     4095
280
     0
281
     0
  0
CLASS
  1
MATERIAL
  2
AcDbMaterial
  3
ObjectDBX Classes
 90
     1153
280
     0
281
     0
  0
CLASS
  1
SCALE
  2
AcDbScale
  3
ObjectDBX Classes
 90
     1153
280
     0
281
     0
  0
CLASS
  1
SUN
  2
AcDbSun
  3
SCENEOE
 90
     1153
280
     0
281
     0
  0
CLASS
  1
ACDBPLACEHOLDER
  2
AcDbPlaceHolder
  3
ObjectDBX Classes
 90
        0
280
     0
281
     0
  0
CLASS
  1
LAYOUT
  2
AcDbLayout
  3
ObjectDBX Classes
 90
        0
280
     0
281
     0
  0
CLASS
  1
TABLESTYLE
  2
AcDbTableStyle
  3
ObjectDBX Classes
 90
     4095
280
     0
281
     0
  0
CLASS
  1
RASTERVARIABLES
  2
AcDbRasterVariables
  3
ISM
 90
        0
280
     0
281
     0
  0
CLASS
  1
XRECORD
  2
AcDbXrecord
  3
ObjectDBX Classes
 90
        0
280
     0
281
     0
  0
CLASS
  1
LWPOLYLINE
  2
AcDbPolyline
  3
ObjectDBX Classes
 90
        0
280
     0
281
     1
  0
CLASS
  1
HATCH
  2
AcDbHatch
  3
ObjectDBX Classes
 90
        0
280
     0
281
     1
  0
ENDSEC
  0
SECTION
  2
TABLES
  0
TABLE
  2
VPORT
  5
8
330
0
100
AcDbSymbolTable
 70
     1
  0
VPORT
  5
29
330
8
100
AcDbSymbolTableRecord
100
AcDbViewportTableRecord
  2
*ACTIVE
 70
     0
 10
0.0
 20
0.0
 11
1.0
 21
1.0
 12
21.42001135879265
 22
20.99059462170359
 13
0.0
 23
0.0
 14
10.0
 24
10.0
 15
10.0
 25
10.0
 16
0.0
 26
0.0
 36
1.0
 17
0.0
 27
0.0
 37
0.0
 40
48.19196428578125
 41
1.92603550295858
 42
50.0
 43
0.0
 44
0.0
 50
0.0
 51
0.0
 71
    16
 72
  2000
 73
     1
 74
     3
 75
     0
 76
     0
 77
     0
 78
     0
  0
ENDTAB
  0
TABLE
  2
LTYPE
  5
5
330
0
100
AcDbSymbolTable
 70
     6
  0
LTYPE
  5
14
330
5
100
AcDbSymbolTableRecord
100
AcDbLinetypeTableRecord
  2
BYBLOCK
 70
     0
  3

 72
    65
 73
     0
 40
0.0
  0
LTYPE
  5
15
330
5
100
AcDbSymbolTableRecord
100
AcDbLinetypeTableRecord
  2
BYLAYER
 70
     0
  3

 72
    65
 73
     0
 40
0.0
  0
LTYPE
  5
16
330
5
100
AcDbSymbolTableRecord
100
AcDbLinetypeTableRecord
  2
CONTINUOUS
 70
     0
  3
Solid line
 72
    65
 73
     0
 40
0.0
  0
LTYPE
  5
6A
330
5
100
AcDbSymbolTableRecord
100
AcDbLinetypeTableRecord
  2
HIDDEN
 70
     0
  3
Hidden __ __ __ __ __ __ __ __ __ __ __ __ __ __
 72
    65
 73
     2
 40
1.905
 49
1.27
 74
     0
 49
-0.635
 74
     0
  0
LTYPE
  5
6B
330
5
100
AcDbSymbolTableRecord
100
AcDbLinetypeTableRecord
  2
PHANTOM
 70
     0
  3
Phantom ______  __  __  ______  __  __  ______
 72
    65
 73
     6
 40
12.7
 49
6.35
 74
     0
 49
-1.27
 74
     0
 49
1.27
 74
     0
 49
-1.27
 74
     0
 49
1.27
 74
     0
 49
-1.27
 74
     0
  0
LTYPE
  5
6C
330
5
100
AcDbSymbolTableRecord
100
AcDbLinetypeTableRecord
  2
CENTER
 70
     0
  3
Center ____ _ ____ _ ____ _ ____ _ ____ _ ____
 72
    65
 73
     4
 40
10.16
 49
6.35
 74
     0
 49
-1.27
 74
     0
 49
1.27
 74
     0
 49
-1.27
 74
     0
  0
LTYPE
  5
6D
330
5
100
AcDbSymbolTableRecord
100
AcDbLinetypeTableRecord
  2
CENTERX2
 70
     0
  3
Center (2x) ________  __  ________  __  _____
 72
    65
 73
     4
 40
20.32
 49
12.7
 74
     0
 49
-2.54
 74
     0
 49
2.54
 74
     0
 49
-2.54
 74
     0
  0
LTYPE
  5
6E
330
5
100
AcDbSymbolTableRecord
100
AcDbLinetypeTableRecord
  2
DOT2
 70
     0
  3
Dot (.5x) ........................................
 72
    65
 73
     2
 40
0.635
 49
0.0
 74
     0
 49
-0.635
 74
     0
  0
ENDTAB
  0
TABLE
  2
LAYER
  5
2
330
0
100
AcDbSymbolTable
 70
     6
  0
LAYER
  5
10
330
2
100
AcDbSymbolTableRecord
100
AcDbLayerTableRecord
  2
0
 70
     0
 62
     7
  6
CONTINUOUS
  0
LAYER
  5
6F
330
2
100
AcDbSymbolTableRecord
100
AcDbLayerTableRecord
  2
FORMAT
 70
     0
 62
     7
  6
CONTINUOUS
  0
LAYER
  5
70
330
2
100
AcDbSymbolTableRecord
100
AcDbLayerTableRecord
  2
NONE
 70
     0
 62
   179
  6
CONTINUOUS
  0
LAYER
  5
71
330
2
100
AcDbSymbolTableRecord
100
AcDbLayerTableRecord
  2
DIMENSION
 70
     0
 62
   179
  6
CONTINUOUS
  0
LAYER
  5
72
330
2
100
AcDbSymbolTableRecord
100
AcDbLayerTableRecord
  2
PAGE_FRAME
 70
     0
 62
   179
  6
CONTINUOUS
  0
LAYER
  5
73
330
2
100
AcDbSymbolTableRecord
100
AcDbLayerTableRecord
  2
LAYOUT
 70
     0
 62
   179
  6
CONTINUOUS
  0
ENDTAB
  0
TABLE
  2
STYLE
  5
3
330
0
100
AcDbSymbolTable
 70
     4
  0
STYLE
  5
11
330
3
100
AcDbSymbolTableRecord
100
AcDbTextStyleTableRecord
  2
STANDARD
 70
     0
 40
0.0
 41
1.0
 50
0.0
 71
     0
 42
0.4535714286
  3
txt
  4

  0
STYLE
  5
87
330
3
100
AcDbSymbolTableRecord
100
AcDbTextStyleTableRecord
  2
SLDTEXTSTYLE0
 70
     0
 40
0.0
 41
0.7
 50
0.0
 71
     0
 42
0.4535714286
  3
TXT
  4

  0
STYLE
  5
90
330
3
100
AcDbSymbolTableRecord
100
AcDbTextStyleTableRecord
  2
SLDTEXTSTYLE1
 70
     0
 40
0.0
 41
0.605
 50
0.0
 71
     0
 42
0.4535714286
  3
TXT
  4

  0
STYLE
  5
A3
330
3
100
AcDbSymbolTableRecord
100
AcDbTextStyleTableRecord
  2
SLDTEXTSTYLE2
 70
     0
 40
0.0
 41
0.575
 50
0.0
 71
     0
 42
0.4535714286
  3
TXT
  4

  0
ENDTAB
  0
TABLE
  2
VIEW
  5
6
330
0
100
AcDbSymbolTable
 70
     0
  0
ENDTAB
  0
TABLE
  2
UCS
  5
7
330
0
100
AcDbSymbolTable
 70
     0
  0
ENDTAB
  0
TABLE
  2
APPID
  5
9
330
0
100
AcDbSymbolTable
 70
     1
  0
APPID
  5
12
330
9
100
AcDbSymbolTableRecord
100
AcDbRegAppTableRecord
  2
ACAD
 70
     0
  0
ENDTAB
  0
TABLE
  2
DIMSTYLE
  5
A
330
0
100
AcDbSymbolTable
 70
    10
  0
DIMSTYLE
105
27
330
A
100
AcDbSymbolTableRecord
100
AcDbDimStyleTableRecord
  2
ISO-25
 70
     0
  3

  4

  5

  6

  7

 40
1.0
 41
2.5
 42
0.625
 43
3.75
 44
1.25
 45
0.0
 46
0.0
 47
0.0
 48
0.0
140
2.5
141
2.5
142
0.0
143
0.0393700787
144
1.0
145
0.0
146
1.0
147
0.625
 71
     0
 72
     0
 73
     0
 74
     0
 75
     0
 76
     0
 77
     1
 78
     8
170
     0
171
     3
172
     1
173
     0
174
     0
175
     0
176
     0
177
     0
178
     0
270
     2
271
     2
272
     2
273
     2
274
     3
340
11
275
     0
280
     0
281
     0
282
     0
283
     0
284
     8
285
     0
286
     0
287
     3
288
     0
  0
DIMSTYLE
105
23A
102
{ACAD_REACTORS
330
239
102
}
330
A
100
AcDbSymbolTableRecord
100
AcDbDimStyleTableRecord
  2
SLDDIMSTYLE0
 70
     0
  3

  4

  5

  6

  7

 40
1.0
 41
0.4717142857
 42
0.0625
 43
0.38
 44
0.0
 45
0.000000001
 46
0.0
 47
0.125
 48
0.125
140
0.3302124023
141
0.09
142
0.0
143
25.4
144
1.0
145
0.0
146
1.0
147
0.0825531006
 71
     1
 72
     0
 73
     1
 74
     1
 75
     0
 76
     0
 77
     0
 78
    12
170
     0
171
     2
172
     0
173
     1
174
     0
175
     0
176
     0
177
     0
178
     0
270
     2
271
     3
272
     3
273
     2
274
     2
340
90
275
     0
280
     0
281
     0
282
     0
283
     1
284
     8
285
     0
286
     0
287
     3
288
     0
  0
DIMSTYLE
105
248
102
{ACAD_REACTORS
330
247
102
}
330
A
100
AcDbSymbolTableRecord
100
AcDbDimStyleTableRecord
  2
SLDDIMSTYLE1
 70
     0
  3

  4

  5

  6

  7

 40
1.0
 41
0.4717142857
 42
0.0625
 43
0.38
 44
0.0
 45
0.000000001
 46
0.0
 47
0.1
 48
0.1
140
0.3302124023
141
0.0
142
0.0
143
25.4
144
1.0
145
0.0
146
1.0
147
0.0825531006
 71
     1
 72
     0
 73
     1
 74
     1
 75
     0
 76
     0
 77
     0
 78
    12
170
     0
171
     2
172
     0
173
     1
174
     0
175
     0
176
     0
177
     0
178
     0
270
     2
271
     1
272
     1
273
     2
274
     2
340
90
275
     0
280
     0
281
     0
282
     0
283
     1
284
     8
285
     0
286
     0
287
     3
288
     0
  0
DIMSTYLE
105
255
102
{ACAD_REACTORS
330
254
102
}
330
A
100
AcDbSymbolTableRecord
100
AcDbDimStyleTableRecord
  2
SLDDIMSTYLE2
 70
     0
  3

  4

  5

  6

  7

 40
1.0
 41
0.4717142857
 42
0.0625
 43
0.38
 44
0.0
 45
0.000000001
 46
0.0
 47
0.025
 48
0.025
140
0.3302124023
141
0.0
142
0.0
143
25.4
144
1.0
145
0.0
146
1.0
147
0.0825531006
 71
     1
 72
     0
 73
     1
 74
     1
 75
     0
 76
     0
 77
     0
 78
     8
170
     0
171
     2
172
     0
173
     1
174
     0
175
     0
176
     0
177
     0
178
     0
270
     2
271
     2
272
     3
273
     2
274
     2
340
90
275
     0
280
     0
281
     0
282
     0
283
     1
284
     8
285
     0
286
     0
287
     3
288
     0
  0
DIMSTYLE
105
262
102
{ACAD_REACTORS
330
261
102
}
330
A
100
AcDbSymbolTableRecord
100
AcDbDimStyleTableRecord
  2
SLDDIMSTYLE3
 70
     0
  3

  4

  5

  6

  7

 40
1.0
 41
0.4717142857
 42
0.0625
 43
0.38
 44
0.0
 45
0.000000001
 46
0.0
 47
0.05
 48
0.05
140
0.3302124023
141
0.09
142
0.0
143
25.4
144
1.0
145
0.0
146
1.0
147
0.0825531006
 71
     1
 72
     0
 73
     1
 74
     1
 75
     0
 76
     0
 77
     0
 78
    12
170
     0
171
     2
172
     0
173
     1
174
     0
175
     0
176
     0
177
     0
178
     0
270
     2
271
     3
272
     3
273
     2
274
     2
340
90
275
     0
280
     0
281
     0
282
     0
283
     1
284
     0
285
     0
286
     0
287
     3
288
     0
  0
DIMSTYLE
105
277
102
{ACAD_REACTORS
330
276
330
299
330
2B1
102
}
330
A
100
AcDbSymbolTableRecord
100
AcDbDimStyleTableRecord
  2
SLDDIMSTYLE4
 70
     0
  3

  4

  5

  6

  7

 40
1.0
 41
0.4717142857
 42
0.0625
 43
0.38
 44
0.0
 45
0.000000001
 46
0.0
 47
0.0
 48
0.0
140
0.3302124023
141
0.09
142
0.0
143
25.4
144
1.0
145
0.0
146
1.0
147
0.0825531006
 71
     0
 72
     0
 73
     1
 74
     1
 75
     0
 76
     0
 77
     0
 78
     4
170
     0
171
     2
172
     0
173
     1
174
     0
175
     0
176
     0
177
     0
178
     0
270
     2
271
     4
272
     4
273
     2
274
     2
340
90
275
     0
280
     0
281
     0
282
     0
283
     1
284
    12
285
     0
286
     0
287
     3
288
     0
  0
DIMSTYLE
105
283
102
{ACAD_REACTORS
330
282
330
28E
102
}
330
A
100
AcDbSymbolTableRecord
100
AcDbDimStyleTableRecord
  2
SLDDIMSTYLE5
 70
     0
  3

  4

  5

  6

  7

 40
1.0
 41
0.4717142857
 42
0.0625
 43
0.38
 44
0.0
 45
0.000000001
 46
0.0
 47
0.0
 48
0.0
140
0.3302124023
141
0.09
142
0.0
143
25.4
144
1.0
145
0.0
146
1.0
147
0.0825531006
 71
     0
 72
     0
 73
     1
 74
     1
 75
     0
 76
     0
 77
     0
 78
    12
170
     0
171
     2
172
     0
173
     1
174
     0
175
     0
176
     0
177
     0
178
     0
270
     2
271
     4
272
     4
273
     2
274
     2
340
90
275
     0
280
     0
281
     0
282
     0
283
     1
284
    12
285
     0
286
     0
287
     3
288
     0
  0
DIMSTYLE
105
2A6
102
{ACAD_REACTORS
330
2A5
102
}
330
A
100
AcDbSymbolTableRecord
100
AcDbDimStyleTableRecord
  2
SLDDIMSTYLE6
 70
     0
  3

  4

  5

  6

  7

 40
1.0
 41
0.4717142857
 42
0.0625
 43
0.38
 44
0.0
 45
0.000000001
 46
0.0
 47
0.0
 48
0.0
140
0.3302124023
141
0.09
142
0.0
143
25.4
144
1.0
145
0.0
146
1.0
147
0.0825531006
 71
     0
 72
     0
 73
     1
 74
     1
 75
     0
 76
     0
 77
     0
 78
     4
170
     0
171
     2
172
     1
173
     1
174
     0
175
     0
176
     0
177
     0
178
     0
270
     2
271
     4
272
     4
273
     2
274
     2
340
90
275
     0
280
     0
281
     0
282
     0
283
     1
284
    12
285
     0
286
     0
288
     0
  0
DIMSTYLE
105
2BE
102
{ACAD_REACTORS
330
2BD
102
}
330
A
100
AcDbSymbolTableRecord
100
AcDbDimStyleTableRecord
  2
SLDDIMSTYLE7
 70
     0
  3

  4

  5

  6

  7

 40
1.0
 41
0.4717142857
 42
0.0625
 43
0.38
 44
0.0
 45
0.000000001
 46
0.0
 47
0.0
 48
0.0
140
0.3302124023
141
0.09
142
0.0
143
25.4
144
1.0
145
0.0
146
1.0
147
0.0825531006
 71
     0
 72
     0
 73
     1
 74
     1
 75
     0
 76
     0
 77
     0
 78
     0
170
     0
171
     2
172
     1
173
     1
174
     0
175
     0
176
     0
177
     0
178
     0
270
     2
271
     4
272
     4
273
     2
274
     2
340
90
275
     0
280
     0
281
     0
282
     0
283
     1
284
    12
285
     0
286
     0
288
     0
  0
DIMSTYLE
105
2CC
330
A
100
AcDbSymbolTableRecord
100
AcDbDimStyleTableRecord
  2
SLDDIMSTYLE8
 70
     0
  3

  4

  5

  6
DOT
  7
DOT
 40
1.0
 41
0.1451428571
 42
0.0625
 43
0.38
 44
0.0
 45
0.000000001
 46
0.0
 47
0.0
 48
0.0
140
0.18
141
0.09
142
0.0
143
25.4
144
1.0
145
0.0
146
0.1451428571
147
0.0
 71
     0
 72
     0
 73
     1
 74
     1
 75
     0
 76
     0
 77
     0
 78
     0
170
     0
171
     2
172
     0
173
     1
174
     0
175
     0
176
     0
177
     0
178
     0
270
     2
271
     0
272
     0
273
     2
274
     2
340
11
275
     0
280
     0
281
     0
282
     0
283
     1
284
     0
285
     0
286
     0
287
     3
288
     0
  0
ENDTAB
  0
TABLE
  2
BLOCK_RECORD
  5
1
330
0
100
AcDbSymbolTable
 70
    19
  0
BLOCK_RECORD
  5
1F
330
1
100
AcDbSymbolTableRecord
100
AcDbBlockTableRecord
  2
*MODEL_SPACE
  0
BLOCK_RECORD
  5
1B
330
1
100
AcDbSymbolTableRecord
100
AcDbBlockTableRecord
  2
*PAPER_SPACE
  0
BLOCK_RECORD
  5
23
330
1
100
AcDbSymbolTableRecord
100
AcDbBlockTableRecord
  2
*PAPER_SPACE0
  0
BLOCK_RECORD
  5
84
330
1
100
AcDbSymbolTableRecord
100
AcDbBlockTableRecord
  2
SW_NOTE_0
  0
BLOCK_RECORD
  5
8D
330
1
100
AcDbSymbolTableRecord
100
AcDbBlockTableRecord
  2
SW_NOTE_1
  0
BLOCK_RECORD
  5
9A
330
1
100
AcDbSymbolTableRecord
100
AcDbBlockTableRecord
  2
SW_NOTE_2
  0
BLOCK_RECORD
  5
A8
330
1
100
AcDbSymbolTableRecord
100
AcDbBlockTableRecord
  2
SW_NOTE_3
  0
BLOCK_RECORD
  5
23B
330
1
100
AcDbSymbolTableRecord
100
AcDbBlockTableRecord
  2
_D
  0
BLOCK_RECORD
  5
249
330
1
100
AcDbSymbolTableRecord
100
AcDbBlockTableRecord
  2
_D_1
  0
BLOCK_RECORD
  5
256
330
1
100
AcDbSymbolTableRecord
100
AcDbBlockTableRecord
  2
_D_2
  0
BLOCK_RECORD
  5
263
330
1
100
AcDbSymbolTableRecord
100
AcDbBlockTableRecord
  2
_D_3
  0
BLOCK_RECORD
  5
26C
330
1
100
AcDbSymbolTableRecord
100
AcDbBlockTableRecord
  2
SW_SYMBOL_MOD_BOX
  0
BLOCK_RECORD
  5
278
330
1
100
AcDbSymbolTableRecord
100
AcDbBlockTableRecord
  2
_D_4
  0
BLOCK_RECORD
  5
284
330
1
100
AcDbSymbolTableRecord
100
AcDbBlockTableRecord
  2
_D_5
  0
BLOCK_RECORD
  5
28F
330
1
100
AcDbSymbolTableRecord
100
AcDbBlockTableRecord
  2
_D_6
  0
BLOCK_RECORD
  5
29A
330
1
100
AcDbSymbolTableRecord
100
AcDbBlockTableRecord
  2
_D_7
  0
BLOCK_RECORD
  5
2A7
330
1
100
AcDbSymbolTableRecord
100
AcDbBlockTableRecord
  2
_D_8
  0
BLOCK_RECORD
  5
2B2
330
1
100
AcDbSymbolTableRecord
100
AcDbBlockTableRecord
  2
_D_9
  0
BLOCK_RECORD
  5
2BF
330
1
100
AcDbSymbolTableRecord
100
AcDbBlockTableRecord
  2
_D_10
  0
BLOCK_RECORD
  5
2CD
330
1
100
AcDbSymbolTableRecord
100
AcDbBlockTableRecord
  2
_DOT
  0
BLOCK_RECORD
  5
2D6
330
1
100
AcDbSymbolTableRecord
100
AcDbBlockTableRecord
  2
SW_CENTERMARKSYMBOL_0
  0
ENDTAB
  0
ENDSEC
  0
SECTION
  2
BLOCKS
  0
BLOCK
  5
20
330
1F
100
AcDbEntity
  8
0
100
AcDbBlockBegin
  2
*MODEL_SPACE
 70
     0
 10
0.0
 20
0.0
 30
0.0
  3
*MODEL_SPACE
  1

  0
ENDBLK
  5
21
330
1F
100
AcDbEntity
  8
0
100
AcDbBlockEnd
  0
BLOCK
  5
1C
330
1B
100
AcDbEntity
 67
     1
  8
0
100
AcDbBlockBegin
  2
*PAPER_SPACE
 70
     0
 10
0.0
 20
0.0
 30
0.0
  3
*PAPER_SPACE
  1

  0
ENDBLK
  5
1D
330
1B
100
AcDbEntity
 67
     1
  8
0
100
AcDbBlockEnd
  0
BLOCK
  5
24
330
23
100
AcDbEntity
  8
0
100
AcDbBlockBegin
  2
*PAPER_SPACE0
 70
     0
 10
0.0
 20
0.0
 30
0.0
  3
*PAPER_SPACE0
  1
*Paper_Space0
  0
ENDBLK
  5
25
330
23
100
AcDbEntity
  8
0
100
AcDbBlockEnd
  0
BLOCK
  5
85
330
84
100
AcDbEntity
  8
0
100
AcDbBlockBegin
  2
SW_NOTE_0
 70
     0
 10
0.0
 20
0.0
 30
0.0
  3
SW_NOTE_0
  1
SW_NOTE_0
  0
MTEXT
  5
88
330
84
100
AcDbEntity
  8
LAYOUT
 62
     0
100
AcDbMText
 10
0.0
 20
0.4872369135
 30
0.0
 40
0.3779761905
 41
0.0
 71
     1
 72
     1
  1
\LTarget PCB Recommendations
  7
SLDTEXTSTYLE0
  0
MTEXT
  5
89
330
84
100
AcDbEntity
  8
LAYOUT
 62
     0
100
AcDbMText
 10
1.4285714286
 20
-0.0167313343
 30
0.0
 40
0.3779761905
 41
0.0
 71
     1
 72
     1
  1
Total thickness: 1.6mm min.
  7
SLDTEXTSTYLE0
  0
MTEXT
  5
8A
330
84
100
AcDbEntity
  8
LAYOUT
 62
     0
100
AcDbMText
 10
1.4285714286
 20
-0.5206995822
 30
0.0
 40
0.3779761905
 41
0.0
 71
     1
 72
     1
  1
Plating: Gold or Solder finish
  7
SLDTEXTSTYLE0
  0
MTEXT
  5
8B
330
84
100
AcDbEntity
  8
LAYOUT
 62
     0
100
AcDbMText
 10
1.4285714286
 20
-1.0246678301
 30
0.0
 40
0.3779761905
 41
0.0
 71
     1
 72
     1
  1
PCB Pad height: same or higher than solder mask
  7
SLDTEXTSTYLE0
  0
ENDBLK
  5
86
330
84
100
AcDbEntity
  8
0
100
AcDbBlockEnd
  0
BLOCK
  5
8E
330
8D
100
AcDbEntity
  8
0
100
AcDbBlockBegin
  2
SW_NOTE_1
 70
     0
 10
0.0
 20
0.0
 30
0.0
  3
SW_NOTE_1
  1
SW_NOTE_1
  0
MTEXT
  5
91
330
8D
100
AcDbEntity
  8
0
  6
CONTINUOUS
 62
     0
100
AcDbMText
 10
0.0
 20
0.2923421481
 30
0.0
 40
0.2267857143
 41
0.0
 71
     1
 72
     1
  1
\LTolerances:
  7
SLDTEXTSTYLE1
  0
MTEXT
  5
92
330
8D
100
AcDbEntity
  8
0
  6
CONTINUOUS
 62
     0
100
AcDbMText
 10
1.664145175
 20
0.2923421481
 30
0.0
 40
0.2267857143
 41
0.0
 71
     1
 72
     1
  1
Hole diameters ±0.0254mm [±0.001"], Pitches (from true position) ±0.0762mm [±0.003"], substrate thickness tolerance ±10%, all
  7
SLDTEXTSTYLE1
  0
MTEXT
  5
93
330
8D
100
AcDbEntity
  8
0
  6
CONTINUOUS
 62
     0
100
AcDbMText
 10
0.0
 20
-0.0100388006
 30
0.0
 40
0.2267857143
 41
0.0
 71
     1
 72
     1
  1
other tolerances ±0.127mm [±0.005"] unless stated otherwise.  Materials and specifications are subject to change without notice.
  7
SLDTEXTSTYLE1
  0
ENDBLK
  5
8F
330
8D
100
AcDbEntity
  8
0
100
AcDbBlockEnd
  0
BLOCK
  5
9B
330
9A
100
AcDbEntity
  8
0
100
AcDbBlockBegin
  2
SW_NOTE_2
 70
     0
 10
0.0
 20
0.0
 30
0.0
  3
SW_NOTE_2
  1
SW_NOTE_2
  0
MTEXT
  5
9D
330
9A
100
AcDbEntity
  8
0
  6
CONTINUOUS
 62
     0
100
AcDbMText
 10
0.0
 20
0.4385132222
 30
0.0
 40
0.3401785714
 41
0.0
 71
     1
 72
     1
  1
Material:
  7
SLDTEXTSTYLE1
  0
MTEXT
  5
9E
330
9A
100
AcDbEntity
  8
0
  6
CONTINUOUS
 62
     0
100
AcDbMText
 10
0.0
 20
-0.0150582009
 30
0.0
 40
0.3401785714
 41
0.0
 71
     1
 72
     1
  1
Finish:
  7
SLDTEXTSTYLE1
  0
MTEXT
  5
9F
330
9A
100
AcDbEntity
  8
0
  6
CONTINUOUS
 62
     0
100
AcDbMText
 10
0.0
 20
-0.468629624
 30
0.0
 40
0.3401785714
 41
0.0
 71
     1
 72
     1
  1
Weight: 4.94
  7
SLDTEXTSTYLE1
  0
ENDBLK
  5
9C
330
9A
100
AcDbEntity
  8
0
100
AcDbBlockEnd
  0
BLOCK
  5
A9
330
A8
100
AcDbEntity
  8
0
100
AcDbBlockBegin
  2
SW_NOTE_3
 70
     0
 10
0.0
 20
0.0
 30
0.0
  3
SW_NOTE_3
  1
SW_NOTE_3
  0
MTEXT
  5
AB
330
A8
100
AcDbEntity
  8
0
  6
CONTINUOUS
 62
     0
100
AcDbMText
 10
3.0521577381
 20
0.3897895308
 30
0.0
 40
0.3023809524
 41
0.0
 71
     2
 72
     1
  1
©2015  Ironwood Electronics, Inc.
  7
SLDTEXTSTYLE1
  0
MTEXT
  5
AC
330
A8
100
AcDbEntity
  8
0
  6
CONTINUOUS
 62
     0
100
AcDbMText
 10
3.0335383615
 20
-0.0133850758
 30
0.0
 40
0.3023809524
 41
0.0
 71
     2
 72
     1
  1
Tele: (800) 404-0204
  7
SLDTEXTSTYLE1
  0
MTEXT
  5
AD
330
A8
100
AcDbEntity
  8
0
  6
CONTINUOUS
 62
     0
100
AcDbMText
 10
3.0174399326
 20
-0.4165596741
 30
0.0
 40
0.3023809524
 41
0.0
 71
     2
 72
     1
  1
www.ironwoodelectronics.com
  7
SLDTEXTSTYLE1
  0
ENDBLK
  5
AA
330
A8
100
AcDbEntity
  8
0
100
AcDbBlockEnd
  0
BLOCK
  5
23C
330
23B
100
AcDbEntity
  8
0
100
AcDbBlockBegin
  2
_D
 70
     0
 10
0.0
 20
0.0
 30
0.0
  3
_D
  1
_D
  0
SOLID
  5
23E
330
23B
100
AcDbEntity
  8
LAYOUT
100
AcDbTrace
 10
25.0152520614
 20
10.156117468
 30
0.0
 11
24.5435377756
 21
10.2286888966
 31
0.0
 12
24.5435377756
 22
10.0835460395
 32
0.0
 13
24.5435377756
 23
10.0835460395
 33
0.0
  0
SOLID
  5
23F
330
23B
100
AcDbEntity
  8
LAYOUT
100
AcDbTrace
 10
11.7902520614
 20
10.156117468
 30
0.0
 11
12.2619663471
 21
10.0835460395
 31
0.0
 12
12.2619663471
 22
10.2286888966
 32
0.0
 13
12.2619663471
 23
10.2286888966
 33
0.0
  0
LINE
  5
240
330
23B
100
AcDbEntity
  8
LAYOUT
100
AcDbLine
 10
25.0152520614
 20
12.2687194265
 30
0.0
 11
25.0152520614
 21
9.7025460395
 31
0.0
  0
LINE
  5
241
330
23B
100
AcDbEntity
  8
LAYOUT
100
AcDbLine
 10
11.7902520614
 20
12.2687194265
 30
0.0
 11
11.7902520614
 21
9.7025460395
 31
0.0
  0
LINE
  5
242
330
23B
100
AcDbEntity
  8
LAYOUT
100
AcDbLine
 10
25.0152520614
 20
10.156117468
 30
0.0
 11
20.5590024961
 21
10.156117468
 31
0.0
  0
LINE
  5
243
330
23B
100
AcDbEntity
  8
LAYOUT
100
AcDbLine
 10
11.7902520614
 20
10.156117468
 30
0.0
 11
15.9981406553
 21
10.156117468
 31
0.0
  0
MTEXT
  5
244
330
23B
100
AcDbEntity
  8
LAYOUT
100
AcDbMText
 10
16.8945688594
 20
10.5946306986
 30
0.0
 40
0.3401785714
 41
0.0
 71
     1
 72
     1
  1
13.225
  7
SLDTEXTSTYLE1
  0
MTEXT
  5
245
330
23B
100
AcDbEntity
  8
LAYOUT
100
AcDbMText
 10
18.2801445614
 20
10.5946306986
 30
0.0
 40
0.3401785714
 41
0.0
 71
     1
 72
     1
  1
±0.125
  7
SLDTEXTSTYLE1
  0
MTEXT
  5
246
330
23B
100
AcDbEntity
  8
LAYOUT
100
AcDbMText
 10
16.2816227982
 20
10.0876798741
 30
0.0
 40
0.3401785714
 41
0.0
 71
     1
 72
     1
  1
Socket Base Outline
  7
SLDTEXTSTYLE1
  0
ENDBLK
  5
23D
330
23B
100
AcDbEntity
  8
0
100
AcDbBlockEnd
  0
BLOCK
  5
24A
330
249
100
AcDbEntity
  8
0
100
AcDbBlockBegin
  2
_D_1
 70
     0
 10
0.0
 20
0.0
 30
0.0
  3
_D_1
  1
_D_1
  0
SOLID
  5
24C
330
249
100
AcDbEntity
  8
LAYOUT
100
AcDbTrace
 10
24.4797294588
 20
24.8947722601
 30
0.0
 11
24.9137768558
 21
25.0932258738
 31
0.0
 12
24.8340545027
 22
25.2145139416
 32
0.0
 13
24.8340545027
 23
25.2145139416
 33
0.0
  0
LINE
  5
24D
330
249
100
AcDbEntity
  8
LAYOUT
100
AcDbLine
 10
24.4797294588
 20
24.8947722601
 30
0.0
 11
27.2042538135
 21
26.6855955171
 31
0.0
  0
LINE
  5
24E
330
249
100
AcDbEntity
  8
LAYOUT
100
AcDbLine
 10
27.2042538135
 20
26.6855955171
 30
0.0
 11
28.1113966707
 21
26.6855955171
 31
0.0
  0
MTEXT
  5
24F
330
249
100
AcDbEntity
  8
LAYOUT
100
AcDbMText
 10
28.338182385
 20
26.8706333353
 30
0.0
 40
0.3401785714
 41
0.0
 71
     1
 72
     1
  1
%%c
  7
SLDTEXTSTYLE1
  0
MTEXT
  5
250
330
249
100
AcDbEntity
  8
LAYOUT
100
AcDbMText
 10
28.8195160135
 20
26.8706333353
 30
0.0
 40
0.3401785714
 41
0.0
 71
     1
 72
     1
  1
1.7
  7
SLDTEXTSTYLE1
  0
MTEXT
  5
251
330
249
100
AcDbEntity
  8
LAYOUT
100
AcDbMText
 10
29.4491597237
 20
26.8706333353
 30
0.0
 40
0.3401785714
 41
0.0
 71
     1
 72
     1
  1
±0.1
  7
SLDTEXTSTYLE1
  0
MTEXT
  5
252
330
249
100
AcDbEntity
  8
LAYOUT
100
AcDbMText
 10
30.4553515656
 20
26.8706333353
 30
0.0
 40
0.3401785714
 41
0.0
 71
     1
 72
     1
  1
(4)
  7
SLDTEXTSTYLE1
  0
MTEXT
  5
253
330
249
100
AcDbEntity
  8
LAYOUT
100
AcDbMText
 10
28.338182385
 20
26.3636825108
 30
0.0
 40
0.3401785714
 41
0.0
 71
     1
 72
     1
  1
NON-PLATED MOUTNING HOLES
  7
SLDTEXTSTYLE1
  0
ENDBLK
  5
24B
330
249
100
AcDbEntity
  8
0
100
AcDbBlockEnd
  0
BLOCK
  5
257
330
256
100
AcDbEntity
  8
0
100
AcDbBlockBegin
  2
_D_2
 70
     0
 10
0.0
 20
0.0
 30
0.0
  3
_D_2
  1
_D_2
  0
SOLID
  5
259
330
256
100
AcDbEntity
  8
LAYOUT
100
AcDbTrace
 10
24.133287418
 20
22.2126039407
 30
0.0
 11
24.5054824992
 21
21.9138535414
 31
0.0
 12
24.5780689739
 22
22.0395422547
 32
0.0
 13
24.5780689739
 23
22.0395422547
 33
0.0
  0
LINE
  5
25A
330
256
100
AcDbEntity
  8
LAYOUT
100
AcDbLine
 10
24.133287418
 20
22.2126039407
 30
0.0
 11
27.1161666135
 21
20.4899617135
 31
0.0
  0
LINE
  5
25B
330
256
100
AcDbEntity
  8
LAYOUT
100
AcDbLine
 10
27.1161666135
 20
20.4899617135
 30
0.0
 11
28.0233094707
 21
20.4899617135
 31
0.0
  0
MTEXT
  5
25C
330
256
100
AcDbEntity
  8
LAYOUT
100
AcDbMText
 10
28.250095185
 20
20.6749995318
 30
0.0
 40
0.3401785714
 41
0.0
 71
     1
 72
     1
  1
%%c
  7
SLDTEXTSTYLE1
  0
MTEXT
  5
25D
330
256
100
AcDbEntity
  8
LAYOUT
100
AcDbMText
 10
28.7314288135
 20
20.6749995318
 30
0.0
 40
0.3401785714
 41
0.0
 71
     1
 72
     1
  1
0.85
  7
SLDTEXTSTYLE1
  0
MTEXT
  5
25E
330
256
100
AcDbEntity
  8
LAYOUT
100
AcDbMText
 10
29.6131996625
 20
20.6749995318
 30
0.0
 40
0.3401785714
 41
0.0
 71
     1
 72
     1
  1
±0.025
  7
SLDTEXTSTYLE1
  0
MTEXT
  5
25F
330
256
100
AcDbEntity
  8
LAYOUT
100
AcDbMText
 10
31.1231963574
 20
20.6749995318
 30
0.0
 40
0.3401785714
 41
0.0
 71
     1
 72
     1
  1
(2)
  7
SLDTEXTSTYLE1
  0
MTEXT
  5
260
330
256
100
AcDbEntity
  8
LAYOUT
100
AcDbMText
 10
28.250095185
 20
20.1680487073
 30
0.0
 40
0.3401785714
 41
0.0
 71
     1
 72
     1
  1
NON-PLATED ALIGNMENT HOLES
  7
SLDTEXTSTYLE1
  0
ENDBLK
  5
258
330
256
100
AcDbEntity
  8
0
100
AcDbBlockEnd
  0
BLOCK
  5
264
330
263
100
AcDbEntity
  8
0
100
AcDbBlockBegin
  2
_D_3
 70
     0
 10
0.0
 20
0.0
 30
0.0
  3
_D_3
  1
_D_3
  0
SOLID
  5
266
330
263
100
AcDbEntity
  8
LAYOUT
100
AcDbTrace
 10
13.0402520614
 20
28.9320240885
 30
0.0
 11
13.5119663471
 21
28.8594526599
 31
0.0
 12
13.5119663471
 22
29.0045955171
 32
0.0
 13
13.5119663471
 23
29.0045955171
 33
0.0
  0
SOLID
  5
267
330
263
100
AcDbEntity
  8
LAYOUT
100
AcDbTrace
 10
23.7652520614
 20
28.9320240885
 30
0.0
 11
23.2935377756
 21
29.0045955171
 31
0.0
 12
23.2935377756
 22
28.8594526599
 32
0.0
 13
23.2935377756
 23
28.8594526599
 33
0.0
  0
LINE
  5
268
330
263
100
AcDbEntity
  8
LAYOUT
100
AcDbLine
 10
13.0402520614
 20
24.6065765694
 30
0.0
 11
13.0402520614
 21
29.3855955171
 31
0.0
  0
LINE
  5
269
330
263
100
AcDbEntity
  8
LAYOUT
100
AcDbLine
 10
23.7652520614
 20
24.6065765694
 30
0.0
 11
23.7652520614
 21
29.3855955171
 31
0.0
  0
LINE
  5
26A
330
263
100
AcDbEntity
  8
LAYOUT
100
AcDbLine
 10
13.0402520614
 20
28.9320240885
 30
0.0
 11
17.301029127
 21
28.9320240885
 31
0.0
  0
LINE
  5
26B
330
263
100
AcDbEntity
  8
LAYOUT
100
AcDbLine
 10
23.7652520614
 20
28.9320240885
 30
0.0
 11
20.5261111264
 21
28.9320240885
 31
0.0
  0
INSERT
  5
273
330
263
100
AcDbEntity
  8
LAYOUT
100
AcDbBlockReference
  2
SW_SYMBOL_MOD_BOX
 10
17.301029127
 20
28.7276323985
 30
0.0
 41
0.0030695926
 42
0.0030695926
 43
0.0030695926
  0
MTEXT
  5
274
330
263
100
AcDbEntity
  8
LAYOUT
100
AcDbMText
 10
17.757435363
 20
29.1169782953
 30
0.0
 40
0.3401785714
 41
0.0
 71
     1
 72
     1
  1
10.725
  7
SLDTEXTSTYLE1
  0
MTEXT
  5
275
330
263
100
AcDbEntity
  8
LAYOUT
100
AcDbMText
 10
19.143348028
 20
29.1169782953
 30
0.0
 40
0.3401785714
 41
0.0
 71
     1
 72
     1
  1
±0.050
  7
SLDTEXTSTYLE1
  0
ENDBLK
  5
265
330
263
100
AcDbEntity
  8
0
100
AcDbBlockEnd
  0
BLOCK
  5
26D
330
26C
100
AcDbEntity
  8
0
100
AcDbBlockBegin
  2
SW_SYMBOL_MOD_BOX
 70
     0
 10
0.0
 20
0.0
 30
0.0
  3
SW_SYMBOL_MOD_BOX
  1
SW_SYMBOL_MOD_BOX
  0
LINE
  5
26F
330
26C
100
AcDbEntity
  8
LAYOUT
 62
     0
100
AcDbLine
 10
28.5714285714
 20
28.5714285714
 30
0.0
 11
114.2857142857
 21
28.5714285714
 31
0.0
  0
LINE
  5
270
330
26C
100
AcDbEntity
  8
LAYOUT
 62
     0
100
AcDbLine
 10
28.5714285714
 20
28.5714285714
 30
0.0
 11
28.5714285714
 21
114.2857142857
 31
0.0
  0
LINE
  5
271
330
26C
100
AcDbEntity
  8
LAYOUT
 62
     0
100
AcDbLine
 10
28.5714285714
 20
114.2857142857
 30
0.0
 11
114.2857142857
 21
114.2857142857
 31
0.0
  0
LINE
  5
272
330
26C
100
AcDbEntity
  8
LAYOUT
 62
     0
100
AcDbLine
 10
114.2857142857
 20
114.2857142857
 30
0.0
 11
114.2857142857
 21
28.5714285714
 31
0.0
  0
ENDBLK
  5
26E
330
26C
100
AcDbEntity
  8
0
100
AcDbBlockEnd
  0
BLOCK
  5
279
330
278
100
AcDbEntity
  8
0
100
AcDbBlockBegin
  2
_D_4
 70
     0
 10
0.0
 20
0.0
 30
0.0
  3
_D_4
  1
_D_4
  0
SOLID
  5
27B
330
278
100
AcDbEntity
  8
LAYOUT
100
AcDbTrace
 10
8.054059094
 20
16.700147998
 30
0.0
 11
7.9814876654
 21
16.2284337122
 31
0.0
 12
8.1266305225
 22
16.2284337122
 32
0.0
 13
8.1266305225
 23
16.2284337122
 33
0.0
  0
SOLID
  5
27C
330
278
100
AcDbEntity
  8
LAYOUT
100
AcDbTrace
 10
8.054059094
 20
13.700147998
 30
0.0
 11
8.1266305225
 21
14.1718622837
 31
0.0
 12
7.9814876654
 22
14.1718622837
 32
0.0
 13
7.9814876654
 23
14.1718622837
 33
0.0
  0
LINE
  5
27D
330
278
100
AcDbEntity
  8
LAYOUT
100
AcDbLine
 10
12.8588234899
 20
16.700147998
 30
0.0
 11
7.6004876654
 21
16.700147998
 31
0.0
  0
LINE
  5
27E
330
278
100
AcDbEntity
  8
LAYOUT
100
AcDbLine
 10
12.8588234899
 20
13.700147998
 30
0.0
 11
7.6004876654
 21
13.700147998
 31
0.0
  0
LINE
  5
27F
330
278
100
AcDbEntity
  8
LAYOUT
100
AcDbLine
 10
8.054059094
 20
16.700147998
 30
0.0
 11
8.054059094
 21
15.589817697
 31
0.0
  0
LINE
  5
280
330
278
100
AcDbEntity
  8
LAYOUT
100
AcDbLine
 10
8.054059094
 20
13.700147998
 30
0.0
 11
8.054059094
 21
15.0826996497
 31
0.0
  0
MTEXT
  5
281
330
278
100
AcDbEntity
  8
LAYOUT
100
AcDbMText
 10
7.3611028113
 20
15.5212128802
 30
0.0
 40
0.3401785714
 41
0.0
 71
     1
 72
     1
  1
3.0000
  7
SLDTEXTSTYLE1
  0
ENDBLK
  5
27A
330
278
100
AcDbEntity
  8
0
100
AcDbBlockEnd
  0
BLOCK
  5
285
330
284
100
AcDbEntity
  8
0
100
AcDbBlockBegin
  2
_D_5
 70
     0
 10
0.0
 20
0.0
 30
0.0
  3
_D_5
  1
_D_5
  0
SOLID
  5
287
330
284
100
AcDbEntity
  8
LAYOUT
100
AcDbTrace
 10
13.0402520614
 20
27.7212375318
 30
0.0
 11
13.5119663471
 21
27.6486661032
 31
0.0
 12
13.5119663471
 22
27.7938089603
 32
0.0
 13
13.5119663471
 23
27.7938089603
 33
0.0
  0
SOLID
  5
288
330
284
100
AcDbEntity
  8
LAYOUT
100
AcDbTrace
 10
15.1027520614
 20
27.7212375318
 30
0.0
 11
14.6310377756
 21
27.7938089603
 31
0.0
 12
14.6310377756
 22
27.6486661032
 32
0.0
 13
14.6310377756
 23
27.6486661032
 33
0.0
  0
LINE
  5
289
330
284
100
AcDbEntity
  8
LAYOUT
100
AcDbLine
 10
13.0402520614
 20
24.6065765694
 30
0.0
 11
13.0402520614
 21
28.1748089603
 31
0.0
  0
LINE
  5
28A
330
284
100
AcDbEntity
  8
LAYOUT
100
AcDbLine
 10
15.1027520614
 20
22.2440765694
 30
0.0
 11
15.1027520614
 21
28.1748089603
 31
0.0
  0
LINE
  5
28B
330
284
100
AcDbEntity
  8
LAYOUT
100
AcDbLine
 10
13.0402520614
 20
27.7212375318
 30
0.0
 11
15.1027520614
 21
27.7212375318
 31
0.0
  0
LINE
  5
28C
330
284
100
AcDbEntity
  8
LAYOUT
100
AcDbLine
 10
15.1027520614
 20
27.7212375318
 30
0.0
 11
15.8818894173
 21
27.7212375318
 31
0.0
  0
MTEXT
  5
28D
330
284
100
AcDbEntity
  8
LAYOUT
100
AcDbMText
 10
15.8818894173
 20
27.9061917386
 30
0.0
 40
0.3401785714
 41
0.0
 71
     1
 72
     1
  1
2.0625
  7
SLDTEXTSTYLE1
  0
ENDBLK
  5
286
330
284
100
AcDbEntity
  8
0
100
AcDbBlockEnd
  0
BLOCK
  5
290
330
28F
100
AcDbEntity
  8
0
100
AcDbBlockBegin
  2
_D_6
 70
     0
 10
0.0
 20
0.0
 30
0.0
  3
_D_6
  1
_D_6
  0
SOLID
  5
292
330
28F
100
AcDbEntity
  8
LAYOUT
100
AcDbTrace
 10
8.7962470458
 20
24.425147998
 30
0.0
 11
8.7236756172
 21
23.9534337122
 31
0.0
 12
8.8688184743
 22
23.9534337122
 32
0.0
 13
8.8688184743
 23
23.9534337122
 33
0.0
  0
SOLID
  5
293
330
28F
100
AcDbEntity
  8
LAYOUT
100
AcDbTrace
 10
8.7962470458
 20
22.062647998
 30
0.0
 11
8.8688184743
 21
22.5343622837
 31
0.0
 12
8.7236756172
 22
22.5343622837
 32
0.0
 13
8.7236756172
 23
22.5343622837
 33
0.0
  0
LINE
  5
294
330
28F
100
AcDbEntity
  8
LAYOUT
100
AcDbLine
 10
12.8588234899
 20
24.425147998
 30
0.0
 11
8.3426756172
 21
24.425147998
 31
0.0
  0
LINE
  5
295
330
28F
100
AcDbEntity
  8
LAYOUT
100
AcDbLine
 10
14.9213234899
 20
22.062647998
 30
0.0
 11
8.3426756172
 21
22.062647998
 31
0.0
  0
LINE
  5
296
330
28F
100
AcDbEntity
  8
LAYOUT
100
AcDbLine
 10
8.7962470458
 20
24.425147998
 30
0.0
 11
8.7962470458
 21
23.1233104965
 31
0.0
  0
LINE
  5
297
330
28F
100
AcDbEntity
  8
LAYOUT
100
AcDbLine
 10
8.7962470458
 20
22.062647998
 30
0.0
 11
8.7962470458
 21
22.6161924492
 31
0.0
  0
MTEXT
  5
298
330
28F
100
AcDbEntity
  8
LAYOUT
100
AcDbMText
 10
8.1032907631
 20
23.0547056797
 30
0.0
 40
0.3401785714
 41
0.0
 71
     1
 72
     1
  1
2.3625
  7
SLDTEXTSTYLE1
  0
ENDBLK
  5
291
330
28F
100
AcDbEntity
  8
0
100
AcDbBlockEnd
  0
BLOCK
  5
29B
330
29A
100
AcDbEntity
  8
0
100
AcDbBlockBegin
  2
_D_7
 70
     0
 10
0.0
 20
0.0
 30
0.0
  3
_D_7
  1
_D_7
  0
SOLID
  5
29D
330
29A
100
AcDbEntity
  8
LAYOUT
100
AcDbTrace
 10
10.5402520614
 20
8.7742341116
 30
0.0
 11
11.0119663471
 21
8.701662683
 31
0.0
 12
11.0119663471
 22
8.8468055401
 32
0.0
 13
11.0119663471
 23
8.8468055401
 33
0.0
  0
SOLID
  5
29E
330
29A
100
AcDbEntity
  8
LAYOUT
100
AcDbTrace
 10
26.2652520614
 20
8.7742341116
 30
0.0
 11
25.7935377756
 21
8.8468055401
 31
0.0
 12
25.7935377756
 22
8.701662683
 32
0.0
 13
25.7935377756
 23
8.701662683
 33
0.0
  0
LINE
  5
29F
330
29A
100
AcDbEntity
  8
LAYOUT
100
AcDbLine
 10
10.5402520614
 20
11.0187194265
 30
0.0
 11
10.5402520614
 21
8.320662683
 31
0.0
  0
LINE
  5
2A0
330
29A
100
AcDbEntity
  8
LAYOUT
100
AcDbLine
 10
26.2652520614
 20
11.0187194265
 30
0.0
 11
26.2652520614
 21
8.320662683
 31
0.0
  0
LINE
  5
2A1
330
29A
100
AcDbEntity
  8
LAYOUT
100
AcDbLine
 10
10.5402520614
 20
8.7742341116
 30
0.0
 11
16.2341606194
 21
8.7742341116
 31
0.0
  0
LINE
  5
2A2
330
29A
100
AcDbEntity
  8
LAYOUT
100
AcDbLine
 10
26.2652520614
 20
8.7742341116
 30
0.0
 11
20.5682876176
 21
8.7742341116
 31
0.0
  0
MTEXT
  5
2A3
330
29A
100
AcDbEntity
  8
LAYOUT
100
AcDbMText
 10
17.5822757906
 20
9.2127473421
 30
0.0
 40
0.3401785714
 41
0.0
 71
     1
 72
     1
  1
15.7250
  7
SLDTEXTSTYLE1
  0
MTEXT
  5
2A4
330
29A
100
AcDbEntity
  8
LAYOUT
100
AcDbMText
 10
16.2341606194
 20
8.7056292947
 30
0.0
 40
0.3401785714
 41
0.0
 71
     1
 72
     1
  1
Backing Plate Outline
  7
SLDTEXTSTYLE1
  0
ENDBLK
  5
29C
330
29A
100
AcDbEntity
  8
0
100
AcDbBlockEnd
  0
BLOCK
  5
2A8
330
2A7
100
AcDbEntity
  8
0
100
AcDbBlockBegin
  2
_D_8
 70
     0
 10
0.0
 20
0.0
 30
0.0
  3
_D_8
  1
_D_8
  0
SOLID
  5
2AA
330
2A7
100
AcDbEntity
  8
LAYOUT
100
AcDbTrace
 10
27.6938234899
 20
22.425147998
 30
0.0
 11
27.6212520614
 21
21.9534337122
 31
0.0
 12
27.7663949185
 22
21.9534337122
 32
0.0
 13
27.7663949185
 23
21.9534337122
 33
0.0
  0
SOLID
  5
2AB
330
2A7
100
AcDbEntity
  8
LAYOUT
100
AcDbTrace
 10
27.6938234899
 20
24.425147998
 30
0.0
 11
27.7663949185
 21
24.8968622837
 31
0.0
 12
27.6212520614
 22
24.8968622837
 32
0.0
 13
27.6212520614
 23
24.8968622837
 33
0.0
  0
LINE
  5
2AC
330
2A7
100
AcDbEntity
  8
LAYOUT
100
AcDbLine
 10
23.9466806328
 20
22.425147998
 30
0.0
 11
28.1473949185
 21
22.425147998
 31
0.0
  0
LINE
  5
2AD
330
2A7
100
AcDbEntity
  8
LAYOUT
100
AcDbLine
 10
23.9466806328
 20
24.425147998
 30
0.0
 11
28.1473949185
 21
24.425147998
 31
0.0
  0
LINE
  5
2AE
330
2A7
100
AcDbEntity
  8
LAYOUT
100
AcDbLine
 10
27.6938234899
 20
22.425147998
 30
0.0
 11
27.6938234899
 21
21.5180051408
 31
0.0
  0
LINE
  5
2AF
330
2A7
100
AcDbEntity
  8
LAYOUT
100
AcDbLine
 10
27.6938234899
 20
24.425147998
 30
0.0
 11
27.6938234899
 21
25.3322908551
 31
0.0
  0
MTEXT
  5
2B0
330
2A7
100
AcDbEntity
  8
LAYOUT
100
AcDbMText
 10
27.0008672073
 20
23.6926975794
 30
0.0
 40
0.3401785714
 41
0.0
 71
     1
 72
     1
  1
2.0000
  7
SLDTEXTSTYLE1
  0
ENDBLK
  5
2A9
330
2A7
100
AcDbEntity
  8
0
100
AcDbBlockEnd
  0
BLOCK
  5
2B3
330
2B2
100
AcDbEntity
  8
0
100
AcDbBlockBegin
  2
_D_9
 70
     0
 10
0.0
 20
0.0
 30
0.0
  3
_D_9
  1
_D_9
  0
SOLID
  5
2B5
330
2B2
100
AcDbEntity
  8
LAYOUT
100
AcDbTrace
 10
4.8259663471
 20
25.675147998
 30
0.0
 11
4.7533949185
 21
25.2034337122
 31
0.0
 12
4.8985377756
 22
25.2034337122
 32
0.0
 13
4.8985377756
 23
25.2034337122
 33
0.0
  0
SOLID
  5
2B6
330
2B2
100
AcDbEntity
  8
LAYOUT
100
AcDbTrace
 10
4.8259663471
 20
12.450147998
 30
0.0
 11
4.8985377756
 21
12.9218622837
 31
0.0
 12
4.7533949185
 22
12.9218622837
 32
0.0
 13
4.7533949185
 23
12.9218622837
 33
0.0
  0
LINE
  5
2B7
330
2B2
100
AcDbEntity
  8
LAYOUT
100
AcDbLine
 10
11.6088234899
 20
25.675147998
 30
0.0
 11
4.3723949185
 21
25.675147998
 31
0.0
  0
LINE
  5
2B8
330
2B2
100
AcDbEntity
  8
LAYOUT
100
AcDbLine
 10
11.6088234899
 20
12.450147998
 30
0.0
 11
4.3723949185
 21
12.450147998
 31
0.0
  0
LINE
  5
2B9
330
2B2
100
AcDbEntity
  8
LAYOUT
100
AcDbLine
 10
4.8259663471
 20
25.675147998
 30
0.0
 11
4.8259663471
 21
19.4420500538
 31
0.0
  0
LINE
  5
2BA
330
2B2
100
AcDbEntity
  8
LAYOUT
100
AcDbLine
 10
4.8259663471
 20
12.450147998
 30
0.0
 11
4.8259663471
 21
18.4278139591
 31
0.0
  0
MTEXT
  5
2BB
330
2B2
100
AcDbEntity
  8
LAYOUT
100
AcDbMText
 10
4.0070180191
 20
19.373445237
 30
0.0
 40
0.3401785714
 41
0.0
 71
     1
 72
     1
  1
13.2250
  7
SLDTEXTSTYLE1
  0
MTEXT
  5
2BC
330
2B2
100
AcDbEntity
  8
LAYOUT
100
AcDbMText
 10
2.7722956289
 20
18.8663271896
 30
0.0
 40
0.3401785714
 41
0.0
 71
     1
 72
     1
  1
Socket Base Outline
  7
SLDTEXTSTYLE1
  0
ENDBLK
  5
2B4
330
2B2
100
AcDbEntity
  8
0
100
AcDbBlockEnd
  0
BLOCK
  5
2C0
330
2BF
100
AcDbEntity
  8
0
100
AcDbBlockBegin
  2
_D_10
 70
     0
 10
0.0
 20
0.0
 30
0.0
  3
_D_10
  1
_D_10
  0
SOLID
  5
2C2
330
2BF
100
AcDbEntity
  8
LAYOUT
100
AcDbTrace
 10
27.6938234899
 20
16.962647998
 30
0.0
 11
27.6212520614
 21
16.4909337122
 31
0.0
 12
27.7663949185
 22
16.4909337122
 32
0.0
 13
27.7663949185
 23
16.4909337122
 33
0.0
  0
SOLID
  5
2C3
330
2BF
100
AcDbEntity
  8
LAYOUT
100
AcDbTrace
 10
27.6938234899
 20
17.262647998
 30
0.0
 11
27.7663949185
 21
17.7343622837
 31
0.0
 12
27.6212520614
 22
17.7343622837
 32
0.0
 13
27.6212520614
 23
17.7343622837
 33
0.0
  0
LINE
  5
2C4
330
2BF
100
AcDbEntity
  8
LAYOUT
100
AcDbLine
 10
21.8841806328
 20
16.962647998
 30
0.0
 11
28.1473949185
 21
16.962647998
 31
0.0
  0
LINE
  5
2C5
330
2BF
100
AcDbEntity
  8
LAYOUT
100
AcDbLine
 10
21.8841806328
 20
17.262647998
 30
0.0
 11
28.1473949185
 21
17.262647998
 31
0.0
  0
LINE
  5
2C6
330
2BF
100
AcDbEntity
  8
LAYOUT
100
AcDbLine
 10
28.6009663471
 20
15.9452030345
 30
0.0
 11
27.6938234899
 21
15.9452030345
 31
0.0
  0
LINE
  5
2C7
330
2BF
100
AcDbEntity
  8
LAYOUT
100
AcDbLine
 10
27.6938234899
 20
15.9452030345
 30
0.0
 11
27.6938234899
 21
16.962647998
 31
0.0
  0
LINE
  5
2C8
330
2BF
100
AcDbEntity
  8
LAYOUT
100
AcDbLine
 10
27.6938234899
 20
17.262647998
 30
0.0
 11
27.6938234899
 21
18.1697908551
 31
0.0
  0
MTEXT
  5
2C9
330
2BF
100
AcDbEntity
  8
LAYOUT
100
AcDbMText
 10
28.6009663471
 20
16.1301572413
 30
0.0
 40
0.3401785714
 41
0.0
 71
     1
 72
     1
  1
0.3000
  7
SLDTEXTSTYLE1
  0
MTEXT
  5
2CA
330
2BF
100
AcDbEntity
  8
LAYOUT
100
AcDbMText
 10
30.1144460097
 20
16.1301572413
 30
0.0
 40
0.3401785714
 41
0.0
 71
     1
 72
     1
  1
typ.
  7
SLDTEXTSTYLE1
  0
ENDBLK
  5
2C1
330
2BF
100
AcDbEntity
  8
0
100
AcDbBlockEnd
  0
BLOCK
  5
2CE
330
2CD
100
AcDbEntity
  8
0
100
AcDbBlockBegin
  2
_DOT
 70
     0
 10
0.0
 20
0.0
 30
0.0
  3
_DOT
  1
_DOT
  0
POLYLINE
  5
2D0
330
2CD
100
AcDbEntity
  8
0
  6
BYBLOCK
 62
     0
100
AcDb2dPolyline
 66
     1
 10
0.0
 20
0.0
 30
0.0
 70
     1
 40
0.5
 41
0.5
  0
VERTEX
  5
2D2
330
2D0
100
AcDbEntity
  8
0
  6
BYBLOCK
 62
     0
100
AcDbVertex
100
AcDb2dVertex
 10
-0.25
 20
0.0
 30
0.0
 42
1.0
  0
VERTEX
  5
2D3
330
2D0
100
AcDbEntity
  8
0
  6
BYBLOCK
 62
     0
100
AcDbVertex
100
AcDb2dVertex
 10
0.25
 20
0.0
 30
0.0
 42
1.0
  0
SEQEND
  5
2D4
330
2D0
100
AcDbEntity
  8
0
  6
BYBLOCK
 62
     0
  0
LINE
  5
2D1
330
2CD
100
AcDbEntity
  8
0
  6
BYBLOCK
 62
     0
100
AcDbLine
 10
-0.5
 20
0.0
 30
0.0
 11
-1.0
 21
0.0
 31
0.0
  0
ENDBLK
  5
2CF
330
2CD
100
AcDbEntity
  8
0
100
AcDbBlockEnd
  0
BLOCK
  5
2D7
330
2D6
100
AcDbEntity
  8
0
100
AcDbBlockBegin
  2
SW_CENTERMARKSYMBOL_0
 70
     0
 10
0.0
 20
0.0
 30
0.0
  3
SW_CENTERMARKSYMBOL_0
  1
SW_CENTERMARKSYMBOL_0
  0
LINE
  5
2D9
330
2D6
100
AcDbEntity
  8
LAYOUT
 62
     0
100
AcDbLine
 10
0.0
 20
0.0
 30
0.0
 11
0.0
 21
0.5
 31
0.0
  0
LINE
  5
2DA
330
2D6
100
AcDbEntity
  8
LAYOUT
 62
     0
100
AcDbLine
 10
0.0
 20
0.0
 30
0.0
 11
-0.5
 21
0.0
 31
0.0
  0
LINE
  5
2DB
330
2D6
100
AcDbEntity
  8
LAYOUT
 62
     0
100
AcDbLine
 10
0.0
 20
0.0
 30
0.0
 11
0.0
 21
-0.5
 31
0.0
  0
LINE
  5
2DC
330
2D6
100
AcDbEntity
  8
LAYOUT
 62
     0
100
AcDbLine
 10
0.0
 20
0.0
 30
0.0
 11
0.5
 21
0.0
 31
0.0
  0
ENDBLK
  5
2D8
330
2D6
100
AcDbEntity
  8
0
100
AcDbBlockEnd
  0
ENDSEC
  0
SECTION
  2
ENTITIES
  0
INSERT
  5
8C
330
1F
100
AcDbEntity
  8
LAYOUT
100
AcDbBlockReference
  2
SW_NOTE_0
 10
24.0312412948
 20
7.1302653321
 30
0.0
  0
LINE
  5
AF
330
1F
100
AcDbEntity
  8
0
  6
CONTINUOUS
 62
     7
100
AcDbLine
 10
25.0152520614
 20
15.2179149509
 30
0.0
 11
26.2652520614
 21
14.700147998
 31
0.0
  0
LINE
  5
B0
330
1F
100
AcDbEntity
  8
0
  6
CONTINUOUS
 62
     7
100
AcDbLine
 10
26.2652520614
 20
11.200147998
 30
0.0
 11
26.2652520614
 21
14.700147998
 31
0.0
  0
LINE
  5
B1
330
1F
100
AcDbEntity
  8
0
  6
CONTINUOUS
 62
     7
100
AcDbLine
 10
22.7652520614
 20
11.200147998
 30
0.0
 11
26.2652520614
 21
11.200147998
 31
0.0
  0
LINE
  5
B2
330
1F
100
AcDbEntity
  8
0
  6
CONTINUOUS
 62
     7
100
AcDbLine
 10
22.2474851084
 20
12.450147998
 30
0.0
 11
22.7652520614
 21
11.200147998
 31
0.0
  0
LINE
  5
B3
330
1F
100
AcDbEntity
  8
0
  6
CONTINUOUS
 62
     7
100
AcDbLine
 10
14.0402520614
 20
11.200147998
 30
0.0
 11
14.5580190143
 21
12.450147998
 31
0.0
  0
LINE
  5
B4
330
1F
100
AcDbEntity
  8
0
  6
CONTINUOUS
 62
     7
100
AcDbLine
 10
10.5402520614
 20
11.200147998
 30
0.0
 11
14.0402520614
 21
11.200147998
 31
0.0
  0
LINE
  5
B5
330
1F
100
AcDbEntity
  8
0
  6
CONTINUOUS
 62
     7
100
AcDbLine
 10
10.5402520614
 20
14.700147998
 30
0.0
 11
10.5402520614
 21
11.200147998
 31
0.0
  0
LINE
  5
B6
330
1F
100
AcDbEntity
  8
0
  6
CONTINUOUS
 62
     7
100
AcDbLine
 10
11.7902520614
 20
15.2179149509
 30
0.0
 11
10.5402520614
 21
14.700147998
 31
0.0
  0
LINE
  5
B7
330
1F
100
AcDbEntity
  8
0
  6
CONTINUOUS
 62
     7
100
AcDbLine
 10
10.5402520614
 20
23.425147998
 30
0.0
 11
11.7902520614
 21
22.907381045
 31
0.0
  0
LINE
  5
B8
330
1F
100
AcDbEntity
  8
0
  6
CONTINUOUS
 62
     7
100
AcDbLine
 10
10.5402520614
 20
26.925147998
 30
0.0
 11
10.5402520614
 21
23.425147998
 31
0.0
  0
LINE
  5
B9
330
1F
100
AcDbEntity
  8
0
  6
CONTINUOUS
 62
     7
100
AcDbLine
 10
14.0402520614
 20
26.925147998
 30
0.0
 11
14.5580190143
 21
25.675147998
 31
0.0
  0
LINE
  5
BA
330
1F
100
AcDbEntity
  8
0
  6
CONTINUOUS
 62
     7
100
AcDbLine
 10
22.2474851084
 20
25.675147998
 30
0.0
 11
22.7652520614
 21
26.925147998
 31
0.0
  0
LINE
  5
BB
330
1F
100
AcDbEntity
  8
0
  6
CONTINUOUS
 62
     7
100
AcDbLine
 10
26.2652520614
 20
26.925147998
 30
0.0
 11
22.7652520614
 21
26.925147998
 31
0.0
  0
LINE
  5
BC
330
1F
100
AcDbEntity
  8
0
  6
CONTINUOUS
 62
     7
100
AcDbLine
 10
26.2652520614
 20
23.425147998
 30
0.0
 11
26.2652520614
 21
26.925147998
 31
0.0
  0
LINE
  5
BD
330
1F
100
AcDbEntity
  8
0
  6
CONTINUOUS
 62
     7
100
AcDbLine
 10
26.2652520614
 20
23.425147998
 30
0.0
 11
25.0152520614
 21
22.907381045
 31
0.0
  0
LINE
  5
BE
330
1F
100
AcDbEntity
  8
0
  6
CONTINUOUS
 62
     7
100
AcDbLine
 10
14.0402520614
 20
26.925147998
 30
0.0
 11
10.5402520614
 21
26.925147998
 31
0.0
  0
CIRCLE
  5
BF
330
1F
100
AcDbEntity
  8
0
  6
CONTINUOUS
 62
     7
100
AcDbCircle
 10
16.0027520614
 20
18.762647998
 30
0.0
 40
0.1000000000000014
  0
CIRCLE
  5
C0
330
1F
100
AcDbEntity
  8
0
  6
CONTINUOUS
 62
     7
100
AcDbCircle
 10
16.9027520614
 20
18.762647998
 30
0.0
 40
0.0999999999999979
  0
CIRCLE
  5
C1
330
1F
100
AcDbEntity
  8
0
  6
CONTINUOUS
 62
     7
100
AcDbCircle
 10
17.2027520614
 20
18.762647998
 30
0.0
 40
0.0999999999999979
  0
CIRCLE
  5
C2
330
1F
100
AcDbEntity
  8
0
  6
CONTINUOUS
 62
     7
100
AcDbCircle
 10
19.6027520614
 20
18.762647998
 30
0.0
 40
0.0999999999999979
  0
CIRCLE
  5
C3
330
1F
100
AcDbEntity
  8
0
  6
CONTINUOUS
 62
     7
100
AcDbCircle
 10
19.9027520614
 20
18.762647998
 30
0.0
 40
0.0999999999999979
  0
CIRCLE
  5
C4
330
1F
100
AcDbEntity
  8
0
  6
CONTINUOUS
 62
     7
100
AcDbCircle
 10
20.8027520614
 20
18.762647998
 30
0.0
 40
0.0999999999999979
  0
CIRCLE
  5
C5
330
1F
100
AcDbEntity
  8
0
  6
CONTINUOUS
 62
     7
100
AcDbCircle
 10
21.1027520614
 20
18.762647998
 30
0.0
 40
0.0999999999999979
  0
CIRCLE
  5
C6
330
1F
100
AcDbEntity
  8
0
  6
CONTINUOUS
 62
     7
100
AcDbCircle
 10
21.4027520614
 20
18.762647998
 30
0.0
 40
0.0999999999999979
  0
CIRCLE
  5
C7
330
1F
100
AcDbEntity
  8
0
  6
CONTINUOUS
 62
     7
100
AcDbCircle
 10
21.7027520614
 20
18.762647998
 30
0.0
 40
0.0999999999999979
  0
CIRCLE
  5
C8
330
1F
100
AcDbEntity
  8
0
  6
CONTINUOUS
 62
     7
100
AcDbCircle
 10
15.1027520614
 20
18.462647998
 30
0.0
 40
0.1000000000000014
  0
CIRCLE
  5
C9
330
1F
100
AcDbEntity
  8
0
  6
CONTINUOUS
 62
     7
100
AcDbCircle
 10
15.4027520614
 20
18.462647998
 30
0.0
 40
0.1000000000000014
  0
CIRCLE
  5
CA
330
1F
100
AcDbEntity
  8
0
  6
CONTINUOUS
 62
     7
100
AcDbCircle
 10
15.7027520614
 20
18.462647998
 30
0.0
 40
0.1000000000000014
  0
CIRCLE
  5
CB
330
1F
100
AcDbEntity
  8
0
  6
CONTINUOUS
 62
     7
100
AcDbCircle
 10
16.0027520614
 20
18.462647998
 30
0.0
 40
0.1000000000000014
  0
CIRCLE
  5
CC
330
1F
100
AcDbEntity
  8
0
  6
CONTINUOUS
 62
     7
100
AcDbCircle
 10
16.9027520614
 20
18.462647998
 30
0.0
 40
0.1000000000000014
  0
CIRCLE
  5
CD
330
1F
100
AcDbEntity
  8
0
  6
CONTINUOUS
 62
     7
100
AcDbCircle
 10
17.2027520614
 20
18.462647998
 30
0.0
 40
0.1000000000000014
  0
CIRCLE
  5
CE
330
1F
100
AcDbEntity
  8
0
  6
CONTINUOUS
 62
     7
100
AcDbCircle
 10
19.6027520614
 20
18.462647998
 30
0.0
 40
0.1000000000000014
  0
CIRCLE
  5
CF
330
1F
100
AcDbEntity
  8
0
  6
CONTINUOUS
 62
     7
100
AcDbCircle
 10
19.9027520614
 20
18.462647998
 30
0.0
 40
0.1000000000000014
  0
CIRCLE
  5
D0
330
1F
100
AcDbEntity
  8
0
  6
CONTINUOUS
 62
     7
100
AcDbCircle
 10
20.8027520614
 20
18.462647998
 30
0.0
 40
0.1000000000000014
  0
CIRCLE
  5
D1
330
1F
100
AcDbEntity
  8
0
  6
CONTINUOUS
 62
     7
100
AcDbCircle
 10
21.1027520614
 20
18.462647998
 30
0.0
 40
0.1000000000000014
  0
CIRCLE
  5
D2
330
1F
100
AcDbEntity
  8
0
  6
CONTINUOUS
 62
     7
100
AcDbCircle
 10
21.4027520614
 20
18.462647998
 30
0.0
 40
0.1000000000000014
  0
CIRCLE
  5
D3
330
1F
100
AcDbEntity
  8
0
  6
CONTINUOUS
 62
     7
100
AcDbCircle
 10
21.7027520614
 20
18.462647998
 30
0.0
 40
0.1000000000000014
  0
CIRCLE
  5
D4
330
1F
100
AcDbEntity
  8
0
  6
CONTINUOUS
 62
     7
100
AcDbCircle
 10
15.1027520614
 20
18.162647998
 30
0.0
 40
0.0999999999999979
  0
CIRCLE
  5
D5
330
1F
100
AcDbEntity
  8
0
  6
CONTINUOUS
 62
     7
100
AcDbCircle
 10
15.4027520614
 20
18.162647998
 30
0.0
 40
0.0999999999999979
  0
CIRCLE
  5
D6
330
1F
100
AcDbEntity
  8
0
  6
CONTINUOUS
 62
     7
100
AcDbCircle
 10
15.7027520614
 20
18.162647998
 30
0.0
 40
0.0999999999999979
  0
CIRCLE
  5
D7
330
1F
100
AcDbEntity
  8
0
  6
CONTINUOUS
 62
     7
100
AcDbCircle
 10
15.1027520614
 20
22.062647998
 30
0.0
 40
0.1000000000000014
  0
CIRCLE
  5
D8
330
1F
100
AcDbEntity
  8
0
  6
CONTINUOUS
 62
     7
100
AcDbCircle
 10
16.9027520614
 20
18.162647998
 30
0.0
 40
0.1000000000000014
  0
CIRCLE
  5
D9
330
1F
100
AcDbEntity
  8
0
  6
CONTINUOUS
 62
     7
100
AcDbCircle
 10
15.7027520614
 20
22.062647998
 30
0.0
 40
0.1000000000000014
  0
CIRCLE
  5
DA
330
1F
100
AcDbEntity
  8
0
  6
CONTINUOUS
 62
     7
100
AcDbCircle
 10
16.0027520614
 20
22.062647998
 30
0.0
 40
0.1000000000000014
  0
CIRCLE
  5
DB
330
1F
100
AcDbEntity
  8
0
  6
CONTINUOUS
 62
     7
100
AcDbCircle
 10
16.3027520614
 20
22.062647998
 30
0.0
 40
0.1000000000000014
  0
CIRCLE
  5
DC
330
1F
100
AcDbEntity
  8
0
  6
CONTINUOUS
 62
     7
100
AcDbCircle
 10
16.6027520614
 20
22.062647998
 30
0.0
 40
0.1000000000000014
  0
CIRCLE
  5
DD
330
1F
100
AcDbEntity
  8
0
  6
CONTINUOUS
 62
     7
100
AcDbCircle
 10
16.9027520614
 20
22.062647998
 30
0.0
 40
0.1000000000000014
  0
CIRCLE
  5
DE
330
1F
100
AcDbEntity
  8
0
  6
CONTINUOUS
 62
     7
100
AcDbCircle
 10
17.2027520614
 20
22.062647998
 30
0.0
 40
0.1000000000000014
  0
CIRCLE
  5
DF
330
1F
100
AcDbEntity
  8
0
  6
CONTINUOUS
 62
     7
100
AcDbCircle
 10
17.5027520614
 20
22.062647998
 30
0.0
 40
0.1000000000000014
  0
CIRCLE
  5
E0
330
1F
100
AcDbEntity
  8
0
  6
CONTINUOUS
 62
     7
100
AcDbCircle
 10
17.8027520614
 20
22.062647998
 30
0.0
 40
0.1000000000000014
  0
CIRCLE
  5
E1
330
1F
100
AcDbEntity
  8
0
  6
CONTINUOUS
 62
     7
100
AcDbCircle
 10
18.1027520614
 20
22.062647998
 30
0.0
 40
0.1000000000000014
  0
CIRCLE
  5
E2
330
1F
100
AcDbEntity
  8
0
  6
CONTINUOUS
 62
     7
100
AcDbCircle
 10
18.4027520614
 20
22.062647998
 30
0.0
 40
0.1000000000000014
  0
CIRCLE
  5
E3
330
1F
100
AcDbEntity
  8
0
  6
CONTINUOUS
 62
     7
100
AcDbCircle
 10
18.7027520614
 20
22.062647998
 30
0.0
 40
0.1000000000000014
  0
CIRCLE
  5
E4
330
1F
100
AcDbEntity
  8
0
  6
CONTINUOUS
 62
     7
100
AcDbCircle
 10
19.0027520614
 20
22.062647998
 30
0.0
 40
0.1000000000000014
  0
CIRCLE
  5
E5
330
1F
100
AcDbEntity
  8
0
  6
CONTINUOUS
 62
     7
100
AcDbCircle
 10
19.3027520614
 20
22.062647998
 30
0.0
 40
0.1000000000000014
  0
CIRCLE
  5
E6
330
1F
100
AcDbEntity
  8
0
  6
CONTINUOUS
 62
     7
100
AcDbCircle
 10
19.6027520614
 20
22.062647998
 30
0.0
 40
0.1000000000000014
  0
CIRCLE
  5
E7
330
1F
100
AcDbEntity
  8
0
  6
CONTINUOUS
 62
     7
100
AcDbCircle
 10
19.9027520614
 20
22.062647998
 30
0.0
 40
0.1000000000000014
  0
CIRCLE
  5
E8
330
1F
100
AcDbEntity
  8
0
  6
CONTINUOUS
 62
     7
100
AcDbCircle
 10
20.2027520614
 20
22.062647998
 30
0.0
 40
0.1000000000000014
  0
CIRCLE
  5
E9
330
1F
100
AcDbEntity
  8
0
  6
CONTINUOUS
 62
     7
100
AcDbCircle
 10
20.5027520614
 20
22.062647998
 30
0.0
 40
0.1000000000000014
  0
CIRCLE
  5
EA
330
1F
100
AcDbEntity
  8
0
  6
CONTINUOUS
 62
     7
100
AcDbCircle
 10
20.8027520614
 20
22.062647998
 30
0.0
 40
0.1000000000000014
  0
CIRCLE
  5
EB
330
1F
100
AcDbEntity
  8
0
  6
CONTINUOUS
 62
     7
100
AcDbCircle
 10
21.1027520614
 20
22.062647998
 30
0.0
 40
0.1000000000000014
  0
CIRCLE
  5
EC
330
1F
100
AcDbEntity
  8
0
  6
CONTINUOUS
 62
     7
100
AcDbCircle
 10
21.7027520614
 20
22.062647998
 30
0.0
 40
0.1000000000000014
  0
CIRCLE
  5
ED
330
1F
100
AcDbEntity
  8
0
  6
CONTINUOUS
 62
     7
100
AcDbCircle
 10
15.1027520614
 20
21.762647998
 30
0.0
 40
0.0999999999999943
  0
CIRCLE
  5
EE
330
1F
100
AcDbEntity
  8
0
  6
CONTINUOUS
 62
     7
100
AcDbCircle
 10
15.4027520614
 20
21.762647998
 30
0.0
 40
0.0999999999999943
  0
CIRCLE
  5
EF
330
1F
100
AcDbEntity
  8
0
  6
CONTINUOUS
 62
     7
100
AcDbCircle
 10
15.7027520614
 20
21.762647998
 30
0.0
 40
0.0999999999999943
  0
CIRCLE
  5
F0
330
1F
100
AcDbEntity
  8
0
  6
CONTINUOUS
 62
     7
100
AcDbCircle
 10
16.0027520614
 20
21.762647998
 30
0.0
 40
0.0999999999999943
  0
CIRCLE
  5
F1
330
1F
100
AcDbEntity
  8
0
  6
CONTINUOUS
 62
     7
100
AcDbCircle
 10
16.3027520614
 20
21.762647998
 30
0.0
 40
0.0999999999999943
  0
CIRCLE
  5
F2
330
1F
100
AcDbEntity
  8
0
  6
CONTINUOUS
 62
     7
100
AcDbCircle
 10
16.6027520614
 20
21.762647998
 30
0.0
 40
0.0999999999999943
  0
CIRCLE
  5
F3
330
1F
100
AcDbEntity
  8
0
  6
CONTINUOUS
 62
     7
100
AcDbCircle
 10
16.9027520614
 20
21.762647998
 30
0.0
 40
0.0999999999999943
  0
CIRCLE
  5
F4
330
1F
100
AcDbEntity
  8
0
  6
CONTINUOUS
 62
     7
100
AcDbCircle
 10
17.2027520614
 20
21.762647998
 30
0.0
 40
0.0999999999999943
  0
CIRCLE
  5
F5
330
1F
100
AcDbEntity
  8
0
  6
CONTINUOUS
 62
     7
100
AcDbCircle
 10
17.5027520614
 20
21.762647998
 30
0.0
 40
0.0999999999999943
  0
CIRCLE
  5
F6
330
1F
100
AcDbEntity
  8
0
  6
CONTINUOUS
 62
     7
100
AcDbCircle
 10
17.8027520614
 20
21.762647998
 30
0.0
 40
0.0999999999999943
  0
CIRCLE
  5
F7
330
1F
100
AcDbEntity
  8
0
  6
CONTINUOUS
 62
     7
100
AcDbCircle
 10
18.1027520614
 20
21.762647998
 30
0.0
 40
0.0999999999999943
  0
CIRCLE
  5
F8
330
1F
100
AcDbEntity
  8
0
  6
CONTINUOUS
 62
     7
100
AcDbCircle
 10
18.4027520614
 20
21.762647998
 30
0.0
 40
0.0999999999999943
  0
CIRCLE
  5
F9
330
1F
100
AcDbEntity
  8
0
  6
CONTINUOUS
 62
     7
100
AcDbCircle
 10
18.7027520614
 20
21.762647998
 30
0.0
 40
0.0999999999999943
  0
CIRCLE
  5
FA
330
1F
100
AcDbEntity
  8
0
  6
CONTINUOUS
 62
     7
100
AcDbCircle
 10
19.0027520614
 20
21.762647998
 30
0.0
 40
0.0999999999999943
  0
CIRCLE
  5
FB
330
1F
100
AcDbEntity
  8
0
  6
CONTINUOUS
 62
     7
100
AcDbCircle
 10
19.3027520614
 20
21.762647998
 30
0.0
 40
0.0999999999999943
  0
CIRCLE
  5
FC
330
1F
100
AcDbEntity
  8
0
  6
CONTINUOUS
 62
     7
100
AcDbCircle
 10
19.6027520614
 20
21.762647998
 30
0.0
 40
0.0999999999999943
  0
CIRCLE
  5
FD
330
1F
100
AcDbEntity
  8
0
  6
CONTINUOUS
 62
     7
100
AcDbCircle
 10
19.9027520614
 20
21.762647998
 30
0.0
 40
0.0999999999999943
  0
CIRCLE
  5
FE
330
1F
100
AcDbEntity
  8
0
  6
CONTINUOUS
 62
     7
100
AcDbCircle
 10
20.2027520614
 20
21.762647998
 30
0.0
 40
0.0999999999999943
  0
CIRCLE
  5
FF
330
1F
100
AcDbEntity
  8
0
  6
CONTINUOUS
 62
     7
100
AcDbCircle
 10
20.5027520614
 20
21.762647998
 30
0.0
 40
0.0999999999999943
  0
CIRCLE
  5
100
330
1F
100
AcDbEntity
  8
0
  6
CONTINUOUS
 62
     7
100
AcDbCircle
 10
20.8027520614
 20
21.762647998
 30
0.0
 40
0.1000000000000014
  0
CIRCLE
  5
101
330
1F
100
AcDbEntity
  8
0
  6
CONTINUOUS
 62
     7
100
AcDbCircle
 10
21.1027520614
 20
21.762647998
 30
0.0
 40
0.1000000000000014
  0
CIRCLE
  5
102
330
1F
100
AcDbEntity
  8
0
  6
CONTINUOUS
 62
     7
100
AcDbCircle
 10
21.4027520614
 20
21.762647998
 30
0.0
 40
0.1000000000000014
  0
CIRCLE
  5
103
330
1F
100
AcDbEntity
  8
0
  6
CONTINUOUS
 62
     7
100
AcDbCircle
 10
21.7027520614
 20
21.762647998
 30
0.0
 40
0.1000000000000014
  0
CIRCLE
  5
104
330
1F
100
AcDbEntity
  8
0
  6
CONTINUOUS
 62
     7
100
AcDbCircle
 10
15.1027520614
 20
21.462647998
 30
0.0
 40
0.1000000000000014
  0
CIRCLE
  5
105
330
1F
100
AcDbEntity
  8
0
  6
CONTINUOUS
 62
     7
100
AcDbCircle
 10
15.4027520614
 20
21.462647998
 30
0.0
 40
0.1000000000000014
  0
CIRCLE
  5
106
330
1F
100
AcDbEntity
  8
0
  6
CONTINUOUS
 62
     7
100
AcDbCircle
 10
15.7027520614
 20
21.462647998
 30
0.0
 40
0.1000000000000014
  0
CIRCLE
  5
107
330
1F
100
AcDbEntity
  8
0
  6
CONTINUOUS
 62
     7
100
AcDbCircle
 10
16.0027520614
 20
21.462647998
 30
0.0
 40
0.1000000000000014
  0
CIRCLE
  5
108
330
1F
100
AcDbEntity
  8
0
  6
CONTINUOUS
 62
     7
100
AcDbCircle
 10
16.3027520614
 20
21.462647998
 30
0.0
 40
0.1000000000000014
  0
CIRCLE
  5
109
330
1F
100
AcDbEntity
  8
0
  6
CONTINUOUS
 62
     7
100
AcDbCircle
 10
16.6027520614
 20
21.462647998
 30
0.0
 40
0.1000000000000014
  0
CIRCLE
  5
10A
330
1F
100
AcDbEntity
  8
0
  6
CONTINUOUS
 62
     7
100
AcDbCircle
 10
16.9027520614
 20
21.462647998
 30
0.0
 40
0.1000000000000014
  0
CIRCLE
  5
10B
330
1F
100
AcDbEntity
  8
0
  6
CONTINUOUS
 62
     7
100
AcDbCircle
 10
17.2027520614
 20
21.462647998
 30
0.0
 40
0.1000000000000014
  0
CIRCLE
  5
10C
330
1F
100
AcDbEntity
  8
0
  6
CONTINUOUS
 62
     7
100
AcDbCircle
 10
17.5027520614
 20
21.462647998
 30
0.0
 40
0.1000000000000014
  0
CIRCLE
  5
10D
330
1F
100
AcDbEntity
  8
0
  6
CONTINUOUS
 62
     7
100
AcDbCircle
 10
17.8027520614
 20
21.462647998
 30
0.0
 40
0.1000000000000014
  0
CIRCLE
  5
10E
330
1F
100
AcDbEntity
  8
0
  6
CONTINUOUS
 62
     7
100
AcDbCircle
 10
18.1027520614
 20
21.462647998
 30
0.0
 40
0.1000000000000014
  0
CIRCLE
  5
10F
330
1F
100
AcDbEntity
  8
0
  6
CONTINUOUS
 62
     7
100
AcDbCircle
 10
18.4027520614
 20
21.462647998
 30
0.0
 40
0.1000000000000014
  0
CIRCLE
  5
110
330
1F
100
AcDbEntity
  8
0
  6
CONTINUOUS
 62
     7
100
AcDbCircle
 10
18.7027520614
 20
21.462647998
 30
0.0
 40
0.1000000000000014
  0
CIRCLE
  5
111
330
1F
100
AcDbEntity
  8
0
  6
CONTINUOUS
 62
     7
100
AcDbCircle
 10
19.0027520614
 20
21.462647998
 30
0.0
 40
0.0999999999999979
  0
CIRCLE
  5
112
330
1F
100
AcDbEntity
  8
0
  6
CONTINUOUS
 62
     7
100
AcDbCircle
 10
19.3027520614
 20
21.462647998
 30
0.0
 40
0.0999999999999979
  0
CIRCLE
  5
113
330
1F
100
AcDbEntity
  8
0
  6
CONTINUOUS
 62
     7
100
AcDbCircle
 10
19.6027520614
 20
21.462647998
 30
0.0
 40
0.0999999999999979
  0
CIRCLE
  5
114
330
1F
100
AcDbEntity
  8
0
  6
CONTINUOUS
 62
     7
100
AcDbCircle
 10
19.9027520614
 20
21.462647998
 30
0.0
 40
0.0999999999999979
  0
CIRCLE
  5
115
330
1F
100
AcDbEntity
  8
0
  6
CONTINUOUS
 62
     7
100
AcDbCircle
 10
20.2027520614
 20
21.462647998
 30
0.0
 40
0.0999999999999979
  0
CIRCLE
  5
116
330
1F
100
AcDbEntity
  8
0
  6
CONTINUOUS
 62
     7
100
AcDbCircle
 10
20.5027520614
 20
21.462647998
 30
0.0
 40
0.0999999999999979
  0
CIRCLE
  5
117
330
1F
100
AcDbEntity
  8
0
  6
CONTINUOUS
 62
     7
100
AcDbCircle
 10
20.8027520614
 20
21.462647998
 30
0.0
 40
0.0999999999999979
  0
CIRCLE
  5
118
330
1F
100
AcDbEntity
  8
0
  6
CONTINUOUS
 62
     7
100
AcDbCircle
 10
21.1027520614
 20
21.462647998
 30
0.0
 40
0.0999999999999979
  0
CIRCLE
  5
119
330
1F
100
AcDbEntity
  8
0
  6
CONTINUOUS
 62
     7
100
AcDbCircle
 10
21.4027520614
 20
21.462647998
 30
0.0
 40
0.0999999999999979
  0
CIRCLE
  5
11A
330
1F
100
AcDbEntity
  8
0
  6
CONTINUOUS
 62
     7
100
AcDbCircle
 10
21.7027520614
 20
21.462647998
 30
0.0
 40
0.0999999999999979
  0
CIRCLE
  5
11B
330
1F
100
AcDbEntity
  8
0
  6
CONTINUOUS
 62
     7
100
AcDbCircle
 10
15.1027520614
 20
21.162647998
 30
0.0
 40
0.1000000000000014
  0
CIRCLE
  5
11C
330
1F
100
AcDbEntity
  8
0
  6
CONTINUOUS
 62
     7
100
AcDbCircle
 10
15.4027520614
 20
21.162647998
 30
0.0
 40
0.1000000000000014
  0
CIRCLE
  5
11D
330
1F
100
AcDbEntity
  8
0
  6
CONTINUOUS
 62
     7
100
AcDbCircle
 10
15.7027520614
 20
21.162647998
 30
0.0
 40
0.1000000000000014
  0
CIRCLE
  5
11E
330
1F
100
AcDbEntity
  8
0
  6
CONTINUOUS
 62
     7
100
AcDbCircle
 10
16.0027520614
 20
21.162647998
 30
0.0
 40
0.1000000000000014
  0
CIRCLE
  5
11F
330
1F
100
AcDbEntity
  8
0
  6
CONTINUOUS
 62
     7
100
AcDbCircle
 10
20.8027520614
 20
21.162647998
 30
0.0
 40
0.1000000000000014
  0
CIRCLE
  5
120
330
1F
100
AcDbEntity
  8
0
  6
CONTINUOUS
 62
     7
100
AcDbCircle
 10
21.1027520614
 20
21.162647998
 30
0.0
 40
0.1000000000000014
  0
CIRCLE
  5
121
330
1F
100
AcDbEntity
  8
0
  6
CONTINUOUS
 62
     7
100
AcDbCircle
 10
21.4027520614
 20
21.162647998
 30
0.0
 40
0.1000000000000014
  0
CIRCLE
  5
122
330
1F
100
AcDbEntity
  8
0
  6
CONTINUOUS
 62
     7
100
AcDbCircle
 10
21.7027520614
 20
21.162647998
 30
0.0
 40
0.1000000000000014
  0
CIRCLE
  5
123
330
1F
100
AcDbEntity
  8
0
  6
CONTINUOUS
 62
     7
100
AcDbCircle
 10
15.1027520614
 20
20.862647998
 30
0.0
 40
0.0999999999999979
  0
CIRCLE
  5
124
330
1F
100
AcDbEntity
  8
0
  6
CONTINUOUS
 62
     7
100
AcDbCircle
 10
15.4027520614
 20
20.862647998
 30
0.0
 40
0.0999999999999979
  0
CIRCLE
  5
125
330
1F
100
AcDbEntity
  8
0
  6
CONTINUOUS
 62
     7
100
AcDbCircle
 10
15.7027520614
 20
20.862647998
 30
0.0
 40
0.0999999999999979
  0
CIRCLE
  5
126
330
1F
100
AcDbEntity
  8
0
  6
CONTINUOUS
 62
     7
100
AcDbCircle
 10
16.0027520614
 20
20.862647998
 30
0.0
 40
0.1000000000000014
  0
CIRCLE
  5
127
330
1F
100
AcDbEntity
  8
0
  6
CONTINUOUS
 62
     7
100
AcDbCircle
 10
20.8027520614
 20
20.862647998
 30
0.0
 40
0.1000000000000014
  0
CIRCLE
  5
128
330
1F
100
AcDbEntity
  8
0
  6
CONTINUOUS
 62
     7
100
AcDbCircle
 10
21.1027520614
 20
20.862647998
 30
0.0
 40
0.1000000000000014
  0
CIRCLE
  5
129
330
1F
100
AcDbEntity
  8
0
  6
CONTINUOUS
 62
     7
100
AcDbCircle
 10
21.4027520614
 20
20.862647998
 30
0.0
 40
0.1000000000000014
  0
CIRCLE
  5
12A
330
1F
100
AcDbEntity
  8
0
  6
CONTINUOUS
 62
     7
100
AcDbCircle
 10
21.7027520614
 20
20.862647998
 30
0.0
 40
0.1000000000000014
  0
CIRCLE
  5
12B
330
1F
100
AcDbEntity
  8
0
  6
CONTINUOUS
 62
     7
100
AcDbCircle
 10
15.1027520614
 20
20.562647998
 30
0.0
 40
0.1000000000000014
  0
CIRCLE
  5
12C
330
1F
100
AcDbEntity
  8
0
  6
CONTINUOUS
 62
     7
100
AcDbCircle
 10
15.4027520614
 20
20.562647998
 30
0.0
 40
0.1000000000000014
  0
CIRCLE
  5
12D
330
1F
100
AcDbEntity
  8
0
  6
CONTINUOUS
 62
     7
100
AcDbCircle
 10
15.7027520614
 20
20.562647998
 30
0.0
 40
0.1000000000000014
  0
CIRCLE
  5
12E
330
1F
100
AcDbEntity
  8
0
  6
CONTINUOUS
 62
     7
100
AcDbCircle
 10
16.0027520614
 20
20.562647998
 30
0.0
 40
0.1000000000000014
  0
CIRCLE
  5
12F
330
1F
100
AcDbEntity
  8
0
  6
CONTINUOUS
 62
     7
100
AcDbCircle
 10
16.9027520614
 20
20.562647998
 30
0.0
 40
0.1000000000000014
  0
CIRCLE
  5
130
330
1F
100
AcDbEntity
  8
0
  6
CONTINUOUS
 62
     7
100
AcDbCircle
 10
17.2027520614
 20
20.562647998
 30
0.0
 40
0.1000000000000014
  0
CIRCLE
  5
131
330
1F
100
AcDbEntity
  8
0
  6
CONTINUOUS
 62
     7
100
AcDbCircle
 10
17.5027520614
 20
20.562647998
 30
0.0
 40
0.1000000000000014
  0
CIRCLE
  5
132
330
1F
100
AcDbEntity
  8
0
  6
CONTINUOUS
 62
     7
100
AcDbCircle
 10
17.8027520614
 20
20.562647998
 30
0.0
 40
0.1000000000000014
  0
CIRCLE
  5
133
330
1F
100
AcDbEntity
  8
0
  6
CONTINUOUS
 62
     7
100
AcDbCircle
 10
18.1027520614
 20
20.562647998
 30
0.0
 40
0.1000000000000014
  0
CIRCLE
  5
134
330
1F
100
AcDbEntity
  8
0
  6
CONTINUOUS
 62
     7
100
AcDbCircle
 10
18.4027520614
 20
20.562647998
 30
0.0
 40
0.1000000000000014
  0
CIRCLE
  5
135
330
1F
100
AcDbEntity
  8
0
  6
CONTINUOUS
 62
     7
100
AcDbCircle
 10
18.7027520614
 20
20.562647998
 30
0.0
 40
0.1000000000000014
  0
CIRCLE
  5
136
330
1F
100
AcDbEntity
  8
0
  6
CONTINUOUS
 62
     7
100
AcDbCircle
 10
19.0027520614
 20
20.562647998
 30
0.0
 40
0.1000000000000014
  0
CIRCLE
  5
137
330
1F
100
AcDbEntity
  8
0
  6
CONTINUOUS
 62
     7
100
AcDbCircle
 10
19.3027520614
 20
20.562647998
 30
0.0
 40
0.0999999999999979
  0
CIRCLE
  5
138
330
1F
100
AcDbEntity
  8
0
  6
CONTINUOUS
 62
     7
100
AcDbCircle
 10
19.6027520614
 20
20.562647998
 30
0.0
 40
0.0999999999999979
  0
CIRCLE
  5
139
330
1F
100
AcDbEntity
  8
0
  6
CONTINUOUS
 62
     7
100
AcDbCircle
 10
19.9027520614
 20
20.562647998
 30
0.0
 40
0.0999999999999979
  0
CIRCLE
  5
13A
330
1F
100
AcDbEntity
  8
0
  6
CONTINUOUS
 62
     7
100
AcDbCircle
 10
20.8027520614
 20
20.562647998
 30
0.0
 40
0.0999999999999979
  0
CIRCLE
  5
13B
330
1F
100
AcDbEntity
  8
0
  6
CONTINUOUS
 62
     7
100
AcDbCircle
 10
21.1027520614
 20
20.562647998
 30
0.0
 40
0.0999999999999979
  0
CIRCLE
  5
13C
330
1F
100
AcDbEntity
  8
0
  6
CONTINUOUS
 62
     7
100
AcDbCircle
 10
21.4027520614
 20
20.562647998
 30
0.0
 40
0.0999999999999979
  0
CIRCLE
  5
13D
330
1F
100
AcDbEntity
  8
0
  6
CONTINUOUS
 62
     7
100
AcDbCircle
 10
21.7027520614
 20
20.562647998
 30
0.0
 40
0.0999999999999979
  0
CIRCLE
  5
13E
330
1F
100
AcDbEntity
  8
0
  6
CONTINUOUS
 62
     7
100
AcDbCircle
 10
15.1027520614
 20
20.262647998
 30
0.0
 40
0.1000000000000014
  0
CIRCLE
  5
13F
330
1F
100
AcDbEntity
  8
0
  6
CONTINUOUS
 62
     7
100
AcDbCircle
 10
15.4027520614
 20
20.262647998
 30
0.0
 40
0.1000000000000014
  0
CIRCLE
  5
140
330
1F
100
AcDbEntity
  8
0
  6
CONTINUOUS
 62
     7
100
AcDbCircle
 10
15.7027520614
 20
20.262647998
 30
0.0
 40
0.1000000000000014
  0
CIRCLE
  5
141
330
1F
100
AcDbEntity
  8
0
  6
CONTINUOUS
 62
     7
100
AcDbCircle
 10
16.0027520614
 20
20.262647998
 30
0.0
 40
0.1000000000000014
  0
CIRCLE
  5
142
330
1F
100
AcDbEntity
  8
0
  6
CONTINUOUS
 62
     7
100
AcDbCircle
 10
16.9027520614
 20
20.262647998
 30
0.0
 40
0.1000000000000014
  0
CIRCLE
  5
143
330
1F
100
AcDbEntity
  8
0
  6
CONTINUOUS
 62
     7
100
AcDbCircle
 10
17.2027520614
 20
20.262647998
 30
0.0
 40
0.1000000000000014
  0
CIRCLE
  5
144
330
1F
100
AcDbEntity
  8
0
  6
CONTINUOUS
 62
     7
100
AcDbCircle
 10
17.5027520614
 20
20.262647998
 30
0.0
 40
0.1000000000000014
  0
CIRCLE
  5
145
330
1F
100
AcDbEntity
  8
0
  6
CONTINUOUS
 62
     7
100
AcDbCircle
 10
17.8027520614
 20
20.262647998
 30
0.0
 40
0.1000000000000014
  0
CIRCLE
  5
146
330
1F
100
AcDbEntity
  8
0
  6
CONTINUOUS
 62
     7
100
AcDbCircle
 10
18.1027520614
 20
20.262647998
 30
0.0
 40
0.1000000000000014
  0
CIRCLE
  5
147
330
1F
100
AcDbEntity
  8
0
  6
CONTINUOUS
 62
     7
100
AcDbCircle
 10
18.4027520614
 20
20.262647998
 30
0.0
 40
0.1000000000000014
  0
CIRCLE
  5
148
330
1F
100
AcDbEntity
  8
0
  6
CONTINUOUS
 62
     7
100
AcDbCircle
 10
18.7027520614
 20
20.262647998
 30
0.0
 40
0.1000000000000014
  0
CIRCLE
  5
149
330
1F
100
AcDbEntity
  8
0
  6
CONTINUOUS
 62
     7
100
AcDbCircle
 10
19.0027520614
 20
20.262647998
 30
0.0
 40
0.1000000000000014
  0
CIRCLE
  5
14A
330
1F
100
AcDbEntity
  8
0
  6
CONTINUOUS
 62
     7
100
AcDbCircle
 10
19.3027520614
 20
20.262647998
 30
0.0
 40
0.1000000000000014
  0
CIRCLE
  5
14B
330
1F
100
AcDbEntity
  8
0
  6
CONTINUOUS
 62
     7
100
AcDbCircle
 10
19.6027520614
 20
20.262647998
 30
0.0
 40
0.1000000000000014
  0
CIRCLE
  5
14C
330
1F
100
AcDbEntity
  8
0
  6
CONTINUOUS
 62
     7
100
AcDbCircle
 10
19.9027520614
 20
20.262647998
 30
0.0
 40
0.1000000000000014
  0
CIRCLE
  5
14D
330
1F
100
AcDbEntity
  8
0
  6
CONTINUOUS
 62
     7
100
AcDbCircle
 10
20.8027520614
 20
20.262647998
 30
0.0
 40
0.1000000000000014
  0
CIRCLE
  5
14E
330
1F
100
AcDbEntity
  8
0
  6
CONTINUOUS
 62
     7
100
AcDbCircle
 10
21.1027520614
 20
20.262647998
 30
0.0
 40
0.1000000000000014
  0
CIRCLE
  5
14F
330
1F
100
AcDbEntity
  8
0
  6
CONTINUOUS
 62
     7
100
AcDbCircle
 10
21.4027520614
 20
20.262647998
 30
0.0
 40
0.1000000000000014
  0
CIRCLE
  5
150
330
1F
100
AcDbEntity
  8
0
  6
CONTINUOUS
 62
     7
100
AcDbCircle
 10
21.7027520614
 20
20.262647998
 30
0.0
 40
0.1000000000000014
  0
CIRCLE
  5
151
330
1F
100
AcDbEntity
  8
0
  6
CONTINUOUS
 62
     7
100
AcDbCircle
 10
15.1027520614
 20
19.962647998
 30
0.0
 40
0.0999999999999979
  0
CIRCLE
  5
152
330
1F
100
AcDbEntity
  8
0
  6
CONTINUOUS
 62
     7
100
AcDbCircle
 10
15.4027520614
 20
19.962647998
 30
0.0
 40
0.0999999999999979
  0
CIRCLE
  5
153
330
1F
100
AcDbEntity
  8
0
  6
CONTINUOUS
 62
     7
100
AcDbCircle
 10
15.7027520614
 20
19.962647998
 30
0.0
 40
0.0999999999999979
  0
CIRCLE
  5
154
330
1F
100
AcDbEntity
  8
0
  6
CONTINUOUS
 62
     7
100
AcDbCircle
 10
16.0027520614
 20
19.962647998
 30
0.0
 40
0.0999999999999979
  0
CIRCLE
  5
155
330
1F
100
AcDbEntity
  8
0
  6
CONTINUOUS
 62
     7
100
AcDbCircle
 10
16.9027520614
 20
19.962647998
 30
0.0
 40
0.1000000000000014
  0
CIRCLE
  5
156
330
1F
100
AcDbEntity
  8
0
  6
CONTINUOUS
 62
     7
100
AcDbCircle
 10
17.2027520614
 20
19.962647998
 30
0.0
 40
0.1000000000000014
  0
CIRCLE
  5
157
330
1F
100
AcDbEntity
  8
0
  6
CONTINUOUS
 62
     7
100
AcDbCircle
 10
19.6027520614
 20
19.962647998
 30
0.0
 40
0.1000000000000014
  0
CIRCLE
  5
158
330
1F
100
AcDbEntity
  8
0
  6
CONTINUOUS
 62
     7
100
AcDbCircle
 10
19.9027520614
 20
19.962647998
 30
0.0
 40
0.1000000000000014
  0
CIRCLE
  5
159
330
1F
100
AcDbEntity
  8
0
  6
CONTINUOUS
 62
     7
100
AcDbCircle
 10
20.8027520614
 20
19.962647998
 30
0.0
 40
0.1000000000000014
  0
CIRCLE
  5
15A
330
1F
100
AcDbEntity
  8
0
  6
CONTINUOUS
 62
     7
100
AcDbCircle
 10
21.1027520614
 20
19.962647998
 30
0.0
 40
0.1000000000000014
  0
CIRCLE
  5
15B
330
1F
100
AcDbEntity
  8
0
  6
CONTINUOUS
 62
     7
100
AcDbCircle
 10
21.4027520614
 20
19.962647998
 30
0.0
 40
0.1000000000000014
  0
CIRCLE
  5
15C
330
1F
100
AcDbEntity
  8
0
  6
CONTINUOUS
 62
     7
100
AcDbCircle
 10
21.7027520614
 20
19.962647998
 30
0.0
 40
0.1000000000000014
  0
CIRCLE
  5
15D
330
1F
100
AcDbEntity
  8
0
  6
CONTINUOUS
 62
     7
100
AcDbCircle
 10
15.1027520614
 20
19.662647998
 30
0.0
 40
0.1000000000000014
  0
CIRCLE
  5
15E
330
1F
100
AcDbEntity
  8
0
  6
CONTINUOUS
 62
     7
100
AcDbCircle
 10
15.4027520614
 20
19.662647998
 30
0.0
 40
0.1000000000000014
  0
CIRCLE
  5
15F
330
1F
100
AcDbEntity
  8
0
  6
CONTINUOUS
 62
     7
100
AcDbCircle
 10
15.7027520614
 20
19.662647998
 30
0.0
 40
0.1000000000000014
  0
CIRCLE
  5
160
330
1F
100
AcDbEntity
  8
0
  6
CONTINUOUS
 62
     7
100
AcDbCircle
 10
16.0027520614
 20
19.662647998
 30
0.0
 40
0.1000000000000014
  0
CIRCLE
  5
161
330
1F
100
AcDbEntity
  8
0
  6
CONTINUOUS
 62
     7
100
AcDbCircle
 10
16.9027520614
 20
19.662647998
 30
0.0
 40
0.0999999999999979
  0
CIRCLE
  5
162
330
1F
100
AcDbEntity
  8
0
  6
CONTINUOUS
 62
     7
100
AcDbCircle
 10
17.2027520614
 20
19.662647998
 30
0.0
 40
0.0999999999999979
  0
CIRCLE
  5
163
330
1F
100
AcDbEntity
  8
0
  6
CONTINUOUS
 62
     7
100
AcDbCircle
 10
19.6027520614
 20
19.662647998
 30
0.0
 40
0.0999999999999979
  0
CIRCLE
  5
164
330
1F
100
AcDbEntity
  8
0
  6
CONTINUOUS
 62
     7
100
AcDbCircle
 10
19.9027520614
 20
19.662647998
 30
0.0
 40
0.0999999999999979
  0
CIRCLE
  5
165
330
1F
100
AcDbEntity
  8
0
  6
CONTINUOUS
 62
     7
100
AcDbCircle
 10
20.8027520614
 20
19.662647998
 30
0.0
 40
0.0999999999999979
  0
CIRCLE
  5
166
330
1F
100
AcDbEntity
  8
0
  6
CONTINUOUS
 62
     7
100
AcDbCircle
 10
21.1027520614
 20
19.662647998
 30
0.0
 40
0.0999999999999979
  0
CIRCLE
  5
167
330
1F
100
AcDbEntity
  8
0
  6
CONTINUOUS
 62
     7
100
AcDbCircle
 10
21.4027520614
 20
19.662647998
 30
0.0
 40
0.0999999999999979
  0
CIRCLE
  5
168
330
1F
100
AcDbEntity
  8
0
  6
CONTINUOUS
 62
     7
100
AcDbCircle
 10
21.7027520614
 20
19.662647998
 30
0.0
 40
0.0999999999999979
  0
CIRCLE
  5
169
330
1F
100
AcDbEntity
  8
0
  6
CONTINUOUS
 62
     7
100
AcDbCircle
 10
15.1027520614
 20
19.362647998
 30
0.0
 40
0.1000000000000014
  0
CIRCLE
  5
16A
330
1F
100
AcDbEntity
  8
0
  6
CONTINUOUS
 62
     7
100
AcDbCircle
 10
15.4027520614
 20
19.362647998
 30
0.0
 40
0.1000000000000014
  0
CIRCLE
  5
16B
330
1F
100
AcDbEntity
  8
0
  6
CONTINUOUS
 62
     7
100
AcDbCircle
 10
15.7027520614
 20
19.362647998
 30
0.0
 40
0.1000000000000014
  0
CIRCLE
  5
16C
330
1F
100
AcDbEntity
  8
0
  6
CONTINUOUS
 62
     7
100
AcDbCircle
 10
16.0027520614
 20
19.362647998
 30
0.0
 40
0.1000000000000014
  0
CIRCLE
  5
16D
330
1F
100
AcDbEntity
  8
0
  6
CONTINUOUS
 62
     7
100
AcDbCircle
 10
16.9027520614
 20
19.362647998
 30
0.0
 40
0.1000000000000014
  0
CIRCLE
  5
16E
330
1F
100
AcDbEntity
  8
0
  6
CONTINUOUS
 62
     7
100
AcDbCircle
 10
17.2027520614
 20
19.362647998
 30
0.0
 40
0.1000000000000014
  0
CIRCLE
  5
16F
330
1F
100
AcDbEntity
  8
0
  6
CONTINUOUS
 62
     7
100
AcDbCircle
 10
19.6027520614
 20
19.362647998
 30
0.0
 40
0.1000000000000014
  0
CIRCLE
  5
170
330
1F
100
AcDbEntity
  8
0
  6
CONTINUOUS
 62
     7
100
AcDbCircle
 10
19.9027520614
 20
19.362647998
 30
0.0
 40
0.1000000000000014
  0
CIRCLE
  5
171
330
1F
100
AcDbEntity
  8
0
  6
CONTINUOUS
 62
     7
100
AcDbCircle
 10
20.8027520614
 20
19.362647998
 30
0.0
 40
0.1000000000000014
  0
CIRCLE
  5
172
330
1F
100
AcDbEntity
  8
0
  6
CONTINUOUS
 62
     7
100
AcDbCircle
 10
21.1027520614
 20
19.362647998
 30
0.0
 40
0.1000000000000014
  0
CIRCLE
  5
173
330
1F
100
AcDbEntity
  8
0
  6
CONTINUOUS
 62
     7
100
AcDbCircle
 10
21.4027520614
 20
19.362647998
 30
0.0
 40
0.1000000000000014
  0
CIRCLE
  5
174
330
1F
100
AcDbEntity
  8
0
  6
CONTINUOUS
 62
     7
100
AcDbCircle
 10
21.7027520614
 20
19.362647998
 30
0.0
 40
0.1000000000000014
  0
CIRCLE
  5
175
330
1F
100
AcDbEntity
  8
0
  6
CONTINUOUS
 62
     7
100
AcDbCircle
 10
15.1027520614
 20
19.062647998
 30
0.0
 40
0.0999999999999979
  0
CIRCLE
  5
176
330
1F
100
AcDbEntity
  8
0
  6
CONTINUOUS
 62
     7
100
AcDbCircle
 10
15.4027520614
 20
19.062647998
 30
0.0
 40
0.0999999999999979
  0
CIRCLE
  5
177
330
1F
100
AcDbEntity
  8
0
  6
CONTINUOUS
 62
     7
100
AcDbCircle
 10
15.7027520614
 20
19.062647998
 30
0.0
 40
0.0999999999999979
  0
CIRCLE
  5
178
330
1F
100
AcDbEntity
  8
0
  6
CONTINUOUS
 62
     7
100
AcDbCircle
 10
16.0027520614
 20
19.062647998
 30
0.0
 40
0.0999999999999979
  0
CIRCLE
  5
179
330
1F
100
AcDbEntity
  8
0
  6
CONTINUOUS
 62
     7
100
AcDbCircle
 10
16.9027520614
 20
19.062647998
 30
0.0
 40
0.1000000000000014
  0
CIRCLE
  5
17A
330
1F
100
AcDbEntity
  8
0
  6
CONTINUOUS
 62
     7
100
AcDbCircle
 10
17.2027520614
 20
19.062647998
 30
0.0
 40
0.1000000000000014
  0
CIRCLE
  5
17B
330
1F
100
AcDbEntity
  8
0
  6
CONTINUOUS
 62
     7
100
AcDbCircle
 10
19.6027520614
 20
19.062647998
 30
0.0
 40
0.1000000000000014
  0
CIRCLE
  5
17C
330
1F
100
AcDbEntity
  8
0
  6
CONTINUOUS
 62
     7
100
AcDbCircle
 10
19.9027520614
 20
19.062647998
 30
0.0
 40
0.1000000000000014
  0
CIRCLE
  5
17D
330
1F
100
AcDbEntity
  8
0
  6
CONTINUOUS
 62
     7
100
AcDbCircle
 10
20.8027520614
 20
19.062647998
 30
0.0
 40
0.1000000000000014
  0
CIRCLE
  5
17E
330
1F
100
AcDbEntity
  8
0
  6
CONTINUOUS
 62
     7
100
AcDbCircle
 10
21.1027520614
 20
19.062647998
 30
0.0
 40
0.1000000000000014
  0
CIRCLE
  5
17F
330
1F
100
AcDbEntity
  8
0
  6
CONTINUOUS
 62
     7
100
AcDbCircle
 10
21.4027520614
 20
19.062647998
 30
0.0
 40
0.1000000000000014
  0
CIRCLE
  5
180
330
1F
100
AcDbEntity
  8
0
  6
CONTINUOUS
 62
     7
100
AcDbCircle
 10
21.7027520614
 20
19.062647998
 30
0.0
 40
0.1000000000000014
  0
CIRCLE
  5
181
330
1F
100
AcDbEntity
  8
0
  6
CONTINUOUS
 62
     7
100
AcDbCircle
 10
15.1027520614
 20
18.762647998
 30
0.0
 40
0.1000000000000014
  0
CIRCLE
  5
182
330
1F
100
AcDbEntity
  8
0
  6
CONTINUOUS
 62
     7
100
AcDbCircle
 10
15.4027520614
 20
18.762647998
 30
0.0
 40
0.1000000000000014
  0
CIRCLE
  5
183
330
1F
100
AcDbEntity
  8
0
  6
CONTINUOUS
 62
     7
100
AcDbCircle
 10
15.7027520614
 20
18.762647998
 30
0.0
 40
0.1000000000000014
  0
CIRCLE
  5
184
330
1F
100
AcDbEntity
  8
0
  6
CONTINUOUS
 62
     7
100
AcDbCircle
 10
18.4027520614
 20
16.662647998
 30
0.0
 40
0.0999999999999979
  0
CIRCLE
  5
185
330
1F
100
AcDbEntity
  8
0
  6
CONTINUOUS
 62
     7
100
AcDbCircle
 10
18.7027520614
 20
16.662647998
 30
0.0
 40
0.0999999999999979
  0
CIRCLE
  5
186
330
1F
100
AcDbEntity
  8
0
  6
CONTINUOUS
 62
     7
100
AcDbCircle
 10
19.0027520614
 20
16.662647998
 30
0.0
 40
0.0999999999999979
  0
CIRCLE
  5
187
330
1F
100
AcDbEntity
  8
0
  6
CONTINUOUS
 62
     7
100
AcDbCircle
 10
19.3027520614
 20
16.662647998
 30
0.0
 40
0.0999999999999979
  0
CIRCLE
  5
188
330
1F
100
AcDbEntity
  8
0
  6
CONTINUOUS
 62
     7
100
AcDbCircle
 10
19.6027520614
 20
16.662647998
 30
0.0
 40
0.0999999999999979
  0
CIRCLE
  5
189
330
1F
100
AcDbEntity
  8
0
  6
CONTINUOUS
 62
     7
100
AcDbCircle
 10
19.9027520614
 20
16.662647998
 30
0.0
 40
0.0999999999999979
  0
CIRCLE
  5
18A
330
1F
100
AcDbEntity
  8
0
  6
CONTINUOUS
 62
     7
100
AcDbCircle
 10
20.2027520614
 20
16.662647998
 30
0.0
 40
0.0999999999999979
  0
CIRCLE
  5
18B
330
1F
100
AcDbEntity
  8
0
  6
CONTINUOUS
 62
     7
100
AcDbCircle
 10
20.5027520614
 20
16.662647998
 30
0.0
 40
0.0999999999999979
  0
CIRCLE
  5
18C
330
1F
100
AcDbEntity
  8
0
  6
CONTINUOUS
 62
     7
100
AcDbCircle
 10
20.8027520614
 20
16.662647998
 30
0.0
 40
0.0999999999999979
  0
CIRCLE
  5
18D
330
1F
100
AcDbEntity
  8
0
  6
CONTINUOUS
 62
     7
100
AcDbCircle
 10
21.1027520614
 20
16.662647998
 30
0.0
 40
0.0999999999999979
  0
CIRCLE
  5
18E
330
1F
100
AcDbEntity
  8
0
  6
CONTINUOUS
 62
     7
100
AcDbCircle
 10
21.4027520614
 20
16.662647998
 30
0.0
 40
0.0999999999999979
  0
CIRCLE
  5
18F
330
1F
100
AcDbEntity
  8
0
  6
CONTINUOUS
 62
     7
100
AcDbCircle
 10
21.7027520614
 20
16.662647998
 30
0.0
 40
0.0999999999999979
  0
CIRCLE
  5
190
330
1F
100
AcDbEntity
  8
0
  6
CONTINUOUS
 62
     7
100
AcDbCircle
 10
15.1027520614
 20
16.362647998
 30
0.0
 40
0.0999999999999979
  0
CIRCLE
  5
191
330
1F
100
AcDbEntity
  8
0
  6
CONTINUOUS
 62
     7
100
AcDbCircle
 10
15.4027520614
 20
16.362647998
 30
0.0
 40
0.0999999999999979
  0
CIRCLE
  5
192
330
1F
100
AcDbEntity
  8
0
  6
CONTINUOUS
 62
     7
100
AcDbCircle
 10
15.7027520614
 20
16.362647998
 30
0.0
 40
0.0999999999999979
  0
CIRCLE
  5
193
330
1F
100
AcDbEntity
  8
0
  6
CONTINUOUS
 62
     7
100
AcDbCircle
 10
16.0027520614
 20
16.362647998
 30
0.0
 40
0.0999999999999979
  0
CIRCLE
  5
194
330
1F
100
AcDbEntity
  8
0
  6
CONTINUOUS
 62
     7
100
AcDbCircle
 10
16.3027520614
 20
16.362647998
 30
0.0
 40
0.0999999999999979
  0
CIRCLE
  5
195
330
1F
100
AcDbEntity
  8
0
  6
CONTINUOUS
 62
     7
100
AcDbCircle
 10
16.6027520614
 20
16.362647998
 30
0.0
 40
0.0999999999999979
  0
CIRCLE
  5
196
330
1F
100
AcDbEntity
  8
0
  6
CONTINUOUS
 62
     7
100
AcDbCircle
 10
16.9027520614
 20
16.362647998
 30
0.0
 40
0.0999999999999979
  0
CIRCLE
  5
197
330
1F
100
AcDbEntity
  8
0
  6
CONTINUOUS
 62
     7
100
AcDbCircle
 10
17.2027520614
 20
16.362647998
 30
0.0
 40
0.0999999999999979
  0
CIRCLE
  5
198
330
1F
100
AcDbEntity
  8
0
  6
CONTINUOUS
 62
     7
100
AcDbCircle
 10
17.5027520614
 20
16.362647998
 30
0.0
 40
0.0999999999999979
  0
CIRCLE
  5
199
330
1F
100
AcDbEntity
  8
0
  6
CONTINUOUS
 62
     7
100
AcDbCircle
 10
17.8027520614
 20
16.362647998
 30
0.0
 40
0.0999999999999979
  0
CIRCLE
  5
19A
330
1F
100
AcDbEntity
  8
0
  6
CONTINUOUS
 62
     7
100
AcDbCircle
 10
18.1027520614
 20
16.362647998
 30
0.0
 40
0.0999999999999979
  0
CIRCLE
  5
19B
330
1F
100
AcDbEntity
  8
0
  6
CONTINUOUS
 62
     7
100
AcDbCircle
 10
18.4027520614
 20
16.362647998
 30
0.0
 40
0.0999999999999979
  0
CIRCLE
  5
19C
330
1F
100
AcDbEntity
  8
0
  6
CONTINUOUS
 62
     7
100
AcDbCircle
 10
16.0027520614
 20
18.162647998
 30
0.0
 40
0.0999999999999979
  0
CIRCLE
  5
19D
330
1F
100
AcDbEntity
  8
0
  6
CONTINUOUS
 62
     7
100
AcDbCircle
 10
19.0027520614
 20
16.362647998
 30
0.0
 40
0.1000000000000014
  0
CIRCLE
  5
19E
330
1F
100
AcDbEntity
  8
0
  6
CONTINUOUS
 62
     7
100
AcDbCircle
 10
17.2027520614
 20
18.162647998
 30
0.0
 40
0.1000000000000014
  0
CIRCLE
  5
19F
330
1F
100
AcDbEntity
  8
0
  6
CONTINUOUS
 62
     7
100
AcDbCircle
 10
19.6027520614
 20
18.162647998
 30
0.0
 40
0.1000000000000014
  0
CIRCLE
  5
1A0
330
1F
100
AcDbEntity
  8
0
  6
CONTINUOUS
 62
     7
100
AcDbCircle
 10
19.9027520614
 20
18.162647998
 30
0.0
 40
0.1000000000000014
  0
CIRCLE
  5
1A1
330
1F
100
AcDbEntity
  8
0
  6
CONTINUOUS
 62
     7
100
AcDbCircle
 10
20.8027520614
 20
18.162647998
 30
0.0
 40
0.1000000000000014
  0
CIRCLE
  5
1A2
330
1F
100
AcDbEntity
  8
0
  6
CONTINUOUS
 62
     7
100
AcDbCircle
 10
21.1027520614
 20
18.162647998
 30
0.0
 40
0.1000000000000014
  0
CIRCLE
  5
1A3
330
1F
100
AcDbEntity
  8
0
  6
CONTINUOUS
 62
     7
100
AcDbCircle
 10
21.4027520614
 20
18.162647998
 30
0.0
 40
0.1000000000000014
  0
CIRCLE
  5
1A4
330
1F
100
AcDbEntity
  8
0
  6
CONTINUOUS
 62
     7
100
AcDbCircle
 10
21.7027520614
 20
18.162647998
 30
0.0
 40
0.1000000000000014
  0
CIRCLE
  5
1A5
330
1F
100
AcDbEntity
  8
0
  6
CONTINUOUS
 62
     7
100
AcDbCircle
 10
15.1027520614
 20
17.862647998
 30
0.0
 40
0.0999999999999979
  0
CIRCLE
  5
1A6
330
1F
100
AcDbEntity
  8
0
  6
CONTINUOUS
 62
     7
100
AcDbCircle
 10
15.4027520614
 20
17.862647998
 30
0.0
 40
0.0999999999999979
  0
CIRCLE
  5
1A7
330
1F
100
AcDbEntity
  8
0
  6
CONTINUOUS
 62
     7
100
AcDbCircle
 10
15.7027520614
 20
17.862647998
 30
0.0
 40
0.0999999999999979
  0
CIRCLE
  5
1A8
330
1F
100
AcDbEntity
  8
0
  6
CONTINUOUS
 62
     7
100
AcDbCircle
 10
16.0027520614
 20
17.862647998
 30
0.0
 40
0.0999999999999979
  0
CIRCLE
  5
1A9
330
1F
100
AcDbEntity
  8
0
  6
CONTINUOUS
 62
     7
100
AcDbCircle
 10
16.9027520614
 20
17.862647998
 30
0.0
 40
0.0999999999999979
  0
CIRCLE
  5
1AA
330
1F
100
AcDbEntity
  8
0
  6
CONTINUOUS
 62
     7
100
AcDbCircle
 10
17.2027520614
 20
17.862647998
 30
0.0
 40
0.0999999999999979
  0
CIRCLE
  5
1AB
330
1F
100
AcDbEntity
  8
0
  6
CONTINUOUS
 62
     7
100
AcDbCircle
 10
17.5027520614
 20
17.862647998
 30
0.0
 40
0.0999999999999979
  0
CIRCLE
  5
1AC
330
1F
100
AcDbEntity
  8
0
  6
CONTINUOUS
 62
     7
100
AcDbCircle
 10
17.8027520614
 20
17.862647998
 30
0.0
 40
0.0999999999999979
  0
CIRCLE
  5
1AD
330
1F
100
AcDbEntity
  8
0
  6
CONTINUOUS
 62
     7
100
AcDbCircle
 10
18.1027520614
 20
17.862647998
 30
0.0
 40
0.0999999999999979
  0
CIRCLE
  5
1AE
330
1F
100
AcDbEntity
  8
0
  6
CONTINUOUS
 62
     7
100
AcDbCircle
 10
18.4027520614
 20
17.862647998
 30
0.0
 40
0.0999999999999979
  0
CIRCLE
  5
1AF
330
1F
100
AcDbEntity
  8
0
  6
CONTINUOUS
 62
     7
100
AcDbCircle
 10
18.7027520614
 20
17.862647998
 30
0.0
 40
0.0999999999999979
  0
CIRCLE
  5
1B0
330
1F
100
AcDbEntity
  8
0
  6
CONTINUOUS
 62
     7
100
AcDbCircle
 10
19.0027520614
 20
17.862647998
 30
0.0
 40
0.0999999999999979
  0
CIRCLE
  5
1B1
330
1F
100
AcDbEntity
  8
0
  6
CONTINUOUS
 62
     7
100
AcDbCircle
 10
19.3027520614
 20
17.862647998
 30
0.0
 40
0.0999999999999979
  0
CIRCLE
  5
1B2
330
1F
100
AcDbEntity
  8
0
  6
CONTINUOUS
 62
     7
100
AcDbCircle
 10
19.6027520614
 20
17.862647998
 30
0.0
 40
0.0999999999999979
  0
CIRCLE
  5
1B3
330
1F
100
AcDbEntity
  8
0
  6
CONTINUOUS
 62
     7
100
AcDbCircle
 10
19.9027520614
 20
17.862647998
 30
0.0
 40
0.0999999999999979
  0
CIRCLE
  5
1B4
330
1F
100
AcDbEntity
  8
0
  6
CONTINUOUS
 62
     7
100
AcDbCircle
 10
20.8027520614
 20
17.862647998
 30
0.0
 40
0.0999999999999979
  0
CIRCLE
  5
1B5
330
1F
100
AcDbEntity
  8
0
  6
CONTINUOUS
 62
     7
100
AcDbCircle
 10
21.1027520614
 20
17.862647998
 30
0.0
 40
0.0999999999999979
  0
CIRCLE
  5
1B6
330
1F
100
AcDbEntity
  8
0
  6
CONTINUOUS
 62
     7
100
AcDbCircle
 10
21.4027520614
 20
17.862647998
 30
0.0
 40
0.0999999999999979
  0
CIRCLE
  5
1B7
330
1F
100
AcDbEntity
  8
0
  6
CONTINUOUS
 62
     7
100
AcDbCircle
 10
21.7027520614
 20
17.862647998
 30
0.0
 40
0.0999999999999979
  0
CIRCLE
  5
1B8
330
1F
100
AcDbEntity
  8
0
  6
CONTINUOUS
 62
     7
100
AcDbCircle
 10
15.1027520614
 20
17.562647998
 30
0.0
 40
0.1000000000000014
  0
CIRCLE
  5
1B9
330
1F
100
AcDbEntity
  8
0
  6
CONTINUOUS
 62
     7
100
AcDbCircle
 10
15.4027520614
 20
17.562647998
 30
0.0
 40
0.1000000000000014
  0
CIRCLE
  5
1BA
330
1F
100
AcDbEntity
  8
0
  6
CONTINUOUS
 62
     7
100
AcDbCircle
 10
15.7027520614
 20
17.562647998
 30
0.0
 40
0.1000000000000014
  0
CIRCLE
  5
1BB
330
1F
100
AcDbEntity
  8
0
  6
CONTINUOUS
 62
     7
100
AcDbCircle
 10
16.0027520614
 20
17.562647998
 30
0.0
 40
0.1000000000000014
  0
CIRCLE
  5
1BC
330
1F
100
AcDbEntity
  8
0
  6
CONTINUOUS
 62
     7
100
AcDbCircle
 10
16.9027520614
 20
17.562647998
 30
0.0
 40
0.1000000000000014
  0
CIRCLE
  5
1BD
330
1F
100
AcDbEntity
  8
0
  6
CONTINUOUS
 62
     7
100
AcDbCircle
 10
17.2027520614
 20
17.562647998
 30
0.0
 40
0.1000000000000014
  0
CIRCLE
  5
1BE
330
1F
100
AcDbEntity
  8
0
  6
CONTINUOUS
 62
     7
100
AcDbCircle
 10
17.5027520614
 20
17.562647998
 30
0.0
 40
0.1000000000000014
  0
CIRCLE
  5
1BF
330
1F
100
AcDbEntity
  8
0
  6
CONTINUOUS
 62
     7
100
AcDbCircle
 10
17.8027520614
 20
17.562647998
 30
0.0
 40
0.1000000000000014
  0
CIRCLE
  5
1C0
330
1F
100
AcDbEntity
  8
0
  6
CONTINUOUS
 62
     7
100
AcDbCircle
 10
18.1027520614
 20
17.562647998
 30
0.0
 40
0.1000000000000014
  0
CIRCLE
  5
1C1
330
1F
100
AcDbEntity
  8
0
  6
CONTINUOUS
 62
     7
100
AcDbCircle
 10
18.4027520614
 20
17.562647998
 30
0.0
 40
0.1000000000000014
  0
CIRCLE
  5
1C2
330
1F
100
AcDbEntity
  8
0
  6
CONTINUOUS
 62
     7
100
AcDbCircle
 10
18.7027520614
 20
17.562647998
 30
0.0
 40
0.0999999999999979
  0
CIRCLE
  5
1C3
330
1F
100
AcDbEntity
  8
0
  6
CONTINUOUS
 62
     7
100
AcDbCircle
 10
19.0027520614
 20
17.562647998
 30
0.0
 40
0.0999999999999979
  0
CIRCLE
  5
1C4
330
1F
100
AcDbEntity
  8
0
  6
CONTINUOUS
 62
     7
100
AcDbCircle
 10
19.3027520614
 20
17.562647998
 30
0.0
 40
0.0999999999999979
  0
CIRCLE
  5
1C5
330
1F
100
AcDbEntity
  8
0
  6
CONTINUOUS
 62
     7
100
AcDbCircle
 10
19.6027520614
 20
17.562647998
 30
0.0
 40
0.0999999999999979
  0
CIRCLE
  5
1C6
330
1F
100
AcDbEntity
  8
0
  6
CONTINUOUS
 62
     7
100
AcDbCircle
 10
19.9027520614
 20
17.562647998
 30
0.0
 40
0.0999999999999979
  0
CIRCLE
  5
1C7
330
1F
100
AcDbEntity
  8
0
  6
CONTINUOUS
 62
     7
100
AcDbCircle
 10
20.8027520614
 20
17.562647998
 30
0.0
 40
0.0999999999999979
  0
CIRCLE
  5
1C8
330
1F
100
AcDbEntity
  8
0
  6
CONTINUOUS
 62
     7
100
AcDbCircle
 10
21.1027520614
 20
17.562647998
 30
0.0
 40
0.0999999999999979
  0
CIRCLE
  5
1C9
330
1F
100
AcDbEntity
  8
0
  6
CONTINUOUS
 62
     7
100
AcDbCircle
 10
21.4027520614
 20
17.562647998
 30
0.0
 40
0.0999999999999979
  0
CIRCLE
  5
1CA
330
1F
100
AcDbEntity
  8
0
  6
CONTINUOUS
 62
     7
100
AcDbCircle
 10
21.7027520614
 20
17.562647998
 30
0.0
 40
0.0999999999999979
  0
CIRCLE
  5
1CB
330
1F
100
AcDbEntity
  8
0
  6
CONTINUOUS
 62
     7
100
AcDbCircle
 10
15.1027520614
 20
17.262647998
 30
0.0
 40
0.0999999999999979
  0
CIRCLE
  5
1CC
330
1F
100
AcDbEntity
  8
0
  6
CONTINUOUS
 62
     7
100
AcDbCircle
 10
15.4027520614
 20
17.262647998
 30
0.0
 40
0.0999999999999979
  0
CIRCLE
  5
1CD
330
1F
100
AcDbEntity
  8
0
  6
CONTINUOUS
 62
     7
100
AcDbCircle
 10
15.7027520614
 20
17.262647998
 30
0.0
 40
0.0999999999999979
  0
CIRCLE
  5
1CE
330
1F
100
AcDbEntity
  8
0
  6
CONTINUOUS
 62
     7
100
AcDbCircle
 10
16.0027520614
 20
17.262647998
 30
0.0
 40
0.0999999999999979
  0
CIRCLE
  5
1CF
330
1F
100
AcDbEntity
  8
0
  6
CONTINUOUS
 62
     7
100
AcDbCircle
 10
20.8027520614
 20
17.262647998
 30
0.0
 40
0.0999999999999979
  0
CIRCLE
  5
1D0
330
1F
100
AcDbEntity
  8
0
  6
CONTINUOUS
 62
     7
100
AcDbCircle
 10
21.1027520614
 20
17.262647998
 30
0.0
 40
0.0999999999999979
  0
CIRCLE
  5
1D1
330
1F
100
AcDbEntity
  8
0
  6
CONTINUOUS
 62
     7
100
AcDbCircle
 10
21.4027520614
 20
17.262647998
 30
0.0
 40
0.0999999999999979
  0
CIRCLE
  5
1D2
330
1F
100
AcDbEntity
  8
0
  6
CONTINUOUS
 62
     7
100
AcDbCircle
 10
21.7027520614
 20
17.262647998
 30
0.0
 40
0.0999999999999979
  0
CIRCLE
  5
1D3
330
1F
100
AcDbEntity
  8
0
  6
CONTINUOUS
 62
     7
100
AcDbCircle
 10
15.1027520614
 20
16.962647998
 30
0.0
 40
0.0999999999999979
  0
CIRCLE
  5
1D4
330
1F
100
AcDbEntity
  8
0
  6
CONTINUOUS
 62
     7
100
AcDbCircle
 10
15.4027520614
 20
16.962647998
 30
0.0
 40
0.0999999999999979
  0
CIRCLE
  5
1D5
330
1F
100
AcDbEntity
  8
0
  6
CONTINUOUS
 62
     7
100
AcDbCircle
 10
15.7027520614
 20
16.962647998
 30
0.0
 40
0.0999999999999979
  0
CIRCLE
  5
1D6
330
1F
100
AcDbEntity
  8
0
  6
CONTINUOUS
 62
     7
100
AcDbCircle
 10
16.0027520614
 20
16.962647998
 30
0.0
 40
0.0999999999999979
  0
CIRCLE
  5
1D7
330
1F
100
AcDbEntity
  8
0
  6
CONTINUOUS
 62
     7
100
AcDbCircle
 10
20.8027520614
 20
16.962647998
 30
0.0
 40
0.0999999999999979
  0
CIRCLE
  5
1D8
330
1F
100
AcDbEntity
  8
0
  6
CONTINUOUS
 62
     7
100
AcDbCircle
 10
21.1027520614
 20
16.962647998
 30
0.0
 40
0.0999999999999979
  0
CIRCLE
  5
1D9
330
1F
100
AcDbEntity
  8
0
  6
CONTINUOUS
 62
     7
100
AcDbCircle
 10
21.4027520614
 20
16.962647998
 30
0.0
 40
0.0999999999999979
  0
CIRCLE
  5
1DA
330
1F
100
AcDbEntity
  8
0
  6
CONTINUOUS
 62
     7
100
AcDbCircle
 10
21.7027520614
 20
16.962647998
 30
0.0
 40
0.0999999999999979
  0
CIRCLE
  5
1DB
330
1F
100
AcDbEntity
  8
0
  6
CONTINUOUS
 62
     7
100
AcDbCircle
 10
15.1027520614
 20
16.662647998
 30
0.0
 40
0.0999999999999979
  0
CIRCLE
  5
1DC
330
1F
100
AcDbEntity
  8
0
  6
CONTINUOUS
 62
     7
100
AcDbCircle
 10
15.4027520614
 20
16.662647998
 30
0.0
 40
0.0999999999999979
  0
CIRCLE
  5
1DD
330
1F
100
AcDbEntity
  8
0
  6
CONTINUOUS
 62
     7
100
AcDbCircle
 10
15.7027520614
 20
16.662647998
 30
0.0
 40
0.0999999999999979
  0
CIRCLE
  5
1DE
330
1F
100
AcDbEntity
  8
0
  6
CONTINUOUS
 62
     7
100
AcDbCircle
 10
16.0027520614
 20
16.662647998
 30
0.0
 40
0.0999999999999979
  0
CIRCLE
  5
1DF
330
1F
100
AcDbEntity
  8
0
  6
CONTINUOUS
 62
     7
100
AcDbCircle
 10
16.3027520614
 20
16.662647998
 30
0.0
 40
0.0999999999999979
  0
CIRCLE
  5
1E0
330
1F
100
AcDbEntity
  8
0
  6
CONTINUOUS
 62
     7
100
AcDbCircle
 10
16.6027520614
 20
16.662647998
 30
0.0
 40
0.0999999999999979
  0
CIRCLE
  5
1E1
330
1F
100
AcDbEntity
  8
0
  6
CONTINUOUS
 62
     7
100
AcDbCircle
 10
16.9027520614
 20
16.662647998
 30
0.0
 40
0.0999999999999979
  0
CIRCLE
  5
1E2
330
1F
100
AcDbEntity
  8
0
  6
CONTINUOUS
 62
     7
100
AcDbCircle
 10
17.2027520614
 20
16.662647998
 30
0.0
 40
0.0999999999999979
  0
CIRCLE
  5
1E3
330
1F
100
AcDbEntity
  8
0
  6
CONTINUOUS
 62
     7
100
AcDbCircle
 10
17.5027520614
 20
16.662647998
 30
0.0
 40
0.0999999999999979
  0
CIRCLE
  5
1E4
330
1F
100
AcDbEntity
  8
0
  6
CONTINUOUS
 62
     7
100
AcDbCircle
 10
17.8027520614
 20
16.662647998
 30
0.0
 40
0.0999999999999979
  0
CIRCLE
  5
1E5
330
1F
100
AcDbEntity
  8
0
  6
CONTINUOUS
 62
     7
100
AcDbCircle
 10
18.1027520614
 20
16.662647998
 30
0.0
 40
0.0999999999999979
  0
CIRCLE
  5
1E6
330
1F
100
AcDbEntity
  8
0
  6
CONTINUOUS
 62
     7
100
AcDbCircle
 10
19.6027520614
 20
16.062647998
 30
0.0
 40
0.0999999999999979
  0
CIRCLE
  5
1E7
330
1F
100
AcDbEntity
  8
0
  6
CONTINUOUS
 62
     7
100
AcDbCircle
 10
19.9027520614
 20
16.062647998
 30
0.0
 40
0.0999999999999979
  0
CIRCLE
  5
1E8
330
1F
100
AcDbEntity
  8
0
  6
CONTINUOUS
 62
     7
100
AcDbCircle
 10
20.2027520614
 20
16.062647998
 30
0.0
 40
0.0999999999999979
  0
CIRCLE
  5
1E9
330
1F
100
AcDbEntity
  8
0
  6
CONTINUOUS
 62
     7
100
AcDbCircle
 10
20.5027520614
 20
16.062647998
 30
0.0
 40
0.0999999999999979
  0
CIRCLE
  5
1EA
330
1F
100
AcDbEntity
  8
0
  6
CONTINUOUS
 62
     7
100
AcDbCircle
 10
20.8027520614
 20
16.062647998
 30
0.0
 40
0.0999999999999979
  0
CIRCLE
  5
1EB
330
1F
100
AcDbEntity
  8
0
  6
CONTINUOUS
 62
     7
100
AcDbCircle
 10
21.1027520614
 20
16.062647998
 30
0.0
 40
0.0999999999999979
  0
CIRCLE
  5
1EC
330
1F
100
AcDbEntity
  8
0
  6
CONTINUOUS
 62
     7
100
AcDbCircle
 10
21.7027520614
 20
16.062647998
 30
0.0
 40
0.0999999999999979
  0
CIRCLE
  5
1ED
330
1F
100
AcDbEntity
  8
0
  6
CONTINUOUS
 62
     7
100
AcDbCircle
 10
15.4027520614
 20
15.762647998
 30
0.0
 40
0.1000000000000014
  0
CIRCLE
  5
1EE
330
1F
100
AcDbEntity
  8
0
  6
CONTINUOUS
 62
     7
100
AcDbCircle
 10
15.7027520614
 20
15.762647998
 30
0.0
 40
0.1000000000000014
  0
CIRCLE
  5
1EF
330
1F
100
AcDbEntity
  8
0
  6
CONTINUOUS
 62
     7
100
AcDbCircle
 10
16.0027520614
 20
15.762647998
 30
0.0
 40
0.1000000000000014
  0
CIRCLE
  5
1F0
330
1F
100
AcDbEntity
  8
0
  6
CONTINUOUS
 62
     7
100
AcDbCircle
 10
16.3027520614
 20
15.762647998
 30
0.0
 40
0.1000000000000014
  0
CIRCLE
  5
1F1
330
1F
100
AcDbEntity
  8
0
  6
CONTINUOUS
 62
     7
100
AcDbCircle
 10
16.6027520614
 20
15.762647998
 30
0.0
 40
0.1000000000000014
  0
CIRCLE
  5
1F2
330
1F
100
AcDbEntity
  8
0
  6
CONTINUOUS
 62
     7
100
AcDbCircle
 10
16.9027520614
 20
15.762647998
 30
0.0
 40
0.1000000000000014
  0
CIRCLE
  5
1F3
330
1F
100
AcDbEntity
  8
0
  6
CONTINUOUS
 62
     7
100
AcDbCircle
 10
17.2027520614
 20
15.762647998
 30
0.0
 40
0.1000000000000014
  0
CIRCLE
  5
1F4
330
1F
100
AcDbEntity
  8
0
  6
CONTINUOUS
 62
     7
100
AcDbCircle
 10
17.5027520614
 20
15.762647998
 30
0.0
 40
0.1000000000000014
  0
CIRCLE
  5
1F5
330
1F
100
AcDbEntity
  8
0
  6
CONTINUOUS
 62
     7
100
AcDbCircle
 10
17.8027520614
 20
15.762647998
 30
0.0
 40
0.1000000000000014
  0
CIRCLE
  5
1F6
330
1F
100
AcDbEntity
  8
0
  6
CONTINUOUS
 62
     7
100
AcDbCircle
 10
18.1027520614
 20
15.762647998
 30
0.0
 40
0.1000000000000014
  0
CIRCLE
  5
1F7
330
1F
100
AcDbEntity
  8
0
  6
CONTINUOUS
 62
     7
100
AcDbCircle
 10
18.4027520614
 20
15.762647998
 30
0.0
 40
0.1000000000000014
  0
CIRCLE
  5
1F8
330
1F
100
AcDbEntity
  8
0
  6
CONTINUOUS
 62
     7
100
AcDbCircle
 10
18.7027520614
 20
15.762647998
 30
0.0
 40
0.0999999999999979
  0
CIRCLE
  5
1F9
330
1F
100
AcDbEntity
  8
0
  6
CONTINUOUS
 62
     7
100
AcDbCircle
 10
19.0027520614
 20
15.762647998
 30
0.0
 40
0.0999999999999979
  0
CIRCLE
  5
1FA
330
1F
100
AcDbEntity
  8
0
  6
CONTINUOUS
 62
     7
100
AcDbCircle
 10
19.3027520614
 20
15.762647998
 30
0.0
 40
0.0999999999999979
  0
CIRCLE
  5
1FB
330
1F
100
AcDbEntity
  8
0
  6
CONTINUOUS
 62
     7
100
AcDbCircle
 10
19.6027520614
 20
15.762647998
 30
0.0
 40
0.0999999999999979
  0
CIRCLE
  5
1FC
330
1F
100
AcDbEntity
  8
0
  6
CONTINUOUS
 62
     7
100
AcDbCircle
 10
19.9027520614
 20
15.762647998
 30
0.0
 40
0.0999999999999979
  0
CIRCLE
  5
1FD
330
1F
100
AcDbEntity
  8
0
  6
CONTINUOUS
 62
     7
100
AcDbCircle
 10
20.2027520614
 20
15.762647998
 30
0.0
 40
0.0999999999999979
  0
CIRCLE
  5
1FE
330
1F
100
AcDbEntity
  8
0
  6
CONTINUOUS
 62
     7
100
AcDbCircle
 10
18.7027520614
 20
16.362647998
 30
0.0
 40
0.1000000000000014
  0
CIRCLE
  5
1FF
330
1F
100
AcDbEntity
  8
0
  6
CONTINUOUS
 62
     7
100
AcDbCircle
 10
20.8027520614
 20
15.762647998
 30
0.0
 40
0.0999999999999979
  0
CIRCLE
  5
200
330
1F
100
AcDbEntity
  8
0
  6
CONTINUOUS
 62
     7
100
AcDbCircle
 10
19.3027520614
 20
16.362647998
 30
0.0
 40
0.1000000000000014
  0
CIRCLE
  5
201
330
1F
100
AcDbEntity
  8
0
  6
CONTINUOUS
 62
     7
100
AcDbCircle
 10
19.6027520614
 20
16.362647998
 30
0.0
 40
0.1000000000000014
  0
CIRCLE
  5
202
330
1F
100
AcDbEntity
  8
0
  6
CONTINUOUS
 62
     7
100
AcDbCircle
 10
19.9027520614
 20
16.362647998
 30
0.0
 40
0.1000000000000014
  0
CIRCLE
  5
203
330
1F
100
AcDbEntity
  8
0
  6
CONTINUOUS
 62
     7
100
AcDbCircle
 10
20.2027520614
 20
16.362647998
 30
0.0
 40
0.1000000000000014
  0
CIRCLE
  5
204
330
1F
100
AcDbEntity
  8
0
  6
CONTINUOUS
 62
     7
100
AcDbCircle
 10
20.5027520614
 20
16.362647998
 30
0.0
 40
0.1000000000000014
  0
CIRCLE
  5
205
330
1F
100
AcDbEntity
  8
0
  6
CONTINUOUS
 62
     7
100
AcDbCircle
 10
20.8027520614
 20
16.362647998
 30
0.0
 40
0.1000000000000014
  0
CIRCLE
  5
206
330
1F
100
AcDbEntity
  8
0
  6
CONTINUOUS
 62
     7
100
AcDbCircle
 10
21.1027520614
 20
16.362647998
 30
0.0
 40
0.1000000000000014
  0
CIRCLE
  5
207
330
1F
100
AcDbEntity
  8
0
  6
CONTINUOUS
 62
     7
100
AcDbCircle
 10
21.4027520614
 20
16.362647998
 30
0.0
 40
0.1000000000000014
  0
CIRCLE
  5
208
330
1F
100
AcDbEntity
  8
0
  6
CONTINUOUS
 62
     7
100
AcDbCircle
 10
21.7027520614
 20
16.362647998
 30
0.0
 40
0.1000000000000014
  0
CIRCLE
  5
209
330
1F
100
AcDbEntity
  8
0
  6
CONTINUOUS
 62
     7
100
AcDbCircle
 10
15.1027520614
 20
16.062647998
 30
0.0
 40
0.1000000000000014
  0
CIRCLE
  5
20A
330
1F
100
AcDbEntity
  8
0
  6
CONTINUOUS
 62
     7
100
AcDbCircle
 10
15.7027520614
 20
16.062647998
 30
0.0
 40
0.1000000000000014
  0
CIRCLE
  5
20B
330
1F
100
AcDbEntity
  8
0
  6
CONTINUOUS
 62
     7
100
AcDbCircle
 10
16.0027520614
 20
16.062647998
 30
0.0
 40
0.1000000000000014
  0
CIRCLE
  5
20C
330
1F
100
AcDbEntity
  8
0
  6
CONTINUOUS
 62
     7
100
AcDbCircle
 10
16.3027520614
 20
16.062647998
 30
0.0
 40
0.1000000000000014
  0
CIRCLE
  5
20D
330
1F
100
AcDbEntity
  8
0
  6
CONTINUOUS
 62
     7
100
AcDbCircle
 10
16.6027520614
 20
16.062647998
 30
0.0
 40
0.1000000000000014
  0
CIRCLE
  5
20E
330
1F
100
AcDbEntity
  8
0
  6
CONTINUOUS
 62
     7
100
AcDbCircle
 10
16.9027520614
 20
16.062647998
 30
0.0
 40
0.1000000000000014
  0
CIRCLE
  5
20F
330
1F
100
AcDbEntity
  8
0
  6
CONTINUOUS
 62
     7
100
AcDbCircle
 10
17.2027520614
 20
16.062647998
 30
0.0
 40
0.1000000000000014
  0
CIRCLE
  5
210
330
1F
100
AcDbEntity
  8
0
  6
CONTINUOUS
 62
     7
100
AcDbCircle
 10
17.5027520614
 20
16.062647998
 30
0.0
 40
0.1000000000000014
  0
CIRCLE
  5
211
330
1F
100
AcDbEntity
  8
0
  6
CONTINUOUS
 62
     7
100
AcDbCircle
 10
17.8027520614
 20
16.062647998
 30
0.0
 40
0.1000000000000014
  0
CIRCLE
  5
212
330
1F
100
AcDbEntity
  8
0
  6
CONTINUOUS
 62
     7
100
AcDbCircle
 10
18.1027520614
 20
16.062647998
 30
0.0
 40
0.1000000000000014
  0
CIRCLE
  5
213
330
1F
100
AcDbEntity
  8
0
  6
CONTINUOUS
 62
     7
100
AcDbCircle
 10
18.4027520614
 20
16.062647998
 30
0.0
 40
0.1000000000000014
  0
CIRCLE
  5
214
330
1F
100
AcDbEntity
  8
0
  6
CONTINUOUS
 62
     7
100
AcDbCircle
 10
18.7027520614
 20
16.062647998
 30
0.0
 40
0.0999999999999979
  0
CIRCLE
  5
215
330
1F
100
AcDbEntity
  8
0
  6
CONTINUOUS
 62
     7
100
AcDbCircle
 10
19.0027520614
 20
16.062647998
 30
0.0
 40
0.0999999999999979
  0
CIRCLE
  5
216
330
1F
100
AcDbEntity
  8
0
  6
CONTINUOUS
 62
     7
100
AcDbCircle
 10
19.3027520614
 20
16.062647998
 30
0.0
 40
0.0999999999999979
  0
CIRCLE
  5
217
330
1F
100
AcDbEntity
  8
0
  6
CONTINUOUS
 62
     7
100
AcDbCircle
 10
18.1027520614
 20
22.362647998
 30
0.0
 40
0.0999999999999979
  0
CIRCLE
  5
218
330
1F
100
AcDbEntity
  8
0
  6
CONTINUOUS
 62
     7
100
AcDbCircle
 10
21.1027520614
 20
15.762647998
 30
0.0
 40
0.0999999999999979
  0
CIRCLE
  5
219
330
1F
100
AcDbEntity
  8
0
  6
CONTINUOUS
 62
     7
100
AcDbCircle
 10
21.4027520614
 20
15.762647998
 30
0.0
 40
0.0999999999999979
  0
CIRCLE
  5
21A
330
1F
100
AcDbEntity
  8
0
  6
CONTINUOUS
 62
     7
100
AcDbCircle
 10
15.4027520614
 20
22.362647998
 30
0.0
 40
0.0999999999999979
  0
CIRCLE
  5
21B
330
1F
100
AcDbEntity
  8
0
  6
CONTINUOUS
 62
     7
100
AcDbCircle
 10
15.7027520614
 20
22.362647998
 30
0.0
 40
0.0999999999999979
  0
CIRCLE
  5
21C
330
1F
100
AcDbEntity
  8
0
  6
CONTINUOUS
 62
     7
100
AcDbCircle
 10
16.0027520614
 20
22.362647998
 30
0.0
 40
0.0999999999999979
  0
CIRCLE
  5
21D
330
1F
100
AcDbEntity
  8
0
  6
CONTINUOUS
 62
     7
100
AcDbCircle
 10
16.3027520614
 20
22.362647998
 30
0.0
 40
0.0999999999999979
  0
CIRCLE
  5
21E
330
1F
100
AcDbEntity
  8
0
  6
CONTINUOUS
 62
     7
100
AcDbCircle
 10
16.6027520614
 20
22.362647998
 30
0.0
 40
0.0999999999999979
  0
CIRCLE
  5
21F
330
1F
100
AcDbEntity
  8
0
  6
CONTINUOUS
 62
     7
100
AcDbCircle
 10
16.9027520614
 20
22.362647998
 30
0.0
 40
0.0999999999999979
  0
CIRCLE
  5
220
330
1F
100
AcDbEntity
  8
0
  6
CONTINUOUS
 62
     7
100
AcDbCircle
 10
17.2027520614
 20
22.362647998
 30
0.0
 40
0.0999999999999979
  0
CIRCLE
  5
221
330
1F
100
AcDbEntity
  8
0
  6
CONTINUOUS
 62
     7
100
AcDbCircle
 10
17.5027520614
 20
22.362647998
 30
0.0
 40
0.0999999999999979
  0
CIRCLE
  5
222
330
1F
100
AcDbEntity
  8
0
  6
CONTINUOUS
 62
     7
100
AcDbCircle
 10
17.8027520614
 20
22.362647998
 30
0.0
 40
0.0999999999999979
  0
CIRCLE
  5
223
330
1F
100
AcDbEntity
  8
0
  6
CONTINUOUS
 62
     7
100
AcDbCircle
 10
20.5027520614
 20
15.762647998
 30
0.0
 40
0.0999999999999979
  0
CIRCLE
  5
224
330
1F
100
AcDbEntity
  8
0
  6
CONTINUOUS
 62
     7
100
AcDbCircle
 10
19.9027520614
 20
22.362647998
 30
0.0
 40
0.0999999999999979
  0
CIRCLE
  5
225
330
1F
100
AcDbEntity
  8
0
  6
CONTINUOUS
 62
     7
100
AcDbCircle
 10
18.4027520614
 20
22.362647998
 30
0.0
 40
0.0999999999999979
  0
CIRCLE
  5
226
330
1F
100
AcDbEntity
  8
0
  6
CONTINUOUS
 62
     7
100
AcDbCircle
 10
18.7027520614
 20
22.362647998
 30
0.0
 40
0.0999999999999979
  0
CIRCLE
  5
227
330
1F
100
AcDbEntity
  8
0
  6
CONTINUOUS
 62
     7
100
AcDbCircle
 10
19.0027520614
 20
22.362647998
 30
0.0
 40
0.0999999999999979
  0
CIRCLE
  5
228
330
1F
100
AcDbEntity
  8
0
  6
CONTINUOUS
 62
     7
100
AcDbCircle
 10
19.3027520614
 20
22.362647998
 30
0.0
 40
0.0999999999999979
  0
CIRCLE
  5
229
330
1F
100
AcDbEntity
  8
0
  6
CONTINUOUS
 62
     7
100
AcDbCircle
 10
19.6027520614
 20
22.362647998
 30
0.0
 40
0.0999999999999979
  0
CIRCLE
  5
22A
330
1F
100
AcDbEntity
  8
0
  6
CONTINUOUS
 62
     7
100
AcDbCircle
 10
20.8027520614
 20
22.362647998
 30
0.0
 40
0.0999999999999979
  0
CIRCLE
  5
22B
330
1F
100
AcDbEntity
  8
0
  6
CONTINUOUS
 62
     7
100
AcDbCircle
 10
20.2027520614
 20
22.362647998
 30
0.0
 40
0.0999999999999979
  0
CIRCLE
  5
22C
330
1F
100
AcDbEntity
  8
0
  6
CONTINUOUS
 62
     7
100
AcDbCircle
 10
20.5027520614
 20
22.362647998
 30
0.0
 40
0.0999999999999979
  0
CIRCLE
  5
22D
330
1F
100
AcDbEntity
  8
0
  6
CONTINUOUS
 62
     7
100
AcDbCircle
 10
21.1027520614
 20
22.362647998
 30
0.0
 40
0.0999999999999979
  0
CIRCLE
  5
22E
330
1F
100
AcDbEntity
  8
0
  6
CONTINUOUS
 62
     7
100
AcDbCircle
 10
21.4027520614
 20
22.362647998
 30
0.0
 40
0.0999999999999979
  0
CIRCLE
  5
22F
330
1F
100
AcDbEntity
  8
0
  6
CONTINUOUS
 62
     7
100
AcDbCircle
 10
23.7652520614
 20
13.700147998
 30
0.0
 40
0.8549999409999991
  0
CIRCLE
  5
230
330
1F
100
AcDbEntity
  8
0
  6
CONTINUOUS
 62
     7
100
AcDbCircle
 10
23.7652520614
 20
24.425147998
 30
0.0
 40
0.8549999409999991
  0
CIRCLE
  5
231
330
1F
100
AcDbEntity
  8
0
  6
CONTINUOUS
 62
     7
100
AcDbCircle
 10
13.0402520614
 20
13.700147998
 30
0.0
 40
0.8549999409999991
  0
LINE
  5
232
330
1F
100
AcDbEntity
  8
0
  6
HIDDEN
 62
     7
100
AcDbLine
 10
25.0152520614
 20
25.675147998
 30
0.0
 11
11.7902520614
 21
25.675147998
 31
0.0
  0
LINE
  5
233
330
1F
100
AcDbEntity
  8
0
  6
HIDDEN
 62
     7
100
AcDbLine
 10
25.0152520614
 20
12.450147998
 30
0.0
 11
25.0152520614
 21
25.675147998
 31
0.0
  0
LINE
  5
234
330
1F
100
AcDbEntity
  8
0
  6
HIDDEN
 62
     7
100
AcDbLine
 10
11.7902520614
 20
12.450147998
 30
0.0
 11
25.0152520614
 21
12.450147998
 31
0.0
  0
LINE
  5
235
330
1F
100
AcDbEntity
  8
0
  6
HIDDEN
 62
     7
100
AcDbLine
 10
11.7902520614
 20
25.675147998
 30
0.0
 11
11.7902520614
 21
12.450147998
 31
0.0
  0
CIRCLE
  5
236
330
1F
100
AcDbEntity
  8
0
  6
CONTINUOUS
 62
     7
100
AcDbCircle
 10
13.0402520614
 20
16.700147998
 30
0.0
 40
0.4250000000000007
  0
CIRCLE
  5
237
330
1F
100
AcDbEntity
  8
0
  6
CONTINUOUS
 62
     7
100
AcDbCircle
 10
23.7652520614
 20
22.425147998
 30
0.0
 40
0.4250000000000007
  0
CIRCLE
  5
238
330
1F
100
AcDbEntity
  8
0
  6
CONTINUOUS
 62
     7
100
AcDbCircle
 10
13.0402520614
 20
24.425147998
 30
0.0
 40
0.8549999409999991
  0
DIMENSION
  5
239
330
1F
100
AcDbEntity
  8
LAYOUT
100
AcDbDimension
  2
_D
 10
11.7902520614
 20
10.156117468
 30
0.0
 11
18.2785715757
 21
10.156117468
 31
0.0
 70
   160
  1
<>\PSocket Base Outline
  3
SLDDIMSTYLE0
100
AcDbAlignedDimension
 13
25.0152520614
 23
12.450147998
 33
0.0
 14
11.7902520614
 24
12.450147998
 34
0.0
100
AcDbRotatedDimension
  0
DIMENSION
  5
247
330
1F
100
AcDbEntity
  8
LAYOUT
100
AcDbDimension
  2
_D_1
 10
23.0507746639
 20
23.9555237358
 30
0.0
 11
31.9288593462
 21
26.6855955171
 31
0.0
 70
   163
  1
<> (4)\PNON-PLATED MOUTNING HOLES
  3
SLDDIMSTYLE1
100
AcDbDiametricDimension
 15
24.4797294588
 25
24.8947722601
 35
0.0
 40
0.0
  0
DIMENSION
  5
254
330
1F
100
AcDbEntity
  8
LAYOUT
100
AcDbDimension
  2
_D_2
 10
23.3972167047
 20
22.6376920552
 30
0.0
 11
31.9288593462
 21
20.4899617135
 31
0.0
 70
   163
  1
<> (2)\PNON-PLATED ALIGNMENT HOLES
  3
SLDDIMSTYLE2
100
AcDbDiametricDimension
 15
24.133287418
 25
22.2126039407
 35
0.0
 40
0.0
  0
DIMENSION
  5
261
330
1F
100
AcDbEntity
  8
LAYOUT
100
AcDbDimension
  2
_D_3
 10
23.7652520614
 20
28.9320240885
 30
0.0
 11
18.9135701267
 21
28.9320240885
 31
0.0
 70
   160
  1
{\fGDT;o}<>
  3
SLDDIMSTYLE3
100
AcDbAlignedDimension
 13
13.0402520614
 23
24.425147998
 33
0.0
 14
23.7652520614
 24
24.425147998
 34
0.0
100
AcDbRotatedDimension
  0
DIMENSION
  5
276
330
1F
100
AcDbEntity
  8
LAYOUT
100
AcDbDimension
  2
_D_4
 10
8.054059094
 20
13.700147998
 30
0.0
 11
8.054059094
 21
15.3362586733
 31
0.0
 70
   160
  1
<>
  3
SLDDIMSTYLE4
100
AcDbAlignedDimension
 13
13.0402520614
 23
16.700147998
 33
0.0
 14
13.0402520614
 24
13.700147998
 34
0.0
 50
90.0
100
AcDbRotatedDimension
  0
DIMENSION
  5
282
330
1F
100
AcDbEntity
  8
LAYOUT
100
AcDbDimension
  2
_D_5
 10
15.1027520614
 20
27.7212375318
 30
0.0
 11
16.5748456999
 21
27.7212375318
 31
0.0
 70
   160
  1
<>
  3
SLDDIMSTYLE5
100
AcDbAlignedDimension
 13
13.0402520614
 23
24.425147998
 33
0.0
 14
15.1027520614
 24
22.062647998
 34
0.0
100
AcDbRotatedDimension
  0
DIMENSION
  5
28E
330
1F
100
AcDbEntity
  8
LAYOUT
100
AcDbDimension
  2
_D_6
 10
8.7962470458
 20
22.062647998
 30
0.0
 11
8.7962470458
 21
22.8697514729
 31
0.0
 70
   160
  1
<>
  3
SLDDIMSTYLE5
100
AcDbAlignedDimension
 13
13.0402520614
 23
24.425147998
 33
0.0
 14
15.1027520614
 24
22.062647998
 34
0.0
 50
90.0
100
AcDbRotatedDimension
  0
DIMENSION
  5
299
330
1F
100
AcDbEntity
  8
LAYOUT
100
AcDbDimension
  2
_D_7
 10
26.2652520614
 20
8.7742341116
 30
0.0
 11
18.4012241185
 21
8.7742341116
 31
0.0
 70
   160
  1
<>\PBacking Plate Outline
  3
SLDDIMSTYLE4
100
AcDbAlignedDimension
 13
10.5402520614
 23
11.200147998
 33
0.0
 14
26.2652520614
 24
11.200147998
 34
0.0
100
AcDbRotatedDimension
  0
DIMENSION
  5
2A5
330
1F
100
AcDbEntity
  8
LAYOUT
100
AcDbDimension
  2
_D_8
 10
27.6938234899
 20
24.425147998
 30
0.0
 11
27.6938234899
 21
23.5077433726
 31
0.0
 70
   160
  1
<>
  3
SLDDIMSTYLE6
100
AcDbAlignedDimension
 13
23.7652520614
 23
22.425147998
 33
0.0
 14
23.7652520614
 24
24.425147998
 34
0.0
 50
90.0
100
AcDbRotatedDimension
  0
DIMENSION
  5
2B1
330
1F
100
AcDbEntity
  8
LAYOUT
100
AcDbDimension
  2
_D_9
 10
4.8259663471
 20
12.450147998
 30
0.0
 11
4.8259663471
 21
18.9349320065
 31
0.0
 70
   160
  1
<>\PSocket Base Outline
  3
SLDDIMSTYLE4
100
AcDbAlignedDimension
 13
11.7902520614
 23
25.675147998
 33
0.0
 14
11.7902520614
 24
12.450147998
 34
0.0
 50
90.0
100
AcDbRotatedDimension
  0
DIMENSION
  5
2BD
330
1F
100
AcDbEntity
  8
LAYOUT
100
AcDbDimension
  2
_D_10
 10
27.6938234899
 20
17.262647998
 30
0.0
 11
27.6938234899
 21
15.9452030345
 31
0.0
 70
   160
  1
<> typ.
  3
SLDDIMSTYLE7
100
AcDbAlignedDimension
 13
21.7027520614
 23
16.962647998
 33
0.0
 14
21.7027520614
 24
17.262647998
 34
0.0
 50
90.0
100
AcDbRotatedDimension
  0
MTEXT
  5
2CB
330
1F
100
AcDbEntity
  8
LAYOUT
100
AcDbMText
 10
5.1364775802
 20
28.8299206602
 30
0.0
 40
0.3401785714
 41
0.0
 71
     1
 72
     1
  1
Socket base A1 mark
  7
SLDTEXTSTYLE1
  0
LEADER
  5
2D5
330
1F
100
AcDbEntity
  8
LAYOUT
100
AcDbLeader
  3
SLDDIMSTYLE8
 76
     3
 10
14.3915299442
 20
24.8518715832
 30
0.0
 10
10.6724489796
 20
28.6530612245
 30
0.0
 10
9.7653061224
 20
28.6530612245
 30
0.0
1001
ACAD
1000
DSTYLE
1002
{
1070
     6
1000
DOT
1002
}
  0
INSERT
  5
2DD
330
1F
100
AcDbEntity
  8
LAYOUT
100
AcDbBlockReference
  2
SW_CENTERMARKSYMBOL_0
 10
13.0402520614
 20
13.700147998
 30
0.0
  0
LINE
  5
2DE
330
1F
100
AcDbEntity
  8
LAYOUT
  6
CENTERX2
100
AcDbLine
 10
18.4027520614
 20
26.0322908551
 30
0.0
 11
18.4027520614
 21
12.0930051408
 31
0.0
  0
LINE
  5
2DF
330
1F
100
AcDbEntity
  8
LAYOUT
  6
CENTERX2
100
AcDbLine
 10
11.4331092042
 20
19.062647998
 30
0.0
 11
25.3723949185
 21
19.062647998
 31
0.0
  0
ENDSEC
  0
SECTION
  2
OBJECTS
  0
DICTIONARY
  5
C
330
0
100
AcDbDictionary
  3
ACAD_GROUP
350
D
  3
ACAD_IMAGE_VARS
350
301
  3
ACAD_MLINESTYLE
350
17
  3
ACAD_SCALELIST
350
47
  3
APPDATA
350
2FF
  3
DWGPROPS
350
302
  0
DICTIONARY
  5
D
102
{ACAD_REACTORS
330
C
102
}
330
C
100
AcDbDictionary
  0
RASTERVARIABLES
  5
301
102
{ACAD_REACTORS
330
C
102
}
330
C
100
AcDbRasterVariables
 90
        0
 70
     1
 71
     1
 72
     1
  0
DICTIONARY
  5
17
102
{ACAD_REACTORS
330
C
102
}
330
C
100
AcDbDictionary
  3
STANDARD
350
18
  0
DICTIONARY
  5
47
102
{ACAD_REACTORS
330
C
102
}
330
C
100
AcDbDictionary
  0
DICTIONARY
  5
2FF
102
{ACAD_REACTORS
330
C
102
}
330
C
100
AcDbDictionary
  0
XRECORD
  5
302
102
{ACAD_REACTORS
330
C
102
}
330
C
100
AcDbXrecord
  1
DWGPROPS COOKIE
  2

  3

  4

  6

  7

  8
sueh
  9

300
=
301
=
302
=
303
=
304
=
305
=
306
=
307
=
308
=
309
=
 40
0.0
 41
2457277.753098461
 42
2457277.75925213
  1

 90
        0
  0
MLINESTYLE
  5
18
102
{ACAD_REACTORS
330
17
102
}
330
17
100
AcDbMlineStyle
  2
Standard
 70
     0
  3

 62
   256
 51
90.0
 52
90.0
 71
     2
 49
0.5
 62
   256
  6
BYLAYER
 49
-0.5
 62
   256
  6
BYLAYER
  0
ENDSEC
  0
EOF
