  0
SECTION
  2
HEADER
  9
$ACADVER
  1
AC1015
  9
$ACADMAINTVER
 70
               6
  9
$DWGCODEPAGE
  3
ANSI_1252
  9
$INSBASE
 10
0.0
 20
0.0
 30
0.0
  9
$EXTMIN
 10
-16.784818084060003
 20
-153.38159149035468
 30
-1.3775958446250001
  9
$EXTMAX
 10
68.680269784099991
 20
-89.191162347514933
 30
1.3775958446250001
  9
$LIMMIN
 10
0.0
 20
0.0
  9
$LIMMAX
 10
0.0
 20
0.0
  9
$ORTHOMODE
 70
               0
  9
$REGENMODE
 70
               1
  9
$FILLMODE
 70
               1
  9
$QTEXTMODE
 70
               0
  9
$MIRRTEXT
 70
               1
  9
$LTSCALE
 40
8.4666582000000012
  9
$ATTMODE
 70
               1
  9
$TEXTSIZE
 40
0.2
  9
$TRACEWID
 40
1.0
  9
$TEXTSTYLE
  7
Standard
  9
$CLAYER
  8
None
  9
$CELTYPE
  6
Continuous
  9
$CECOLOR
 62
             256
  9
$CELTSCALE
 40
1.0
  9
$DISPSILH
 70
               0
  9
$DIMSCALE
 40
1.0
  9
$DIMASZ
 40
1.0583322750000002
  9
$DIMEXO
 40
0.634999366577038
  9
$DIMDLI
 40
6.9999859934672708
  9
$DIMRND
 40
0.0
  9
$DIMDLE
 40
0.0
  9
$DIMEXE
 40
1.2699987331540761
  9
$DIMTP
 40
0.0
  9
$DIMTM
 40
0.0
  9
$DIMTXT
 40
0.7579186197916666
  9
$DIMCEN
 40
0.0
  9
$DIMTSZ
 40
0.0
  9
$DIMTOL
 70
               0
  9
$DIMLIM
 70
               0
  9
$DIMTIH
 70
               1
  9
$DIMTOH
 70
               1
  9
$DIMSE1
 70
               0
  9
$DIMSE2
 70
               0
  9
$DIMTAD
 70
               0
  9
$DIMZIN
 70
              11
  9
$DIMBLK
  1
VW_FILLEDARROW
  9
$DIMASO
 70
               1
  9
$DIMSHO
 70
               1
  9
$DIMPOST
  1
<>mm
  9
$DIMAPOST
  1
[]"
  9
$DIMALT
 70
               0
  9
$DIMALTD
 70
               3
  9
$DIMALTF
 40
0.0393700787401575
  9
$DIMLFAC
 40
1.0
  9
$DIMTOFL
 70
               1
  9
$DIMTVP
 40
0.0
  9
$DIMTIX
 70
               1
  9
$DIMSOXD
 70
               0
  9
$DIMSAH
 70
               0
  9
$DIMBLK1
  1

  9
$DIMBLK2
  1

  9
$DIMSTYLE
  2
IE Standard
  9
$DIMCLRD
 70
               0
  9
$DIMCLRE
 70
               0
  9
$DIMCLRT
 70
               0
  9
$DIMTFAC
 40
1.0
  9
$DIMGAP
 40
0.0
  9
$DIMJUST
 70
               0
  9
$DIMSD1
 70
               0
  9
$DIMSD2
 70
               0
  9
$DIMTOLJ
 70
               1
  9
$DIMTZIN
 70
              11
  9
$DIMALTZ
 70
               3
  9
$DIMALTTZ
 70
               3
  9
$DIMUPT
 70
               0
  9
$DIMDEC
 70
               2
  9
$DIMTDEC
 70
               2
  9
$DIMALTU
 70
               2
  9
$DIMALTTD
 70
               2
  9
$DIMTXSTY
  7
Helvetica
  9
$DIMAUNIT
 70
               0
  9
$DIMADEC
 70
               0
  9
$DIMALTRND
 40
0.0
  9
$DIMAZIN
 70
               0
  9
$DIMDSEP
 70
              46
  9
$DIMATFIT
 70
               0
  9
$DIMFRAC
 70
               2
  9
$DIMLDRBLK
  1

  9
$DIMLUNIT
 70
               2
  9
$DIMLWD
 70
              -2
  9
$DIMLWE
 70
              -2
  9
$DIMTMOVE
 70
               0
  9
$LUNITS
 70
               2
  9
$LUPREC
 70
               4
  9
$SKETCHINC
 40
0.1
  9
$FILLETRAD
 40
0.0
  9
$AUNITS
 70
               0
  9
$AUPREC
 70
               0
  9
$MENU
  1
acad
  9
$ELEVATION
 40
0.0
  9
$PELEVATION
 40
0.0
  9
$THICKNESS
 40
0.0
  9
$LIMCHECK
 70
               0
  9
$CHAMFERA
 40
0.0
  9
$CHAMFERB
 40
0.0
  9
$CHAMFERC
 40
0.0
  9
$CHAMFERD
 40
0.0
  9
$SKPOLY
 70
               0
  9
$TDCREATE
 40
2454641.374097222
  9
$TDUCREATE
 40
0.000000000
  9
$TDUPDATE
 40
2454641.374097222
  9
$TDUUPDATE
 40
0.000000000
  9
$TDINDWG
 40
0.0000000000
  9
$TDUSRTIMER
 40
0.0000000000
  9
$USRTIMER
 70
               1
  9
$ANGBASE
 50
0.0
  9
$ANGDIR
 70
               0
  9
$PDMODE
 70
               1
  9
$PDSIZE
 40
-2.0
  9
$PLINEWID
 40
0.0
  9
$SPLFRAME
 70
               0
  9
$SPLINETYPE
 70
               6
  9
$SPLINESEGS
 70
               8
  9
$HANDSEED
  5
3BA
  9
$SURFTAB1
 70
               6
  9
$SURFTAB2
 70
               6
  9
$SURFTYPE
 70
               6
  9
$SURFU
 70
               6
  9
$SURFV
 70
               6
  9
$UCSBASE
  2

  9
$UCSNAME
  2

  9
$UCSORG
 10
0.0
 20
0.0
 30
0.0
  9
$UCSXDIR
 10
1.0
 20
0.0
 30
0.0
  9
$UCSYDIR
 10
0.0
 20
1.0
 30
0.0
  9
$UCSORTHOREF
  2

  9
$UCSORTHOVIEW
 70
               0
  9
$UCSORGTOP
 10
0.0
 20
0.0
 30
0.0
  9
$UCSORGBOTTOM
 10
0.0
 20
0.0
 30
0.0
  9
$UCSORGLEFT
 10
0.0
 20
0.0
 30
0.0
  9
$UCSORGRIGHT
 10
0.0
 20
0.0
 30
0.0
  9
$UCSORGFRONT
 10
0.0
 20
0.0
 30
0.0
  9
$UCSORGBACK
 10
0.0
 20
0.0
 30
0.0
  9
$PUCSBASE
  2

  9
$PUCSNAME
  2

  9
$PUCSORG
 10
0.0
 20
0.0
 30
0.0
  9
$PUCSXDIR
 10
1.0
 20
0.0
 30
0.0
  9
$PUCSYDIR
 10
0.0
 20
1.0
 30
0.0
  9
$PUCSORTHOREF
  2

  9
$PUCSORTHOVIEW
 70
               0
  9
$PUCSORGTOP
 10
0.0
 20
0.0
 30
0.0
  9
$PUCSORGBOTTOM
 10
0.0
 20
0.0
 30
0.0
  9
$PUCSORGLEFT
 10
0.0
 20
0.0
 30
0.0
  9
$PUCSORGRIGHT
 10
0.0
 20
0.0
 30
0.0
  9
$PUCSORGFRONT
 10
0.0
 20
0.0
 30
0.0
  9
$PUCSORGBACK
 10
0.0
 20
0.0
 30
0.0
  9
$USERI1
 70
               0
  9
$USERI2
 70
               0
  9
$USERI3
 70
               0
  9
$USERI4
 70
               0
  9
$USERI5
 70
               0
  9
$USERR1
 40
0.0
  9
$USERR2
 40
0.0
  9
$USERR3
 40
0.0
  9
$USERR4
 40
0.0
  9
$USERR5
 40
0.0
  9
$WORLDVIEW
 70
               1
  9
$SHADEDGE
 70
               3
  9
$SHADEDIF
 70
              70
  9
$TILEMODE
 70
               1
  9
$MAXACTVP
 70
              64
  9
$PINSBASE
 10
0.0
 20
0.0
 30
0.0
  9
$PLIMCHECK
 70
               0
  9
$PEXTMIN
 10
1.0000000000000000E+20
 20
1.0000000000000000E+20
 30
1.0000000000000000E+20
  9
$PEXTMAX
 10
-1.0000000000000000E+20
 20
-1.0000000000000000E+20
 30
-1.0000000000000000E+20
  9
$PLIMMIN
 10
0.0
 20
0.0
  9
$PLIMMAX
 10
12.0
 20
9.0
  9
$UNITMODE
 70
               0
  9
$VISRETAIN
 70
               0
  9
$PLINEGEN
 70
               1
  9
$PSLTSCALE
 70
               0
  9
$TREEDEPTH
 70
            3020
  9
$CMLSTYLE
  2
Standard
  9
$CMLJUST
 70
               0
  9
$CMLSCALE
 40
1.0
  9
$PROXYGRAPHICS
 70
               0
  9
$MEASUREMENT
 70
               1
  9
$CELWEIGHT
370
               0
  9
$ENDCAPS
280
               0
  9
$JOINSTYLE
280
               0
  9
$LWDISPLAY
290
               1
  9
$INSUNITS
 70
               4
  9
$HYPERLINKBASE
  1

  9
$STYLESHEET
  1

  9
$XEDIT
290
               1
  9
$CEPSNTYPE
380
               0
  9
$PSTYLEMODE
290
               1
  9
$FINGERPRINTGUID
  2

  9
$VERSIONGUID
  2

  9
$EXTNAMES
290
               1
  9
$PSVPSCALE
 40
0.0
  0
ENDSEC
  0
SECTION
  2
CLASSES
  0
CLASS
  1
LWPOLYLINE
  2
AcDbPolyline
  3
AutoCAD 2000
 90
        0
280
               0
281
               1
  0
CLASS
  1
IMAGE
  2
AcDbRasterImage
  3
ISM
 90
      127
280
               0
281
               1
  0
CLASS
  1
OLE2FRAME
  2
AcDbOle2Frame
  3
AutoCAD 2000
 90
        0
280
               0
281
               1
  0
CLASS
  1
HATCH
  2
AcDbHatch
  3
AutoCAD 2000
 90
        0
280
               0
281
               1
  0
CLASS
  1
DICTIONARYVAR
  2
AcDbDictionaryVar
  3
AutoCAD 2000
 90
        0
280
               0
281
               0
  0
CLASS
  1
RASTERVARIABLES
  2
AcDbRasterVariables
  3
ISM
 90
        0
280
               0
281
               0
  0
CLASS
  1
IMAGEDEF
  2
AcDbRasterImageDef
  3
ISM
 90
        0
280
               0
281
               0
  0
CLASS
  1
IMAGEDEF_REACTOR
  2
AcDbRasterImageDefReactor
  3
ISM
 90
        1
280
               0
281
               0
  0
CLASS
  1
IDBUFFER
  2
AcDbIdBuffer
  3
AutoCAD 2000
 90
        0
280
               0
281
               0
  0
CLASS
  1
SPATIAL_FILTER
  2
AcDbSpatialFilter
  3
AutoCAD 2000
 90
        0
280
               0
281
               0
  0
CLASS
  1
XRECORD
  2
AcDbXrecord
  3
AutoCAD 2000
 90
        0
280
               0
281
               0
  0
CLASS
  1
SORTENTSTABLE
  2
AcDbSortentsTable
  3
AutoCAD 2000
 90
        0
280
               0
281
               0
  0
CLASS
  1
LAYER_INDEX
  2
AcDbLayerIndex
  3
AutoCAD 2000
 90
        0
280
               0
281
               0
  0
CLASS
  1
SPATIAL_INDEX
  2
AcDbSpatialIndex
  3
AutoCAD 2000
 90
        0
280
               0
281
               0
  0
CLASS
  1
OBJECT_PTR
  2
CAseDLPNTableRecord
  3
"ASE-LPNTableRecord"
 90
        1
280
               0
281
               0
  0
CLASS
  1
LAYOUT
  2
AcDbLayout
  3
AutoCAD 2000
 90
        0
280
               0
281
               0
  0
CLASS
  1
PLOTSETTINGS
  2
AcDbPlotSettings
  3
AutoCAD 2000
 90
        0
280
               0
281
               0
  0
CLASS
  1
ACDBDICTIONARYWDFLT
  2
AcDbDictionaryWithDefault
  3
AutoCAD 2000
 90
        0
280
               0
281
               0
  0
CLASS
  1
ACDBPLACEHOLDER
  2
AcDbPlaceHolder
  3
AutoCAD 2000
 90
        0
280
               0
281
               0
  0
CLASS
  1
VBA_PROJECT
  2
AcDbVbaProject
  3
acadvba
 90
        0
280
               0
281
               0
  0
CLASS
  1
WIPEOUT
  2
AcDbWipeout
  3
WipeOut|AutoCAD Express Tool|expresstools@autodesk.com
 90
      127
280
               0
281
               1
  0
CLASS
  1
WIPEOUTVARIABLES
  2
AcDbWipeoutVariables
  3
WipeOut|AutoCAD Express Tool|expresstools@autodesk.com
 90
        0
280
               0
281
               0
  0
CLASS
  1
RTEXT
  2
RText
  3
RText|AutoCAD Express Tool|expresstools@autodesk.com
 90
        0
280
               0
281
               1
  0
CLASS
  1
ARCALIGNEDTEXT
  2
AcDbArcAlignedText
  3
ATEXT|AutoCAD Express Tool|expresstools@autodesk.com
 90
        0
280
               0
281
               1
  0
ENDSEC
  0
SECTION
  2
TABLES
  0
TABLE
  2
VPORT
  5
7
100
AcDbSymbolTable
 70
               1
  0
VPORT
  5
15
100
AcDbSymbolTableRecord
100
AcDbViewportTableRecord
  2
*ACTIVE
 70
               0
 10
0.0
 20
0.0
 11
1.0
 21
1.0
 12
25.947725850019996
 22
-121.28637691893481
 13
0.0
 23
0.0
 14
1.0
 24
1.0
 15
0.0
 25
0.0
 16
0.0
 26
0.0
 36
1.0
 17
0.0
 27
0.0
 37
0.0
 40
64.190429142839747
 41
0.688564
 42
50.0
 43
0.0
 44
0.0
 50
0.0
 51
0.0
 71
               0
 72
            2000
 73
               1
 74
               1
 75
               0
 76
               0
 77
               0
 78
               0
281
               0
 65
               0
110
0.0
120
0.0
130
0.0
111
1.0
121
0.0
131
0.0
112
0.0
122
1.0
132
0.0
345
0
346
0
 79
               0
146
0.0
  0
ENDTAB
  0
TABLE
  2
LTYPE
  5
4
100
AcDbSymbolTable
 70
              20
  0
LTYPE
  5
11
100
AcDbSymbolTableRecord
100
AcDbLinetypeTableRecord
  2
ByBlock
 70
              64
  3

 72
              65
 73
               0
 40
0.0
  0
LTYPE
  5
12
100
AcDbSymbolTableRecord
100
AcDbLinetypeTableRecord
  2
ByLayer
 70
              64
  3

 72
              65
 73
               0
 40
0.0
  0
LTYPE
  5
13
100
AcDbSymbolTableRecord
100
AcDbLinetypeTableRecord
  2
Continuous
 70
              64
  3
Solid line
 72
              65
 73
               0
 40
0.0
  0
LTYPE
  5
3B
100
AcDbSymbolTableRecord
100
AcDbLinetypeTableRecord
  2
STYLE_01
 70
               0
  3

 72
              65
 73
               2
 40
1.5
 49
1.0
 74
               0
 49
-0.5
 74
               0
  0
LTYPE
  5
3C
100
AcDbSymbolTableRecord
100
AcDbLinetypeTableRecord
  2
STYLE_02
 70
               0
  3

 72
              65
 73
               2
 40
0.75
 49
0.5
 74
               0
 49
-0.25
 74
               0
  0
LTYPE
  5
3D
100
AcDbSymbolTableRecord
100
AcDbLinetypeTableRecord
  2
STYLE_03
 70
               0
  3

 72
              65
 73
               4
 40
4.0
 49
0.25
 74
               0
 49
-0.5
 74
               0
 49
0.5
 74
               0
 49
-0.5
 74
               0
  0
LTYPE
  5
3E
100
AcDbSymbolTableRecord
100
AcDbLinetypeTableRecord
  2
STYLE_04
 70
               0
  3

 72
              65
 73
               4
 40
5.0
 49
2.5
 74
               0
 49
-0.5
 74
               0
 49
0.5
 74
               0
 49
-0.5
 74
               0
  0
LTYPE
  5
3F
100
AcDbSymbolTableRecord
100
AcDbLinetypeTableRecord
  2
STYLE_05
 70
               0
  3

 72
              65
 73
               2
 40
0.5
 49
0.0001
 74
               0
 49
-0.4999
 74
               0
  0
LTYPE
  5
40
100
AcDbSymbolTableRecord
100
AcDbLinetypeTableRecord
  2
STYLE_06
 70
               0
  3

 72
              65
 73
               4
 40
2.0
 49
1.0
 74
               0
 49
-0.5
 74
               0
 49
0.0001
 74
               0
 49
-0.4999
 74
               0
  0
LTYPE
  5
41
100
AcDbSymbolTableRecord
100
AcDbLinetypeTableRecord
  2
STYLE_07
 70
               0
  3

 72
              65
 73
               6
 40
3.5
 49
1.0
 74
               0
 49
-0.5
 74
               0
 49
1.0
 74
               0
 49
-0.5
 74
               0
 49
0.0001000000000002
 74
               0
 49
-0.4998999999999998
 74
               0
  0
LTYPE
  5
42
100
AcDbSymbolTableRecord
100
AcDbLinetypeTableRecord
  2
STYLE_08
 70
               0
  3

 72
              65
 73
               6
 40
2.5
 49
1.0
 74
               0
 49
-0.5
 74
               0
 49
0.0001
 74
               0
 49
-0.4999
 74
               0
 49
0.0001000000000002
 74
               0
 49
-0.4998999999999998
 74
               0
  0
LTYPE
  5
43
100
AcDbSymbolTableRecord
100
AcDbLinetypeTableRecord
  2
STYLE_09
 70
               0
  3

 72
              65
 73
               2
 40
0.09722900390625
 49
0.0555572509765625
 74
               0
 49
-0.0416717529296875
 74
               0
  0
LTYPE
  5
44
100
AcDbSymbolTableRecord
100
AcDbLinetypeTableRecord
  2
STYLE_10
 70
               0
  3

 72
              65
 73
               4
 40
0.59722900390625
 49
0.3055572509765625
 74
               0
 49
-0.15277099609375
 74
               0
 49
0.013885498046875
 74
               0
 49
-0.1250152587890625
 74
               0
  0
LTYPE
  5
45
100
AcDbSymbolTableRecord
100
AcDbLinetypeTableRecord
  2
STYLE_11
 70
               0
  3

 72
              65
 73
               4
 40
0.4305572509765625
 49
0.236114501953125
 74
               0
 49
-0.0833282470703125
 74
               0
 49
0.013885498046875
 74
               0
 49
-0.09722900390625
 74
               0
  0
LTYPE
  5
46
100
AcDbSymbolTableRecord
100
AcDbLinetypeTableRecord
  2
STYLE_12
 70
               0
  3

 72
              65
 73
               2
 40
0.0833282470703125
 49
0.0555572509765625
 74
               0
 49
-0.02777099609375
 74
               0
  0
LTYPE
  5
47
100
AcDbSymbolTableRecord
100
AcDbLinetypeTableRecord
  2
STYLE_13
 70
               0
  3

 72
              65
 73
               4
 40
0.068511962890625
 49
0.0428314208984375
 74
               0
 49
-0.0085601806640625
 74
               0
 49
0.0085601806640625
 74
               0
 49
-0.0085601806640625
 74
               0
  0
LTYPE
  5
48
100
AcDbSymbolTableRecord
100
AcDbLinetypeTableRecord
  2
STYLE_14
 70
               0
  3

 72
              65
 73
               2
 40
0.02569580078125
 49
0.0171356201171875
 74
               0
 49
-0.0085601806640625
 74
               0
  0
LTYPE
  5
49
100
AcDbSymbolTableRecord
100
AcDbLinetypeTableRecord
  2
STYLE_15
 70
               0
  3

 72
              65
 73
               6
 40
0.08563232421875
 49
0.0428314208984375
 74
               0
 49
-0.0085601806640625
 74
               0
 49
0.0085601806640625
 74
               0
 49
-0.0085601806640625
 74
               0
 49
0.0085601806640625
 74
               0
 49
-0.0085601806640625
 74
               0
  0
LTYPE
  5
4A
100
AcDbSymbolTableRecord
100
AcDbLinetypeTableRecord
  2
STYLE_16
 70
               0
  3

 72
              65
 73
               2
 40
0.375
 49
0.25
 74
               0
 49
-0.125
 74
               0
  0
LTYPE
  5
4B
100
AcDbSymbolTableRecord
100
AcDbLinetypeTableRecord
  2
STYLE_17
 70
               0
  3

 72
              65
 73
               4
 40
0.2083282470703125
 49
0.125
 74
               0
 49
-0.041656494140625
 74
               0
 49
0.013885498046875
 74
               0
 49
-0.0277862548828125
 74
               0
  0
ENDTAB
  0
TABLE
  2
LAYER
  5
2
100
AcDbSymbolTable
 70
               5
  0
LAYER
  5
14
100
AcDbSymbolTableRecord
100
AcDbLayerTableRecord
  2
0
 70
               0
 62
               7
  6
Continuous
290
               1
370
              -3
390
1D
  0
LAYER
  5
4C
100
AcDbSymbolTableRecord
100
AcDbLayerTableRecord
  2
Defpoints
 70
               0
 62
               7
  6
Continuous
290
               0
370
              -3
390
1D
  0
LAYER
  5
4D
100
AcDbSymbolTableRecord
100
AcDbLayerTableRecord
  2
None
 70
               0
 62
               7
  6
Continuous
290
               1
370
               5
390
1D
  0
LAYER
  5
4E
100
AcDbSymbolTableRecord
100
AcDbLayerTableRecord
  2
Dimension
 70
               0
 62
               7
  6
Continuous
290
               1
370
               5
390
1D
  0
LAYER
  5
4F
100
AcDbSymbolTableRecord
100
AcDbLayerTableRecord
  2
Solid Lines
 70
               0
 62
               7
  6
Continuous
290
               1
370
              25
390
1D
  0
ENDTAB
  0
TABLE
  2
STYLE
  5
3
100
AcDbSymbolTable
 70
               5
  0
STYLE
  5
17
100
AcDbSymbolTableRecord
100
AcDbTextStyleTableRecord
  2
Standard
 70
               0
 40
0.0
 41
1.0
 50
0.0
 71
               0
 42
0.0
  3
txt
  4

  0
STYLE
  5
37
100
AcDbSymbolTableRecord
100
AcDbTextStyleTableRecord
  2
Arial
 70
               0
 40
0.0
 41
1.0
 50
0.0
 71
               0
 42
0.0
  3
Arial
  4

1001
ACAD
1000
Arial
1071
        0
  0
STYLE
  5
38
100
AcDbSymbolTableRecord
100
AcDbTextStyleTableRecord
  2
Arial (bold)
 70
               0
 40
0.0
 41
1.0
 50
0.0
 71
               0
 42
0.0
  3
Arial
  4

1001
ACAD
1000
Arial
1071
 33554432
  0
STYLE
  5
39
100
AcDbSymbolTableRecord
100
AcDbTextStyleTableRecord
  2
Helvetica
 70
               0
 40
0.0
 41
1.0
 50
0.0
 71
               0
 42
0.0
  3
Helvetica
  4

1001
ACAD
1000
Helvetica
1071
        0
  0
STYLE
  5
3A
100
AcDbSymbolTableRecord
100
AcDbTextStyleTableRecord
  2
New Century Schlbk
 70
               0
 40
0.0
 41
1.0
 50
0.0
 71
               0
 42
0.0
  3
New Century Schlbk
  4

1001
ACAD
1000
New Century Schlbk
1071
        0
  0
ENDTAB
  0
TABLE
  2
VIEW
  5
5
100
AcDbSymbolTable
 70
               0
  0
ENDTAB
  0
TABLE
  2
UCS
  5
6
100
AcDbSymbolTable
 70
               0
  0
ENDTAB
  0
TABLE
  2
APPID
  5
8
100
AcDbSymbolTable
 70
               1
  0
APPID
  5
16
100
AcDbSymbolTableRecord
100
AcDbRegAppTableRecord
  2
ACAD
 70
               0
  0
ENDTAB
  0
TABLE
  2
DIMSTYLE
  5
9
100
AcDbSymbolTable
 70
               2
100
AcDbDimStyleTable
 71
               0
  0
DIMSTYLE
105
18
100
AcDbSymbolTableRecord
100
AcDbDimStyleTableRecord
  2
Standard
 70
               0
  3

  4

 40
1.0
 41
0.18
 42
0.0625
 43
0.38
 44
0.18
 45
0.0
 46
0.0
 47
0.0
 48
0.0
 71
               0
 72
               0
 73
               1
 74
               1
 75
               0
 76
               0
 77
               0
 78
               0
 79
               0
140
0.18
141
0.09
142
0.0
143
25.399999999999999
144
1.0
145
0.0
146
1.0
147
0.09
148
0.0
170
               0
171
               2
172
               0
173
               0
174
               0
175
               0
176
               0
177
               0
178
               0
179
               0
271
               4
272
               4
273
               2
274
               2
275
               0
276
               0
277
               2
278
              46
279
               0
280
               0
281
               0
282
               0
283
               1
284
               0
285
               0
286
               0
288
               0
289
               3
340
17
341
0
342
0
343
0
344
0
371
              -2
372
              -2
  0
DIMSTYLE
105
58
100
AcDbSymbolTableRecord
100
AcDbDimStyleTableRecord
  2
IE Standard
 70
               0
  3
<>mm
  4
[]"
 40
1.0
 41
1.0583322750000002
 42
0.634999366577038
 43
6.9999859934672708
 44
1.2699987331540761
 45
0.0
 46
0.0
 47
0.0
 48
0.0
 71
               0
 72
               0
 73
               1
 74
               1
 75
               0
 76
               0
 77
               0
 78
              11
 79
               0
140
0.7579186197916666
141
0.0
142
0.0
143
0.0393700787401575
144
1.0
145
0.0
146
1.0
147
0.0
148
0.0
170
               0
171
               3
172
               1
173
               0
174
               1
175
               0
176
               0
177
               0
178
               0
179
               0
271
               2
272
               2
273
               2
274
               2
275
               0
276
               2
277
               2
278
              46
279
               0
280
               0
281
               0
282
               0
283
               1
284
              11
285
               3
286
               3
288
               0
289
               0
340
39
341
54
342
50
343
0
344
0
371
              -2
372
              -2
  0
ENDTAB
  0
TABLE
  2
BLOCK_RECORD
  5
1
100
AcDbSymbolTable
 70
              21
  0
BLOCK_RECORD
  5
A
100
AcDbSymbolTableRecord
100
AcDbBlockTableRecord
  2
*MODEL_SPACE
340
20
  0
BLOCK_RECORD
  5
B
100
AcDbSymbolTableRecord
100
AcDbBlockTableRecord
  2
*PAPER_SPACE
340
21
  0
BLOCK_RECORD
  5
50
100
AcDbSymbolTableRecord
100
AcDbBlockTableRecord
  2
VW_FILLEDARROW
340
0
  0
BLOCK_RECORD
  5
54
100
AcDbSymbolTableRecord
100
AcDbBlockTableRecord
  2
VW_FILLEDARROW-1
340
0
  0
BLOCK_RECORD
  5
24
100
AcDbSymbolTableRecord
100
AcDbBlockTableRecord
  2
IE i logo
340
0
102
{BLKREFS
331
1AB
102
}
  0
BLOCK_RECORD
  5
25
100
AcDbSymbolTableRecord
100
AcDbBlockTableRecord
  2
©2006_address
340
0
102
{BLKREFS
331
1B9
102
}
  0
BLOCK_RECORD
  5
26
100
AcDbSymbolTableRecord
100
AcDbBlockTableRecord
  2
*D4
340
0
  0
BLOCK_RECORD
  5
27
100
AcDbSymbolTableRecord
100
AcDbBlockTableRecord
  2
*D5
340
0
  0
BLOCK_RECORD
  5
28
100
AcDbSymbolTableRecord
100
AcDbBlockTableRecord
  2
*D6
340
0
  0
BLOCK_RECORD
  5
29
100
AcDbSymbolTableRecord
100
AcDbBlockTableRecord
  2
*D7
340
0
  0
BLOCK_RECORD
  5
2A
100
AcDbSymbolTableRecord
100
AcDbBlockTableRecord
  2
*D8
340
0
  0
BLOCK_RECORD
  5
2B
100
AcDbSymbolTableRecord
100
AcDbBlockTableRecord
  2
*D9
340
0
  0
BLOCK_RECORD
  5
2C
100
AcDbSymbolTableRecord
100
AcDbBlockTableRecord
  2
*D10
340
0
  0
BLOCK_RECORD
  5
2D
100
AcDbSymbolTableRecord
100
AcDbBlockTableRecord
  2
*D11
340
0
  0
BLOCK_RECORD
  5
2E
100
AcDbSymbolTableRecord
100
AcDbBlockTableRecord
  2
*D12
340
0
  0
BLOCK_RECORD
  5
2F
100
AcDbSymbolTableRecord
100
AcDbBlockTableRecord
  2
*D13
340
0
  0
BLOCK_RECORD
  5
30
100
AcDbSymbolTableRecord
100
AcDbBlockTableRecord
  2
*D14
340
0
  0
BLOCK_RECORD
  5
31
100
AcDbSymbolTableRecord
100
AcDbBlockTableRecord
  2
Group
340
0
102
{BLKREFS
331
141
102
}
  0
BLOCK_RECORD
  5
32
100
AcDbSymbolTableRecord
100
AcDbBlockTableRecord
  2
Group-1
340
0
102
{BLKREFS
331
1D2
102
}
  0
BLOCK_RECORD
  5
33
100
AcDbSymbolTableRecord
100
AcDbBlockTableRecord
  2
layout pad
340
0
102
{BLKREFS
331
1D3
331
1D4
331
1D5
331
1D6
331
1D7
331
1D8
331
1D9
331
1DA
331
1DB
331
1DC
331
1DD
331
1DE
331
1DF
331
1E0
331
1E1
331
1E2
331
1E3
331
1E4
331
1E5
331
1E6
331
1E7
331
1E8
331
1E9
331
1EA
331
1EB
331
1EC
331
1ED
331
1EE
331
1EF
331
1F0
331
1F1
331
1F2
331
1F3
331
1F4
331
1F5
331
1F6
331
1F7
331
1F8
331
1F9
331
1FA
331
1FB
331
1FC
331
1FD
331
1FE
331
1FF
331
200
331
201
331
202
331
203
331
204
331
205
331
206
331
207
331
208
331
209
331
20A
331
20B
331
20C
331
20D
331
20E
331
20F
331
210
331
211
331
212
331
213
331
214
331
215
331
216
331
217
331
218
331
219
331
21A
331
21B
331
21C
331
21D
331
21E
331
21F
331
220
331
221
331
222
331
223
331
224
331
225
331
226
331
227
331
228
331
229
331
22A
331
22B
331
22C
331
22D
331
22E
331
22F
331
230
331
231
331
232
331
233
331
234
331
235
331
236
331
237
331
238
331
239
331
23A
331
23B
331
23C
331
23D
331
23E
331
23F
331
240
331
241
331
242
331
243
331
244
331
245
331
246
331
247
331
248
331
249
331
24A
331
24B
331
24C
331
24D
331
24E
331
24F
331
250
331
251
331
252
331
253
331
254
331
255
331
256
331
257
331
258
331
259
331
25A
331
25B
331
25C
331
25D
331
25E
331
25F
331
260
331
261
331
262
331
263
331
264
331
265
331
266
331
267
331
268
331
269
331
26A
331
26B
331
26C
331
26D
331
26E
331
26F
331
270
331
271
331
272
331
273
331
274
331
275
331
276
331
277
331
278
331
279
331
27A
331
27B
331
27C
331
27D
331
27E
331
27F
331
280
331
281
331
282
331
283
331
284
331
285
331
286
331
287
331
288
331
289
331
28A
331
28B
331
28C
331
28D
331
28E
331
28F
331
290
331
291
331
292
331
293
331
294
331
295
331
296
331
297
331
298
331
299
331
29A
331
29B
331
29C
331
29D
331
29E
331
29F
331
2A0
331
2A1
331
2A2
331
2A3
331
2A4
331
2A5
331
2A6
331
2A7
331
2A8
331
2A9
331
2AA
331
2AB
331
2AC
331
2AD
331
2AE
331
2AF
331
2B0
331
2B1
331
2B2
331
2B3
331
2B4
331
2B5
331
2B6
331
2B7
331
2B8
331
2B9
331
2BA
331
2BB
331
2BC
331
2BD
331
2BE
331
2BF
331
2C0
331
2C1
331
2C2
331
2C3
331
2C4
331
2C5
331
2C6
331
2C7
331
2C8
331
2C9
331
2CA
331
2CB
331
2CC
331
2CD
331
2CE
331
2CF
331
2D0
331
2D1
331
2D2
331
2D3
331
2D4
331
2D5
331
2D6
331
2D7
331
2D8
331
2D9
331
2DA
331
2DB
331
2DC
331
2DD
331
2DE
331
2DF
331
2E0
331
2E1
331
2E2
331
2E3
331
2E4
331
2E5
331
2E6
331
2E7
331
2E8
331
2E9
331
2EA
331
2EB
331
2EC
331
2ED
331
2EE
331
2EF
331
2F0
331
2F1
331
2F2
331
2F3
331
2F4
331
2F5
331
2F6
331
2F7
331
2F8
331
2F9
331
2FA
331
2FB
331
2FC
331
2FD
331
2FE
331
2FF
331
300
331
301
331
302
331
303
331
304
331
305
331
306
331
307
331
308
331
309
331
30A
331
30B
331
30C
331
30D
331
30E
331
30F
331
310
331
311
331
312
331
313
331
314
331
315
331
316
331
317
331
318
331
319
331
31A
331
31B
331
31C
331
31D
331
31E
331
31F
331
320
331
321
331
322
331
323
331
324
331
325
331
326
331
327
331
328
331
329
331
32A
331
32B
331
32C
331
32D
331
32E
331
32F
331
330
331
331
331
332
331
333
331
334
331
335
331
336
331
337
331
338
331
339
331
33A
331
33B
331
33C
331
33D
331
33E
331
33F
331
340
331
341
331
342
331
343
331
344
331
345
331
346
331
347
331
348
331
349
331
34A
331
34B
331
34C
331
34D
331
34E
331
34F
331
350
331
351
331
352
331
353
331
354
331
355
331
356
331
357
331
358
331
359
331
35A
331
35B
331
35C
331
35D
331
35E
331
35F
331
360
331
361
331
362
331
363
331
364
331
365
331
366
331
367
331
368
331
369
331
36A
331
36B
331
36C
331
36D
331
36E
331
36F
331
370
331
371
331
372
331
373
331
374
331
375
331
376
331
377
331
378
331
379
331
37A
331
37B
331
37C
331
37D
331
37E
331
37F
331
380
331
381
331
382
331
383
331
384
331
385
331
386
331
387
331
388
331
389
331
38A
331
38B
331
38C
331
38D
331
38E
331
38F
331
390
331
391
331
392
331
393
331
394
331
395
331
396
331
397
331
398
331
399
331
39A
331
39B
331
39C
331
39D
331
39E
331
39F
331
3A0
331
3A1
331
3A2
331
3A3
331
3A4
331
3A5
331
3A6
331
3A7
331
3A8
331
3A9
331
3AA
331
3AB
331
3AC
331
3AD
331
3AE
331
3AF
331
3B0
331
3B1
331
3B2
331
3B3
331
3B4
331
3B5
331
3B6
102
}
  0
BLOCK_RECORD
  5
34
100
AcDbSymbolTableRecord
100
AcDbBlockTableRecord
  2
*D18
340
0
  0
BLOCK_RECORD
  5
35
100
AcDbSymbolTableRecord
100
AcDbBlockTableRecord
  2
Group-2
340
0
102
{BLKREFS
331
3B8
102
}
  0
BLOCK_RECORD
  5
36
100
AcDbSymbolTableRecord
100
AcDbBlockTableRecord
  2
*D20
340
0
  0
ENDTAB
  0
ENDSEC
  0
SECTION
  2
BLOCKS
  0
BLOCK
  5
D
100
AcDbEntity
  8
0
390
0
100
AcDbBlockBegin
  2
*MODEL_SPACE
 70
               0
 10
0.0
 20
0.0
 30
0.0
  3
*MODEL_SPACE
  1

  0
ENDBLK
  5
E
100
AcDbEntity
  8
0
390
0
100
AcDbBlockEnd
  0
BLOCK
  5
F
100
AcDbEntity
 67
               1
  8
0
390
0
100
AcDbBlockBegin
  2
*PAPER_SPACE
 70
               0
 10
0.0
 20
0.0
 30
0.0
  3
*PAPER_SPACE
  1

  0
ENDBLK
  5
10
100
AcDbEntity
 67
               1
  8
0
390
0
100
AcDbBlockEnd
  0
BLOCK
  5
51
100
AcDbEntity
  8
0
370
              -2
390
0
  6
ByBlock
 62
               0
100
AcDbBlockBegin
  2
VW_FILLEDARROW
 70
               0
 10
0.0
 20
0.0
 30
0.0
  3
VW_FILLEDARROW
  1

  0
SOLID
  5
52
100
AcDbEntity
  8
0
370
              -2
390
0
 62
               0
100
AcDbTrace
 10
0.0
 20
0.0
 30
0.0
 11
-0.9999379649047853
 21
-0.2679325701774575
 31
0.0
 12
-0.9999379649047852
 22
0.2679325701774578
 32
0.0
 13
-0.9999379649047852
 23
0.2679325701774578
 33
0.0
  0
ENDBLK
  5
53
100
AcDbEntity
  8
0
390
0
100
AcDbBlockEnd
  0
BLOCK
  5
55
100
AcDbEntity
  8
0
370
              -2
390
0
  6
ByBlock
 62
               0
100
AcDbBlockBegin
  2
VW_FILLEDARROW-1
 70
               0
 10
0.0
 20
0.0
 30
0.0
  3
VW_FILLEDARROW
  1

  0
SOLID
  5
56
100
AcDbEntity
  8
0
370
              -2
390
0
 62
               0
100
AcDbTrace
 10
0.0
 20
0.0
 30
0.0
 11
-0.6661085461303712
 21
-0.1784832470071022
 31
0.0
 12
-0.6661085461303712
 22
0.1784832470071024
 32
0.0
 13
-0.6661085461303712
 23
0.1784832470071024
 33
0.0
  0
ENDBLK
  5
57
100
AcDbEntity
  8
0
390
0
100
AcDbBlockEnd
  0
BLOCK
  5
59
100
AcDbEntity
  8
None
390
0
100
AcDbBlockBegin
  2
IE i logo
 70
               0
 10
0.0
 20
0.0
 30
0.0
  3
IE i logo
  1

  0
CIRCLE
  5
5A
102
{ACAD_REACTORS
330
5B
102
}
100
AcDbEntity
  8
None
370
               5
390
0
  6
Continuous
 62
               7
100
AcDbCircle
 10
0.0
 20
0.0
 30
0.0
 40
2.6707900018721049
  0
HATCH
  5
5B
100
AcDbEntity
  8
None
370
               0
390
0
  6
Continuous
 62
               7
100
AcDbHatch
 10
0.0
 20
0.0
 30
0.0
210
0.0
220
0.0
230
1.0
  2
SOLID
 70
               1
 71
               1
 91
        1
 92
        1
 93
        1
 72
               2
 10
0.0
 20
0.0
 40
2.6707900018721049
 50
0.0
 51
360.0
 73
               0
 97
        1
330
5A
 75
               0
 76
               1
 98
        1
 10
0.0
 20
0.0
  0
WIPEOUT
  5
5C
100
AcDbEntity
  8
None
370
               5
390
0
  6
Continuous
 62
               7
 92
        0
100
AcDbWipeout
 90
        0
 10
-1.01559
 20
0.73569
 30
0.0
 11
0.6889700000000001
 21
0.0
 31
0.0
 12
0.0
 22
0.6889700000000001
 32
0.0
 13
1.0
 23
1.0
340
0
 70
               7
280
               1
281
              50
282
              50
283
               0
360
0
 71
               2
 91
       97
 14
-0.384131384530531
 24
0.0667881039813055
 14
-0.3634758906411018
 24
0.0346239223043094
 14
-0.3415474367534144
 24
0.00272054661306
 14
-0.3183460228674687
 24
-0.0289220230924422
 14
-0.2938716489832648
 24
-0.0603037868121978
 14
-0.2681243151008025
 24
-0.0914247445462067
 14
-0.2411040212200821
 24
-0.1222848962944686
 14
-0.2128107673411033
 24
-0.1528842420569836
 14
-0.1832445534638663
 24
-0.1832227818337517
 14
-0.1529111164129063
 24
-0.2127940984367968
 14
-0.1223161930127582
 24
-0.2410917746781425
 14
-0.0914597832634222
 24
-0.2681158105577891
 14
-0.0603418871648982
 24
-0.2938662060757359
 14
-0.0289625047171866
 24
-0.3183429612319839
 14
0.0026783640797133
 24
-0.3415460760265321
 14
0.0345807192258009
 24
-0.3634755504593811
 14
0.0667445607210765
 24
-0.384131384530531
 14
0.0986291130237893
 24
-0.4031788394269708
 14
0.1296936005921883
 24
-0.4202831763356896
 14
0.1599380234262741
 24
-0.4354443952566872
 14
0.1893623815260462
 24
-0.4486624961899646
 14
0.2179666748915049
 24
-0.4599374791355209
 14
0.2457509035226498
 24
-0.4692693440933564
 14
0.2727150674194813
 24
-0.4766580910634712
 14
0.2988591665819992
 24
-0.4821037200458653
 14
0.3237520773763735
 24
-0.485530597304672
 14
0.3469626761687736
 24
-0.4868630891040248
 14
0.3684909629591999
 24
-0.4861011954439233
 14
0.3883369377476522
 24
-0.483244916324368
 14
0.4065006005341306
 24
-0.4782942517453585
 14
0.4229819513186351
 24
-0.4712492017068954
 14
0.4377809901011655
 24
-0.4621097662089782
 14
0.450897716881722
 24
-0.4508759452516074
 14
0.462126435113285
 24
-0.4377544559269632
 14
0.4712614482488352
 24
-0.4229520153272275
 14
0.4783027562883724
 24
-0.4064686234523998
 14
0.4832503592318967
 24
-0.3883042803024801
 14
0.4861042570794083
 24
-0.3684589858774687
 14
0.486864449830907
 24
-0.3469327401773656
 14
0.4855309374863926
 24
-0.3237255432021711
 14
0.4821037200458654
 24
-0.2988373949518843
 14
0.4766580910634716
 24
-0.2726983985151745
 14
0.4692693440933567
 24
-0.24573865698071
 14
0.4599374791355212
 24
-0.217958170348491
 14
0.4486624961899646
 24
-0.1893569386185173
 14
0.4354443952566874
 24
-0.1599349617907888
 14
0.4202831763356894
 24
-0.1296922398653057
 14
0.4031788394269706
 24
-0.0986287728420684
 14
0.384131384530531
 24
-0.0667445607210762
 14
0.363475890641102
 24
-0.0345803790440801
 14
0.3415474367534145
 24
-0.0026770033528307
 14
0.3183460228674687
 24
0.0289655663526718
 14
0.2938716489832648
 24
0.0603473300724272
 14
0.2681243151008025
 24
0.0914682878064358
 14
0.2411040212200821
 24
0.1223284395546979
 14
0.2128107673411033
 24
0.1529277853172129
 14
0.1832445534638663
 24
0.1832663250939811
 14
0.1529111164129063
 24
0.2128376416970262
 14
0.1223161930127581
 24
0.2411353179383721
 14
0.0914597832634222
 24
0.2681593538180184
 14
0.0603418871648983
 24
0.2939097493359655
 14
0.0289625047171866
 24
0.3183865044922132
 14
-0.0026783640797133
 24
0.3415896192867617
 14
-0.0345807192258009
 24
0.3635190937196106
 14
-0.0667445607210765
 24
0.3841749277907604
 14
-0.0986291130237892
 24
0.4032220425054794
 14
-0.1296936005921883
 24
0.4203253588690366
 14
-0.159938023426274
 24
0.4354848768814319
 14
-0.1893623815260462
 24
0.4487005965426653
 14
-0.2179666748915049
 24
0.4599725178527369
 14
-0.2457509035226499
 24
0.4693006408116466
 14
-0.2727150674194813
 24
0.4766849654193943
 14
-0.2988591665819992
 24
0.4821254916759801
 14
-0.3237520773763735
 24
0.4855476063906992
 14
-0.3469626761687736
 24
0.4868766963728464
 14
-0.3684909629591999
 24
0.486112761622422
 14
-0.3883369377476522
 24
0.4832558021394255
 14
-0.4065006005341306
 24
0.4783058179238573
 14
-0.4229819513186351
 24
0.4712628089757174
 14
-0.4377809901011655
 24
0.4621267752950057
 14
-0.450897716881722
 24
0.450897716881722
 14
-0.462126435113285
 24
0.437781330282886
 14
-0.4712614482488352
 24
0.4229833120455172
 14
-0.4783027562883724
 24
0.4065036621696155
 14
-0.4832503592318967
 24
0.388342380655181
 14
-0.4861042570794085
 24
0.3684994675022135
 14
-0.486864449830907
 24
0.3469749227107132
 14
-0.4855309374863926
 24
0.32376874628068
 14
-0.4821037200458657
 24
0.2988809382121138
 14
-0.4766580910634715
 24
0.2727419417754038
 14
-0.4692693440933567
 24
0.2457822002409394
 14
-0.4599374791355211
 24
0.2180017136087203
 14
-0.4486624961899646
 24
0.1894004818787466
 14
-0.4354443952566874
 24
0.1599785050510182
 14
-0.4202831763356894
 24
0.1297357831255353
 14
-0.4031788394269706
 24
0.0986723161022978
 14
-0.384131384530531
 24
0.0667881039813055
  0
SPLINE
  5
5D
100
AcDbEntity
  8
None
370
               5
390
0
  6
Continuous
 62
               7
100
AcDbSpline
210
0.0
220
0.0
230
1.0
 70
               9
 71
               2
 72
              17
 73
              14
 74
               0
 42
0.000001
 43
0.000001
 40
0.0
 40
0.0
 40
0.0
 40
1.0
 40
2.0
 40
3.0
 40
4.0
 40
5.0
 40
6.0
 40
7.0
 40
8.0
 40
9.0
 40
10.0
 40
11.0
 40
12.0
 40
12.0
 40
12.0
 10
-0.9357599999999999
 20
1.03416
 30
0.0
 10
-0.8805899999999999
 20
1.1231599999999999
 30
0.0
 10
-0.71412
 20
1.2896599999999998
 30
0.0
 10
-0.5361199999999999
 20
1.3999999999999999
 30
0.0
 10
-0.39428
 20
1.4246599999999998
 30
0.0
 10
-0.32662
 20
1.3569699999999998
 30
0.0
 10
-0.35128
 20
1.2151599999999998
 30
0.0
 10
-0.46162
 20
1.0371599999999999
 30
0.0
 10
-0.6280899999999999
 20
0.8706599999999999
 30
0.0
 10
-0.80609
 20
0.7603199999999999
 30
0.0
 10
-0.9479299999999999
 20
0.73569
 30
0.0
 10
-1.01559
 20
0.8033499999999999
 30
0.0
 10
-0.9909299999999999
 20
0.9451599999999999
 30
0.0
 10
-0.9357599999999999
 20
1.03416
 30
0.0
  0
WIPEOUT
  5
5E
100
AcDbEntity
  8
None
370
               5
390
0
  6
Continuous
 62
               7
 92
        0
100
AcDbWipeout
 90
        0
 10
-1.7197799999999999
 20
-1.8961899999999998
 30
0.0
 11
1.8520599999999998
 21
0.0
 31
0.0
 12
0.0
 22
1.8520599999999998
 32
0.0
 13
1.0
 23
1.0
340
0
 70
               7
280
               1
281
              50
282
              50
283
               0
360
0
 71
               2
 91
       36
 14
-0.4523827521786551
 24
0.3095202099284041
 14
-0.2500026996965541
 24
0.1190404198568081
 14
-0.2142911136788225
 24
0.1190404198568081
 14
-0.0714231720354632
 24
0.3690377201602539
 14
0.0
 24
0.4523827521786551
 14
0.0714231720354633
 24
0.5
 14
0.2142857142857143
 24
0.5
 14
0.3690539183395787
 24
0.4047493061779856
 14
0.4761940757858817
 24
0.3095202099284041
 14
0.5
 24
0.2380916384998327
 14
0.5
 24
0.1071347580531948
 14
0.4880997375894949
 24
0.0714231720354632
 14
0.4642884139822685
 24
0.0714231720354632
 14
0.4285768279645368
 24
0.0829562757146097
 14
0.3214258717320173
 24
0.1666522682850447
 14
0.274726520739069
 24
0.1785579300886581
 14
0.2142857142857143
 24
0.1666522682850447
 14
0.190479790071596
 24
0.1070915629083291
 14
0.1428625422502512
 24
0.0238059242141183
 14
0.1190404198568082
 24
-0.0833450320184012
 14
0.1071347580531948
 24
-0.2142911136788225
 14
0.0714231720354633
 24
-0.2857304838936103
 14
0.0238059242141184
 24
-0.3452533935185685
 14
-0.0238059242141183
 24
-0.3866289429068173
 14
-0.0714231720354632
 24
-0.3866289429068173
 14
-0.1309622798397461
 24
-0.3571536559290736
 14
-0.1785741282679827
 24
-0.2976361456972236
 14
-0.2619029621070591
 24
-0.178579527661091
 14
-0.342424111529864
 24
-0.1071563556256276
 14
-0.4727114672310832
 24
0.0238059242141183
 14
-0.5
 24
0.0714231720354632
 14
-0.5
 24
0.1547520058745397
 14
-0.5
 24
0.2380916384998327
 14
-0.5
 24
0.2857088863211775
 14
-0.4880997375894949
 24
0.3214204723389091
 14
-0.4523827521786551
 24
0.3095202099284041
  0
POLYLINE
  5
5F
100
AcDbEntity
  8
None
370
               5
390
0
  6
Continuous
 62
               7
100
AcDb2dPolyline
 66
               1
 10
0.0
 20
0.0
 30
0.0
 70
               1
 75
               5
  0
VERTEX
  5
60
100
AcDbEntity
  8
None
370
               5
390
0
  6
Continuous
 62
               7
100
AcDbVertex
100
AcDb2dVertex
 10
-1.6315899999999999
 20
-1.5434099999999999
 30
0.0
  0
VERTEX
  5
61
100
AcDbEntity
  8
None
370
               5
390
0
  6
Continuous
 62
               7
100
AcDbVertex
100
AcDb2dVertex
 10
-1.2567699999999999
 20
-1.1906299999999999
 30
0.0
  0
VERTEX
  5
62
100
AcDbEntity
  8
None
370
               5
390
0
  6
Continuous
 62
               7
100
AcDbVertex
100
AcDb2dVertex
 10
-1.1906299999999999
 20
-1.1906299999999999
 30
0.0
  0
VERTEX
  5
63
100
AcDbEntity
  8
None
370
               5
390
0
  6
Continuous
 62
               7
100
AcDbVertex
100
AcDb2dVertex
 10
-0.9260299999999999
 20
-1.6536399999999998
 30
0.0
  0
VERTEX
  5
64
100
AcDbEntity
  8
None
370
               5
390
0
  6
Continuous
 62
               7
100
AcDbVertex
100
AcDb2dVertex
 10
-0.79375
 20
-1.8079999999999998
 30
0.0
  0
VERTEX
  5
65
100
AcDbEntity
  8
None
370
               5
390
0
  6
Continuous
 62
               7
100
AcDbVertex
100
AcDb2dVertex
 10
-0.6614699999999999
 20
-1.8961899999999998
 30
0.0
  0
VERTEX
  5
66
100
AcDbEntity
  8
None
370
               5
390
0
  6
Continuous
 62
               7
100
AcDbVertex
100
AcDb2dVertex
 10
-0.39688
 20
-1.8961899999999998
 30
0.0
  0
VERTEX
  5
67
100
AcDbEntity
  8
None
370
               5
390
0
  6
Continuous
 62
               7
100
AcDbVertex
100
AcDb2dVertex
 10
-0.11024
 20
-1.7197799999999999
 30
0.0
  0
VERTEX
  5
68
100
AcDbEntity
  8
None
370
               5
390
0
  6
Continuous
 62
               7
100
AcDbVertex
100
AcDb2dVertex
 10
0.08819
 20
-1.5434099999999999
 30
0.0
  0
VERTEX
  5
69
100
AcDbEntity
  8
None
370
               5
390
0
  6
Continuous
 62
               7
100
AcDbVertex
100
AcDb2dVertex
 10
0.13228
 20
-1.4111199999999999
 30
0.0
  0
VERTEX
  5
6A
100
AcDbEntity
  8
None
370
               5
390
0
  6
Continuous
 62
               7
100
AcDbVertex
100
AcDb2dVertex
 10
0.13228
 20
-1.16858
 30
0.0
  0
VERTEX
  5
6B
100
AcDbEntity
  8
None
370
               5
390
0
  6
Continuous
 62
               7
100
AcDbVertex
100
AcDb2dVertex
 10
0.11024
 20
-1.1024399999999999
 30
0.0
  0
VERTEX
  5
6C
100
AcDbEntity
  8
None
370
               5
390
0
  6
Continuous
 62
               7
100
AcDbVertex
100
AcDb2dVertex
 10
0.06614
 20
-1.1024399999999999
 30
0.0
  0
VERTEX
  5
6D
100
AcDbEntity
  8
None
370
               5
390
0
  6
Continuous
 62
               7
100
AcDbVertex
100
AcDb2dVertex
 10
0.0
 20
-1.1237999999999999
 30
0.0
  0
VERTEX
  5
6E
100
AcDbEntity
  8
None
370
               5
390
0
  6
Continuous
 62
               7
100
AcDbVertex
100
AcDb2dVertex
 10
-0.19845
 20
-1.2788099999999998
 30
0.0
  0
VERTEX
  5
6F
100
AcDbEntity
  8
None
370
               5
390
0
  6
Continuous
 62
               7
100
AcDbVertex
100
AcDb2dVertex
 10
-0.28494
 20
-1.3008599999999999
 30
0.0
  0
VERTEX
  5
70
100
AcDbEntity
  8
None
370
               5
390
0
  6
Continuous
 62
               7
100
AcDbVertex
100
AcDb2dVertex
 10
-0.39688
 20
-1.2788099999999998
 30
0.0
  0
VERTEX
  5
71
100
AcDbEntity
  8
None
370
               5
390
0
  6
Continuous
 62
               7
100
AcDbVertex
100
AcDb2dVertex
 10
-0.44097
 20
-1.1684999999999999
 30
0.0
  0
VERTEX
  5
72
100
AcDbEntity
  8
None
370
               5
390
0
  6
Continuous
 62
               7
100
AcDbVertex
100
AcDb2dVertex
 10
-0.52916
 20
-1.0142499999999999
 30
0.0
  0
VERTEX
  5
73
100
AcDbEntity
  8
None
370
               5
390
0
  6
Continuous
 62
               7
100
AcDbVertex
100
AcDb2dVertex
 10
-0.5732799999999999
 20
-0.8158
 30
0.0
  0
VERTEX
  5
74
100
AcDbEntity
  8
None
370
               5
390
0
  6
Continuous
 62
               7
100
AcDbVertex
100
AcDb2dVertex
 10
-0.5953299999999999
 20
-0.5732799999999999
 30
0.0
  0
VERTEX
  5
75
100
AcDbEntity
  8
None
370
               5
390
0
  6
Continuous
 62
               7
100
AcDbVertex
100
AcDb2dVertex
 10
-0.6614699999999999
 20
-0.44097
 30
0.0
  0
VERTEX
  5
76
100
AcDbEntity
  8
None
370
               5
390
0
  6
Continuous
 62
               7
100
AcDbVertex
100
AcDb2dVertex
 10
-0.7496599999999999
 20
-0.33073
 30
0.0
  0
VERTEX
  5
77
100
AcDbEntity
  8
None
370
               5
390
0
  6
Continuous
 62
               7
100
AcDbVertex
100
AcDb2dVertex
 10
-0.8378399999999999
 20
-0.2541
 30
0.0
  0
VERTEX
  5
78
100
AcDbEntity
  8
None
370
               5
390
0
  6
Continuous
 62
               7
100
AcDbVertex
100
AcDb2dVertex
 10
-0.9260299999999999
 20
-0.2541
 30
0.0
  0
VERTEX
  5
79
100
AcDbEntity
  8
None
370
               5
390
0
  6
Continuous
 62
               7
100
AcDbVertex
100
AcDb2dVertex
 10
-1.0363
 20
-0.30869
 30
0.0
  0
VERTEX
  5
7A
100
AcDbEntity
  8
None
370
               5
390
0
  6
Continuous
 62
               7
100
AcDbVertex
100
AcDb2dVertex
 10
-1.1244799999999999
 20
-0.41892
 30
0.0
  0
VERTEX
  5
7B
100
AcDbEntity
  8
None
370
               5
390
0
  6
Continuous
 62
               7
100
AcDbVertex
100
AcDb2dVertex
 10
-1.2788099999999998
 20
-0.63942
 30
0.0
  0
VERTEX
  5
7C
100
AcDbEntity
  8
None
370
               5
390
0
  6
Continuous
 62
               7
100
AcDbVertex
100
AcDb2dVertex
 10
-1.4279399999999998
 20
-0.7716999999999999
 30
0.0
  0
VERTEX
  5
7D
100
AcDbEntity
  8
None
370
               5
390
0
  6
Continuous
 62
               7
100
AcDbVertex
100
AcDb2dVertex
 10
-1.6692399999999998
 20
-1.0142499999999999
 30
0.0
  0
VERTEX
  5
7E
100
AcDbEntity
  8
None
370
               5
390
0
  6
Continuous
 62
               7
100
AcDbVertex
100
AcDb2dVertex
 10
-1.7197799999999999
 20
-1.1024399999999999
 30
0.0
  0
VERTEX
  5
7F
100
AcDbEntity
  8
None
370
               5
390
0
  6
Continuous
 62
               7
100
AcDbVertex
100
AcDb2dVertex
 10
-1.7197799999999999
 20
-1.2567699999999999
 30
0.0
  0
VERTEX
  5
80
100
AcDbEntity
  8
None
370
               5
390
0
  6
Continuous
 62
               7
100
AcDbVertex
100
AcDb2dVertex
 10
-1.7197799999999999
 20
-1.4111199999999999
 30
0.0
  0
VERTEX
  5
81
100
AcDbEntity
  8
None
370
               5
390
0
  6
Continuous
 62
               7
100
AcDbVertex
100
AcDb2dVertex
 10
-1.7197799999999999
 20
-1.4993099999999999
 30
0.0
  0
VERTEX
  5
82
100
AcDbEntity
  8
None
370
               5
390
0
  6
Continuous
 62
               7
100
AcDbVertex
100
AcDb2dVertex
 10
-1.6977399999999998
 20
-1.5654499999999998
 30
0.0
  0
SEQEND
  5
83
100
AcDbEntity
  8
None
370
               5
390
0
  6
Continuous
 62
               7
  0
POLYLINE
  5
84
100
AcDbEntity
  8
None
370
               5
390
0
  6
Continuous
 62
               7
100
AcDb2dPolyline
 66
               1
 10
0.0
 20
0.0
 30
0.0
 75
               5
  0
VERTEX
  5
85
100
AcDbEntity
  8
None
370
               5
390
0
  6
Continuous
 62
               7
100
AcDbVertex
100
AcDb2dVertex
 10
-1.7197799999999999
 20
-1.1410199999999999
 30
0.0
  0
VERTEX
  5
86
100
AcDbEntity
  8
None
370
               5
390
0
  6
Continuous
 62
               7
100
AcDbVertex
100
AcDb2dVertex
 10
-1.7197799999999999
 20
-1.45522
 30
0.0
  0
VERTEX
  5
87
100
AcDbEntity
  8
None
370
               5
390
0
  6
Continuous
 62
               7
100
AcDbVertex
100
AcDb2dVertex
 10
-1.7197799999999999
 20
-1.4772599999999998
 30
0.0
  0
VERTEX
  5
88
100
AcDbEntity
  8
None
370
               5
390
0
  6
Continuous
 62
               7
100
AcDbVertex
100
AcDb2dVertex
 10
-1.71427
 20
-1.5158499999999999
 30
0.0
  0
SEQEND
  5
89
100
AcDbEntity
  8
None
370
               5
390
0
  6
Continuous
 62
               7
  0
ENDBLK
  5
8A
100
AcDbEntity
  8
None
390
0
100
AcDbBlockEnd
  0
BLOCK
  5
8B
100
AcDbEntity
  8
None
390
0
100
AcDbBlockBegin
  2
©2006_address
 70
               0
 10
0.0
 20
0.0
 30
0.0
  3
©2006_address
  1

  0
MTEXT
  5
8C
100
AcDbEntity
  8
None
390
0
 62
               7
100
AcDbMText
 10
0.0
 20
2.7477645770833359
 30
0.0
 40
0.9298981770833332
 41
36.738279999999996
 71
               2
 72
               1
  1
© 2006 IRONWOOD ELECTRONICS, INC.\P11351 Rupp Drive, Suite 400, Burnsville, MN 55337\PTele: (952) 229-8200\Pwww.ironwoodelectronics.com
  7
Arial
 73
               1
 44
0.9673603504928808
  0
ENDBLK
  5
8D
100
AcDbEntity
  8
None
390
0
100
AcDbBlockEnd
  0
BLOCK
  5
8E
100
AcDbEntity
  8
Dimension
390
0
100
AcDbBlockBegin
  2
*D4
 70
               1
 10
0.0
 20
0.0
 30
0.0
  3
*D4
  1

  0
LINE
  5
8F
100
AcDbEntity
  8
Dimension
370
              -2
390
0
  6
Continuous
 62
               0
100
AcDbLine
 10
17.052841599999994
 20
-103.15603218899247
 30
0.0
 11
17.052841599999994
 21
-96.023532822415433
 31
0.0
  0
LINE
  5
90
100
AcDbEntity
  8
Dimension
370
              -2
390
0
  6
Continuous
 62
               0
100
AcDbLine
 10
15.802841599999994
 20
-101.90603218899247
 30
0.0
 11
15.802841599999994
 21
-96.023532822415433
 31
0.0
  0
LINE
  5
91
100
AcDbEntity
  8
Dimension
370
              -2
390
0
  6
Continuous
 62
               0
100
AcDbLine
 10
15.802841599999994
 20
-97.293531555569515
 30
0.0
 11
17.052841599999994
 21
-97.293531555569515
 31
0.0
  0
LINE
  5
92
100
AcDbEntity
  8
Dimension
370
              -2
390
0
  6
Continuous
 62
               0
100
AcDbLine
 10
17.052841599999994
 20
-97.293531555569515
 30
0.0
 11
19.386167931160422
 21
-97.293531555569515
 31
0.0
  0
SOLID
  5
93
100
AcDbEntity
  8
Dimension
370
              -2
390
0
 62
               0
100
AcDbTrace
 10
17.052841599999994
 20
-97.293531555569515
 30
0.0
 11
18.111173874999992
 21
-97.009952277159471
 31
0.0
 12
18.111173874999992
 22
-97.57711083397956
 32
0.0
 13
18.111173874999992
 23
-97.57711083397956
 33
0.0
  0
LINE
  5
94
100
AcDbEntity
  8
Dimension
370
              -2
390
0
  6
Continuous
 62
               0
100
AcDbLine
 10
15.802841599999994
 20
-97.293531555569515
 30
0.0
 11
12.821741599999994
 21
-97.293531555569515
 31
0.0
  0
SOLID
  5
95
100
AcDbEntity
  8
Dimension
370
              -2
390
0
 62
               0
100
AcDbTrace
 10
15.802841599999994
 20
-97.293531555569515
 30
0.0
 11
14.744509324999994
 21
-97.57711083397956
 31
0.0
 12
14.744509324999994
 22
-97.009952277159471
 32
0.0
 13
14.744509324999994
 23
-97.009952277159471
 33
0.0
  0
WIPEOUT
  5
96
100
AcDbEntity
  8
Dimension
370
              -2
390
0
  6
Continuous
 62
               0
 92
        0
100
AcDbWipeout
 90
        0
 10
2.7252694557700288
 20
84.438909002555476
 30
0.0
 11
3.8523212091904639
 21
0.0
 31
0.0
 12
0.0
 22
3.8523212091904639
 32
0.0
 13
1.0
 23
1.0
340
0
 70
               7
280
               1
281
              50
282
              50
283
               0
360
0
 71
               2
 91
        5
 14
-0.5
 24
47.83275578500308
 14
0.5
 24
47.83275578500308
 14
0.5
 24
47.516821719822737
 14
-0.5
 24
47.516821719822737
 14
-0.5
 24
47.83275578500308
  0
MTEXT
  5
97
100
AcDbEntity
  8
Dimension
390
0
 62
               0
100
AcDbMText
 10
2.7252694557700288
 20
-96.879568877652844
 30
0.0
 40
0.7579186197916666
 41
0.0
 71
               1
 72
               1
  1
1.25mm
  7
Helvetica
 73
               1
 44
0.9673603504928808
  0
WIPEOUT
  5
98
100
AcDbEntity
  8
Dimension
370
              -2
390
0
  6
Continuous
 62
               0
 92
        0
100
AcDbWipeout
 90
        0
 10
6.5775906649604927
 20
84.438907865055469
 30
0.0
 11
4.4344027044173249
 21
0.0
 31
0.0
 12
0.0
 22
4.4344027044173249
 32
0.0
 13
1.0
 23
1.0
340
0
 70
               7
280
               1
281
              50
282
              50
283
               0
360
0
 71
               2
 91
        5
 14
-0.5
 24
41.619625607832425
 14
0.5
 24
41.619625607832425
 14
0.5
 24
41.345162600945926
 14
-0.5
 24
41.345162600945926
 14
-0.5
 24
41.619625607832425
  0
MTEXT
  5
99
100
AcDbEntity
  8
Dimension
390
0
 62
               0
100
AcDbMText
 10
6.5775906649604927
 20
-96.879570015152851
 30
0.0
 40
0.7579186197916666
 41
0.0
 71
               1
 72
               1
  1
±0.13mm
  7
Helvetica
 73
               1
 44
0.9673603504928808
  0
WIPEOUT
  5
9A
100
AcDbEntity
  8
Dimension
370
              -2
390
0
  6
Continuous
 62
               0
 92
        0
100
AcDbWipeout
 90
        0
 10
11.011993369377819
 20
84.438906386305476
 30
0.0
 11
1.8097482306221728
 21
0.0
 31
0.0
 12
0.0
 22
1.8097482306221728
 32
0.0
 13
1.0
 23
1.0
340
0
 70
               7
280
               1
281
              50
282
              50
283
               0
360
0
 71
               2
 91
        5
 14
-0.5
 24
101.25488729021332
 14
0.5
 24
101.25488729021332
 14
0.5
 24
100.58237268533284
 14
-0.5
 24
100.58237268533284
 14
-0.5
 24
101.25488729021332
  0
MTEXT
  5
9B
100
AcDbEntity
  8
Dimension
390
0
 62
               0
100
AcDbMText
 10
11.011993369377819
 20
-96.879569295921073
 30
0.0
 40
0.7579202490234376
 41
0.0
 71
               1
 72
               1
  1
(x4)
  7
Helvetica
 73
               1
 44
0.9673603504928806
  0
POINT
  5
9C
100
AcDbEntity
  8
Defpoints
370
               0
390
0
 62
               0
100
AcDbPoint
 10
15.802841599999994
 20
-102.54103155556952
 30
0.0
  0
POINT
  5
9D
100
AcDbEntity
  8
Defpoints
370
               0
390
0
 62
               0
100
AcDbPoint
 10
17.052841599999994
 20
-103.79103155556952
 30
0.0
  0
POINT
  5
9E
100
AcDbEntity
  8
Defpoints
370
               0
390
0
 62
               0
100
AcDbPoint
 10
17.052841599999994
 20
-97.293531555569515
 30
0.0
  0
ENDBLK
  5
9F
100
AcDbEntity
  8
Dimension
390
0
100
AcDbBlockEnd
  0
BLOCK
  5
A0
100
AcDbEntity
  8
Dimension
390
0
100
AcDbBlockBegin
  2
*D5
 70
               1
 10
0.0
 20
0.0
 30
0.0
  3
*D5
  1

  0
LINE
  5
A1
100
AcDbEntity
  8
Dimension
370
              -2
390
0
  6
Continuous
 62
               0
100
AcDbLine
 10
15.167842233422956
 20
-102.54103155556952
 30
0.0
 11
4.0578428668459203
 21
-102.54103155556952
 31
0.0
  0
LINE
  5
A2
100
AcDbEntity
  8
Dimension
370
              -2
390
0
  6
Continuous
 62
               0
100
AcDbLine
 10
16.417842233422956
 20
-103.79103155556952
 30
0.0
 11
4.0578428668459203
 21
-103.79103155556952
 31
0.0
  0
LINE
  5
A3
100
AcDbEntity
  8
Dimension
370
              -2
390
0
  6
Continuous
 62
               0
100
AcDbLine
 10
5.3278415999999957
 20
-103.79103155556952
 30
0.0
 11
5.3278415999999957
 21
-102.54103155556952
 31
0.0
  0
LINE
  5
A4
100
AcDbEntity
  8
Dimension
370
              -2
390
0
  6
Continuous
 62
               0
100
AcDbLine
 10
5.3278415999999957
 20
-102.54103155556952
 30
0.0
 11
5.3278415999999957
 21
-99.793531555569515
 31
0.0
  0
SOLID
  5
A5
100
AcDbEntity
  8
Dimension
370
              -2
390
0
 62
               0
100
AcDbTrace
 10
5.3278415999999957
 20
-102.54103155556952
 30
0.0
 11
5.0442623215899545
 21
-101.48269928056952
 31
0.0
 12
5.611420878410037
 22
-101.48269928056952
 32
0.0
 13
5.611420878410037
 23
-101.48269928056952
 33
0.0
  0
LINE
  5
A6
100
AcDbEntity
  8
Dimension
370
              -2
390
0
  6
Continuous
 62
               0
100
AcDbLine
 10
5.3278415999999957
 20
-103.79103155556952
 30
0.0
 11
5.3278415999999957
 21
-106.12435788672994
 31
0.0
  0
SOLID
  5
A7
100
AcDbEntity
  8
Dimension
370
              -2
390
0
 62
               0
100
AcDbTrace
 10
5.3278415999999957
 20
-103.79103155556952
 30
0.0
 11
5.611420878410037
 21
-104.84936383056952
 31
0.0
 12
5.0442623215899545
 22
-104.84936383056952
 32
0.0
 13
5.0442623215899545
 23
-104.84936383056952
 33
0.0
  0
WIPEOUT
  5
A8
100
AcDbEntity
  8
Dimension
370
              -2
390
0
  6
Continuous
 62
               0
 92
        0
100
AcDbWipeout
 90
        0
 10
0.279605527885014
 20
81.938909002555476
 30
0.0
 11
3.8523212091904639
 21
0.0
 31
0.0
 12
0.0
 22
3.8523212091904639
 32
0.0
 13
1.0
 23
1.0
340
0
 70
               7
280
               1
281
              50
282
              50
283
               0
360
0
 71
               2
 91
        5
 14
-0.5
 24
47.83275578500308
 14
0.5
 24
47.83275578500308
 14
0.5
 24
47.516821719822737
 14
-0.5
 24
47.516821719822737
 14
-0.5
 24
47.83275578500308
  0
MTEXT
  5
A9
100
AcDbEntity
  8
Dimension
390
0
 62
               0
100
AcDbMText
 10
0.279605527885014
 20
-99.379568877652844
 30
0.0
 40
0.7579186197916666
 41
0.0
 71
               1
 72
               1
  1
1.25mm
  7
Helvetica
 73
               1
 44
0.9673603504928808
  0
WIPEOUT
  5
AA
100
AcDbEntity
  8
Dimension
370
              -2
390
0
  6
Continuous
 62
               0
 92
        0
100
AcDbWipeout
 90
        0
 10
4.131926737075478
 20
81.938907865055469
 30
0.0
 11
4.4344027044173231
 21
0.0
 31
0.0
 12
0.0
 22
4.4344027044173231
 32
0.0
 13
1.0
 23
1.0
340
0
 70
               7
280
               1
281
              50
282
              50
283
               0
360
0
 71
               2
 91
        5
 14
-0.5
 24
41.619625607832447
 14
0.5
 24
41.619625607832447
 14
0.5
 24
41.34516260094594
 14
-0.5
 24
41.34516260094594
 14
-0.5
 24
41.619625607832447
  0
MTEXT
  5
AB
100
AcDbEntity
  8
Dimension
390
0
 62
               0
100
AcDbMText
 10
4.131926737075478
 20
-99.379570015152851
 30
0.0
 40
0.7579186197916666
 41
0.0
 71
               1
 72
               1
  1
±0.13mm
  7
Helvetica
 73
               1
 44
0.9673603504928808
  0
WIPEOUT
  5
AC
100
AcDbEntity
  8
Dimension
370
              -2
390
0
  6
Continuous
 62
               0
 92
        0
100
AcDbWipeout
 90
        0
 10
8.5663294414928046
 20
81.938906386305476
 30
0.0
 11
1.8097482306221728
 21
0.0
 31
0.0
 12
0.0
 22
1.8097482306221728
 32
0.0
 13
1.0
 23
1.0
340
0
 70
               7
280
               1
281
              50
282
              50
283
               0
360
0
 71
               2
 91
        5
 14
-0.5
 24
101.25488729021332
 14
0.5
 24
101.25488729021332
 14
0.5
 24
100.58237268533284
 14
-0.5
 24
100.58237268533284
 14
-0.5
 24
101.25488729021332
  0
MTEXT
  5
AD
100
AcDbEntity
  8
Dimension
390
0
 62
               0
100
AcDbMText
 10
8.5663294414928046
 20
-99.379569295921073
 30
0.0
 40
0.7579202490234376
 41
0.0
 71
               1
 72
               1
  1
(x4)
  7
Helvetica
 73
               1
 44
0.9673603504928806
  0
POINT
  5
AE
100
AcDbEntity
  8
Defpoints
370
               0
390
0
 62
               0
100
AcDbPoint
 10
17.052841599999994
 20
-103.79103155556952
 30
0.0
  0
POINT
  5
AF
100
AcDbEntity
  8
Defpoints
370
               0
390
0
 62
               0
100
AcDbPoint
 10
15.802841599999994
 20
-102.54103155556952
 30
0.0
  0
POINT
  5
B0
100
AcDbEntity
  8
Defpoints
370
               0
390
0
 62
               0
100
AcDbPoint
 10
5.3278415999999957
 20
-102.54103155556952
 30
0.0
  0
ENDBLK
  5
B1
100
AcDbEntity
  8
Dimension
390
0
100
AcDbBlockEnd
  0
BLOCK
  5
B2
100
AcDbEntity
  8
Dimension
390
0
100
AcDbBlockBegin
  2
*D6
 70
               1
 10
0.0
 20
0.0
 30
0.0
  3
*D6
  1

  0
LINE
  5
B3
100
AcDbEntity
  8
Dimension
370
              -2
390
0
  6
Continuous
 62
               0
100
AcDbLine
 10
16.417842233422956
 20
-125.51603155556943
 30
0.0
 11
9.4500028668459173
 21
-125.51603155556943
 31
0.0
  0
LINE
  5
B4
100
AcDbEntity
  8
Dimension
370
              -2
390
0
  6
Continuous
 62
               0
100
AcDbLine
 10
16.417842233422956
 20
-120.43603155556949
 30
0.0
 11
9.4500028668459173
 21
-120.43603155556949
 31
0.0
  0
LINE
  5
B5
100
AcDbEntity
  8
Dimension
370
              -2
390
0
  6
Continuous
 62
               0
100
AcDbLine
 10
10.720001599999993
 20
-120.43603155556949
 30
0.0
 11
10.720001599999993
 21
-125.51603155556943
 31
0.0
  0
LINE
  5
B6
100
AcDbEntity
  8
Dimension
370
              -2
390
0
  6
Continuous
 62
               0
100
AcDbLine
 10
10.720001599999993
 20
-125.51603155556943
 30
0.0
 11
10.720001599999993
 21
-127.84935788672985
 31
0.0
  0
SOLID
  5
B7
100
AcDbEntity
  8
Dimension
370
              -2
390
0
 62
               0
100
AcDbTrace
 10
10.720001599999993
 20
-125.51603155556943
 30
0.0
 11
11.003580878410036
 21
-126.57436383056942
 31
0.0
 12
10.436422321589951
 22
-126.57436383056942
 32
0.0
 13
10.436422321589951
 23
-126.57436383056942
 33
0.0
  0
LINE
  5
B8
100
AcDbEntity
  8
Dimension
370
              -2
390
0
  6
Continuous
 62
               0
100
AcDbLine
 10
10.720001599999993
 20
-120.43603155556949
 30
0.0
 11
10.720001599999993
 21
-118.10270522440905
 31
0.0
  0
SOLID
  5
B9
100
AcDbEntity
  8
Dimension
370
              -2
390
0
 62
               0
100
AcDbTrace
 10
10.720001599999993
 20
-120.43603155556949
 30
0.0
 11
10.436422321589951
 21
-119.37769928056949
 31
0.0
 12
11.003580878410036
 22
-119.37769928056949
 32
0.0
 13
11.003580878410036
 23
-119.37769928056949
 33
0.0
  0
WIPEOUT
  5
BA
100
AcDbEntity
  8
Dimension
370
              -2
390
0
  6
Continuous
 62
               0
 92
        0
100
AcDbWipeout
 90
        0
 10
8.7938409954047607
 20
58.665870585055536
 30
0.0
 11
3.8523212091904639
 21
0.0
 31
0.0
 12
0.0
 22
3.8523212091904639
 32
0.0
 13
1.0
 23
1.0
340
0
 70
               7
280
               1
281
              50
282
              50
283
               0
360
0
 71
               2
 91
        5
 14
-0.5
 24
47.832755785003073
 14
0.5
 24
47.832755785003073
 14
0.5
 24
47.516821719822737
 14
-0.5
 24
47.516821719822737
 14
-0.5
 24
47.832755785003073
  0
MTEXT
  5
BB
100
AcDbEntity
  8
Dimension
390
0
 62
               0
100
AcDbMText
 10
8.7938409954047607
 20
-122.65260729515279
 30
0.0
 40
0.7579186197916666
 41
0.0
 71
               1
 72
               1
  1
5.08mm
  7
Helvetica
 73
               1
 44
0.9673603504928808
  0
POINT
  5
BC
100
AcDbEntity
  8
Defpoints
370
               0
390
0
 62
               0
100
AcDbPoint
 10
17.052841599999994
 20
-120.43603155556949
 30
0.0
  0
POINT
  5
BD
100
AcDbEntity
  8
Defpoints
370
               0
390
0
 62
               0
100
AcDbPoint
 10
17.052841599999994
 20
-125.51603155556943
 30
0.0
  0
POINT
  5
BE
100
AcDbEntity
  8
Defpoints
370
               0
390
0
 62
               0
100
AcDbPoint
 10
10.720001599999993
 20
-125.51603155556943
 30
0.0
  0
ENDBLK
  5
BF
100
AcDbEntity
  8
Dimension
390
0
100
AcDbBlockEnd
  0
BLOCK
  5
C0
100
AcDbEntity
  8
Dimension
390
0
100
AcDbBlockBegin
  2
*D7
 70
               1
 10
0.0
 20
0.0
 30
0.0
  3
*D7
  1

  0
LINE
  5
C1
100
AcDbEntity
  8
Dimension
370
              -2
390
0
  6
Continuous
 62
               0
100
AcDbLine
 10
15.802841599999994
 20
-127.40103092214645
 30
0.0
 11
15.802841599999994
 21
-133.37082028872348
 31
0.0
  0
LINE
  5
C2
100
AcDbEntity
  8
Dimension
370
              -2
390
0
  6
Continuous
 62
               0
100
AcDbLine
 10
40.027841599999988
 20
-127.40103092214645
 30
0.0
 11
40.027841599999988
 21
-133.37082028872348
 31
0.0
  0
LINE
  5
C3
100
AcDbEntity
  8
Dimension
370
              -2
390
0
  6
Continuous
 62
               0
100
AcDbLine
 10
15.802841599999994
 20
-132.10082155556941
 30
0.0
 11
40.027841599999988
 21
-132.10082155556941
 31
0.0
  0
SOLID
  5
C4
100
AcDbEntity
  8
Dimension
370
              -2
390
0
 62
               0
100
AcDbTrace
 10
15.802841599999994
 20
-132.10082155556941
 30
0.0
 11
16.861173874999992
 21
-131.81724227715935
 31
0.0
 12
16.861173874999992
 22
-132.38440083397944
 32
0.0
 13
16.861173874999992
 23
-132.38440083397944
 33
0.0
  0
SOLID
  5
C5
100
AcDbEntity
  8
Dimension
370
              -2
390
0
 62
               0
100
AcDbTrace
 10
40.027841599999988
 20
-132.10082155556941
 30
0.0
 11
38.96950932499999
 21
-132.38440083397944
 31
0.0
 12
38.96950932499999
 22
-131.81724227715935
 32
0.0
 13
38.96950932499999
 23
-131.81724227715935
 33
0.0
  0
WIPEOUT
  5
C6
100
AcDbEntity
  8
Dimension
370
              -2
390
0
  6
Continuous
 62
               0
 92
        0
100
AcDbWipeout
 90
        0
 10
25.218055892212192
 20
49.631617694430588
 30
0.0
 11
7.1437276045404445
 21
0.0
 31
0.0
 12
0.0
 22
7.1437276045404445
 32
0.0
 13
1.0
 23
1.0
340
0
 70
               7
280
               1
281
              50
282
              50
283
               0
360
0
 71
               2
 91
        5
 14
-0.5
 24
26.02462651068986
 14
0.5
 24
26.02462651068986
 14
0.5
 24
25.85425614281267
 14
-0.5
 24
25.85425614281267
 14
-0.5
 24
26.02462651068986
  0
MTEXT
  5
C7
100
AcDbEntity
  8
Dimension
390
0
 62
               0
100
AcDbMText
 10
25.218055892212192
 20
-131.68686018577773
 30
0.0
 40
0.7579186197916666
 41
0.0
 71
               1
 72
               1
  1
24.225mm (x4)
  7
Helvetica
 73
               1
 44
0.9673603504928808
  0
POINT
  5
C8
100
AcDbEntity
  8
Defpoints
370
               0
390
0
 62
               0
100
AcDbPoint
 10
40.027841599999988
 20
-126.7660315555694
 30
0.0
  0
POINT
  5
C9
100
AcDbEntity
  8
Defpoints
370
               0
390
0
 62
               0
100
AcDbPoint
 10
15.802841599999994
 20
-126.7660315555694
 30
0.0
  0
POINT
  5
CA
100
AcDbEntity
  8
Defpoints
370
               0
390
0
 62
               0
100
AcDbPoint
 10
15.802841599999994
 20
-132.10082155556941
 30
0.0
  0
ENDBLK
  5
CB
100
AcDbEntity
  8
Dimension
390
0
100
AcDbBlockEnd
  0
BLOCK
  5
CC
100
AcDbEntity
  8
Dimension
390
0
100
AcDbBlockBegin
  2
*D8
 70
               1
 10
0.0
 20
0.0
 30
0.0
  3
*D8
  1

  0
LINE
  5
CD
100
AcDbEntity
  8
Dimension
370
              -2
390
0
  6
Continuous
 62
               0
100
AcDbLine
 10
17.052841599999994
 20
-126.15103092214646
 30
0.0
 11
17.052841599999994
 21
-130.4708202887235
 31
0.0
  0
LINE
  5
CE
100
AcDbEntity
  8
Dimension
370
              -2
390
0
  6
Continuous
 62
               0
100
AcDbLine
 10
38.777841599999988
 20
-126.15103092214646
 30
0.0
 11
38.777841599999988
 21
-130.4708202887235
 31
0.0
  0
LINE
  5
CF
100
AcDbEntity
  8
Dimension
370
              -2
390
0
  6
Continuous
 62
               0
100
AcDbLine
 10
17.052841599999994
 20
-129.20082155556943
 30
0.0
 11
38.777841599999988
 21
-129.20082155556943
 31
0.0
  0
SOLID
  5
D0
100
AcDbEntity
  8
Dimension
370
              -2
390
0
 62
               0
100
AcDbTrace
 10
17.052841599999994
 20
-129.20082155556943
 30
0.0
 11
18.111173874999992
 21
-128.91724227715937
 31
0.0
 12
18.111173874999992
 22
-129.48440083397946
 32
0.0
 13
18.111173874999992
 23
-129.48440083397946
 33
0.0
  0
SOLID
  5
D1
100
AcDbEntity
  8
Dimension
370
              -2
390
0
 62
               0
100
AcDbTrace
 10
38.777841599999988
 20
-129.20082155556943
 30
0.0
 11
37.71950932499999
 21
-129.48440083397946
 31
0.0
 12
37.71950932499999
 22
-128.91724227715937
 32
0.0
 13
37.71950932499999
 23
-128.91724227715937
 33
0.0
  0
WIPEOUT
  5
D2
100
AcDbEntity
  8
Dimension
370
              -2
390
0
  6
Continuous
 62
               0
 92
        0
100
AcDbWipeout
 90
        0
 10
24.585126102816812
 20
52.531617694430565
 30
0.0
 11
6.8473954108702664
 21
0.0
 31
0.0
 12
0.0
 22
6.8473954108702664
 32
0.0
 13
1.0
 23
1.0
340
0
 70
               7
280
               1
281
              50
282
              50
283
               0
360
0
 71
               2
 91
        5
 14
-0.5
 24
27.12924631320881
 14
0.5
 24
27.12924631320881
 14
0.5
 24
26.951502890057306
 14
-0.5
 24
26.951502890057306
 14
-0.5
 24
27.12924631320881
  0
MTEXT
  5
D3
100
AcDbEntity
  8
Dimension
390
0
 62
               0
100
AcDbMText
 10
24.585126102816812
 20
-128.78686018577775
 30
0.0
 40
0.7579186197916666
 41
0.0
 71
               1
 72
               1
  1
21.725mm(x4)
  7
Helvetica
 73
               1
 44
0.9673603504928808
  0
POINT
  5
D4
100
AcDbEntity
  8
Defpoints
370
               0
390
0
 62
               0
100
AcDbPoint
 10
38.777841599999988
 20
-125.51603155556943
 30
0.0
  0
POINT
  5
D5
100
AcDbEntity
  8
Defpoints
370
               0
390
0
 62
               0
100
AcDbPoint
 10
17.052841599999994
 20
-125.51603155556943
 30
0.0
  0
POINT
  5
D6
100
AcDbEntity
  8
Defpoints
370
               0
390
0
 62
               0
100
AcDbPoint
 10
17.052841599999994
 20
-129.20082155556943
 30
0.0
  0
ENDBLK
  5
D7
100
AcDbEntity
  8
Dimension
390
0
100
AcDbBlockEnd
  0
BLOCK
  5
D8
100
AcDbEntity
  8
Dimension
390
0
100
AcDbBlockBegin
  2
*D9
 70
               1
 10
0.0
 20
0.0
 30
0.0
  3
*D9
  1

  0
LINE
  5
D9
100
AcDbEntity
  8
Dimension
370
              -2
390
0
  6
Continuous
 62
               0
100
AcDbLine
 10
31.090341599999995
 20
-105.61853218899248
 30
0.0
 11
31.090341599999995
 21
-98.122282822415443
 31
0.0
  0
LINE
  5
DA
100
AcDbEntity
  8
Dimension
370
              -2
390
0
  6
Continuous
 62
               0
100
AcDbLine
 10
31.890341599999992
 20
-105.61853218899248
 30
0.0
 11
31.890341599999992
 21
-98.122282822415443
 31
0.0
  0
LINE
  5
DB
100
AcDbEntity
  8
Dimension
370
              -2
390
0
  6
Continuous
 62
               0
100
AcDbLine
 10
31.890341599999992
 20
-99.392281555569525
 30
0.0
 11
31.090341599999995
 21
-99.392281555569525
 31
0.0
  0
LINE
  5
DC
100
AcDbEntity
  8
Dimension
370
              -2
390
0
  6
Continuous
 62
               0
100
AcDbLine
 10
31.090341599999995
 20
-99.392281555569525
 30
0.0
 11
28.757015268839567
 21
-99.392281555569525
 31
0.0
  0
SOLID
  5
DD
100
AcDbEntity
  8
Dimension
370
              -2
390
0
 62
               0
100
AcDbTrace
 10
31.090341599999995
 20
-99.392281555569525
 30
0.0
 11
30.032009324999994
 21
-99.675860833979556
 31
0.0
 12
30.032009324999994
 22
-99.108702277159466
 32
0.0
 13
30.032009324999994
 23
-99.108702277159466
 33
0.0
  0
LINE
  5
DE
100
AcDbEntity
  8
Dimension
370
              -2
390
0
  6
Continuous
 62
               0
100
AcDbLine
 10
31.890341599999992
 20
-99.392281555569525
 30
0.0
 11
34.320181599999991
 21
-99.392281555569525
 31
0.0
  0
SOLID
  5
DF
100
AcDbEntity
  8
Dimension
370
              -2
390
0
 62
               0
100
AcDbTrace
 10
31.890341599999992
 20
-99.392281555569525
 30
0.0
 11
32.948673874999997
 21
-99.108702277159466
 31
0.0
 12
32.948673874999997
 22
-99.675860833979556
 32
0.0
 13
32.948673874999997
 23
-99.675860833979556
 33
0.0
  0
WIPEOUT
  5
E0
100
AcDbEntity
  8
Dimension
370
              -2
390
0
  6
Continuous
 62
               0
 92
        0
100
AcDbWipeout
 90
        0
 10
34.320181599999991
 20
82.340157694430474
 30
0.0
 11
5.2599001384281161
 21
0.0
 31
0.0
 12
0.0
 22
5.2599001384281161
 32
0.0
 13
1.0
 23
1.0
340
0
 70
               7
280
               1
281
              50
282
              50
283
               0
360
0
 71
               2
 91
        5
 14
-0.5
 24
35.166243502959603
 14
0.4999999999999998
 24
35.166243502959603
 14
0.4999999999999998
 24
34.934855174670211
 14
-0.5
 24
34.934855174670211
 14
-0.5
 24
35.166243502959603
  0
MTEXT
  5
E1
100
AcDbEntity
  8
Dimension
390
0
 62
               0
100
AcDbMText
 10
34.320181599999991
 20
-98.978320185777847
 30
0.0
 40
0.7579186197916666
 41
0.0
 71
               1
 72
               1
  1
0.8mm typ.
  7
Helvetica
 73
               1
 44
0.9673603504928808
  0
POINT
  5
E2
100
AcDbEntity
  8
Defpoints
370
               0
390
0
 62
               0
100
AcDbPoint
 10
31.890341599999992
 20
-106.25353155556951
 30
0.0
  0
POINT
  5
E3
100
AcDbEntity
  8
Defpoints
370
               0
390
0
 62
               0
100
AcDbPoint
 10
31.090341599999995
 20
-106.25353155556951
 30
0.0
  0
POINT
  5
E4
100
AcDbEntity
  8
Defpoints
370
               0
390
0
 62
               0
100
AcDbPoint
 10
31.090341599999995
 20
-99.392281555569525
 30
0.0
  0
ENDBLK
  5
E5
100
AcDbEntity
  8
Dimension
390
0
100
AcDbBlockEnd
  0
BLOCK
  5
E6
100
AcDbEntity
  8
Dimension
390
0
100
AcDbBlockBegin
  2
*D10
 70
               1
 10
0.0
 20
0.0
 30
0.0
  3
*D10
  1

  0
LINE
  5
E7
100
AcDbEntity
  8
Dimension
370
              -2
390
0
  6
Continuous
 62
               0
100
AcDbLine
 10
17.052841599999994
 20
-103.19624218899247
 30
0.0
 11
17.052841599999994
 21
-98.122282822415443
 31
0.0
  0
LINE
  5
E8
100
AcDbEntity
  8
Dimension
370
              -2
390
0
  6
Continuous
 62
               0
100
AcDbLine
 10
19.890341599999992
 20
-105.61853218899248
 30
0.0
 11
19.890341599999992
 21
-98.122282822415443
 31
0.0
  0
LINE
  5
E9
100
AcDbEntity
  8
Dimension
370
              -2
390
0
  6
Continuous
 62
               0
100
AcDbLine
 10
19.890341599999992
 20
-99.392281555569525
 30
0.0
 11
17.052841599999994
 21
-99.392281555569525
 31
0.0
  0
LINE
  5
EA
100
AcDbEntity
  8
Dimension
370
              -2
390
0
  6
Continuous
 62
               0
100
AcDbLine
 10
17.052841599999994
 20
-99.392281555569525
 30
0.0
 11
14.719515268839567
 21
-99.392281555569525
 31
0.0
  0
SOLID
  5
EB
100
AcDbEntity
  8
Dimension
370
              -2
390
0
 62
               0
100
AcDbTrace
 10
17.052841599999994
 20
-99.392281555569525
 30
0.0
 11
15.994509324999994
 21
-99.675860833979556
 31
0.0
 12
15.994509324999994
 22
-99.108702277159466
 32
0.0
 13
15.994509324999994
 23
-99.108702277159466
 33
0.0
  0
LINE
  5
EC
100
AcDbEntity
  8
Dimension
370
              -2
390
0
  6
Continuous
 62
               0
100
AcDbLine
 10
19.890341599999992
 20
-99.392281555569525
 30
0.0
 11
21.870001599999995
 21
-99.392281555569525
 31
0.0
  0
SOLID
  5
ED
100
AcDbEntity
  8
Dimension
370
              -2
390
0
 62
               0
100
AcDbTrace
 10
19.890341599999992
 20
-99.392281555569525
 30
0.0
 11
20.948673874999994
 21
-99.108702277159466
 31
0.0
 12
20.948673874999994
 22
-99.675860833979556
 32
0.0
 13
20.948673874999994
 23
-99.675860833979556
 33
0.0
  0
WIPEOUT
  5
EE
100
AcDbEntity
  8
Dimension
370
              -2
390
0
  6
Continuous
 62
               0
 92
        0
100
AcDbWipeout
 90
        0
 10
21.870001599999995
 20
82.340157694430474
 30
0.0
 11
5.4503998223258021
 21
0.0
 31
0.0
 12
0.0
 22
5.4503998223258021
 32
0.0
 13
1.0
 23
1.0
340
0
 70
               7
280
               1
281
              50
282
              50
283
               0
360
0
 71
               2
 91
        5
 14
-0.5
 24
33.954606073686392
 14
0.4999999999999996
 24
33.954606073686392
 14
0.4999999999999996
 24
33.731305116018177
 14
-0.5
 24
33.731305116018177
 14
-0.5
 24
33.954606073686392
  0
MTEXT
  5
EF
100
AcDbEntity
  8
Dimension
390
0
 62
               0
100
AcDbMText
 10
21.870001599999995
 20
-98.978320185777847
 30
0.0
 40
0.7579186197916666
 41
0.0
 71
               1
 72
               1
  1
2.8375mm*
  7
Helvetica
 73
               1
 44
0.9673603504928808
  0
POINT
  5
F0
100
AcDbEntity
  8
Defpoints
370
               0
390
0
 62
               0
100
AcDbPoint
 10
19.890341599999992
 20
-106.25353155556951
 30
0.0
  0
POINT
  5
F1
100
AcDbEntity
  8
Defpoints
370
               0
390
0
 62
               0
100
AcDbPoint
 10
17.052841599999994
 20
-103.83124155556952
 30
0.0
  0
POINT
  5
F2
100
AcDbEntity
  8
Defpoints
370
               0
390
0
 62
               0
100
AcDbPoint
 10
17.052841599999994
 20
-99.392281555569525
 30
0.0
  0
ENDBLK
  5
F3
100
AcDbEntity
  8
Dimension
390
0
100
AcDbBlockEnd
  0
BLOCK
  5
F4
100
AcDbEntity
  8
Dimension
390
0
100
AcDbBlockBegin
  2
*D11
 70
               1
 10
0.0
 20
0.0
 30
0.0
  3
*D11
  1

  0
LINE
  5
F5
100
AcDbEntity
  8
Dimension
370
              -2
390
0
  6
Continuous
 62
               0
100
AcDbLine
 10
39.412840966577029
 20
-103.79103155556952
 30
0.0
 11
45.840000333154066
 21
-103.79103155556952
 31
0.0
  0
LINE
  5
F6
100
AcDbEntity
  8
Dimension
370
              -2
390
0
  6
Continuous
 62
               0
100
AcDbLine
 10
39.412840966577029
 20
-106.33103155556952
 30
0.0
 11
45.840000333154066
 21
-106.33103155556952
 31
0.0
  0
LINE
  5
F7
100
AcDbEntity
  8
Dimension
370
              -2
390
0
  6
Continuous
 62
               0
100
AcDbLine
 10
44.570001599999991
 20
-106.33103155556952
 30
0.0
 11
44.570001599999991
 21
-103.79103155556952
 31
0.0
  0
LINE
  5
F8
100
AcDbEntity
  8
Dimension
370
              -2
390
0
  6
Continuous
 62
               0
100
AcDbLine
 10
44.570001599999991
 20
-103.79103155556952
 30
0.0
 11
44.570001599999991
 21
-101.4577052244091
 31
0.0
  0
SOLID
  5
F9
100
AcDbEntity
  8
Dimension
370
              -2
390
0
 62
               0
100
AcDbTrace
 10
44.570001599999991
 20
-103.79103155556952
 30
0.0
 11
44.286422321589953
 21
-102.73269928056952
 31
0.0
 12
44.853580878410028
 22
-102.73269928056952
 32
0.0
 13
44.853580878410028
 23
-102.73269928056952
 33
0.0
  0
LINE
  5
FA
100
AcDbEntity
  8
Dimension
370
              -2
390
0
  6
Continuous
 62
               0
100
AcDbLine
 10
44.570001599999991
 20
-106.33103155556952
 30
0.0
 11
44.570001599999991
 21
-108.66435788672995
 31
0.0
  0
SOLID
  5
FB
100
AcDbEntity
  8
Dimension
370
              -2
390
0
 62
               0
100
AcDbTrace
 10
44.570001599999991
 20
-106.33103155556952
 30
0.0
 11
44.853580878410028
 21
-107.38936383056952
 31
0.0
 12
44.286422321589953
 22
-107.38936383056952
 32
0.0
 13
44.286422321589953
 23
-107.38936383056952
 33
0.0
  0
WIPEOUT
  5
FC
100
AcDbEntity
  8
Dimension
370
              -2
390
0
  6
Continuous
 62
               0
 92
        0
100
AcDbWipeout
 90
        0
 10
42.643840995404759
 20
76.831630472750788
 30
0.0
 11
3.8523212091904639
 21
0.0
 31
0.0
 12
0.0
 22
3.8523212091904639
 32
0.0
 13
1.0
 23
1.0
340
0
 70
               7
280
               1
281
              50
282
              50
283
               0
360
0
 71
               2
 91
        5
 14
-0.5
 24
47.83275578500308
 14
0.5
 24
47.83275578500308
 14
0.5
 24
47.516821719822737
 14
-0.5
 24
47.516821719822737
 14
-0.5
 24
47.83275578500308
  0
MTEXT
  5
FD
100
AcDbEntity
  8
Dimension
390
0
 62
               0
100
AcDbMText
 10
42.643840995404759
 20
-104.48684740745753
 30
0.0
 40
0.7579186197916666
 41
0.0
 71
               1
 72
               1
  1
2.54mm
  7
Helvetica
 73
               1
 44
0.9673603504928808
  0
POINT
  5
FE
100
AcDbEntity
  8
Defpoints
370
               0
390
0
 62
               0
100
AcDbPoint
 10
38.777841599999988
 20
-106.33103155556952
 30
0.0
  0
POINT
  5
FF
100
AcDbEntity
  8
Defpoints
370
               0
390
0
 62
               0
100
AcDbPoint
 10
38.777841599999988
 20
-103.79103155556952
 30
0.0
  0
POINT
  5
100
100
AcDbEntity
  8
Defpoints
370
               0
390
0
 62
               0
100
AcDbPoint
 10
44.570001599999991
 20
-103.79103155556952
 30
0.0
  0
ENDBLK
  5
101
100
AcDbEntity
  8
Dimension
390
0
100
AcDbBlockEnd
  0
BLOCK
  5
102
100
AcDbEntity
  8
Dimension
390
0
100
AcDbBlockBegin
  2
*D12
 70
               1
 10
0.0
 20
0.0
 30
0.0
  3
*D12
  1

  0
LINE
  5
103
100
AcDbEntity
  8
Dimension
370
              -2
390
0
  6
Continuous
 62
               0
100
AcDbLine
 10
39.49962159999999
 20
-125.87249155556941
 30
0.0
 11
42.250006423259109
 21
-127.23081962371552
 31
0.0
  0
SOLID
  5
104
100
AcDbEntity
  8
Dimension
370
              -2
390
0
 62
               0
100
AcDbTrace
 10
39.49962159999999
 20
-125.87249155556941
 30
0.0
 11
40.21392933927914
 21
-126.02432235260488
 31
0.0
 12
40.042314849817835
 22
-126.36113475251854
 32
0.0
 13
40.042314849817835
 23
-126.36113475251854
 33
0.0
  0
LINE
  5
105
100
AcDbEntity
  8
Dimension
370
              -2
390
0
  6
Continuous
 62
               0
100
AcDbLine
 10
42.250006423259109
 20
-127.23081962371552
 30
0.0
 11
44.250000425902442
 21
-127.23081962371552
 31
0.0
  0
WIPEOUT
  5
106
100
AcDbEntity
  8
Dimension
370
              -2
390
0
  6
Continuous
 62
               0
 92
        0
100
AcDbWipeout
 90
        0
 10
44.250000425902442
 20
54.501620934409459
 30
0.0
 11
4.9741512854511285
 21
0.0
 31
0.0
 12
0.0
 22
4.9741512854511285
 32
0.0
 13
1.0
 23
1.0
340
0
 70
               7
280
               1
281
              50
282
              50
283
               0
360
0
 71
               2
 91
        5
 14
-0.5
 24
37.157706719401212
 14
0.5
 24
37.157706719401212
 14
0.5
 24
36.913025882378854
 14
-0.5
 24
36.913025882378854
 14
-0.5
 24
37.157706719401212
  0
MTEXT
  5
107
100
AcDbEntity
  8
Dimension
390
0
 62
               0
100
AcDbMText
 10
44.250000425902442
 20
-126.81685694579886
 30
0.0
 40
0.7579186197916666
 41
0.0
 71
               1
 72
               1
  1
Ø 1.61mm
  7
Helvetica
 73
               1
 44
0.9673603504928808
  0
WIPEOUT
  5
108
100
AcDbEntity
  8
Dimension
370
              -2
390
0
  6
Continuous
 62
               0
 92
        0
100
AcDbWipeout
 90
        0
 10
49.224151711353571
 20
54.501619796909459
 30
0.0
 11
4.4344027044173231
 21
0.0
 31
0.0
 12
0.0
 22
4.4344027044173231
 32
0.0
 13
1.0
 23
1.0
340
0
 70
               7
280
               1
281
              50
282
              50
283
               0
360
0
 71
               2
 91
        5
 14
-0.5
 24
41.61962560783244
 14
0.5
 24
41.61962560783244
 14
0.5
 24
41.34516260094594
 14
-0.5
 24
41.34516260094594
 14
-0.5
 24
41.61962560783244
  0
MTEXT
  5
109
100
AcDbEntity
  8
Dimension
390
0
 62
               0
100
AcDbMText
 10
49.224151711353571
 20
-126.81685808329885
 30
0.0
 40
0.7579186197916666
 41
0.0
 71
               1
 72
               1
  1
±0.05mm
  7
Helvetica
 73
               1
 44
0.9673603504928808
  0
WIPEOUT
  5
10A
100
AcDbEntity
  8
Dimension
370
              -2
390
0
  6
Continuous
 62
               0
 92
        0
100
AcDbWipeout
 90
        0
 10
53.658554415770894
 20
54.501618318159458
 30
0.0
 11
2.1060812093068151
 21
0.0
 31
0.0
 12
0.0
 22
2.1060812093068151
 32
0.0
 13
1.0
 23
1.0
340
0
 70
               7
280
               1
281
              50
282
              50
283
               0
360
0
 71
               2
 91
        5
 14
-0.5
 24
87.07832290332945
 14
0.4999999999999967
 24
87.07832290332945
 14
0.4999999999999967
 24
86.500433451169812
 14
-0.5
 24
86.500433451169812
 14
-0.5
 24
87.07832290332945
  0
MTEXT
  5
10B
100
AcDbEntity
  8
Dimension
390
0
 62
               0
100
AcDbMText
 10
53.658554415770894
 20
-126.81685736406709
 30
0.0
 40
0.7579202490234376
 41
0.0
 71
               1
 72
               1
  1
 (x4)
  7
Helvetica
 73
               1
 44
0.9673603504928806
  0
POINT
  5
10C
100
AcDbEntity
  8
Defpoints
370
               0
390
0
 62
               0
100
AcDbPoint
 10
38.056061599999992
 20
-125.15957155556943
 30
0.0
  0
POINT
  5
10D
100
AcDbEntity
  8
Defpoints
370
               0
390
0
 62
               0
100
AcDbPoint
 10
39.49962159999999
 20
-125.87249155556941
 30
0.0
  0
ENDBLK
  5
10E
100
AcDbEntity
  8
Dimension
390
0
100
AcDbBlockEnd
  0
BLOCK
  5
10F
100
AcDbEntity
  8
Dimension
390
0
100
AcDbBlockBegin
  2
*D13
 70
               1
 10
0.0
 20
0.0
 30
0.0
  3
*D13
  1

  0
LINE
  5
110
100
AcDbEntity
  8
Dimension
370
              -2
390
0
  6
Continuous
 62
               0
100
AcDbLine
 10
39.122331599999995
 20
-106.57993155556952
 30
0.0
 11
45.45000428223031
 21
-111.15190684512189
 31
0.0
  0
SOLID
  5
111
100
AcDbEntity
  8
Dimension
370
              -2
390
0
 62
               0
100
AcDbTrace
 10
39.122331599999995
 20
-106.57993155556952
 30
0.0
 11
39.804093456172005
 21
-106.84163541261293
 31
0.0
 12
39.581902758254472
 22
-107.1474546721235
 32
0.0
 13
39.581902758254472
 23
-107.1474546721235
 33
0.0
  0
LINE
  5
112
100
AcDbEntity
  8
Dimension
370
              -2
390
0
  6
Continuous
 62
               0
100
AcDbLine
 10
45.45000428223031
 20
-111.15190684512189
 30
0.0
 11
47.449998284873644
 21
-111.15190684512189
 31
0.0
  0
WIPEOUT
  5
113
100
AcDbEntity
  8
Dimension
370
              -2
390
0
  6
Continuous
 62
               0
 92
        0
100
AcDbWipeout
 90
        0
 10
47.449998284873644
 20
70.580533713003106
 30
0.0
 11
4.9741512854511285
 21
0.0
 31
0.0
 12
0.0
 22
4.9741512854511285
 32
0.0
 13
1.0
 23
1.0
340
0
 70
               7
280
               1
281
              50
282
              50
283
               0
360
0
 71
               2
 91
        5
 14
-0.5
 24
37.157706719401212
 14
0.5
 24
37.157706719401212
 14
0.5
 24
36.913025882378854
 14
-0.5
 24
36.913025882378854
 14
-0.5
 24
37.157706719401212
  0
MTEXT
  5
114
100
AcDbEntity
  8
Dimension
390
0
 62
               0
100
AcDbMText
 10
47.449998284873644
 20
-110.73794416720521
 30
0.0
 40
0.7579186197916666
 41
0.0
 71
               1
 72
               1
  1
Ø 0.85mm
  7
Helvetica
 73
               1
 44
0.9673603504928808
  0
WIPEOUT
  5
115
100
AcDbEntity
  8
Dimension
370
              -2
390
0
  6
Continuous
 62
               0
 92
        0
100
AcDbWipeout
 90
        0
 10
52.424149570324772
 20
70.580532575503113
 30
0.0
 11
5.0270675403373737
 21
0.0
 31
0.0
 12
0.0
 22
5.0270675403373737
 32
0.0
 13
1.0
 23
1.0
340
0
 70
               7
280
               1
281
              50
282
              50
283
               0
360
0
 71
               2
 91
        5
 14
-0.5
 24
36.771837912836723
 14
0.4999999999999993
 24
36.771837912836723
 14
0.4999999999999993
 24
36.529732651621487
 14
-0.5
 24
36.529732651621487
 14
-0.5
 24
36.771837912836723
  0
MTEXT
  5
116
100
AcDbEntity
  8
Dimension
390
0
 62
               0
100
AcDbMText
 10
52.424149570324772
 20
-110.73794530470522
 30
0.0
 40
0.7579186197916666
 41
0.0
 71
               1
 72
               1
  1
±0.025mm
  7
Helvetica
 73
               1
 44
0.9673603504928808
  0
WIPEOUT
  5
117
100
AcDbEntity
  8
Dimension
370
              -2
390
0
  6
Continuous
 62
               0
 92
        0
100
AcDbWipeout
 90
        0
 10
57.451217110662142
 20
70.580531096753106
 30
0.0
 11
2.1060812093068151
 21
0.0
 31
0.0
 12
0.0
 22
2.1060812093068151
 32
0.0
 13
1.0
 23
1.0
340
0
 70
               7
280
               1
281
              50
282
              50
283
               0
360
0
 71
               2
 91
        5
 14
-0.5
 24
87.078322903329436
 14
0.5000000000000033
 24
87.078322903329436
 14
0.5000000000000033
 24
86.500433451169812
 14
-0.5
 24
86.500433451169812
 14
-0.5
 24
87.078322903329436
  0
MTEXT
  5
118
100
AcDbEntity
  8
Dimension
390
0
 62
               0
100
AcDbMText
 10
57.451217110662142
 20
-110.73794458547344
 30
0.0
 40
0.7579202490234376
 41
0.0
 71
               1
 72
               1
  1
 (x2)
  7
Helvetica
 73
               1
 44
0.9673603504928806
  0
POINT
  5
119
100
AcDbEntity
  8
Defpoints
370
               0
390
0
 62
               0
100
AcDbPoint
 10
38.433351599999995
 20
-106.08213155556952
 30
0.0
  0
POINT
  5
11A
100
AcDbEntity
  8
Defpoints
370
               0
390
0
 62
               0
100
AcDbPoint
 10
39.122331599999995
 20
-106.57993155556952
 30
0.0
  0
ENDBLK
  5
11B
100
AcDbEntity
  8
Dimension
390
0
100
AcDbBlockEnd
  0
BLOCK
  5
11C
100
AcDbEntity
  8
Dimension
390
0
100
AcDbBlockBegin
  2
*D14
 70
               1
 10
0.0
 20
0.0
 30
0.0
  3
*D14
  1

  0
LINE
  5
11D
100
AcDbEntity
  8
Dimension
370
              -2
390
0
  6
Continuous
 62
               0
100
AcDbLine
 10
16.417842233422956
 20
-103.79103155556952
 30
0.0
 11
8.4500028668459173
 21
-103.79103155556952
 31
0.0
  0
LINE
  5
11E
100
AcDbEntity
  8
Dimension
370
              -2
390
0
  6
Continuous
 62
               0
100
AcDbLine
 10
19.255342233422958
 20
-106.25353155556951
 30
0.0
 11
8.4500028668459173
 21
-106.25353155556951
 31
0.0
  0
LINE
  5
11F
100
AcDbEntity
  8
Dimension
370
              -2
390
0
  6
Continuous
 62
               0
100
AcDbLine
 10
9.7200015999999927
 20
-106.25353155556951
 30
0.0
 11
9.7200015999999927
 21
-103.79103155556952
 31
0.0
  0
LINE
  5
120
100
AcDbEntity
  8
Dimension
370
              -2
390
0
  6
Continuous
 62
               0
100
AcDbLine
 10
9.7200015999999927
 20
-103.79103155556952
 30
0.0
 11
9.7200015999999927
 21
-101.4577052244091
 31
0.0
  0
SOLID
  5
121
100
AcDbEntity
  8
Dimension
370
              -2
390
0
 62
               0
100
AcDbTrace
 10
9.7200015999999927
 20
-103.79103155556952
 30
0.0
 11
9.4364223215899514
 21
-102.73269928056952
 31
0.0
 12
10.003580878410034
 22
-102.73269928056952
 32
0.0
 13
10.003580878410034
 23
-102.73269928056952
 33
0.0
  0
LINE
  5
122
100
AcDbEntity
  8
Dimension
370
              -2
390
0
  6
Continuous
 62
               0
100
AcDbLine
 10
9.7200015999999927
 20
-106.25353155556951
 30
0.0
 11
9.7200015999999927
 21
-108.58685788672994
 31
0.0
  0
SOLID
  5
123
100
AcDbEntity
  8
Dimension
370
              -2
390
0
 62
               0
100
AcDbTrace
 10
9.7200015999999927
 20
-106.25353155556951
 30
0.0
 11
10.003580878410034
 21
-107.31186383056951
 31
0.0
 12
9.4364223215899514
 22
-107.31186383056951
 32
0.0
 13
9.4364223215899514
 23
-107.31186383056951
 33
0.0
  0
WIPEOUT
  5
124
100
AcDbEntity
  8
Dimension
370
              -2
390
0
  6
Continuous
 62
               0
 92
        0
100
AcDbWipeout
 90
        0
 10
7.2011761594847137
 20
76.908965792269825
 30
0.0
 11
5.0376508810305616
 21
0.0
 31
0.0
 12
0.0
 22
5.0376508810305616
 32
0.0
 13
1.0
 23
1.0
340
0
 70
               7
280
               1
281
              50
282
              50
283
               0
360
0
 71
               2
 91
        5
 14
-0.5
 24
36.695636280912382
 14
0.5
 24
36.695636280912382
 14
0.5
 24
36.454039646142995
 14
-0.5
 24
36.454039646142995
 14
-0.5
 24
36.695636280912382
  0
MTEXT
  5
125
100
AcDbEntity
  8
Dimension
390
0
 62
               0
100
AcDbMText
 10
7.2011761594847137
 20
-104.4095120879385
 30
0.0
 40
0.7579186197916666
 41
0.0
 71
               1
 72
               1
  1
2.4625mm
  7
Helvetica
 73
               1
 44
0.9673603504928808
  0
POINT
  5
126
100
AcDbEntity
  8
Defpoints
370
               0
390
0
 62
               0
100
AcDbPoint
 10
19.890341599999992
 20
-106.25353155556951
 30
0.0
  0
POINT
  5
127
100
AcDbEntity
  8
Defpoints
370
               0
390
0
 62
               0
100
AcDbPoint
 10
17.052841599999994
 20
-103.79103155556952
 30
0.0
  0
POINT
  5
128
100
AcDbEntity
  8
Defpoints
370
               0
390
0
 62
               0
100
AcDbPoint
 10
9.7200015999999927
 20
-103.79103155556952
 30
0.0
  0
ENDBLK
  5
129
100
AcDbEntity
  8
Dimension
390
0
100
AcDbBlockEnd
  0
BLOCK
  5
12A
100
AcDbEntity
  8
Dimension
390
0
100
AcDbBlockBegin
  2
Group
 70
               0
 10
0.0
 20
0.0
 30
0.0
  3
Group
  1

  0
LINE
  5
12B
100
AcDbEntity
  8
None
370
               9
390
0
  6
Continuous
 62
               7
100
AcDbLine
 10
0.2176
 20
40.823035844430493
 30
0.0
 11
1.8842599999999998
 21
40.823035844430493
 31
0.0
  0
LINE
  5
12C
100
AcDbEntity
  8
None
370
               9
390
0
  6
Continuous
 62
               7
100
AcDbLine
 10
1.0509299999999999
 20
39.989705844430503
 30
0.0
 11
1.0509299999999999
 21
41.656365844430496
 31
0.0
  0
LINE
  5
12D
100
AcDbEntity
  8
None
370
               9
390
0
  6
Continuous
 62
               7
100
AcDbLine
 10
-12.06157
 20
40.823035844430493
 30
0.0
 11
-0.44906
 21
40.823035844430493
 31
0.0
  0
LINE
  5
12E
100
AcDbEntity
  8
None
370
               9
390
0
  6
Continuous
 62
               7
100
AcDbLine
 10
2.5509199999999996
 20
40.823035844430493
 30
0.0
 11
14.163429999999998
 21
40.823035844430493
 31
0.0
  0
LINE
  5
12F
100
AcDbEntity
  8
None
370
               9
390
0
  6
Continuous
 62
               7
100
AcDbLine
 10
1.0509299999999999
 20
53.935535844430476
 30
0.0
 11
1.0509299999999999
 21
42.323025844430489
 31
0.0
  0
LINE
  5
130
100
AcDbEntity
  8
None
370
               9
390
0
  6
Continuous
 62
               7
100
AcDbLine
 10
1.0509299999999999
 20
39.323045844430503
 30
0.0
 11
1.0509299999999999
 21
27.710535844430584
 31
0.0
  0
ENDBLK
  5
131
100
AcDbEntity
  8
Dimension
390
0
100
AcDbBlockEnd
  0
BLOCK
  5
132
100
AcDbEntity
  8
None
390
0
100
AcDbBlockBegin
  2
Group-1
 70
               0
 10
0.0
 20
0.0
 30
0.0
  3
Group-1
  1

  0
CIRCLE
  5
133
102
{ACAD_REACTORS
330
134
102
}
100
AcDbEntity
  8
None
370
              15
390
0
  6
Continuous
 62
             180
100
AcDbCircle
 10
-8.1096499999999985
 20
51.983035844430475
 30
0.0
 40
0.2500014851955906
  0
HATCH
  5
134
100
AcDbEntity
  8
None
370
               0
390
0
  6
Continuous
 62
             180
100
AcDbHatch
 10
0.0
 20
0.0
 30
0.0
210
0.0
220
0.0
230
1.0
  2
SOLID
 70
               1
 71
               1
 91
        1
 92
        1
 93
        1
 72
               2
 10
-8.1096499999999985
 20
51.983035844430475
 40
0.2500014851955906
 50
0.0
 51
360.0
 73
               0
 97
        1
330
133
 75
               0
 76
               1
 98
        1
 10
0.0
 20
0.0
  0
POLYLINE
  5
135
100
AcDbEntity
  8
None
370
               9
390
0
  6
STYLE_12
 62
               7
100
AcDb2dPolyline
 66
               1
 10
0.0
 20
0.0
 30
0.0
 70
               1
 75
               5
  0
VERTEX
  5
136
100
AcDbEntity
  8
None
370
               9
390
0
  6
STYLE_12
 62
               7
100
AcDbVertex
100
AcDb2dVertex
 10
-11.06157
 20
52.935535844430476
 30
0.0
  0
VERTEX
  5
137
100
AcDbEntity
  8
None
370
               9
390
0
  6
STYLE_12
 62
               7
100
AcDbVertex
100
AcDb2dVertex
 10
13.163429999999998
 20
52.935535844430476
 30
0.0
  0
VERTEX
  5
138
100
AcDbEntity
  8
None
370
               9
390
0
  6
STYLE_12
 62
               7
100
AcDbVertex
100
AcDb2dVertex
 10
13.163429999999998
 20
28.710535844430591
 30
0.0
  0
VERTEX
  5
139
100
AcDbEntity
  8
None
370
               9
390
0
  6
STYLE_12
 62
               7
100
AcDbVertex
100
AcDb2dVertex
 10
-11.06157
 20
28.710535844430591
 30
0.0
  0
SEQEND
  5
13A
100
AcDbEntity
  8
None
370
               9
390
0
  6
STYLE_12
 62
               7
  0
CIRCLE
  5
13B
100
AcDbEntity
  8
None
370
               9
390
0
  6
Continuous
 62
               7
100
AcDbCircle
 10
-9.8115699999999997
 20
51.685535844430476
 30
0.0
 40
0.8049999999999997
  0
CIRCLE
  5
13C
100
AcDbEntity
  8
None
370
               9
390
0
  6
Continuous
 62
               7
100
AcDbCircle
 10
11.913429999999998
 20
29.96053584443057
 30
0.0
 40
0.8049999999999997
  0
CIRCLE
  5
13D
100
AcDbEntity
  8
None
370
               9
390
0
  6
Continuous
 62
               7
100
AcDbCircle
 10
-9.8115699999999997
 20
29.96053584443057
 30
0.0
 40
0.8049999999999997
  0
CIRCLE
  5
13E
100
AcDbEntity
  8
None
370
               9
390
0
  6
Continuous
 62
               7
100
AcDbCircle
 10
11.913429999999998
 20
51.685535844430476
 30
0.0
 40
0.8049999999999997
  0
CIRCLE
  5
13F
100
AcDbEntity
  8
None
370
               9
390
0
  6
Continuous
 62
               7
100
AcDbCircle
 10
11.913429999999998
 20
49.145535844430476
 30
0.0
 40
0.4250000000000007
  0
CIRCLE
  5
140
100
AcDbEntity
  8
None
370
               9
390
0
  6
Continuous
 62
               7
100
AcDbCircle
 10
-9.8115699999999997
 20
35.040535844430515
 30
0.0
 40
0.4250000000000007
  0
INSERT
  5
141
100
AcDbEntity
  8
Dimension
390
0
 62
               7
100
AcDbBlockReference
  2
Group
 10
0.0
 20
0.0
 30
0.0
  0
ENDBLK
  5
142
100
AcDbEntity
  8
None
390
0
100
AcDbBlockEnd
  0
BLOCK
  5
143
100
AcDbEntity
  8
None
390
0
100
AcDbBlockBegin
  2
layout pad
 70
               0
 10
0.0
 20
0.0
 30
0.0
  3
layout pad
  1

  0
CIRCLE
  5
144
102
{ACAD_REACTORS
330
145
102
}
100
AcDbEntity
  8
None
370
               9
390
0
  6
Continuous
 62
               7
100
AcDbCircle
 10
0.0
 20
0.0
 30
0.0
 40
0.21
  0
HATCH
  5
145
100
AcDbEntity
  8
None
370
               0
390
0
  6
Continuous
 62
               7
100
AcDbHatch
 10
0.0
 20
0.0
 30
0.0
210
0.0
220
0.0
230
1.0
  2
SOLID
 70
               1
 71
               1
 91
        1
 92
        1
 93
        1
 72
               2
 10
0.0
 20
0.0
 40
0.21
 50
0.0
 51
360.0
 73
               0
 97
        1
330
144
 75
               0
 76
               1
 98
        1
 10
0.0
 20
0.0
  0
ENDBLK
  5
146
100
AcDbEntity
  8
None
390
0
100
AcDbBlockEnd
  0
BLOCK
  5
147
100
AcDbEntity
  8
Dimension
390
0
100
AcDbBlockBegin
  2
*D18
 70
               1
 10
0.0
 20
0.0
 30
0.0
  3
*D18
  1

  0
LINE
  5
148
100
AcDbEntity
  8
Dimension
370
              -2
390
0
  6
Continuous
 62
               0
100
AcDbLine
 10
36.909487628212204
 20
-111.90370245583975
 30
0.0
 11
42.27018487763749
 21
-114.99870245583952
 31
0.0
  0
SOLID
  5
149
100
AcDbEntity
  8
Dimension
370
              -2
390
0
 62
               0
100
AcDbTrace
 10
36.909487628212204
 20
-111.90370245583975
 30
0.0
 11
37.614870223610154
 21
-112.0927091526316
 31
0.0
 12
37.425863526818304
 22
-112.42007835444585
 32
0.0
 13
37.425863526818304
 23
-112.42007835444585
 33
0.0
  0
LINE
  5
14A
100
AcDbEntity
  8
Dimension
370
              -2
390
0
  6
Continuous
 62
               0
100
AcDbLine
 10
42.27018487763749
 20
-114.99870245583952
 30
0.0
 11
44.270178880280824
 21
-114.99870245583952
 31
0.0
  0
WIPEOUT
  5
14B
100
AcDbEntity
  8
Dimension
370
              -2
390
0
  6
Continuous
 62
               0
 92
        0
100
AcDbWipeout
 90
        0
 10
44.270178880280824
 20
66.733735486035457
 30
0.0
 11
7.0484932385910035
 21
0.0
 31
0.0
 12
0.0
 22
7.0484932385910035
 32
0.0
 13
1.0
 23
1.0
340
0
 70
               7
280
               1
281
              50
282
              50
283
               0
360
0
 71
               2
 91
        5
 14
-0.5
 24
26.369497611442704
 14
0.4999999999999994
 24
26.369497611442704
 14
0.4999999999999994
 24
26.196824945803129
 14
-0.5
 24
26.196824945803129
 14
-0.5
 24
26.369497611442704
  0
MTEXT
  5
14C
100
AcDbEntity
  8
Dimension
390
0
 62
               0
100
AcDbMText
 10
44.270178880280824
 20
-114.58474019619109
 30
0.0
 40
0.7579202490234376
 41
0.0
 71
               1
 72
               1
  1
Ø 0.42mm pad
  7
Helvetica
 73
               1
 44
0.9673603504928806
  0
POINT
  5
14D
100
AcDbEntity
  8
Defpoints
370
               0
390
0
 62
               0
100
AcDbPoint
 10
36.545756958621965
 20
-111.69370245583931
 30
0.0
  0
POINT
  5
14E
100
AcDbEntity
  8
Defpoints
370
               0
390
0
 62
               0
100
AcDbPoint
 10
36.909487628212204
 20
-111.90370245583975
 30
0.0
  0
ENDBLK
  5
14F
100
AcDbEntity
  8
Dimension
390
0
100
AcDbBlockEnd
  0
BLOCK
  5
150
100
AcDbEntity
  8
None
390
0
100
AcDbBlockBegin
  2
Group-2
 70
               0
 10
0.0
 20
0.0
 30
0.0
  3
Group-2
  1

  0
POLYLINE
  5
151
100
AcDbEntity
  8
None
370
               9
390
0
  6
STYLE_12
 62
               7
100
AcDb2dPolyline
 66
               1
 10
0.0
 20
0.0
 30
0.0
 70
               1
 75
               5
  0
VERTEX
  5
152
100
AcDbEntity
  8
None
370
               9
390
0
  6
STYLE_12
 62
               7
100
AcDbVertex
100
AcDb2dVertex
 10
-12.311570000000003
 20
54.185535844430476
 30
0.0
  0
VERTEX
  5
153
100
AcDbEntity
  8
None
370
               9
390
0
  6
STYLE_12
 62
               7
100
AcDbVertex
100
AcDb2dVertex
 10
14.413429999999991
 20
54.185535844430476
 30
0.0
  0
VERTEX
  5
154
100
AcDbEntity
  8
None
370
               9
390
0
  6
STYLE_12
 62
               7
100
AcDbVertex
100
AcDb2dVertex
 10
14.413429999999991
 20
27.460535844430481
 30
0.0
  0
VERTEX
  5
155
100
AcDbEntity
  8
None
370
               9
390
0
  6
STYLE_12
 62
               7
100
AcDbVertex
100
AcDb2dVertex
 10
-12.311570000000003
 20
27.460535844430481
 30
0.0
  0
SEQEND
  5
156
100
AcDbEntity
  8
None
370
               9
390
0
  6
STYLE_12
 62
               7
  0
ENDBLK
  5
157
100
AcDbEntity
  8
None
390
0
100
AcDbBlockEnd
  0
BLOCK
  5
158
100
AcDbEntity
  8
Dimension
390
0
100
AcDbBlockBegin
  2
*D20
 70
               1
 10
0.0
 20
0.0
 30
0.0
  3
*D20
  1

  0
LINE
  5
159
100
AcDbEntity
  8
Dimension
370
              -2
390
0
  6
Continuous
 62
               0
100
AcDbLine
 10
14.55284159999999
 20
-128.65103092214656
 30
0.0
 11
14.55284159999999
 21
-135.46999873315409
 31
0.0
  0
LINE
  5
15A
100
AcDbEntity
  8
Dimension
370
              -2
390
0
  6
Continuous
 62
               0
100
AcDbLine
 10
41.277841599999988
 20
-128.65103092214656
 30
0.0
 11
41.277841599999988
 21
-135.46999873315409
 31
0.0
  0
LINE
  5
15B
100
AcDbEntity
  8
Dimension
370
              -2
390
0
  6
Continuous
 62
               0
100
AcDbLine
 10
14.55284159999999
 20
-134.20000000000002
 30
0.0
 11
41.277841599999988
 21
-134.20000000000002
 31
0.0
  0
SOLID
  5
15C
100
AcDbEntity
  8
Dimension
370
              -2
390
0
 62
               0
100
AcDbTrace
 10
14.55284159999999
 20
-134.20000000000002
 30
0.0
 11
15.61117387499999
 21
-133.91642072158996
 31
0.0
 12
15.61117387499999
 22
-134.48357927841005
 32
0.0
 13
15.61117387499999
 23
-134.48357927841005
 33
0.0
  0
SOLID
  5
15D
100
AcDbEntity
  8
Dimension
370
              -2
390
0
 62
               0
100
AcDbTrace
 10
41.277841599999988
 20
-134.20000000000002
 30
0.0
 11
40.219509324999983
 21
-134.48357927841005
 31
0.0
 12
40.219509324999983
 22
-133.91642072158996
 32
0.0
 13
40.219509324999983
 23
-133.91642072158996
 33
0.0
  0
WIPEOUT
  5
15E
100
AcDbEntity
  8
Dimension
370
              -2
390
0
  6
Continuous
 62
               0
 92
        0
100
AcDbWipeout
 90
        0
 10
21.269014859170422
 20
47.532437941874981
 30
0.0
 11
13.29265348165913
 21
0.0
 31
0.0
 12
0.0
 22
13.29265348165913
 32
0.0
 13
1.0
 23
1.0
340
0
 70
               7
280
               1
281
              50
282
              50
283
               0
360
0
 71
               2
 91
        5
 14
-0.5
 24
14.217425136492837
 14
0.5000000000000002
 24
14.217425136492837
 14
0.5000000000000002
 24
14.12586462768026
 14
-0.5
 24
14.12586462768026
 14
-0.5
 24
14.217425136492837
  0
MTEXT
  5
15F
100
AcDbEntity
  8
Dimension
390
0
 62
               0
100
AcDbMText
 10
21.269014859170422
 20
-133.78603774035156
 30
0.0
 40
0.7579202490234376
 41
0.0
 71
               1
 72
               1
  1
26.725mm sq. backing plate
  7
Helvetica
 73
               1
 44
0.9673603504928806
  0
POINT
  5
160
100
AcDbEntity
  8
Defpoints
370
               0
390
0
 62
               0
100
AcDbPoint
 10
41.277841599999988
 20
-128.0160315555695
 30
0.0
  0
POINT
  5
161
100
AcDbEntity
  8
Defpoints
370
               0
390
0
 62
               0
100
AcDbPoint
 10
14.55284159999999
 20
-128.0160315555695
 30
0.0
  0
POINT
  5
162
100
AcDbEntity
  8
Defpoints
370
               0
390
0
 62
               0
100
AcDbPoint
 10
14.55284159999999
 20
-134.20000000000002
 30
0.0
  0
ENDBLK
  5
163
100
AcDbEntity
  8
Dimension
390
0
100
AcDbBlockEnd
  0
ENDSEC
  0
SECTION
  2
ENTITIES
  0
WIPEOUT
  5
164
100
AcDbEntity
  8
Dimension
370
               5
390
0
  6
Continuous
 62
               7
 92
        0
100
AcDbWipeout
 90
        0
 10
16.954814842939992
 20
33.474949660745359
 30
0.0
 11
14.178685821300002
 21
0.0
 31
0.0
 12
0.0
 22
14.178685821300002
 32
0.0
 13
1.0
 23
1.0
340
0
 70
               7
280
               1
281
              50
282
              50
283
               0
360
0
 71
               2
 91
        5
 14
-0.5
 24
13.200980673439357
 14
0.4999999999999999
 24
13.200980673439357
 14
0.4999999999999999
 24
13.360217180782533
 14
-0.5
 24
13.360217180782533
 14
-0.5
 24
13.200980673439357
  0
POLYLINE
  5
165
100
AcDbEntity
  8
Dimension
370
               5
390
0
  6
Continuous
 62
               7
100
AcDb2dPolyline
 66
               1
 10
0.0
 20
0.0
 30
0.0
 70
               1
 75
               5
  0
VERTEX
  5
166
100
AcDbEntity
  8
Dimension
370
               5
390
0
  6
Continuous
 62
               7
100
AcDbVertex
100
AcDb2dVertex
 10
16.954814842939992
 20
-146.60826493035461
 30
0.0
  0
VERTEX
  5
167
100
AcDbEntity
  8
Dimension
370
               5
390
0
  6
Continuous
 62
               7
100
AcDbVertex
100
AcDb2dVertex
 10
31.133500664239993
 20
-146.60826493035461
 30
0.0
  0
VERTEX
  5
168
100
AcDbEntity
  8
Dimension
370
               5
390
0
  6
Continuous
 62
               7
100
AcDbVertex
100
AcDb2dVertex
 10
31.133500664239993
 20
-148.86602933925462
 30
0.0
  0
VERTEX
  5
169
100
AcDbEntity
  8
Dimension
370
               5
390
0
  6
Continuous
 62
               7
100
AcDbVertex
100
AcDb2dVertex
 10
16.954814842939992
 20
-148.86602933925462
 30
0.0
  0
SEQEND
  5
16A
100
AcDbEntity
  8
Dimension
370
               5
390
0
  6
Continuous
 62
               7
  0
WIPEOUT
  5
16B
100
AcDbEntity
  8
Dimension
370
               5
390
0
  6
Continuous
 62
               7
 92
        0
100
AcDbWipeout
 90
        0
 10
31.133500664239993
 20
33.474949660745359
 30
0.0
 11
9.9089567577000022
 21
0.0
 31
0.0
 12
0.0
 22
9.9089567577000022
 32
0.0
 13
1.0
 23
1.0
340
0
 70
               7
280
               1
281
              50
282
              50
283
               0
360
0
 71
               2
 91
        5
 14
-0.5
 24
18.673781457988682
 14
0.4999999999999998
 24
18.673781457988682
 14
0.4999999999999998
 24
18.90163232706686
 14
-0.5
 24
18.90163232706686
 14
-0.5
 24
18.673781457988682
  0
POLYLINE
  5
16C
100
AcDbEntity
  8
Dimension
370
               5
390
0
  6
Continuous
 62
               7
100
AcDb2dPolyline
 66
               1
 10
0.0
 20
0.0
 30
0.0
 70
               1
 75
               5
  0
VERTEX
  5
16D
100
AcDbEntity
  8
Dimension
370
               5
390
0
  6
Continuous
 62
               7
100
AcDbVertex
100
AcDb2dVertex
 10
31.133500664239993
 20
-146.60826493035461
 30
0.0
  0
VERTEX
  5
16E
100
AcDbEntity
  8
Dimension
370
               5
390
0
  6
Continuous
 62
               7
100
AcDbVertex
100
AcDb2dVertex
 10
41.042457421939993
 20
-146.60826493035461
 30
0.0
  0
VERTEX
  5
16F
100
AcDbEntity
  8
Dimension
370
               5
390
0
  6
Continuous
 62
               7
100
AcDbVertex
100
AcDb2dVertex
 10
41.042457421939993
 20
-148.86602933925462
 30
0.0
  0
VERTEX
  5
170
100
AcDbEntity
  8
Dimension
370
               5
390
0
  6
Continuous
 62
               7
100
AcDbVertex
100
AcDb2dVertex
 10
31.133500664239993
 20
-148.86602933925462
 30
0.0
  0
SEQEND
  5
171
100
AcDbEntity
  8
Dimension
370
               5
390
0
  6
Continuous
 62
               7
  0
WIPEOUT
  5
172
100
AcDbEntity
  8
Dimension
370
               5
390
0
  6
Continuous
 62
               7
 92
        0
100
AcDbWipeout
 90
        0
 10
41.042457421939993
 20
33.474949660745359
 30
0.0
 11
9.9229234103999993
 21
0.0
 31
0.0
 12
0.0
 22
9.9229234103999993
 32
0.0
 13
1.0
 23
1.0
340
0
 70
               7
280
               1
281
              50
282
              50
283
               0
360
0
 71
               2
 91
        5
 14
-0.5
 24
18.648201607840555
 14
0.4999999999999997
 24
18.648201607840555
 14
0.4999999999999997
 24
18.875731773651744
 14
-0.5
 24
18.875731773651744
 14
-0.5
 24
18.648201607840555
  0
POLYLINE
  5
173
100
AcDbEntity
  8
Dimension
370
               5
390
0
  6
Continuous
 62
               7
100
AcDb2dPolyline
 66
               1
 10
0.0
 20
0.0
 30
0.0
 70
               1
 75
               5
  0
VERTEX
  5
174
100
AcDbEntity
  8
Dimension
370
               5
390
0
  6
Continuous
 62
               7
100
AcDbVertex
100
AcDb2dVertex
 10
41.042457421939993
 20
-146.60826493035461
 30
0.0
  0
VERTEX
  5
175
100
AcDbEntity
  8
Dimension
370
               5
390
0
  6
Continuous
 62
               7
100
AcDbVertex
100
AcDb2dVertex
 10
50.965380832339989
 20
-146.60826493035461
 30
0.0
  0
VERTEX
  5
176
100
AcDbEntity
  8
Dimension
370
               5
390
0
  6
Continuous
 62
               7
100
AcDbVertex
100
AcDb2dVertex
 10
50.965380832339989
 20
-148.86602933925462
 30
0.0
  0
VERTEX
  5
177
100
AcDbEntity
  8
Dimension
370
               5
390
0
  6
Continuous
 62
               7
100
AcDbVertex
100
AcDb2dVertex
 10
41.042457421939993
 20
-148.86602933925462
 30
0.0
  0
SEQEND
  5
178
100
AcDbEntity
  8
Dimension
370
               5
390
0
  6
Continuous
 62
               7
  0
WIPEOUT
  5
179
100
AcDbEntity
  8
Dimension
370
               5
390
0
  6
Continuous
 62
               7
 92
        0
100
AcDbWipeout
 90
        0
 10
16.954814842939992
 20
31.217145251885331
 30
0.0
 11
18.164108502540003
 21
0.0
 31
0.0
 12
0.0
 22
18.164108502540003
 32
0.0
 13
1.0
 23
1.0
340
0
 70
               7
280
               1
281
              50
282
              50
283
               0
360
0
 71
               2
 91
        5
 14
-0.5
 24
10.414231384708904
 14
0.4999999999999998
 24
10.414231384708904
 14
0.4999999999999998
 24
10.538531699725429
 14
-0.5
 24
10.538531699725429
 14
-0.5
 24
10.414231384708904
  0
POLYLINE
  5
17A
100
AcDbEntity
  8
Dimension
370
               5
390
0
  6
Continuous
 62
               7
100
AcDb2dPolyline
 66
               1
 10
0.0
 20
0.0
 30
0.0
 70
               1
 75
               5
  0
VERTEX
  5
17B
100
AcDbEntity
  8
Dimension
370
               5
390
0
  6
Continuous
 62
               7
100
AcDbVertex
100
AcDb2dVertex
 10
16.954814842939992
 20
-148.86602933925462
 30
0.0
  0
VERTEX
  5
17C
100
AcDbEntity
  8
Dimension
370
               5
390
0
  6
Continuous
 62
               7
100
AcDbVertex
100
AcDb2dVertex
 10
35.118923345479992
 20
-148.86602933925462
 30
0.0
  0
VERTEX
  5
17D
100
AcDbEntity
  8
Dimension
370
               5
390
0
  6
Continuous
 62
               7
100
AcDbVertex
100
AcDb2dVertex
 10
35.118923345479992
 20
-151.12383374811466
 30
0.0
  0
VERTEX
  5
17E
100
AcDbEntity
  8
Dimension
370
               5
390
0
  6
Continuous
 62
               7
100
AcDbVertex
100
AcDb2dVertex
 10
16.954814842939992
 20
-151.12383374811466
 30
0.0
  0
SEQEND
  5
17F
100
AcDbEntity
  8
Dimension
370
               5
390
0
  6
Continuous
 62
               7
  0
WIPEOUT
  5
180
100
AcDbEntity
  8
Dimension
370
               5
390
0
  6
Continuous
 62
               7
 92
        0
100
AcDbWipeout
 90
        0
 10
35.118923345479992
 20
31.217145251885331
 30
0.0
 11
15.84645748686
 21
0.0
 31
0.0
 12
0.0
 22
15.84645748686
 32
0.0
 13
1.0
 23
1.0
340
0
 70
               7
280
               1
281
              50
282
              50
283
               0
360
0
 71
               2
 91
        5
 14
-0.5
 24
11.864254423454975
 14
0.4999999999999998
 24
11.864254423454975
 14
0.4999999999999998
 24
12.006734495782322
 14
-0.5
 24
12.006734495782322
 14
-0.5
 24
11.864254423454975
  0
POLYLINE
  5
181
100
AcDbEntity
  8
Dimension
370
               5
390
0
  6
Continuous
 62
               7
100
AcDb2dPolyline
 66
               1
 10
0.0
 20
0.0
 30
0.0
 70
               1
 75
               5
  0
VERTEX
  5
182
100
AcDbEntity
  8
Dimension
370
               5
390
0
  6
Continuous
 62
               7
100
AcDbVertex
100
AcDb2dVertex
 10
35.118923345479992
 20
-148.86602933925462
 30
0.0
  0
VERTEX
  5
183
100
AcDbEntity
  8
Dimension
370
               5
390
0
  6
Continuous
 62
               7
100
AcDbVertex
100
AcDb2dVertex
 10
50.965380832339989
 20
-148.86602933925462
 30
0.0
  0
VERTEX
  5
184
100
AcDbEntity
  8
Dimension
370
               5
390
0
  6
Continuous
 62
               7
100
AcDbVertex
100
AcDb2dVertex
 10
50.965380832339989
 20
-151.12383374811466
 30
0.0
  0
VERTEX
  5
185
100
AcDbEntity
  8
Dimension
370
               5
390
0
  6
Continuous
 62
               7
100
AcDbVertex
100
AcDb2dVertex
 10
35.118923345479992
 20
-151.12383374811466
 30
0.0
  0
SEQEND
  5
186
100
AcDbEntity
  8
Dimension
370
               5
390
0
  6
Continuous
 62
               7
  0
WIPEOUT
  5
187
100
AcDbEntity
  8
Dimension
370
               5
390
0
  6
Continuous
 62
               7
 92
        0
100
AcDbWipeout
 90
        0
 10
35.118923345479992
 20
28.95938750964531
 30
0.0
 11
15.84645748686
 21
0.0
 31
0.0
 12
0.0
 22
15.84645748686
 32
0.0
 13
1.0
 23
1.0
340
0
 70
               7
280
               1
281
              50
282
              50
283
               0
360
0
 71
               2
 91
        5
 14
-0.5
 24
11.86425736837942
 14
0.4999999999999998
 24
11.86425736837942
 14
0.4999999999999998
 24
12.006734495782322
 14
-0.5
 24
12.006734495782322
 14
-0.5
 24
11.86425736837942
  0
POLYLINE
  5
188
100
AcDbEntity
  8
Dimension
370
               5
390
0
  6
Continuous
 62
               7
100
AcDb2dPolyline
 66
               1
 10
0.0
 20
0.0
 30
0.0
 70
               1
 75
               5
  0
VERTEX
  5
189
100
AcDbEntity
  8
Dimension
370
               5
390
0
  6
Continuous
 62
               7
100
AcDbVertex
100
AcDb2dVertex
 10
35.118923345479992
 20
-151.12383374811466
 30
0.0
  0
VERTEX
  5
18A
100
AcDbEntity
  8
Dimension
370
               5
390
0
  6
Continuous
 62
               7
100
AcDbVertex
100
AcDb2dVertex
 10
50.965380832339989
 20
-151.12383374811466
 30
0.0
  0
VERTEX
  5
18B
100
AcDbEntity
  8
Dimension
370
               5
390
0
  6
Continuous
 62
               7
100
AcDbVertex
100
AcDb2dVertex
 10
50.965380832339989
 20
-153.38159149035468
 30
0.0
  0
VERTEX
  5
18C
100
AcDbEntity
  8
Dimension
370
               5
390
0
  6
Continuous
 62
               7
100
AcDbVertex
100
AcDb2dVertex
 10
35.118923345479992
 20
-153.38159149035468
 30
0.0
  0
SEQEND
  5
18D
100
AcDbEntity
  8
Dimension
370
               5
390
0
  6
Continuous
 62
               7
  0
WIPEOUT
  5
18E
100
AcDbEntity
  8
Dimension
370
               5
390
0
  6
Continuous
 62
               7
 92
        0
100
AcDbWipeout
 90
        0
 10
16.954814842939992
 20
28.95938750964531
 30
0.0
 11
18.164108502540003
 21
0.0
 31
0.0
 12
0.0
 22
18.164108502540003
 32
0.0
 13
1.0
 23
1.0
340
0
 70
               7
280
               1
281
              50
282
              50
283
               0
360
0
 71
               2
 91
        5
 14
-0.5
 24
10.414233953875458
 14
0.4999999999999998
 24
10.414233953875458
 14
0.4999999999999998
 24
10.538531699725429
 14
-0.5
 24
10.538531699725429
 14
-0.5
 24
10.414233953875458
  0
POLYLINE
  5
18F
100
AcDbEntity
  8
Dimension
370
               5
390
0
  6
Continuous
 62
               7
100
AcDb2dPolyline
 66
               1
 10
0.0
 20
0.0
 30
0.0
 70
               1
 75
               5
  0
VERTEX
  5
190
100
AcDbEntity
  8
Dimension
370
               5
390
0
  6
Continuous
 62
               7
100
AcDbVertex
100
AcDb2dVertex
 10
16.954814842939992
 20
-151.12383374811466
 30
0.0
  0
VERTEX
  5
191
100
AcDbEntity
  8
Dimension
370
               5
390
0
  6
Continuous
 62
               7
100
AcDbVertex
100
AcDb2dVertex
 10
35.118923345479992
 20
-151.12383374811466
 30
0.0
  0
VERTEX
  5
192
100
AcDbEntity
  8
Dimension
370
               5
390
0
  6
Continuous
 62
               7
100
AcDbVertex
100
AcDb2dVertex
 10
35.118923345479992
 20
-153.38159149035468
 30
0.0
  0
VERTEX
  5
193
100
AcDbEntity
  8
Dimension
370
               5
390
0
  6
Continuous
 62
               7
100
AcDbVertex
100
AcDb2dVertex
 10
16.954814842939992
 20
-153.38159149035468
 30
0.0
  0
SEQEND
  5
194
100
AcDbEntity
  8
Dimension
370
               5
390
0
  6
Continuous
 62
               7
  0
MTEXT
  5
195
100
AcDbEntity
  8
None
390
0
 62
               7
100
AcDbMText
 10
17.801480662939994
 20
-147.24752997511669
 30
0.0
 40
0.8421341405039061
 41
0.0
 71
               1
 72
               1
  1
Status: Released
  7
Arial
 73
               1
 44
0.9673603504928809
  0
MTEXT
  5
196
100
AcDbEntity
  8
None
390
0
 62
               7
100
AcDbMText
 10
17.801480662939994
 20
-149.50720104877672
 30
0.0
 40
0.8421341405039061
 41
0.0
 71
               1
 72
               1
  1
Drawing: J. Glab
  7
Arial
 73
               1
 44
0.9673603504928809
  0
WIPEOUT
  5
197
100
AcDbEntity
  8
None
370
               5
390
0
  6
Continuous
 62
               7
 92
        0
100
AcDbWipeout
 90
        0
 10
31.980166484239994
 20
34.015993453034383
 30
0.0
 11
5.2563868622737893
 21
0.0
 31
0.0
 12
0.0
 22
5.2563868622737893
 32
0.0
 13
1.0
 23
1.0
340
0
 70
               7
280
               1
281
              50
282
              50
283
               0
360
0
 71
               2
 91
        5
 14
-0.5
 24
35.189413807933377
 14
0.4999999999999993
 24
35.189413807933377
 14
0.4999999999999993
 24
34.932143110440229
 14
-0.5
 24
34.932143110440229
 14
-0.5
 24
35.189413807933377
  0
MTEXT
  5
198
100
AcDbEntity
  8
None
390
0
 62
               7
100
AcDbMText
 10
31.980166484239994
 20
-147.18887003377671
 30
0.0
 40
0.8421341405039061
 41
0.0
 71
               1
 72
               1
  1
Scale: 3:1
  7
Arial
 73
               1
 44
0.9673603504928809
  0
MTEXT
  5
199
100
AcDbEntity
  8
None
390
0
 62
               7
100
AcDbMText
 10
41.889123241939998
 20
-147.24941663989671
 30
0.0
 40
0.8421341405039061
 41
0.0
 71
               1
 72
               1
  1
Rev: B
  7
Arial
 73
               1
 44
0.9673603504928809
  0
MTEXT
  5
19A
100
AcDbEntity
  8
None
390
0
 62
               7
100
AcDbMText
 10
35.965589165479997
 20
-149.69508752755672
 30
0.0
 40
0.8421341405039061
 41
0.0
 71
               1
 72
               1
  1
Date: 10/27/06
  7
Arial
 73
               1
 44
0.9673603504928809
  0
MTEXT
  5
19B
100
AcDbEntity
  8
None
390
0
 62
               7
100
AcDbMText
 10
17.801480662939994
 20
-151.9563852176457
 30
0.0
 40
0.6737063575429687
 41
0.0
 71
               1
 72
               1
  1
File: SG-BGA-6201 Dwg.mcd
  7
Arial
 73
               1
 44
0.9673603504928809
  0
WIPEOUT
  5
19C
100
AcDbEntity
  8
Dimension
370
               5
390
0
  6
Continuous
 62
               7
 92
        0
100
AcDbWipeout
 90
        0
 10
-16.784818084060003
 20
28.95938750964531
 30
0.0
 11
33.739632926999995
 21
0.0
 31
0.0
 12
0.0
 22
33.739632926999995
 32
0.0
 13
1.0
 23
1.0
340
0
 70
               7
280
               1
281
              50
282
              50
283
               0
360
0
 71
               2
 91
        5
 14
-0.5
 24
5.7705201990089199
 14
0.5
 24
5.7705201990089199
 14
0.5
 24
5.9043557437189076
 14
-0.5
 24
5.9043557437189076
 14
-0.5
 24
5.7705201990089199
  0
POLYLINE
  5
19D
100
AcDbEntity
  8
Dimension
370
               5
390
0
  6
Continuous
 62
               7
100
AcDb2dPolyline
 66
               1
 10
0.0
 20
0.0
 30
0.0
 70
               1
 75
               5
  0
VERTEX
  5
19E
100
AcDbEntity
  8
Dimension
370
               5
390
0
  6
Continuous
 62
               7
100
AcDbVertex
100
AcDb2dVertex
 10
-16.784818084060003
 20
-148.86602933925462
 30
0.0
  0
VERTEX
  5
19F
100
AcDbEntity
  8
Dimension
370
               5
390
0
  6
Continuous
 62
               7
100
AcDbVertex
100
AcDb2dVertex
 10
16.954814842939992
 20
-148.86602933925462
 30
0.0
  0
VERTEX
  5
1A0
100
AcDbEntity
  8
Dimension
370
               5
390
0
  6
Continuous
 62
               7
100
AcDbVertex
100
AcDb2dVertex
 10
16.954814842939992
 20
-153.38159149035468
 30
0.0
  0
VERTEX
  5
1A1
100
AcDbEntity
  8
Dimension
370
               5
390
0
  6
Continuous
 62
               7
100
AcDbVertex
100
AcDb2dVertex
 10
-16.784818084060003
 20
-153.38159149035468
 30
0.0
  0
SEQEND
  5
1A2
100
AcDbEntity
  8
Dimension
370
               5
390
0
  6
Continuous
 62
               7
  0
WIPEOUT
  5
1A3
100
AcDbEntity
  8
Dimension
370
               5
390
0
  6
Continuous
 62
               7
 92
        0
100
AcDbWipeout
 90
        0
 10
-16.784818084060003
 20
33.474949660745359
 30
0.0
 11
33.739632926999995
 21
0.0
 31
0.0
 12
0.0
 22
33.739632926999995
 32
0.0
 13
1.0
 23
1.0
340
0
 70
               7
280
               1
281
              50
282
              50
283
               0
360
0
 71
               2
 91
        5
 14
-0.5
 24
5.8374384653423173
 14
0.5
 24
5.8374384653423173
 14
0.5
 24
5.9043557437189067
 14
-0.5
 24
5.9043557437189067
 14
-0.5
 24
5.8374384653423173
  0
POLYLINE
  5
1A4
100
AcDbEntity
  8
Dimension
370
               5
390
0
  6
Continuous
 62
               7
100
AcDb2dPolyline
 66
               1
 10
0.0
 20
0.0
 30
0.0
 70
               1
 75
               5
  0
VERTEX
  5
1A5
100
AcDbEntity
  8
Dimension
370
               5
390
0
  6
Continuous
 62
               7
100
AcDbVertex
100
AcDb2dVertex
 10
-16.784818084060003
 20
-146.60826493035461
 30
0.0
  0
VERTEX
  5
1A6
100
AcDbEntity
  8
Dimension
370
               5
390
0
  6
Continuous
 62
               7
100
AcDbVertex
100
AcDb2dVertex
 10
16.954814842939992
 20
-146.60826493035461
 30
0.0
  0
VERTEX
  5
1A7
100
AcDbEntity
  8
Dimension
370
               5
390
0
  6
Continuous
 62
               7
100
AcDbVertex
100
AcDb2dVertex
 10
16.954814842939992
 20
-148.86602933925462
 30
0.0
  0
VERTEX
  5
1A8
100
AcDbEntity
  8
Dimension
370
               5
390
0
  6
Continuous
 62
               7
100
AcDbVertex
100
AcDb2dVertex
 10
-16.784818084060003
 20
-148.86602933925462
 30
0.0
  0
SEQEND
  5
1A9
100
AcDbEntity
  8
Dimension
370
               5
390
0
  6
Continuous
 62
               7
  0
MTEXT
  5
1AA
100
AcDbEntity
  8
None
390
0
 62
               7
100
AcDbMText
 10
0.0849983794399911
 20
-147.20465618674052
 30
0.0
 40
0.9823410315468748
 41
0.0
 71
               2
 72
               1
  1
SG-BGA-6201 Drawing
  7
Arial (bold)
 73
               1
 44
0.9925958378970426
  0
INSERT
  5
1AB
100
AcDbEntity
  8
None
390
0
 62
               7
100
AcDbBlockReference
  2
IE i logo
 10
-13.175081693800006
 20
-151.08852711675465
 30
0.0
 41
0.6666660000000001
 42
0.6666660000000001
 43
0.6666660000000001
  0
MTEXT
  5
1AC
100
AcDbEntity
  8
None
390
0
 62
               7
100
AcDbMText
 10
35.965589165479997
 20
-151.88474528928569
 30
0.0
 40
0.6737063575429687
 41
0.0
 71
               1
 72
               1
  1
Modified: 1/10/07  
  7
Arial
 73
               1
 44
0.9673603504928809
  0
WIPEOUT
  5
1AD
100
AcDbEntity
  8
None
370
               9
390
0
  6
Continuous
 62
               7
 92
        0
100
AcDbWipeout
 90
        0
 10
54.96144350294
 20
29.965036766038391
 30
0.0
 11
11.853321838863753
 21
0.0
 31
0.0
 12
0.0
 22
11.853321838863753
 32
0.0
 13
1.0
 23
1.0
340
0
 70
               7
280
               1
281
              50
282
              50
283
               0
360
0
 71
               2
 91
        5
 14
-0.5
 24
15.883112133356114
 14
0.4999999999999997
 24
15.883112133356114
 14
0.4999999999999997
 24
15.677754996716233
 14
-0.5
 24
15.677754996716233
 14
-0.5
 24
15.883112133356114
  0
MTEXT
  5
1AE
100
AcDbEntity
  8
None
390
0
 62
               7
100
AcDbMText
 10
54.96144350294
 20
-150.33093559841473
 30
0.0
 40
1.5158404980468749
 41
0.0
 71
               1
 72
               1
  1
PAGE 2 of 4
  7
Arial
 73
               1
 44
0.9673603504928808
  0
MTEXT
  5
1AF
100
AcDbEntity
  8
None
390
0
 62
               7
100
AcDbMText
 10
29.064542733199993
 20
-143.73070440861241
 30
0.0
 40
0.6939780386601563
 41
38.070221929740001
 71
               1
 72
               1
  1
Recommended PCB Layout Tolerances:  ±0.025mm [±0.001"] unless stated otherwise.\P
  7
Helvetica
 73
               1
 44
0.9673603504928806
  0
MTEXT
  5
1B0
100
AcDbEntity
  8
None
390
0
 62
               7
100
AcDbMText
 10
-13.701014501200003
 20
-90.440989316436713
 30
0.0
 40
0.8165916313242188
 41
15.76917089748
 71
               1
 72
               1
  1
{\LRecommended PCB Layout Top View}\P
  7
Helvetica
 73
               1
 44
0.9673603504928809
  0
WIPEOUT
  5
1B1
100
AcDbEntity
  8
None
370
              15
390
0
  6
Continuous
 62
               1
 92
        0
100
AcDbWipeout
 90
        0
 10
-16.53991166230001
 20
40.939028863325454
 30
0.0
 11
23.801893295386506
 21
0.0
 31
0.0
 12
0.0
 22
23.801893295386506
 32
0.0
 13
1.0
 23
1.0
340
0
 70
               7
280
               1
281
              50
282
              50
283
               0
360
0
 71
               2
 91
        5
 14
-0.5
 24
8.1607762557839436
 14
0.5
 24
8.1607762557839436
 14
0.5
 24
7.9562409104404859
 14
-0.5
 24
7.9562409104404859
 14
-0.5
 24
8.1607762557839436
  0
MTEXT
  5
1B2
100
AcDbEntity
  8
None
390
0
 62
               1
100
AcDbMText
 10
-16.53991166230001
 20
-136.72820047015111
 30
0.0
 40
0.7579202490234375
 41
0.0
 71
               1
 72
               1
  1
{\LTarget PCB Recommendations}\PTotal thickness: 1.6mm min.\PPlating: Gold or Solder finish\PPCB Pad height: Same or higher than solder mask
  7
Arial
 73
               1
 44
0.9673603504928808
  0
WIPEOUT
  5
1B3
100
AcDbEntity
  8
None
370
              15
390
0
  6
Continuous
 62
               1
 92
        0
100
AcDbWipeout
 90
        0
 10
-16.598484937060004
 20
37.932161870195429
 30
0.0
 11
33.094052966614548
 21
0.0
 31
0.0
 12
0.0
 22
33.094052966614548
 32
0.0
 13
1.0
 23
1.0
340
0
 70
               7
280
               1
281
              50
282
              50
283
               0
360
0
 71
               2
 91
        5
 14
-0.5
 24
6.009780841408169
 14
0.4999999999999998
 24
6.009780841408169
 14
0.4999999999999998
 24
5.9730043813753699
 14
-0.5
 24
5.9730043813753699
 14
-0.5
 24
6.009780841408169
  0
MTEXT
  5
1B4
100
AcDbEntity
  8
None
390
0
 62
               1
100
AcDbMText
 10
-16.598484937060004
 20
-143.38631381203112
 30
0.0
 40
0.7579202490234375
 41
0.0
 71
               1
 72
               1
  1
NOTE: Backing plate may be required based on end user's application
  7
Arial
 73
               1
 44
0.9673603504928808
  0
WIPEOUT
  5
1B5
100
AcDbEntity
  8
None
370
               9
390
0
  6
Continuous
 62
               1
 92
        0
100
AcDbWipeout
 90
        0
 10
39.799198665199995
 20
89.813975721662658
 30
0.0
 11
28.881071118900007
 21
0.0
 31
0.0
 12
0.0
 22
28.881071118900007
 32
0.0
 13
1.0
 23
1.0
340
0
 70
               7
280
               1
281
              50
282
              50
283
               0
360
0
 71
               2
 91
        5
 14
-0.5
 24
6.8135116509122335
 14
0.4999999999999997
 24
6.8135116509122335
 14
0.4999999999999997
 24
6.6980089773067721
 14
-0.5
 24
6.6980089773067721
 14
-0.5
 24
6.8135116509122335
  0
MTEXT
  5
1B6
100
AcDbEntity
  8
None
390
0
 62
               1
100
AcDbMText
 10
39.799198665199995
 20
-89.49344348412238
 30
0.0
 40
1.01226634884375
 41
28.881071118900003
 71
               1
 72
               1
  1
{\L*Note: BGA pattern is not symmetrical with respect to the mounting holes.}
  7
Arial (bold)
 73
               1
 44
0.992595837897043
  0
WIPEOUT
  5
1B7
100
AcDbEntity
  8
None
370
               9
390
0
  6
Continuous
 62
               7
 92
        0
100
AcDbWipeout
 90
        0
 10
7.3548244429399929
 20
43.128377673974455
 30
0.0
 11
46.884149927055383
 21
0.0
 31
0.0
 12
0.0
 22
46.884149927055383
 32
0.0
 13
1.0
 23
1.0
340
0
 70
               7
280
               1
281
              50
282
              50
283
               0
360
0
 71
               2
 91
        5
 14
-0.5
 24
4.3891817231131389
 14
0.5
 24
4.3891817231131389
 14
0.5
 24
4.3603379813271621
 14
-0.5
 24
4.3603379813271621
 14
-0.5
 24
4.3891817231131389
  0
MTEXT
  5
1B8
100
AcDbEntity
  8
None
390
0
 62
               7
100
AcDbMText
 10
7.3548244429399929
 20
-138.07648581283664
 30
0.0
 40
0.8421341405039061
 41
0.0
 71
               1
 72
               1
  1
Note: Full BGA pattern shown. Please adjust pattern according to individual requirements.
  7
Arial
 73
               1
 44
0.9673603504928809
  0
INSERT
  5
1B9
100
AcDbEntity
  8
None
390
0
 62
               7
100
AcDbBlockReference
  2
©2006_address
 10
2.5548281762743947
 20
-151.17010239319268
 30
0.0
 41
0.6666660000000001
 42
0.6666660000000001
 43
0.6666660000000001
  0
WIPEOUT
  5
1BA
100
AcDbEntity
  8
None
370
              15
390
0
  6
Continuous
 62
               1
 92
        0
100
AcDbWipeout
 90
        0
 10
4.729821599999994
 20
68.830368444430476
 30
0.0
 11
4.9901799999999987
 21
0.0
 31
0.0
 12
0.0
 22
4.9901799999999987
 32
0.0
 13
1.0
 23
1.0
340
0
 70
               7
280
               1
281
              50
282
              50
283
               0
360
0
 71
               2
 91
        5
 14
-0.5
 24
37.039960281993849
 14
0.5
 24
37.039960281993849
 14
0.5
 24
36.552170462788922
 14
-0.5
 24
36.552170462788922
 14
-0.5
 24
37.039960281993849
  0
MTEXT
  5
1BB
100
AcDbEntity
  8
None
390
0
 62
               1
100
AcDbMText
 10
4.729821599999994
 20
-111.27102993577785
 30
0.0
 40
0.7579186197916666
 41
4.9901799999999996
 71
               1
 72
               1
  1
Socket Body Size
  7
New Century Schlbk
 73
               1
 44
0.9673603504928808
  0
LINE
  5
1BC
100
AcDbEntity
  8
None
370
               5
390
0
  6
Continuous
 62
               1
100
AcDbLine
 10
9.7200015999999962
 20
-112.2935315555695
 30
0.0
 11
15.887471599999994
 21
-112.2935315555695
 31
0.0
  0
SOLID
  5
1BD
100
AcDbEntity
  8
None
370
               5
390
0
 62
               1
100
AcDbTrace
 10
15.887471599999994
 20
-112.2935315555695
 30
0.0
 11
15.209994250134272
 21
-112.4750610643564
 31
0.0
 12
15.209994250134272
 22
-112.11200204678261
 32
0.0
 13
15.209994250134272
 23
-112.11200204678261
 33
0.0
  0
WIPEOUT
  5
1BE
100
AcDbEntity
  8
None
370
              15
390
0
  6
Continuous
 62
               1
 92
        0
100
AcDbWipeout
 90
        0
 10
27.104761599999993
 20
90.38036794443066
 30
0.0
 11
7.8422253988126771
 21
0.0
 31
0.0
 12
0.0
 22
7.8422253988126771
 32
0.0
 13
1.0
 23
1.0
340
0
 70
               7
280
               1
281
              50
282
              50
283
               0
360
0
 71
               2
 91
        5
 14
-0.5
 24
23.75117804285588
 14
0.4999999999999999
 24
23.75117804285588
 14
0.4999999999999999
 24
23.595982363299886
 14
-0.5
 24
23.595982363299886
 14
-0.5
 24
23.75117804285588
  0
MTEXT
  5
1BF
100
AcDbEntity
  8
None
390
0
 62
               1
100
AcDbMText
 10
27.104761599999993
 20
-90.938109935777661
 30
0.0
 40
0.7579186197916666
 41
0.0
 71
               1
 72
               1
  1
Orientation Mark
  7
New Century Schlbk
 73
               1
 44
0.9673603504928808
  0
LINE
  5
1C0
100
AcDbEntity
  8
None
370
               5
390
0
  6
Continuous
 62
               1
100
AcDbLine
 10
18.754761599999995
 20
-103.24353155556952
 30
0.0
 11
21.320001599999994
 21
-91.293531555569345
 31
0.0
  0
SOLID
  5
1C1
100
AcDbEntity
  8
None
370
               5
390
0
 62
               1
100
AcDbTrace
 10
18.754761599999995
 20
-103.24353155556952
 30
0.0
 11
18.730283924909255
 21
-102.54258265189418
 31
0.0
 12
19.084037763383499
 22
-102.62425316068646
 32
0.0
 13
19.084037763383499
 23
-102.62425316068646
 33
0.0
  0
LINE
  5
1C2
100
AcDbEntity
  8
None
370
               5
390
0
  6
Continuous
 62
               1
100
AcDbLine
 10
26.870661599999995
 20
-91.293531555569345
 30
0.0
 11
21.320001599999994
 21
-91.293531555569345
 31
0.0
  0
DIMENSION
  5
1C3
100
AcDbEntity
  8
Dimension
370
               5
390
0
  6
Continuous
 62
               1
100
AcDbDimension
  2
*D4
 10
17.052841599999994
 20
-97.293531555569515
 30
0.0
 11
12.821741599999994
 21
-97.293531555569515
 31
0.0
 70
             128
 71
               5
 72
               1
 41
1.0
 42
0.0
  3
IE Standard
100
AcDbAlignedDimension
 13
15.802841599999994
 23
-102.54103155556952
 33
0.0
 14
17.052841599999994
 24
-103.79103155556952
 34
0.0
100
AcDbRotatedDimension
1001
ACAD
1000
DSTYLE
1002
{
1070
             340
1005
37
1070
              71
1070
               1
1070
              47
1040
0.125
1070
              48
1040
0.125
1070
               3
1000
<>mm(x4)
1070
             174
1070
               0
1070
             147
1040
0.132291534375
1002
}
  0
DIMENSION
  5
1C4
100
AcDbEntity
  8
Dimension
370
               5
390
0
  6
Continuous
 62
               1
100
AcDbDimension
  2
*D5
 10
5.3278415999999957
 20
-102.54103155556952
 30
0.0
 11
5.3278415999999957
 21
-99.793531555569515
 31
0.0
 70
             128
 71
               5
 72
               1
 41
1.0
 42
0.0
  3
IE Standard
100
AcDbAlignedDimension
 13
17.052841599999994
 23
-103.79103155556952
 33
0.0
 14
15.802841599999994
 24
-102.54103155556952
 34
0.0
 50
90.0
100
AcDbRotatedDimension
1001
ACAD
1000
DSTYLE
1002
{
1070
             340
1005
37
1070
              71
1070
               1
1070
              47
1040
0.125
1070
              48
1040
0.125
1070
               3
1000
<>mm(x4)
1070
             174
1070
               0
1070
             147
1040
0.132291534375
1002
}
  0
DIMENSION
  5
1C5
100
AcDbEntity
  8
Dimension
370
               5
390
0
  6
Continuous
 62
               1
100
AcDbDimension
  2
*D6
 10
10.720001599999993
 20
-125.51603155556943
 30
0.0
 11
10.720001599999993
 21
-123.06656866494444
 31
0.0
 70
             128
 71
               5
 72
               1
 41
1.0
 42
0.0
  3
IE Standard
100
AcDbAlignedDimension
 13
17.052841599999994
 23
-120.43603155556949
 33
0.0
 14
17.052841599999994
 24
-125.51603155556943
 34
0.0
 50
90.0
100
AcDbRotatedDimension
1001
ACAD
1000
DSTYLE
1002
{
1070
             271
1070
               3
1070
             340
1005
37
1070
             147
1040
0.132291534375
1002
}
  0
DIMENSION
  5
1C6
100
AcDbEntity
  8
Dimension
370
               5
390
0
  6
Continuous
 62
               1
100
AcDbDimension
  2
*D7
 10
15.802841599999994
 20
-132.10082155556941
 30
0.0
 11
28.789919694482414
 21
-132.10082155556941
 31
0.0
 70
             128
 71
               5
 72
               1
 41
1.0
 42
0.0
  3
IE Standard
100
AcDbAlignedDimension
 13
40.027841599999988
 23
-126.7660315555694
 33
0.0
 14
15.802841599999994
 24
-126.7660315555694
 34
0.0
100
AcDbRotatedDimension
1001
ACAD
1000
DSTYLE
1002
{
1070
             271
1070
               3
1070
             340
1005
37
1070
               3
1000
<>mm (x4)
1070
             147
1040
0.132291534375
1002
}
  0
DIMENSION
  5
1C7
100
AcDbEntity
  8
Dimension
370
               5
390
0
  6
Continuous
 62
               1
100
AcDbDimension
  2
*D8
 10
17.052841599999994
 20
-129.20082155556943
 30
0.0
 11
28.008823808251947
 21
-129.20082155556943
 31
0.0
 70
             128
 71
               5
 72
               1
 41
1.0
 42
0.0
  3
IE Standard
100
AcDbAlignedDimension
 13
38.777841599999988
 23
-125.51603155556943
 33
0.0
 14
17.052841599999994
 24
-125.51603155556943
 34
0.0
100
AcDbRotatedDimension
1001
ACAD
1000
DSTYLE
1002
{
1070
             271
1070
               3
1070
             340
1005
37
1070
               3
1000
<>mm(x4)
1070
             147
1040
0.132291534375
1002
}
  0
DIMENSION
  5
1C8
100
AcDbEntity
  8
Dimension
370
               5
390
0
  6
Continuous
 62
               1
100
AcDbDimension
  2
*D9
 10
31.090341599999995
 20
-99.392281555569525
 30
0.0
 11
34.320181599999991
 21
-99.392281555569525
 31
0.0
 70
             128
 71
               5
 72
               1
 41
1.0
 42
0.0
  3
IE Standard
100
AcDbAlignedDimension
 13
31.890341599999992
 23
-106.25353155556951
 33
0.0
 14
31.090341599999995
 24
-106.25353155556951
 34
0.0
100
AcDbRotatedDimension
1001
ACAD
1000
DSTYLE
1002
{
1070
             340
1005
37
1070
               3
1000
<>mm typ.
1070
             174
1070
               0
1070
             147
1040
0.132291534375
1002
}
  0
DIMENSION
  5
1C9
100
AcDbEntity
  8
Dimension
370
               5
390
0
  6
Continuous
 62
               1
100
AcDbDimension
  2
*D10
 10
17.052841599999994
 20
-99.392281555569525
 30
0.0
 11
21.870001599999995
 21
-99.392281555569525
 31
0.0
 70
             128
 71
               5
 72
               1
 41
1.0
 42
0.0
  3
IE Standard
100
AcDbAlignedDimension
 13
19.890341599999992
 23
-106.25353155556951
 33
0.0
 14
17.052841599999994
 24
-103.83124155556952
 34
0.0
100
AcDbRotatedDimension
1001
ACAD
1000
DSTYLE
1002
{
1070
             271
1070
               4
1070
             340
1005
37
1070
               3
1000
<>mm*
1070
             174
1070
               0
1070
             147
1040
0.132291534375
1002
}
  0
DIMENSION
  5
1CA
100
AcDbEntity
  8
Dimension
370
               5
390
0
  6
Continuous
 62
               1
100
AcDbDimension
  2
*D11
 10
44.570001599999991
 20
-103.79103155556952
 30
0.0
 11
44.570001599999991
 21
-104.90080877724921
 31
0.0
 70
             128
 71
               5
 72
               1
 41
1.0
 42
0.0
  3
IE Standard
100
AcDbAlignedDimension
 13
38.777841599999988
 23
-106.33103155556952
 33
0.0
 14
38.777841599999988
 24
-103.79103155556952
 34
0.0
 50
90.0
100
AcDbRotatedDimension
1001
ACAD
1000
DSTYLE
1002
{
1070
             271
1070
               3
1070
             340
1005
37
1070
             147
1040
0.132291534375
1002
}
  0
WIPEOUT
  5
1CB
100
AcDbEntity
  8
None
370
              15
390
0
  6
Continuous
 62
               1
 92
        0
100
AcDbWipeout
 90
        0
 10
47.953291599999993
 20
53.289037944430575
 30
0.0
 11
6.8368120701770785
 21
0.0
 31
0.0
 12
0.0
 22
6.8368120701770785
 32
0.0
 13
1.0
 23
1.0
340
0
 70
               7
280
               1
281
              50
282
              50
283
               0
360
0
 71
               2
 91
        5
 14
-0.5
 24
27.170468213597868
 14
0.5000000000000004
 24
27.170468213597868
 14
0.5000000000000004
 24
26.992449644781409
 14
-0.5
 24
26.992449644781409
 14
-0.5
 24
27.170468213597868
  0
MTEXT
  5
1CC
100
AcDbEntity
  8
None
390
0
 62
               1
100
AcDbMText
 10
47.953291599999993
 20
-128.02943993577773
 30
0.0
 40
0.7579186197916666
 41
0.0
 71
               1
 72
               1
  1
Mounting Hole
  7
New Century Schlbk
 73
               1
 44
0.9673603504928808
  0
DIMENSION
  5
1CD
100
AcDbEntity
  8
Dimension
370
               5
390
0
  6
Continuous
 62
               1
100
AcDbDimension
  2
*D12
 10
38.056061599999992
 20
-125.15957155556943
 30
0.0
 11
44.250007991704258
 21
-127.23080693006669
 31
0.0
 70
               3
 71
               5
 72
               1
 41
1.0
 42
0.0
  3
IE Standard
100
AcDbDiametricDimension
 15
39.49962159999999
 25
-125.87249155556941
 35
0.0
 40
3.0675199999999996
1001
ACAD
1000
DSTYLE
1002
{
1070
             172
1070
               0
1070
             289
1070
               0
1070
             342
1005
54
1070
             340
1005
37
1070
              75
1070
               1
1070
              76
1070
               1
1070
              71
1070
               1
1070
              47
1040
0.05
1070
              48
1040
0.05
1070
               3
1000
mm (x4)
1070
             174
1070
               0
1070
             147
1040
0.132291534375
1002
}
  0
WIPEOUT
  5
1CE
100
AcDbEntity
  8
None
370
              15
390
0
  6
Continuous
 62
               1
 92
        0
100
AcDbWipeout
 90
        0
 10
48.955851599999988
 20
69.200177944430479
 30
0.0
 11
7.196644308006384
 21
0.0
 31
0.0
 12
0.0
 22
7.196644308006384
 32
0.0
 13
1.0
 23
1.0
340
0
 70
               7
280
               1
281
              50
282
              50
283
               0
360
0
 71
               2
 91
        5
 14
-0.5
 24
25.836944719797071
 14
0.5
 24
25.836944719797071
 14
0.5
 24
25.667827079976249
 14
-0.5
 24
25.667827079976249
 14
-0.5
 24
25.836944719797071
  0
MTEXT
  5
1CF
100
AcDbEntity
  8
None
390
0
 62
               1
100
AcDbMText
 10
48.955851599999988
 20
-112.11829993577784
 30
0.0
 40
0.7579186197916666
 41
0.0
 71
               1
 72
               1
  1
Alignment Hole
  7
New Century Schlbk
 73
               1
 44
0.9673603504928808
  0
DIMENSION
  5
1D0
100
AcDbEntity
  8
Dimension
370
               5
390
0
  6
Continuous
 62
               1
100
AcDbDimension
  2
*D13
 10
38.433351599999995
 20
-106.08213155556952
 30
0.0
 11
47.45005514321786
 21
-111.15182589981461
 31
0.0
 70
               3
 71
               5
 72
               1
 41
1.0
 42
0.0
  3
IE Standard
100
AcDbDiametricDimension
 15
39.122331599999995
 25
-106.57993155556952
 35
0.0
 40
7.8065599999999993
1001
ACAD
1000
DSTYLE
1002
{
1070
             271
1070
               3
1070
             172
1070
               0
1070
             289
1070
               0
1070
             342
1005
54
1070
             340
1005
37
1070
              75
1070
               1
1070
              76
1070
               1
1070
              71
1070
               1
1070
              47
1040
0.025
1070
              48
1040
0.025
1070
               3
1000
mm (x2)
1070
             174
1070
               0
1070
             147
1040
0.132291534375
1002
}
  0
DIMENSION
  5
1D1
100
AcDbEntity
  8
Dimension
370
               5
390
0
  6
Continuous
 62
               1
100
AcDbDimension
  2
*D14
 10
9.7200015999999927
 20
-103.79103155556952
 30
0.0
 11
9.7200015999999927
 21
-104.82347345773016
 31
0.0
 70
             128
 71
               5
 72
               1
 41
1.0
 42
0.0
  3
IE Standard
100
AcDbAlignedDimension
 13
19.890341599999992
 23
-106.25353155556951
 33
0.0
 14
17.052841599999994
 24
-103.79103155556952
 34
0.0
 50
90.0
100
AcDbRotatedDimension
1001
ACAD
1000
DSTYLE
1002
{
1070
             271
1070
               4
1070
             340
1005
37
1070
             147
1040
0.132291534375
1002
}
  0
INSERT
  5
1D2
100
AcDbEntity
  8
None
390
0
 62
               7
100
AcDbBlockReference
  2
Group-1
 10
26.864411599999993
 20
-155.47656739999999
 30
0.0
  0
INSERT
  5
1D3
100
AcDbEntity
  8
None
390
0
 62
               7
100
AcDbBlockReference
  2
layout pad
 10
19.890341599999992
 20
-123.05353155556946
 30
0.0
  0
INSERT
  5
1D4
100
AcDbEntity
  8
None
390
0
 62
               7
100
AcDbBlockReference
  2
layout pad
 10
20.690341599999993
 20
-123.05353155556946
 30
0.0
  0
INSERT
  5
1D5
100
AcDbEntity
  8
None
390
0
 62
               7
100
AcDbBlockReference
  2
layout pad
 10
21.490341599999994
 20
-123.05353155556946
 30
0.0
  0
INSERT
  5
1D6
100
AcDbEntity
  8
None
390
0
 62
               7
100
AcDbBlockReference
  2
layout pad
 10
22.290341599999994
 20
-123.05353155556946
 30
0.0
  0
INSERT
  5
1D7
100
AcDbEntity
  8
None
390
0
 62
               7
100
AcDbBlockReference
  2
layout pad
 10
23.090341599999995
 20
-123.05353155556946
 30
0.0
  0
INSERT
  5
1D8
100
AcDbEntity
  8
None
390
0
 62
               7
100
AcDbBlockReference
  2
layout pad
 10
23.890341599999992
 20
-123.05353155556946
 30
0.0
  0
INSERT
  5
1D9
100
AcDbEntity
  8
None
390
0
 62
               7
100
AcDbBlockReference
  2
layout pad
 10
24.690341599999993
 20
-123.05353155556946
 30
0.0
  0
INSERT
  5
1DA
100
AcDbEntity
  8
None
390
0
 62
               7
100
AcDbBlockReference
  2
layout pad
 10
25.490341599999994
 20
-123.05353155556946
 30
0.0
  0
INSERT
  5
1DB
100
AcDbEntity
  8
None
390
0
 62
               7
100
AcDbBlockReference
  2
layout pad
 10
26.290341599999994
 20
-123.05353155556946
 30
0.0
  0
INSERT
  5
1DC
100
AcDbEntity
  8
None
390
0
 62
               7
100
AcDbBlockReference
  2
layout pad
 10
27.090341599999995
 20
-123.05353155556946
 30
0.0
  0
INSERT
  5
1DD
100
AcDbEntity
  8
None
390
0
 62
               7
100
AcDbBlockReference
  2
layout pad
 10
27.890341599999992
 20
-123.05353155556946
 30
0.0
  0
INSERT
  5
1DE
100
AcDbEntity
  8
None
390
0
 62
               7
100
AcDbBlockReference
  2
layout pad
 10
28.690341599999993
 20
-123.05353155556946
 30
0.0
  0
INSERT
  5
1DF
100
AcDbEntity
  8
None
390
0
 62
               7
100
AcDbBlockReference
  2
layout pad
 10
29.490341599999994
 20
-123.05353155556946
 30
0.0
  0
INSERT
  5
1E0
100
AcDbEntity
  8
None
390
0
 62
               7
100
AcDbBlockReference
  2
layout pad
 10
30.290341599999994
 20
-123.05353155556946
 30
0.0
  0
INSERT
  5
1E1
100
AcDbEntity
  8
None
390
0
 62
               7
100
AcDbBlockReference
  2
layout pad
 10
31.090341599999995
 20
-123.05353155556946
 30
0.0
  0
INSERT
  5
1E2
100
AcDbEntity
  8
None
390
0
 62
               7
100
AcDbBlockReference
  2
layout pad
 10
31.890341599999992
 20
-123.05353155556946
 30
0.0
  0
INSERT
  5
1E3
100
AcDbEntity
  8
None
390
0
 62
               7
100
AcDbBlockReference
  2
layout pad
 10
32.690341599999996
 20
-123.05353155556946
 30
0.0
  0
INSERT
  5
1E4
100
AcDbEntity
  8
None
390
0
 62
               7
100
AcDbBlockReference
  2
layout pad
 10
33.490341599999994
 20
-123.05353155556946
 30
0.0
  0
INSERT
  5
1E5
100
AcDbEntity
  8
None
390
0
 62
               7
100
AcDbBlockReference
  2
layout pad
 10
34.290341599999991
 20
-123.05353155556946
 30
0.0
  0
INSERT
  5
1E6
100
AcDbEntity
  8
None
390
0
 62
               7
100
AcDbBlockReference
  2
layout pad
 10
35.090341599999995
 20
-123.05353155556946
 30
0.0
  0
INSERT
  5
1E7
100
AcDbEntity
  8
None
390
0
 62
               7
100
AcDbBlockReference
  2
layout pad
 10
35.890341599999992
 20
-123.05353155556946
 30
0.0
  0
INSERT
  5
1E8
100
AcDbEntity
  8
None
390
0
 62
               7
100
AcDbBlockReference
  2
layout pad
 10
36.690341599999996
 20
-123.05353155556946
 30
0.0
  0
INSERT
  5
1E9
100
AcDbEntity
  8
None
390
0
 62
               7
100
AcDbBlockReference
  2
layout pad
 10
19.890341599999992
 20
-122.25353155556948
 30
0.0
  0
INSERT
  5
1EA
100
AcDbEntity
  8
None
390
0
 62
               7
100
AcDbBlockReference
  2
layout pad
 10
20.690341599999993
 20
-122.25353155556948
 30
0.0
  0
INSERT
  5
1EB
100
AcDbEntity
  8
None
390
0
 62
               7
100
AcDbBlockReference
  2
layout pad
 10
21.490341599999994
 20
-122.25353155556948
 30
0.0
  0
INSERT
  5
1EC
100
AcDbEntity
  8
None
390
0
 62
               7
100
AcDbBlockReference
  2
layout pad
 10
22.290341599999994
 20
-122.25353155556948
 30
0.0
  0
INSERT
  5
1ED
100
AcDbEntity
  8
None
390
0
 62
               7
100
AcDbBlockReference
  2
layout pad
 10
23.090341599999995
 20
-122.25353155556948
 30
0.0
  0
INSERT
  5
1EE
100
AcDbEntity
  8
None
390
0
 62
               7
100
AcDbBlockReference
  2
layout pad
 10
23.890341599999992
 20
-122.25353155556948
 30
0.0
  0
INSERT
  5
1EF
100
AcDbEntity
  8
None
390
0
 62
               7
100
AcDbBlockReference
  2
layout pad
 10
24.690341599999993
 20
-122.25353155556948
 30
0.0
  0
INSERT
  5
1F0
100
AcDbEntity
  8
None
390
0
 62
               7
100
AcDbBlockReference
  2
layout pad
 10
25.490341599999994
 20
-122.25353155556948
 30
0.0
  0
INSERT
  5
1F1
100
AcDbEntity
  8
None
390
0
 62
               7
100
AcDbBlockReference
  2
layout pad
 10
26.290341599999994
 20
-122.25353155556948
 30
0.0
  0
INSERT
  5
1F2
100
AcDbEntity
  8
None
390
0
 62
               7
100
AcDbBlockReference
  2
layout pad
 10
27.090341599999995
 20
-122.25353155556948
 30
0.0
  0
INSERT
  5
1F3
100
AcDbEntity
  8
None
390
0
 62
               7
100
AcDbBlockReference
  2
layout pad
 10
27.890341599999992
 20
-122.25353155556948
 30
0.0
  0
INSERT
  5
1F4
100
AcDbEntity
  8
None
390
0
 62
               7
100
AcDbBlockReference
  2
layout pad
 10
28.690341599999993
 20
-122.25353155556948
 30
0.0
  0
INSERT
  5
1F5
100
AcDbEntity
  8
None
390
0
 62
               7
100
AcDbBlockReference
  2
layout pad
 10
29.490341599999994
 20
-122.25353155556948
 30
0.0
  0
INSERT
  5
1F6
100
AcDbEntity
  8
None
390
0
 62
               7
100
AcDbBlockReference
  2
layout pad
 10
30.290341599999994
 20
-122.25353155556948
 30
0.0
  0
INSERT
  5
1F7
100
AcDbEntity
  8
None
390
0
 62
               7
100
AcDbBlockReference
  2
layout pad
 10
31.090341599999995
 20
-122.25353155556948
 30
0.0
  0
INSERT
  5
1F8
100
AcDbEntity
  8
None
390
0
 62
               7
100
AcDbBlockReference
  2
layout pad
 10
31.890341599999992
 20
-122.25353155556948
 30
0.0
  0
INSERT
  5
1F9
100
AcDbEntity
  8
None
390
0
 62
               7
100
AcDbBlockReference
  2
layout pad
 10
32.690341599999996
 20
-122.25353155556948
 30
0.0
  0
INSERT
  5
1FA
100
AcDbEntity
  8
None
390
0
 62
               7
100
AcDbBlockReference
  2
layout pad
 10
33.490341599999994
 20
-122.25353155556948
 30
0.0
  0
INSERT
  5
1FB
100
AcDbEntity
  8
None
390
0
 62
               7
100
AcDbBlockReference
  2
layout pad
 10
34.290341599999991
 20
-122.25353155556948
 30
0.0
  0
INSERT
  5
1FC
100
AcDbEntity
  8
None
390
0
 62
               7
100
AcDbBlockReference
  2
layout pad
 10
35.090341599999995
 20
-122.25353155556948
 30
0.0
  0
INSERT
  5
1FD
100
AcDbEntity
  8
None
390
0
 62
               7
100
AcDbBlockReference
  2
layout pad
 10
35.890341599999992
 20
-122.25353155556948
 30
0.0
  0
INSERT
  5
1FE
100
AcDbEntity
  8
None
390
0
 62
               7
100
AcDbBlockReference
  2
layout pad
 10
36.690341599999996
 20
-122.25353155556948
 30
0.0
  0
INSERT
  5
1FF
100
AcDbEntity
  8
None
390
0
 62
               7
100
AcDbBlockReference
  2
layout pad
 10
19.890341599999992
 20
-121.45353155556947
 30
0.0
  0
INSERT
  5
200
100
AcDbEntity
  8
None
390
0
 62
               7
100
AcDbBlockReference
  2
layout pad
 10
20.690341599999993
 20
-121.45353155556947
 30
0.0
  0
INSERT
  5
201
100
AcDbEntity
  8
None
390
0
 62
               7
100
AcDbBlockReference
  2
layout pad
 10
21.490341599999994
 20
-121.45353155556947
 30
0.0
  0
INSERT
  5
202
100
AcDbEntity
  8
None
390
0
 62
               7
100
AcDbBlockReference
  2
layout pad
 10
22.290341599999994
 20
-121.45353155556947
 30
0.0
  0
INSERT
  5
203
100
AcDbEntity
  8
None
390
0
 62
               7
100
AcDbBlockReference
  2
layout pad
 10
23.090341599999995
 20
-121.45353155556947
 30
0.0
  0
INSERT
  5
204
100
AcDbEntity
  8
None
390
0
 62
               7
100
AcDbBlockReference
  2
layout pad
 10
23.890341599999992
 20
-121.45353155556947
 30
0.0
  0
INSERT
  5
205
100
AcDbEntity
  8
None
390
0
 62
               7
100
AcDbBlockReference
  2
layout pad
 10
24.690341599999993
 20
-121.45353155556947
 30
0.0
  0
INSERT
  5
206
100
AcDbEntity
  8
None
390
0
 62
               7
100
AcDbBlockReference
  2
layout pad
 10
25.490341599999994
 20
-121.45353155556947
 30
0.0
  0
INSERT
  5
207
100
AcDbEntity
  8
None
390
0
 62
               7
100
AcDbBlockReference
  2
layout pad
 10
26.290341599999994
 20
-121.45353155556947
 30
0.0
  0
INSERT
  5
208
100
AcDbEntity
  8
None
390
0
 62
               7
100
AcDbBlockReference
  2
layout pad
 10
27.090341599999995
 20
-121.45353155556947
 30
0.0
  0
INSERT
  5
209
100
AcDbEntity
  8
None
390
0
 62
               7
100
AcDbBlockReference
  2
layout pad
 10
27.890341599999992
 20
-121.45353155556947
 30
0.0
  0
INSERT
  5
20A
100
AcDbEntity
  8
None
390
0
 62
               7
100
AcDbBlockReference
  2
layout pad
 10
28.690341599999993
 20
-121.45353155556947
 30
0.0
  0
INSERT
  5
20B
100
AcDbEntity
  8
None
390
0
 62
               7
100
AcDbBlockReference
  2
layout pad
 10
29.490341599999994
 20
-121.45353155556947
 30
0.0
  0
INSERT
  5
20C
100
AcDbEntity
  8
None
390
0
 62
               7
100
AcDbBlockReference
  2
layout pad
 10
30.290341599999994
 20
-121.45353155556947
 30
0.0
  0
INSERT
  5
20D
100
AcDbEntity
  8
None
390
0
 62
               7
100
AcDbBlockReference
  2
layout pad
 10
31.090341599999995
 20
-121.45353155556947
 30
0.0
  0
INSERT
  5
20E
100
AcDbEntity
  8
None
390
0
 62
               7
100
AcDbBlockReference
  2
layout pad
 10
31.890341599999992
 20
-121.45353155556947
 30
0.0
  0
INSERT
  5
20F
100
AcDbEntity
  8
None
390
0
 62
               7
100
AcDbBlockReference
  2
layout pad
 10
32.690341599999996
 20
-121.45353155556947
 30
0.0
  0
INSERT
  5
210
100
AcDbEntity
  8
None
390
0
 62
               7
100
AcDbBlockReference
  2
layout pad
 10
33.490341599999994
 20
-121.45353155556947
 30
0.0
  0
INSERT
  5
211
100
AcDbEntity
  8
None
390
0
 62
               7
100
AcDbBlockReference
  2
layout pad
 10
34.290341599999991
 20
-121.45353155556947
 30
0.0
  0
INSERT
  5
212
100
AcDbEntity
  8
None
390
0
 62
               7
100
AcDbBlockReference
  2
layout pad
 10
35.090341599999995
 20
-121.45353155556947
 30
0.0
  0
INSERT
  5
213
100
AcDbEntity
  8
None
390
0
 62
               7
100
AcDbBlockReference
  2
layout pad
 10
35.890341599999992
 20
-121.45353155556947
 30
0.0
  0
INSERT
  5
214
100
AcDbEntity
  8
None
390
0
 62
               7
100
AcDbBlockReference
  2
layout pad
 10
36.690341599999996
 20
-121.45353155556947
 30
0.0
  0
INSERT
  5
215
100
AcDbEntity
  8
None
390
0
 62
               7
100
AcDbBlockReference
  2
layout pad
 10
19.890341599999992
 20
-120.65353155556949
 30
0.0
  0
INSERT
  5
216
100
AcDbEntity
  8
None
390
0
 62
               7
100
AcDbBlockReference
  2
layout pad
 10
20.690341599999993
 20
-120.65353155556949
 30
0.0
  0
INSERT
  5
217
100
AcDbEntity
  8
None
390
0
 62
               7
100
AcDbBlockReference
  2
layout pad
 10
21.490341599999994
 20
-120.65353155556949
 30
0.0
  0
INSERT
  5
218
100
AcDbEntity
  8
None
390
0
 62
               7
100
AcDbBlockReference
  2
layout pad
 10
22.290341599999994
 20
-120.65353155556949
 30
0.0
  0
INSERT
  5
219
100
AcDbEntity
  8
None
390
0
 62
               7
100
AcDbBlockReference
  2
layout pad
 10
23.090341599999995
 20
-120.65353155556949
 30
0.0
  0
INSERT
  5
21A
100
AcDbEntity
  8
None
390
0
 62
               7
100
AcDbBlockReference
  2
layout pad
 10
23.890341599999992
 20
-120.65353155556949
 30
0.0
  0
INSERT
  5
21B
100
AcDbEntity
  8
None
390
0
 62
               7
100
AcDbBlockReference
  2
layout pad
 10
24.690341599999993
 20
-120.65353155556949
 30
0.0
  0
INSERT
  5
21C
100
AcDbEntity
  8
None
390
0
 62
               7
100
AcDbBlockReference
  2
layout pad
 10
25.490341599999994
 20
-120.65353155556949
 30
0.0
  0
INSERT
  5
21D
100
AcDbEntity
  8
None
390
0
 62
               7
100
AcDbBlockReference
  2
layout pad
 10
26.290341599999994
 20
-120.65353155556949
 30
0.0
  0
INSERT
  5
21E
100
AcDbEntity
  8
None
390
0
 62
               7
100
AcDbBlockReference
  2
layout pad
 10
27.090341599999995
 20
-120.65353155556949
 30
0.0
  0
INSERT
  5
21F
100
AcDbEntity
  8
None
390
0
 62
               7
100
AcDbBlockReference
  2
layout pad
 10
27.890341599999992
 20
-120.65353155556949
 30
0.0
  0
INSERT
  5
220
100
AcDbEntity
  8
None
390
0
 62
               7
100
AcDbBlockReference
  2
layout pad
 10
28.690341599999993
 20
-120.65353155556949
 30
0.0
  0
INSERT
  5
221
100
AcDbEntity
  8
None
390
0
 62
               7
100
AcDbBlockReference
  2
layout pad
 10
29.490341599999994
 20
-120.65353155556949
 30
0.0
  0
INSERT
  5
222
100
AcDbEntity
  8
None
390
0
 62
               7
100
AcDbBlockReference
  2
layout pad
 10
30.290341599999994
 20
-120.65353155556949
 30
0.0
  0
INSERT
  5
223
100
AcDbEntity
  8
None
390
0
 62
               7
100
AcDbBlockReference
  2
layout pad
 10
31.090341599999995
 20
-120.65353155556949
 30
0.0
  0
INSERT
  5
224
100
AcDbEntity
  8
None
390
0
 62
               7
100
AcDbBlockReference
  2
layout pad
 10
31.890341599999992
 20
-120.65353155556949
 30
0.0
  0
INSERT
  5
225
100
AcDbEntity
  8
None
390
0
 62
               7
100
AcDbBlockReference
  2
layout pad
 10
32.690341599999996
 20
-120.65353155556949
 30
0.0
  0
INSERT
  5
226
100
AcDbEntity
  8
None
390
0
 62
               7
100
AcDbBlockReference
  2
layout pad
 10
33.490341599999994
 20
-120.65353155556949
 30
0.0
  0
INSERT
  5
227
100
AcDbEntity
  8
None
390
0
 62
               7
100
AcDbBlockReference
  2
layout pad
 10
34.290341599999991
 20
-120.65353155556949
 30
0.0
  0
INSERT
  5
228
100
AcDbEntity
  8
None
390
0
 62
               7
100
AcDbBlockReference
  2
layout pad
 10
35.090341599999995
 20
-120.65353155556949
 30
0.0
  0
INSERT
  5
229
100
AcDbEntity
  8
None
390
0
 62
               7
100
AcDbBlockReference
  2
layout pad
 10
35.890341599999992
 20
-120.65353155556949
 30
0.0
  0
INSERT
  5
22A
100
AcDbEntity
  8
None
390
0
 62
               7
100
AcDbBlockReference
  2
layout pad
 10
36.690341599999996
 20
-120.65353155556949
 30
0.0
  0
INSERT
  5
22B
100
AcDbEntity
  8
None
390
0
 62
               7
100
AcDbBlockReference
  2
layout pad
 10
19.890341599999992
 20
-119.85353155556948
 30
0.0
  0
INSERT
  5
22C
100
AcDbEntity
  8
None
390
0
 62
               7
100
AcDbBlockReference
  2
layout pad
 10
20.690341599999993
 20
-119.85353155556948
 30
0.0
  0
INSERT
  5
22D
100
AcDbEntity
  8
None
390
0
 62
               7
100
AcDbBlockReference
  2
layout pad
 10
21.490341599999994
 20
-119.85353155556948
 30
0.0
  0
INSERT
  5
22E
100
AcDbEntity
  8
None
390
0
 62
               7
100
AcDbBlockReference
  2
layout pad
 10
22.290341599999994
 20
-119.85353155556948
 30
0.0
  0
INSERT
  5
22F
100
AcDbEntity
  8
None
390
0
 62
               7
100
AcDbBlockReference
  2
layout pad
 10
23.090341599999995
 20
-119.85353155556948
 30
0.0
  0
INSERT
  5
230
100
AcDbEntity
  8
None
390
0
 62
               7
100
AcDbBlockReference
  2
layout pad
 10
23.890341599999992
 20
-119.85353155556948
 30
0.0
  0
INSERT
  5
231
100
AcDbEntity
  8
None
390
0
 62
               7
100
AcDbBlockReference
  2
layout pad
 10
24.690341599999993
 20
-119.85353155556948
 30
0.0
  0
INSERT
  5
232
100
AcDbEntity
  8
None
390
0
 62
               7
100
AcDbBlockReference
  2
layout pad
 10
25.490341599999994
 20
-119.85353155556948
 30
0.0
  0
INSERT
  5
233
100
AcDbEntity
  8
None
390
0
 62
               7
100
AcDbBlockReference
  2
layout pad
 10
26.290341599999994
 20
-119.85353155556948
 30
0.0
  0
INSERT
  5
234
100
AcDbEntity
  8
None
390
0
 62
               7
100
AcDbBlockReference
  2
layout pad
 10
27.090341599999995
 20
-119.85353155556948
 30
0.0
  0
INSERT
  5
235
100
AcDbEntity
  8
None
390
0
 62
               7
100
AcDbBlockReference
  2
layout pad
 10
27.890341599999992
 20
-119.85353155556948
 30
0.0
  0
INSERT
  5
236
100
AcDbEntity
  8
None
390
0
 62
               7
100
AcDbBlockReference
  2
layout pad
 10
28.690341599999993
 20
-119.85353155556948
 30
0.0
  0
INSERT
  5
237
100
AcDbEntity
  8
None
390
0
 62
               7
100
AcDbBlockReference
  2
layout pad
 10
29.490341599999994
 20
-119.85353155556948
 30
0.0
  0
INSERT
  5
238
100
AcDbEntity
  8
None
390
0
 62
               7
100
AcDbBlockReference
  2
layout pad
 10
30.290341599999994
 20
-119.85353155556948
 30
0.0
  0
INSERT
  5
239
100
AcDbEntity
  8
None
390
0
 62
               7
100
AcDbBlockReference
  2
layout pad
 10
31.090341599999995
 20
-119.85353155556948
 30
0.0
  0
INSERT
  5
23A
100
AcDbEntity
  8
None
390
0
 62
               7
100
AcDbBlockReference
  2
layout pad
 10
31.890341599999992
 20
-119.85353155556948
 30
0.0
  0
INSERT
  5
23B
100
AcDbEntity
  8
None
390
0
 62
               7
100
AcDbBlockReference
  2
layout pad
 10
32.690341599999996
 20
-119.85353155556948
 30
0.0
  0
INSERT
  5
23C
100
AcDbEntity
  8
None
390
0
 62
               7
100
AcDbBlockReference
  2
layout pad
 10
33.490341599999994
 20
-119.85353155556948
 30
0.0
  0
INSERT
  5
23D
100
AcDbEntity
  8
None
390
0
 62
               7
100
AcDbBlockReference
  2
layout pad
 10
34.290341599999991
 20
-119.85353155556948
 30
0.0
  0
INSERT
  5
23E
100
AcDbEntity
  8
None
390
0
 62
               7
100
AcDbBlockReference
  2
layout pad
 10
35.090341599999995
 20
-119.85353155556948
 30
0.0
  0
INSERT
  5
23F
100
AcDbEntity
  8
None
390
0
 62
               7
100
AcDbBlockReference
  2
layout pad
 10
35.890341599999992
 20
-119.85353155556948
 30
0.0
  0
INSERT
  5
240
100
AcDbEntity
  8
None
390
0
 62
               7
100
AcDbBlockReference
  2
layout pad
 10
36.690341599999996
 20
-119.85353155556948
 30
0.0
  0
INSERT
  5
241
100
AcDbEntity
  8
None
390
0
 62
               7
100
AcDbBlockReference
  2
layout pad
 10
19.890341599999992
 20
-119.05353155556948
 30
0.0
  0
INSERT
  5
242
100
AcDbEntity
  8
None
390
0
 62
               7
100
AcDbBlockReference
  2
layout pad
 10
20.690341599999993
 20
-119.05353155556948
 30
0.0
  0
INSERT
  5
243
100
AcDbEntity
  8
None
390
0
 62
               7
100
AcDbBlockReference
  2
layout pad
 10
21.490341599999994
 20
-119.05353155556948
 30
0.0
  0
INSERT
  5
244
100
AcDbEntity
  8
None
390
0
 62
               7
100
AcDbBlockReference
  2
layout pad
 10
22.290341599999994
 20
-119.05353155556948
 30
0.0
  0
INSERT
  5
245
100
AcDbEntity
  8
None
390
0
 62
               7
100
AcDbBlockReference
  2
layout pad
 10
23.090341599999995
 20
-119.05353155556948
 30
0.0
  0
INSERT
  5
246
100
AcDbEntity
  8
None
390
0
 62
               7
100
AcDbBlockReference
  2
layout pad
 10
23.890341599999992
 20
-119.05353155556948
 30
0.0
  0
INSERT
  5
247
100
AcDbEntity
  8
None
390
0
 62
               7
100
AcDbBlockReference
  2
layout pad
 10
24.690341599999993
 20
-119.05353155556948
 30
0.0
  0
INSERT
  5
248
100
AcDbEntity
  8
None
390
0
 62
               7
100
AcDbBlockReference
  2
layout pad
 10
25.490341599999994
 20
-119.05353155556948
 30
0.0
  0
INSERT
  5
249
100
AcDbEntity
  8
None
390
0
 62
               7
100
AcDbBlockReference
  2
layout pad
 10
26.290341599999994
 20
-119.05353155556948
 30
0.0
  0
INSERT
  5
24A
100
AcDbEntity
  8
None
390
0
 62
               7
100
AcDbBlockReference
  2
layout pad
 10
27.090341599999995
 20
-119.05353155556948
 30
0.0
  0
INSERT
  5
24B
100
AcDbEntity
  8
None
390
0
 62
               7
100
AcDbBlockReference
  2
layout pad
 10
27.890341599999992
 20
-119.05353155556948
 30
0.0
  0
INSERT
  5
24C
100
AcDbEntity
  8
None
390
0
 62
               7
100
AcDbBlockReference
  2
layout pad
 10
28.690341599999993
 20
-119.05353155556948
 30
0.0
  0
INSERT
  5
24D
100
AcDbEntity
  8
None
390
0
 62
               7
100
AcDbBlockReference
  2
layout pad
 10
29.490341599999994
 20
-119.05353155556948
 30
0.0
  0
INSERT
  5
24E
100
AcDbEntity
  8
None
390
0
 62
               7
100
AcDbBlockReference
  2
layout pad
 10
30.290341599999994
 20
-119.05353155556948
 30
0.0
  0
INSERT
  5
24F
100
AcDbEntity
  8
None
390
0
 62
               7
100
AcDbBlockReference
  2
layout pad
 10
31.090341599999995
 20
-119.05353155556948
 30
0.0
  0
INSERT
  5
250
100
AcDbEntity
  8
None
390
0
 62
               7
100
AcDbBlockReference
  2
layout pad
 10
31.890341599999992
 20
-119.05353155556948
 30
0.0
  0
INSERT
  5
251
100
AcDbEntity
  8
None
390
0
 62
               7
100
AcDbBlockReference
  2
layout pad
 10
32.690341599999996
 20
-119.05353155556948
 30
0.0
  0
INSERT
  5
252
100
AcDbEntity
  8
None
390
0
 62
               7
100
AcDbBlockReference
  2
layout pad
 10
33.490341599999994
 20
-119.05353155556948
 30
0.0
  0
INSERT
  5
253
100
AcDbEntity
  8
None
390
0
 62
               7
100
AcDbBlockReference
  2
layout pad
 10
34.290341599999991
 20
-119.05353155556948
 30
0.0
  0
INSERT
  5
254
100
AcDbEntity
  8
None
390
0
 62
               7
100
AcDbBlockReference
  2
layout pad
 10
35.090341599999995
 20
-119.05353155556948
 30
0.0
  0
INSERT
  5
255
100
AcDbEntity
  8
None
390
0
 62
               7
100
AcDbBlockReference
  2
layout pad
 10
35.890341599999992
 20
-119.05353155556948
 30
0.0
  0
INSERT
  5
256
100
AcDbEntity
  8
None
390
0
 62
               7
100
AcDbBlockReference
  2
layout pad
 10
36.690341599999996
 20
-119.05353155556948
 30
0.0
  0
INSERT
  5
257
100
AcDbEntity
  8
None
390
0
 62
               7
100
AcDbBlockReference
  2
layout pad
 10
19.890341599999992
 20
-118.25353155556948
 30
0.0
  0
INSERT
  5
258
100
AcDbEntity
  8
None
390
0
 62
               7
100
AcDbBlockReference
  2
layout pad
 10
20.690341599999993
 20
-118.25353155556948
 30
0.0
  0
INSERT
  5
259
100
AcDbEntity
  8
None
390
0
 62
               7
100
AcDbBlockReference
  2
layout pad
 10
21.490341599999994
 20
-118.25353155556948
 30
0.0
  0
INSERT
  5
25A
100
AcDbEntity
  8
None
390
0
 62
               7
100
AcDbBlockReference
  2
layout pad
 10
22.290341599999994
 20
-118.25353155556948
 30
0.0
  0
INSERT
  5
25B
100
AcDbEntity
  8
None
390
0
 62
               7
100
AcDbBlockReference
  2
layout pad
 10
23.090341599999995
 20
-118.25353155556948
 30
0.0
  0
INSERT
  5
25C
100
AcDbEntity
  8
None
390
0
 62
               7
100
AcDbBlockReference
  2
layout pad
 10
23.890341599999992
 20
-118.25353155556948
 30
0.0
  0
INSERT
  5
25D
100
AcDbEntity
  8
None
390
0
 62
               7
100
AcDbBlockReference
  2
layout pad
 10
24.690341599999993
 20
-118.25353155556948
 30
0.0
  0
INSERT
  5
25E
100
AcDbEntity
  8
None
390
0
 62
               7
100
AcDbBlockReference
  2
layout pad
 10
25.490341599999994
 20
-118.25353155556948
 30
0.0
  0
INSERT
  5
25F
100
AcDbEntity
  8
None
390
0
 62
               7
100
AcDbBlockReference
  2
layout pad
 10
26.290341599999994
 20
-118.25353155556948
 30
0.0
  0
INSERT
  5
260
100
AcDbEntity
  8
None
390
0
 62
               7
100
AcDbBlockReference
  2
layout pad
 10
27.090341599999995
 20
-118.25353155556948
 30
0.0
  0
INSERT
  5
261
100
AcDbEntity
  8
None
390
0
 62
               7
100
AcDbBlockReference
  2
layout pad
 10
27.890341599999992
 20
-118.25353155556948
 30
0.0
  0
INSERT
  5
262
100
AcDbEntity
  8
None
390
0
 62
               7
100
AcDbBlockReference
  2
layout pad
 10
28.690341599999993
 20
-118.25353155556948
 30
0.0
  0
INSERT
  5
263
100
AcDbEntity
  8
None
390
0
 62
               7
100
AcDbBlockReference
  2
layout pad
 10
29.490341599999994
 20
-118.25353155556948
 30
0.0
  0
INSERT
  5
264
100
AcDbEntity
  8
None
390
0
 62
               7
100
AcDbBlockReference
  2
layout pad
 10
30.290341599999994
 20
-118.25353155556948
 30
0.0
  0
INSERT
  5
265
100
AcDbEntity
  8
None
390
0
 62
               7
100
AcDbBlockReference
  2
layout pad
 10
31.090341599999995
 20
-118.25353155556948
 30
0.0
  0
INSERT
  5
266
100
AcDbEntity
  8
None
390
0
 62
               7
100
AcDbBlockReference
  2
layout pad
 10
31.890341599999992
 20
-118.25353155556948
 30
0.0
  0
INSERT
  5
267
100
AcDbEntity
  8
None
390
0
 62
               7
100
AcDbBlockReference
  2
layout pad
 10
32.690341599999996
 20
-118.25353155556948
 30
0.0
  0
INSERT
  5
268
100
AcDbEntity
  8
None
390
0
 62
               7
100
AcDbBlockReference
  2
layout pad
 10
33.490341599999994
 20
-118.25353155556948
 30
0.0
  0
INSERT
  5
269
100
AcDbEntity
  8
None
390
0
 62
               7
100
AcDbBlockReference
  2
layout pad
 10
34.290341599999991
 20
-118.25353155556948
 30
0.0
  0
INSERT
  5
26A
100
AcDbEntity
  8
None
390
0
 62
               7
100
AcDbBlockReference
  2
layout pad
 10
35.090341599999995
 20
-118.25353155556948
 30
0.0
  0
INSERT
  5
26B
100
AcDbEntity
  8
None
390
0
 62
               7
100
AcDbBlockReference
  2
layout pad
 10
35.890341599999992
 20
-118.25353155556948
 30
0.0
  0
INSERT
  5
26C
100
AcDbEntity
  8
None
390
0
 62
               7
100
AcDbBlockReference
  2
layout pad
 10
36.690341599999996
 20
-118.25353155556948
 30
0.0
  0
INSERT
  5
26D
100
AcDbEntity
  8
None
390
0
 62
               7
100
AcDbBlockReference
  2
layout pad
 10
19.890341599999992
 20
-117.45353155556948
 30
0.0
  0
INSERT
  5
26E
100
AcDbEntity
  8
None
390
0
 62
               7
100
AcDbBlockReference
  2
layout pad
 10
20.690341599999993
 20
-117.45353155556948
 30
0.0
  0
INSERT
  5
26F
100
AcDbEntity
  8
None
390
0
 62
               7
100
AcDbBlockReference
  2
layout pad
 10
21.490341599999994
 20
-117.45353155556948
 30
0.0
  0
INSERT
  5
270
100
AcDbEntity
  8
None
390
0
 62
               7
100
AcDbBlockReference
  2
layout pad
 10
22.290341599999994
 20
-117.45353155556948
 30
0.0
  0
INSERT
  5
271
100
AcDbEntity
  8
None
390
0
 62
               7
100
AcDbBlockReference
  2
layout pad
 10
23.090341599999995
 20
-117.45353155556948
 30
0.0
  0
INSERT
  5
272
100
AcDbEntity
  8
None
390
0
 62
               7
100
AcDbBlockReference
  2
layout pad
 10
23.890341599999992
 20
-117.45353155556948
 30
0.0
  0
INSERT
  5
273
100
AcDbEntity
  8
None
390
0
 62
               7
100
AcDbBlockReference
  2
layout pad
 10
24.690341599999993
 20
-117.45353155556948
 30
0.0
  0
INSERT
  5
274
100
AcDbEntity
  8
None
390
0
 62
               7
100
AcDbBlockReference
  2
layout pad
 10
25.490341599999994
 20
-117.45353155556948
 30
0.0
  0
INSERT
  5
275
100
AcDbEntity
  8
None
390
0
 62
               7
100
AcDbBlockReference
  2
layout pad
 10
26.290341599999994
 20
-117.45353155556948
 30
0.0
  0
INSERT
  5
276
100
AcDbEntity
  8
None
390
0
 62
               7
100
AcDbBlockReference
  2
layout pad
 10
27.090341599999995
 20
-117.45353155556948
 30
0.0
  0
INSERT
  5
277
100
AcDbEntity
  8
None
390
0
 62
               7
100
AcDbBlockReference
  2
layout pad
 10
27.890341599999992
 20
-117.45353155556948
 30
0.0
  0
INSERT
  5
278
100
AcDbEntity
  8
None
390
0
 62
               7
100
AcDbBlockReference
  2
layout pad
 10
28.690341599999993
 20
-117.45353155556948
 30
0.0
  0
INSERT
  5
279
100
AcDbEntity
  8
None
390
0
 62
               7
100
AcDbBlockReference
  2
layout pad
 10
29.490341599999994
 20
-117.45353155556948
 30
0.0
  0
INSERT
  5
27A
100
AcDbEntity
  8
None
390
0
 62
               7
100
AcDbBlockReference
  2
layout pad
 10
30.290341599999994
 20
-117.45353155556948
 30
0.0
  0
INSERT
  5
27B
100
AcDbEntity
  8
None
390
0
 62
               7
100
AcDbBlockReference
  2
layout pad
 10
31.090341599999995
 20
-117.45353155556948
 30
0.0
  0
INSERT
  5
27C
100
AcDbEntity
  8
None
390
0
 62
               7
100
AcDbBlockReference
  2
layout pad
 10
31.890341599999992
 20
-117.45353155556948
 30
0.0
  0
INSERT
  5
27D
100
AcDbEntity
  8
None
390
0
 62
               7
100
AcDbBlockReference
  2
layout pad
 10
32.690341599999996
 20
-117.45353155556948
 30
0.0
  0
INSERT
  5
27E
100
AcDbEntity
  8
None
390
0
 62
               7
100
AcDbBlockReference
  2
layout pad
 10
33.490341599999994
 20
-117.45353155556948
 30
0.0
  0
INSERT
  5
27F
100
AcDbEntity
  8
None
390
0
 62
               7
100
AcDbBlockReference
  2
layout pad
 10
34.290341599999991
 20
-117.45353155556948
 30
0.0
  0
INSERT
  5
280
100
AcDbEntity
  8
None
390
0
 62
               7
100
AcDbBlockReference
  2
layout pad
 10
35.090341599999995
 20
-117.45353155556948
 30
0.0
  0
INSERT
  5
281
100
AcDbEntity
  8
None
390
0
 62
               7
100
AcDbBlockReference
  2
layout pad
 10
35.890341599999992
 20
-117.45353155556948
 30
0.0
  0
INSERT
  5
282
100
AcDbEntity
  8
None
390
0
 62
               7
100
AcDbBlockReference
  2
layout pad
 10
36.690341599999996
 20
-117.45353155556948
 30
0.0
  0
INSERT
  5
283
100
AcDbEntity
  8
None
390
0
 62
               7
100
AcDbBlockReference
  2
layout pad
 10
19.890341599999992
 20
-116.65353155556949
 30
0.0
  0
INSERT
  5
284
100
AcDbEntity
  8
None
390
0
 62
               7
100
AcDbBlockReference
  2
layout pad
 10
20.690341599999993
 20
-116.65353155556949
 30
0.0
  0
INSERT
  5
285
100
AcDbEntity
  8
None
390
0
 62
               7
100
AcDbBlockReference
  2
layout pad
 10
21.490341599999994
 20
-116.65353155556949
 30
0.0
  0
INSERT
  5
286
100
AcDbEntity
  8
None
390
0
 62
               7
100
AcDbBlockReference
  2
layout pad
 10
22.290341599999994
 20
-116.65353155556949
 30
0.0
  0
INSERT
  5
287
100
AcDbEntity
  8
None
390
0
 62
               7
100
AcDbBlockReference
  2
layout pad
 10
23.090341599999995
 20
-116.65353155556949
 30
0.0
  0
INSERT
  5
288
100
AcDbEntity
  8
None
390
0
 62
               7
100
AcDbBlockReference
  2
layout pad
 10
23.890341599999992
 20
-116.65353155556949
 30
0.0
  0
INSERT
  5
289
100
AcDbEntity
  8
None
390
0
 62
               7
100
AcDbBlockReference
  2
layout pad
 10
24.690341599999993
 20
-116.65353155556949
 30
0.0
  0
INSERT
  5
28A
100
AcDbEntity
  8
None
390
0
 62
               7
100
AcDbBlockReference
  2
layout pad
 10
25.490341599999994
 20
-116.65353155556949
 30
0.0
  0
INSERT
  5
28B
100
AcDbEntity
  8
None
390
0
 62
               7
100
AcDbBlockReference
  2
layout pad
 10
26.290341599999994
 20
-116.65353155556949
 30
0.0
  0
INSERT
  5
28C
100
AcDbEntity
  8
None
390
0
 62
               7
100
AcDbBlockReference
  2
layout pad
 10
27.090341599999995
 20
-116.65353155556949
 30
0.0
  0
INSERT
  5
28D
100
AcDbEntity
  8
None
390
0
 62
               7
100
AcDbBlockReference
  2
layout pad
 10
27.890341599999992
 20
-116.65353155556949
 30
0.0
  0
INSERT
  5
28E
100
AcDbEntity
  8
None
390
0
 62
               7
100
AcDbBlockReference
  2
layout pad
 10
28.690341599999993
 20
-116.65353155556949
 30
0.0
  0
INSERT
  5
28F
100
AcDbEntity
  8
None
390
0
 62
               7
100
AcDbBlockReference
  2
layout pad
 10
29.490341599999994
 20
-116.65353155556949
 30
0.0
  0
INSERT
  5
290
100
AcDbEntity
  8
None
390
0
 62
               7
100
AcDbBlockReference
  2
layout pad
 10
30.290341599999994
 20
-116.65353155556949
 30
0.0
  0
INSERT
  5
291
100
AcDbEntity
  8
None
390
0
 62
               7
100
AcDbBlockReference
  2
layout pad
 10
31.090341599999995
 20
-116.65353155556949
 30
0.0
  0
INSERT
  5
292
100
AcDbEntity
  8
None
390
0
 62
               7
100
AcDbBlockReference
  2
layout pad
 10
31.890341599999992
 20
-116.65353155556949
 30
0.0
  0
INSERT
  5
293
100
AcDbEntity
  8
None
390
0
 62
               7
100
AcDbBlockReference
  2
layout pad
 10
32.690341599999996
 20
-116.65353155556949
 30
0.0
  0
INSERT
  5
294
100
AcDbEntity
  8
None
390
0
 62
               7
100
AcDbBlockReference
  2
layout pad
 10
33.490341599999994
 20
-116.65353155556949
 30
0.0
  0
INSERT
  5
295
100
AcDbEntity
  8
None
390
0
 62
               7
100
AcDbBlockReference
  2
layout pad
 10
34.290341599999991
 20
-116.65353155556949
 30
0.0
  0
INSERT
  5
296
100
AcDbEntity
  8
None
390
0
 62
               7
100
AcDbBlockReference
  2
layout pad
 10
35.090341599999995
 20
-116.65353155556949
 30
0.0
  0
INSERT
  5
297
100
AcDbEntity
  8
None
390
0
 62
               7
100
AcDbBlockReference
  2
layout pad
 10
35.890341599999992
 20
-116.65353155556949
 30
0.0
  0
INSERT
  5
298
100
AcDbEntity
  8
None
390
0
 62
               7
100
AcDbBlockReference
  2
layout pad
 10
36.690341599999996
 20
-116.65353155556949
 30
0.0
  0
INSERT
  5
299
100
AcDbEntity
  8
None
390
0
 62
               7
100
AcDbBlockReference
  2
layout pad
 10
19.890341599999992
 20
-115.85353155556949
 30
0.0
  0
INSERT
  5
29A
100
AcDbEntity
  8
None
390
0
 62
               7
100
AcDbBlockReference
  2
layout pad
 10
20.690341599999993
 20
-115.85353155556949
 30
0.0
  0
INSERT
  5
29B
100
AcDbEntity
  8
None
390
0
 62
               7
100
AcDbBlockReference
  2
layout pad
 10
21.490341599999994
 20
-115.85353155556949
 30
0.0
  0
INSERT
  5
29C
100
AcDbEntity
  8
None
390
0
 62
               7
100
AcDbBlockReference
  2
layout pad
 10
22.290341599999994
 20
-115.85353155556949
 30
0.0
  0
INSERT
  5
29D
100
AcDbEntity
  8
None
390
0
 62
               7
100
AcDbBlockReference
  2
layout pad
 10
23.090341599999995
 20
-115.85353155556949
 30
0.0
  0
INSERT
  5
29E
100
AcDbEntity
  8
None
390
0
 62
               7
100
AcDbBlockReference
  2
layout pad
 10
23.890341599999992
 20
-115.85353155556949
 30
0.0
  0
INSERT
  5
29F
100
AcDbEntity
  8
None
390
0
 62
               7
100
AcDbBlockReference
  2
layout pad
 10
24.690341599999993
 20
-115.85353155556949
 30
0.0
  0
INSERT
  5
2A0
100
AcDbEntity
  8
None
390
0
 62
               7
100
AcDbBlockReference
  2
layout pad
 10
25.490341599999994
 20
-115.85353155556949
 30
0.0
  0
INSERT
  5
2A1
100
AcDbEntity
  8
None
390
0
 62
               7
100
AcDbBlockReference
  2
layout pad
 10
26.290341599999994
 20
-115.85353155556949
 30
0.0
  0
INSERT
  5
2A2
100
AcDbEntity
  8
None
390
0
 62
               7
100
AcDbBlockReference
  2
layout pad
 10
27.090341599999995
 20
-115.85353155556949
 30
0.0
  0
INSERT
  5
2A3
100
AcDbEntity
  8
None
390
0
 62
               7
100
AcDbBlockReference
  2
layout pad
 10
27.890341599999992
 20
-115.85353155556949
 30
0.0
  0
INSERT
  5
2A4
100
AcDbEntity
  8
None
390
0
 62
               7
100
AcDbBlockReference
  2
layout pad
 10
28.690341599999993
 20
-115.85353155556949
 30
0.0
  0
INSERT
  5
2A5
100
AcDbEntity
  8
None
390
0
 62
               7
100
AcDbBlockReference
  2
layout pad
 10
29.490341599999994
 20
-115.85353155556949
 30
0.0
  0
INSERT
  5
2A6
100
AcDbEntity
  8
None
390
0
 62
               7
100
AcDbBlockReference
  2
layout pad
 10
30.290341599999994
 20
-115.85353155556949
 30
0.0
  0
INSERT
  5
2A7
100
AcDbEntity
  8
None
390
0
 62
               7
100
AcDbBlockReference
  2
layout pad
 10
31.090341599999995
 20
-115.85353155556949
 30
0.0
  0
INSERT
  5
2A8
100
AcDbEntity
  8
None
390
0
 62
               7
100
AcDbBlockReference
  2
layout pad
 10
31.890341599999992
 20
-115.85353155556949
 30
0.0
  0
INSERT
  5
2A9
100
AcDbEntity
  8
None
390
0
 62
               7
100
AcDbBlockReference
  2
layout pad
 10
32.690341599999996
 20
-115.85353155556949
 30
0.0
  0
INSERT
  5
2AA
100
AcDbEntity
  8
None
390
0
 62
               7
100
AcDbBlockReference
  2
layout pad
 10
33.490341599999994
 20
-115.85353155556949
 30
0.0
  0
INSERT
  5
2AB
100
AcDbEntity
  8
None
390
0
 62
               7
100
AcDbBlockReference
  2
layout pad
 10
34.290341599999991
 20
-115.85353155556949
 30
0.0
  0
INSERT
  5
2AC
100
AcDbEntity
  8
None
390
0
 62
               7
100
AcDbBlockReference
  2
layout pad
 10
35.090341599999995
 20
-115.85353155556949
 30
0.0
  0
INSERT
  5
2AD
100
AcDbEntity
  8
None
390
0
 62
               7
100
AcDbBlockReference
  2
layout pad
 10
35.890341599999992
 20
-115.85353155556949
 30
0.0
  0
INSERT
  5
2AE
100
AcDbEntity
  8
None
390
0
 62
               7
100
AcDbBlockReference
  2
layout pad
 10
36.690341599999996
 20
-115.85353155556949
 30
0.0
  0
INSERT
  5
2AF
100
AcDbEntity
  8
None
390
0
 62
               7
100
AcDbBlockReference
  2
layout pad
 10
19.890341599999992
 20
-115.05353155556949
 30
0.0
  0
INSERT
  5
2B0
100
AcDbEntity
  8
None
390
0
 62
               7
100
AcDbBlockReference
  2
layout pad
 10
20.690341599999993
 20
-115.05353155556949
 30
0.0
  0
INSERT
  5
2B1
100
AcDbEntity
  8
None
390
0
 62
               7
100
AcDbBlockReference
  2
layout pad
 10
21.490341599999994
 20
-115.05353155556949
 30
0.0
  0
INSERT
  5
2B2
100
AcDbEntity
  8
None
390
0
 62
               7
100
AcDbBlockReference
  2
layout pad
 10
22.290341599999994
 20
-115.05353155556949
 30
0.0
  0
INSERT
  5
2B3
100
AcDbEntity
  8
None
390
0
 62
               7
100
AcDbBlockReference
  2
layout pad
 10
23.090341599999995
 20
-115.05353155556949
 30
0.0
  0
INSERT
  5
2B4
100
AcDbEntity
  8
None
390
0
 62
               7
100
AcDbBlockReference
  2
layout pad
 10
23.890341599999992
 20
-115.05353155556949
 30
0.0
  0
INSERT
  5
2B5
100
AcDbEntity
  8
None
390
0
 62
               7
100
AcDbBlockReference
  2
layout pad
 10
24.690341599999993
 20
-115.05353155556949
 30
0.0
  0
INSERT
  5
2B6
100
AcDbEntity
  8
None
390
0
 62
               7
100
AcDbBlockReference
  2
layout pad
 10
25.490341599999994
 20
-115.05353155556949
 30
0.0
  0
INSERT
  5
2B7
100
AcDbEntity
  8
None
390
0
 62
               7
100
AcDbBlockReference
  2
layout pad
 10
26.290341599999994
 20
-115.05353155556949
 30
0.0
  0
INSERT
  5
2B8
100
AcDbEntity
  8
None
390
0
 62
               7
100
AcDbBlockReference
  2
layout pad
 10
27.090341599999995
 20
-115.05353155556949
 30
0.0
  0
INSERT
  5
2B9
100
AcDbEntity
  8
None
390
0
 62
               7
100
AcDbBlockReference
  2
layout pad
 10
27.890341599999992
 20
-115.05353155556949
 30
0.0
  0
INSERT
  5
2BA
100
AcDbEntity
  8
None
390
0
 62
               7
100
AcDbBlockReference
  2
layout pad
 10
28.690341599999993
 20
-115.05353155556949
 30
0.0
  0
INSERT
  5
2BB
100
AcDbEntity
  8
None
390
0
 62
               7
100
AcDbBlockReference
  2
layout pad
 10
29.490341599999994
 20
-115.05353155556949
 30
0.0
  0
INSERT
  5
2BC
100
AcDbEntity
  8
None
390
0
 62
               7
100
AcDbBlockReference
  2
layout pad
 10
30.290341599999994
 20
-115.05353155556949
 30
0.0
  0
INSERT
  5
2BD
100
AcDbEntity
  8
None
390
0
 62
               7
100
AcDbBlockReference
  2
layout pad
 10
31.090341599999995
 20
-115.05353155556949
 30
0.0
  0
INSERT
  5
2BE
100
AcDbEntity
  8
None
390
0
 62
               7
100
AcDbBlockReference
  2
layout pad
 10
31.890341599999992
 20
-115.05353155556949
 30
0.0
  0
INSERT
  5
2BF
100
AcDbEntity
  8
None
390
0
 62
               7
100
AcDbBlockReference
  2
layout pad
 10
32.690341599999996
 20
-115.05353155556949
 30
0.0
  0
INSERT
  5
2C0
100
AcDbEntity
  8
None
390
0
 62
               7
100
AcDbBlockReference
  2
layout pad
 10
33.490341599999994
 20
-115.05353155556949
 30
0.0
  0
INSERT
  5
2C1
100
AcDbEntity
  8
None
390
0
 62
               7
100
AcDbBlockReference
  2
layout pad
 10
34.290341599999991
 20
-115.05353155556949
 30
0.0
  0
INSERT
  5
2C2
100
AcDbEntity
  8
None
390
0
 62
               7
100
AcDbBlockReference
  2
layout pad
 10
35.090341599999995
 20
-115.05353155556949
 30
0.0
  0
INSERT
  5
2C3
100
AcDbEntity
  8
None
390
0
 62
               7
100
AcDbBlockReference
  2
layout pad
 10
35.890341599999992
 20
-115.05353155556949
 30
0.0
  0
INSERT
  5
2C4
100
AcDbEntity
  8
None
390
0
 62
               7
100
AcDbBlockReference
  2
layout pad
 10
36.690341599999996
 20
-115.05353155556949
 30
0.0
  0
INSERT
  5
2C5
100
AcDbEntity
  8
None
390
0
 62
               7
100
AcDbBlockReference
  2
layout pad
 10
19.890341599999992
 20
-114.2535315555695
 30
0.0
  0
INSERT
  5
2C6
100
AcDbEntity
  8
None
390
0
 62
               7
100
AcDbBlockReference
  2
layout pad
 10
20.690341599999993
 20
-114.2535315555695
 30
0.0
  0
INSERT
  5
2C7
100
AcDbEntity
  8
None
390
0
 62
               7
100
AcDbBlockReference
  2
layout pad
 10
21.490341599999994
 20
-114.2535315555695
 30
0.0
  0
INSERT
  5
2C8
100
AcDbEntity
  8
None
390
0
 62
               7
100
AcDbBlockReference
  2
layout pad
 10
22.290341599999994
 20
-114.2535315555695
 30
0.0
  0
INSERT
  5
2C9
100
AcDbEntity
  8
None
390
0
 62
               7
100
AcDbBlockReference
  2
layout pad
 10
23.090341599999995
 20
-114.2535315555695
 30
0.0
  0
INSERT
  5
2CA
100
AcDbEntity
  8
None
390
0
 62
               7
100
AcDbBlockReference
  2
layout pad
 10
23.890341599999992
 20
-114.2535315555695
 30
0.0
  0
INSERT
  5
2CB
100
AcDbEntity
  8
None
390
0
 62
               7
100
AcDbBlockReference
  2
layout pad
 10
24.690341599999993
 20
-114.2535315555695
 30
0.0
  0
INSERT
  5
2CC
100
AcDbEntity
  8
None
390
0
 62
               7
100
AcDbBlockReference
  2
layout pad
 10
25.490341599999994
 20
-114.2535315555695
 30
0.0
  0
INSERT
  5
2CD
100
AcDbEntity
  8
None
390
0
 62
               7
100
AcDbBlockReference
  2
layout pad
 10
26.290341599999994
 20
-114.2535315555695
 30
0.0
  0
INSERT
  5
2CE
100
AcDbEntity
  8
None
390
0
 62
               7
100
AcDbBlockReference
  2
layout pad
 10
27.090341599999995
 20
-114.2535315555695
 30
0.0
  0
INSERT
  5
2CF
100
AcDbEntity
  8
None
390
0
 62
               7
100
AcDbBlockReference
  2
layout pad
 10
27.890341599999992
 20
-114.2535315555695
 30
0.0
  0
INSERT
  5
2D0
100
AcDbEntity
  8
None
390
0
 62
               7
100
AcDbBlockReference
  2
layout pad
 10
28.690341599999993
 20
-114.2535315555695
 30
0.0
  0
INSERT
  5
2D1
100
AcDbEntity
  8
None
390
0
 62
               7
100
AcDbBlockReference
  2
layout pad
 10
29.490341599999994
 20
-114.2535315555695
 30
0.0
  0
INSERT
  5
2D2
100
AcDbEntity
  8
None
390
0
 62
               7
100
AcDbBlockReference
  2
layout pad
 10
30.290341599999994
 20
-114.2535315555695
 30
0.0
  0
INSERT
  5
2D3
100
AcDbEntity
  8
None
390
0
 62
               7
100
AcDbBlockReference
  2
layout pad
 10
31.090341599999995
 20
-114.2535315555695
 30
0.0
  0
INSERT
  5
2D4
100
AcDbEntity
  8
None
390
0
 62
               7
100
AcDbBlockReference
  2
layout pad
 10
31.890341599999992
 20
-114.2535315555695
 30
0.0
  0
INSERT
  5
2D5
100
AcDbEntity
  8
None
390
0
 62
               7
100
AcDbBlockReference
  2
layout pad
 10
32.690341599999996
 20
-114.2535315555695
 30
0.0
  0
INSERT
  5
2D6
100
AcDbEntity
  8
None
390
0
 62
               7
100
AcDbBlockReference
  2
layout pad
 10
33.490341599999994
 20
-114.2535315555695
 30
0.0
  0
INSERT
  5
2D7
100
AcDbEntity
  8
None
390
0
 62
               7
100
AcDbBlockReference
  2
layout pad
 10
34.290341599999991
 20
-114.2535315555695
 30
0.0
  0
INSERT
  5
2D8
100
AcDbEntity
  8
None
390
0
 62
               7
100
AcDbBlockReference
  2
layout pad
 10
35.090341599999995
 20
-114.2535315555695
 30
0.0
  0
INSERT
  5
2D9
100
AcDbEntity
  8
None
390
0
 62
               7
100
AcDbBlockReference
  2
layout pad
 10
35.890341599999992
 20
-114.2535315555695
 30
0.0
  0
INSERT
  5
2DA
100
AcDbEntity
  8
None
390
0
 62
               7
100
AcDbBlockReference
  2
layout pad
 10
36.690341599999996
 20
-114.2535315555695
 30
0.0
  0
INSERT
  5
2DB
100
AcDbEntity
  8
None
390
0
 62
               7
100
AcDbBlockReference
  2
layout pad
 10
19.890341599999992
 20
-113.4535315555695
 30
0.0
  0
INSERT
  5
2DC
100
AcDbEntity
  8
None
390
0
 62
               7
100
AcDbBlockReference
  2
layout pad
 10
20.690341599999993
 20
-113.4535315555695
 30
0.0
  0
INSERT
  5
2DD
100
AcDbEntity
  8
None
390
0
 62
               7
100
AcDbBlockReference
  2
layout pad
 10
21.490341599999994
 20
-113.4535315555695
 30
0.0
  0
INSERT
  5
2DE
100
AcDbEntity
  8
None
390
0
 62
               7
100
AcDbBlockReference
  2
layout pad
 10
22.290341599999994
 20
-113.4535315555695
 30
0.0
  0
INSERT
  5
2DF
100
AcDbEntity
  8
None
390
0
 62
               7
100
AcDbBlockReference
  2
layout pad
 10
23.090341599999995
 20
-113.4535315555695
 30
0.0
  0
INSERT
  5
2E0
100
AcDbEntity
  8
None
390
0
 62
               7
100
AcDbBlockReference
  2
layout pad
 10
23.890341599999992
 20
-113.4535315555695
 30
0.0
  0
INSERT
  5
2E1
100
AcDbEntity
  8
None
390
0
 62
               7
100
AcDbBlockReference
  2
layout pad
 10
24.690341599999993
 20
-113.4535315555695
 30
0.0
  0
INSERT
  5
2E2
100
AcDbEntity
  8
None
390
0
 62
               7
100
AcDbBlockReference
  2
layout pad
 10
25.490341599999994
 20
-113.4535315555695
 30
0.0
  0
INSERT
  5
2E3
100
AcDbEntity
  8
None
390
0
 62
               7
100
AcDbBlockReference
  2
layout pad
 10
26.290341599999994
 20
-113.4535315555695
 30
0.0
  0
INSERT
  5
2E4
100
AcDbEntity
  8
None
390
0
 62
               7
100
AcDbBlockReference
  2
layout pad
 10
27.090341599999995
 20
-113.4535315555695
 30
0.0
  0
INSERT
  5
2E5
100
AcDbEntity
  8
None
390
0
 62
               7
100
AcDbBlockReference
  2
layout pad
 10
27.890341599999992
 20
-113.4535315555695
 30
0.0
  0
INSERT
  5
2E6
100
AcDbEntity
  8
None
390
0
 62
               7
100
AcDbBlockReference
  2
layout pad
 10
28.690341599999993
 20
-113.4535315555695
 30
0.0
  0
INSERT
  5
2E7
100
AcDbEntity
  8
None
390
0
 62
               7
100
AcDbBlockReference
  2
layout pad
 10
29.490341599999994
 20
-113.4535315555695
 30
0.0
  0
INSERT
  5
2E8
100
AcDbEntity
  8
None
390
0
 62
               7
100
AcDbBlockReference
  2
layout pad
 10
30.290341599999994
 20
-113.4535315555695
 30
0.0
  0
INSERT
  5
2E9
100
AcDbEntity
  8
None
390
0
 62
               7
100
AcDbBlockReference
  2
layout pad
 10
31.090341599999995
 20
-113.4535315555695
 30
0.0
  0
INSERT
  5
2EA
100
AcDbEntity
  8
None
390
0
 62
               7
100
AcDbBlockReference
  2
layout pad
 10
31.890341599999992
 20
-113.4535315555695
 30
0.0
  0
INSERT
  5
2EB
100
AcDbEntity
  8
None
390
0
 62
               7
100
AcDbBlockReference
  2
layout pad
 10
32.690341599999996
 20
-113.4535315555695
 30
0.0
  0
INSERT
  5
2EC
100
AcDbEntity
  8
None
390
0
 62
               7
100
AcDbBlockReference
  2
layout pad
 10
33.490341599999994
 20
-113.4535315555695
 30
0.0
  0
INSERT
  5
2ED
100
AcDbEntity
  8
None
390
0
 62
               7
100
AcDbBlockReference
  2
layout pad
 10
34.290341599999991
 20
-113.4535315555695
 30
0.0
  0
INSERT
  5
2EE
100
AcDbEntity
  8
None
390
0
 62
               7
100
AcDbBlockReference
  2
layout pad
 10
35.090341599999995
 20
-113.4535315555695
 30
0.0
  0
INSERT
  5
2EF
100
AcDbEntity
  8
None
390
0
 62
               7
100
AcDbBlockReference
  2
layout pad
 10
35.890341599999992
 20
-113.4535315555695
 30
0.0
  0
INSERT
  5
2F0
100
AcDbEntity
  8
None
390
0
 62
               7
100
AcDbBlockReference
  2
layout pad
 10
36.690341599999996
 20
-113.4535315555695
 30
0.0
  0
INSERT
  5
2F1
100
AcDbEntity
  8
None
390
0
 62
               7
100
AcDbBlockReference
  2
layout pad
 10
19.890341599999992
 20
-112.6535315555695
 30
0.0
  0
INSERT
  5
2F2
100
AcDbEntity
  8
None
390
0
 62
               7
100
AcDbBlockReference
  2
layout pad
 10
20.690341599999993
 20
-112.6535315555695
 30
0.0
  0
INSERT
  5
2F3
100
AcDbEntity
  8
None
390
0
 62
               7
100
AcDbBlockReference
  2
layout pad
 10
21.490341599999994
 20
-112.6535315555695
 30
0.0
  0
INSERT
  5
2F4
100
AcDbEntity
  8
None
390
0
 62
               7
100
AcDbBlockReference
  2
layout pad
 10
22.290341599999994
 20
-112.6535315555695
 30
0.0
  0
INSERT
  5
2F5
100
AcDbEntity
  8
None
390
0
 62
               7
100
AcDbBlockReference
  2
layout pad
 10
23.090341599999995
 20
-112.6535315555695
 30
0.0
  0
INSERT
  5
2F6
100
AcDbEntity
  8
None
390
0
 62
               7
100
AcDbBlockReference
  2
layout pad
 10
23.890341599999992
 20
-112.6535315555695
 30
0.0
  0
INSERT
  5
2F7
100
AcDbEntity
  8
None
390
0
 62
               7
100
AcDbBlockReference
  2
layout pad
 10
24.690341599999993
 20
-112.6535315555695
 30
0.0
  0
INSERT
  5
2F8
100
AcDbEntity
  8
None
390
0
 62
               7
100
AcDbBlockReference
  2
layout pad
 10
25.490341599999994
 20
-112.6535315555695
 30
0.0
  0
INSERT
  5
2F9
100
AcDbEntity
  8
None
390
0
 62
               7
100
AcDbBlockReference
  2
layout pad
 10
26.290341599999994
 20
-112.6535315555695
 30
0.0
  0
INSERT
  5
2FA
100
AcDbEntity
  8
None
390
0
 62
               7
100
AcDbBlockReference
  2
layout pad
 10
27.090341599999995
 20
-112.6535315555695
 30
0.0
  0
INSERT
  5
2FB
100
AcDbEntity
  8
None
390
0
 62
               7
100
AcDbBlockReference
  2
layout pad
 10
27.890341599999992
 20
-112.6535315555695
 30
0.0
  0
INSERT
  5
2FC
100
AcDbEntity
  8
None
390
0
 62
               7
100
AcDbBlockReference
  2
layout pad
 10
28.690341599999993
 20
-112.6535315555695
 30
0.0
  0
INSERT
  5
2FD
100
AcDbEntity
  8
None
390
0
 62
               7
100
AcDbBlockReference
  2
layout pad
 10
29.490341599999994
 20
-112.6535315555695
 30
0.0
  0
INSERT
  5
2FE
100
AcDbEntity
  8
None
390
0
 62
               7
100
AcDbBlockReference
  2
layout pad
 10
30.290341599999994
 20
-112.6535315555695
 30
0.0
  0
INSERT
  5
2FF
100
AcDbEntity
  8
None
390
0
 62
               7
100
AcDbBlockReference
  2
layout pad
 10
31.090341599999995
 20
-112.6535315555695
 30
0.0
  0
INSERT
  5
300
100
AcDbEntity
  8
None
390
0
 62
               7
100
AcDbBlockReference
  2
layout pad
 10
31.890341599999992
 20
-112.6535315555695
 30
0.0
  0
INSERT
  5
301
100
AcDbEntity
  8
None
390
0
 62
               7
100
AcDbBlockReference
  2
layout pad
 10
32.690341599999996
 20
-112.6535315555695
 30
0.0
  0
INSERT
  5
302
100
AcDbEntity
  8
None
390
0
 62
               7
100
AcDbBlockReference
  2
layout pad
 10
33.490341599999994
 20
-112.6535315555695
 30
0.0
  0
INSERT
  5
303
100
AcDbEntity
  8
None
390
0
 62
               7
100
AcDbBlockReference
  2
layout pad
 10
34.290341599999991
 20
-112.6535315555695
 30
0.0
  0
INSERT
  5
304
100
AcDbEntity
  8
None
390
0
 62
               7
100
AcDbBlockReference
  2
layout pad
 10
35.090341599999995
 20
-112.6535315555695
 30
0.0
  0
INSERT
  5
305
100
AcDbEntity
  8
None
390
0
 62
               7
100
AcDbBlockReference
  2
layout pad
 10
35.890341599999992
 20
-112.6535315555695
 30
0.0
  0
INSERT
  5
306
100
AcDbEntity
  8
None
390
0
 62
               7
100
AcDbBlockReference
  2
layout pad
 10
36.690341599999996
 20
-112.6535315555695
 30
0.0
  0
INSERT
  5
307
100
AcDbEntity
  8
None
390
0
 62
               7
100
AcDbBlockReference
  2
layout pad
 10
19.890341599999992
 20
-111.8535315555695
 30
0.0
  0
INSERT
  5
308
100
AcDbEntity
  8
None
390
0
 62
               7
100
AcDbBlockReference
  2
layout pad
 10
20.690341599999993
 20
-111.8535315555695
 30
0.0
  0
INSERT
  5
309
100
AcDbEntity
  8
None
390
0
 62
               7
100
AcDbBlockReference
  2
layout pad
 10
21.490341599999994
 20
-111.8535315555695
 30
0.0
  0
INSERT
  5
30A
100
AcDbEntity
  8
None
390
0
 62
               7
100
AcDbBlockReference
  2
layout pad
 10
22.290341599999994
 20
-111.8535315555695
 30
0.0
  0
INSERT
  5
30B
100
AcDbEntity
  8
None
390
0
 62
               7
100
AcDbBlockReference
  2
layout pad
 10
23.090341599999995
 20
-111.8535315555695
 30
0.0
  0
INSERT
  5
30C
100
AcDbEntity
  8
None
390
0
 62
               7
100
AcDbBlockReference
  2
layout pad
 10
23.890341599999992
 20
-111.8535315555695
 30
0.0
  0
INSERT
  5
30D
100
AcDbEntity
  8
None
390
0
 62
               7
100
AcDbBlockReference
  2
layout pad
 10
24.690341599999993
 20
-111.8535315555695
 30
0.0
  0
INSERT
  5
30E
100
AcDbEntity
  8
None
390
0
 62
               7
100
AcDbBlockReference
  2
layout pad
 10
25.490341599999994
 20
-111.8535315555695
 30
0.0
  0
INSERT
  5
30F
100
AcDbEntity
  8
None
390
0
 62
               7
100
AcDbBlockReference
  2
layout pad
 10
26.290341599999994
 20
-111.8535315555695
 30
0.0
  0
INSERT
  5
310
100
AcDbEntity
  8
None
390
0
 62
               7
100
AcDbBlockReference
  2
layout pad
 10
27.090341599999995
 20
-111.8535315555695
 30
0.0
  0
INSERT
  5
311
100
AcDbEntity
  8
None
390
0
 62
               7
100
AcDbBlockReference
  2
layout pad
 10
27.890341599999992
 20
-111.8535315555695
 30
0.0
  0
INSERT
  5
312
100
AcDbEntity
  8
None
390
0
 62
               7
100
AcDbBlockReference
  2
layout pad
 10
28.690341599999993
 20
-111.8535315555695
 30
0.0
  0
INSERT
  5
313
100
AcDbEntity
  8
None
390
0
 62
               7
100
AcDbBlockReference
  2
layout pad
 10
29.490341599999994
 20
-111.8535315555695
 30
0.0
  0
INSERT
  5
314
100
AcDbEntity
  8
None
390
0
 62
               7
100
AcDbBlockReference
  2
layout pad
 10
30.290341599999994
 20
-111.8535315555695
 30
0.0
  0
INSERT
  5
315
100
AcDbEntity
  8
None
390
0
 62
               7
100
AcDbBlockReference
  2
layout pad
 10
31.090341599999995
 20
-111.8535315555695
 30
0.0
  0
INSERT
  5
316
100
AcDbEntity
  8
None
390
0
 62
               7
100
AcDbBlockReference
  2
layout pad
 10
31.890341599999992
 20
-111.8535315555695
 30
0.0
  0
INSERT
  5
317
100
AcDbEntity
  8
None
390
0
 62
               7
100
AcDbBlockReference
  2
layout pad
 10
32.690341599999996
 20
-111.8535315555695
 30
0.0
  0
INSERT
  5
318
100
AcDbEntity
  8
None
390
0
 62
               7
100
AcDbBlockReference
  2
layout pad
 10
33.490341599999994
 20
-111.8535315555695
 30
0.0
  0
INSERT
  5
319
100
AcDbEntity
  8
None
390
0
 62
               7
100
AcDbBlockReference
  2
layout pad
 10
34.290341599999991
 20
-111.8535315555695
 30
0.0
  0
INSERT
  5
31A
100
AcDbEntity
  8
None
390
0
 62
               7
100
AcDbBlockReference
  2
layout pad
 10
35.090341599999995
 20
-111.8535315555695
 30
0.0
  0
INSERT
  5
31B
100
AcDbEntity
  8
None
390
0
 62
               7
100
AcDbBlockReference
  2
layout pad
 10
35.890341599999992
 20
-111.8535315555695
 30
0.0
  0
INSERT
  5
31C
100
AcDbEntity
  8
None
390
0
 62
               7
100
AcDbBlockReference
  2
layout pad
 10
36.690341599999996
 20
-111.8535315555695
 30
0.0
  0
INSERT
  5
31D
100
AcDbEntity
  8
None
390
0
 62
               7
100
AcDbBlockReference
  2
layout pad
 10
19.890341599999992
 20
-111.05353155556951
 30
0.0
  0
INSERT
  5
31E
100
AcDbEntity
  8
None
390
0
 62
               7
100
AcDbBlockReference
  2
layout pad
 10
20.690341599999993
 20
-111.05353155556951
 30
0.0
  0
INSERT
  5
31F
100
AcDbEntity
  8
None
390
0
 62
               7
100
AcDbBlockReference
  2
layout pad
 10
21.490341599999994
 20
-111.05353155556951
 30
0.0
  0
INSERT
  5
320
100
AcDbEntity
  8
None
390
0
 62
               7
100
AcDbBlockReference
  2
layout pad
 10
22.290341599999994
 20
-111.05353155556951
 30
0.0
  0
INSERT
  5
321
100
AcDbEntity
  8
None
390
0
 62
               7
100
AcDbBlockReference
  2
layout pad
 10
23.090341599999995
 20
-111.05353155556951
 30
0.0
  0
INSERT
  5
322
100
AcDbEntity
  8
None
390
0
 62
               7
100
AcDbBlockReference
  2
layout pad
 10
23.890341599999992
 20
-111.05353155556951
 30
0.0
  0
INSERT
  5
323
100
AcDbEntity
  8
None
390
0
 62
               7
100
AcDbBlockReference
  2
layout pad
 10
24.690341599999993
 20
-111.05353155556951
 30
0.0
  0
INSERT
  5
324
100
AcDbEntity
  8
None
390
0
 62
               7
100
AcDbBlockReference
  2
layout pad
 10
25.490341599999994
 20
-111.05353155556951
 30
0.0
  0
INSERT
  5
325
100
AcDbEntity
  8
None
390
0
 62
               7
100
AcDbBlockReference
  2
layout pad
 10
26.290341599999994
 20
-111.05353155556951
 30
0.0
  0
INSERT
  5
326
100
AcDbEntity
  8
None
390
0
 62
               7
100
AcDbBlockReference
  2
layout pad
 10
27.090341599999995
 20
-111.05353155556951
 30
0.0
  0
INSERT
  5
327
100
AcDbEntity
  8
None
390
0
 62
               7
100
AcDbBlockReference
  2
layout pad
 10
27.890341599999992
 20
-111.05353155556951
 30
0.0
  0
INSERT
  5
328
100
AcDbEntity
  8
None
390
0
 62
               7
100
AcDbBlockReference
  2
layout pad
 10
28.690341599999993
 20
-111.05353155556951
 30
0.0
  0
INSERT
  5
329
100
AcDbEntity
  8
None
390
0
 62
               7
100
AcDbBlockReference
  2
layout pad
 10
29.490341599999994
 20
-111.05353155556951
 30
0.0
  0
INSERT
  5
32A
100
AcDbEntity
  8
None
390
0
 62
               7
100
AcDbBlockReference
  2
layout pad
 10
30.290341599999994
 20
-111.05353155556951
 30
0.0
  0
INSERT
  5
32B
100
AcDbEntity
  8
None
390
0
 62
               7
100
AcDbBlockReference
  2
layout pad
 10
31.090341599999995
 20
-111.05353155556951
 30
0.0
  0
INSERT
  5
32C
100
AcDbEntity
  8
None
390
0
 62
               7
100
AcDbBlockReference
  2
layout pad
 10
31.890341599999992
 20
-111.05353155556951
 30
0.0
  0
INSERT
  5
32D
100
AcDbEntity
  8
None
390
0
 62
               7
100
AcDbBlockReference
  2
layout pad
 10
32.690341599999996
 20
-111.05353155556951
 30
0.0
  0
INSERT
  5
32E
100
AcDbEntity
  8
None
390
0
 62
               7
100
AcDbBlockReference
  2
layout pad
 10
33.490341599999994
 20
-111.05353155556951
 30
0.0
  0
INSERT
  5
32F
100
AcDbEntity
  8
None
390
0
 62
               7
100
AcDbBlockReference
  2
layout pad
 10
34.290341599999991
 20
-111.05353155556951
 30
0.0
  0
INSERT
  5
330
100
AcDbEntity
  8
None
390
0
 62
               7
100
AcDbBlockReference
  2
layout pad
 10
35.090341599999995
 20
-111.05353155556951
 30
0.0
  0
INSERT
  5
331
100
AcDbEntity
  8
None
390
0
 62
               7
100
AcDbBlockReference
  2
layout pad
 10
35.890341599999992
 20
-111.05353155556951
 30
0.0
  0
INSERT
  5
332
100
AcDbEntity
  8
None
390
0
 62
               7
100
AcDbBlockReference
  2
layout pad
 10
36.690341599999996
 20
-111.05353155556951
 30
0.0
  0
INSERT
  5
333
100
AcDbEntity
  8
None
390
0
 62
               7
100
AcDbBlockReference
  2
layout pad
 10
19.890341599999992
 20
-110.25353155556951
 30
0.0
  0
INSERT
  5
334
100
AcDbEntity
  8
None
390
0
 62
               7
100
AcDbBlockReference
  2
layout pad
 10
20.690341599999993
 20
-110.25353155556951
 30
0.0
  0
INSERT
  5
335
100
AcDbEntity
  8
None
390
0
 62
               7
100
AcDbBlockReference
  2
layout pad
 10
21.490341599999994
 20
-110.25353155556951
 30
0.0
  0
INSERT
  5
336
100
AcDbEntity
  8
None
390
0
 62
               7
100
AcDbBlockReference
  2
layout pad
 10
22.290341599999994
 20
-110.25353155556951
 30
0.0
  0
INSERT
  5
337
100
AcDbEntity
  8
None
390
0
 62
               7
100
AcDbBlockReference
  2
layout pad
 10
23.090341599999995
 20
-110.25353155556951
 30
0.0
  0
INSERT
  5
338
100
AcDbEntity
  8
None
390
0
 62
               7
100
AcDbBlockReference
  2
layout pad
 10
23.890341599999992
 20
-110.25353155556951
 30
0.0
  0
INSERT
  5
339
100
AcDbEntity
  8
None
390
0
 62
               7
100
AcDbBlockReference
  2
layout pad
 10
24.690341599999993
 20
-110.25353155556951
 30
0.0
  0
INSERT
  5
33A
100
AcDbEntity
  8
None
390
0
 62
               7
100
AcDbBlockReference
  2
layout pad
 10
25.490341599999994
 20
-110.25353155556951
 30
0.0
  0
INSERT
  5
33B
100
AcDbEntity
  8
None
390
0
 62
               7
100
AcDbBlockReference
  2
layout pad
 10
26.290341599999994
 20
-110.25353155556951
 30
0.0
  0
INSERT
  5
33C
100
AcDbEntity
  8
None
390
0
 62
               7
100
AcDbBlockReference
  2
layout pad
 10
27.090341599999995
 20
-110.25353155556951
 30
0.0
  0
INSERT
  5
33D
100
AcDbEntity
  8
None
390
0
 62
               7
100
AcDbBlockReference
  2
layout pad
 10
27.890341599999992
 20
-110.25353155556951
 30
0.0
  0
INSERT
  5
33E
100
AcDbEntity
  8
None
390
0
 62
               7
100
AcDbBlockReference
  2
layout pad
 10
28.690341599999993
 20
-110.25353155556951
 30
0.0
  0
INSERT
  5
33F
100
AcDbEntity
  8
None
390
0
 62
               7
100
AcDbBlockReference
  2
layout pad
 10
29.490341599999994
 20
-110.25353155556951
 30
0.0
  0
INSERT
  5
340
100
AcDbEntity
  8
None
390
0
 62
               7
100
AcDbBlockReference
  2
layout pad
 10
30.290341599999994
 20
-110.25353155556951
 30
0.0
  0
INSERT
  5
341
100
AcDbEntity
  8
None
390
0
 62
               7
100
AcDbBlockReference
  2
layout pad
 10
31.090341599999995
 20
-110.25353155556951
 30
0.0
  0
INSERT
  5
342
100
AcDbEntity
  8
None
390
0
 62
               7
100
AcDbBlockReference
  2
layout pad
 10
31.890341599999992
 20
-110.25353155556951
 30
0.0
  0
INSERT
  5
343
100
AcDbEntity
  8
None
390
0
 62
               7
100
AcDbBlockReference
  2
layout pad
 10
32.690341599999996
 20
-110.25353155556951
 30
0.0
  0
INSERT
  5
344
100
AcDbEntity
  8
None
390
0
 62
               7
100
AcDbBlockReference
  2
layout pad
 10
33.490341599999994
 20
-110.25353155556951
 30
0.0
  0
INSERT
  5
345
100
AcDbEntity
  8
None
390
0
 62
               7
100
AcDbBlockReference
  2
layout pad
 10
34.290341599999991
 20
-110.25353155556951
 30
0.0
  0
INSERT
  5
346
100
AcDbEntity
  8
None
390
0
 62
               7
100
AcDbBlockReference
  2
layout pad
 10
35.090341599999995
 20
-110.25353155556951
 30
0.0
  0
INSERT
  5
347
100
AcDbEntity
  8
None
390
0
 62
               7
100
AcDbBlockReference
  2
layout pad
 10
35.890341599999992
 20
-110.25353155556951
 30
0.0
  0
INSERT
  5
348
100
AcDbEntity
  8
None
390
0
 62
               7
100
AcDbBlockReference
  2
layout pad
 10
36.690341599999996
 20
-110.25353155556951
 30
0.0
  0
INSERT
  5
349
100
AcDbEntity
  8
None
390
0
 62
               7
100
AcDbBlockReference
  2
layout pad
 10
19.890341599999992
 20
-109.45353155556951
 30
0.0
  0
INSERT
  5
34A
100
AcDbEntity
  8
None
390
0
 62
               7
100
AcDbBlockReference
  2
layout pad
 10
20.690341599999993
 20
-109.45353155556951
 30
0.0
  0
INSERT
  5
34B
100
AcDbEntity
  8
None
390
0
 62
               7
100
AcDbBlockReference
  2
layout pad
 10
21.490341599999994
 20
-109.45353155556951
 30
0.0
  0
INSERT
  5
34C
100
AcDbEntity
  8
None
390
0
 62
               7
100
AcDbBlockReference
  2
layout pad
 10
22.290341599999994
 20
-109.45353155556951
 30
0.0
  0
INSERT
  5
34D
100
AcDbEntity
  8
None
390
0
 62
               7
100
AcDbBlockReference
  2
layout pad
 10
23.090341599999995
 20
-109.45353155556951
 30
0.0
  0
INSERT
  5
34E
100
AcDbEntity
  8
None
390
0
 62
               7
100
AcDbBlockReference
  2
layout pad
 10
23.890341599999992
 20
-109.45353155556951
 30
0.0
  0
INSERT
  5
34F
100
AcDbEntity
  8
None
390
0
 62
               7
100
AcDbBlockReference
  2
layout pad
 10
24.690341599999993
 20
-109.45353155556951
 30
0.0
  0
INSERT
  5
350
100
AcDbEntity
  8
None
390
0
 62
               7
100
AcDbBlockReference
  2
layout pad
 10
25.490341599999994
 20
-109.45353155556951
 30
0.0
  0
INSERT
  5
351
100
AcDbEntity
  8
None
390
0
 62
               7
100
AcDbBlockReference
  2
layout pad
 10
26.290341599999994
 20
-109.45353155556951
 30
0.0
  0
INSERT
  5
352
100
AcDbEntity
  8
None
390
0
 62
               7
100
AcDbBlockReference
  2
layout pad
 10
27.090341599999995
 20
-109.45353155556951
 30
0.0
  0
INSERT
  5
353
100
AcDbEntity
  8
None
390
0
 62
               7
100
AcDbBlockReference
  2
layout pad
 10
27.890341599999992
 20
-109.45353155556951
 30
0.0
  0
INSERT
  5
354
100
AcDbEntity
  8
None
390
0
 62
               7
100
AcDbBlockReference
  2
layout pad
 10
28.690341599999993
 20
-109.45353155556951
 30
0.0
  0
INSERT
  5
355
100
AcDbEntity
  8
None
390
0
 62
               7
100
AcDbBlockReference
  2
layout pad
 10
29.490341599999994
 20
-109.45353155556951
 30
0.0
  0
INSERT
  5
356
100
AcDbEntity
  8
None
390
0
 62
               7
100
AcDbBlockReference
  2
layout pad
 10
30.290341599999994
 20
-109.45353155556951
 30
0.0
  0
INSERT
  5
357
100
AcDbEntity
  8
None
390
0
 62
               7
100
AcDbBlockReference
  2
layout pad
 10
31.090341599999995
 20
-109.45353155556951
 30
0.0
  0
INSERT
  5
358
100
AcDbEntity
  8
None
390
0
 62
               7
100
AcDbBlockReference
  2
layout pad
 10
31.890341599999992
 20
-109.45353155556951
 30
0.0
  0
INSERT
  5
359
100
AcDbEntity
  8
None
390
0
 62
               7
100
AcDbBlockReference
  2
layout pad
 10
32.690341599999996
 20
-109.45353155556951
 30
0.0
  0
INSERT
  5
35A
100
AcDbEntity
  8
None
390
0
 62
               7
100
AcDbBlockReference
  2
layout pad
 10
33.490341599999994
 20
-109.45353155556951
 30
0.0
  0
INSERT
  5
35B
100
AcDbEntity
  8
None
390
0
 62
               7
100
AcDbBlockReference
  2
layout pad
 10
34.290341599999991
 20
-109.45353155556951
 30
0.0
  0
INSERT
  5
35C
100
AcDbEntity
  8
None
390
0
 62
               7
100
AcDbBlockReference
  2
layout pad
 10
35.090341599999995
 20
-109.45353155556951
 30
0.0
  0
INSERT
  5
35D
100
AcDbEntity
  8
None
390
0
 62
               7
100
AcDbBlockReference
  2
layout pad
 10
35.890341599999992
 20
-109.45353155556951
 30
0.0
  0
INSERT
  5
35E
100
AcDbEntity
  8
None
390
0
 62
               7
100
AcDbBlockReference
  2
layout pad
 10
36.690341599999996
 20
-109.45353155556951
 30
0.0
  0
INSERT
  5
35F
100
AcDbEntity
  8
None
390
0
 62
               7
100
AcDbBlockReference
  2
layout pad
 10
19.890341599999992
 20
-108.65353155556951
 30
0.0
  0
INSERT
  5
360
100
AcDbEntity
  8
None
390
0
 62
               7
100
AcDbBlockReference
  2
layout pad
 10
20.690341599999993
 20
-108.65353155556951
 30
0.0
  0
INSERT
  5
361
100
AcDbEntity
  8
None
390
0
 62
               7
100
AcDbBlockReference
  2
layout pad
 10
21.490341599999994
 20
-108.65353155556951
 30
0.0
  0
INSERT
  5
362
100
AcDbEntity
  8
None
390
0
 62
               7
100
AcDbBlockReference
  2
layout pad
 10
22.290341599999994
 20
-108.65353155556951
 30
0.0
  0
INSERT
  5
363
100
AcDbEntity
  8
None
390
0
 62
               7
100
AcDbBlockReference
  2
layout pad
 10
23.090341599999995
 20
-108.65353155556951
 30
0.0
  0
INSERT
  5
364
100
AcDbEntity
  8
None
390
0
 62
               7
100
AcDbBlockReference
  2
layout pad
 10
23.890341599999992
 20
-108.65353155556951
 30
0.0
  0
INSERT
  5
365
100
AcDbEntity
  8
None
390
0
 62
               7
100
AcDbBlockReference
  2
layout pad
 10
24.690341599999993
 20
-108.65353155556951
 30
0.0
  0
INSERT
  5
366
100
AcDbEntity
  8
None
390
0
 62
               7
100
AcDbBlockReference
  2
layout pad
 10
25.490341599999994
 20
-108.65353155556951
 30
0.0
  0
INSERT
  5
367
100
AcDbEntity
  8
None
390
0
 62
               7
100
AcDbBlockReference
  2
layout pad
 10
26.290341599999994
 20
-108.65353155556951
 30
0.0
  0
INSERT
  5
368
100
AcDbEntity
  8
None
390
0
 62
               7
100
AcDbBlockReference
  2
layout pad
 10
27.090341599999995
 20
-108.65353155556951
 30
0.0
  0
INSERT
  5
369
100
AcDbEntity
  8
None
390
0
 62
               7
100
AcDbBlockReference
  2
layout pad
 10
27.890341599999992
 20
-108.65353155556951
 30
0.0
  0
INSERT
  5
36A
100
AcDbEntity
  8
None
390
0
 62
               7
100
AcDbBlockReference
  2
layout pad
 10
28.690341599999993
 20
-108.65353155556951
 30
0.0
  0
INSERT
  5
36B
100
AcDbEntity
  8
None
390
0
 62
               7
100
AcDbBlockReference
  2
layout pad
 10
29.490341599999994
 20
-108.65353155556951
 30
0.0
  0
INSERT
  5
36C
100
AcDbEntity
  8
None
390
0
 62
               7
100
AcDbBlockReference
  2
layout pad
 10
30.290341599999994
 20
-108.65353155556951
 30
0.0
  0
INSERT
  5
36D
100
AcDbEntity
  8
None
390
0
 62
               7
100
AcDbBlockReference
  2
layout pad
 10
31.090341599999995
 20
-108.65353155556951
 30
0.0
  0
INSERT
  5
36E
100
AcDbEntity
  8
None
390
0
 62
               7
100
AcDbBlockReference
  2
layout pad
 10
31.890341599999992
 20
-108.65353155556951
 30
0.0
  0
INSERT
  5
36F
100
AcDbEntity
  8
None
390
0
 62
               7
100
AcDbBlockReference
  2
layout pad
 10
32.690341599999996
 20
-108.65353155556951
 30
0.0
  0
INSERT
  5
370
100
AcDbEntity
  8
None
390
0
 62
               7
100
AcDbBlockReference
  2
layout pad
 10
33.490341599999994
 20
-108.65353155556951
 30
0.0
  0
INSERT
  5
371
100
AcDbEntity
  8
None
390
0
 62
               7
100
AcDbBlockReference
  2
layout pad
 10
34.290341599999991
 20
-108.65353155556951
 30
0.0
  0
INSERT
  5
372
100
AcDbEntity
  8
None
390
0
 62
               7
100
AcDbBlockReference
  2
layout pad
 10
35.090341599999995
 20
-108.65353155556951
 30
0.0
  0
INSERT
  5
373
100
AcDbEntity
  8
None
390
0
 62
               7
100
AcDbBlockReference
  2
layout pad
 10
35.890341599999992
 20
-108.65353155556951
 30
0.0
  0
INSERT
  5
374
100
AcDbEntity
  8
None
390
0
 62
               7
100
AcDbBlockReference
  2
layout pad
 10
36.690341599999996
 20
-108.65353155556951
 30
0.0
  0
INSERT
  5
375
100
AcDbEntity
  8
None
390
0
 62
               7
100
AcDbBlockReference
  2
layout pad
 10
19.890341599999992
 20
-107.85353155556952
 30
0.0
  0
INSERT
  5
376
100
AcDbEntity
  8
None
390
0
 62
               7
100
AcDbBlockReference
  2
layout pad
 10
20.690341599999993
 20
-107.85353155556952
 30
0.0
  0
INSERT
  5
377
100
AcDbEntity
  8
None
390
0
 62
               7
100
AcDbBlockReference
  2
layout pad
 10
21.490341599999994
 20
-107.85353155556952
 30
0.0
  0
INSERT
  5
378
100
AcDbEntity
  8
None
390
0
 62
               7
100
AcDbBlockReference
  2
layout pad
 10
22.290341599999994
 20
-107.85353155556952
 30
0.0
  0
INSERT
  5
379
100
AcDbEntity
  8
None
390
0
 62
               7
100
AcDbBlockReference
  2
layout pad
 10
23.090341599999995
 20
-107.85353155556952
 30
0.0
  0
INSERT
  5
37A
100
AcDbEntity
  8
None
390
0
 62
               7
100
AcDbBlockReference
  2
layout pad
 10
23.890341599999992
 20
-107.85353155556952
 30
0.0
  0
INSERT
  5
37B
100
AcDbEntity
  8
None
390
0
 62
               7
100
AcDbBlockReference
  2
layout pad
 10
24.690341599999993
 20
-107.85353155556952
 30
0.0
  0
INSERT
  5
37C
100
AcDbEntity
  8
None
390
0
 62
               7
100
AcDbBlockReference
  2
layout pad
 10
25.490341599999994
 20
-107.85353155556952
 30
0.0
  0
INSERT
  5
37D
100
AcDbEntity
  8
None
390
0
 62
               7
100
AcDbBlockReference
  2
layout pad
 10
26.290341599999994
 20
-107.85353155556952
 30
0.0
  0
INSERT
  5
37E
100
AcDbEntity
  8
None
390
0
 62
               7
100
AcDbBlockReference
  2
layout pad
 10
27.090341599999995
 20
-107.85353155556952
 30
0.0
  0
INSERT
  5
37F
100
AcDbEntity
  8
None
390
0
 62
               7
100
AcDbBlockReference
  2
layout pad
 10
27.890341599999992
 20
-107.85353155556952
 30
0.0
  0
INSERT
  5
380
100
AcDbEntity
  8
None
390
0
 62
               7
100
AcDbBlockReference
  2
layout pad
 10
28.690341599999993
 20
-107.85353155556952
 30
0.0
  0
INSERT
  5
381
100
AcDbEntity
  8
None
390
0
 62
               7
100
AcDbBlockReference
  2
layout pad
 10
29.490341599999994
 20
-107.85353155556952
 30
0.0
  0
INSERT
  5
382
100
AcDbEntity
  8
None
390
0
 62
               7
100
AcDbBlockReference
  2
layout pad
 10
30.290341599999994
 20
-107.85353155556952
 30
0.0
  0
INSERT
  5
383
100
AcDbEntity
  8
None
390
0
 62
               7
100
AcDbBlockReference
  2
layout pad
 10
31.090341599999995
 20
-107.85353155556952
 30
0.0
  0
INSERT
  5
384
100
AcDbEntity
  8
None
390
0
 62
               7
100
AcDbBlockReference
  2
layout pad
 10
31.890341599999992
 20
-107.85353155556952
 30
0.0
  0
INSERT
  5
385
100
AcDbEntity
  8
None
390
0
 62
               7
100
AcDbBlockReference
  2
layout pad
 10
32.690341599999996
 20
-107.85353155556952
 30
0.0
  0
INSERT
  5
386
100
AcDbEntity
  8
None
390
0
 62
               7
100
AcDbBlockReference
  2
layout pad
 10
33.490341599999994
 20
-107.85353155556952
 30
0.0
  0
INSERT
  5
387
100
AcDbEntity
  8
None
390
0
 62
               7
100
AcDbBlockReference
  2
layout pad
 10
34.290341599999991
 20
-107.85353155556952
 30
0.0
  0
INSERT
  5
388
100
AcDbEntity
  8
None
390
0
 62
               7
100
AcDbBlockReference
  2
layout pad
 10
35.090341599999995
 20
-107.85353155556952
 30
0.0
  0
INSERT
  5
389
100
AcDbEntity
  8
None
390
0
 62
               7
100
AcDbBlockReference
  2
layout pad
 10
35.890341599999992
 20
-107.85353155556952
 30
0.0
  0
INSERT
  5
38A
100
AcDbEntity
  8
None
390
0
 62
               7
100
AcDbBlockReference
  2
layout pad
 10
36.690341599999996
 20
-107.85353155556952
 30
0.0
  0
INSERT
  5
38B
100
AcDbEntity
  8
None
390
0
 62
               7
100
AcDbBlockReference
  2
layout pad
 10
19.890341599999992
 20
-107.05353155556952
 30
0.0
  0
INSERT
  5
38C
100
AcDbEntity
  8
None
390
0
 62
               7
100
AcDbBlockReference
  2
layout pad
 10
20.690341599999993
 20
-107.05353155556952
 30
0.0
  0
INSERT
  5
38D
100
AcDbEntity
  8
None
390
0
 62
               7
100
AcDbBlockReference
  2
layout pad
 10
21.490341599999994
 20
-107.05353155556952
 30
0.0
  0
INSERT
  5
38E
100
AcDbEntity
  8
None
390
0
 62
               7
100
AcDbBlockReference
  2
layout pad
 10
22.290341599999994
 20
-107.05353155556952
 30
0.0
  0
INSERT
  5
38F
100
AcDbEntity
  8
None
390
0
 62
               7
100
AcDbBlockReference
  2
layout pad
 10
23.090341599999995
 20
-107.05353155556952
 30
0.0
  0
INSERT
  5
390
100
AcDbEntity
  8
None
390
0
 62
               7
100
AcDbBlockReference
  2
layout pad
 10
23.890341599999992
 20
-107.05353155556952
 30
0.0
  0
INSERT
  5
391
100
AcDbEntity
  8
None
390
0
 62
               7
100
AcDbBlockReference
  2
layout pad
 10
24.690341599999993
 20
-107.05353155556952
 30
0.0
  0
INSERT
  5
392
100
AcDbEntity
  8
None
390
0
 62
               7
100
AcDbBlockReference
  2
layout pad
 10
25.490341599999994
 20
-107.05353155556952
 30
0.0
  0
INSERT
  5
393
100
AcDbEntity
  8
None
390
0
 62
               7
100
AcDbBlockReference
  2
layout pad
 10
26.290341599999994
 20
-107.05353155556952
 30
0.0
  0
INSERT
  5
394
100
AcDbEntity
  8
None
390
0
 62
               7
100
AcDbBlockReference
  2
layout pad
 10
27.090341599999995
 20
-107.05353155556952
 30
0.0
  0
INSERT
  5
395
100
AcDbEntity
  8
None
390
0
 62
               7
100
AcDbBlockReference
  2
layout pad
 10
27.890341599999992
 20
-107.05353155556952
 30
0.0
  0
INSERT
  5
396
100
AcDbEntity
  8
None
390
0
 62
               7
100
AcDbBlockReference
  2
layout pad
 10
28.690341599999993
 20
-107.05353155556952
 30
0.0
  0
INSERT
  5
397
100
AcDbEntity
  8
None
390
0
 62
               7
100
AcDbBlockReference
  2
layout pad
 10
29.490341599999994
 20
-107.05353155556952
 30
0.0
  0
INSERT
  5
398
100
AcDbEntity
  8
None
390
0
 62
               7
100
AcDbBlockReference
  2
layout pad
 10
30.290341599999994
 20
-107.05353155556952
 30
0.0
  0
INSERT
  5
399
100
AcDbEntity
  8
None
390
0
 62
               7
100
AcDbBlockReference
  2
layout pad
 10
31.090341599999995
 20
-107.05353155556952
 30
0.0
  0
INSERT
  5
39A
100
AcDbEntity
  8
None
390
0
 62
               7
100
AcDbBlockReference
  2
layout pad
 10
31.890341599999992
 20
-107.05353155556952
 30
0.0
  0
INSERT
  5
39B
100
AcDbEntity
  8
None
390
0
 62
               7
100
AcDbBlockReference
  2
layout pad
 10
32.690341599999996
 20
-107.05353155556952
 30
0.0
  0
INSERT
  5
39C
100
AcDbEntity
  8
None
390
0
 62
               7
100
AcDbBlockReference
  2
layout pad
 10
33.490341599999994
 20
-107.05353155556952
 30
0.0
  0
INSERT
  5
39D
100
AcDbEntity
  8
None
390
0
 62
               7
100
AcDbBlockReference
  2
layout pad
 10
34.290341599999991
 20
-107.05353155556952
 30
0.0
  0
INSERT
  5
39E
100
AcDbEntity
  8
None
390
0
 62
               7
100
AcDbBlockReference
  2
layout pad
 10
35.090341599999995
 20
-107.05353155556952
 30
0.0
  0
INSERT
  5
39F
100
AcDbEntity
  8
None
390
0
 62
               7
100
AcDbBlockReference
  2
layout pad
 10
35.890341599999992
 20
-107.05353155556952
 30
0.0
  0
INSERT
  5
3A0
100
AcDbEntity
  8
None
390
0
 62
               7
100
AcDbBlockReference
  2
layout pad
 10
36.690341599999996
 20
-107.05353155556952
 30
0.0
  0
INSERT
  5
3A1
100
AcDbEntity
  8
None
390
0
 62
               7
100
AcDbBlockReference
  2
layout pad
 10
19.890341599999992
 20
-106.25353155556951
 30
0.0
  0
INSERT
  5
3A2
100
AcDbEntity
  8
None
390
0
 62
               7
100
AcDbBlockReference
  2
layout pad
 10
20.690341599999993
 20
-106.25353155556951
 30
0.0
  0
INSERT
  5
3A3
100
AcDbEntity
  8
None
390
0
 62
               7
100
AcDbBlockReference
  2
layout pad
 10
21.490341599999994
 20
-106.25353155556951
 30
0.0
  0
INSERT
  5
3A4
100
AcDbEntity
  8
None
390
0
 62
               7
100
AcDbBlockReference
  2
layout pad
 10
22.290341599999994
 20
-106.25353155556951
 30
0.0
  0
INSERT
  5
3A5
100
AcDbEntity
  8
None
390
0
 62
               7
100
AcDbBlockReference
  2
layout pad
 10
23.090341599999995
 20
-106.25353155556951
 30
0.0
  0
INSERT
  5
3A6
100
AcDbEntity
  8
None
390
0
 62
               7
100
AcDbBlockReference
  2
layout pad
 10
23.890341599999992
 20
-106.25353155556951
 30
0.0
  0
INSERT
  5
3A7
100
AcDbEntity
  8
None
390
0
 62
               7
100
AcDbBlockReference
  2
layout pad
 10
24.690341599999993
 20
-106.25353155556951
 30
0.0
  0
INSERT
  5
3A8
100
AcDbEntity
  8
None
390
0
 62
               7
100
AcDbBlockReference
  2
layout pad
 10
25.490341599999994
 20
-106.25353155556951
 30
0.0
  0
INSERT
  5
3A9
100
AcDbEntity
  8
None
390
0
 62
               7
100
AcDbBlockReference
  2
layout pad
 10
26.290341599999994
 20
-106.25353155556951
 30
0.0
  0
INSERT
  5
3AA
100
AcDbEntity
  8
None
390
0
 62
               7
100
AcDbBlockReference
  2
layout pad
 10
27.090341599999995
 20
-106.25353155556951
 30
0.0
  0
INSERT
  5
3AB
100
AcDbEntity
  8
None
390
0
 62
               7
100
AcDbBlockReference
  2
layout pad
 10
27.890341599999992
 20
-106.25353155556951
 30
0.0
  0
INSERT
  5
3AC
100
AcDbEntity
  8
None
390
0
 62
               7
100
AcDbBlockReference
  2
layout pad
 10
28.690341599999993
 20
-106.25353155556951
 30
0.0
  0
INSERT
  5
3AD
100
AcDbEntity
  8
None
390
0
 62
               7
100
AcDbBlockReference
  2
layout pad
 10
29.490341599999994
 20
-106.25353155556951
 30
0.0
  0
INSERT
  5
3AE
100
AcDbEntity
  8
None
390
0
 62
               7
100
AcDbBlockReference
  2
layout pad
 10
30.290341599999994
 20
-106.25353155556951
 30
0.0
  0
INSERT
  5
3AF
100
AcDbEntity
  8
None
390
0
 62
               7
100
AcDbBlockReference
  2
layout pad
 10
31.090341599999995
 20
-106.25353155556951
 30
0.0
  0
INSERT
  5
3B0
100
AcDbEntity
  8
None
390
0
 62
               7
100
AcDbBlockReference
  2
layout pad
 10
31.890341599999992
 20
-106.25353155556951
 30
0.0
  0
INSERT
  5
3B1
100
AcDbEntity
  8
None
390
0
 62
               7
100
AcDbBlockReference
  2
layout pad
 10
32.690341599999996
 20
-106.25353155556951
 30
0.0
  0
INSERT
  5
3B2
100
AcDbEntity
  8
None
390
0
 62
               7
100
AcDbBlockReference
  2
layout pad
 10
33.490341599999994
 20
-106.25353155556951
 30
0.0
  0
INSERT
  5
3B3
100
AcDbEntity
  8
None
390
0
 62
               7
100
AcDbBlockReference
  2
layout pad
 10
34.290341599999991
 20
-106.25353155556951
 30
0.0
  0
INSERT
  5
3B4
100
AcDbEntity
  8
None
390
0
 62
               7
100
AcDbBlockReference
  2
layout pad
 10
35.090341599999995
 20
-106.25353155556951
 30
0.0
  0
INSERT
  5
3B5
100
AcDbEntity
  8
None
390
0
 62
               7
100
AcDbBlockReference
  2
layout pad
 10
35.890341599999992
 20
-106.25353155556951
 30
0.0
  0
INSERT
  5
3B6
100
AcDbEntity
  8
None
390
0
 62
               7
100
AcDbBlockReference
  2
layout pad
 10
36.690341599999996
 20
-106.25353155556951
 30
0.0
  0
DIMENSION
  5
3B7
100
AcDbEntity
  8
Dimension
370
               9
390
0
  6
Continuous
 62
               1
100
AcDbDimension
  2
*D18
 10
36.545756958621965
 20
-111.69370245583931
 30
0.0
 11
44.270178880280895
 21
-114.99870245583941
 31
0.0
 70
               3
 71
               5
 72
               1
 41
1.0
 42
0.0
  3
IE Standard
100
AcDbDiametricDimension
 15
36.909487628212204
 25
-111.90370245583975
 35
0.0
 40
6.189999999999551
1001
ACAD
1000
DSTYLE
1002
{
1070
             172
1070
               0
1070
             289
1070
               0
1070
             342
1005
54
1070
             340
1005
37
1070
             140
1040
0.7579202490234376
1070
              75
1070
               1
1070
              76
1070
               1
1070
               3
1000
mm pad
1070
             174
1070
               0
1070
             147
1040
0.132291534375
1002
}
  0
INSERT
  5
3B8
100
AcDbEntity
  8
None
390
0
 62
               7
100
AcDbBlockReference
  2
Group-2
 10
26.864411599999993
 20
-155.47656739999999
 30
0.0
  0
DIMENSION
  5
3B9
100
AcDbEntity
  8
Dimension
370
               9
390
0
  6
Continuous
 62
               1
100
AcDbDimension
  2
*D20
 10
14.55284159999999
 20
-134.20000000000002
 30
0.0
 11
27.915341599999987
 21
-134.20000000000002
 31
0.0
 70
             128
 71
               5
 72
               1
 41
1.0
 42
0.0
  3
IE Standard
100
AcDbAlignedDimension
 13
41.277841599999988
 23
-128.0160315555695
 33
0.0
 14
14.55284159999999
 24
-128.0160315555695
 34
0.0
100
AcDbRotatedDimension
1001
ACAD
1000
DSTYLE
1002
{
1070
             271
1070
               3
1070
             340
1005
37
1070
             140
1040
0.7579202490234376
1070
               3
1000
<>mm sq. backing plate
1070
             147
1040
0.132291534375
1002
}
  0
ENDSEC
  0
SECTION
  2
OBJECTS
  0
DICTIONARY
  5
19
100
AcDbDictionary
280
               0
281
               1
  3
ACAD_GROUP
350
1A
  3
ACAD_MLINESTYLE
350
1B
  3
ACAD_LAYOUT
350
1E
  3
ACAD_PLOTSETTINGS
350
22
  3
ACAD_PLOTSTYLENAME
350
1F
  3
ACAD_WIPEOUT_VARS
350
23
  0
DICTIONARY
  5
1A
102
{ACAD_REACTORS
330
19
102
}
100
AcDbDictionary
280
               0
281
               1
  0
DICTIONARY
  5
1B
102
{ACAD_REACTORS
330
19
102
}
100
AcDbDictionary
280
               0
281
               1
  3
Standard
350
1C
  0
MLINESTYLE
  5
1C
102
{ACAD_REACTORS
330
1B
102
}
100
AcDbMlineStyle
  2
Standard
 70
               0
  3

 62
               0
 51
90.0
 52
90.0
 71
               2
 49
0.5
 62
             256
  6
ByLayer
 49
-0.5
 62
             256
  6
ByLayer
  0
ACDBDICTIONARYWDFLT
  5
1F
102
{ACAD_REACTORS
330
19
102
}
100
AcDbDictionary
281
               1
  3
Normal
350
1D
100
AcDbDictionaryWithDefault
340
1D
  0
ACDBPLACEHOLDER
  5
1D
102
{ACAD_REACTORS
330
1F
102
}
  0
LAYOUT
  5
20
102
{ACAD_REACTORS
330
1E
102
}
100
AcDbPlotSettings
  1

  2

  4

  6

 40
0.0
 41
0.0
 42
0.0
 43
0.0
 44
0.0
 45
0.0
 46
0.0
 47
0.0
 48
0.0
 49
0.0
140
0.0
141
0.0
142
1.0
143
1.0
 70
            1024
 72
               0
 73
               0
 74
               0
  7

 75
               0
147
1.0
148
0.0
149
0.0
100
AcDbLayout
  1
Model
 70
               0
 71
               0
 10
0.0
 20
0.0
 11
0.0
 21
0.0
 12
0.0
 22
0.0
 32
0.0
 14
0.0
 24
0.0
 34
0.0
 15
0.0
 25
0.0
 35
0.0
146
0.0
 13
0.0
 23
0.0
 33
0.0
 16
0.0
 26
0.0
 36
0.0
 17
0.0
 27
0.0
 37
0.0
 76
               0
330
A
331
0
345
0
346
0
  0
LAYOUT
  5
21
102
{ACAD_REACTORS
330
1E
102
}
100
AcDbPlotSettings
  1

  2

  4

  6

 40
0.0
 41
0.0
 42
0.0
 43
0.0
 44
0.0
 45
0.0
 46
0.0
 47
0.0
 48
0.0
 49
0.0
140
0.0
141
0.0
142
1.0
143
1.0
 70
               0
 72
               0
 73
               0
 74
               0
  7

 75
               0
147
1.0
148
0.0
149
0.0
100
AcDbLayout
  1
Layout1
 70
               0
 71
               0
 10
0.0
 20
0.0
 11
0.0
 21
0.0
 12
0.0
 22
0.0
 32
0.0
 14
0.0
 24
0.0
 34
0.0
 15
0.0
 25
0.0
 35
0.0
146
0.0
 13
0.0
 23
0.0
 33
0.0
 16
0.0
 26
0.0
 36
0.0
 17
0.0
 27
0.0
 37
0.0
 76
               0
330
B
331
0
345
0
346
0
  0
DICTIONARY
  5
1E
102
{ACAD_REACTORS
330
19
102
}
100
AcDbDictionary
280
               0
281
               1
  3
Layout1
350
21
  3
Model
350
20
  0
DICTIONARY
  5
22
102
{ACAD_REACTORS
330
19
102
}
100
AcDbDictionary
280
               0
281
               1
  0
WIPEOUTVARIABLES
  5
23
100
AcDbWipeoutVariables
 70
               0
  0
ENDSEC
  0
EOF
