  0
SECTION
  2
HEADER
  9
$ACADVER
  1
AC1015
  9
$ACADMAINTVER
 70
               6
  9
$DWGCODEPAGE
  3
ANSI_1252
  9
$INSBASE
 10
0.0
 20
0.0
 30
0.0
  9
$EXTMIN
 10
-5.688863400000006
 20
-180.3044176829948
 30
0.0
  9
$EXTMAX
 10
59.093031599999989
 20
-132.43828740000001
 30
0.0
  9
$LIMMIN
 10
0.0
 20
0.0
  9
$LIMMAX
 10
0.0
 20
0.0
  9
$ORTHOMODE
 70
               0
  9
$REGENMODE
 70
               1
  9
$FILLMODE
 70
               1
  9
$QTEXTMODE
 70
               0
  9
$MIRRTEXT
 70
               1
  9
$LTSCALE
 40
6.3499999999999996
  9
$ATTMODE
 70
               1
  9
$TEXTSIZE
 40
0.2
  9
$TRACEWID
 40
1.0
  9
$TEXTSTYLE
  7
Standard
  9
$CLAYER
  8
None
  9
$CELTYPE
  6
Continuous
  9
$CECOLOR
 62
             256
  9
$CELTSCALE
 40
1.0
  9
$DISPSILH
 70
               0
  9
$DIMSCALE
 40
1.0
  9
$DIMASZ
 40
0.79375
  9
$DIMEXO
 40
0.4762500011827797
  9
$DIMDLI
 40
6.9999859934672708
  9
$DIMRND
 40
0.0
  9
$DIMDLE
 40
0.0
  9
$DIMEXE
 40
0.9525000023655593
  9
$DIMTP
 40
0.0
  9
$DIMTM
 40
0.0
  9
$DIMTXT
 40
0.6315976562499999
  9
$DIMCEN
 40
0.0
  9
$DIMTSZ
 40
0.0
  9
$DIMTOL
 70
               0
  9
$DIMLIM
 70
               0
  9
$DIMTIH
 70
               1
  9
$DIMTOH
 70
               1
  9
$DIMSE1
 70
               0
  9
$DIMSE2
 70
               0
  9
$DIMTAD
 70
               0
  9
$DIMZIN
 70
              11
  9
$DIMBLK
  1
VW_FILLEDARROW
  9
$DIMASO
 70
               1
  9
$DIMSHO
 70
               1
  9
$DIMPOST
  1
<>mm
  9
$DIMAPOST
  1
[]"
  9
$DIMALT
 70
               0
  9
$DIMALTD
 70
               3
  9
$DIMALTF
 40
0.0393700787401575
  9
$DIMLFAC
 40
1.0
  9
$DIMTOFL
 70
               1
  9
$DIMTVP
 40
0.0
  9
$DIMTIX
 70
               1
  9
$DIMSOXD
 70
               0
  9
$DIMSAH
 70
               0
  9
$DIMBLK1
  1

  9
$DIMBLK2
  1

  9
$DIMSTYLE
  2
IE Standard
  9
$DIMCLRD
 70
               0
  9
$DIMCLRE
 70
               0
  9
$DIMCLRT
 70
               0
  9
$DIMTFAC
 40
1.0
  9
$DIMGAP
 40
0.0
  9
$DIMJUST
 70
               0
  9
$DIMSD1
 70
               0
  9
$DIMSD2
 70
               0
  9
$DIMTOLJ
 70
               1
  9
$DIMTZIN
 70
              11
  9
$DIMALTZ
 70
               3
  9
$DIMALTTZ
 70
               3
  9
$DIMUPT
 70
               0
  9
$DIMDEC
 70
               2
  9
$DIMTDEC
 70
               2
  9
$DIMALTU
 70
               2
  9
$DIMALTTD
 70
               2
  9
$DIMTXSTY
  7
Helvetica
  9
$DIMAUNIT
 70
               0
  9
$DIMADEC
 70
               0
  9
$DIMALTRND
 40
0.0
  9
$DIMAZIN
 70
               0
  9
$DIMDSEP
 70
              46
  9
$DIMATFIT
 70
               0
  9
$DIMFRAC
 70
               2
  9
$DIMLDRBLK
  1

  9
$DIMLUNIT
 70
               2
  9
$DIMLWD
 70
              -2
  9
$DIMLWE
 70
              -2
  9
$DIMTMOVE
 70
               0
  9
$LUNITS
 70
               2
  9
$LUPREC
 70
               4
  9
$SKETCHINC
 40
0.1
  9
$FILLETRAD
 40
0.0
  9
$AUNITS
 70
               0
  9
$AUPREC
 70
               0
  9
$MENU
  1
acad
  9
$ELEVATION
 40
0.0
  9
$PELEVATION
 40
0.0
  9
$THICKNESS
 40
0.0
  9
$LIMCHECK
 70
               0
  9
$CHAMFERA
 40
0.0
  9
$CHAMFERB
 40
0.0
  9
$CHAMFERC
 40
0.0
  9
$CHAMFERD
 40
0.0
  9
$SKPOLY
 70
               0
  9
$TDCREATE
 40
2454641.378391204
  9
$TDUCREATE
 40
0.000000000
  9
$TDUPDATE
 40
2454641.378391204
  9
$TDUUPDATE
 40
0.000000000
  9
$TDINDWG
 40
0.0000000000
  9
$TDUSRTIMER
 40
0.0000000000
  9
$USRTIMER
 70
               1
  9
$ANGBASE
 50
0.0
  9
$ANGDIR
 70
               0
  9
$PDMODE
 70
               1
  9
$PDSIZE
 40
-2.0
  9
$PLINEWID
 40
0.0
  9
$SPLFRAME
 70
               0
  9
$SPLINETYPE
 70
               6
  9
$SPLINESEGS
 70
               8
  9
$HANDSEED
  5
2C4
  9
$SURFTAB1
 70
               6
  9
$SURFTAB2
 70
               6
  9
$SURFTYPE
 70
               6
  9
$SURFU
 70
               6
  9
$SURFV
 70
               6
  9
$UCSBASE
  2

  9
$UCSNAME
  2

  9
$UCSORG
 10
0.0
 20
0.0
 30
0.0
  9
$UCSXDIR
 10
1.0
 20
0.0
 30
0.0
  9
$UCSYDIR
 10
0.0
 20
1.0
 30
0.0
  9
$UCSORTHOREF
  2

  9
$UCSORTHOVIEW
 70
               0
  9
$UCSORGTOP
 10
0.0
 20
0.0
 30
0.0
  9
$UCSORGBOTTOM
 10
0.0
 20
0.0
 30
0.0
  9
$UCSORGLEFT
 10
0.0
 20
0.0
 30
0.0
  9
$UCSORGRIGHT
 10
0.0
 20
0.0
 30
0.0
  9
$UCSORGFRONT
 10
0.0
 20
0.0
 30
0.0
  9
$UCSORGBACK
 10
0.0
 20
0.0
 30
0.0
  9
$PUCSBASE
  2

  9
$PUCSNAME
  2

  9
$PUCSORG
 10
0.0
 20
0.0
 30
0.0
  9
$PUCSXDIR
 10
1.0
 20
0.0
 30
0.0
  9
$PUCSYDIR
 10
0.0
 20
1.0
 30
0.0
  9
$PUCSORTHOREF
  2

  9
$PUCSORTHOVIEW
 70
               0
  9
$PUCSORGTOP
 10
0.0
 20
0.0
 30
0.0
  9
$PUCSORGBOTTOM
 10
0.0
 20
0.0
 30
0.0
  9
$PUCSORGLEFT
 10
0.0
 20
0.0
 30
0.0
  9
$PUCSORGRIGHT
 10
0.0
 20
0.0
 30
0.0
  9
$PUCSORGFRONT
 10
0.0
 20
0.0
 30
0.0
  9
$PUCSORGBACK
 10
0.0
 20
0.0
 30
0.0
  9
$USERI1
 70
               0
  9
$USERI2
 70
               0
  9
$USERI3
 70
               0
  9
$USERI4
 70
               0
  9
$USERI5
 70
               0
  9
$USERR1
 40
0.0
  9
$USERR2
 40
0.0
  9
$USERR3
 40
0.0
  9
$USERR4
 40
0.0
  9
$USERR5
 40
0.0
  9
$WORLDVIEW
 70
               1
  9
$SHADEDGE
 70
               3
  9
$SHADEDIF
 70
              70
  9
$TILEMODE
 70
               1
  9
$MAXACTVP
 70
              64
  9
$PINSBASE
 10
0.0
 20
0.0
 30
0.0
  9
$PLIMCHECK
 70
               0
  9
$PEXTMIN
 10
1.0000000000000000E+20
 20
1.0000000000000000E+20
 30
1.0000000000000000E+20
  9
$PEXTMAX
 10
-1.0000000000000000E+20
 20
-1.0000000000000000E+20
 30
-1.0000000000000000E+20
  9
$PLIMMIN
 10
0.0
 20
0.0
  9
$PLIMMAX
 10
12.0
 20
9.0
  9
$UNITMODE
 70
               0
  9
$VISRETAIN
 70
               0
  9
$PLINEGEN
 70
               1
  9
$PSLTSCALE
 70
               0
  9
$TREEDEPTH
 70
            3020
  9
$CMLSTYLE
  2
Standard
  9
$CMLJUST
 70
               0
  9
$CMLSCALE
 40
1.0
  9
$PROXYGRAPHICS
 70
               0
  9
$MEASUREMENT
 70
               1
  9
$CELWEIGHT
370
               0
  9
$ENDCAPS
280
               0
  9
$JOINSTYLE
280
               0
  9
$LWDISPLAY
290
               1
  9
$INSUNITS
 70
               4
  9
$HYPERLINKBASE
  1

  9
$STYLESHEET
  1

  9
$XEDIT
290
               1
  9
$CEPSNTYPE
380
               0
  9
$PSTYLEMODE
290
               1
  9
$FINGERPRINTGUID
  2

  9
$VERSIONGUID
  2

  9
$EXTNAMES
290
               1
  9
$PSVPSCALE
 40
0.0
  0
ENDSEC
  0
SECTION
  2
CLASSES
  0
CLASS
  1
LWPOLYLINE
  2
AcDbPolyline
  3
AutoCAD 2000
 90
        0
280
               0
281
               1
  0
CLASS
  1
IMAGE
  2
AcDbRasterImage
  3
ISM
 90
      127
280
               0
281
               1
  0
CLASS
  1
OLE2FRAME
  2
AcDbOle2Frame
  3
AutoCAD 2000
 90
        0
280
               0
281
               1
  0
CLASS
  1
HATCH
  2
AcDbHatch
  3
AutoCAD 2000
 90
        0
280
               0
281
               1
  0
CLASS
  1
DICTIONARYVAR
  2
AcDbDictionaryVar
  3
AutoCAD 2000
 90
        0
280
               0
281
               0
  0
CLASS
  1
RASTERVARIABLES
  2
AcDbRasterVariables
  3
ISM
 90
        0
280
               0
281
               0
  0
CLASS
  1
IMAGEDEF
  2
AcDbRasterImageDef
  3
ISM
 90
        0
280
               0
281
               0
  0
CLASS
  1
IMAGEDEF_REACTOR
  2
AcDbRasterImageDefReactor
  3
ISM
 90
        1
280
               0
281
               0
  0
CLASS
  1
IDBUFFER
  2
AcDbIdBuffer
  3
AutoCAD 2000
 90
        0
280
               0
281
               0
  0
CLASS
  1
SPATIAL_FILTER
  2
AcDbSpatialFilter
  3
AutoCAD 2000
 90
        0
280
               0
281
               0
  0
CLASS
  1
XRECORD
  2
AcDbXrecord
  3
AutoCAD 2000
 90
        0
280
               0
281
               0
  0
CLASS
  1
SORTENTSTABLE
  2
AcDbSortentsTable
  3
AutoCAD 2000
 90
        0
280
               0
281
               0
  0
CLASS
  1
LAYER_INDEX
  2
AcDbLayerIndex
  3
AutoCAD 2000
 90
        0
280
               0
281
               0
  0
CLASS
  1
SPATIAL_INDEX
  2
AcDbSpatialIndex
  3
AutoCAD 2000
 90
        0
280
               0
281
               0
  0
CLASS
  1
OBJECT_PTR
  2
CAseDLPNTableRecord
  3
"ASE-LPNTableRecord"
 90
        1
280
               0
281
               0
  0
CLASS
  1
LAYOUT
  2
AcDbLayout
  3
AutoCAD 2000
 90
        0
280
               0
281
               0
  0
CLASS
  1
PLOTSETTINGS
  2
AcDbPlotSettings
  3
AutoCAD 2000
 90
        0
280
               0
281
               0
  0
CLASS
  1
ACDBDICTIONARYWDFLT
  2
AcDbDictionaryWithDefault
  3
AutoCAD 2000
 90
        0
280
               0
281
               0
  0
CLASS
  1
ACDBPLACEHOLDER
  2
AcDbPlaceHolder
  3
AutoCAD 2000
 90
        0
280
               0
281
               0
  0
CLASS
  1
VBA_PROJECT
  2
AcDbVbaProject
  3
acadvba
 90
        0
280
               0
281
               0
  0
CLASS
  1
WIPEOUT
  2
AcDbWipeout
  3
WipeOut|AutoCAD Express Tool|expresstools@autodesk.com
 90
      127
280
               0
281
               1
  0
CLASS
  1
WIPEOUTVARIABLES
  2
AcDbWipeoutVariables
  3
WipeOut|AutoCAD Express Tool|expresstools@autodesk.com
 90
        0
280
               0
281
               0
  0
CLASS
  1
RTEXT
  2
RText
  3
RText|AutoCAD Express Tool|expresstools@autodesk.com
 90
        0
280
               0
281
               1
  0
CLASS
  1
ARCALIGNEDTEXT
  2
AcDbArcAlignedText
  3
ATEXT|AutoCAD Express Tool|expresstools@autodesk.com
 90
        0
280
               0
281
               1
  0
ENDSEC
  0
SECTION
  2
TABLES
  0
TABLE
  2
VPORT
  5
7
100
AcDbSymbolTable
 70
               1
  0
VPORT
  5
15
100
AcDbSymbolTableRecord
100
AcDbViewportTableRecord
  2
*ACTIVE
 70
               0
 10
0.0
 20
0.0
 11
1.0
 21
1.0
 12
26.70208409999999
 22
-156.3713525414974
 13
0.0
 23
0.0
 14
1.0
 24
1.0
 15
0.0
 25
0.0
 16
0.0
 26
0.0
 36
1.0
 17
0.0
 27
0.0
 37
0.0
 40
47.866130282994789
 41
0.688564
 42
50.0
 43
0.0
 44
0.0
 50
0.0
 51
0.0
 71
               0
 72
            2000
 73
               1
 74
               1
 75
               0
 76
               0
 77
               0
 78
               0
281
               0
 65
               0
110
0.0
120
0.0
130
0.0
111
1.0
121
0.0
131
0.0
112
0.0
122
1.0
132
0.0
345
0
346
0
 79
               0
146
0.0
  0
ENDTAB
  0
TABLE
  2
LTYPE
  5
4
100
AcDbSymbolTable
 70
              19
  0
LTYPE
  5
11
100
AcDbSymbolTableRecord
100
AcDbLinetypeTableRecord
  2
ByBlock
 70
              64
  3

 72
              65
 73
               0
 40
0.0
  0
LTYPE
  5
12
100
AcDbSymbolTableRecord
100
AcDbLinetypeTableRecord
  2
ByLayer
 70
              64
  3

 72
              65
 73
               0
 40
0.0
  0
LTYPE
  5
13
100
AcDbSymbolTableRecord
100
AcDbLinetypeTableRecord
  2
Continuous
 70
              64
  3
Solid line
 72
              65
 73
               0
 40
0.0
  0
LTYPE
  5
36
100
AcDbSymbolTableRecord
100
AcDbLinetypeTableRecord
  2
STYLE_01
 70
               0
  3

 72
              65
 73
               2
 40
1.5
 49
1.0
 74
               0
 49
-0.5
 74
               0
  0
LTYPE
  5
37
100
AcDbSymbolTableRecord
100
AcDbLinetypeTableRecord
  2
STYLE_02
 70
               0
  3

 72
              65
 73
               2
 40
0.75
 49
0.5
 74
               0
 49
-0.25
 74
               0
  0
LTYPE
  5
38
100
AcDbSymbolTableRecord
100
AcDbLinetypeTableRecord
  2
STYLE_03
 70
               0
  3

 72
              65
 73
               4
 40
4.0
 49
0.25
 74
               0
 49
-0.5
 74
               0
 49
0.5
 74
               0
 49
-0.5
 74
               0
  0
LTYPE
  5
39
100
AcDbSymbolTableRecord
100
AcDbLinetypeTableRecord
  2
STYLE_04
 70
               0
  3

 72
              65
 73
               4
 40
5.0
 49
2.5
 74
               0
 49
-0.5
 74
               0
 49
0.5
 74
               0
 49
-0.5
 74
               0
  0
LTYPE
  5
3A
100
AcDbSymbolTableRecord
100
AcDbLinetypeTableRecord
  2
STYLE_05
 70
               0
  3

 72
              65
 73
               2
 40
0.5
 49
0.0001
 74
               0
 49
-0.4999
 74
               0
  0
LTYPE
  5
3B
100
AcDbSymbolTableRecord
100
AcDbLinetypeTableRecord
  2
STYLE_06
 70
               0
  3

 72
              65
 73
               4
 40
2.0
 49
1.0
 74
               0
 49
-0.5
 74
               0
 49
0.0001
 74
               0
 49
-0.4999
 74
               0
  0
LTYPE
  5
3C
100
AcDbSymbolTableRecord
100
AcDbLinetypeTableRecord
  2
STYLE_07
 70
               0
  3

 72
              65
 73
               6
 40
3.5
 49
1.0
 74
               0
 49
-0.5
 74
               0
 49
1.0
 74
               0
 49
-0.5
 74
               0
 49
0.0001000000000002
 74
               0
 49
-0.4998999999999998
 74
               0
  0
LTYPE
  5
3D
100
AcDbSymbolTableRecord
100
AcDbLinetypeTableRecord
  2
STYLE_08
 70
               0
  3

 72
              65
 73
               6
 40
2.5
 49
1.0
 74
               0
 49
-0.5
 74
               0
 49
0.0001
 74
               0
 49
-0.4999
 74
               0
 49
0.0001000000000002
 74
               0
 49
-0.4998999999999998
 74
               0
  0
LTYPE
  5
3E
100
AcDbSymbolTableRecord
100
AcDbLinetypeTableRecord
  2
STYLE_09
 70
               0
  3

 72
              65
 73
               2
 40
0.09722900390625
 49
0.0555572509765625
 74
               0
 49
-0.0416717529296875
 74
               0
  0
LTYPE
  5
3F
100
AcDbSymbolTableRecord
100
AcDbLinetypeTableRecord
  2
STYLE_10
 70
               0
  3

 72
              65
 73
               4
 40
0.59722900390625
 49
0.3055572509765625
 74
               0
 49
-0.15277099609375
 74
               0
 49
0.013885498046875
 74
               0
 49
-0.1250152587890625
 74
               0
  0
LTYPE
  5
40
100
AcDbSymbolTableRecord
100
AcDbLinetypeTableRecord
  2
STYLE_11
 70
               0
  3

 72
              65
 73
               4
 40
0.4305572509765625
 49
0.236114501953125
 74
               0
 49
-0.0833282470703125
 74
               0
 49
0.013885498046875
 74
               0
 49
-0.09722900390625
 74
               0
  0
LTYPE
  5
41
100
AcDbSymbolTableRecord
100
AcDbLinetypeTableRecord
  2
STYLE_12
 70
               0
  3

 72
              65
 73
               2
 40
0.0833282470703125
 49
0.0555572509765625
 74
               0
 49
-0.02777099609375
 74
               0
  0
LTYPE
  5
42
100
AcDbSymbolTableRecord
100
AcDbLinetypeTableRecord
  2
STYLE_13
 70
               0
  3

 72
              65
 73
               4
 40
0.068511962890625
 49
0.0428314208984375
 74
               0
 49
-0.0085601806640625
 74
               0
 49
0.0085601806640625
 74
               0
 49
-0.0085601806640625
 74
               0
  0
LTYPE
  5
43
100
AcDbSymbolTableRecord
100
AcDbLinetypeTableRecord
  2
STYLE_14
 70
               0
  3

 72
              65
 73
               2
 40
0.02569580078125
 49
0.0171356201171875
 74
               0
 49
-0.0085601806640625
 74
               0
  0
LTYPE
  5
44
100
AcDbSymbolTableRecord
100
AcDbLinetypeTableRecord
  2
STYLE_15
 70
               0
  3

 72
              65
 73
               6
 40
0.08563232421875
 49
0.0428314208984375
 74
               0
 49
-0.0085601806640625
 74
               0
 49
0.0085601806640625
 74
               0
 49
-0.0085601806640625
 74
               0
 49
0.0085601806640625
 74
               0
 49
-0.0085601806640625
 74
               0
  0
LTYPE
  5
45
100
AcDbSymbolTableRecord
100
AcDbLinetypeTableRecord
  2
STYLE_16
 70
               0
  3

 72
              65
 73
               2
 40
0.375
 49
0.25
 74
               0
 49
-0.125
 74
               0
  0
ENDTAB
  0
TABLE
  2
LAYER
  5
2
100
AcDbSymbolTable
 70
               5
  0
LAYER
  5
14
100
AcDbSymbolTableRecord
100
AcDbLayerTableRecord
  2
0
 70
               0
 62
               7
  6
Continuous
290
               1
370
              -3
390
1D
  0
LAYER
  5
46
100
AcDbSymbolTableRecord
100
AcDbLayerTableRecord
  2
Defpoints
 70
               0
 62
               7
  6
Continuous
290
               0
370
              -3
390
1D
  0
LAYER
  5
47
100
AcDbSymbolTableRecord
100
AcDbLayerTableRecord
  2
None
 70
               0
 62
               7
  6
Continuous
290
               1
370
               5
390
1D
  0
LAYER
  5
48
100
AcDbSymbolTableRecord
100
AcDbLayerTableRecord
  2
Dimension
 70
               0
 62
               7
  6
Continuous
290
               1
370
               5
390
1D
  0
LAYER
  5
49
100
AcDbSymbolTableRecord
100
AcDbLayerTableRecord
  2
Solid Lines
 70
               0
 62
               7
  6
Continuous
290
               1
370
              25
390
1D
  0
ENDTAB
  0
TABLE
  2
STYLE
  5
3
100
AcDbSymbolTable
 70
               5
  0
STYLE
  5
17
100
AcDbSymbolTableRecord
100
AcDbTextStyleTableRecord
  2
Standard
 70
               0
 40
0.0
 41
1.0
 50
0.0
 71
               0
 42
0.0
  3
txt
  4

  0
STYLE
  5
32
100
AcDbSymbolTableRecord
100
AcDbTextStyleTableRecord
  2
Arial
 70
               0
 40
0.0
 41
1.0
 50
0.0
 71
               0
 42
0.0
  3
Arial
  4

1001
ACAD
1000
Arial
1071
        0
  0
STYLE
  5
33
100
AcDbSymbolTableRecord
100
AcDbTextStyleTableRecord
  2
Arial (bold)
 70
               0
 40
0.0
 41
1.0
 50
0.0
 71
               0
 42
0.0
  3
Arial
  4

1001
ACAD
1000
Arial
1071
 33554432
  0
STYLE
  5
34
100
AcDbSymbolTableRecord
100
AcDbTextStyleTableRecord
  2
Helvetica
 70
               0
 40
0.0
 41
1.0
 50
0.0
 71
               0
 42
0.0
  3
Helvetica
  4

1001
ACAD
1000
Helvetica
1071
        0
  0
STYLE
  5
35
100
AcDbSymbolTableRecord
100
AcDbTextStyleTableRecord
  2
New Century Schlbk
 70
               0
 40
0.0
 41
1.0
 50
0.0
 71
               0
 42
0.0
  3
New Century Schlbk
  4

1001
ACAD
1000
New Century Schlbk
1071
        0
  0
ENDTAB
  0
TABLE
  2
VIEW
  5
5
100
AcDbSymbolTable
 70
               0
  0
ENDTAB
  0
TABLE
  2
UCS
  5
6
100
AcDbSymbolTable
 70
               0
  0
ENDTAB
  0
TABLE
  2
APPID
  5
8
100
AcDbSymbolTable
 70
               1
  0
APPID
  5
16
100
AcDbSymbolTableRecord
100
AcDbRegAppTableRecord
  2
ACAD
 70
               0
  0
ENDTAB
  0
TABLE
  2
DIMSTYLE
  5
9
100
AcDbSymbolTable
 70
               2
100
AcDbDimStyleTable
 71
               0
  0
DIMSTYLE
105
18
100
AcDbSymbolTableRecord
100
AcDbDimStyleTableRecord
  2
Standard
 70
               0
  3

  4

 40
1.0
 41
0.18
 42
0.0625
 43
0.38
 44
0.18
 45
0.0
 46
0.0
 47
0.0
 48
0.0
 71
               0
 72
               0
 73
               1
 74
               1
 75
               0
 76
               0
 77
               0
 78
               0
 79
               0
140
0.18
141
0.09
142
0.0
143
25.399999999999999
144
1.0
145
0.0
146
1.0
147
0.09
148
0.0
170
               0
171
               2
172
               0
173
               0
174
               0
175
               0
176
               0
177
               0
178
               0
179
               0
271
               4
272
               4
273
               2
274
               2
275
               0
276
               0
277
               2
278
              46
279
               0
280
               0
281
               0
282
               0
283
               1
284
               0
285
               0
286
               0
288
               0
289
               3
340
17
341
0
342
0
343
0
344
0
371
              -2
372
              -2
  0
DIMSTYLE
105
52
100
AcDbSymbolTableRecord
100
AcDbDimStyleTableRecord
  2
IE Standard
 70
               0
  3
<>mm
  4
[]"
 40
1.0
 41
0.79375
 42
0.4762500011827797
 43
6.9999859934672708
 44
0.9525000023655593
 45
0.0
 46
0.0
 47
0.0
 48
0.0
 71
               0
 72
               0
 73
               1
 74
               1
 75
               0
 76
               0
 77
               0
 78
              11
 79
               0
140
0.6315976562499999
141
0.0
142
0.0
143
0.0393700787401575
144
1.0
145
0.0
146
1.0
147
0.0
148
0.0
170
               0
171
               3
172
               1
173
               0
174
               1
175
               0
176
               0
177
               0
178
               0
179
               0
271
               2
272
               2
273
               2
274
               2
275
               0
276
               2
277
               2
278
              46
279
               0
280
               0
281
               0
282
               0
283
               1
284
              11
285
               3
286
               3
288
               0
289
               0
340
34
341
4E
342
4A
343
0
344
0
371
              -2
372
              -2
  0
ENDTAB
  0
TABLE
  2
BLOCK_RECORD
  5
1
100
AcDbSymbolTable
 70
              16
  0
BLOCK_RECORD
  5
A
100
AcDbSymbolTableRecord
100
AcDbBlockTableRecord
  2
*MODEL_SPACE
340
20
  0
BLOCK_RECORD
  5
B
100
AcDbSymbolTableRecord
100
AcDbBlockTableRecord
  2
*PAPER_SPACE
340
21
  0
BLOCK_RECORD
  5
4A
100
AcDbSymbolTableRecord
100
AcDbBlockTableRecord
  2
VW_FILLEDARROW
340
0
  0
BLOCK_RECORD
  5
4E
100
AcDbSymbolTableRecord
100
AcDbBlockTableRecord
  2
VW_FILLEDARROW-1
340
0
  0
BLOCK_RECORD
  5
24
100
AcDbSymbolTableRecord
100
AcDbBlockTableRecord
  2
IE i logo
340
0
102
{BLKREFS
331
17A
102
}
  0
BLOCK_RECORD
  5
25
100
AcDbSymbolTableRecord
100
AcDbBlockTableRecord
  2
©2006_address
340
0
102
{BLKREFS
331
17C
102
}
  0
BLOCK_RECORD
  5
26
100
AcDbSymbolTableRecord
100
AcDbBlockTableRecord
  2
*D4
340
0
  0
BLOCK_RECORD
  5
27
100
AcDbSymbolTableRecord
100
AcDbBlockTableRecord
  2
*D5
340
0
  0
BLOCK_RECORD
  5
28
100
AcDbSymbolTableRecord
100
AcDbBlockTableRecord
  2
*D6
340
0
  0
BLOCK_RECORD
  5
29
100
AcDbSymbolTableRecord
100
AcDbBlockTableRecord
  2
*D7
340
0
  0
BLOCK_RECORD
  5
2A
100
AcDbSymbolTableRecord
100
AcDbBlockTableRecord
  2
*D8
340
0
  0
BLOCK_RECORD
  5
2B
100
AcDbSymbolTableRecord
100
AcDbBlockTableRecord
  2
*D9
340
0
  0
BLOCK_RECORD
  5
2C
100
AcDbSymbolTableRecord
100
AcDbBlockTableRecord
  2
*D10
340
0
  0
BLOCK_RECORD
  5
2D
100
AcDbSymbolTableRecord
100
AcDbBlockTableRecord
  2
*D11
340
0
  0
BLOCK_RECORD
  5
2E
100
AcDbSymbolTableRecord
100
AcDbBlockTableRecord
  2
*D12
340
0
  0
BLOCK_RECORD
  5
2F
100
AcDbSymbolTableRecord
100
AcDbBlockTableRecord
  2
*D13
340
0
  0
BLOCK_RECORD
  5
30
100
AcDbSymbolTableRecord
100
AcDbBlockTableRecord
  2
*D14
340
0
  0
BLOCK_RECORD
  5
31
100
AcDbSymbolTableRecord
100
AcDbBlockTableRecord
  2
*D15
340
0
  0
ENDTAB
  0
ENDSEC
  0
SECTION
  2
BLOCKS
  0
BLOCK
  5
D
100
AcDbEntity
  8
0
390
0
100
AcDbBlockBegin
  2
*MODEL_SPACE
 70
               0
 10
0.0
 20
0.0
 30
0.0
  3
*MODEL_SPACE
  1

  0
ENDBLK
  5
E
100
AcDbEntity
  8
0
390
0
100
AcDbBlockEnd
  0
BLOCK
  5
F
100
AcDbEntity
 67
               1
  8
0
390
0
100
AcDbBlockBegin
  2
*PAPER_SPACE
 70
               0
 10
0.0
 20
0.0
 30
0.0
  3
*PAPER_SPACE
  1

  0
ENDBLK
  5
10
100
AcDbEntity
 67
               1
  8
0
390
0
100
AcDbBlockEnd
  0
BLOCK
  5
4B
100
AcDbEntity
  8
0
370
              -2
390
0
  6
ByBlock
 62
               0
100
AcDbBlockBegin
  2
VW_FILLEDARROW
 70
               0
 10
0.0
 20
0.0
 30
0.0
  3
VW_FILLEDARROW
  1

  0
SOLID
  5
4C
100
AcDbEntity
  8
0
370
              -2
390
0
 62
               0
100
AcDbTrace
 10
0.0
 20
0.0
 30
0.0
 11
-0.9999389648437499
 21
-0.2679328381102956
 31
0.0
 12
-0.9999389648437499
 22
0.2679328381102958
 32
0.0
 13
-0.9999389648437499
 23
0.2679328381102958
 33
0.0
  0
ENDBLK
  5
4D
100
AcDbEntity
  8
0
390
0
100
AcDbBlockEnd
  0
BLOCK
  5
4F
100
AcDbEntity
  8
0
370
              -2
390
0
  6
ByBlock
 62
               0
100
AcDbBlockBegin
  2
VW_FILLEDARROW-1
 70
               0
 10
0.0
 20
0.0
 30
0.0
  3
VW_FILLEDARROW
  1

  0
SOLID
  5
50
100
AcDbEntity
  8
0
370
              -2
390
0
 62
               0
100
AcDbTrace
 10
0.0
 20
0.0
 30
0.0
 11
-0.6662384033203125
 21
-0.1785180421362784
 31
0.0
 12
-0.6662384033203125
 22
0.1785180421362785
 32
0.0
 13
-0.6662384033203125
 23
0.1785180421362785
 33
0.0
  0
ENDBLK
  5
51
100
AcDbEntity
  8
0
390
0
100
AcDbBlockEnd
  0
BLOCK
  5
53
100
AcDbEntity
  8
None
390
0
100
AcDbBlockBegin
  2
IE i logo
 70
               0
 10
0.0
 20
0.0
 30
0.0
  3
IE i logo
  1

  0
CIRCLE
  5
54
102
{ACAD_REACTORS
330
55
102
}
100
AcDbEntity
  8
None
370
               5
390
0
  6
Continuous
 62
               7
100
AcDbCircle
 10
0.0
 20
0.0
 30
0.0
 40
2.6707900018721049
  0
HATCH
  5
55
100
AcDbEntity
  8
None
370
               0
390
0
  6
Continuous
 62
               7
100
AcDbHatch
 10
0.0
 20
0.0
 30
0.0
210
0.0
220
0.0
230
1.0
  2
SOLID
 70
               1
 71
               1
 91
        1
 92
        1
 93
        1
 72
               2
 10
0.0
 20
0.0
 40
2.6707900018721049
 50
0.0
 51
360.0
 73
               0
 97
        1
330
54
 75
               0
 76
               1
 98
        1
 10
0.0
 20
0.0
  0
WIPEOUT
  5
56
100
AcDbEntity
  8
None
370
               5
390
0
  6
Continuous
 62
               7
 92
        0
100
AcDbWipeout
 90
        0
 10
-1.01559
 20
0.73569
 30
0.0
 11
0.6889700000000001
 21
0.0
 31
0.0
 12
0.0
 22
0.6889700000000001
 32
0.0
 13
1.0
 23
1.0
340
0
 70
               7
280
               1
281
              50
282
              50
283
               0
360
0
 71
               2
 91
       97
 14
-0.384131384530531
 24
0.0667881039813055
 14
-0.3634758906411018
 24
0.0346239223043094
 14
-0.3415474367534144
 24
0.00272054661306
 14
-0.3183460228674687
 24
-0.0289220230924422
 14
-0.2938716489832648
 24
-0.0603037868121978
 14
-0.2681243151008025
 24
-0.0914247445462067
 14
-0.2411040212200821
 24
-0.1222848962944686
 14
-0.2128107673411033
 24
-0.1528842420569836
 14
-0.1832445534638663
 24
-0.1832227818337517
 14
-0.1529111164129063
 24
-0.2127940984367968
 14
-0.1223161930127582
 24
-0.2410917746781425
 14
-0.0914597832634222
 24
-0.2681158105577891
 14
-0.0603418871648982
 24
-0.2938662060757359
 14
-0.0289625047171866
 24
-0.3183429612319839
 14
0.0026783640797133
 24
-0.3415460760265321
 14
0.0345807192258009
 24
-0.3634755504593811
 14
0.0667445607210765
 24
-0.384131384530531
 14
0.0986291130237893
 24
-0.4031788394269708
 14
0.1296936005921883
 24
-0.4202831763356896
 14
0.1599380234262741
 24
-0.4354443952566872
 14
0.1893623815260462
 24
-0.4486624961899646
 14
0.2179666748915049
 24
-0.4599374791355209
 14
0.2457509035226498
 24
-0.4692693440933564
 14
0.2727150674194813
 24
-0.4766580910634712
 14
0.2988591665819992
 24
-0.4821037200458653
 14
0.3237520773763735
 24
-0.485530597304672
 14
0.3469626761687736
 24
-0.4868630891040248
 14
0.3684909629591999
 24
-0.4861011954439233
 14
0.3883369377476522
 24
-0.483244916324368
 14
0.4065006005341306
 24
-0.4782942517453585
 14
0.4229819513186351
 24
-0.4712492017068954
 14
0.4377809901011655
 24
-0.4621097662089782
 14
0.450897716881722
 24
-0.4508759452516074
 14
0.462126435113285
 24
-0.4377544559269632
 14
0.4712614482488352
 24
-0.4229520153272275
 14
0.4783027562883724
 24
-0.4064686234523998
 14
0.4832503592318967
 24
-0.3883042803024801
 14
0.4861042570794083
 24
-0.3684589858774687
 14
0.486864449830907
 24
-0.3469327401773656
 14
0.4855309374863926
 24
-0.3237255432021711
 14
0.4821037200458654
 24
-0.2988373949518843
 14
0.4766580910634716
 24
-0.2726983985151745
 14
0.4692693440933567
 24
-0.24573865698071
 14
0.4599374791355212
 24
-0.217958170348491
 14
0.4486624961899646
 24
-0.1893569386185173
 14
0.4354443952566874
 24
-0.1599349617907888
 14
0.4202831763356894
 24
-0.1296922398653057
 14
0.4031788394269706
 24
-0.0986287728420684
 14
0.384131384530531
 24
-0.0667445607210762
 14
0.363475890641102
 24
-0.0345803790440801
 14
0.3415474367534145
 24
-0.0026770033528307
 14
0.3183460228674687
 24
0.0289655663526718
 14
0.2938716489832648
 24
0.0603473300724272
 14
0.2681243151008025
 24
0.0914682878064358
 14
0.2411040212200821
 24
0.1223284395546979
 14
0.2128107673411033
 24
0.1529277853172129
 14
0.1832445534638663
 24
0.1832663250939811
 14
0.1529111164129063
 24
0.2128376416970262
 14
0.1223161930127581
 24
0.2411353179383721
 14
0.0914597832634222
 24
0.2681593538180184
 14
0.0603418871648983
 24
0.2939097493359655
 14
0.0289625047171866
 24
0.3183865044922132
 14
-0.0026783640797133
 24
0.3415896192867617
 14
-0.0345807192258009
 24
0.3635190937196106
 14
-0.0667445607210765
 24
0.3841749277907604
 14
-0.0986291130237892
 24
0.4032220425054794
 14
-0.1296936005921883
 24
0.4203253588690366
 14
-0.159938023426274
 24
0.4354848768814319
 14
-0.1893623815260462
 24
0.4487005965426653
 14
-0.2179666748915049
 24
0.4599725178527369
 14
-0.2457509035226499
 24
0.4693006408116466
 14
-0.2727150674194813
 24
0.4766849654193943
 14
-0.2988591665819992
 24
0.4821254916759801
 14
-0.3237520773763735
 24
0.4855476063906992
 14
-0.3469626761687736
 24
0.4868766963728464
 14
-0.3684909629591999
 24
0.486112761622422
 14
-0.3883369377476522
 24
0.4832558021394255
 14
-0.4065006005341306
 24
0.4783058179238573
 14
-0.4229819513186351
 24
0.4712628089757174
 14
-0.4377809901011655
 24
0.4621267752950057
 14
-0.450897716881722
 24
0.450897716881722
 14
-0.462126435113285
 24
0.437781330282886
 14
-0.4712614482488352
 24
0.4229833120455172
 14
-0.4783027562883724
 24
0.4065036621696155
 14
-0.4832503592318967
 24
0.388342380655181
 14
-0.4861042570794085
 24
0.3684994675022135
 14
-0.486864449830907
 24
0.3469749227107132
 14
-0.4855309374863926
 24
0.32376874628068
 14
-0.4821037200458657
 24
0.2988809382121138
 14
-0.4766580910634715
 24
0.2727419417754038
 14
-0.4692693440933567
 24
0.2457822002409394
 14
-0.4599374791355211
 24
0.2180017136087203
 14
-0.4486624961899646
 24
0.1894004818787466
 14
-0.4354443952566874
 24
0.1599785050510182
 14
-0.4202831763356894
 24
0.1297357831255353
 14
-0.4031788394269706
 24
0.0986723161022978
 14
-0.384131384530531
 24
0.0667881039813055
  0
SPLINE
  5
57
100
AcDbEntity
  8
None
370
               5
390
0
  6
Continuous
 62
               7
100
AcDbSpline
210
0.0
220
0.0
230
1.0
 70
               9
 71
               2
 72
              17
 73
              14
 74
               0
 42
0.000001
 43
0.000001
 40
0.0
 40
0.0
 40
0.0
 40
1.0
 40
2.0
 40
3.0
 40
4.0
 40
5.0
 40
6.0
 40
7.0
 40
8.0
 40
9.0
 40
10.0
 40
11.0
 40
12.0
 40
12.0
 40
12.0
 10
-0.9357599999999999
 20
1.03416
 30
0.0
 10
-0.8805899999999999
 20
1.1231599999999999
 30
0.0
 10
-0.71412
 20
1.2896599999999998
 30
0.0
 10
-0.5361199999999999
 20
1.3999999999999999
 30
0.0
 10
-0.39428
 20
1.4246599999999998
 30
0.0
 10
-0.32662
 20
1.3569699999999998
 30
0.0
 10
-0.35128
 20
1.2151599999999998
 30
0.0
 10
-0.46162
 20
1.0371599999999999
 30
0.0
 10
-0.6280899999999999
 20
0.8706599999999999
 30
0.0
 10
-0.80609
 20
0.7603199999999999
 30
0.0
 10
-0.9479299999999999
 20
0.73569
 30
0.0
 10
-1.01559
 20
0.8033499999999999
 30
0.0
 10
-0.9909299999999999
 20
0.9451599999999999
 30
0.0
 10
-0.9357599999999999
 20
1.03416
 30
0.0
  0
WIPEOUT
  5
58
100
AcDbEntity
  8
None
370
               5
390
0
  6
Continuous
 62
               7
 92
        0
100
AcDbWipeout
 90
        0
 10
-1.7197799999999999
 20
-1.8961899999999998
 30
0.0
 11
1.8520599999999998
 21
0.0
 31
0.0
 12
0.0
 22
1.8520599999999998
 32
0.0
 13
1.0
 23
1.0
340
0
 70
               7
280
               1
281
              50
282
              50
283
               0
360
0
 71
               2
 91
       36
 14
-0.4523827521786551
 24
0.3095202099284041
 14
-0.2500026996965541
 24
0.1190404198568081
 14
-0.2142911136788225
 24
0.1190404198568081
 14
-0.0714231720354632
 24
0.3690377201602539
 14
0.0
 24
0.4523827521786551
 14
0.0714231720354633
 24
0.5
 14
0.2142857142857143
 24
0.5
 14
0.3690539183395787
 24
0.4047493061779856
 14
0.4761940757858817
 24
0.3095202099284041
 14
0.5
 24
0.2380916384998327
 14
0.5
 24
0.1071347580531948
 14
0.4880997375894949
 24
0.0714231720354632
 14
0.4642884139822685
 24
0.0714231720354632
 14
0.4285768279645368
 24
0.0829562757146097
 14
0.3214258717320173
 24
0.1666522682850447
 14
0.274726520739069
 24
0.1785579300886581
 14
0.2142857142857143
 24
0.1666522682850447
 14
0.190479790071596
 24
0.1070915629083291
 14
0.1428625422502512
 24
0.0238059242141183
 14
0.1190404198568082
 24
-0.0833450320184012
 14
0.1071347580531948
 24
-0.2142911136788225
 14
0.0714231720354633
 24
-0.2857304838936103
 14
0.0238059242141184
 24
-0.3452533935185685
 14
-0.0238059242141183
 24
-0.3866289429068173
 14
-0.0714231720354632
 24
-0.3866289429068173
 14
-0.1309622798397461
 24
-0.3571536559290736
 14
-0.1785741282679827
 24
-0.2976361456972236
 14
-0.2619029621070591
 24
-0.178579527661091
 14
-0.342424111529864
 24
-0.1071563556256276
 14
-0.4727114672310832
 24
0.0238059242141183
 14
-0.5
 24
0.0714231720354632
 14
-0.5
 24
0.1547520058745397
 14
-0.5
 24
0.2380916384998327
 14
-0.5
 24
0.2857088863211775
 14
-0.4880997375894949
 24
0.3214204723389091
 14
-0.4523827521786551
 24
0.3095202099284041
  0
POLYLINE
  5
59
100
AcDbEntity
  8
None
370
               5
390
0
  6
Continuous
 62
               7
100
AcDb2dPolyline
 66
               1
 10
0.0
 20
0.0
 30
0.0
 70
               1
 75
               5
  0
VERTEX
  5
5A
100
AcDbEntity
  8
None
370
               5
390
0
  6
Continuous
 62
               7
100
AcDbVertex
100
AcDb2dVertex
 10
-1.6315899999999999
 20
-1.5434099999999999
 30
0.0
  0
VERTEX
  5
5B
100
AcDbEntity
  8
None
370
               5
390
0
  6
Continuous
 62
               7
100
AcDbVertex
100
AcDb2dVertex
 10
-1.2567699999999999
 20
-1.1906299999999999
 30
0.0
  0
VERTEX
  5
5C
100
AcDbEntity
  8
None
370
               5
390
0
  6
Continuous
 62
               7
100
AcDbVertex
100
AcDb2dVertex
 10
-1.1906299999999999
 20
-1.1906299999999999
 30
0.0
  0
VERTEX
  5
5D
100
AcDbEntity
  8
None
370
               5
390
0
  6
Continuous
 62
               7
100
AcDbVertex
100
AcDb2dVertex
 10
-0.9260299999999999
 20
-1.6536399999999998
 30
0.0
  0
VERTEX
  5
5E
100
AcDbEntity
  8
None
370
               5
390
0
  6
Continuous
 62
               7
100
AcDbVertex
100
AcDb2dVertex
 10
-0.79375
 20
-1.8079999999999998
 30
0.0
  0
VERTEX
  5
5F
100
AcDbEntity
  8
None
370
               5
390
0
  6
Continuous
 62
               7
100
AcDbVertex
100
AcDb2dVertex
 10
-0.6614699999999999
 20
-1.8961899999999998
 30
0.0
  0
VERTEX
  5
60
100
AcDbEntity
  8
None
370
               5
390
0
  6
Continuous
 62
               7
100
AcDbVertex
100
AcDb2dVertex
 10
-0.39688
 20
-1.8961899999999998
 30
0.0
  0
VERTEX
  5
61
100
AcDbEntity
  8
None
370
               5
390
0
  6
Continuous
 62
               7
100
AcDbVertex
100
AcDb2dVertex
 10
-0.11024
 20
-1.7197799999999999
 30
0.0
  0
VERTEX
  5
62
100
AcDbEntity
  8
None
370
               5
390
0
  6
Continuous
 62
               7
100
AcDbVertex
100
AcDb2dVertex
 10
0.08819
 20
-1.5434099999999999
 30
0.0
  0
VERTEX
  5
63
100
AcDbEntity
  8
None
370
               5
390
0
  6
Continuous
 62
               7
100
AcDbVertex
100
AcDb2dVertex
 10
0.13228
 20
-1.4111199999999999
 30
0.0
  0
VERTEX
  5
64
100
AcDbEntity
  8
None
370
               5
390
0
  6
Continuous
 62
               7
100
AcDbVertex
100
AcDb2dVertex
 10
0.13228
 20
-1.16858
 30
0.0
  0
VERTEX
  5
65
100
AcDbEntity
  8
None
370
               5
390
0
  6
Continuous
 62
               7
100
AcDbVertex
100
AcDb2dVertex
 10
0.11024
 20
-1.1024399999999999
 30
0.0
  0
VERTEX
  5
66
100
AcDbEntity
  8
None
370
               5
390
0
  6
Continuous
 62
               7
100
AcDbVertex
100
AcDb2dVertex
 10
0.06614
 20
-1.1024399999999999
 30
0.0
  0
VERTEX
  5
67
100
AcDbEntity
  8
None
370
               5
390
0
  6
Continuous
 62
               7
100
AcDbVertex
100
AcDb2dVertex
 10
0.0
 20
-1.1237999999999999
 30
0.0
  0
VERTEX
  5
68
100
AcDbEntity
  8
None
370
               5
390
0
  6
Continuous
 62
               7
100
AcDbVertex
100
AcDb2dVertex
 10
-0.19845
 20
-1.2788099999999998
 30
0.0
  0
VERTEX
  5
69
100
AcDbEntity
  8
None
370
               5
390
0
  6
Continuous
 62
               7
100
AcDbVertex
100
AcDb2dVertex
 10
-0.28494
 20
-1.3008599999999999
 30
0.0
  0
VERTEX
  5
6A
100
AcDbEntity
  8
None
370
               5
390
0
  6
Continuous
 62
               7
100
AcDbVertex
100
AcDb2dVertex
 10
-0.39688
 20
-1.2788099999999998
 30
0.0
  0
VERTEX
  5
6B
100
AcDbEntity
  8
None
370
               5
390
0
  6
Continuous
 62
               7
100
AcDbVertex
100
AcDb2dVertex
 10
-0.44097
 20
-1.1684999999999999
 30
0.0
  0
VERTEX
  5
6C
100
AcDbEntity
  8
None
370
               5
390
0
  6
Continuous
 62
               7
100
AcDbVertex
100
AcDb2dVertex
 10
-0.52916
 20
-1.0142499999999999
 30
0.0
  0
VERTEX
  5
6D
100
AcDbEntity
  8
None
370
               5
390
0
  6
Continuous
 62
               7
100
AcDbVertex
100
AcDb2dVertex
 10
-0.5732799999999999
 20
-0.8158
 30
0.0
  0
VERTEX
  5
6E
100
AcDbEntity
  8
None
370
               5
390
0
  6
Continuous
 62
               7
100
AcDbVertex
100
AcDb2dVertex
 10
-0.5953299999999999
 20
-0.5732799999999999
 30
0.0
  0
VERTEX
  5
6F
100
AcDbEntity
  8
None
370
               5
390
0
  6
Continuous
 62
               7
100
AcDbVertex
100
AcDb2dVertex
 10
-0.6614699999999999
 20
-0.44097
 30
0.0
  0
VERTEX
  5
70
100
AcDbEntity
  8
None
370
               5
390
0
  6
Continuous
 62
               7
100
AcDbVertex
100
AcDb2dVertex
 10
-0.7496599999999999
 20
-0.33073
 30
0.0
  0
VERTEX
  5
71
100
AcDbEntity
  8
None
370
               5
390
0
  6
Continuous
 62
               7
100
AcDbVertex
100
AcDb2dVertex
 10
-0.8378399999999999
 20
-0.2541
 30
0.0
  0
VERTEX
  5
72
100
AcDbEntity
  8
None
370
               5
390
0
  6
Continuous
 62
               7
100
AcDbVertex
100
AcDb2dVertex
 10
-0.9260299999999999
 20
-0.2541
 30
0.0
  0
VERTEX
  5
73
100
AcDbEntity
  8
None
370
               5
390
0
  6
Continuous
 62
               7
100
AcDbVertex
100
AcDb2dVertex
 10
-1.0363
 20
-0.30869
 30
0.0
  0
VERTEX
  5
74
100
AcDbEntity
  8
None
370
               5
390
0
  6
Continuous
 62
               7
100
AcDbVertex
100
AcDb2dVertex
 10
-1.1244799999999999
 20
-0.41892
 30
0.0
  0
VERTEX
  5
75
100
AcDbEntity
  8
None
370
               5
390
0
  6
Continuous
 62
               7
100
AcDbVertex
100
AcDb2dVertex
 10
-1.2788099999999998
 20
-0.63942
 30
0.0
  0
VERTEX
  5
76
100
AcDbEntity
  8
None
370
               5
390
0
  6
Continuous
 62
               7
100
AcDbVertex
100
AcDb2dVertex
 10
-1.4279399999999998
 20
-0.7716999999999999
 30
0.0
  0
VERTEX
  5
77
100
AcDbEntity
  8
None
370
               5
390
0
  6
Continuous
 62
               7
100
AcDbVertex
100
AcDb2dVertex
 10
-1.6692399999999998
 20
-1.0142499999999999
 30
0.0
  0
VERTEX
  5
78
100
AcDbEntity
  8
None
370
               5
390
0
  6
Continuous
 62
               7
100
AcDbVertex
100
AcDb2dVertex
 10
-1.7197799999999999
 20
-1.1024399999999999
 30
0.0
  0
VERTEX
  5
79
100
AcDbEntity
  8
None
370
               5
390
0
  6
Continuous
 62
               7
100
AcDbVertex
100
AcDb2dVertex
 10
-1.7197799999999999
 20
-1.2567699999999999
 30
0.0
  0
VERTEX
  5
7A
100
AcDbEntity
  8
None
370
               5
390
0
  6
Continuous
 62
               7
100
AcDbVertex
100
AcDb2dVertex
 10
-1.7197799999999999
 20
-1.4111199999999999
 30
0.0
  0
VERTEX
  5
7B
100
AcDbEntity
  8
None
370
               5
390
0
  6
Continuous
 62
               7
100
AcDbVertex
100
AcDb2dVertex
 10
-1.7197799999999999
 20
-1.4993099999999999
 30
0.0
  0
VERTEX
  5
7C
100
AcDbEntity
  8
None
370
               5
390
0
  6
Continuous
 62
               7
100
AcDbVertex
100
AcDb2dVertex
 10
-1.6977399999999998
 20
-1.5654499999999998
 30
0.0
  0
SEQEND
  5
7D
100
AcDbEntity
  8
None
370
               5
390
0
  6
Continuous
 62
               7
  0
POLYLINE
  5
7E
100
AcDbEntity
  8
None
370
               5
390
0
  6
Continuous
 62
               7
100
AcDb2dPolyline
 66
               1
 10
0.0
 20
0.0
 30
0.0
 75
               5
  0
VERTEX
  5
7F
100
AcDbEntity
  8
None
370
               5
390
0
  6
Continuous
 62
               7
100
AcDbVertex
100
AcDb2dVertex
 10
-1.7197799999999999
 20
-1.1410199999999999
 30
0.0
  0
VERTEX
  5
80
100
AcDbEntity
  8
None
370
               5
390
0
  6
Continuous
 62
               7
100
AcDbVertex
100
AcDb2dVertex
 10
-1.7197799999999999
 20
-1.45522
 30
0.0
  0
VERTEX
  5
81
100
AcDbEntity
  8
None
370
               5
390
0
  6
Continuous
 62
               7
100
AcDbVertex
100
AcDb2dVertex
 10
-1.7197799999999999
 20
-1.4772599999999998
 30
0.0
  0
VERTEX
  5
82
100
AcDbEntity
  8
None
370
               5
390
0
  6
Continuous
 62
               7
100
AcDbVertex
100
AcDb2dVertex
 10
-1.71427
 20
-1.5158499999999999
 30
0.0
  0
SEQEND
  5
83
100
AcDbEntity
  8
None
370
               5
390
0
  6
Continuous
 62
               7
  0
ENDBLK
  5
84
100
AcDbEntity
  8
None
390
0
100
AcDbBlockEnd
  0
BLOCK
  5
85
100
AcDbEntity
  8
None
390
0
100
AcDbBlockBegin
  2
©2006_address
 70
               0
 10
0.0
 20
0.0
 30
0.0
  3
©2006_address
  1

  0
MTEXT
  5
86
100
AcDbEntity
  8
None
390
0
 62
               7
100
AcDbMText
 10
0.0
 20
2.7477645770833359
 30
0.0
 40
0.9298981770833332
 41
36.738279999999996
 71
               2
 72
               1
  1
© 2006 IRONWOOD ELECTRONICS, INC.\P11351 Rupp Drive, Suite 400, Burnsville, MN 55337\PTele: (952) 229-8200\Pwww.ironwoodelectronics.com
  7
Arial
 73
               1
 44
0.9673603504928809
  0
ENDBLK
  5
87
100
AcDbEntity
  8
None
390
0
100
AcDbBlockEnd
  0
BLOCK
  5
88
100
AcDbEntity
  8
Dimension
390
0
100
AcDbBlockBegin
  2
*D4
 70
               1
 10
0.0
 20
0.0
 30
0.0
  3
*D4
  1

  0
LINE
  5
89
100
AcDbEntity
  8
Dimension
370
              -2
390
0
  6
Continuous
 62
               0
100
AcDbLine
 10
16.651861598817213
 20
-143.0224474
 30
0.0
 11
5.8475015976344373
 21
-143.0224474
 31
0.0
  0
LINE
  5
8A
100
AcDbEntity
  8
Dimension
370
              -2
390
0
  6
Continuous
 62
               0
100
AcDbLine
 10
16.651861598817213
 20
-161.2474474
 30
0.0
 11
5.8475015976344338
 21
-161.2474474
 31
0.0
  0
LINE
  5
8B
100
AcDbEntity
  8
Dimension
370
              -2
390
0
  6
Continuous
 62
               0
100
AcDbLine
 10
6.8000015999999945
 20
-143.0224474
 30
0.0
 11
6.8000015999999945
 21
-161.2474474
 31
0.0
  0
SOLID
  5
8C
100
AcDbEntity
  8
Dimension
370
              -2
390
0
 62
               0
100
AcDbTrace
 10
6.8000015999999945
 20
-143.0224474
 30
0.0
 11
7.0126862714921963
 21
-143.81619739999999
 31
0.0
 12
6.5873169285077893
 22
-143.81619739999999
 32
0.0
 13
6.5873169285077893
 23
-143.81619739999999
 33
0.0
  0
SOLID
  5
8D
100
AcDbEntity
  8
Dimension
370
              -2
390
0
 62
               0
100
AcDbTrace
 10
6.8000015999999945
 20
-161.2474474
 30
0.0
 11
6.5873169285077893
 21
-160.45369739999998
 31
0.0
 12
7.0126862714921998
 22
-160.45369739999998
 32
0.0
 13
7.0126862714921998
 23
-160.45369739999998
 33
0.0
  0
WIPEOUT
  5
8E
100
AcDbEntity
  8
Dimension
370
              -2
390
0
  6
Continuous
 62
               0
 92
        0
100
AcDbWipeout
 90
        0
 10
1.7508909350760078
 20
30.937259796302619
 30
0.0
 11
4.1980342255698311
 21
0.0
 31
0.0
 12
0.0
 22
4.1980342255698311
 32
0.0
 13
1.0
 23
1.0
340
0
 70
               7
280
               1
281
              50
282
              50
283
               0
360
0
 71
               2
 91
        5
 14
-0.5
 24
43.934848122337414
 14
0.5
 24
43.934848122337414
 14
0.5
 24
43.693251473643507
 14
-0.5
 24
43.693251473643507
 14
-0.5
 24
43.934848122337414
  0
MTEXT
  5
8F
100
AcDbEntity
  8
Dimension
390
0
 62
               0
100
AcDbMText
 10
1.7508909350760078
 20
-150.55163654744737
 30
0.0
 40
0.6315976562499999
 41
0.0
 71
               1
 72
               1
  1
18.225mm
  7
Helvetica
 73
               1
 44
0.9673603504928808
  0
WIPEOUT
  5
90
100
AcDbEntity
  8
Dimension
370
              -2
390
0
  6
Continuous
 62
               0
 92
        0
100
AcDbWipeout
 90
        0
 10
5.9489251606458389
 20
30.937257574080398
 30
0.0
 11
4.1892149156994307
 21
0.0
 31
0.0
 12
0.0
 22
4.1892149156994307
 32
0.0
 13
1.0
 23
1.0
340
0
 70
               7
280
               1
281
              50
282
              50
283
               0
360
0
 71
               2
 91
        5
 14
-0.5
 24
44.026288975211571
 14
0.5
 24
44.026288975211571
 14
0.5
 24
43.784183707181732
 14
-0.5
 24
43.784183707181732
 14
-0.5
 24
44.026288975211571
  0
MTEXT
  5
91
100
AcDbEntity
  8
Dimension
390
0
 62
               0
100
AcDbMText
 10
5.9489251606458389
 20
-150.55163876966958
 30
0.0
 40
0.6315976562499999
 41
0.0
 71
               1
 72
               1
  1
±0.125mm
  7
Helvetica
 73
               1
 44
0.9673603504928808
  0
WIPEOUT
  5
92
100
AcDbEntity
  8
Dimension
370
              -2
390
0
  6
Continuous
 62
               0
 92
        0
100
AcDbWipeout
 90
        0
 10
10.13814007634527
 20
30.937254685191508
 30
0.0
 11
1.7109721885787117
 21
0.0
 31
0.0
 12
0.0
 22
1.7109721885787117
 32
0.0
 13
1.0
 23
1.0
340
0
 70
               7
280
               1
281
              50
282
              50
283
               0
360
0
 71
               2
 91
        5
 14
-0.5
 24
107.07156218972145
 14
0.5
 24
107.07156218972145
 14
0.5
 24
106.47877867291068
 14
-0.5
 24
106.47877867291068
 14
-0.5
 24
107.07156218972145
  0
MTEXT
  5
93
100
AcDbEntity
  8
Dimension
390
0
 62
               0
100
AcDbMText
 10
10.13814007634527
 20
-150.551637364577
 30
0.0
 40
0.6316008391203704
 41
0.0
 71
               1
 72
               1
  1
 sqr.
  7
Helvetica
 73
               1
 44
0.9673603504928805
  0
POINT
  5
94
100
AcDbEntity
  8
Defpoints
370
               0
390
0
 62
               0
100
AcDbPoint
 10
17.128111599999993
 20
-161.2474474
 30
0.0
  0
POINT
  5
95
100
AcDbEntity
  8
Defpoints
370
               0
390
0
 62
               0
100
AcDbPoint
 10
17.128111599999993
 20
-143.0224474
 30
0.0
  0
POINT
  5
96
100
AcDbEntity
  8
Defpoints
370
               0
390
0
 62
               0
100
AcDbPoint
 10
6.8000015999999945
 20
-143.0224474
 30
0.0
  0
ENDBLK
  5
97
100
AcDbEntity
  8
Dimension
390
0
100
AcDbBlockEnd
  0
BLOCK
  5
98
100
AcDbEntity
  8
Dimension
390
0
100
AcDbBlockBegin
  2
*D5
 70
               1
 10
0.0
 20
0.0
 30
0.0
  3
*D5
  1

  0
LINE
  5
99
100
AcDbEntity
  8
Dimension
370
              -2
390
0
  6
Continuous
 62
               0
100
AcDbLine
 10
34.451031599999993
 20
-147.05652739999999
 30
0.0
 11
40.522939620159065
 21
-151.31621729855792
 31
0.0
  0
SOLID
  5
9A
100
AcDbEntity
  8
Dimension
370
              -2
390
0
 62
               0
100
AcDbTrace
 10
34.451031599999993
 20
-147.05652739999999
 30
0.0
 11
34.962353503450906
 21
-147.25280548906065
 31
0.0
 12
34.795710313369568
 22
-147.48217016305824
 32
0.0
 13
34.795710313369568
 23
-147.48217016305824
 33
0.0
  0
LINE
  5
9B
100
AcDbEntity
  8
Dimension
370
              -2
390
0
  6
Continuous
 62
               0
100
AcDbLine
 10
40.522939620159065
 20
-151.31621729855792
 30
0.0
 11
42.022936622138559
 21
-151.31621729855792
 31
0.0
  0
WIPEOUT
  5
9C
100
AcDbEntity
  8
Dimension
370
              -2
390
0
  6
Continuous
 62
               0
 92
        0
100
AcDbWipeout
 90
        0
 10
42.022936622138559
 20
30.517648756997634
 30
0.0
 11
4.1451180299123109
 21
0.0
 31
0.0
 12
0.0
 22
4.1451180299123109
 32
0.0
 13
1.0
 23
1.0
340
0
 70
               7
280
               1
281
              50
282
              50
283
               0
360
0
 71
               2
 91
        5
 14
-0.5
 24
44.489333399960472
 14
0.5
 24
44.489333399960472
 14
0.5
 24
44.24465255066233
 14
-0.5
 24
44.24465255066233
 14
-0.5
 24
44.489333399960472
  0
MTEXT
  5
9D
100
AcDbEntity
  8
Dimension
390
0
 62
               0
100
AcDbMText
 10
42.022936622138559
 20
-150.97124758675236
 30
0.0
 40
0.6315976562499999
 41
0.0
 71
               1
 72
               1
  1
Ø 0.85mm
  7
Helvetica
 73
               1
 44
0.9673603504928808
  0
WIPEOUT
  5
9E
100
AcDbEntity
  8
Dimension
370
              -2
390
0
  6
Continuous
 62
               0
 92
        0
100
AcDbWipeout
 90
        0
 10
46.16805465205087
 20
30.517646534775409
 30
0.0
 11
4.1892149156994307
 21
0.0
 31
0.0
 12
0.0
 22
4.1892149156994307
 32
0.0
 13
1.0
 23
1.0
340
0
 70
               7
280
               1
281
              50
282
              50
283
               0
360
0
 71
               2
 91
        5
 14
-0.5
 24
44.026288975211571
 14
0.5000000000000018
 24
44.026288975211571
 14
0.5000000000000018
 24
43.784183707181739
 14
-0.5
 24
43.784183707181739
 14
-0.5
 24
44.026288975211571
  0
MTEXT
  5
9F
100
AcDbEntity
  8
Dimension
390
0
 62
               0
100
AcDbMText
 10
46.16805465205087
 20
-150.97124980897456
 30
0.0
 40
0.6315976562499999
 41
0.0
 71
               1
 72
               1
  1
±0.025mm
  7
Helvetica
 73
               1
 44
0.9673603504928808
  0
WIPEOUT
  5
A0
100
AcDbEntity
  8
Dimension
370
              -2
390
0
  6
Continuous
 62
               0
 92
        0
100
AcDbWipeout
 90
        0
 10
50.357269567750308
 20
30.517643645886523
 30
0.0
 11
1.7550694108009353
 21
0.0
 31
0.0
 12
0.0
 22
1.7550694108009353
 32
0.0
 13
1.0
 23
1.0
340
0
 70
               7
280
               1
281
              50
282
              50
283
               0
360
0
 71
               2
 91
        5
 14
-0.5
 24
104.39388469643927
 14
0.499999999999996
 24
104.39388469643927
 14
0.499999999999996
 24
103.81599523812534
 14
-0.5
 24
103.81599523812534
 14
-0.5
 24
104.39388469643927
  0
MTEXT
  5
A1
100
AcDbEntity
  8
Dimension
390
0
 62
               0
100
AcDbMText
 10
50.357269567750308
 20
-150.97124840388199
 30
0.0
 40
0.6316008391203704
 41
0.0
 71
               1
 72
               1
  1
 (x2)
  7
Helvetica
 73
               1
 44
0.9673603504928805
  0
POINT
  5
A2
100
AcDbEntity
  8
Defpoints
370
               0
390
0
 62
               0
100
AcDbPoint
 10
33.755191599999989
 20
-146.5683674
 30
0.0
  0
POINT
  5
A3
100
AcDbEntity
  8
Defpoints
370
               0
390
0
 62
               0
100
AcDbPoint
 10
34.451031599999993
 20
-147.05652739999999
 30
0.0
  0
ENDBLK
  5
A4
100
AcDbEntity
  8
Dimension
390
0
100
AcDbBlockEnd
  0
BLOCK
  5
A5
100
AcDbEntity
  8
Dimension
390
0
100
AcDbBlockBegin
  2
*D6
 70
               1
 10
0.0
 20
0.0
 30
0.0
  3
*D6
  1

  0
LINE
  5
A6
100
AcDbEntity
  8
Dimension
370
              -2
390
0
  6
Continuous
 62
               0
100
AcDbLine
 10
32.318021599999994
 20
-150.79003739999999
 30
0.0
 11
42.2500051069267
 21
-158.4000117359837
 31
0.0
  0
SOLID
  5
A7
100
AcDbEntity
  8
Dimension
370
              -2
390
0
 62
               0
100
AcDbTrace
 10
32.318021599999994
 20
-150.79003739999999
 30
0.0
 11
32.82218201344083
 21
-151.00404079883546
 31
0.0
 12
32.647635626204497
 22
-151.22744998660812
 32
0.0
 13
32.647635626204497
 23
-151.22744998660812
 33
0.0
  0
LINE
  5
A8
100
AcDbEntity
  8
Dimension
370
              -2
390
0
  6
Continuous
 62
               0
100
AcDbLine
 10
42.2500051069267
 20
-158.4000117359837
 30
0.0
 11
43.750002108906202
 21
-158.4000117359837
 31
0.0
  0
WIPEOUT
  5
A9
100
AcDbEntity
  8
Dimension
370
              -2
390
0
  6
Continuous
 62
               0
 92
        0
100
AcDbWipeout
 90
        0
 10
43.750002108906202
 20
23.433851764016289
 30
0.0
 11
6.2088573985629587
 21
0.0
 31
0.0
 12
0.0
 22
6.2088573985629587
 32
0.0
 13
1.0
 23
1.0
340
0
 70
               7
280
               1
281
              50
282
              50
283
               0
360
0
 71
               2
 91
        5
 14
-0.5
 24
29.867879997083332
 14
0.4999999999999994
 24
29.867879997083332
 14
0.4999999999999994
 24
29.704527719056344
 14
-0.5
 24
29.704527719056344
 14
-0.5
 24
29.867879997083332
  0
MTEXT
  5
AA
100
AcDbEntity
  8
Dimension
390
0
 62
               0
100
AcDbMText
 10
43.750002108906202
 20
-158.0550445797337
 30
0.0
 40
0.6315976562499999
 41
0.0
 71
               1
 72
               1
  1
Ø 0.51mm PAD
  7
Helvetica
 73
               1
 44
0.9673603504928808
  0
POINT
  5
AB
100
AcDbEntity
  8
Defpoints
370
               0
390
0
 62
               0
100
AcDbPoint
 10
31.913201599999994
 20
-150.47985739999999
 30
0.0
  0
POINT
  5
AC
100
AcDbEntity
  8
Defpoints
370
               0
390
0
 62
               0
100
AcDbPoint
 10
32.318021599999994
 20
-150.79003739999999
 30
0.0
  0
ENDBLK
  5
AD
100
AcDbEntity
  8
Dimension
390
0
100
AcDbBlockEnd
  0
BLOCK
  5
AE
100
AcDbEntity
  8
Dimension
390
0
100
AcDbBlockBegin
  2
*D7
 70
               1
 10
0.0
 20
0.0
 30
0.0
  3
*D7
  1

  0
LINE
  5
AF
100
AcDbEntity
  8
Dimension
370
              -2
390
0
  6
Continuous
 62
               0
100
AcDbLine
 10
17.128111599999993
 20
-161.72369740118276
 30
0.0
 11
17.128111599999993
 21
-166.67576740236555
 31
0.0
  0
LINE
  5
B0
100
AcDbEntity
  8
Dimension
370
              -2
390
0
  6
Continuous
 62
               0
100
AcDbLine
 10
18.378111599999993
 20
-160.47369740118276
 30
0.0
 11
18.378111599999993
 21
-166.67576740236555
 31
0.0
  0
LINE
  5
B1
100
AcDbEntity
  8
Dimension
370
              -2
390
0
  6
Continuous
 62
               0
100
AcDbLine
 10
18.378111599999993
 20
-165.7232674
 30
0.0
 11
17.128111599999993
 21
-165.7232674
 31
0.0
  0
LINE
  5
B2
100
AcDbEntity
  8
Dimension
370
              -2
390
0
  6
Continuous
 62
               0
100
AcDbLine
 10
17.128111599999993
 20
-165.7232674
 30
0.0
 11
15.378115101633176
 21
-165.7232674
 31
0.0
  0
SOLID
  5
B3
100
AcDbEntity
  8
Dimension
370
              -2
390
0
 62
               0
100
AcDbTrace
 10
17.128111599999993
 20
-165.7232674
 30
0.0
 11
16.334361599999994
 21
-165.93595207149218
 31
0.0
 12
16.334361599999994
 22
-165.51058272850779
 32
0.0
 13
16.334361599999994
 23
-165.51058272850779
 33
0.0
  0
LINE
  5
B4
100
AcDbEntity
  8
Dimension
370
              -2
390
0
  6
Continuous
 62
               0
100
AcDbLine
 10
18.378111599999993
 20
-165.7232674
 30
0.0
 11
20.400001599999992
 21
-165.7232674
 31
0.0
  0
SOLID
  5
B5
100
AcDbEntity
  8
Dimension
370
              -2
390
0
 62
               0
100
AcDbTrace
 10
18.378111599999993
 20
-165.7232674
 30
0.0
 11
19.171861599999993
 21
-165.51058272850779
 31
0.0
 12
19.171861599999993
 22
-165.93595207149218
 32
0.0
 13
19.171861599999993
 23
-165.93595207149218
 33
0.0
  0
WIPEOUT
  5
B6
100
AcDbEntity
  8
Dimension
370
              -2
390
0
  6
Continuous
 62
               0
 92
        0
100
AcDbWipeout
 90
        0
 10
20.400001599999992
 20
16.110597211111106
 30
0.0
 11
3.210261427031623
 21
0.0
 31
0.0
 12
0.0
 22
3.210261427031623
 32
0.0
 13
1.0
 23
1.0
340
0
 70
               7
280
               1
281
              50
282
              50
283
               0
360
0
 71
               2
 91
        5
 14
-0.5
 24
57.299417475667099
 14
0.5000000000000007
 24
57.299417475667099
 14
0.5000000000000007
 24
56.983483392710561
 14
-0.5
 24
56.983483392710561
 14
-0.5
 24
57.299417475667099
  0
MTEXT
  5
B7
100
AcDbEntity
  8
Dimension
390
0
 62
               0
100
AcDbMText
 10
20.400001599999992
 20
-165.37829913263889
 30
0.0
 40
0.6315976562499999
 41
0.0
 71
               1
 72
               1
  1
1.25mm
  7
Helvetica
 73
               1
 44
0.9673603504928808
  0
WIPEOUT
  5
B8
100
AcDbEntity
  8
Dimension
370
              -2
390
0
  6
Continuous
 62
               0
 92
        0
100
AcDbWipeout
 90
        0
 10
23.610263027031618
 20
16.110594988888884
 30
0.0
 11
3.6953285164303247
 21
0.0
 31
0.0
 12
0.0
 22
3.6953285164303247
 32
0.0
 13
1.0
 23
1.0
340
0
 70
               7
280
               1
281
              50
282
              50
283
               0
360
0
 71
               2
 91
        5
 14
-0.5
 24
49.843645142581479
 14
0.4999999999999994
 24
49.843645142581479
 14
0.4999999999999994
 24
49.569182129214596
 14
-0.5
 24
49.569182129214596
 14
-0.5
 24
49.843645142581479
  0
MTEXT
  5
B9
100
AcDbEntity
  8
Dimension
390
0
 62
               0
100
AcDbMText
 10
23.610263027031618
 20
-165.37830135486109
 30
0.0
 40
0.6315976562499999
 41
0.0
 71
               1
 72
               1
  1
±0.13mm
  7
Helvetica
 73
               1
 44
0.9673603504928808
  0
POINT
  5
BA
100
AcDbEntity
  8
Defpoints
370
               0
390
0
 62
               0
100
AcDbPoint
 10
18.378111599999993
 20
-159.9974474
 30
0.0
  0
POINT
  5
BB
100
AcDbEntity
  8
Defpoints
370
               0
390
0
 62
               0
100
AcDbPoint
 10
17.128111599999993
 20
-161.2474474
 30
0.0
  0
POINT
  5
BC
100
AcDbEntity
  8
Defpoints
370
               0
390
0
 62
               0
100
AcDbPoint
 10
17.128111599999993
 20
-165.7232674
 30
0.0
  0
ENDBLK
  5
BD
100
AcDbEntity
  8
Dimension
390
0
100
AcDbBlockEnd
  0
BLOCK
  5
BE
100
AcDbEntity
  8
Dimension
390
0
100
AcDbBlockBegin
  2
*D8
 70
               1
 10
0.0
 20
0.0
 30
0.0
  3
*D8
  1

  0
LINE
  5
BF
100
AcDbEntity
  8
Dimension
370
              -2
390
0
  6
Continuous
 62
               0
100
AcDbLine
 10
18.378111599999993
 20
-143.79619739881721
 30
0.0
 11
18.378111599999993
 21
-137.56750739763444
 31
0.0
  0
LINE
  5
C0
100
AcDbEntity
  8
Dimension
370
              -2
390
0
  6
Continuous
 62
               0
100
AcDbLine
 10
21.115611599999994
 20
-146.15869739881722
 30
0.0
 11
21.115611599999994
 21
-137.56750739763444
 31
0.0
  0
LINE
  5
C1
100
AcDbEntity
  8
Dimension
370
              -2
390
0
  6
Continuous
 62
               0
100
AcDbLine
 10
21.115611599999994
 20
-138.5200074
 30
0.0
 11
18.378111599999993
 21
-138.5200074
 31
0.0
  0
LINE
  5
C2
100
AcDbEntity
  8
Dimension
370
              -2
390
0
  6
Continuous
 62
               0
100
AcDbLine
 10
18.378111599999993
 20
-138.5200074
 30
0.0
 11
16.040001599999993
 21
-138.5200074
 31
0.0
  0
SOLID
  5
C3
100
AcDbEntity
  8
Dimension
370
              -2
390
0
 62
               0
100
AcDbTrace
 10
18.378111599999993
 20
-138.5200074
 30
0.0
 11
17.584361599999994
 21
-138.73269207149221
 31
0.0
 12
17.584361599999994
 22
-138.30732272850778
 32
0.0
 13
17.584361599999994
 23
-138.30732272850778
 33
0.0
  0
LINE
  5
C4
100
AcDbEntity
  8
Dimension
370
              -2
390
0
  6
Continuous
 62
               0
100
AcDbLine
 10
21.115611599999994
 20
-138.5200074
 30
0.0
 11
22.865608098366813
 21
-138.5200074
 31
0.0
  0
SOLID
  5
C5
100
AcDbEntity
  8
Dimension
370
              -2
390
0
 62
               0
100
AcDbTrace
 10
21.115611599999994
 20
-138.5200074
 30
0.0
 11
21.909361599999993
 21
-138.30732272850778
 31
0.0
 12
21.909361599999993
 22
-138.73269207149221
 32
0.0
 13
21.909361599999993
 23
-138.73269207149221
 33
0.0
  0
WIPEOUT
  5
C6
100
AcDbEntity
  8
Dimension
370
              -2
390
0
  6
Continuous
 62
               0
 92
        0
100
AcDbWipeout
 90
        0
 10
11.841967374430162
 20
43.313856099999995
 30
0.0
 11
4.1980342255698311
 21
0.0
 31
0.0
 12
0.0
 22
4.1980342255698311
 32
0.0
 13
1.0
 23
1.0
340
0
 70
               7
280
               1
281
              50
282
              50
283
               0
360
0
 71
               2
 91
        5
 14
-0.5
 24
43.934848122337421
 14
0.5
 24
43.934848122337421
 14
0.5
 24
43.693251473643514
 14
-0.5
 24
43.693251473643514
 14
-0.5
 24
43.934848122337421
  0
MTEXT
  5
C7
100
AcDbEntity
  8
Dimension
390
0
 62
               0
100
AcDbMText
 10
11.841967374430162
 20
-138.17504024375
 30
0.0
 40
0.6315976562499999
 41
0.0
 71
               1
 72
               1
  1
2.7375mm
  7
Helvetica
 73
               1
 44
0.9673603504928808
  0
POINT
  5
C8
100
AcDbEntity
  8
Defpoints
370
               0
390
0
 62
               0
100
AcDbPoint
 10
21.115611599999994
 20
-146.63494739999999
 30
0.0
  0
POINT
  5
C9
100
AcDbEntity
  8
Defpoints
370
               0
390
0
 62
               0
100
AcDbPoint
 10
18.378111599999993
 20
-144.2724474
 30
0.0
  0
POINT
  5
CA
100
AcDbEntity
  8
Defpoints
370
               0
390
0
 62
               0
100
AcDbPoint
 10
18.378111599999993
 20
-138.5200074
 30
0.0
  0
ENDBLK
  5
CB
100
AcDbEntity
  8
Dimension
390
0
100
AcDbBlockEnd
  0
BLOCK
  5
CC
100
AcDbEntity
  8
Dimension
390
0
100
AcDbBlockBegin
  2
*D9
 70
               1
 10
0.0
 20
0.0
 30
0.0
  3
*D9
  1

  0
LINE
  5
CD
100
AcDbEntity
  8
Dimension
370
              -2
390
0
  6
Continuous
 62
               0
100
AcDbLine
 10
20.639361598817214
 20
-146.63494739999999
 30
0.0
 11
11.047501597634437
 21
-146.63494739999999
 31
0.0
  0
LINE
  5
CE
100
AcDbEntity
  8
Dimension
370
              -2
390
0
  6
Continuous
 62
               0
100
AcDbLine
 10
17.901861598817213
 20
-144.2724474
 30
0.0
 11
11.047501597634437
 21
-144.2724474
 31
0.0
  0
LINE
  5
CF
100
AcDbEntity
  8
Dimension
370
              -2
390
0
  6
Continuous
 62
               0
100
AcDbLine
 10
12.000001599999996
 20
-144.2724474
 30
0.0
 11
12.000001599999996
 21
-146.63494739999999
 31
0.0
  0
LINE
  5
D0
100
AcDbEntity
  8
Dimension
370
              -2
390
0
  6
Continuous
 62
               0
100
AcDbLine
 10
12.000001599999996
 20
-146.63494739999999
 30
0.0
 11
12.000001599999996
 21
-148.3849438983668
 31
0.0
  0
SOLID
  5
D1
100
AcDbEntity
  8
Dimension
370
              -2
390
0
 62
               0
100
AcDbTrace
 10
12.000001599999996
 20
-146.63494739999999
 30
0.0
 11
12.212686271492199
 21
-147.4286974
 31
0.0
 12
11.787316928507792
 22
-147.4286974
 32
0.0
 13
11.787316928507792
 23
-147.4286974
 33
0.0
  0
LINE
  5
D2
100
AcDbEntity
  8
Dimension
370
              -2
390
0
  6
Continuous
 62
               0
100
AcDbLine
 10
12.000001599999996
 20
-144.2724474
 30
0.0
 11
12.000001599999996
 21
-142.52245090163316
 31
0.0
  0
SOLID
  5
D3
100
AcDbEntity
  8
Dimension
370
              -2
390
0
 62
               0
100
AcDbTrace
 10
12.000001599999996
 20
-144.2724474
 30
0.0
 11
11.787316928507792
 21
-143.47869739999999
 31
0.0
 12
12.212686271492199
 22
-143.47869739999999
 32
0.0
 13
12.212686271492199
 23
-143.47869739999999
 33
0.0
  0
WIPEOUT
  5
D4
100
AcDbEntity
  8
Dimension
370
              -2
390
0
  6
Continuous
 62
               0
 92
        0
100
AcDbWipeout
 90
        0
 10
9.9009844872150801
 20
36.466539238427728
 30
0.0
 11
4.1980342255698311
 21
0.0
 31
0.0
 12
0.0
 22
4.1980342255698311
 32
0.0
 13
1.0
 23
1.0
340
0
 70
               7
280
               1
281
              50
282
              50
283
               0
360
0
 71
               2
 91
        5
 14
-0.5
 24
43.934848122337421
 14
0.5
 24
43.934848122337421
 14
0.5
 24
43.693251473643514
 14
-0.5
 24
43.693251473643514
 14
-0.5
 24
43.934848122337421
  0
MTEXT
  5
D5
100
AcDbEntity
  8
Dimension
390
0
 62
               0
100
AcDbMText
 10
9.9009844872150801
 20
-145.02235710532227
 30
0.0
 40
0.6315976562499999
 41
0.0
 71
               1
 72
               1
  1
2.3625mm
  7
Helvetica
 73
               1
 44
0.9673603504928808
  0
POINT
  5
D6
100
AcDbEntity
  8
Defpoints
370
               0
390
0
 62
               0
100
AcDbPoint
 10
18.378111599999993
 20
-144.2724474
 30
0.0
  0
POINT
  5
D7
100
AcDbEntity
  8
Defpoints
370
               0
390
0
 62
               0
100
AcDbPoint
 10
21.115611599999994
 20
-146.63494739999999
 30
0.0
  0
POINT
  5
D8
100
AcDbEntity
  8
Defpoints
370
               0
390
0
 62
               0
100
AcDbPoint
 10
12.000001599999996
 20
-146.63494739999999
 30
0.0
  0
ENDBLK
  5
D9
100
AcDbEntity
  8
Dimension
390
0
100
AcDbBlockEnd
  0
BLOCK
  5
DA
100
AcDbEntity
  8
Dimension
390
0
100
AcDbBlockBegin
  2
*D10
 70
               1
 10
0.0
 20
0.0
 30
0.0
  3
*D10
  1

  0
LINE
  5
DB
100
AcDbEntity
  8
Dimension
370
              -2
390
0
  6
Continuous
 62
               0
100
AcDbLine
 10
28.115611599999994
 20
-146.15869739881722
 30
0.0
 11
28.115611599999994
 21
-137.56750739763444
 31
0.0
  0
LINE
  5
DC
100
AcDbEntity
  8
Dimension
370
              -2
390
0
  6
Continuous
 62
               0
100
AcDbLine
 10
29.115611599999994
 20
-146.15869739881722
 30
0.0
 11
29.115611599999994
 21
-137.56750739763444
 31
0.0
  0
LINE
  5
DD
100
AcDbEntity
  8
Dimension
370
              -2
390
0
  6
Continuous
 62
               0
100
AcDbLine
 10
29.115611599999994
 20
-138.5200074
 30
0.0
 11
28.115611599999994
 21
-138.5200074
 31
0.0
  0
LINE
  5
DE
100
AcDbEntity
  8
Dimension
370
              -2
390
0
  6
Continuous
 62
               0
100
AcDbLine
 10
28.115611599999994
 20
-138.5200074
 30
0.0
 11
26.365615101633175
 21
-138.5200074
 31
0.0
  0
SOLID
  5
DF
100
AcDbEntity
  8
Dimension
370
              -2
390
0
 62
               0
100
AcDbTrace
 10
28.115611599999994
 20
-138.5200074
 30
0.0
 11
27.321861599999995
 21
-138.73269207149221
 31
0.0
 12
27.321861599999995
 22
-138.30732272850778
 32
0.0
 13
27.321861599999995
 23
-138.30732272850778
 33
0.0
  0
LINE
  5
E0
100
AcDbEntity
  8
Dimension
370
              -2
390
0
  6
Continuous
 62
               0
100
AcDbLine
 10
29.115611599999994
 20
-138.5200074
 30
0.0
 11
30.850001599999992
 21
-138.5200074
 31
0.0
  0
SOLID
  5
E1
100
AcDbEntity
  8
Dimension
370
              -2
390
0
 62
               0
100
AcDbTrace
 10
29.115611599999994
 20
-138.5200074
 30
0.0
 11
29.909361599999993
 21
-138.30732272850778
 31
0.0
 12
29.909361599999993
 22
-138.73269207149221
 32
0.0
 13
29.909361599999993
 23
-138.73269207149221
 33
0.0
  0
WIPEOUT
  5
E2
100
AcDbEntity
  8
Dimension
370
              -2
390
0
  6
Continuous
 62
               0
 92
        0
100
AcDbWipeout
 90
        0
 10
30.850001599999992
 20
43.313856099999988
 30
0.0
 11
3.6424123207728063
 21
0.0
 31
0.0
 12
0.0
 22
3.6424123207728063
 32
0.0
 13
1.0
 23
1.0
340
0
 70
               7
280
               1
281
              50
282
              50
283
               0
360
0
 71
               2
 91
        5
 14
-0.5
 24
50.56049918074978
 14
0.4999999999999999
 24
50.56049918074978
 14
0.4999999999999999
 24
50.282048826786337
 14
-0.5
 24
50.282048826786337
 14
-0.5
 24
50.56049918074978
  0
MTEXT
  5
E3
100
AcDbEntity
  8
Dimension
390
0
 62
               0
100
AcDbMText
 10
30.850001599999992
 20
-138.17504024375
 30
0.0
 40
0.6315976562499999
 41
0.0
 71
               1
 72
               1
  1
1mm typ.
  7
Helvetica
 73
               1
 44
0.9673603504928808
  0
POINT
  5
E4
100
AcDbEntity
  8
Defpoints
370
               0
390
0
 62
               0
100
AcDbPoint
 10
29.115611599999994
 20
-146.63494739999999
 30
0.0
  0
POINT
  5
E5
100
AcDbEntity
  8
Defpoints
370
               0
390
0
 62
               0
100
AcDbPoint
 10
28.115611599999994
 20
-146.63494739999999
 30
0.0
  0
POINT
  5
E6
100
AcDbEntity
  8
Defpoints
370
               0
390
0
 62
               0
100
AcDbPoint
 10
28.115611599999994
 20
-138.5200074
 30
0.0
  0
ENDBLK
  5
E7
100
AcDbEntity
  8
Dimension
390
0
100
AcDbBlockEnd
  0
BLOCK
  5
E8
100
AcDbEntity
  8
Dimension
390
0
100
AcDbBlockBegin
  2
*D11
 70
               1
 10
0.0
 20
0.0
 30
0.0
  3
*D11
  1

  0
LINE
  5
E9
100
AcDbEntity
  8
Dimension
370
              -2
390
0
  6
Continuous
 62
               0
100
AcDbLine
 10
17.901861598817213
 20
-159.9974474
 30
0.0
 11
11.047501597634435
 21
-159.9974474
 31
0.0
  0
LINE
  5
EA
100
AcDbEntity
  8
Dimension
370
              -2
390
0
  6
Continuous
 62
               0
100
AcDbLine
 10
17.901861598817213
 20
-154.91744739999999
 30
0.0
 11
11.047501597634435
 21
-154.91744739999999
 31
0.0
  0
LINE
  5
EB
100
AcDbEntity
  8
Dimension
370
              -2
390
0
  6
Continuous
 62
               0
100
AcDbLine
 10
12.000001599999994
 20
-159.9974474
 30
0.0
 11
12.000001599999994
 21
-154.91744739999999
 31
0.0
  0
SOLID
  5
EC
100
AcDbEntity
  8
Dimension
370
              -2
390
0
 62
               0
100
AcDbTrace
 10
12.000001599999994
 20
-159.9974474
 30
0.0
 11
11.78731692850779
 21
-159.20369739999998
 31
0.0
 12
12.212686271492197
 22
-159.20369739999998
 32
0.0
 13
12.212686271492197
 23
-159.20369739999998
 33
0.0
  0
SOLID
  5
ED
100
AcDbEntity
  8
Dimension
370
              -2
390
0
 62
               0
100
AcDbTrace
 10
12.000001599999994
 20
-154.91744739999999
 30
0.0
 11
12.212686271492197
 21
-155.7111974
 31
0.0
 12
11.78731692850779
 22
-155.7111974
 32
0.0
 13
11.78731692850779
 23
-155.7111974
 33
0.0
  0
WIPEOUT
  5
EE
100
AcDbEntity
  8
Dimension
370
              -2
390
0
  6
Continuous
 62
               0
 92
        0
100
AcDbWipeout
 90
        0
 10
10.394870886484181
 20
24.376416099999993
 30
0.0
 11
3.2102614270316234
 21
0.0
 31
0.0
 12
0.0
 22
3.2102614270316234
 32
0.0
 13
1.0
 23
1.0
340
0
 70
               7
280
               1
281
              50
282
              50
283
               0
360
0
 71
               2
 91
        5
 14
-0.5
 24
57.299417475667106
 14
0.5
 24
57.299417475667106
 14
0.5
 24
56.983483392710554
 14
-0.5
 24
56.983483392710554
 14
-0.5
 24
57.299417475667106
  0
MTEXT
  5
EF
100
AcDbEntity
  8
Dimension
390
0
 62
               0
100
AcDbMText
 10
10.394870886484181
 20
-157.11248024374999
 30
0.0
 40
0.6315976562499999
 41
0.0
 71
               1
 72
               1
  1
5.08mm
  7
Helvetica
 73
               1
 44
0.9673603504928808
  0
POINT
  5
F0
100
AcDbEntity
  8
Defpoints
370
               0
390
0
 62
               0
100
AcDbPoint
 10
18.378111599999993
 20
-154.91744739999999
 30
0.0
  0
POINT
  5
F1
100
AcDbEntity
  8
Defpoints
370
               0
390
0
 62
               0
100
AcDbPoint
 10
18.378111599999993
 20
-159.9974474
 30
0.0
  0
POINT
  5
F2
100
AcDbEntity
  8
Defpoints
370
               0
390
0
 62
               0
100
AcDbPoint
 10
12.000001599999994
 20
-159.9974474
 30
0.0
  0
ENDBLK
  5
F3
100
AcDbEntity
  8
Dimension
390
0
100
AcDbBlockEnd
  0
BLOCK
  5
F4
100
AcDbEntity
  8
Dimension
390
0
100
AcDbBlockBegin
  2
*D12
 70
               1
 10
0.0
 20
0.0
 30
0.0
  3
*D12
  1

  0
LINE
  5
F5
100
AcDbEntity
  8
Dimension
370
              -2
390
0
  6
Continuous
 62
               0
100
AcDbLine
 10
34.579361601182775
 20
-146.8124474
 30
0.0
 11
41.85250160236555
 21
-146.8124474
 31
0.0
  0
LINE
  5
F6
100
AcDbEntity
  8
Dimension
370
              -2
390
0
  6
Continuous
 62
               0
100
AcDbLine
 10
34.579361601182775
 20
-144.2724474
 30
0.0
 11
41.85250160236555
 21
-144.2724474
 31
0.0
  0
LINE
  5
F7
100
AcDbEntity
  8
Dimension
370
              -2
390
0
  6
Continuous
 62
               0
100
AcDbLine
 10
40.900001599999996
 20
-144.2724474
 30
0.0
 11
40.900001599999996
 21
-146.8124474
 31
0.0
  0
LINE
  5
F8
100
AcDbEntity
  8
Dimension
370
              -2
390
0
  6
Continuous
 62
               0
100
AcDbLine
 10
40.900001599999996
 20
-146.8124474
 30
0.0
 11
40.900001599999996
 21
-148.56244389836681
 31
0.0
  0
SOLID
  5
F9
100
AcDbEntity
  8
Dimension
370
              -2
390
0
 62
               0
100
AcDbTrace
 10
40.900001599999996
 20
-146.8124474
 30
0.0
 11
41.112686271492194
 21
-147.60619739999999
 31
0.0
 12
40.687316928507791
 22
-147.60619739999999
 32
0.0
 13
40.687316928507791
 23
-147.60619739999999
 33
0.0
  0
LINE
  5
FA
100
AcDbEntity
  8
Dimension
370
              -2
390
0
  6
Continuous
 62
               0
100
AcDbLine
 10
40.900001599999996
 20
-144.2724474
 30
0.0
 11
40.900001599999996
 21
-142.52245090163316
 31
0.0
  0
SOLID
  5
FB
100
AcDbEntity
  8
Dimension
370
              -2
390
0
 62
               0
100
AcDbTrace
 10
40.900001599999996
 20
-144.2724474
 30
0.0
 11
40.687316928507791
 21
-143.47869739999999
 31
0.0
 12
41.112686271492194
 22
-143.47869739999999
 32
0.0
 13
41.112686271492194
 23
-143.47869739999999
 33
0.0
  0
WIPEOUT
  5
FC
100
AcDbEntity
  8
Dimension
370
              -2
390
0
  6
Continuous
 62
               0
 92
        0
100
AcDbWipeout
 90
        0
 10
39.294870886484183
 20
36.433849266503898
 30
0.0
 11
3.2102614270316234
 21
0.0
 31
0.0
 12
0.0
 22
3.2102614270316234
 32
0.0
 13
1.0
 23
1.0
340
0
 70
               7
280
               1
281
              50
282
              50
283
               0
360
0
 71
               2
 91
        5
 14
-0.5
 24
57.299417475667092
 14
0.4999999999999983
 24
57.299417475667092
 14
0.4999999999999983
 24
56.983483392710554
 14
-0.5
 24
56.983483392710554
 14
-0.5
 24
57.299417475667092
  0
MTEXT
  5
FD
100
AcDbEntity
  8
Dimension
390
0
 62
               0
100
AcDbMText
 10
39.294870886484183
 20
-145.05504707724609
 30
0.0
 40
0.6315976562499999
 41
0.0
 71
               1
 72
               1
  1
2.54mm
  7
Helvetica
 73
               1
 44
0.9673603504928808
  0
POINT
  5
FE
100
AcDbEntity
  8
Defpoints
370
               0
390
0
 62
               0
100
AcDbPoint
 10
34.103111599999991
 20
-144.2724474
 30
0.0
  0
POINT
  5
FF
100
AcDbEntity
  8
Defpoints
370
               0
390
0
 62
               0
100
AcDbPoint
 10
34.103111599999991
 20
-146.8124474
 30
0.0
  0
POINT
  5
100
100
AcDbEntity
  8
Defpoints
370
               0
390
0
 62
               0
100
AcDbPoint
 10
40.900001599999996
 20
-146.8124474
 30
0.0
  0
ENDBLK
  5
101
100
AcDbEntity
  8
Dimension
390
0
100
AcDbBlockEnd
  0
BLOCK
  5
102
100
AcDbEntity
  8
Dimension
390
0
100
AcDbBlockBegin
  2
*D13
 70
               1
 10
0.0
 20
0.0
 30
0.0
  3
*D13
  1

  0
LINE
  5
103
100
AcDbEntity
  8
Dimension
370
              -2
390
0
  6
Continuous
 62
               0
100
AcDbLine
 10
16.651861598817213
 20
-161.2474474
 30
0.0
 11
8.5475015976344331
 21
-161.2474474
 31
0.0
  0
LINE
  5
104
100
AcDbEntity
  8
Dimension
370
              -2
390
0
  6
Continuous
 62
               0
100
AcDbLine
 10
17.901861598817213
 20
-159.9974474
 30
0.0
 11
8.5475015976344331
 21
-159.9974474
 31
0.0
  0
LINE
  5
105
100
AcDbEntity
  8
Dimension
370
              -2
390
0
  6
Continuous
 62
               0
100
AcDbLine
 10
9.5000015999999938
 20
-159.9974474
 30
0.0
 11
9.5000015999999938
 21
-161.2474474
 31
0.0
  0
LINE
  5
106
100
AcDbEntity
  8
Dimension
370
              -2
390
0
  6
Continuous
 62
               0
100
AcDbLine
 10
9.5000015999999938
 20
-161.2474474
 30
0.0
 11
9.5000015999999938
 21
-163.7000074
 31
0.0
  0
SOLID
  5
107
100
AcDbEntity
  8
Dimension
370
              -2
390
0
 62
               0
100
AcDbTrace
 10
9.5000015999999938
 20
-161.2474474
 30
0.0
 11
9.7126862714921955
 21
-162.04119739999999
 31
0.0
 12
9.2873169285077886
 22
-162.04119739999999
 32
0.0
 13
9.2873169285077886
 23
-162.04119739999999
 33
0.0
  0
LINE
  5
108
100
AcDbEntity
  8
Dimension
370
              -2
390
0
  6
Continuous
 62
               0
100
AcDbLine
 10
9.5000015999999938
 20
-159.9974474
 30
0.0
 11
9.5000015999999938
 21
-158.24745090163319
 31
0.0
  0
SOLID
  5
109
100
AcDbEntity
  8
Dimension
370
              -2
390
0
 62
               0
100
AcDbTrace
 10
9.5000015999999938
 20
-159.9974474
 30
0.0
 11
9.2873169285077886
 21
-159.20369739999998
 31
0.0
 12
9.7126862714921991
 22
-159.20369739999998
 32
0.0
 13
9.7126862714921991
 23
-159.20369739999998
 33
0.0
  0
WIPEOUT
  5
10A
100
AcDbEntity
  8
Dimension
370
              -2
390
0
  6
Continuous
 62
               0
 92
        0
100
AcDbWipeout
 90
        0
 10
6.04720662826902
 20
18.133857211111106
 30
0.0
 11
3.2102614270316217
 21
0.0
 31
0.0
 12
0.0
 22
3.2102614270316217
 32
0.0
 13
1.0
 23
1.0
340
0
 70
               7
280
               1
281
              50
282
              50
283
               0
360
0
 71
               2
 91
        5
 14
-0.5
 24
57.299417475667134
 14
0.5
 24
57.299417475667134
 14
0.5
 24
56.983483392710589
 14
-0.5
 24
56.983483392710589
 14
-0.5
 24
57.299417475667134
  0
MTEXT
  5
10B
100
AcDbEntity
  8
Dimension
390
0
 62
               0
100
AcDbMText
 10
6.04720662826902
 20
-163.35503913263889
 30
0.0
 40
0.6315976562499999
 41
0.0
 71
               1
 72
               1
  1
1.25mm
  7
Helvetica
 73
               1
 44
0.9673603504928808
  0
WIPEOUT
  5
10C
100
AcDbEntity
  8
Dimension
370
              -2
390
0
  6
Continuous
 62
               0
 92
        0
100
AcDbWipeout
 90
        0
 10
9.2574680553006417
 20
18.133854988888885
 30
0.0
 11
3.6953285164303242
 21
0.0
 31
0.0
 12
0.0
 22
3.6953285164303242
 32
0.0
 13
1.0
 23
1.0
340
0
 70
               7
280
               1
281
              50
282
              50
283
               0
360
0
 71
               2
 91
        5
 14
-0.5
 24
49.843645142581472
 14
0.5
 24
49.843645142581472
 14
0.5
 24
49.569182129214603
 14
-0.5
 24
49.569182129214603
 14
-0.5
 24
49.843645142581472
  0
MTEXT
  5
10D
100
AcDbEntity
  8
Dimension
390
0
 62
               0
100
AcDbMText
 10
9.2574680553006417
 20
-163.3550413548611
 30
0.0
 40
0.6315976562499999
 41
0.0
 71
               1
 72
               1
  1
±0.13mm
  7
Helvetica
 73
               1
 44
0.9673603504928808
  0
POINT
  5
10E
100
AcDbEntity
  8
Defpoints
370
               0
390
0
 62
               0
100
AcDbPoint
 10
18.378111599999993
 20
-159.9974474
 30
0.0
  0
POINT
  5
10F
100
AcDbEntity
  8
Defpoints
370
               0
390
0
 62
               0
100
AcDbPoint
 10
17.128111599999993
 20
-161.2474474
 30
0.0
  0
POINT
  5
110
100
AcDbEntity
  8
Defpoints
370
               0
390
0
 62
               0
100
AcDbPoint
 10
9.5000015999999938
 20
-161.2474474
 30
0.0
  0
ENDBLK
  5
111
100
AcDbEntity
  8
Dimension
390
0
100
AcDbBlockEnd
  0
BLOCK
  5
112
100
AcDbEntity
  8
Dimension
390
0
100
AcDbBlockBegin
  2
*D14
 70
               1
 10
0.0
 20
0.0
 30
0.0
  3
*D14
  1

  0
LINE
  5
113
100
AcDbEntity
  8
Dimension
370
              -2
390
0
  6
Continuous
 62
               0
100
AcDbLine
 10
34.788111599999993
 20
-160.41491739999998
 30
0.0
 11
42.049997943474168
 21
-164.7060731381587
 31
0.0
  0
SOLID
  5
114
100
AcDbEntity
  8
Dimension
370
              -2
390
0
 62
               0
100
AcDbTrace
 10
34.788111599999993
 20
-160.41491739999998
 30
0.0
 11
35.314594531873141
 21
-160.56588395139539
 31
0.0
 12
35.168575917963352
 22
-160.80889973456672
 32
0.0
 13
35.168575917963352
 23
-160.80889973456672
 33
0.0
  0
LINE
  5
115
100
AcDbEntity
  8
Dimension
370
              -2
390
0
  6
Continuous
 62
               0
100
AcDbLine
 10
42.049997943474168
 20
-164.7060731381587
 30
0.0
 11
43.549994945453662
 21
-164.7060731381587
 31
0.0
  0
WIPEOUT
  5
116
100
AcDbEntity
  8
Dimension
370
              -2
390
0
  6
Continuous
 62
               0
 92
        0
100
AcDbWipeout
 90
        0
 10
43.549994945453662
 20
17.12779291739685
 30
0.0
 11
4.1451180299123109
 21
0.0
 31
0.0
 12
0.0
 22
4.1451180299123109
 32
0.0
 13
1.0
 23
1.0
340
0
 70
               7
280
               1
281
              50
282
              50
283
               0
360
0
 71
               2
 91
        5
 14
-0.5
 24
44.489333399960472
 14
0.5
 24
44.489333399960472
 14
0.5
 24
44.24465255066233
 14
-0.5
 24
44.24465255066233
 14
-0.5
 24
44.489333399960472
  0
MTEXT
  5
117
100
AcDbEntity
  8
Dimension
390
0
 62
               0
100
AcDbMText
 10
43.549994945453662
 20
-164.36110342635314
 30
0.0
 40
0.6315976562499999
 41
0.0
 71
               1
 72
               1
  1
Ø 1.61mm
  7
Helvetica
 73
               1
 44
0.9673603504928808
  0
WIPEOUT
  5
118
100
AcDbEntity
  8
Dimension
370
              -2
390
0
  6
Continuous
 62
               0
 92
        0
100
AcDbWipeout
 90
        0
 10
47.695112975365973
 20
17.127790695174625
 30
0.0
 11
3.695328516430326
 21
0.0
 31
0.0
 12
0.0
 22
3.695328516430326
 32
0.0
 13
1.0
 23
1.0
340
0
 70
               7
280
               1
281
              50
282
              50
283
               0
360
0
 71
               2
 91
        5
 14
-0.5
 24
49.843645142581458
 14
0.5000000000000009
 24
49.843645142581458
 14
0.5000000000000009
 24
49.569182129214589
 14
-0.5
 24
49.569182129214589
 14
-0.5
 24
49.843645142581458
  0
MTEXT
  5
119
100
AcDbEntity
  8
Dimension
390
0
 62
               0
100
AcDbMText
 10
47.695112975365973
 20
-164.36110564857535
 30
0.0
 40
0.6315976562499999
 41
0.0
 71
               1
 72
               1
  1
±0.05mm
  7
Helvetica
 73
               1
 44
0.9673603504928808
  0
WIPEOUT
  5
11A
100
AcDbEntity
  8
Dimension
370
              -2
390
0
  6
Continuous
 62
               0
 92
        0
100
AcDbWipeout
 90
        0
 10
51.390441491796302
 20
17.127787806285738
 30
0.0
 11
1.7550694108009353
 21
0.0
 31
0.0
 12
0.0
 22
1.7550694108009353
 32
0.0
 13
1.0
 23
1.0
340
0
 70
               7
280
               1
281
              50
282
              50
283
               0
360
0
 71
               2
 91
        5
 14
-0.5
 24
104.39388469643927
 14
0.5
 24
104.39388469643927
 14
0.5
 24
103.81599523812534
 14
-0.5
 24
103.81599523812534
 14
-0.5
 24
104.39388469643927
  0
MTEXT
  5
11B
100
AcDbEntity
  8
Dimension
390
0
 62
               0
100
AcDbMText
 10
51.390441491796302
 20
-164.36110424348277
 30
0.0
 40
0.6316008391203704
 41
0.0
 71
               1
 72
               1
  1
 (x4)
  7
Helvetica
 73
               1
 44
0.9673603504928805
  0
POINT
  5
11C
100
AcDbEntity
  8
Defpoints
370
               0
390
0
 62
               0
100
AcDbPoint
 10
33.402151599999996
 20
-159.5959374
 30
0.0
  0
POINT
  5
11D
100
AcDbEntity
  8
Defpoints
370
               0
390
0
 62
               0
100
AcDbPoint
 10
34.788111599999993
 20
-160.41491739999998
 30
0.0
  0
ENDBLK
  5
11E
100
AcDbEntity
  8
Dimension
390
0
100
AcDbBlockEnd
  0
BLOCK
  5
11F
100
AcDbEntity
  8
Dimension
390
0
100
AcDbBlockBegin
  2
*D15
 70
               1
 10
0.0
 20
0.0
 30
0.0
  3
*D15
  1

  0
LINE
  5
120
100
AcDbEntity
  8
Dimension
370
              -2
390
0
  6
Continuous
 62
               0
100
AcDbLine
 10
18.378111599999993
 20
-160.47369740118276
 30
0.0
 11
18.378111599999993
 21
-164.75250740236555
 31
0.0
  0
LINE
  5
121
100
AcDbEntity
  8
Dimension
370
              -2
390
0
  6
Continuous
 62
               0
100
AcDbLine
 10
34.103111599999991
 20
-160.47369740118276
 30
0.0
 11
34.103111599999991
 21
-164.75250740236555
 31
0.0
  0
LINE
  5
122
100
AcDbEntity
  8
Dimension
370
              -2
390
0
  6
Continuous
 62
               0
100
AcDbLine
 10
18.378111599999993
 20
-163.8000074
 30
0.0
 11
34.103111599999991
 21
-163.8000074
 31
0.0
  0
SOLID
  5
123
100
AcDbEntity
  8
Dimension
370
              -2
390
0
 62
               0
100
AcDbTrace
 10
18.378111599999993
 20
-163.8000074
 30
0.0
 11
19.171861599999993
 21
-163.58732272850779
 31
0.0
 12
19.171861599999993
 22
-164.01269207149221
 32
0.0
 13
19.171861599999993
 23
-164.01269207149221
 33
0.0
  0
SOLID
  5
124
100
AcDbEntity
  8
Dimension
370
              -2
390
0
 62
               0
100
AcDbTrace
 10
34.103111599999991
 20
-163.8000074
 30
0.0
 11
33.309361599999995
 21
-164.01269207149221
 31
0.0
 12
33.309361599999995
 22
-163.58732272850779
 32
0.0
 13
33.309361599999995
 23
-163.58732272850779
 33
0.0
  0
WIPEOUT
  5
125
100
AcDbEntity
  8
Dimension
370
              -2
390
0
  6
Continuous
 62
               0
 92
        0
100
AcDbWipeout
 90
        0
 10
23.387535587070712
 20
18.033856099999994
 30
0.0
 11
5.706152025858561
 21
0.0
 31
0.0
 12
0.0
 22
5.706152025858561
 32
0.0
 13
1.0
 23
1.0
340
0
 70
               7
280
               1
281
              50
282
              50
283
               0
360
0
 71
               2
 91
        5
 14
-0.5
 24
32.455156149658414
 14
0.5
 24
32.455156149658414
 14
0.5
 24
32.277412725472757
 14
-0.5
 24
32.277412725472757
 14
-0.5
 24
32.455156149658414
  0
MTEXT
  5
126
100
AcDbEntity
  8
Dimension
390
0
 62
               0
100
AcDbMText
 10
23.387535587070712
 20
-163.45504024375001
 30
0.0
 40
0.6315976562499999
 41
0.0
 71
               1
 72
               1
  1
15.725mm(x4)
  7
Helvetica
 73
               1
 44
0.9673603504928808
  0
POINT
  5
127
100
AcDbEntity
  8
Defpoints
370
               0
390
0
 62
               0
100
AcDbPoint
 10
34.103111599999991
 20
-159.9974474
 30
0.0
  0
POINT
  5
128
100
AcDbEntity
  8
Defpoints
370
               0
390
0
 62
               0
100
AcDbPoint
 10
18.378111599999993
 20
-159.9974474
 30
0.0
  0
POINT
  5
129
100
AcDbEntity
  8
Defpoints
370
               0
390
0
 62
               0
100
AcDbPoint
 10
18.378111599999993
 20
-163.8000074
 30
0.0
  0
ENDBLK
  5
12A
100
AcDbEntity
  8
Dimension
390
0
100
AcDbBlockEnd
  0
ENDSEC
  0
SECTION
  2
ENTITIES
  0
WIPEOUT
  5
12B
100
AcDbEntity
  8
None
370
               9
390
0
  6
Continuous
 62
               7
 92
        0
100
AcDbWipeout
 90
        0
 10
47.937206599999996
 20
2.0365613170051802
 30
0.0
 11
8.8900002691480822
 21
0.0
 31
0.0
 12
0.0
 22
8.8900002691480822
 32
0.0
 13
1.0
 23
1.0
340
0
 70
               7
280
               1
281
              50
282
              50
283
               0
360
0
 71
               2
 91
        5
 14
-0.5
 24
21.010795666991974
 14
0.4999999999999992
 24
21.010795666991974
 14
0.4999999999999992
 24
20.805438530352099
 14
-0.5
 24
20.805438530352099
 14
-0.5
 24
21.010795666991974
  0
MTEXT
  5
12C
100
AcDbEntity
  8
None
390
0
 62
               7
100
AcDbMText
 10
47.937206599999996
 20
-178.77066117257814
 30
0.0
 40
1.1368815104166665
 41
0.0
 71
               1
 72
               1
  1
PAGE 2 of 3
  7
Arial
 73
               1
 44
0.9673603504928806
  0
MTEXT
  5
12D
100
AcDbEntity
  8
None
390
0
 62
               7
100
AcDbMText
 10
28.514511599999992
 20
-173.64110485052083
 30
0.0
 40
0.5204840494791666
 41
28.552694999999996
 71
               1
 72
               1
  1
Recommended PCB Layout Tolerances:  ±0.025mm [±0.001"] unless stated otherwise.\P
  7
Helvetica
 73
               1
 44
0.9673603504928806
  0
MTEXT
  5
12E
100
AcDbEntity
  8
None
390
0
 62
               7
100
AcDbMText
 10
-5.4272884000000055
 20
-132.5955185640625
 30
0.0
 40
0.6124443359374999
 41
11.826889999999999
 71
               1
 72
               1
  1
{\LRecommended PCB Layout Top View}\P
  7
Helvetica
 73
               1
 44
0.9673603504928809
  0
WIPEOUT
  5
12F
100
AcDbEntity
  8
None
370
              15
390
0
  6
Continuous
 62
               1
 92
        0
100
AcDbWipeout
 90
        0
 10
-5.688863400000006
 20
10.446441599999993
 30
0.0
 11
17.851437822977701
 21
0.0
 31
0.0
 12
0.0
 22
17.851437822977701
 32
0.0
 13
1.0
 23
1.0
340
0
 70
               7
280
               1
281
              50
282
              50
283
               0
360
0
 71
               2
 91
        5
 14
-0.5
 24
10.714358126676917
 14
0.5
 24
10.714358126676917
 14
0.5
 24
10.50982278133346
 14
-0.5
 24
10.50982278133346
 14
-0.5
 24
10.714358126676917
  0
MTEXT
  5
130
100
AcDbEntity
  8
None
390
0
 62
               1
100
AcDbMText
 10
-5.688863400000006
 20
-168.38922164479166
 30
0.0
 40
0.5684407552083333
 41
0.0
 71
               1
 72
               1
  1
{\LTarget PCB Recommendations}\PTotal thickness: 1.6mm min.\PPlating: Gold or Solder finish\PPCB Pad height: Same or higher than solder mask
  7
Arial
 73
               1
 44
0.9673603504928806
  0
WIPEOUT
  5
131
100
AcDbEntity
  8
None
370
               9
390
0
  6
Continuous
 62
               1
 92
        0
100
AcDbWipeout
 90
        0
 10
37.432206599999994
 20
47.102688399999991
 30
0.0
 11
21.660825000000003
 21
0.0
 31
0.0
 12
0.0
 22
21.660825000000003
 32
0.0
 13
1.0
 23
1.0
340
0
 70
               7
280
               1
281
              50
282
              50
283
               0
360
0
 71
               2
 91
        5
 14
-0.5
 24
8.9180071165341115
 14
0.4999999999999997
 24
8.9180071165341115
 14
0.4999999999999997
 24
8.8025044429286492
 14
-0.5
 24
8.8025044429286492
 14
-0.5
 24
8.9180071165341115
  0
MTEXT
  5
132
100
AcDbEntity
  8
None
390
0
 62
               1
100
AcDbMText
 10
37.432206599999994
 20
-132.96311847916667
 30
0.0
 40
0.7592005208333332
 41
21.660824999999999
 71
               1
 72
               1
  1
{\L*Note: BGA pattern is not symmetrical with respect to the mounting holes.}
  7
Arial (bold)
 73
               1
 44
0.992595837897043
  0
WIPEOUT
  5
133
100
AcDbEntity
  8
Dimension
370
               5
390
0
  6
Continuous
 62
               7
 92
        0
100
AcDbWipeout
 90
        0
 10
19.736956599999992
 20
5.5320228263958491
 30
0.0
 11
10.634024999999999
 21
0.0
 31
0.0
 12
0.0
 22
10.634024999999999
 32
0.0
 13
1.0
 23
1.0
340
0
 70
               7
280
               1
281
              50
282
              50
283
               0
360
0
 71
               2
 91
        5
 14
-0.5
 24
17.487702586743964
 14
0.5000000000000002
 24
17.487702586743964
 14
0.5000000000000002
 24
17.646939094087141
 14
-0.5
 24
17.646939094087141
 14
-0.5
 24
17.487702586743964
  0
POLYLINE
  5
134
100
AcDbEntity
  8
Dimension
370
               5
390
0
  6
Continuous
 62
               7
100
AcDb2dPolyline
 66
               1
 10
0.0
 20
0.0
 30
0.0
 70
               1
 75
               5
  0
VERTEX
  5
135
100
AcDbEntity
  8
Dimension
370
               5
390
0
  6
Continuous
 62
               7
100
AcDbVertex
100
AcDb2dVertex
 10
19.736956599999992
 20
-175.11563117360413
 30
0.0
  0
VERTEX
  5
136
100
AcDbEntity
  8
Dimension
370
               5
390
0
  6
Continuous
 62
               7
100
AcDbVertex
100
AcDb2dVertex
 10
30.370981599999993
 20
-175.11563117360413
 30
0.0
  0
VERTEX
  5
137
100
AcDbEntity
  8
Dimension
370
               5
390
0
  6
Continuous
 62
               7
100
AcDbVertex
100
AcDb2dVertex
 10
30.370981599999993
 20
-176.80895617360414
 30
0.0
  0
VERTEX
  5
138
100
AcDbEntity
  8
Dimension
370
               5
390
0
  6
Continuous
 62
               7
100
AcDbVertex
100
AcDb2dVertex
 10
19.736956599999992
 20
-176.80895617360414
 30
0.0
  0
SEQEND
  5
139
100
AcDbEntity
  8
Dimension
370
               5
390
0
  6
Continuous
 62
               7
  0
WIPEOUT
  5
13A
100
AcDbEntity
  8
Dimension
370
               5
390
0
  6
Continuous
 62
               7
 92
        0
100
AcDbWipeout
 90
        0
 10
30.370981599999993
 20
5.5320228263958491
 30
0.0
 11
7.4317249999999984
 21
0.0
 31
0.0
 12
0.0
 22
7.4317249999999984
 32
0.0
 13
1.0
 23
1.0
340
0
 70
               7
280
               1
281
              50
282
              50
283
               0
360
0
 71
               2
 91
        5
 14
-0.5
 24
24.807634364834549
 14
0.5000000000000002
 24
24.807634364834549
 14
0.5000000000000002
 24
25.035485233912723
 14
-0.5
 24
25.035485233912723
 14
-0.5
 24
24.807634364834549
  0
POLYLINE
  5
13B
100
AcDbEntity
  8
Dimension
370
               5
390
0
  6
Continuous
 62
               7
100
AcDb2dPolyline
 66
               1
 10
0.0
 20
0.0
 30
0.0
 70
               1
 75
               5
  0
VERTEX
  5
13C
100
AcDbEntity
  8
Dimension
370
               5
390
0
  6
Continuous
 62
               7
100
AcDbVertex
100
AcDb2dVertex
 10
30.370981599999993
 20
-175.11563117360413
 30
0.0
  0
VERTEX
  5
13D
100
AcDbEntity
  8
Dimension
370
               5
390
0
  6
Continuous
 62
               7
100
AcDbVertex
100
AcDb2dVertex
 10
37.802706599999993
 20
-175.11563117360413
 30
0.0
  0
VERTEX
  5
13E
100
AcDbEntity
  8
Dimension
370
               5
390
0
  6
Continuous
 62
               7
100
AcDbVertex
100
AcDb2dVertex
 10
37.802706599999993
 20
-176.80895617360414
 30
0.0
  0
VERTEX
  5
13F
100
AcDbEntity
  8
Dimension
370
               5
390
0
  6
Continuous
 62
               7
100
AcDbVertex
100
AcDb2dVertex
 10
30.370981599999993
 20
-176.80895617360414
 30
0.0
  0
SEQEND
  5
140
100
AcDbEntity
  8
Dimension
370
               5
390
0
  6
Continuous
 62
               7
  0
WIPEOUT
  5
141
100
AcDbEntity
  8
Dimension
370
               5
390
0
  6
Continuous
 62
               7
 92
        0
100
AcDbWipeout
 90
        0
 10
37.802706599999993
 20
5.5320228263958491
 30
0.0
 11
7.4422000000000015
 21
0.0
 31
0.0
 12
0.0
 22
7.4422000000000015
 32
0.0
 13
1.0
 23
1.0
340
0
 70
               7
280
               1
281
              50
282
              50
283
               0
360
0
 71
               2
 91
        5
 14
-0.5
 24
24.773421031415435
 14
0.4999999999999998
 24
24.773421031415435
 14
0.4999999999999998
 24
25.000951197226623
 14
-0.5
 24
25.000951197226623
 14
-0.5
 24
24.773421031415435
  0
POLYLINE
  5
142
100
AcDbEntity
  8
Dimension
370
               5
390
0
  6
Continuous
 62
               7
100
AcDb2dPolyline
 66
               1
 10
0.0
 20
0.0
 30
0.0
 70
               1
 75
               5
  0
VERTEX
  5
143
100
AcDbEntity
  8
Dimension
370
               5
390
0
  6
Continuous
 62
               7
100
AcDbVertex
100
AcDb2dVertex
 10
37.802706599999993
 20
-175.11563117360413
 30
0.0
  0
VERTEX
  5
144
100
AcDbEntity
  8
Dimension
370
               5
390
0
  6
Continuous
 62
               7
100
AcDbVertex
100
AcDb2dVertex
 10
45.244906599999993
 20
-175.11563117360413
 30
0.0
  0
VERTEX
  5
145
100
AcDbEntity
  8
Dimension
370
               5
390
0
  6
Continuous
 62
               7
100
AcDbVertex
100
AcDb2dVertex
 10
45.244906599999993
 20
-176.80895617360414
 30
0.0
  0
VERTEX
  5
146
100
AcDbEntity
  8
Dimension
370
               5
390
0
  6
Continuous
 62
               7
100
AcDbVertex
100
AcDb2dVertex
 10
37.802706599999993
 20
-176.80895617360414
 30
0.0
  0
SEQEND
  5
147
100
AcDbEntity
  8
Dimension
370
               5
390
0
  6
Continuous
 62
               7
  0
WIPEOUT
  5
148
100
AcDbEntity
  8
Dimension
370
               5
390
0
  6
Continuous
 62
               7
 92
        0
100
AcDbWipeout
 90
        0
 10
19.736956599999992
 20
3.8386678263958487
 30
0.0
 11
13.623094999999999
 21
0.0
 31
0.0
 12
0.0
 22
13.623094999999999
 32
0.0
 13
1.0
 23
1.0
340
0
 70
               7
280
               1
281
              50
282
              50
283
               0
360
0
 71
               2
 91
        5
 14
-0.5
 24
13.760395233241786
 14
0.5
 24
13.760395233241786
 14
0.5
 24
13.884695548258309
 14
-0.5
 24
13.884695548258309
 14
-0.5
 24
13.760395233241786
  0
POLYLINE
  5
149
100
AcDbEntity
  8
Dimension
370
               5
390
0
  6
Continuous
 62
               7
100
AcDb2dPolyline
 66
               1
 10
0.0
 20
0.0
 30
0.0
 70
               1
 75
               5
  0
VERTEX
  5
14A
100
AcDbEntity
  8
Dimension
370
               5
390
0
  6
Continuous
 62
               7
100
AcDbVertex
100
AcDb2dVertex
 10
19.736956599999992
 20
-176.80895617360414
 30
0.0
  0
VERTEX
  5
14B
100
AcDbEntity
  8
Dimension
370
               5
390
0
  6
Continuous
 62
               7
100
AcDbVertex
100
AcDb2dVertex
 10
33.360051599999991
 20
-176.80895617360414
 30
0.0
  0
VERTEX
  5
14C
100
AcDbEntity
  8
Dimension
370
               5
390
0
  6
Continuous
 62
               7
100
AcDbVertex
100
AcDb2dVertex
 10
33.360051599999991
 20
-178.50231117360414
 30
0.0
  0
VERTEX
  5
14D
100
AcDbEntity
  8
Dimension
370
               5
390
0
  6
Continuous
 62
               7
100
AcDbVertex
100
AcDb2dVertex
 10
19.736956599999992
 20
-178.50231117360414
 30
0.0
  0
SEQEND
  5
14E
100
AcDbEntity
  8
Dimension
370
               5
390
0
  6
Continuous
 62
               7
  0
WIPEOUT
  5
14F
100
AcDbEntity
  8
Dimension
370
               5
390
0
  6
Continuous
 62
               7
 92
        0
100
AcDbWipeout
 90
        0
 10
33.360051599999991
 20
3.8386678263958487
 30
0.0
 11
11.884855
 21
0.0
 31
0.0
 12
0.0
 22
11.884855
 32
0.0
 13
1.0
 23
1.0
340
0
 70
               7
280
               1
281
              50
282
              50
283
               0
360
0
 71
               2
 91
        5
 14
-0.5
 24
15.699817246403091
 14
0.5000000000000002
 24
15.699817246403091
 14
0.5000000000000002
 24
15.842297318730434
 14
-0.5
 24
15.842297318730434
 14
-0.5
 24
15.699817246403091
  0
POLYLINE
  5
150
100
AcDbEntity
  8
Dimension
370
               5
390
0
  6
Continuous
 62
               7
100
AcDb2dPolyline
 66
               1
 10
0.0
 20
0.0
 30
0.0
 70
               1
 75
               5
  0
VERTEX
  5
151
100
AcDbEntity
  8
Dimension
370
               5
390
0
  6
Continuous
 62
               7
100
AcDbVertex
100
AcDb2dVertex
 10
33.360051599999991
 20
-176.80895617360414
 30
0.0
  0
VERTEX
  5
152
100
AcDbEntity
  8
Dimension
370
               5
390
0
  6
Continuous
 62
               7
100
AcDbVertex
100
AcDb2dVertex
 10
45.244906599999993
 20
-176.80895617360414
 30
0.0
  0
VERTEX
  5
153
100
AcDbEntity
  8
Dimension
370
               5
390
0
  6
Continuous
 62
               7
100
AcDbVertex
100
AcDb2dVertex
 10
45.244906599999993
 20
-178.50231117360414
 30
0.0
  0
VERTEX
  5
154
100
AcDbEntity
  8
Dimension
370
               5
390
0
  6
Continuous
 62
               7
100
AcDbVertex
100
AcDb2dVertex
 10
33.360051599999991
 20
-178.50231117360414
 30
0.0
  0
SEQEND
  5
155
100
AcDbEntity
  8
Dimension
370
               5
390
0
  6
Continuous
 62
               7
  0
WIPEOUT
  5
156
100
AcDbEntity
  8
Dimension
370
               5
390
0
  6
Continuous
 62
               7
 92
        0
100
AcDbWipeout
 90
        0
 10
33.360051599999991
 20
2.1453478263958488
 30
0.0
 11
11.884855
 21
0.0
 31
0.0
 12
0.0
 22
11.884855
 32
0.0
 13
1.0
 23
1.0
340
0
 70
               7
280
               1
281
              50
282
              50
283
               0
360
0
 71
               2
 91
        5
 14
-0.5
 24
15.699820191327532
 14
0.5000000000000002
 24
15.699820191327532
 14
0.5000000000000002
 24
15.842297318730434
 14
-0.5
 24
15.842297318730434
 14
-0.5
 24
15.699820191327532
  0
POLYLINE
  5
157
100
AcDbEntity
  8
Dimension
370
               5
390
0
  6
Continuous
 62
               7
100
AcDb2dPolyline
 66
               1
 10
0.0
 20
0.0
 30
0.0
 70
               1
 75
               5
  0
VERTEX
  5
158
100
AcDbEntity
  8
Dimension
370
               5
390
0
  6
Continuous
 62
               7
100
AcDbVertex
100
AcDb2dVertex
 10
33.360051599999991
 20
-178.50231117360414
 30
0.0
  0
VERTEX
  5
159
100
AcDbEntity
  8
Dimension
370
               5
390
0
  6
Continuous
 62
               7
100
AcDbVertex
100
AcDb2dVertex
 10
45.244906599999993
 20
-178.50231117360414
 30
0.0
  0
VERTEX
  5
15A
100
AcDbEntity
  8
Dimension
370
               5
390
0
  6
Continuous
 62
               7
100
AcDbVertex
100
AcDb2dVertex
 10
45.244906599999993
 20
-180.19563117360414
 30
0.0
  0
VERTEX
  5
15B
100
AcDbEntity
  8
Dimension
370
               5
390
0
  6
Continuous
 62
               7
100
AcDbVertex
100
AcDb2dVertex
 10
33.360051599999991
 20
-180.19563117360414
 30
0.0
  0
SEQEND
  5
15C
100
AcDbEntity
  8
Dimension
370
               5
390
0
  6
Continuous
 62
               7
  0
WIPEOUT
  5
15D
100
AcDbEntity
  8
Dimension
370
               5
390
0
  6
Continuous
 62
               7
 92
        0
100
AcDbWipeout
 90
        0
 10
19.736956599999992
 20
2.1453478263958488
 30
0.0
 11
13.623094999999999
 21
0.0
 31
0.0
 12
0.0
 22
13.623094999999999
 32
0.0
 13
1.0
 23
1.0
340
0
 70
               7
280
               1
281
              50
282
              50
283
               0
360
0
 71
               2
 91
        5
 14
-0.5
 24
13.760397802408336
 14
0.5
 24
13.760397802408336
 14
0.5
 24
13.884695548258309
 14
-0.5
 24
13.884695548258309
 14
-0.5
 24
13.760397802408336
  0
POLYLINE
  5
15E
100
AcDbEntity
  8
Dimension
370
               5
390
0
  6
Continuous
 62
               7
100
AcDb2dPolyline
 66
               1
 10
0.0
 20
0.0
 30
0.0
 70
               1
 75
               5
  0
VERTEX
  5
15F
100
AcDbEntity
  8
Dimension
370
               5
390
0
  6
Continuous
 62
               7
100
AcDbVertex
100
AcDb2dVertex
 10
19.736956599999992
 20
-178.50231117360414
 30
0.0
  0
VERTEX
  5
160
100
AcDbEntity
  8
Dimension
370
               5
390
0
  6
Continuous
 62
               7
100
AcDbVertex
100
AcDb2dVertex
 10
33.360051599999991
 20
-178.50231117360414
 30
0.0
  0
VERTEX
  5
161
100
AcDbEntity
  8
Dimension
370
               5
390
0
  6
Continuous
 62
               7
100
AcDbVertex
100
AcDb2dVertex
 10
33.360051599999991
 20
-180.19563117360414
 30
0.0
  0
VERTEX
  5
162
100
AcDbEntity
  8
Dimension
370
               5
390
0
  6
Continuous
 62
               7
100
AcDbVertex
100
AcDb2dVertex
 10
19.736956599999992
 20
-180.19563117360414
 30
0.0
  0
SEQEND
  5
163
100
AcDbEntity
  8
Dimension
370
               5
390
0
  6
Continuous
 62
               7
  0
MTEXT
  5
164
100
AcDbEntity
  8
None
390
0
 62
               7
100
AcDbMText
 10
20.371956599999994
 20
-175.59508043662498
 30
0.0
 40
0.6316012369791665
 41
0.0
 71
               1
 72
               1
  1
Status: Released
  7
Arial
 73
               1
 44
0.9673603504928809
  0
MTEXT
  5
165
100
AcDbEntity
  8
None
390
0
 62
               7
100
AcDbMText
 10
20.371956599999994
 20
-177.28983543662497
 30
0.0
 40
0.6316012369791665
 41
0.0
 71
               1
 72
               1
  1
Drawing: J. Glab
  7
Arial
 73
               1
 44
0.9673603504928809
  0
WIPEOUT
  5
166
100
AcDbEntity
  8
None
370
               5
390
0
  6
Continuous
 62
               7
 92
        0
100
AcDbWipeout
 90
        0
 10
31.005981599999991
 20
5.937806076395848
 30
0.0
 11
3.9422940889994305
 21
0.0
 31
0.0
 12
0.0
 22
3.9422940889994305
 32
0.0
 13
1.0
 23
1.0
340
0
 70
               7
280
               1
281
              50
282
              50
283
               0
360
0
 71
               2
 91
        5
 14
-0.5
 24
46.752505491359429
 14
0.5000000000000004
 24
46.752505491359429
 14
0.5000000000000004
 24
46.495234793866288
 14
-0.5
 24
46.495234793866288
 14
-0.5
 24
46.752505491359429
  0
MTEXT
  5
167
100
AcDbEntity
  8
None
390
0
 62
               7
100
AcDbMText
 10
31.005981599999991
 20
-175.55108543662499
 30
0.0
 40
0.6316012369791665
 41
0.0
 71
               1
 72
               1
  1
Scale: 3:1
  7
Arial
 73
               1
 44
0.9673603504928809
  0
MTEXT
  5
168
100
AcDbEntity
  8
None
390
0
 62
               7
100
AcDbMText
 10
38.437706599999991
 20
-175.59649543662496
 30
0.0
 40
0.6316012369791665
 41
0.0
 71
               1
 72
               1
  1
Rev: A
  7
Arial
 73
               1
 44
0.9673603504928809
  0
MTEXT
  5
169
100
AcDbEntity
  8
None
390
0
 62
               7
100
AcDbMText
 10
33.995051599999996
 20
-177.43075043662498
 30
0.0
 40
0.6316012369791665
 41
0.0
 71
               1
 72
               1
  1
Date: 10/27/06
  7
Arial
 73
               1
 44
0.9673603504928809
  0
MTEXT
  5
16A
100
AcDbEntity
  8
None
390
0
 62
               7
100
AcDbMText
 10
20.371956599999994
 20
-179.07299540016663
 30
0.0
 40
0.5052802734374999
 41
13.623094999999999
 71
               1
 72
               1
  1
File: SG-BGA-6204 Dwg.mcd
  7
Arial
 73
               1
 44
0.9673603504928808
  0
WIPEOUT
  5
16B
100
AcDbEntity
  8
Dimension
370
               5
390
0
  6
Continuous
 62
               7
 92
        0
100
AcDbWipeout
 90
        0
 10
-5.5677934000000029
 20
2.1453478263958488
 30
0.0
 11
25.304749999999999
 21
0.0
 31
0.0
 12
0.0
 22
25.304749999999999
 32
0.0
 13
1.0
 23
1.0
340
0
 70
               7
280
               1
281
              50
282
              50
283
               0
360
0
 71
               2
 91
        5
 14
-0.5
 24
7.5719649077742313
 14
0.4999999999999999
 24
7.5719649077742313
 14
0.4999999999999999
 24
7.7058004524842181
 14
-0.5
 24
7.7058004524842181
 14
-0.5
 24
7.5719649077742313
  0
POLYLINE
  5
16C
100
AcDbEntity
  8
Dimension
370
               5
390
0
  6
Continuous
 62
               7
100
AcDb2dPolyline
 66
               1
 10
0.0
 20
0.0
 30
0.0
 70
               1
 75
               5
  0
VERTEX
  5
16D
100
AcDbEntity
  8
Dimension
370
               5
390
0
  6
Continuous
 62
               7
100
AcDbVertex
100
AcDb2dVertex
 10
-5.5677934000000029
 20
-176.80895617360414
 30
0.0
  0
VERTEX
  5
16E
100
AcDbEntity
  8
Dimension
370
               5
390
0
  6
Continuous
 62
               7
100
AcDbVertex
100
AcDb2dVertex
 10
19.736956599999992
 20
-176.80895617360414
 30
0.0
  0
VERTEX
  5
16F
100
AcDbEntity
  8
Dimension
370
               5
390
0
  6
Continuous
 62
               7
100
AcDbVertex
100
AcDb2dVertex
 10
19.736956599999992
 20
-180.19563117360414
 30
0.0
  0
VERTEX
  5
170
100
AcDbEntity
  8
Dimension
370
               5
390
0
  6
Continuous
 62
               7
100
AcDbVertex
100
AcDb2dVertex
 10
-5.5677934000000029
 20
-180.19563117360414
 30
0.0
  0
SEQEND
  5
171
100
AcDbEntity
  8
Dimension
370
               5
390
0
  6
Continuous
 62
               7
  0
WIPEOUT
  5
172
100
AcDbEntity
  8
Dimension
370
               5
390
0
  6
Continuous
 62
               7
 92
        0
100
AcDbWipeout
 90
        0
 10
-5.5677934000000029
 20
5.5320228263958491
 30
0.0
 11
25.304749999999999
 21
0.0
 31
0.0
 12
0.0
 22
25.304749999999999
 32
0.0
 13
1.0
 23
1.0
340
0
 70
               7
280
               1
281
              50
282
              50
283
               0
360
0
 71
               2
 91
        5
 14
-0.5
 24
7.6388831741076277
 14
0.4999999999999999
 24
7.6388831741076277
 14
0.4999999999999999
 24
7.7058004524842181
 14
-0.5
 24
7.7058004524842181
 14
-0.5
 24
7.6388831741076277
  0
POLYLINE
  5
173
100
AcDbEntity
  8
Dimension
370
               5
390
0
  6
Continuous
 62
               7
100
AcDb2dPolyline
 66
               1
 10
0.0
 20
0.0
 30
0.0
 70
               1
 75
               5
  0
VERTEX
  5
174
100
AcDbEntity
  8
Dimension
370
               5
390
0
  6
Continuous
 62
               7
100
AcDbVertex
100
AcDb2dVertex
 10
-5.5677934000000029
 20
-175.11563117360413
 30
0.0
  0
VERTEX
  5
175
100
AcDbEntity
  8
Dimension
370
               5
390
0
  6
Continuous
 62
               7
100
AcDbVertex
100
AcDb2dVertex
 10
19.736956599999992
 20
-175.11563117360413
 30
0.0
  0
VERTEX
  5
176
100
AcDbEntity
  8
Dimension
370
               5
390
0
  6
Continuous
 62
               7
100
AcDbVertex
100
AcDb2dVertex
 10
19.736956599999992
 20
-176.80895617360414
 30
0.0
  0
VERTEX
  5
177
100
AcDbEntity
  8
Dimension
370
               5
390
0
  6
Continuous
 62
               7
100
AcDbVertex
100
AcDb2dVertex
 10
-5.5677934000000029
 20
-176.80895617360414
 30
0.0
  0
SEQEND
  5
178
100
AcDbEntity
  8
Dimension
370
               5
390
0
  6
Continuous
 62
               7
  0
MTEXT
  5
179
100
AcDbEntity
  8
None
390
0
 62
               7
100
AcDbMText
 10
7.0845815999999964
 20
-175.56292506318746
 30
0.0
 40
0.7367565104166665
 41
0.0
 71
               2
 72
               1
  1
SG-BGA-6204 Drawing
  7
Arial (bold)
 73
               1
 44
0.9925958378970426
  0
INSERT
  5
17A
100
AcDbEntity
  8
None
390
0
 62
               7
100
AcDbBlockReference
  2
IE i logo
 10
-2.8604884000000048
 20
-178.47583117360415
 30
0.0
 41
0.5
 42
0.5
 43
0.5
  0
MTEXT
  5
17B
100
AcDbEntity
  8
None
390
0
 62
               7
100
AcDbMText
 10
33.995051599999996
 20
-179.07299540016663
 30
0.0
 40
0.5052802734374999
 41
0.0
 71
               1
 72
               1
  1
Modified: 
  7
Arial
 73
               1
 44
0.9673603504928808
  0
INSERT
  5
17C
100
AcDbEntity
  8
None
390
0
 62
               7
100
AcDbBlockReference
  2
©2006_address
 10
8.832205799999997
 20
-178.50229367360413
 30
0.0
 41
0.5
 42
0.5
 43
0.5
  0
DIMENSION
  5
17D
100
AcDbEntity
  8
Dimension
370
               5
390
0
  6
Continuous
 62
               1
100
AcDbDimension
  2
*D4
 10
6.8000015999999945
 20
-143.0224474
 30
0.0
 11
6.8000015999999945
 21
-150.89660625925293
 31
0.0
 70
             128
 71
               5
 72
               1
 41
1.0
 42
0.0
  3
IE Standard
100
AcDbAlignedDimension
 13
17.128111599999993
 23
-161.2474474
 33
0.0
 14
17.128111599999993
 24
-143.0224474
 34
0.0
 50
90.0
100
AcDbRotatedDimension
1001
ACAD
1000
DSTYLE
1002
{
1070
             271
1070
               3
1070
             340
1005
32
1070
              71
1070
               1
1070
              47
1040
0.125
1070
              48
1040
0.125
1070
               3
1000
<>mm sqr.
1070
             147
1040
0.09921875
1002
}
  0
DIMENSION
  5
17E
100
AcDbEntity
  8
Dimension
370
               5
390
0
  6
Continuous
 62
               1
100
AcDbDimension
  2
*D5
 10
33.755191599999989
 20
-146.5683674
 30
0.0
 11
42.022963978576016
 21
-151.3162364903647
 31
0.0
 70
               3
 71
               5
 72
               1
 41
1.0
 42
0.0
  3
IE Standard
100
AcDbDiametricDimension
 15
34.451031599999993
 25
-147.05652739999999
 35
0.0
 40
7.4171099999999992
1001
ACAD
1000
DSTYLE
1002
{
1070
             271
1070
               3
1070
             172
1070
               0
1070
             289
1070
               0
1070
             342
1005
4E
1070
             340
1005
32
1070
              75
1070
               1
1070
              76
1070
               1
1070
              71
1070
               1
1070
              47
1040
0.025
1070
              48
1040
0.025
1070
               3
1000
mm (x2)
1070
             174
1070
               0
1070
             147
1040
0.09921875
1002
}
  0
DIMENSION
  5
17F
100
AcDbEntity
  8
Dimension
370
               5
390
0
  6
Continuous
 62
               1
100
AcDbDimension
  2
*D6
 10
31.913201599999994
 20
-150.47985739999999
 30
0.0
 11
43.749959583594126
 21
-158.40006025874516
 31
0.0
 70
               3
 71
               5
 72
               1
 41
1.0
 42
0.0
  3
IE Standard
100
AcDbDiametricDimension
 15
32.318021599999994
 25
-150.79003739999999
 35
0.0
 40
12.512229999999999
1001
ACAD
1000
DSTYLE
1002
{
1070
             271
1070
               4
1070
             172
1070
               0
1070
             289
1070
               0
1070
             342
1005
4E
1070
             340
1005
32
1070
              75
1070
               1
1070
              76
1070
               1
1070
               3
1000
mm PAD
1070
             174
1070
               0
1070
             147
1040
0.09921875
1002
}
  0
WIPEOUT
  5
180
100
AcDbEntity
  8
None
370
               5
390
0
  6
Continuous
 62
               1
 92
        0
100
AcDbWipeout
 90
        0
 10
4.5422315999999938
 20
30.026740599999993
 30
0.0
 11
4.5155327452553635
 21
0.0
 31
0.0
 12
0.0
 22
4.5155327452553635
 32
0.0
 13
1.0
 23
1.0
340
0
 70
               7
280
               1
281
              50
282
              50
283
               0
360
0
 71
               2
 91
        5
 14
-0.5
 24
40.880834175456343
 14
0.5
 24
40.880834175456343
 14
0.5
 24
40.656224797733259
 14
-0.5
 24
40.656224797733259
 14
-0.5
 24
40.880834175456343
  0
MTEXT
  5
181
100
AcDbEntity
  8
None
390
0
 62
               1
100
AcDbMText
 10
4.5422315999999938
 20
-151.46215574375
 30
0.0
 40
0.6315976562499999
 41
0.0
 71
               1
 72
               1
  1
Socket size
  7
New Century Schlbk
 73
               1
 44
0.9673603504928808
  0
DIMENSION
  5
182
100
AcDbEntity
  8
Dimension
370
               5
390
0
  6
Continuous
 62
               1
100
AcDbDimension
  2
*D7
 10
17.128111599999993
 20
-165.7232674
 30
0.0
 11
20.400001599999992
 21
-165.7232674
 31
0.0
 70
             128
 71
               5
 72
               1
 41
1.0
 42
0.0
  3
IE Standard
100
AcDbAlignedDimension
 13
18.378111599999993
 23
-159.9974474
 33
0.0
 14
17.128111599999993
 24
-161.2474474
 34
0.0
100
AcDbRotatedDimension
1001
ACAD
1000
DSTYLE
1002
{
1070
             340
1005
32
1070
              71
1070
               1
1070
              47
1040
0.13
1070
              48
1040
0.13
1070
             174
1070
               0
1070
             147
1040
0.09921875
1002
}
  0
CIRCLE
  5
183
102
{ACAD_REACTORS
330
184
102
}
100
AcDbEntity
  8
None
370
               9
390
0
  6
Continuous
 62
               7
100
AcDbCircle
 10
27.115611599999994
 20
-151.63494739999999
 30
0.0
 40
0.2549943899382886
  0
HATCH
  5
184
100
AcDbEntity
  8
None
370
               0
390
0
  6
Continuous
 62
               7
100
AcDbHatch
 10
0.0
 20
0.0
 30
0.0
210
0.0
220
0.0
230
1.0
  2
SOLID
 70
               1
 71
               1
 91
        1
 92
        1
 93
        1
 72
               2
 10
27.115611599999994
 20
-151.63494739999999
 40
0.2549943899382886
 50
0.0
 51
360.0
 73
               0
 97
        1
330
183
 75
               0
 76
               1
 98
        1
 10
0.0
 20
0.0
  0
POLYLINE
  5
185
100
AcDbEntity
  8
None
370
               9
390
0
  6
STYLE_12
 62
               7
100
AcDb2dPolyline
 66
               1
 10
0.0
 20
0.0
 30
0.0
 70
               1
 75
               5
  0
VERTEX
  5
186
100
AcDbEntity
  8
None
370
               9
390
0
  6
STYLE_12
 62
               7
100
AcDbVertex
100
AcDb2dVertex
 10
17.128111599999993
 20
-143.0224474
 30
0.0
  0
VERTEX
  5
187
100
AcDbEntity
  8
None
370
               9
390
0
  6
STYLE_12
 62
               7
100
AcDbVertex
100
AcDb2dVertex
 10
35.353111599999991
 20
-143.0224474
 30
0.0
  0
VERTEX
  5
188
100
AcDbEntity
  8
None
370
               9
390
0
  6
STYLE_12
 62
               7
100
AcDbVertex
100
AcDb2dVertex
 10
35.353111599999991
 20
-161.2474474
 30
0.0
  0
VERTEX
  5
189
100
AcDbEntity
  8
None
370
               9
390
0
  6
STYLE_12
 62
               7
100
AcDbVertex
100
AcDb2dVertex
 10
17.128111599999993
 20
-161.2474474
 30
0.0
  0
SEQEND
  5
18A
100
AcDbEntity
  8
None
370
               9
390
0
  6
STYLE_12
 62
               7
  0
CIRCLE
  5
18B
100
AcDbEntity
  8
None
370
               9
390
0
  6
Continuous
 62
               7
100
AcDbCircle
 10
18.378111599999993
 20
-144.2724474
 30
0.0
 40
0.7950000000000008
  0
CIRCLE
  5
18C
100
AcDbEntity
  8
None
370
               9
390
0
  6
Continuous
 62
               7
100
AcDbCircle
 10
34.103111599999991
 20
-146.8124474
 30
0.0
 40
0.4250000000000007
  0
CIRCLE
  5
18D
100
AcDbEntity
  8
None
370
               9
390
0
  6
Continuous
 62
               7
100
AcDbCircle
 10
18.378111599999993
 20
-154.91744739999999
 30
0.0
 40
0.39688
  0
CIRCLE
  5
18E
100
AcDbEntity
  8
None
370
               9
390
0
  6
Continuous
 62
               7
100
AcDbCircle
 10
34.103111599999991
 20
-144.2724474
 30
0.0
 40
0.7949999999999999
  0
CIRCLE
  5
18F
100
AcDbEntity
  8
None
370
               9
390
0
  6
Continuous
 62
               7
100
AcDbCircle
 10
34.103111599999991
 20
-159.9974474
 30
0.0
 40
0.8050000000000006
  0
CIRCLE
  5
190
100
AcDbEntity
  8
None
370
               9
390
0
  6
Continuous
 62
               7
100
AcDbCircle
 10
18.378111599999993
 20
-159.9974474
 30
0.0
 40
0.7950000000000008
  0
CIRCLE
  5
191
102
{ACAD_REACTORS
330
192
102
}
100
AcDbEntity
  8
None
370
               5
390
0
  6
Continuous
 62
               7
100
AcDbCircle
 10
20.400001599999996
 20
-144.2724474
 30
0.0
 40
0.2124399999999991
  0
HATCH
  5
192
100
AcDbEntity
  8
None
370
               0
390
0
  6
Continuous
 62
             180
100
AcDbHatch
 10
0.0
 20
0.0
 30
0.0
210
0.0
220
0.0
230
1.0
  2
SOLID
 70
               1
 71
               1
 91
        1
 92
        1
 93
        1
 72
               2
 10
20.400001599999996
 20
-144.2724474
 40
0.2124399999999991
 50
0.0
 51
360.0
 73
               0
 97
        1
330
191
 75
               0
 76
               1
 98
        1
 10
0.0
 20
0.0
  0
WIPEOUT
  5
193
100
AcDbEntity
  8
None
370
               5
390
0
  6
Continuous
 62
               1
 92
        0
100
AcDbWipeout
 90
        0
 10
26.175001599999995
 20
47.733860599999993
 30
0.0
 11
6.535175228118896
 21
0.0
 31
0.0
 12
0.0
 22
6.535175228118896
 32
0.0
 13
1.0
 23
1.0
340
0
 70
               7
280
               1
281
              50
282
              50
283
               0
360
0
 71
               2
 91
        5
 14
-0.5
 24
28.401467464168597
 14
0.4999999999999999
 24
28.401467464168597
 14
0.4999999999999999
 24
28.246271778575341
 14
-0.5
 24
28.246271778575341
 14
-0.5
 24
28.401467464168597
  0
MTEXT
  5
194
100
AcDbEntity
  8
None
390
0
 62
               1
100
AcDbMText
 10
26.175001599999995
 20
-133.75503574375
 30
0.0
 40
0.6315976562499999
 41
0.0
 71
               1
 72
               1
  1
Orientation Mark
  7
New Century Schlbk
 73
               1
 44
0.9673603504928808
  0
WIPEOUT
  5
195
100
AcDbEntity
  8
None
370
               5
390
0
  6
Continuous
 62
               1
 92
        0
100
AcDbWipeout
 90
        0
 10
45.171571599999993
 20
15.879430599999994
 30
0.0
 11
10.098212750752765
 21
0.0
 31
0.0
 12
0.0
 22
10.098212750752765
 32
0.0
 13
1.0
 23
1.0
340
0
 70
               7
280
               1
281
              50
282
              50
283
               0
360
0
 71
               2
 91
        5
 14
-0.5
 24
18.556757517453523
 14
0.5
 24
18.556757517453523
 14
0.5
 24
18.456320833751807
 14
-0.5
 24
18.456320833751807
 14
-0.5
 24
18.556757517453523
  0
MTEXT
  5
196
100
AcDbEntity
  8
None
390
0
 62
               1
100
AcDbMText
 10
45.171571599999993
 20
-165.60946574374998
 30
0.0
 40
0.6315976562499999
 41
0.0
 71
               1
 72
               1
  1
Non plated mounting hole
  7
Arial
 73
               1
 44
0.9673603504928808
  0
WIPEOUT
  5
197
100
AcDbEntity
  8
None
370
               5
390
0
  6
Continuous
 62
               1
 92
        0
100
AcDbWipeout
 90
        0
 10
43.582261599999995
 20
29.111720599999991
 30
0.0
 11
10.292239586512245
 21
0.0
 31
0.0
 12
0.0
 22
10.292239586512245
 32
0.0
 13
1.0
 23
1.0
340
0
 70
               7
280
               1
281
              50
282
              50
283
               0
360
0
 71
               2
 91
        5
 14
-0.5
 24
18.216355849212238
 14
0.4999999999999993
 24
18.216355849212238
 14
0.4999999999999993
 24
18.117812573817726
 14
-0.5
 24
18.117812573817726
 14
-0.5
 24
18.216355849212238
  0
MTEXT
  5
198
100
AcDbEntity
  8
None
390
0
 62
               1
100
AcDbMText
 10
43.582261599999995
 20
-152.37717574375
 30
0.0
 40
0.6315976562499999
 41
0.0
 71
               1
 72
               1
  1
Non plated alignment hole
  7
Arial
 73
               1
 44
0.9673603504928808
  0
DIMENSION
  5
199
100
AcDbEntity
  8
Dimension
370
               5
390
0
  6
Continuous
 62
               1
100
AcDbDimension
  2
*D8
 10
18.378111599999993
 20
-138.5200074
 30
0.0
 11
16.040001599999993
 21
-138.5200074
 31
0.0
 70
             128
 71
               5
 72
               1
 41
1.0
 42
0.0
  3
IE Standard
100
AcDbAlignedDimension
 13
21.115611599999994
 23
-146.63494739999999
 33
0.0
 14
18.378111599999993
 24
-144.2724474
 34
0.0
100
AcDbRotatedDimension
1001
ACAD
1000
DSTYLE
1002
{
1070
             271
1070
               4
1070
             340
1005
32
1070
             174
1070
               0
1070
             147
1040
0.09921875
1002
}
  0
DIMENSION
  5
19A
100
AcDbEntity
  8
Dimension
370
               5
390
0
  6
Continuous
 62
               1
100
AcDbDimension
  2
*D9
 10
12.000001599999996
 20
-146.63494739999999
 30
0.0
 11
12.000001599999996
 21
-145.36732426157226
 31
0.0
 70
             128
 71
               5
 72
               1
 41
1.0
 42
0.0
  3
IE Standard
100
AcDbAlignedDimension
 13
18.378111599999993
 23
-144.2724474
 33
0.0
 14
21.115611599999994
 24
-146.63494739999999
 34
0.0
 50
90.0
100
AcDbRotatedDimension
1001
ACAD
1000
DSTYLE
1002
{
1070
             271
1070
               4
1070
             340
1005
32
1070
             147
1040
0.09921875
1002
}
  0
DIMENSION
  5
19B
100
AcDbEntity
  8
Dimension
370
               5
390
0
  6
Continuous
 62
               1
100
AcDbDimension
  2
*D10
 10
28.115611599999994
 20
-138.5200074
 30
0.0
 11
30.850001599999992
 21
-138.5200074
 31
0.0
 70
             128
 71
               5
 72
               1
 41
1.0
 42
0.0
  3
IE Standard
100
AcDbAlignedDimension
 13
29.115611599999994
 23
-146.63494739999999
 33
0.0
 14
28.115611599999994
 24
-146.63494739999999
 34
0.0
100
AcDbRotatedDimension
1001
ACAD
1000
DSTYLE
1002
{
1070
             340
1005
32
1070
               3
1000
<>mm typ.
1070
             174
1070
               0
1070
             147
1040
0.09921875
1002
}
  0
DIMENSION
  5
19C
100
AcDbEntity
  8
Dimension
370
               5
390
0
  6
Continuous
 62
               1
100
AcDbDimension
  2
*D11
 10
12.000001599999994
 20
-159.9974474
 30
0.0
 11
12.000001599999994
 21
-157.45744740000001
 31
0.0
 70
             128
 71
               5
 72
               1
 41
1.0
 42
0.0
  3
IE Standard
100
AcDbAlignedDimension
 13
18.378111599999993
 23
-154.91744739999999
 33
0.0
 14
18.378111599999993
 24
-159.9974474
 34
0.0
 50
90.0
100
AcDbRotatedDimension
1001
ACAD
1000
DSTYLE
1002
{
1070
             340
1005
32
1070
             147
1040
0.09921875
1002
}
  0
DIMENSION
  5
19D
100
AcDbEntity
  8
Dimension
370
               5
390
0
  6
Continuous
 62
               1
100
AcDbDimension
  2
*D12
 10
40.900001599999996
 20
-146.8124474
 30
0.0
 11
40.900001599999996
 21
-145.40001423349608
 31
0.0
 70
             128
 71
               5
 72
               1
 41
1.0
 42
0.0
  3
IE Standard
100
AcDbAlignedDimension
 13
34.103111599999991
 23
-144.2724474
 33
0.0
 14
34.103111599999991
 24
-146.8124474
 34
0.0
 50
90.0
100
AcDbRotatedDimension
1001
ACAD
1000
DSTYLE
1002
{
1070
             340
1005
32
1070
             147
1040
0.09921875
1002
}
  0
DIMENSION
  5
19E
100
AcDbEntity
  8
Dimension
370
               5
390
0
  6
Continuous
 62
               1
100
AcDbDimension
  2
*D13
 10
9.5000015999999938
 20
-161.2474474
 30
0.0
 11
9.5000015999999938
 21
-163.7000074
 31
0.0
 70
             128
 71
               5
 72
               1
 41
1.0
 42
0.0
  3
IE Standard
100
AcDbAlignedDimension
 13
18.378111599999993
 23
-159.9974474
 33
0.0
 14
17.128111599999993
 24
-161.2474474
 34
0.0
 50
90.0
100
AcDbRotatedDimension
1001
ACAD
1000
DSTYLE
1002
{
1070
             340
1005
32
1070
              71
1070
               1
1070
              47
1040
0.13
1070
              48
1040
0.13
1070
             174
1070
               0
1070
             147
1040
0.09921875
1002
}
  0
LINE
  5
19F
100
AcDbEntity
  8
None
370
               5
390
0
  6
Continuous
 62
               1
100
AcDbLine
 10
26.175001599999995
 20
-134.10000739999998
 30
0.0
 11
25.500001599999994
 21
-134.10000739999998
 31
0.0
  0
LINE
  5
1A0
100
AcDbEntity
  8
None
370
               5
390
0
  6
Continuous
 62
               1
100
AcDbLine
 10
25.500001599999994
 20
-134.10000739999998
 30
0.0
 11
20.531791599999995
 21
-144.06000739999999
 31
0.0
  0
SOLID
  5
1A1
100
AcDbEntity
  8
None
370
               5
390
0
 62
               1
100
AcDbTrace
 10
20.531791599999995
 20
-144.06000739999999
 30
0.0
 11
20.641159937342778
 21
-143.54546982711355
 31
0.0
 12
20.883776144951739
 22
-143.66908895935012
 32
0.0
 13
20.883776144951739
 23
-143.66908895935012
 33
0.0
  0
DIMENSION
  5
1A2
100
AcDbEntity
  8
Dimension
370
               5
390
0
  6
Continuous
 62
               1
100
AcDbDimension
  2
*D14
 10
33.402151599999996
 20
-159.5959374
 30
0.0
 11
43.550006913317276
 21
-164.70605818257627
 31
0.0
 70
               3
 71
               5
 72
               1
 41
1.0
 42
0.0
  3
IE Standard
100
AcDbDiametricDimension
 15
34.788111599999993
 25
-160.41491739999998
 35
0.0
 40
8.4349899999999991
1001
ACAD
1000
DSTYLE
1002
{
1070
             271
1070
               3
1070
             172
1070
               0
1070
             289
1070
               0
1070
             342
1005
4E
1070
             340
1005
32
1070
              75
1070
               1
1070
              76
1070
               1
1070
              71
1070
               1
1070
              47
1040
0.05
1070
              48
1040
0.05
1070
               3
1000
mm (x4)
1070
             174
1070
               0
1070
             147
1040
0.09921875
1002
}
  0
DIMENSION
  5
1A3
100
AcDbEntity
  8
Dimension
370
               5
390
0
  6
Continuous
 62
               1
100
AcDbDimension
  2
*D15
 10
18.378111599999993
 20
-163.8000074
 30
0.0
 11
26.240611599999994
 21
-163.8000074
 31
0.0
 71
               5
 72
               1
 41
1.0
 42
0.0
  3
IE Standard
100
AcDbAlignedDimension
 13
34.103111599999991
 23
-159.9974474
 33
0.0
 14
18.378111599999993
 24
-159.9974474
 34
0.0
100
AcDbRotatedDimension
1001
ACAD
1000
DSTYLE
1002
{
1070
             271
1070
               3
1070
             340
1005
32
1070
               3
1000
<>mm(x4)
1070
             147
1040
0.09921875
1002
}
  0
LINE
  5
1A4
100
AcDbEntity
  8
None
370
               5
390
0
  6
Continuous
 62
               1
100
AcDbLine
 10
17.128111599999993
 20
-152.13494739999999
 30
0.0
 11
35.353111599999991
 21
-152.13494739999999
 31
0.0
  0
LINE
  5
1A5
100
AcDbEntity
  8
None
370
               5
390
0
  6
Continuous
 62
               1
100
AcDbLine
 10
26.240611599999994
 20
-143.0224474
 30
0.0
 11
26.240611599999994
 21
-161.2474474
 31
0.0
  0
CIRCLE
  5
1A6
102
{ACAD_REACTORS
330
1A7
102
}
100
AcDbEntity
  8
None
370
               9
390
0
  6
Continuous
 62
               7
100
AcDbCircle
 10
28.115611599999994
 20
-151.63494739999999
 30
0.0
 40
0.2549943899382885
  0
HATCH
  5
1A7
100
AcDbEntity
  8
None
370
               0
390
0
  6
Continuous
 62
               7
100
AcDbHatch
 10
0.0
 20
0.0
 30
0.0
210
0.0
220
0.0
230
1.0
  2
SOLID
 70
               1
 71
               1
 91
        1
 92
        1
 93
        1
 72
               2
 10
28.115611599999994
 20
-151.63494739999999
 40
0.2549943899382885
 50
0.0
 51
360.0
 73
               0
 97
        1
330
1A6
 75
               0
 76
               1
 98
        1
 10
0.0
 20
0.0
  0
CIRCLE
  5
1A8
102
{ACAD_REACTORS
330
1A9
102
}
100
AcDbEntity
  8
None
370
               9
390
0
  6
Continuous
 62
               7
100
AcDbCircle
 10
29.115611599999994
 20
-151.63494739999999
 30
0.0
 40
0.2549943899382885
  0
HATCH
  5
1A9
100
AcDbEntity
  8
None
370
               0
390
0
  6
Continuous
 62
               7
100
AcDbHatch
 10
0.0
 20
0.0
 30
0.0
210
0.0
220
0.0
230
1.0
  2
SOLID
 70
               1
 71
               1
 91
        1
 92
        1
 93
        1
 72
               2
 10
29.115611599999994
 20
-151.63494739999999
 40
0.2549943899382885
 50
0.0
 51
360.0
 73
               0
 97
        1
330
1A8
 75
               0
 76
               1
 98
        1
 10
0.0
 20
0.0
  0
CIRCLE
  5
1AA
102
{ACAD_REACTORS
330
1AB
102
}
100
AcDbEntity
  8
None
370
               9
390
0
  6
Continuous
 62
               7
100
AcDbCircle
 10
30.115611599999994
 20
-151.63494739999999
 30
0.0
 40
0.2549943899382889
  0
HATCH
  5
1AB
100
AcDbEntity
  8
None
370
               0
390
0
  6
Continuous
 62
               7
100
AcDbHatch
 10
0.0
 20
0.0
 30
0.0
210
0.0
220
0.0
230
1.0
  2
SOLID
 70
               1
 71
               1
 91
        1
 92
        1
 93
        1
 72
               2
 10
30.115611599999994
 20
-151.63494739999999
 40
0.2549943899382889
 50
0.0
 51
360.0
 73
               0
 97
        1
330
1AA
 75
               0
 76
               1
 98
        1
 10
0.0
 20
0.0
  0
CIRCLE
  5
1AC
102
{ACAD_REACTORS
330
1AD
102
}
100
AcDbEntity
  8
None
370
               9
390
0
  6
Continuous
 62
               7
100
AcDbCircle
 10
31.115611599999994
 20
-151.63494739999999
 30
0.0
 40
0.2549943899382889
  0
HATCH
  5
1AD
100
AcDbEntity
  8
None
370
               0
390
0
  6
Continuous
 62
               7
100
AcDbHatch
 10
0.0
 20
0.0
 30
0.0
210
0.0
220
0.0
230
1.0
  2
SOLID
 70
               1
 71
               1
 91
        1
 92
        1
 93
        1
 72
               2
 10
31.115611599999994
 20
-151.63494739999999
 40
0.2549943899382889
 50
0.0
 51
360.0
 73
               0
 97
        1
330
1AC
 75
               0
 76
               1
 98
        1
 10
0.0
 20
0.0
  0
CIRCLE
  5
1AE
102
{ACAD_REACTORS
330
1AF
102
}
100
AcDbEntity
  8
None
370
               9
390
0
  6
Continuous
 62
               7
100
AcDbCircle
 10
32.115611599999994
 20
-151.63494739999999
 30
0.0
 40
0.2549943899382889
  0
HATCH
  5
1AF
100
AcDbEntity
  8
None
370
               0
390
0
  6
Continuous
 62
               7
100
AcDbHatch
 10
0.0
 20
0.0
 30
0.0
210
0.0
220
0.0
230
1.0
  2
SOLID
 70
               1
 71
               1
 91
        1
 92
        1
 93
        1
 72
               2
 10
32.115611599999994
 20
-151.63494739999999
 40
0.2549943899382889
 50
0.0
 51
360.0
 73
               0
 97
        1
330
1AE
 75
               0
 76
               1
 98
        1
 10
0.0
 20
0.0
  0
CIRCLE
  5
1B0
102
{ACAD_REACTORS
330
1B1
102
}
100
AcDbEntity
  8
None
370
               9
390
0
  6
Continuous
 62
               7
100
AcDbCircle
 10
27.115611599999994
 20
-150.63494739999999
 30
0.0
 40
0.2549943899382884
  0
HATCH
  5
1B1
100
AcDbEntity
  8
None
370
               0
390
0
  6
Continuous
 62
               7
100
AcDbHatch
 10
0.0
 20
0.0
 30
0.0
210
0.0
220
0.0
230
1.0
  2
SOLID
 70
               1
 71
               1
 91
        1
 92
        1
 93
        1
 72
               2
 10
27.115611599999994
 20
-150.63494739999999
 40
0.2549943899382884
 50
0.0
 51
360.0
 73
               0
 97
        1
330
1B0
 75
               0
 76
               1
 98
        1
 10
0.0
 20
0.0
  0
CIRCLE
  5
1B2
102
{ACAD_REACTORS
330
1B3
102
}
100
AcDbEntity
  8
None
370
               9
390
0
  6
Continuous
 62
               7
100
AcDbCircle
 10
28.115611599999994
 20
-150.63494739999999
 30
0.0
 40
0.2549943899382883
  0
HATCH
  5
1B3
100
AcDbEntity
  8
None
370
               0
390
0
  6
Continuous
 62
               7
100
AcDbHatch
 10
0.0
 20
0.0
 30
0.0
210
0.0
220
0.0
230
1.0
  2
SOLID
 70
               1
 71
               1
 91
        1
 92
        1
 93
        1
 72
               2
 10
28.115611599999994
 20
-150.63494739999999
 40
0.2549943899382883
 50
0.0
 51
360.0
 73
               0
 97
        1
330
1B2
 75
               0
 76
               1
 98
        1
 10
0.0
 20
0.0
  0
CIRCLE
  5
1B4
102
{ACAD_REACTORS
330
1B5
102
}
100
AcDbEntity
  8
None
370
               9
390
0
  6
Continuous
 62
               7
100
AcDbCircle
 10
29.115611599999994
 20
-150.63494739999999
 30
0.0
 40
0.2549943899382883
  0
HATCH
  5
1B5
100
AcDbEntity
  8
None
370
               0
390
0
  6
Continuous
 62
               7
100
AcDbHatch
 10
0.0
 20
0.0
 30
0.0
210
0.0
220
0.0
230
1.0
  2
SOLID
 70
               1
 71
               1
 91
        1
 92
        1
 93
        1
 72
               2
 10
29.115611599999994
 20
-150.63494739999999
 40
0.2549943899382883
 50
0.0
 51
360.0
 73
               0
 97
        1
330
1B4
 75
               0
 76
               1
 98
        1
 10
0.0
 20
0.0
  0
CIRCLE
  5
1B6
102
{ACAD_REACTORS
330
1B7
102
}
100
AcDbEntity
  8
None
370
               9
390
0
  6
Continuous
 62
               7
100
AcDbCircle
 10
30.115611599999994
 20
-150.63494739999999
 30
0.0
 40
0.2549943899382887
  0
HATCH
  5
1B7
100
AcDbEntity
  8
None
370
               0
390
0
  6
Continuous
 62
               7
100
AcDbHatch
 10
0.0
 20
0.0
 30
0.0
210
0.0
220
0.0
230
1.0
  2
SOLID
 70
               1
 71
               1
 91
        1
 92
        1
 93
        1
 72
               2
 10
30.115611599999994
 20
-150.63494739999999
 40
0.2549943899382887
 50
0.0
 51
360.0
 73
               0
 97
        1
330
1B6
 75
               0
 76
               1
 98
        1
 10
0.0
 20
0.0
  0
CIRCLE
  5
1B8
102
{ACAD_REACTORS
330
1B9
102
}
100
AcDbEntity
  8
None
370
               9
390
0
  6
Continuous
 62
               7
100
AcDbCircle
 10
31.115611599999994
 20
-150.63494739999999
 30
0.0
 40
0.2549943899382887
  0
HATCH
  5
1B9
100
AcDbEntity
  8
None
370
               0
390
0
  6
Continuous
 62
               7
100
AcDbHatch
 10
0.0
 20
0.0
 30
0.0
210
0.0
220
0.0
230
1.0
  2
SOLID
 70
               1
 71
               1
 91
        1
 92
        1
 93
        1
 72
               2
 10
31.115611599999994
 20
-150.63494739999999
 40
0.2549943899382887
 50
0.0
 51
360.0
 73
               0
 97
        1
330
1B8
 75
               0
 76
               1
 98
        1
 10
0.0
 20
0.0
  0
CIRCLE
  5
1BA
102
{ACAD_REACTORS
330
1BB
102
}
100
AcDbEntity
  8
None
370
               9
390
0
  6
Continuous
 62
               7
100
AcDbCircle
 10
32.115611599999994
 20
-150.63494739999999
 30
0.0
 40
0.2549943899382887
  0
HATCH
  5
1BB
100
AcDbEntity
  8
None
370
               0
390
0
  6
Continuous
 62
               7
100
AcDbHatch
 10
0.0
 20
0.0
 30
0.0
210
0.0
220
0.0
230
1.0
  2
SOLID
 70
               1
 71
               1
 91
        1
 92
        1
 93
        1
 72
               2
 10
32.115611599999994
 20
-150.63494739999999
 40
0.2549943899382887
 50
0.0
 51
360.0
 73
               0
 97
        1
330
1BA
 75
               0
 76
               1
 98
        1
 10
0.0
 20
0.0
  0
CIRCLE
  5
1BC
102
{ACAD_REACTORS
330
1BD
102
}
100
AcDbEntity
  8
None
370
               9
390
0
  6
Continuous
 62
               7
100
AcDbCircle
 10
27.115611599999994
 20
-149.63494739999999
 30
0.0
 40
0.2549943899382884
  0
HATCH
  5
1BD
100
AcDbEntity
  8
None
370
               0
390
0
  6
Continuous
 62
               7
100
AcDbHatch
 10
0.0
 20
0.0
 30
0.0
210
0.0
220
0.0
230
1.0
  2
SOLID
 70
               1
 71
               1
 91
        1
 92
        1
 93
        1
 72
               2
 10
27.115611599999994
 20
-149.63494739999999
 40
0.2549943899382884
 50
0.0
 51
360.0
 73
               0
 97
        1
330
1BC
 75
               0
 76
               1
 98
        1
 10
0.0
 20
0.0
  0
CIRCLE
  5
1BE
102
{ACAD_REACTORS
330
1BF
102
}
100
AcDbEntity
  8
None
370
               9
390
0
  6
Continuous
 62
               7
100
AcDbCircle
 10
28.115611599999994
 20
-149.63494739999999
 30
0.0
 40
0.2549943899382883
  0
HATCH
  5
1BF
100
AcDbEntity
  8
None
370
               0
390
0
  6
Continuous
 62
               7
100
AcDbHatch
 10
0.0
 20
0.0
 30
0.0
210
0.0
220
0.0
230
1.0
  2
SOLID
 70
               1
 71
               1
 91
        1
 92
        1
 93
        1
 72
               2
 10
28.115611599999994
 20
-149.63494739999999
 40
0.2549943899382883
 50
0.0
 51
360.0
 73
               0
 97
        1
330
1BE
 75
               0
 76
               1
 98
        1
 10
0.0
 20
0.0
  0
CIRCLE
  5
1C0
102
{ACAD_REACTORS
330
1C1
102
}
100
AcDbEntity
  8
None
370
               9
390
0
  6
Continuous
 62
               7
100
AcDbCircle
 10
29.115611599999994
 20
-149.63494739999999
 30
0.0
 40
0.2549943899382883
  0
HATCH
  5
1C1
100
AcDbEntity
  8
None
370
               0
390
0
  6
Continuous
 62
               7
100
AcDbHatch
 10
0.0
 20
0.0
 30
0.0
210
0.0
220
0.0
230
1.0
  2
SOLID
 70
               1
 71
               1
 91
        1
 92
        1
 93
        1
 72
               2
 10
29.115611599999994
 20
-149.63494739999999
 40
0.2549943899382883
 50
0.0
 51
360.0
 73
               0
 97
        1
330
1C0
 75
               0
 76
               1
 98
        1
 10
0.0
 20
0.0
  0
CIRCLE
  5
1C2
102
{ACAD_REACTORS
330
1C3
102
}
100
AcDbEntity
  8
None
370
               9
390
0
  6
Continuous
 62
               7
100
AcDbCircle
 10
30.115611599999994
 20
-149.63494739999999
 30
0.0
 40
0.2549943899382887
  0
HATCH
  5
1C3
100
AcDbEntity
  8
None
370
               0
390
0
  6
Continuous
 62
               7
100
AcDbHatch
 10
0.0
 20
0.0
 30
0.0
210
0.0
220
0.0
230
1.0
  2
SOLID
 70
               1
 71
               1
 91
        1
 92
        1
 93
        1
 72
               2
 10
30.115611599999994
 20
-149.63494739999999
 40
0.2549943899382887
 50
0.0
 51
360.0
 73
               0
 97
        1
330
1C2
 75
               0
 76
               1
 98
        1
 10
0.0
 20
0.0
  0
CIRCLE
  5
1C4
102
{ACAD_REACTORS
330
1C5
102
}
100
AcDbEntity
  8
None
370
               9
390
0
  6
Continuous
 62
               7
100
AcDbCircle
 10
31.115611599999994
 20
-149.63494739999999
 30
0.0
 40
0.2549943899382887
  0
HATCH
  5
1C5
100
AcDbEntity
  8
None
370
               0
390
0
  6
Continuous
 62
               7
100
AcDbHatch
 10
0.0
 20
0.0
 30
0.0
210
0.0
220
0.0
230
1.0
  2
SOLID
 70
               1
 71
               1
 91
        1
 92
        1
 93
        1
 72
               2
 10
31.115611599999994
 20
-149.63494739999999
 40
0.2549943899382887
 50
0.0
 51
360.0
 73
               0
 97
        1
330
1C4
 75
               0
 76
               1
 98
        1
 10
0.0
 20
0.0
  0
CIRCLE
  5
1C6
102
{ACAD_REACTORS
330
1C7
102
}
100
AcDbEntity
  8
None
370
               9
390
0
  6
Continuous
 62
               7
100
AcDbCircle
 10
32.115611599999994
 20
-149.63494739999999
 30
0.0
 40
0.2549943899382887
  0
HATCH
  5
1C7
100
AcDbEntity
  8
None
370
               0
390
0
  6
Continuous
 62
               7
100
AcDbHatch
 10
0.0
 20
0.0
 30
0.0
210
0.0
220
0.0
230
1.0
  2
SOLID
 70
               1
 71
               1
 91
        1
 92
        1
 93
        1
 72
               2
 10
32.115611599999994
 20
-149.63494739999999
 40
0.2549943899382887
 50
0.0
 51
360.0
 73
               0
 97
        1
330
1C6
 75
               0
 76
               1
 98
        1
 10
0.0
 20
0.0
  0
CIRCLE
  5
1C8
102
{ACAD_REACTORS
330
1C9
102
}
100
AcDbEntity
  8
None
370
               9
390
0
  6
Continuous
 62
               7
100
AcDbCircle
 10
27.115611599999994
 20
-148.63494739999999
 30
0.0
 40
0.2549943899382884
  0
HATCH
  5
1C9
100
AcDbEntity
  8
None
370
               0
390
0
  6
Continuous
 62
               7
100
AcDbHatch
 10
0.0
 20
0.0
 30
0.0
210
0.0
220
0.0
230
1.0
  2
SOLID
 70
               1
 71
               1
 91
        1
 92
        1
 93
        1
 72
               2
 10
27.115611599999994
 20
-148.63494739999999
 40
0.2549943899382884
 50
0.0
 51
360.0
 73
               0
 97
        1
330
1C8
 75
               0
 76
               1
 98
        1
 10
0.0
 20
0.0
  0
CIRCLE
  5
1CA
102
{ACAD_REACTORS
330
1CB
102
}
100
AcDbEntity
  8
None
370
               9
390
0
  6
Continuous
 62
               7
100
AcDbCircle
 10
28.115611599999994
 20
-148.63494739999999
 30
0.0
 40
0.2549943899382883
  0
HATCH
  5
1CB
100
AcDbEntity
  8
None
370
               0
390
0
  6
Continuous
 62
               7
100
AcDbHatch
 10
0.0
 20
0.0
 30
0.0
210
0.0
220
0.0
230
1.0
  2
SOLID
 70
               1
 71
               1
 91
        1
 92
        1
 93
        1
 72
               2
 10
28.115611599999994
 20
-148.63494739999999
 40
0.2549943899382883
 50
0.0
 51
360.0
 73
               0
 97
        1
330
1CA
 75
               0
 76
               1
 98
        1
 10
0.0
 20
0.0
  0
CIRCLE
  5
1CC
102
{ACAD_REACTORS
330
1CD
102
}
100
AcDbEntity
  8
None
370
               9
390
0
  6
Continuous
 62
               7
100
AcDbCircle
 10
29.115611599999994
 20
-148.63494739999999
 30
0.0
 40
0.2549943899382883
  0
HATCH
  5
1CD
100
AcDbEntity
  8
None
370
               0
390
0
  6
Continuous
 62
               7
100
AcDbHatch
 10
0.0
 20
0.0
 30
0.0
210
0.0
220
0.0
230
1.0
  2
SOLID
 70
               1
 71
               1
 91
        1
 92
        1
 93
        1
 72
               2
 10
29.115611599999994
 20
-148.63494739999999
 40
0.2549943899382883
 50
0.0
 51
360.0
 73
               0
 97
        1
330
1CC
 75
               0
 76
               1
 98
        1
 10
0.0
 20
0.0
  0
CIRCLE
  5
1CE
102
{ACAD_REACTORS
330
1CF
102
}
100
AcDbEntity
  8
None
370
               9
390
0
  6
Continuous
 62
               7
100
AcDbCircle
 10
30.115611599999994
 20
-148.63494739999999
 30
0.0
 40
0.2549943899382887
  0
HATCH
  5
1CF
100
AcDbEntity
  8
None
370
               0
390
0
  6
Continuous
 62
               7
100
AcDbHatch
 10
0.0
 20
0.0
 30
0.0
210
0.0
220
0.0
230
1.0
  2
SOLID
 70
               1
 71
               1
 91
        1
 92
        1
 93
        1
 72
               2
 10
30.115611599999994
 20
-148.63494739999999
 40
0.2549943899382887
 50
0.0
 51
360.0
 73
               0
 97
        1
330
1CE
 75
               0
 76
               1
 98
        1
 10
0.0
 20
0.0
  0
CIRCLE
  5
1D0
102
{ACAD_REACTORS
330
1D1
102
}
100
AcDbEntity
  8
None
370
               9
390
0
  6
Continuous
 62
               7
100
AcDbCircle
 10
31.115611599999994
 20
-148.63494739999999
 30
0.0
 40
0.2549943899382887
  0
HATCH
  5
1D1
100
AcDbEntity
  8
None
370
               0
390
0
  6
Continuous
 62
               7
100
AcDbHatch
 10
0.0
 20
0.0
 30
0.0
210
0.0
220
0.0
230
1.0
  2
SOLID
 70
               1
 71
               1
 91
        1
 92
        1
 93
        1
 72
               2
 10
31.115611599999994
 20
-148.63494739999999
 40
0.2549943899382887
 50
0.0
 51
360.0
 73
               0
 97
        1
330
1D0
 75
               0
 76
               1
 98
        1
 10
0.0
 20
0.0
  0
CIRCLE
  5
1D2
102
{ACAD_REACTORS
330
1D3
102
}
100
AcDbEntity
  8
None
370
               9
390
0
  6
Continuous
 62
               7
100
AcDbCircle
 10
32.115611599999994
 20
-148.63494739999999
 30
0.0
 40
0.2549943899382887
  0
HATCH
  5
1D3
100
AcDbEntity
  8
None
370
               0
390
0
  6
Continuous
 62
               7
100
AcDbHatch
 10
0.0
 20
0.0
 30
0.0
210
0.0
220
0.0
230
1.0
  2
SOLID
 70
               1
 71
               1
 91
        1
 92
        1
 93
        1
 72
               2
 10
32.115611599999994
 20
-148.63494739999999
 40
0.2549943899382887
 50
0.0
 51
360.0
 73
               0
 97
        1
330
1D2
 75
               0
 76
               1
 98
        1
 10
0.0
 20
0.0
  0
CIRCLE
  5
1D4
102
{ACAD_REACTORS
330
1D5
102
}
100
AcDbEntity
  8
None
370
               9
390
0
  6
Continuous
 62
               7
100
AcDbCircle
 10
27.115611599999994
 20
-147.63494739999999
 30
0.0
 40
0.2549943899382888
  0
HATCH
  5
1D5
100
AcDbEntity
  8
None
370
               0
390
0
  6
Continuous
 62
               7
100
AcDbHatch
 10
0.0
 20
0.0
 30
0.0
210
0.0
220
0.0
230
1.0
  2
SOLID
 70
               1
 71
               1
 91
        1
 92
        1
 93
        1
 72
               2
 10
27.115611599999994
 20
-147.63494739999999
 40
0.2549943899382888
 50
0.0
 51
360.0
 73
               0
 97
        1
330
1D4
 75
               0
 76
               1
 98
        1
 10
0.0
 20
0.0
  0
CIRCLE
  5
1D6
102
{ACAD_REACTORS
330
1D7
102
}
100
AcDbEntity
  8
None
370
               9
390
0
  6
Continuous
 62
               7
100
AcDbCircle
 10
28.115611599999994
 20
-147.63494739999999
 30
0.0
 40
0.2549943899382887
  0
HATCH
  5
1D7
100
AcDbEntity
  8
None
370
               0
390
0
  6
Continuous
 62
               7
100
AcDbHatch
 10
0.0
 20
0.0
 30
0.0
210
0.0
220
0.0
230
1.0
  2
SOLID
 70
               1
 71
               1
 91
        1
 92
        1
 93
        1
 72
               2
 10
28.115611599999994
 20
-147.63494739999999
 40
0.2549943899382887
 50
0.0
 51
360.0
 73
               0
 97
        1
330
1D6
 75
               0
 76
               1
 98
        1
 10
0.0
 20
0.0
  0
CIRCLE
  5
1D8
102
{ACAD_REACTORS
330
1D9
102
}
100
AcDbEntity
  8
None
370
               9
390
0
  6
Continuous
 62
               7
100
AcDbCircle
 10
29.115611599999994
 20
-147.63494739999999
 30
0.0
 40
0.2549943899382887
  0
HATCH
  5
1D9
100
AcDbEntity
  8
None
370
               0
390
0
  6
Continuous
 62
               7
100
AcDbHatch
 10
0.0
 20
0.0
 30
0.0
210
0.0
220
0.0
230
1.0
  2
SOLID
 70
               1
 71
               1
 91
        1
 92
        1
 93
        1
 72
               2
 10
29.115611599999994
 20
-147.63494739999999
 40
0.2549943899382887
 50
0.0
 51
360.0
 73
               0
 97
        1
330
1D8
 75
               0
 76
               1
 98
        1
 10
0.0
 20
0.0
  0
CIRCLE
  5
1DA
102
{ACAD_REACTORS
330
1DB
102
}
100
AcDbEntity
  8
None
370
               9
390
0
  6
Continuous
 62
               7
100
AcDbCircle
 10
30.115611599999994
 20
-147.63494739999999
 30
0.0
 40
0.2549943899382891
  0
HATCH
  5
1DB
100
AcDbEntity
  8
None
370
               0
390
0
  6
Continuous
 62
               7
100
AcDbHatch
 10
0.0
 20
0.0
 30
0.0
210
0.0
220
0.0
230
1.0
  2
SOLID
 70
               1
 71
               1
 91
        1
 92
        1
 93
        1
 72
               2
 10
30.115611599999994
 20
-147.63494739999999
 40
0.2549943899382891
 50
0.0
 51
360.0
 73
               0
 97
        1
330
1DA
 75
               0
 76
               1
 98
        1
 10
0.0
 20
0.0
  0
CIRCLE
  5
1DC
102
{ACAD_REACTORS
330
1DD
102
}
100
AcDbEntity
  8
None
370
               9
390
0
  6
Continuous
 62
               7
100
AcDbCircle
 10
31.115611599999994
 20
-147.63494739999999
 30
0.0
 40
0.2549943899382891
  0
HATCH
  5
1DD
100
AcDbEntity
  8
None
370
               0
390
0
  6
Continuous
 62
               7
100
AcDbHatch
 10
0.0
 20
0.0
 30
0.0
210
0.0
220
0.0
230
1.0
  2
SOLID
 70
               1
 71
               1
 91
        1
 92
        1
 93
        1
 72
               2
 10
31.115611599999994
 20
-147.63494739999999
 40
0.2549943899382891
 50
0.0
 51
360.0
 73
               0
 97
        1
330
1DC
 75
               0
 76
               1
 98
        1
 10
0.0
 20
0.0
  0
CIRCLE
  5
1DE
102
{ACAD_REACTORS
330
1DF
102
}
100
AcDbEntity
  8
None
370
               9
390
0
  6
Continuous
 62
               7
100
AcDbCircle
 10
32.115611599999994
 20
-147.63494739999999
 30
0.0
 40
0.2549943899382891
  0
HATCH
  5
1DF
100
AcDbEntity
  8
None
370
               0
390
0
  6
Continuous
 62
               7
100
AcDbHatch
 10
0.0
 20
0.0
 30
0.0
210
0.0
220
0.0
230
1.0
  2
SOLID
 70
               1
 71
               1
 91
        1
 92
        1
 93
        1
 72
               2
 10
32.115611599999994
 20
-147.63494739999999
 40
0.2549943899382891
 50
0.0
 51
360.0
 73
               0
 97
        1
330
1DE
 75
               0
 76
               1
 98
        1
 10
0.0
 20
0.0
  0
CIRCLE
  5
1E0
102
{ACAD_REACTORS
330
1E1
102
}
100
AcDbEntity
  8
None
370
               9
390
0
  6
Continuous
 62
               7
100
AcDbCircle
 10
27.115611599999994
 20
-146.63494739999999
 30
0.0
 40
0.2549943899382884
  0
HATCH
  5
1E1
100
AcDbEntity
  8
None
370
               0
390
0
  6
Continuous
 62
               7
100
AcDbHatch
 10
0.0
 20
0.0
 30
0.0
210
0.0
220
0.0
230
1.0
  2
SOLID
 70
               1
 71
               1
 91
        1
 92
        1
 93
        1
 72
               2
 10
27.115611599999994
 20
-146.63494739999999
 40
0.2549943899382884
 50
0.0
 51
360.0
 73
               0
 97
        1
330
1E0
 75
               0
 76
               1
 98
        1
 10
0.0
 20
0.0
  0
CIRCLE
  5
1E2
102
{ACAD_REACTORS
330
1E3
102
}
100
AcDbEntity
  8
None
370
               9
390
0
  6
Continuous
 62
               7
100
AcDbCircle
 10
28.115611599999994
 20
-146.63494739999999
 30
0.0
 40
0.2549943899382883
  0
HATCH
  5
1E3
100
AcDbEntity
  8
None
370
               0
390
0
  6
Continuous
 62
               7
100
AcDbHatch
 10
0.0
 20
0.0
 30
0.0
210
0.0
220
0.0
230
1.0
  2
SOLID
 70
               1
 71
               1
 91
        1
 92
        1
 93
        1
 72
               2
 10
28.115611599999994
 20
-146.63494739999999
 40
0.2549943899382883
 50
0.0
 51
360.0
 73
               0
 97
        1
330
1E2
 75
               0
 76
               1
 98
        1
 10
0.0
 20
0.0
  0
CIRCLE
  5
1E4
102
{ACAD_REACTORS
330
1E5
102
}
100
AcDbEntity
  8
None
370
               9
390
0
  6
Continuous
 62
               7
100
AcDbCircle
 10
29.115611599999994
 20
-146.63494739999999
 30
0.0
 40
0.2549943899382883
  0
HATCH
  5
1E5
100
AcDbEntity
  8
None
370
               0
390
0
  6
Continuous
 62
               7
100
AcDbHatch
 10
0.0
 20
0.0
 30
0.0
210
0.0
220
0.0
230
1.0
  2
SOLID
 70
               1
 71
               1
 91
        1
 92
        1
 93
        1
 72
               2
 10
29.115611599999994
 20
-146.63494739999999
 40
0.2549943899382883
 50
0.0
 51
360.0
 73
               0
 97
        1
330
1E4
 75
               0
 76
               1
 98
        1
 10
0.0
 20
0.0
  0
CIRCLE
  5
1E6
102
{ACAD_REACTORS
330
1E7
102
}
100
AcDbEntity
  8
None
370
               9
390
0
  6
Continuous
 62
               7
100
AcDbCircle
 10
30.115611599999994
 20
-146.63494739999999
 30
0.0
 40
0.2549943899382887
  0
HATCH
  5
1E7
100
AcDbEntity
  8
None
370
               0
390
0
  6
Continuous
 62
               7
100
AcDbHatch
 10
0.0
 20
0.0
 30
0.0
210
0.0
220
0.0
230
1.0
  2
SOLID
 70
               1
 71
               1
 91
        1
 92
        1
 93
        1
 72
               2
 10
30.115611599999994
 20
-146.63494739999999
 40
0.2549943899382887
 50
0.0
 51
360.0
 73
               0
 97
        1
330
1E6
 75
               0
 76
               1
 98
        1
 10
0.0
 20
0.0
  0
CIRCLE
  5
1E8
102
{ACAD_REACTORS
330
1E9
102
}
100
AcDbEntity
  8
None
370
               9
390
0
  6
Continuous
 62
               7
100
AcDbCircle
 10
31.115611599999994
 20
-146.63494739999999
 30
0.0
 40
0.2549943899382887
  0
HATCH
  5
1E9
100
AcDbEntity
  8
None
370
               0
390
0
  6
Continuous
 62
               7
100
AcDbHatch
 10
0.0
 20
0.0
 30
0.0
210
0.0
220
0.0
230
1.0
  2
SOLID
 70
               1
 71
               1
 91
        1
 92
        1
 93
        1
 72
               2
 10
31.115611599999994
 20
-146.63494739999999
 40
0.2549943899382887
 50
0.0
 51
360.0
 73
               0
 97
        1
330
1E8
 75
               0
 76
               1
 98
        1
 10
0.0
 20
0.0
  0
CIRCLE
  5
1EA
102
{ACAD_REACTORS
330
1EB
102
}
100
AcDbEntity
  8
None
370
               9
390
0
  6
Continuous
 62
               7
100
AcDbCircle
 10
32.115611599999994
 20
-146.63494739999999
 30
0.0
 40
0.2549943899382887
  0
HATCH
  5
1EB
100
AcDbEntity
  8
None
370
               0
390
0
  6
Continuous
 62
               7
100
AcDbHatch
 10
0.0
 20
0.0
 30
0.0
210
0.0
220
0.0
230
1.0
  2
SOLID
 70
               1
 71
               1
 91
        1
 92
        1
 93
        1
 72
               2
 10
32.115611599999994
 20
-146.63494739999999
 40
0.2549943899382887
 50
0.0
 51
360.0
 73
               0
 97
        1
330
1EA
 75
               0
 76
               1
 98
        1
 10
0.0
 20
0.0
  0
CIRCLE
  5
1EC
102
{ACAD_REACTORS
330
1ED
102
}
100
AcDbEntity
  8
None
370
               9
390
0
  6
Continuous
 62
               7
100
AcDbCircle
 10
26.115611599999994
 20
-151.63494739999999
 30
0.0
 40
0.2549943899382886
  0
HATCH
  5
1ED
100
AcDbEntity
  8
None
370
               0
390
0
  6
Continuous
 62
               7
100
AcDbHatch
 10
0.0
 20
0.0
 30
0.0
210
0.0
220
0.0
230
1.0
  2
SOLID
 70
               1
 71
               1
 91
        1
 92
        1
 93
        1
 72
               2
 10
26.115611599999994
 20
-151.63494739999999
 40
0.2549943899382886
 50
0.0
 51
360.0
 73
               0
 97
        1
330
1EC
 75
               0
 76
               1
 98
        1
 10
0.0
 20
0.0
  0
CIRCLE
  5
1EE
102
{ACAD_REACTORS
330
1EF
102
}
100
AcDbEntity
  8
None
370
               9
390
0
  6
Continuous
 62
               7
100
AcDbCircle
 10
25.115611599999994
 20
-151.63494739999999
 30
0.0
 40
0.2549943899382887
  0
HATCH
  5
1EF
100
AcDbEntity
  8
None
370
               0
390
0
  6
Continuous
 62
               7
100
AcDbHatch
 10
0.0
 20
0.0
 30
0.0
210
0.0
220
0.0
230
1.0
  2
SOLID
 70
               1
 71
               1
 91
        1
 92
        1
 93
        1
 72
               2
 10
25.115611599999994
 20
-151.63494739999999
 40
0.2549943899382887
 50
0.0
 51
360.0
 73
               0
 97
        1
330
1EE
 75
               0
 76
               1
 98
        1
 10
0.0
 20
0.0
  0
CIRCLE
  5
1F0
102
{ACAD_REACTORS
330
1F1
102
}
100
AcDbEntity
  8
None
370
               9
390
0
  6
Continuous
 62
               7
100
AcDbCircle
 10
24.115611599999994
 20
-151.63494739999999
 30
0.0
 40
0.2549943899382885
  0
HATCH
  5
1F1
100
AcDbEntity
  8
None
370
               0
390
0
  6
Continuous
 62
               7
100
AcDbHatch
 10
0.0
 20
0.0
 30
0.0
210
0.0
220
0.0
230
1.0
  2
SOLID
 70
               1
 71
               1
 91
        1
 92
        1
 93
        1
 72
               2
 10
24.115611599999994
 20
-151.63494739999999
 40
0.2549943899382885
 50
0.0
 51
360.0
 73
               0
 97
        1
330
1F0
 75
               0
 76
               1
 98
        1
 10
0.0
 20
0.0
  0
CIRCLE
  5
1F2
102
{ACAD_REACTORS
330
1F3
102
}
100
AcDbEntity
  8
None
370
               9
390
0
  6
Continuous
 62
               7
100
AcDbCircle
 10
23.115611599999994
 20
-151.63494739999999
 30
0.0
 40
0.2549943899382885
  0
HATCH
  5
1F3
100
AcDbEntity
  8
None
370
               0
390
0
  6
Continuous
 62
               7
100
AcDbHatch
 10
0.0
 20
0.0
 30
0.0
210
0.0
220
0.0
230
1.0
  2
SOLID
 70
               1
 71
               1
 91
        1
 92
        1
 93
        1
 72
               2
 10
23.115611599999994
 20
-151.63494739999999
 40
0.2549943899382885
 50
0.0
 51
360.0
 73
               0
 97
        1
330
1F2
 75
               0
 76
               1
 98
        1
 10
0.0
 20
0.0
  0
CIRCLE
  5
1F4
102
{ACAD_REACTORS
330
1F5
102
}
100
AcDbEntity
  8
None
370
               9
390
0
  6
Continuous
 62
               7
100
AcDbCircle
 10
22.115611599999994
 20
-151.63494739999999
 30
0.0
 40
0.2549943899382881
  0
HATCH
  5
1F5
100
AcDbEntity
  8
None
370
               0
390
0
  6
Continuous
 62
               7
100
AcDbHatch
 10
0.0
 20
0.0
 30
0.0
210
0.0
220
0.0
230
1.0
  2
SOLID
 70
               1
 71
               1
 91
        1
 92
        1
 93
        1
 72
               2
 10
22.115611599999994
 20
-151.63494739999999
 40
0.2549943899382881
 50
0.0
 51
360.0
 73
               0
 97
        1
330
1F4
 75
               0
 76
               1
 98
        1
 10
0.0
 20
0.0
  0
CIRCLE
  5
1F6
102
{ACAD_REACTORS
330
1F7
102
}
100
AcDbEntity
  8
None
370
               9
390
0
  6
Continuous
 62
               7
100
AcDbCircle
 10
21.115611599999994
 20
-151.63494739999999
 30
0.0
 40
0.2549943899382881
  0
HATCH
  5
1F7
100
AcDbEntity
  8
None
370
               0
390
0
  6
Continuous
 62
               7
100
AcDbHatch
 10
0.0
 20
0.0
 30
0.0
210
0.0
220
0.0
230
1.0
  2
SOLID
 70
               1
 71
               1
 91
        1
 92
        1
 93
        1
 72
               2
 10
21.115611599999994
 20
-151.63494739999999
 40
0.2549943899382881
 50
0.0
 51
360.0
 73
               0
 97
        1
330
1F6
 75
               0
 76
               1
 98
        1
 10
0.0
 20
0.0
  0
CIRCLE
  5
1F8
102
{ACAD_REACTORS
330
1F9
102
}
100
AcDbEntity
  8
None
370
               9
390
0
  6
Continuous
 62
               7
100
AcDbCircle
 10
26.115611599999994
 20
-150.63494739999999
 30
0.0
 40
0.2549943899382884
  0
HATCH
  5
1F9
100
AcDbEntity
  8
None
370
               0
390
0
  6
Continuous
 62
               7
100
AcDbHatch
 10
0.0
 20
0.0
 30
0.0
210
0.0
220
0.0
230
1.0
  2
SOLID
 70
               1
 71
               1
 91
        1
 92
        1
 93
        1
 72
               2
 10
26.115611599999994
 20
-150.63494739999999
 40
0.2549943899382884
 50
0.0
 51
360.0
 73
               0
 97
        1
330
1F8
 75
               0
 76
               1
 98
        1
 10
0.0
 20
0.0
  0
CIRCLE
  5
1FA
102
{ACAD_REACTORS
330
1FB
102
}
100
AcDbEntity
  8
None
370
               9
390
0
  6
Continuous
 62
               7
100
AcDbCircle
 10
25.115611599999994
 20
-150.63494739999999
 30
0.0
 40
0.2549943899382884
  0
HATCH
  5
1FB
100
AcDbEntity
  8
None
370
               0
390
0
  6
Continuous
 62
               7
100
AcDbHatch
 10
0.0
 20
0.0
 30
0.0
210
0.0
220
0.0
230
1.0
  2
SOLID
 70
               1
 71
               1
 91
        1
 92
        1
 93
        1
 72
               2
 10
25.115611599999994
 20
-150.63494739999999
 40
0.2549943899382884
 50
0.0
 51
360.0
 73
               0
 97
        1
330
1FA
 75
               0
 76
               1
 98
        1
 10
0.0
 20
0.0
  0
CIRCLE
  5
1FC
102
{ACAD_REACTORS
330
1FD
102
}
100
AcDbEntity
  8
None
370
               9
390
0
  6
Continuous
 62
               7
100
AcDbCircle
 10
24.115611599999994
 20
-150.63494739999999
 30
0.0
 40
0.2549943899382883
  0
HATCH
  5
1FD
100
AcDbEntity
  8
None
370
               0
390
0
  6
Continuous
 62
               7
100
AcDbHatch
 10
0.0
 20
0.0
 30
0.0
210
0.0
220
0.0
230
1.0
  2
SOLID
 70
               1
 71
               1
 91
        1
 92
        1
 93
        1
 72
               2
 10
24.115611599999994
 20
-150.63494739999999
 40
0.2549943899382883
 50
0.0
 51
360.0
 73
               0
 97
        1
330
1FC
 75
               0
 76
               1
 98
        1
 10
0.0
 20
0.0
  0
CIRCLE
  5
1FE
102
{ACAD_REACTORS
330
1FF
102
}
100
AcDbEntity
  8
None
370
               9
390
0
  6
Continuous
 62
               7
100
AcDbCircle
 10
23.115611599999994
 20
-150.63494739999999
 30
0.0
 40
0.2549943899382883
  0
HATCH
  5
1FF
100
AcDbEntity
  8
None
370
               0
390
0
  6
Continuous
 62
               7
100
AcDbHatch
 10
0.0
 20
0.0
 30
0.0
210
0.0
220
0.0
230
1.0
  2
SOLID
 70
               1
 71
               1
 91
        1
 92
        1
 93
        1
 72
               2
 10
23.115611599999994
 20
-150.63494739999999
 40
0.2549943899382883
 50
0.0
 51
360.0
 73
               0
 97
        1
330
1FE
 75
               0
 76
               1
 98
        1
 10
0.0
 20
0.0
  0
CIRCLE
  5
200
102
{ACAD_REACTORS
330
201
102
}
100
AcDbEntity
  8
None
370
               9
390
0
  6
Continuous
 62
               7
100
AcDbCircle
 10
22.115611599999994
 20
-150.63494739999999
 30
0.0
 40
0.2549943899382879
  0
HATCH
  5
201
100
AcDbEntity
  8
None
370
               0
390
0
  6
Continuous
 62
               7
100
AcDbHatch
 10
0.0
 20
0.0
 30
0.0
210
0.0
220
0.0
230
1.0
  2
SOLID
 70
               1
 71
               1
 91
        1
 92
        1
 93
        1
 72
               2
 10
22.115611599999994
 20
-150.63494739999999
 40
0.2549943899382879
 50
0.0
 51
360.0
 73
               0
 97
        1
330
200
 75
               0
 76
               1
 98
        1
 10
0.0
 20
0.0
  0
CIRCLE
  5
202
102
{ACAD_REACTORS
330
203
102
}
100
AcDbEntity
  8
None
370
               9
390
0
  6
Continuous
 62
               7
100
AcDbCircle
 10
21.115611599999994
 20
-150.63494739999999
 30
0.0
 40
0.2549943899382879
  0
HATCH
  5
203
100
AcDbEntity
  8
None
370
               0
390
0
  6
Continuous
 62
               7
100
AcDbHatch
 10
0.0
 20
0.0
 30
0.0
210
0.0
220
0.0
230
1.0
  2
SOLID
 70
               1
 71
               1
 91
        1
 92
        1
 93
        1
 72
               2
 10
21.115611599999994
 20
-150.63494739999999
 40
0.2549943899382879
 50
0.0
 51
360.0
 73
               0
 97
        1
330
202
 75
               0
 76
               1
 98
        1
 10
0.0
 20
0.0
  0
CIRCLE
  5
204
102
{ACAD_REACTORS
330
205
102
}
100
AcDbEntity
  8
None
370
               9
390
0
  6
Continuous
 62
               7
100
AcDbCircle
 10
26.115611599999994
 20
-149.63494739999999
 30
0.0
 40
0.2549943899382884
  0
HATCH
  5
205
100
AcDbEntity
  8
None
370
               0
390
0
  6
Continuous
 62
               7
100
AcDbHatch
 10
0.0
 20
0.0
 30
0.0
210
0.0
220
0.0
230
1.0
  2
SOLID
 70
               1
 71
               1
 91
        1
 92
        1
 93
        1
 72
               2
 10
26.115611599999994
 20
-149.63494739999999
 40
0.2549943899382884
 50
0.0
 51
360.0
 73
               0
 97
        1
330
204
 75
               0
 76
               1
 98
        1
 10
0.0
 20
0.0
  0
CIRCLE
  5
206
102
{ACAD_REACTORS
330
207
102
}
100
AcDbEntity
  8
None
370
               9
390
0
  6
Continuous
 62
               7
100
AcDbCircle
 10
25.115611599999994
 20
-149.63494739999999
 30
0.0
 40
0.2549943899382884
  0
HATCH
  5
207
100
AcDbEntity
  8
None
370
               0
390
0
  6
Continuous
 62
               7
100
AcDbHatch
 10
0.0
 20
0.0
 30
0.0
210
0.0
220
0.0
230
1.0
  2
SOLID
 70
               1
 71
               1
 91
        1
 92
        1
 93
        1
 72
               2
 10
25.115611599999994
 20
-149.63494739999999
 40
0.2549943899382884
 50
0.0
 51
360.0
 73
               0
 97
        1
330
206
 75
               0
 76
               1
 98
        1
 10
0.0
 20
0.0
  0
CIRCLE
  5
208
102
{ACAD_REACTORS
330
209
102
}
100
AcDbEntity
  8
None
370
               9
390
0
  6
Continuous
 62
               7
100
AcDbCircle
 10
24.115611599999994
 20
-149.63494739999999
 30
0.0
 40
0.2549943899382883
  0
HATCH
  5
209
100
AcDbEntity
  8
None
370
               0
390
0
  6
Continuous
 62
               7
100
AcDbHatch
 10
0.0
 20
0.0
 30
0.0
210
0.0
220
0.0
230
1.0
  2
SOLID
 70
               1
 71
               1
 91
        1
 92
        1
 93
        1
 72
               2
 10
24.115611599999994
 20
-149.63494739999999
 40
0.2549943899382883
 50
0.0
 51
360.0
 73
               0
 97
        1
330
208
 75
               0
 76
               1
 98
        1
 10
0.0
 20
0.0
  0
CIRCLE
  5
20A
102
{ACAD_REACTORS
330
20B
102
}
100
AcDbEntity
  8
None
370
               9
390
0
  6
Continuous
 62
               7
100
AcDbCircle
 10
23.115611599999994
 20
-149.63494739999999
 30
0.0
 40
0.2549943899382883
  0
HATCH
  5
20B
100
AcDbEntity
  8
None
370
               0
390
0
  6
Continuous
 62
               7
100
AcDbHatch
 10
0.0
 20
0.0
 30
0.0
210
0.0
220
0.0
230
1.0
  2
SOLID
 70
               1
 71
               1
 91
        1
 92
        1
 93
        1
 72
               2
 10
23.115611599999994
 20
-149.63494739999999
 40
0.2549943899382883
 50
0.0
 51
360.0
 73
               0
 97
        1
330
20A
 75
               0
 76
               1
 98
        1
 10
0.0
 20
0.0
  0
CIRCLE
  5
20C
102
{ACAD_REACTORS
330
20D
102
}
100
AcDbEntity
  8
None
370
               9
390
0
  6
Continuous
 62
               7
100
AcDbCircle
 10
22.115611599999994
 20
-149.63494739999999
 30
0.0
 40
0.2549943899382879
  0
HATCH
  5
20D
100
AcDbEntity
  8
None
370
               0
390
0
  6
Continuous
 62
               7
100
AcDbHatch
 10
0.0
 20
0.0
 30
0.0
210
0.0
220
0.0
230
1.0
  2
SOLID
 70
               1
 71
               1
 91
        1
 92
        1
 93
        1
 72
               2
 10
22.115611599999994
 20
-149.63494739999999
 40
0.2549943899382879
 50
0.0
 51
360.0
 73
               0
 97
        1
330
20C
 75
               0
 76
               1
 98
        1
 10
0.0
 20
0.0
  0
CIRCLE
  5
20E
102
{ACAD_REACTORS
330
20F
102
}
100
AcDbEntity
  8
None
370
               9
390
0
  6
Continuous
 62
               7
100
AcDbCircle
 10
21.115611599999994
 20
-149.63494739999999
 30
0.0
 40
0.2549943899382879
  0
HATCH
  5
20F
100
AcDbEntity
  8
None
370
               0
390
0
  6
Continuous
 62
               7
100
AcDbHatch
 10
0.0
 20
0.0
 30
0.0
210
0.0
220
0.0
230
1.0
  2
SOLID
 70
               1
 71
               1
 91
        1
 92
        1
 93
        1
 72
               2
 10
21.115611599999994
 20
-149.63494739999999
 40
0.2549943899382879
 50
0.0
 51
360.0
 73
               0
 97
        1
330
20E
 75
               0
 76
               1
 98
        1
 10
0.0
 20
0.0
  0
CIRCLE
  5
210
102
{ACAD_REACTORS
330
211
102
}
100
AcDbEntity
  8
None
370
               9
390
0
  6
Continuous
 62
               7
100
AcDbCircle
 10
26.115611599999994
 20
-148.63494739999999
 30
0.0
 40
0.2549943899382884
  0
HATCH
  5
211
100
AcDbEntity
  8
None
370
               0
390
0
  6
Continuous
 62
               7
100
AcDbHatch
 10
0.0
 20
0.0
 30
0.0
210
0.0
220
0.0
230
1.0
  2
SOLID
 70
               1
 71
               1
 91
        1
 92
        1
 93
        1
 72
               2
 10
26.115611599999994
 20
-148.63494739999999
 40
0.2549943899382884
 50
0.0
 51
360.0
 73
               0
 97
        1
330
210
 75
               0
 76
               1
 98
        1
 10
0.0
 20
0.0
  0
CIRCLE
  5
212
102
{ACAD_REACTORS
330
213
102
}
100
AcDbEntity
  8
None
370
               9
390
0
  6
Continuous
 62
               7
100
AcDbCircle
 10
25.115611599999994
 20
-148.63494739999999
 30
0.0
 40
0.2549943899382884
  0
HATCH
  5
213
100
AcDbEntity
  8
None
370
               0
390
0
  6
Continuous
 62
               7
100
AcDbHatch
 10
0.0
 20
0.0
 30
0.0
210
0.0
220
0.0
230
1.0
  2
SOLID
 70
               1
 71
               1
 91
        1
 92
        1
 93
        1
 72
               2
 10
25.115611599999994
 20
-148.63494739999999
 40
0.2549943899382884
 50
0.0
 51
360.0
 73
               0
 97
        1
330
212
 75
               0
 76
               1
 98
        1
 10
0.0
 20
0.0
  0
CIRCLE
  5
214
102
{ACAD_REACTORS
330
215
102
}
100
AcDbEntity
  8
None
370
               9
390
0
  6
Continuous
 62
               7
100
AcDbCircle
 10
24.115611599999994
 20
-148.63494739999999
 30
0.0
 40
0.2549943899382883
  0
HATCH
  5
215
100
AcDbEntity
  8
None
370
               0
390
0
  6
Continuous
 62
               7
100
AcDbHatch
 10
0.0
 20
0.0
 30
0.0
210
0.0
220
0.0
230
1.0
  2
SOLID
 70
               1
 71
               1
 91
        1
 92
        1
 93
        1
 72
               2
 10
24.115611599999994
 20
-148.63494739999999
 40
0.2549943899382883
 50
0.0
 51
360.0
 73
               0
 97
        1
330
214
 75
               0
 76
               1
 98
        1
 10
0.0
 20
0.0
  0
CIRCLE
  5
216
102
{ACAD_REACTORS
330
217
102
}
100
AcDbEntity
  8
None
370
               9
390
0
  6
Continuous
 62
               7
100
AcDbCircle
 10
23.115611599999994
 20
-148.63494739999999
 30
0.0
 40
0.2549943899382883
  0
HATCH
  5
217
100
AcDbEntity
  8
None
370
               0
390
0
  6
Continuous
 62
               7
100
AcDbHatch
 10
0.0
 20
0.0
 30
0.0
210
0.0
220
0.0
230
1.0
  2
SOLID
 70
               1
 71
               1
 91
        1
 92
        1
 93
        1
 72
               2
 10
23.115611599999994
 20
-148.63494739999999
 40
0.2549943899382883
 50
0.0
 51
360.0
 73
               0
 97
        1
330
216
 75
               0
 76
               1
 98
        1
 10
0.0
 20
0.0
  0
CIRCLE
  5
218
102
{ACAD_REACTORS
330
219
102
}
100
AcDbEntity
  8
None
370
               9
390
0
  6
Continuous
 62
               7
100
AcDbCircle
 10
22.115611599999994
 20
-148.63494739999999
 30
0.0
 40
0.2549943899382879
  0
HATCH
  5
219
100
AcDbEntity
  8
None
370
               0
390
0
  6
Continuous
 62
               7
100
AcDbHatch
 10
0.0
 20
0.0
 30
0.0
210
0.0
220
0.0
230
1.0
  2
SOLID
 70
               1
 71
               1
 91
        1
 92
        1
 93
        1
 72
               2
 10
22.115611599999994
 20
-148.63494739999999
 40
0.2549943899382879
 50
0.0
 51
360.0
 73
               0
 97
        1
330
218
 75
               0
 76
               1
 98
        1
 10
0.0
 20
0.0
  0
CIRCLE
  5
21A
102
{ACAD_REACTORS
330
21B
102
}
100
AcDbEntity
  8
None
370
               9
390
0
  6
Continuous
 62
               7
100
AcDbCircle
 10
21.115611599999994
 20
-148.63494739999999
 30
0.0
 40
0.2549943899382879
  0
HATCH
  5
21B
100
AcDbEntity
  8
None
370
               0
390
0
  6
Continuous
 62
               7
100
AcDbHatch
 10
0.0
 20
0.0
 30
0.0
210
0.0
220
0.0
230
1.0
  2
SOLID
 70
               1
 71
               1
 91
        1
 92
        1
 93
        1
 72
               2
 10
21.115611599999994
 20
-148.63494739999999
 40
0.2549943899382879
 50
0.0
 51
360.0
 73
               0
 97
        1
330
21A
 75
               0
 76
               1
 98
        1
 10
0.0
 20
0.0
  0
CIRCLE
  5
21C
102
{ACAD_REACTORS
330
21D
102
}
100
AcDbEntity
  8
None
370
               9
390
0
  6
Continuous
 62
               7
100
AcDbCircle
 10
26.115611599999994
 20
-147.63494739999999
 30
0.0
 40
0.2549943899382888
  0
HATCH
  5
21D
100
AcDbEntity
  8
None
370
               0
390
0
  6
Continuous
 62
               7
100
AcDbHatch
 10
0.0
 20
0.0
 30
0.0
210
0.0
220
0.0
230
1.0
  2
SOLID
 70
               1
 71
               1
 91
        1
 92
        1
 93
        1
 72
               2
 10
26.115611599999994
 20
-147.63494739999999
 40
0.2549943899382888
 50
0.0
 51
360.0
 73
               0
 97
        1
330
21C
 75
               0
 76
               1
 98
        1
 10
0.0
 20
0.0
  0
CIRCLE
  5
21E
102
{ACAD_REACTORS
330
21F
102
}
100
AcDbEntity
  8
None
370
               9
390
0
  6
Continuous
 62
               7
100
AcDbCircle
 10
25.115611599999994
 20
-147.63494739999999
 30
0.0
 40
0.2549943899382889
  0
HATCH
  5
21F
100
AcDbEntity
  8
None
370
               0
390
0
  6
Continuous
 62
               7
100
AcDbHatch
 10
0.0
 20
0.0
 30
0.0
210
0.0
220
0.0
230
1.0
  2
SOLID
 70
               1
 71
               1
 91
        1
 92
        1
 93
        1
 72
               2
 10
25.115611599999994
 20
-147.63494739999999
 40
0.2549943899382889
 50
0.0
 51
360.0
 73
               0
 97
        1
330
21E
 75
               0
 76
               1
 98
        1
 10
0.0
 20
0.0
  0
CIRCLE
  5
220
102
{ACAD_REACTORS
330
221
102
}
100
AcDbEntity
  8
None
370
               9
390
0
  6
Continuous
 62
               7
100
AcDbCircle
 10
24.115611599999994
 20
-147.63494739999999
 30
0.0
 40
0.2549943899382887
  0
HATCH
  5
221
100
AcDbEntity
  8
None
370
               0
390
0
  6
Continuous
 62
               7
100
AcDbHatch
 10
0.0
 20
0.0
 30
0.0
210
0.0
220
0.0
230
1.0
  2
SOLID
 70
               1
 71
               1
 91
        1
 92
        1
 93
        1
 72
               2
 10
24.115611599999994
 20
-147.63494739999999
 40
0.2549943899382887
 50
0.0
 51
360.0
 73
               0
 97
        1
330
220
 75
               0
 76
               1
 98
        1
 10
0.0
 20
0.0
  0
CIRCLE
  5
222
102
{ACAD_REACTORS
330
223
102
}
100
AcDbEntity
  8
None
370
               9
390
0
  6
Continuous
 62
               7
100
AcDbCircle
 10
23.115611599999994
 20
-147.63494739999999
 30
0.0
 40
0.2549943899382887
  0
HATCH
  5
223
100
AcDbEntity
  8
None
370
               0
390
0
  6
Continuous
 62
               7
100
AcDbHatch
 10
0.0
 20
0.0
 30
0.0
210
0.0
220
0.0
230
1.0
  2
SOLID
 70
               1
 71
               1
 91
        1
 92
        1
 93
        1
 72
               2
 10
23.115611599999994
 20
-147.63494739999999
 40
0.2549943899382887
 50
0.0
 51
360.0
 73
               0
 97
        1
330
222
 75
               0
 76
               1
 98
        1
 10
0.0
 20
0.0
  0
CIRCLE
  5
224
102
{ACAD_REACTORS
330
225
102
}
100
AcDbEntity
  8
None
370
               9
390
0
  6
Continuous
 62
               7
100
AcDbCircle
 10
22.115611599999994
 20
-147.63494739999999
 30
0.0
 40
0.2549943899382883
  0
HATCH
  5
225
100
AcDbEntity
  8
None
370
               0
390
0
  6
Continuous
 62
               7
100
AcDbHatch
 10
0.0
 20
0.0
 30
0.0
210
0.0
220
0.0
230
1.0
  2
SOLID
 70
               1
 71
               1
 91
        1
 92
        1
 93
        1
 72
               2
 10
22.115611599999994
 20
-147.63494739999999
 40
0.2549943899382883
 50
0.0
 51
360.0
 73
               0
 97
        1
330
224
 75
               0
 76
               1
 98
        1
 10
0.0
 20
0.0
  0
CIRCLE
  5
226
102
{ACAD_REACTORS
330
227
102
}
100
AcDbEntity
  8
None
370
               9
390
0
  6
Continuous
 62
               7
100
AcDbCircle
 10
21.115611599999994
 20
-147.63494739999999
 30
0.0
 40
0.2549943899382883
  0
HATCH
  5
227
100
AcDbEntity
  8
None
370
               0
390
0
  6
Continuous
 62
               7
100
AcDbHatch
 10
0.0
 20
0.0
 30
0.0
210
0.0
220
0.0
230
1.0
  2
SOLID
 70
               1
 71
               1
 91
        1
 92
        1
 93
        1
 72
               2
 10
21.115611599999994
 20
-147.63494739999999
 40
0.2549943899382883
 50
0.0
 51
360.0
 73
               0
 97
        1
330
226
 75
               0
 76
               1
 98
        1
 10
0.0
 20
0.0
  0
CIRCLE
  5
228
102
{ACAD_REACTORS
330
229
102
}
100
AcDbEntity
  8
None
370
               9
390
0
  6
Continuous
 62
               7
100
AcDbCircle
 10
26.115611599999994
 20
-146.63494739999999
 30
0.0
 40
0.2549943899382884
  0
HATCH
  5
229
100
AcDbEntity
  8
None
370
               0
390
0
  6
Continuous
 62
               7
100
AcDbHatch
 10
0.0
 20
0.0
 30
0.0
210
0.0
220
0.0
230
1.0
  2
SOLID
 70
               1
 71
               1
 91
        1
 92
        1
 93
        1
 72
               2
 10
26.115611599999994
 20
-146.63494739999999
 40
0.2549943899382884
 50
0.0
 51
360.0
 73
               0
 97
        1
330
228
 75
               0
 76
               1
 98
        1
 10
0.0
 20
0.0
  0
CIRCLE
  5
22A
102
{ACAD_REACTORS
330
22B
102
}
100
AcDbEntity
  8
None
370
               9
390
0
  6
Continuous
 62
               7
100
AcDbCircle
 10
25.115611599999994
 20
-146.63494739999999
 30
0.0
 40
0.2549943899382884
  0
HATCH
  5
22B
100
AcDbEntity
  8
None
370
               0
390
0
  6
Continuous
 62
               7
100
AcDbHatch
 10
0.0
 20
0.0
 30
0.0
210
0.0
220
0.0
230
1.0
  2
SOLID
 70
               1
 71
               1
 91
        1
 92
        1
 93
        1
 72
               2
 10
25.115611599999994
 20
-146.63494739999999
 40
0.2549943899382884
 50
0.0
 51
360.0
 73
               0
 97
        1
330
22A
 75
               0
 76
               1
 98
        1
 10
0.0
 20
0.0
  0
CIRCLE
  5
22C
102
{ACAD_REACTORS
330
22D
102
}
100
AcDbEntity
  8
None
370
               9
390
0
  6
Continuous
 62
               7
100
AcDbCircle
 10
24.115611599999994
 20
-146.63494739999999
 30
0.0
 40
0.2549943899382883
  0
HATCH
  5
22D
100
AcDbEntity
  8
None
370
               0
390
0
  6
Continuous
 62
               7
100
AcDbHatch
 10
0.0
 20
0.0
 30
0.0
210
0.0
220
0.0
230
1.0
  2
SOLID
 70
               1
 71
               1
 91
        1
 92
        1
 93
        1
 72
               2
 10
24.115611599999994
 20
-146.63494739999999
 40
0.2549943899382883
 50
0.0
 51
360.0
 73
               0
 97
        1
330
22C
 75
               0
 76
               1
 98
        1
 10
0.0
 20
0.0
  0
CIRCLE
  5
22E
102
{ACAD_REACTORS
330
22F
102
}
100
AcDbEntity
  8
None
370
               9
390
0
  6
Continuous
 62
               7
100
AcDbCircle
 10
23.115611599999994
 20
-146.63494739999999
 30
0.0
 40
0.2549943899382883
  0
HATCH
  5
22F
100
AcDbEntity
  8
None
370
               0
390
0
  6
Continuous
 62
               7
100
AcDbHatch
 10
0.0
 20
0.0
 30
0.0
210
0.0
220
0.0
230
1.0
  2
SOLID
 70
               1
 71
               1
 91
        1
 92
        1
 93
        1
 72
               2
 10
23.115611599999994
 20
-146.63494739999999
 40
0.2549943899382883
 50
0.0
 51
360.0
 73
               0
 97
        1
330
22E
 75
               0
 76
               1
 98
        1
 10
0.0
 20
0.0
  0
CIRCLE
  5
230
102
{ACAD_REACTORS
330
231
102
}
100
AcDbEntity
  8
None
370
               9
390
0
  6
Continuous
 62
               7
100
AcDbCircle
 10
22.115611599999994
 20
-146.63494739999999
 30
0.0
 40
0.2549943899382879
  0
HATCH
  5
231
100
AcDbEntity
  8
None
370
               0
390
0
  6
Continuous
 62
               7
100
AcDbHatch
 10
0.0
 20
0.0
 30
0.0
210
0.0
220
0.0
230
1.0
  2
SOLID
 70
               1
 71
               1
 91
        1
 92
        1
 93
        1
 72
               2
 10
22.115611599999994
 20
-146.63494739999999
 40
0.2549943899382879
 50
0.0
 51
360.0
 73
               0
 97
        1
330
230
 75
               0
 76
               1
 98
        1
 10
0.0
 20
0.0
  0
CIRCLE
  5
232
102
{ACAD_REACTORS
330
233
102
}
100
AcDbEntity
  8
None
370
               9
390
0
  6
Continuous
 62
               7
100
AcDbCircle
 10
21.115611599999994
 20
-146.63494739999999
 30
0.0
 40
0.2549943899382879
  0
HATCH
  5
233
100
AcDbEntity
  8
None
370
               0
390
0
  6
Continuous
 62
               7
100
AcDbHatch
 10
0.0
 20
0.0
 30
0.0
210
0.0
220
0.0
230
1.0
  2
SOLID
 70
               1
 71
               1
 91
        1
 92
        1
 93
        1
 72
               2
 10
21.115611599999994
 20
-146.63494739999999
 40
0.2549943899382879
 50
0.0
 51
360.0
 73
               0
 97
        1
330
232
 75
               0
 76
               1
 98
        1
 10
0.0
 20
0.0
  0
CIRCLE
  5
234
102
{ACAD_REACTORS
330
235
102
}
100
AcDbEntity
  8
None
370
               9
390
0
  6
Continuous
 62
               7
100
AcDbCircle
 10
26.115611599999994
 20
-152.63494739999999
 30
0.0
 40
0.2549943899382886
  0
HATCH
  5
235
100
AcDbEntity
  8
None
370
               0
390
0
  6
Continuous
 62
               7
100
AcDbHatch
 10
0.0
 20
0.0
 30
0.0
210
0.0
220
0.0
230
1.0
  2
SOLID
 70
               1
 71
               1
 91
        1
 92
        1
 93
        1
 72
               2
 10
26.115611599999994
 20
-152.63494739999999
 40
0.2549943899382886
 50
0.0
 51
360.0
 73
               0
 97
        1
330
234
 75
               0
 76
               1
 98
        1
 10
0.0
 20
0.0
  0
CIRCLE
  5
236
102
{ACAD_REACTORS
330
237
102
}
100
AcDbEntity
  8
None
370
               9
390
0
  6
Continuous
 62
               7
100
AcDbCircle
 10
25.115611599999994
 20
-152.63494739999999
 30
0.0
 40
0.2549943899382887
  0
HATCH
  5
237
100
AcDbEntity
  8
None
370
               0
390
0
  6
Continuous
 62
               7
100
AcDbHatch
 10
0.0
 20
0.0
 30
0.0
210
0.0
220
0.0
230
1.0
  2
SOLID
 70
               1
 71
               1
 91
        1
 92
        1
 93
        1
 72
               2
 10
25.115611599999994
 20
-152.63494739999999
 40
0.2549943899382887
 50
0.0
 51
360.0
 73
               0
 97
        1
330
236
 75
               0
 76
               1
 98
        1
 10
0.0
 20
0.0
  0
CIRCLE
  5
238
102
{ACAD_REACTORS
330
239
102
}
100
AcDbEntity
  8
None
370
               9
390
0
  6
Continuous
 62
               7
100
AcDbCircle
 10
24.115611599999994
 20
-152.63494739999999
 30
0.0
 40
0.2549943899382885
  0
HATCH
  5
239
100
AcDbEntity
  8
None
370
               0
390
0
  6
Continuous
 62
               7
100
AcDbHatch
 10
0.0
 20
0.0
 30
0.0
210
0.0
220
0.0
230
1.0
  2
SOLID
 70
               1
 71
               1
 91
        1
 92
        1
 93
        1
 72
               2
 10
24.115611599999994
 20
-152.63494739999999
 40
0.2549943899382885
 50
0.0
 51
360.0
 73
               0
 97
        1
330
238
 75
               0
 76
               1
 98
        1
 10
0.0
 20
0.0
  0
CIRCLE
  5
23A
102
{ACAD_REACTORS
330
23B
102
}
100
AcDbEntity
  8
None
370
               9
390
0
  6
Continuous
 62
               7
100
AcDbCircle
 10
23.115611599999994
 20
-152.63494739999999
 30
0.0
 40
0.2549943899382885
  0
HATCH
  5
23B
100
AcDbEntity
  8
None
370
               0
390
0
  6
Continuous
 62
               7
100
AcDbHatch
 10
0.0
 20
0.0
 30
0.0
210
0.0
220
0.0
230
1.0
  2
SOLID
 70
               1
 71
               1
 91
        1
 92
        1
 93
        1
 72
               2
 10
23.115611599999994
 20
-152.63494739999999
 40
0.2549943899382885
 50
0.0
 51
360.0
 73
               0
 97
        1
330
23A
 75
               0
 76
               1
 98
        1
 10
0.0
 20
0.0
  0
CIRCLE
  5
23C
102
{ACAD_REACTORS
330
23D
102
}
100
AcDbEntity
  8
None
370
               9
390
0
  6
Continuous
 62
               7
100
AcDbCircle
 10
22.115611599999994
 20
-152.63494739999999
 30
0.0
 40
0.2549943899382881
  0
HATCH
  5
23D
100
AcDbEntity
  8
None
370
               0
390
0
  6
Continuous
 62
               7
100
AcDbHatch
 10
0.0
 20
0.0
 30
0.0
210
0.0
220
0.0
230
1.0
  2
SOLID
 70
               1
 71
               1
 91
        1
 92
        1
 93
        1
 72
               2
 10
22.115611599999994
 20
-152.63494739999999
 40
0.2549943899382881
 50
0.0
 51
360.0
 73
               0
 97
        1
330
23C
 75
               0
 76
               1
 98
        1
 10
0.0
 20
0.0
  0
CIRCLE
  5
23E
102
{ACAD_REACTORS
330
23F
102
}
100
AcDbEntity
  8
None
370
               9
390
0
  6
Continuous
 62
               7
100
AcDbCircle
 10
21.115611599999994
 20
-152.63494739999999
 30
0.0
 40
0.2549943899382881
  0
HATCH
  5
23F
100
AcDbEntity
  8
None
370
               0
390
0
  6
Continuous
 62
               7
100
AcDbHatch
 10
0.0
 20
0.0
 30
0.0
210
0.0
220
0.0
230
1.0
  2
SOLID
 70
               1
 71
               1
 91
        1
 92
        1
 93
        1
 72
               2
 10
21.115611599999994
 20
-152.63494739999999
 40
0.2549943899382881
 50
0.0
 51
360.0
 73
               0
 97
        1
330
23E
 75
               0
 76
               1
 98
        1
 10
0.0
 20
0.0
  0
CIRCLE
  5
240
102
{ACAD_REACTORS
330
241
102
}
100
AcDbEntity
  8
None
370
               9
390
0
  6
Continuous
 62
               7
100
AcDbCircle
 10
26.115611599999994
 20
-153.63494739999999
 30
0.0
 40
0.2549943899382886
  0
HATCH
  5
241
100
AcDbEntity
  8
None
370
               0
390
0
  6
Continuous
 62
               7
100
AcDbHatch
 10
0.0
 20
0.0
 30
0.0
210
0.0
220
0.0
230
1.0
  2
SOLID
 70
               1
 71
               1
 91
        1
 92
        1
 93
        1
 72
               2
 10
26.115611599999994
 20
-153.63494739999999
 40
0.2549943899382886
 50
0.0
 51
360.0
 73
               0
 97
        1
330
240
 75
               0
 76
               1
 98
        1
 10
0.0
 20
0.0
  0
CIRCLE
  5
242
102
{ACAD_REACTORS
330
243
102
}
100
AcDbEntity
  8
None
370
               9
390
0
  6
Continuous
 62
               7
100
AcDbCircle
 10
25.115611599999994
 20
-153.63494739999999
 30
0.0
 40
0.2549943899382887
  0
HATCH
  5
243
100
AcDbEntity
  8
None
370
               0
390
0
  6
Continuous
 62
               7
100
AcDbHatch
 10
0.0
 20
0.0
 30
0.0
210
0.0
220
0.0
230
1.0
  2
SOLID
 70
               1
 71
               1
 91
        1
 92
        1
 93
        1
 72
               2
 10
25.115611599999994
 20
-153.63494739999999
 40
0.2549943899382887
 50
0.0
 51
360.0
 73
               0
 97
        1
330
242
 75
               0
 76
               1
 98
        1
 10
0.0
 20
0.0
  0
CIRCLE
  5
244
102
{ACAD_REACTORS
330
245
102
}
100
AcDbEntity
  8
None
370
               9
390
0
  6
Continuous
 62
               7
100
AcDbCircle
 10
24.115611599999994
 20
-153.63494739999999
 30
0.0
 40
0.2549943899382885
  0
HATCH
  5
245
100
AcDbEntity
  8
None
370
               0
390
0
  6
Continuous
 62
               7
100
AcDbHatch
 10
0.0
 20
0.0
 30
0.0
210
0.0
220
0.0
230
1.0
  2
SOLID
 70
               1
 71
               1
 91
        1
 92
        1
 93
        1
 72
               2
 10
24.115611599999994
 20
-153.63494739999999
 40
0.2549943899382885
 50
0.0
 51
360.0
 73
               0
 97
        1
330
244
 75
               0
 76
               1
 98
        1
 10
0.0
 20
0.0
  0
CIRCLE
  5
246
102
{ACAD_REACTORS
330
247
102
}
100
AcDbEntity
  8
None
370
               9
390
0
  6
Continuous
 62
               7
100
AcDbCircle
 10
23.115611599999994
 20
-153.63494739999999
 30
0.0
 40
0.2549943899382885
  0
HATCH
  5
247
100
AcDbEntity
  8
None
370
               0
390
0
  6
Continuous
 62
               7
100
AcDbHatch
 10
0.0
 20
0.0
 30
0.0
210
0.0
220
0.0
230
1.0
  2
SOLID
 70
               1
 71
               1
 91
        1
 92
        1
 93
        1
 72
               2
 10
23.115611599999994
 20
-153.63494739999999
 40
0.2549943899382885
 50
0.0
 51
360.0
 73
               0
 97
        1
330
246
 75
               0
 76
               1
 98
        1
 10
0.0
 20
0.0
  0
CIRCLE
  5
248
102
{ACAD_REACTORS
330
249
102
}
100
AcDbEntity
  8
None
370
               9
390
0
  6
Continuous
 62
               7
100
AcDbCircle
 10
22.115611599999994
 20
-153.63494739999999
 30
0.0
 40
0.2549943899382881
  0
HATCH
  5
249
100
AcDbEntity
  8
None
370
               0
390
0
  6
Continuous
 62
               7
100
AcDbHatch
 10
0.0
 20
0.0
 30
0.0
210
0.0
220
0.0
230
1.0
  2
SOLID
 70
               1
 71
               1
 91
        1
 92
        1
 93
        1
 72
               2
 10
22.115611599999994
 20
-153.63494739999999
 40
0.2549943899382881
 50
0.0
 51
360.0
 73
               0
 97
        1
330
248
 75
               0
 76
               1
 98
        1
 10
0.0
 20
0.0
  0
CIRCLE
  5
24A
102
{ACAD_REACTORS
330
24B
102
}
100
AcDbEntity
  8
None
370
               9
390
0
  6
Continuous
 62
               7
100
AcDbCircle
 10
21.115611599999994
 20
-153.63494739999999
 30
0.0
 40
0.2549943899382881
  0
HATCH
  5
24B
100
AcDbEntity
  8
None
370
               0
390
0
  6
Continuous
 62
               7
100
AcDbHatch
 10
0.0
 20
0.0
 30
0.0
210
0.0
220
0.0
230
1.0
  2
SOLID
 70
               1
 71
               1
 91
        1
 92
        1
 93
        1
 72
               2
 10
21.115611599999994
 20
-153.63494739999999
 40
0.2549943899382881
 50
0.0
 51
360.0
 73
               0
 97
        1
330
24A
 75
               0
 76
               1
 98
        1
 10
0.0
 20
0.0
  0
CIRCLE
  5
24C
102
{ACAD_REACTORS
330
24D
102
}
100
AcDbEntity
  8
None
370
               9
390
0
  6
Continuous
 62
               7
100
AcDbCircle
 10
26.115611599999994
 20
-154.63494739999999
 30
0.0
 40
0.2549943899382886
  0
HATCH
  5
24D
100
AcDbEntity
  8
None
370
               0
390
0
  6
Continuous
 62
               7
100
AcDbHatch
 10
0.0
 20
0.0
 30
0.0
210
0.0
220
0.0
230
1.0
  2
SOLID
 70
               1
 71
               1
 91
        1
 92
        1
 93
        1
 72
               2
 10
26.115611599999994
 20
-154.63494739999999
 40
0.2549943899382886
 50
0.0
 51
360.0
 73
               0
 97
        1
330
24C
 75
               0
 76
               1
 98
        1
 10
0.0
 20
0.0
  0
CIRCLE
  5
24E
102
{ACAD_REACTORS
330
24F
102
}
100
AcDbEntity
  8
None
370
               9
390
0
  6
Continuous
 62
               7
100
AcDbCircle
 10
25.115611599999994
 20
-154.63494739999999
 30
0.0
 40
0.2549943899382887
  0
HATCH
  5
24F
100
AcDbEntity
  8
None
370
               0
390
0
  6
Continuous
 62
               7
100
AcDbHatch
 10
0.0
 20
0.0
 30
0.0
210
0.0
220
0.0
230
1.0
  2
SOLID
 70
               1
 71
               1
 91
        1
 92
        1
 93
        1
 72
               2
 10
25.115611599999994
 20
-154.63494739999999
 40
0.2549943899382887
 50
0.0
 51
360.0
 73
               0
 97
        1
330
24E
 75
               0
 76
               1
 98
        1
 10
0.0
 20
0.0
  0
CIRCLE
  5
250
102
{ACAD_REACTORS
330
251
102
}
100
AcDbEntity
  8
None
370
               9
390
0
  6
Continuous
 62
               7
100
AcDbCircle
 10
24.115611599999994
 20
-154.63494739999999
 30
0.0
 40
0.2549943899382885
  0
HATCH
  5
251
100
AcDbEntity
  8
None
370
               0
390
0
  6
Continuous
 62
               7
100
AcDbHatch
 10
0.0
 20
0.0
 30
0.0
210
0.0
220
0.0
230
1.0
  2
SOLID
 70
               1
 71
               1
 91
        1
 92
        1
 93
        1
 72
               2
 10
24.115611599999994
 20
-154.63494739999999
 40
0.2549943899382885
 50
0.0
 51
360.0
 73
               0
 97
        1
330
250
 75
               0
 76
               1
 98
        1
 10
0.0
 20
0.0
  0
CIRCLE
  5
252
102
{ACAD_REACTORS
330
253
102
}
100
AcDbEntity
  8
None
370
               9
390
0
  6
Continuous
 62
               7
100
AcDbCircle
 10
23.115611599999994
 20
-154.63494739999999
 30
0.0
 40
0.2549943899382885
  0
HATCH
  5
253
100
AcDbEntity
  8
None
370
               0
390
0
  6
Continuous
 62
               7
100
AcDbHatch
 10
0.0
 20
0.0
 30
0.0
210
0.0
220
0.0
230
1.0
  2
SOLID
 70
               1
 71
               1
 91
        1
 92
        1
 93
        1
 72
               2
 10
23.115611599999994
 20
-154.63494739999999
 40
0.2549943899382885
 50
0.0
 51
360.0
 73
               0
 97
        1
330
252
 75
               0
 76
               1
 98
        1
 10
0.0
 20
0.0
  0
CIRCLE
  5
254
102
{ACAD_REACTORS
330
255
102
}
100
AcDbEntity
  8
None
370
               9
390
0
  6
Continuous
 62
               7
100
AcDbCircle
 10
22.115611599999994
 20
-154.63494739999999
 30
0.0
 40
0.2549943899382881
  0
HATCH
  5
255
100
AcDbEntity
  8
None
370
               0
390
0
  6
Continuous
 62
               7
100
AcDbHatch
 10
0.0
 20
0.0
 30
0.0
210
0.0
220
0.0
230
1.0
  2
SOLID
 70
               1
 71
               1
 91
        1
 92
        1
 93
        1
 72
               2
 10
22.115611599999994
 20
-154.63494739999999
 40
0.2549943899382881
 50
0.0
 51
360.0
 73
               0
 97
        1
330
254
 75
               0
 76
               1
 98
        1
 10
0.0
 20
0.0
  0
CIRCLE
  5
256
102
{ACAD_REACTORS
330
257
102
}
100
AcDbEntity
  8
None
370
               9
390
0
  6
Continuous
 62
               7
100
AcDbCircle
 10
21.115611599999994
 20
-154.63494739999999
 30
0.0
 40
0.2549943899382881
  0
HATCH
  5
257
100
AcDbEntity
  8
None
370
               0
390
0
  6
Continuous
 62
               7
100
AcDbHatch
 10
0.0
 20
0.0
 30
0.0
210
0.0
220
0.0
230
1.0
  2
SOLID
 70
               1
 71
               1
 91
        1
 92
        1
 93
        1
 72
               2
 10
21.115611599999994
 20
-154.63494739999999
 40
0.2549943899382881
 50
0.0
 51
360.0
 73
               0
 97
        1
330
256
 75
               0
 76
               1
 98
        1
 10
0.0
 20
0.0
  0
CIRCLE
  5
258
102
{ACAD_REACTORS
330
259
102
}
100
AcDbEntity
  8
None
370
               9
390
0
  6
Continuous
 62
               7
100
AcDbCircle
 10
26.115611599999994
 20
-155.63494739999999
 30
0.0
 40
0.2549943899382886
  0
HATCH
  5
259
100
AcDbEntity
  8
None
370
               0
390
0
  6
Continuous
 62
               7
100
AcDbHatch
 10
0.0
 20
0.0
 30
0.0
210
0.0
220
0.0
230
1.0
  2
SOLID
 70
               1
 71
               1
 91
        1
 92
        1
 93
        1
 72
               2
 10
26.115611599999994
 20
-155.63494739999999
 40
0.2549943899382886
 50
0.0
 51
360.0
 73
               0
 97
        1
330
258
 75
               0
 76
               1
 98
        1
 10
0.0
 20
0.0
  0
CIRCLE
  5
25A
102
{ACAD_REACTORS
330
25B
102
}
100
AcDbEntity
  8
None
370
               9
390
0
  6
Continuous
 62
               7
100
AcDbCircle
 10
25.115611599999994
 20
-155.63494739999999
 30
0.0
 40
0.2549943899382887
  0
HATCH
  5
25B
100
AcDbEntity
  8
None
370
               0
390
0
  6
Continuous
 62
               7
100
AcDbHatch
 10
0.0
 20
0.0
 30
0.0
210
0.0
220
0.0
230
1.0
  2
SOLID
 70
               1
 71
               1
 91
        1
 92
        1
 93
        1
 72
               2
 10
25.115611599999994
 20
-155.63494739999999
 40
0.2549943899382887
 50
0.0
 51
360.0
 73
               0
 97
        1
330
25A
 75
               0
 76
               1
 98
        1
 10
0.0
 20
0.0
  0
CIRCLE
  5
25C
102
{ACAD_REACTORS
330
25D
102
}
100
AcDbEntity
  8
None
370
               9
390
0
  6
Continuous
 62
               7
100
AcDbCircle
 10
24.115611599999994
 20
-155.63494739999999
 30
0.0
 40
0.2549943899382885
  0
HATCH
  5
25D
100
AcDbEntity
  8
None
370
               0
390
0
  6
Continuous
 62
               7
100
AcDbHatch
 10
0.0
 20
0.0
 30
0.0
210
0.0
220
0.0
230
1.0
  2
SOLID
 70
               1
 71
               1
 91
        1
 92
        1
 93
        1
 72
               2
 10
24.115611599999994
 20
-155.63494739999999
 40
0.2549943899382885
 50
0.0
 51
360.0
 73
               0
 97
        1
330
25C
 75
               0
 76
               1
 98
        1
 10
0.0
 20
0.0
  0
CIRCLE
  5
25E
102
{ACAD_REACTORS
330
25F
102
}
100
AcDbEntity
  8
None
370
               9
390
0
  6
Continuous
 62
               7
100
AcDbCircle
 10
23.115611599999994
 20
-155.63494739999999
 30
0.0
 40
0.2549943899382885
  0
HATCH
  5
25F
100
AcDbEntity
  8
None
370
               0
390
0
  6
Continuous
 62
               7
100
AcDbHatch
 10
0.0
 20
0.0
 30
0.0
210
0.0
220
0.0
230
1.0
  2
SOLID
 70
               1
 71
               1
 91
        1
 92
        1
 93
        1
 72
               2
 10
23.115611599999994
 20
-155.63494739999999
 40
0.2549943899382885
 50
0.0
 51
360.0
 73
               0
 97
        1
330
25E
 75
               0
 76
               1
 98
        1
 10
0.0
 20
0.0
  0
CIRCLE
  5
260
102
{ACAD_REACTORS
330
261
102
}
100
AcDbEntity
  8
None
370
               9
390
0
  6
Continuous
 62
               7
100
AcDbCircle
 10
22.115611599999994
 20
-155.63494739999999
 30
0.0
 40
0.2549943899382881
  0
HATCH
  5
261
100
AcDbEntity
  8
None
370
               0
390
0
  6
Continuous
 62
               7
100
AcDbHatch
 10
0.0
 20
0.0
 30
0.0
210
0.0
220
0.0
230
1.0
  2
SOLID
 70
               1
 71
               1
 91
        1
 92
        1
 93
        1
 72
               2
 10
22.115611599999994
 20
-155.63494739999999
 40
0.2549943899382881
 50
0.0
 51
360.0
 73
               0
 97
        1
330
260
 75
               0
 76
               1
 98
        1
 10
0.0
 20
0.0
  0
CIRCLE
  5
262
102
{ACAD_REACTORS
330
263
102
}
100
AcDbEntity
  8
None
370
               9
390
0
  6
Continuous
 62
               7
100
AcDbCircle
 10
21.115611599999994
 20
-155.63494739999999
 30
0.0
 40
0.2549943899382881
  0
HATCH
  5
263
100
AcDbEntity
  8
None
370
               0
390
0
  6
Continuous
 62
               7
100
AcDbHatch
 10
0.0
 20
0.0
 30
0.0
210
0.0
220
0.0
230
1.0
  2
SOLID
 70
               1
 71
               1
 91
        1
 92
        1
 93
        1
 72
               2
 10
21.115611599999994
 20
-155.63494739999999
 40
0.2549943899382881
 50
0.0
 51
360.0
 73
               0
 97
        1
330
262
 75
               0
 76
               1
 98
        1
 10
0.0
 20
0.0
  0
CIRCLE
  5
264
102
{ACAD_REACTORS
330
265
102
}
100
AcDbEntity
  8
None
370
               9
390
0
  6
Continuous
 62
               7
100
AcDbCircle
 10
26.115611599999994
 20
-156.63494739999999
 30
0.0
 40
0.2549943899382886
  0
HATCH
  5
265
100
AcDbEntity
  8
None
370
               0
390
0
  6
Continuous
 62
               7
100
AcDbHatch
 10
0.0
 20
0.0
 30
0.0
210
0.0
220
0.0
230
1.0
  2
SOLID
 70
               1
 71
               1
 91
        1
 92
        1
 93
        1
 72
               2
 10
26.115611599999994
 20
-156.63494739999999
 40
0.2549943899382886
 50
0.0
 51
360.0
 73
               0
 97
        1
330
264
 75
               0
 76
               1
 98
        1
 10
0.0
 20
0.0
  0
CIRCLE
  5
266
102
{ACAD_REACTORS
330
267
102
}
100
AcDbEntity
  8
None
370
               9
390
0
  6
Continuous
 62
               7
100
AcDbCircle
 10
25.115611599999994
 20
-156.63494739999999
 30
0.0
 40
0.2549943899382887
  0
HATCH
  5
267
100
AcDbEntity
  8
None
370
               0
390
0
  6
Continuous
 62
               7
100
AcDbHatch
 10
0.0
 20
0.0
 30
0.0
210
0.0
220
0.0
230
1.0
  2
SOLID
 70
               1
 71
               1
 91
        1
 92
        1
 93
        1
 72
               2
 10
25.115611599999994
 20
-156.63494739999999
 40
0.2549943899382887
 50
0.0
 51
360.0
 73
               0
 97
        1
330
266
 75
               0
 76
               1
 98
        1
 10
0.0
 20
0.0
  0
CIRCLE
  5
268
102
{ACAD_REACTORS
330
269
102
}
100
AcDbEntity
  8
None
370
               9
390
0
  6
Continuous
 62
               7
100
AcDbCircle
 10
24.115611599999994
 20
-156.63494739999999
 30
0.0
 40
0.2549943899382885
  0
HATCH
  5
269
100
AcDbEntity
  8
None
370
               0
390
0
  6
Continuous
 62
               7
100
AcDbHatch
 10
0.0
 20
0.0
 30
0.0
210
0.0
220
0.0
230
1.0
  2
SOLID
 70
               1
 71
               1
 91
        1
 92
        1
 93
        1
 72
               2
 10
24.115611599999994
 20
-156.63494739999999
 40
0.2549943899382885
 50
0.0
 51
360.0
 73
               0
 97
        1
330
268
 75
               0
 76
               1
 98
        1
 10
0.0
 20
0.0
  0
CIRCLE
  5
26A
102
{ACAD_REACTORS
330
26B
102
}
100
AcDbEntity
  8
None
370
               9
390
0
  6
Continuous
 62
               7
100
AcDbCircle
 10
23.115611599999994
 20
-156.63494739999999
 30
0.0
 40
0.2549943899382885
  0
HATCH
  5
26B
100
AcDbEntity
  8
None
370
               0
390
0
  6
Continuous
 62
               7
100
AcDbHatch
 10
0.0
 20
0.0
 30
0.0
210
0.0
220
0.0
230
1.0
  2
SOLID
 70
               1
 71
               1
 91
        1
 92
        1
 93
        1
 72
               2
 10
23.115611599999994
 20
-156.63494739999999
 40
0.2549943899382885
 50
0.0
 51
360.0
 73
               0
 97
        1
330
26A
 75
               0
 76
               1
 98
        1
 10
0.0
 20
0.0
  0
CIRCLE
  5
26C
102
{ACAD_REACTORS
330
26D
102
}
100
AcDbEntity
  8
None
370
               9
390
0
  6
Continuous
 62
               7
100
AcDbCircle
 10
22.115611599999994
 20
-156.63494739999999
 30
0.0
 40
0.2549943899382881
  0
HATCH
  5
26D
100
AcDbEntity
  8
None
370
               0
390
0
  6
Continuous
 62
               7
100
AcDbHatch
 10
0.0
 20
0.0
 30
0.0
210
0.0
220
0.0
230
1.0
  2
SOLID
 70
               1
 71
               1
 91
        1
 92
        1
 93
        1
 72
               2
 10
22.115611599999994
 20
-156.63494739999999
 40
0.2549943899382881
 50
0.0
 51
360.0
 73
               0
 97
        1
330
26C
 75
               0
 76
               1
 98
        1
 10
0.0
 20
0.0
  0
CIRCLE
  5
26E
102
{ACAD_REACTORS
330
26F
102
}
100
AcDbEntity
  8
None
370
               9
390
0
  6
Continuous
 62
               7
100
AcDbCircle
 10
21.115611599999994
 20
-156.63494739999999
 30
0.0
 40
0.2549943899382881
  0
HATCH
  5
26F
100
AcDbEntity
  8
None
370
               0
390
0
  6
Continuous
 62
               7
100
AcDbHatch
 10
0.0
 20
0.0
 30
0.0
210
0.0
220
0.0
230
1.0
  2
SOLID
 70
               1
 71
               1
 91
        1
 92
        1
 93
        1
 72
               2
 10
21.115611599999994
 20
-156.63494739999999
 40
0.2549943899382881
 50
0.0
 51
360.0
 73
               0
 97
        1
330
26E
 75
               0
 76
               1
 98
        1
 10
0.0
 20
0.0
  0
CIRCLE
  5
270
102
{ACAD_REACTORS
330
271
102
}
100
AcDbEntity
  8
None
370
               9
390
0
  6
Continuous
 62
               7
100
AcDbCircle
 10
26.115611599999994
 20
-157.63494739999999
 30
0.0
 40
0.2549943899382886
  0
HATCH
  5
271
100
AcDbEntity
  8
None
370
               0
390
0
  6
Continuous
 62
               7
100
AcDbHatch
 10
0.0
 20
0.0
 30
0.0
210
0.0
220
0.0
230
1.0
  2
SOLID
 70
               1
 71
               1
 91
        1
 92
        1
 93
        1
 72
               2
 10
26.115611599999994
 20
-157.63494739999999
 40
0.2549943899382886
 50
0.0
 51
360.0
 73
               0
 97
        1
330
270
 75
               0
 76
               1
 98
        1
 10
0.0
 20
0.0
  0
CIRCLE
  5
272
102
{ACAD_REACTORS
330
273
102
}
100
AcDbEntity
  8
None
370
               9
390
0
  6
Continuous
 62
               7
100
AcDbCircle
 10
25.115611599999994
 20
-157.63494739999999
 30
0.0
 40
0.2549943899382887
  0
HATCH
  5
273
100
AcDbEntity
  8
None
370
               0
390
0
  6
Continuous
 62
               7
100
AcDbHatch
 10
0.0
 20
0.0
 30
0.0
210
0.0
220
0.0
230
1.0
  2
SOLID
 70
               1
 71
               1
 91
        1
 92
        1
 93
        1
 72
               2
 10
25.115611599999994
 20
-157.63494739999999
 40
0.2549943899382887
 50
0.0
 51
360.0
 73
               0
 97
        1
330
272
 75
               0
 76
               1
 98
        1
 10
0.0
 20
0.0
  0
CIRCLE
  5
274
102
{ACAD_REACTORS
330
275
102
}
100
AcDbEntity
  8
None
370
               9
390
0
  6
Continuous
 62
               7
100
AcDbCircle
 10
24.115611599999994
 20
-157.63494739999999
 30
0.0
 40
0.2549943899382885
  0
HATCH
  5
275
100
AcDbEntity
  8
None
370
               0
390
0
  6
Continuous
 62
               7
100
AcDbHatch
 10
0.0
 20
0.0
 30
0.0
210
0.0
220
0.0
230
1.0
  2
SOLID
 70
               1
 71
               1
 91
        1
 92
        1
 93
        1
 72
               2
 10
24.115611599999994
 20
-157.63494739999999
 40
0.2549943899382885
 50
0.0
 51
360.0
 73
               0
 97
        1
330
274
 75
               0
 76
               1
 98
        1
 10
0.0
 20
0.0
  0
CIRCLE
  5
276
102
{ACAD_REACTORS
330
277
102
}
100
AcDbEntity
  8
None
370
               9
390
0
  6
Continuous
 62
               7
100
AcDbCircle
 10
23.115611599999994
 20
-157.63494739999999
 30
0.0
 40
0.2549943899382885
  0
HATCH
  5
277
100
AcDbEntity
  8
None
370
               0
390
0
  6
Continuous
 62
               7
100
AcDbHatch
 10
0.0
 20
0.0
 30
0.0
210
0.0
220
0.0
230
1.0
  2
SOLID
 70
               1
 71
               1
 91
        1
 92
        1
 93
        1
 72
               2
 10
23.115611599999994
 20
-157.63494739999999
 40
0.2549943899382885
 50
0.0
 51
360.0
 73
               0
 97
        1
330
276
 75
               0
 76
               1
 98
        1
 10
0.0
 20
0.0
  0
CIRCLE
  5
278
102
{ACAD_REACTORS
330
279
102
}
100
AcDbEntity
  8
None
370
               9
390
0
  6
Continuous
 62
               7
100
AcDbCircle
 10
22.115611599999994
 20
-157.63494739999999
 30
0.0
 40
0.2549943899382881
  0
HATCH
  5
279
100
AcDbEntity
  8
None
370
               0
390
0
  6
Continuous
 62
               7
100
AcDbHatch
 10
0.0
 20
0.0
 30
0.0
210
0.0
220
0.0
230
1.0
  2
SOLID
 70
               1
 71
               1
 91
        1
 92
        1
 93
        1
 72
               2
 10
22.115611599999994
 20
-157.63494739999999
 40
0.2549943899382881
 50
0.0
 51
360.0
 73
               0
 97
        1
330
278
 75
               0
 76
               1
 98
        1
 10
0.0
 20
0.0
  0
CIRCLE
  5
27A
102
{ACAD_REACTORS
330
27B
102
}
100
AcDbEntity
  8
None
370
               9
390
0
  6
Continuous
 62
               7
100
AcDbCircle
 10
21.115611599999994
 20
-157.63494739999999
 30
0.0
 40
0.2549943899382881
  0
HATCH
  5
27B
100
AcDbEntity
  8
None
370
               0
390
0
  6
Continuous
 62
               7
100
AcDbHatch
 10
0.0
 20
0.0
 30
0.0
210
0.0
220
0.0
230
1.0
  2
SOLID
 70
               1
 71
               1
 91
        1
 92
        1
 93
        1
 72
               2
 10
21.115611599999994
 20
-157.63494739999999
 40
0.2549943899382881
 50
0.0
 51
360.0
 73
               0
 97
        1
330
27A
 75
               0
 76
               1
 98
        1
 10
0.0
 20
0.0
  0
CIRCLE
  5
27C
102
{ACAD_REACTORS
330
27D
102
}
100
AcDbEntity
  8
None
370
               9
390
0
  6
Continuous
 62
               7
100
AcDbCircle
 10
27.115611599999994
 20
-152.63494739999999
 30
0.0
 40
0.2549943899382886
  0
HATCH
  5
27D
100
AcDbEntity
  8
None
370
               0
390
0
  6
Continuous
 62
               7
100
AcDbHatch
 10
0.0
 20
0.0
 30
0.0
210
0.0
220
0.0
230
1.0
  2
SOLID
 70
               1
 71
               1
 91
        1
 92
        1
 93
        1
 72
               2
 10
27.115611599999994
 20
-152.63494739999999
 40
0.2549943899382886
 50
0.0
 51
360.0
 73
               0
 97
        1
330
27C
 75
               0
 76
               1
 98
        1
 10
0.0
 20
0.0
  0
CIRCLE
  5
27E
102
{ACAD_REACTORS
330
27F
102
}
100
AcDbEntity
  8
None
370
               9
390
0
  6
Continuous
 62
               7
100
AcDbCircle
 10
28.115611599999994
 20
-152.63494739999999
 30
0.0
 40
0.2549943899382885
  0
HATCH
  5
27F
100
AcDbEntity
  8
None
370
               0
390
0
  6
Continuous
 62
               7
100
AcDbHatch
 10
0.0
 20
0.0
 30
0.0
210
0.0
220
0.0
230
1.0
  2
SOLID
 70
               1
 71
               1
 91
        1
 92
        1
 93
        1
 72
               2
 10
28.115611599999994
 20
-152.63494739999999
 40
0.2549943899382885
 50
0.0
 51
360.0
 73
               0
 97
        1
330
27E
 75
               0
 76
               1
 98
        1
 10
0.0
 20
0.0
  0
CIRCLE
  5
280
102
{ACAD_REACTORS
330
281
102
}
100
AcDbEntity
  8
None
370
               9
390
0
  6
Continuous
 62
               7
100
AcDbCircle
 10
29.115611599999994
 20
-152.63494739999999
 30
0.0
 40
0.2549943899382885
  0
HATCH
  5
281
100
AcDbEntity
  8
None
370
               0
390
0
  6
Continuous
 62
               7
100
AcDbHatch
 10
0.0
 20
0.0
 30
0.0
210
0.0
220
0.0
230
1.0
  2
SOLID
 70
               1
 71
               1
 91
        1
 92
        1
 93
        1
 72
               2
 10
29.115611599999994
 20
-152.63494739999999
 40
0.2549943899382885
 50
0.0
 51
360.0
 73
               0
 97
        1
330
280
 75
               0
 76
               1
 98
        1
 10
0.0
 20
0.0
  0
CIRCLE
  5
282
102
{ACAD_REACTORS
330
283
102
}
100
AcDbEntity
  8
None
370
               9
390
0
  6
Continuous
 62
               7
100
AcDbCircle
 10
30.115611599999994
 20
-152.63494739999999
 30
0.0
 40
0.2549943899382889
  0
HATCH
  5
283
100
AcDbEntity
  8
None
370
               0
390
0
  6
Continuous
 62
               7
100
AcDbHatch
 10
0.0
 20
0.0
 30
0.0
210
0.0
220
0.0
230
1.0
  2
SOLID
 70
               1
 71
               1
 91
        1
 92
        1
 93
        1
 72
               2
 10
30.115611599999994
 20
-152.63494739999999
 40
0.2549943899382889
 50
0.0
 51
360.0
 73
               0
 97
        1
330
282
 75
               0
 76
               1
 98
        1
 10
0.0
 20
0.0
  0
CIRCLE
  5
284
102
{ACAD_REACTORS
330
285
102
}
100
AcDbEntity
  8
None
370
               9
390
0
  6
Continuous
 62
               7
100
AcDbCircle
 10
31.115611599999994
 20
-152.63494739999999
 30
0.0
 40
0.2549943899382889
  0
HATCH
  5
285
100
AcDbEntity
  8
None
370
               0
390
0
  6
Continuous
 62
               7
100
AcDbHatch
 10
0.0
 20
0.0
 30
0.0
210
0.0
220
0.0
230
1.0
  2
SOLID
 70
               1
 71
               1
 91
        1
 92
        1
 93
        1
 72
               2
 10
31.115611599999994
 20
-152.63494739999999
 40
0.2549943899382889
 50
0.0
 51
360.0
 73
               0
 97
        1
330
284
 75
               0
 76
               1
 98
        1
 10
0.0
 20
0.0
  0
CIRCLE
  5
286
102
{ACAD_REACTORS
330
287
102
}
100
AcDbEntity
  8
None
370
               9
390
0
  6
Continuous
 62
               7
100
AcDbCircle
 10
32.115611599999994
 20
-152.63494739999999
 30
0.0
 40
0.2549943899382889
  0
HATCH
  5
287
100
AcDbEntity
  8
None
370
               0
390
0
  6
Continuous
 62
               7
100
AcDbHatch
 10
0.0
 20
0.0
 30
0.0
210
0.0
220
0.0
230
1.0
  2
SOLID
 70
               1
 71
               1
 91
        1
 92
        1
 93
        1
 72
               2
 10
32.115611599999994
 20
-152.63494739999999
 40
0.2549943899382889
 50
0.0
 51
360.0
 73
               0
 97
        1
330
286
 75
               0
 76
               1
 98
        1
 10
0.0
 20
0.0
  0
CIRCLE
  5
288
102
{ACAD_REACTORS
330
289
102
}
100
AcDbEntity
  8
None
370
               9
390
0
  6
Continuous
 62
               7
100
AcDbCircle
 10
27.115611599999994
 20
-153.63494739999999
 30
0.0
 40
0.2549943899382886
  0
HATCH
  5
289
100
AcDbEntity
  8
None
370
               0
390
0
  6
Continuous
 62
               7
100
AcDbHatch
 10
0.0
 20
0.0
 30
0.0
210
0.0
220
0.0
230
1.0
  2
SOLID
 70
               1
 71
               1
 91
        1
 92
        1
 93
        1
 72
               2
 10
27.115611599999994
 20
-153.63494739999999
 40
0.2549943899382886
 50
0.0
 51
360.0
 73
               0
 97
        1
330
288
 75
               0
 76
               1
 98
        1
 10
0.0
 20
0.0
  0
CIRCLE
  5
28A
102
{ACAD_REACTORS
330
28B
102
}
100
AcDbEntity
  8
None
370
               9
390
0
  6
Continuous
 62
               7
100
AcDbCircle
 10
28.115611599999994
 20
-153.63494739999999
 30
0.0
 40
0.2549943899382885
  0
HATCH
  5
28B
100
AcDbEntity
  8
None
370
               0
390
0
  6
Continuous
 62
               7
100
AcDbHatch
 10
0.0
 20
0.0
 30
0.0
210
0.0
220
0.0
230
1.0
  2
SOLID
 70
               1
 71
               1
 91
        1
 92
        1
 93
        1
 72
               2
 10
28.115611599999994
 20
-153.63494739999999
 40
0.2549943899382885
 50
0.0
 51
360.0
 73
               0
 97
        1
330
28A
 75
               0
 76
               1
 98
        1
 10
0.0
 20
0.0
  0
CIRCLE
  5
28C
102
{ACAD_REACTORS
330
28D
102
}
100
AcDbEntity
  8
None
370
               9
390
0
  6
Continuous
 62
               7
100
AcDbCircle
 10
29.115611599999994
 20
-153.63494739999999
 30
0.0
 40
0.2549943899382885
  0
HATCH
  5
28D
100
AcDbEntity
  8
None
370
               0
390
0
  6
Continuous
 62
               7
100
AcDbHatch
 10
0.0
 20
0.0
 30
0.0
210
0.0
220
0.0
230
1.0
  2
SOLID
 70
               1
 71
               1
 91
        1
 92
        1
 93
        1
 72
               2
 10
29.115611599999994
 20
-153.63494739999999
 40
0.2549943899382885
 50
0.0
 51
360.0
 73
               0
 97
        1
330
28C
 75
               0
 76
               1
 98
        1
 10
0.0
 20
0.0
  0
CIRCLE
  5
28E
102
{ACAD_REACTORS
330
28F
102
}
100
AcDbEntity
  8
None
370
               9
390
0
  6
Continuous
 62
               7
100
AcDbCircle
 10
30.115611599999994
 20
-153.63494739999999
 30
0.0
 40
0.2549943899382889
  0
HATCH
  5
28F
100
AcDbEntity
  8
None
370
               0
390
0
  6
Continuous
 62
               7
100
AcDbHatch
 10
0.0
 20
0.0
 30
0.0
210
0.0
220
0.0
230
1.0
  2
SOLID
 70
               1
 71
               1
 91
        1
 92
        1
 93
        1
 72
               2
 10
30.115611599999994
 20
-153.63494739999999
 40
0.2549943899382889
 50
0.0
 51
360.0
 73
               0
 97
        1
330
28E
 75
               0
 76
               1
 98
        1
 10
0.0
 20
0.0
  0
CIRCLE
  5
290
102
{ACAD_REACTORS
330
291
102
}
100
AcDbEntity
  8
None
370
               9
390
0
  6
Continuous
 62
               7
100
AcDbCircle
 10
31.115611599999994
 20
-153.63494739999999
 30
0.0
 40
0.2549943899382889
  0
HATCH
  5
291
100
AcDbEntity
  8
None
370
               0
390
0
  6
Continuous
 62
               7
100
AcDbHatch
 10
0.0
 20
0.0
 30
0.0
210
0.0
220
0.0
230
1.0
  2
SOLID
 70
               1
 71
               1
 91
        1
 92
        1
 93
        1
 72
               2
 10
31.115611599999994
 20
-153.63494739999999
 40
0.2549943899382889
 50
0.0
 51
360.0
 73
               0
 97
        1
330
290
 75
               0
 76
               1
 98
        1
 10
0.0
 20
0.0
  0
CIRCLE
  5
292
102
{ACAD_REACTORS
330
293
102
}
100
AcDbEntity
  8
None
370
               9
390
0
  6
Continuous
 62
               7
100
AcDbCircle
 10
32.115611599999994
 20
-153.63494739999999
 30
0.0
 40
0.2549943899382889
  0
HATCH
  5
293
100
AcDbEntity
  8
None
370
               0
390
0
  6
Continuous
 62
               7
100
AcDbHatch
 10
0.0
 20
0.0
 30
0.0
210
0.0
220
0.0
230
1.0
  2
SOLID
 70
               1
 71
               1
 91
        1
 92
        1
 93
        1
 72
               2
 10
32.115611599999994
 20
-153.63494739999999
 40
0.2549943899382889
 50
0.0
 51
360.0
 73
               0
 97
        1
330
292
 75
               0
 76
               1
 98
        1
 10
0.0
 20
0.0
  0
CIRCLE
  5
294
102
{ACAD_REACTORS
330
295
102
}
100
AcDbEntity
  8
None
370
               9
390
0
  6
Continuous
 62
               7
100
AcDbCircle
 10
27.115611599999994
 20
-154.63494739999999
 30
0.0
 40
0.2549943899382886
  0
HATCH
  5
295
100
AcDbEntity
  8
None
370
               0
390
0
  6
Continuous
 62
               7
100
AcDbHatch
 10
0.0
 20
0.0
 30
0.0
210
0.0
220
0.0
230
1.0
  2
SOLID
 70
               1
 71
               1
 91
        1
 92
        1
 93
        1
 72
               2
 10
27.115611599999994
 20
-154.63494739999999
 40
0.2549943899382886
 50
0.0
 51
360.0
 73
               0
 97
        1
330
294
 75
               0
 76
               1
 98
        1
 10
0.0
 20
0.0
  0
CIRCLE
  5
296
102
{ACAD_REACTORS
330
297
102
}
100
AcDbEntity
  8
None
370
               9
390
0
  6
Continuous
 62
               7
100
AcDbCircle
 10
28.115611599999994
 20
-154.63494739999999
 30
0.0
 40
0.2549943899382885
  0
HATCH
  5
297
100
AcDbEntity
  8
None
370
               0
390
0
  6
Continuous
 62
               7
100
AcDbHatch
 10
0.0
 20
0.0
 30
0.0
210
0.0
220
0.0
230
1.0
  2
SOLID
 70
               1
 71
               1
 91
        1
 92
        1
 93
        1
 72
               2
 10
28.115611599999994
 20
-154.63494739999999
 40
0.2549943899382885
 50
0.0
 51
360.0
 73
               0
 97
        1
330
296
 75
               0
 76
               1
 98
        1
 10
0.0
 20
0.0
  0
CIRCLE
  5
298
102
{ACAD_REACTORS
330
299
102
}
100
AcDbEntity
  8
None
370
               9
390
0
  6
Continuous
 62
               7
100
AcDbCircle
 10
29.115611599999994
 20
-154.63494739999999
 30
0.0
 40
0.2549943899382885
  0
HATCH
  5
299
100
AcDbEntity
  8
None
370
               0
390
0
  6
Continuous
 62
               7
100
AcDbHatch
 10
0.0
 20
0.0
 30
0.0
210
0.0
220
0.0
230
1.0
  2
SOLID
 70
               1
 71
               1
 91
        1
 92
        1
 93
        1
 72
               2
 10
29.115611599999994
 20
-154.63494739999999
 40
0.2549943899382885
 50
0.0
 51
360.0
 73
               0
 97
        1
330
298
 75
               0
 76
               1
 98
        1
 10
0.0
 20
0.0
  0
CIRCLE
  5
29A
102
{ACAD_REACTORS
330
29B
102
}
100
AcDbEntity
  8
None
370
               9
390
0
  6
Continuous
 62
               7
100
AcDbCircle
 10
30.115611599999994
 20
-154.63494739999999
 30
0.0
 40
0.2549943899382889
  0
HATCH
  5
29B
100
AcDbEntity
  8
None
370
               0
390
0
  6
Continuous
 62
               7
100
AcDbHatch
 10
0.0
 20
0.0
 30
0.0
210
0.0
220
0.0
230
1.0
  2
SOLID
 70
               1
 71
               1
 91
        1
 92
        1
 93
        1
 72
               2
 10
30.115611599999994
 20
-154.63494739999999
 40
0.2549943899382889
 50
0.0
 51
360.0
 73
               0
 97
        1
330
29A
 75
               0
 76
               1
 98
        1
 10
0.0
 20
0.0
  0
CIRCLE
  5
29C
102
{ACAD_REACTORS
330
29D
102
}
100
AcDbEntity
  8
None
370
               9
390
0
  6
Continuous
 62
               7
100
AcDbCircle
 10
31.115611599999994
 20
-154.63494739999999
 30
0.0
 40
0.2549943899382889
  0
HATCH
  5
29D
100
AcDbEntity
  8
None
370
               0
390
0
  6
Continuous
 62
               7
100
AcDbHatch
 10
0.0
 20
0.0
 30
0.0
210
0.0
220
0.0
230
1.0
  2
SOLID
 70
               1
 71
               1
 91
        1
 92
        1
 93
        1
 72
               2
 10
31.115611599999994
 20
-154.63494739999999
 40
0.2549943899382889
 50
0.0
 51
360.0
 73
               0
 97
        1
330
29C
 75
               0
 76
               1
 98
        1
 10
0.0
 20
0.0
  0
CIRCLE
  5
29E
102
{ACAD_REACTORS
330
29F
102
}
100
AcDbEntity
  8
None
370
               9
390
0
  6
Continuous
 62
               7
100
AcDbCircle
 10
32.115611599999994
 20
-154.63494739999999
 30
0.0
 40
0.2549943899382889
  0
HATCH
  5
29F
100
AcDbEntity
  8
None
370
               0
390
0
  6
Continuous
 62
               7
100
AcDbHatch
 10
0.0
 20
0.0
 30
0.0
210
0.0
220
0.0
230
1.0
  2
SOLID
 70
               1
 71
               1
 91
        1
 92
        1
 93
        1
 72
               2
 10
32.115611599999994
 20
-154.63494739999999
 40
0.2549943899382889
 50
0.0
 51
360.0
 73
               0
 97
        1
330
29E
 75
               0
 76
               1
 98
        1
 10
0.0
 20
0.0
  0
CIRCLE
  5
2A0
102
{ACAD_REACTORS
330
2A1
102
}
100
AcDbEntity
  8
None
370
               9
390
0
  6
Continuous
 62
               7
100
AcDbCircle
 10
27.115611599999994
 20
-155.63494739999999
 30
0.0
 40
0.2549943899382886
  0
HATCH
  5
2A1
100
AcDbEntity
  8
None
370
               0
390
0
  6
Continuous
 62
               7
100
AcDbHatch
 10
0.0
 20
0.0
 30
0.0
210
0.0
220
0.0
230
1.0
  2
SOLID
 70
               1
 71
               1
 91
        1
 92
        1
 93
        1
 72
               2
 10
27.115611599999994
 20
-155.63494739999999
 40
0.2549943899382886
 50
0.0
 51
360.0
 73
               0
 97
        1
330
2A0
 75
               0
 76
               1
 98
        1
 10
0.0
 20
0.0
  0
CIRCLE
  5
2A2
102
{ACAD_REACTORS
330
2A3
102
}
100
AcDbEntity
  8
None
370
               9
390
0
  6
Continuous
 62
               7
100
AcDbCircle
 10
28.115611599999994
 20
-155.63494739999999
 30
0.0
 40
0.2549943899382885
  0
HATCH
  5
2A3
100
AcDbEntity
  8
None
370
               0
390
0
  6
Continuous
 62
               7
100
AcDbHatch
 10
0.0
 20
0.0
 30
0.0
210
0.0
220
0.0
230
1.0
  2
SOLID
 70
               1
 71
               1
 91
        1
 92
        1
 93
        1
 72
               2
 10
28.115611599999994
 20
-155.63494739999999
 40
0.2549943899382885
 50
0.0
 51
360.0
 73
               0
 97
        1
330
2A2
 75
               0
 76
               1
 98
        1
 10
0.0
 20
0.0
  0
CIRCLE
  5
2A4
102
{ACAD_REACTORS
330
2A5
102
}
100
AcDbEntity
  8
None
370
               9
390
0
  6
Continuous
 62
               7
100
AcDbCircle
 10
29.115611599999994
 20
-155.63494739999999
 30
0.0
 40
0.2549943899382885
  0
HATCH
  5
2A5
100
AcDbEntity
  8
None
370
               0
390
0
  6
Continuous
 62
               7
100
AcDbHatch
 10
0.0
 20
0.0
 30
0.0
210
0.0
220
0.0
230
1.0
  2
SOLID
 70
               1
 71
               1
 91
        1
 92
        1
 93
        1
 72
               2
 10
29.115611599999994
 20
-155.63494739999999
 40
0.2549943899382885
 50
0.0
 51
360.0
 73
               0
 97
        1
330
2A4
 75
               0
 76
               1
 98
        1
 10
0.0
 20
0.0
  0
CIRCLE
  5
2A6
102
{ACAD_REACTORS
330
2A7
102
}
100
AcDbEntity
  8
None
370
               9
390
0
  6
Continuous
 62
               7
100
AcDbCircle
 10
30.115611599999994
 20
-155.63494739999999
 30
0.0
 40
0.2549943899382889
  0
HATCH
  5
2A7
100
AcDbEntity
  8
None
370
               0
390
0
  6
Continuous
 62
               7
100
AcDbHatch
 10
0.0
 20
0.0
 30
0.0
210
0.0
220
0.0
230
1.0
  2
SOLID
 70
               1
 71
               1
 91
        1
 92
        1
 93
        1
 72
               2
 10
30.115611599999994
 20
-155.63494739999999
 40
0.2549943899382889
 50
0.0
 51
360.0
 73
               0
 97
        1
330
2A6
 75
               0
 76
               1
 98
        1
 10
0.0
 20
0.0
  0
CIRCLE
  5
2A8
102
{ACAD_REACTORS
330
2A9
102
}
100
AcDbEntity
  8
None
370
               9
390
0
  6
Continuous
 62
               7
100
AcDbCircle
 10
31.115611599999994
 20
-155.63494739999999
 30
0.0
 40
0.2549943899382889
  0
HATCH
  5
2A9
100
AcDbEntity
  8
None
370
               0
390
0
  6
Continuous
 62
               7
100
AcDbHatch
 10
0.0
 20
0.0
 30
0.0
210
0.0
220
0.0
230
1.0
  2
SOLID
 70
               1
 71
               1
 91
        1
 92
        1
 93
        1
 72
               2
 10
31.115611599999994
 20
-155.63494739999999
 40
0.2549943899382889
 50
0.0
 51
360.0
 73
               0
 97
        1
330
2A8
 75
               0
 76
               1
 98
        1
 10
0.0
 20
0.0
  0
CIRCLE
  5
2AA
102
{ACAD_REACTORS
330
2AB
102
}
100
AcDbEntity
  8
None
370
               9
390
0
  6
Continuous
 62
               7
100
AcDbCircle
 10
32.115611599999994
 20
-155.63494739999999
 30
0.0
 40
0.2549943899382889
  0
HATCH
  5
2AB
100
AcDbEntity
  8
None
370
               0
390
0
  6
Continuous
 62
               7
100
AcDbHatch
 10
0.0
 20
0.0
 30
0.0
210
0.0
220
0.0
230
1.0
  2
SOLID
 70
               1
 71
               1
 91
        1
 92
        1
 93
        1
 72
               2
 10
32.115611599999994
 20
-155.63494739999999
 40
0.2549943899382889
 50
0.0
 51
360.0
 73
               0
 97
        1
330
2AA
 75
               0
 76
               1
 98
        1
 10
0.0
 20
0.0
  0
CIRCLE
  5
2AC
102
{ACAD_REACTORS
330
2AD
102
}
100
AcDbEntity
  8
None
370
               9
390
0
  6
Continuous
 62
               7
100
AcDbCircle
 10
27.115611599999994
 20
-156.63494739999999
 30
0.0
 40
0.2549943899382886
  0
HATCH
  5
2AD
100
AcDbEntity
  8
None
370
               0
390
0
  6
Continuous
 62
               7
100
AcDbHatch
 10
0.0
 20
0.0
 30
0.0
210
0.0
220
0.0
230
1.0
  2
SOLID
 70
               1
 71
               1
 91
        1
 92
        1
 93
        1
 72
               2
 10
27.115611599999994
 20
-156.63494739999999
 40
0.2549943899382886
 50
0.0
 51
360.0
 73
               0
 97
        1
330
2AC
 75
               0
 76
               1
 98
        1
 10
0.0
 20
0.0
  0
CIRCLE
  5
2AE
102
{ACAD_REACTORS
330
2AF
102
}
100
AcDbEntity
  8
None
370
               9
390
0
  6
Continuous
 62
               7
100
AcDbCircle
 10
28.115611599999994
 20
-156.63494739999999
 30
0.0
 40
0.2549943899382885
  0
HATCH
  5
2AF
100
AcDbEntity
  8
None
370
               0
390
0
  6
Continuous
 62
               7
100
AcDbHatch
 10
0.0
 20
0.0
 30
0.0
210
0.0
220
0.0
230
1.0
  2
SOLID
 70
               1
 71
               1
 91
        1
 92
        1
 93
        1
 72
               2
 10
28.115611599999994
 20
-156.63494739999999
 40
0.2549943899382885
 50
0.0
 51
360.0
 73
               0
 97
        1
330
2AE
 75
               0
 76
               1
 98
        1
 10
0.0
 20
0.0
  0
CIRCLE
  5
2B0
102
{ACAD_REACTORS
330
2B1
102
}
100
AcDbEntity
  8
None
370
               9
390
0
  6
Continuous
 62
               7
100
AcDbCircle
 10
29.115611599999994
 20
-156.63494739999999
 30
0.0
 40
0.2549943899382885
  0
HATCH
  5
2B1
100
AcDbEntity
  8
None
370
               0
390
0
  6
Continuous
 62
               7
100
AcDbHatch
 10
0.0
 20
0.0
 30
0.0
210
0.0
220
0.0
230
1.0
  2
SOLID
 70
               1
 71
               1
 91
        1
 92
        1
 93
        1
 72
               2
 10
29.115611599999994
 20
-156.63494739999999
 40
0.2549943899382885
 50
0.0
 51
360.0
 73
               0
 97
        1
330
2B0
 75
               0
 76
               1
 98
        1
 10
0.0
 20
0.0
  0
CIRCLE
  5
2B2
102
{ACAD_REACTORS
330
2B3
102
}
100
AcDbEntity
  8
None
370
               9
390
0
  6
Continuous
 62
               7
100
AcDbCircle
 10
30.115611599999994
 20
-156.63494739999999
 30
0.0
 40
0.2549943899382889
  0
HATCH
  5
2B3
100
AcDbEntity
  8
None
370
               0
390
0
  6
Continuous
 62
               7
100
AcDbHatch
 10
0.0
 20
0.0
 30
0.0
210
0.0
220
0.0
230
1.0
  2
SOLID
 70
               1
 71
               1
 91
        1
 92
        1
 93
        1
 72
               2
 10
30.115611599999994
 20
-156.63494739999999
 40
0.2549943899382889
 50
0.0
 51
360.0
 73
               0
 97
        1
330
2B2
 75
               0
 76
               1
 98
        1
 10
0.0
 20
0.0
  0
CIRCLE
  5
2B4
102
{ACAD_REACTORS
330
2B5
102
}
100
AcDbEntity
  8
None
370
               9
390
0
  6
Continuous
 62
               7
100
AcDbCircle
 10
31.115611599999994
 20
-156.63494739999999
 30
0.0
 40
0.2549943899382889
  0
HATCH
  5
2B5
100
AcDbEntity
  8
None
370
               0
390
0
  6
Continuous
 62
               7
100
AcDbHatch
 10
0.0
 20
0.0
 30
0.0
210
0.0
220
0.0
230
1.0
  2
SOLID
 70
               1
 71
               1
 91
        1
 92
        1
 93
        1
 72
               2
 10
31.115611599999994
 20
-156.63494739999999
 40
0.2549943899382889
 50
0.0
 51
360.0
 73
               0
 97
        1
330
2B4
 75
               0
 76
               1
 98
        1
 10
0.0
 20
0.0
  0
CIRCLE
  5
2B6
102
{ACAD_REACTORS
330
2B7
102
}
100
AcDbEntity
  8
None
370
               9
390
0
  6
Continuous
 62
               7
100
AcDbCircle
 10
32.115611599999994
 20
-156.63494739999999
 30
0.0
 40
0.2549943899382889
  0
HATCH
  5
2B7
100
AcDbEntity
  8
None
370
               0
390
0
  6
Continuous
 62
               7
100
AcDbHatch
 10
0.0
 20
0.0
 30
0.0
210
0.0
220
0.0
230
1.0
  2
SOLID
 70
               1
 71
               1
 91
        1
 92
        1
 93
        1
 72
               2
 10
32.115611599999994
 20
-156.63494739999999
 40
0.2549943899382889
 50
0.0
 51
360.0
 73
               0
 97
        1
330
2B6
 75
               0
 76
               1
 98
        1
 10
0.0
 20
0.0
  0
CIRCLE
  5
2B8
102
{ACAD_REACTORS
330
2B9
102
}
100
AcDbEntity
  8
None
370
               9
390
0
  6
Continuous
 62
               7
100
AcDbCircle
 10
27.115611599999994
 20
-157.63494739999999
 30
0.0
 40
0.2549943899382886
  0
HATCH
  5
2B9
100
AcDbEntity
  8
None
370
               0
390
0
  6
Continuous
 62
               7
100
AcDbHatch
 10
0.0
 20
0.0
 30
0.0
210
0.0
220
0.0
230
1.0
  2
SOLID
 70
               1
 71
               1
 91
        1
 92
        1
 93
        1
 72
               2
 10
27.115611599999994
 20
-157.63494739999999
 40
0.2549943899382886
 50
0.0
 51
360.0
 73
               0
 97
        1
330
2B8
 75
               0
 76
               1
 98
        1
 10
0.0
 20
0.0
  0
CIRCLE
  5
2BA
102
{ACAD_REACTORS
330
2BB
102
}
100
AcDbEntity
  8
None
370
               9
390
0
  6
Continuous
 62
               7
100
AcDbCircle
 10
28.115611599999994
 20
-157.63494739999999
 30
0.0
 40
0.2549943899382885
  0
HATCH
  5
2BB
100
AcDbEntity
  8
None
370
               0
390
0
  6
Continuous
 62
               7
100
AcDbHatch
 10
0.0
 20
0.0
 30
0.0
210
0.0
220
0.0
230
1.0
  2
SOLID
 70
               1
 71
               1
 91
        1
 92
        1
 93
        1
 72
               2
 10
28.115611599999994
 20
-157.63494739999999
 40
0.2549943899382885
 50
0.0
 51
360.0
 73
               0
 97
        1
330
2BA
 75
               0
 76
               1
 98
        1
 10
0.0
 20
0.0
  0
CIRCLE
  5
2BC
102
{ACAD_REACTORS
330
2BD
102
}
100
AcDbEntity
  8
None
370
               9
390
0
  6
Continuous
 62
               7
100
AcDbCircle
 10
29.115611599999994
 20
-157.63494739999999
 30
0.0
 40
0.2549943899382885
  0
HATCH
  5
2BD
100
AcDbEntity
  8
None
370
               0
390
0
  6
Continuous
 62
               7
100
AcDbHatch
 10
0.0
 20
0.0
 30
0.0
210
0.0
220
0.0
230
1.0
  2
SOLID
 70
               1
 71
               1
 91
        1
 92
        1
 93
        1
 72
               2
 10
29.115611599999994
 20
-157.63494739999999
 40
0.2549943899382885
 50
0.0
 51
360.0
 73
               0
 97
        1
330
2BC
 75
               0
 76
               1
 98
        1
 10
0.0
 20
0.0
  0
CIRCLE
  5
2BE
102
{ACAD_REACTORS
330
2BF
102
}
100
AcDbEntity
  8
None
370
               9
390
0
  6
Continuous
 62
               7
100
AcDbCircle
 10
30.115611599999994
 20
-157.63494739999999
 30
0.0
 40
0.2549943899382889
  0
HATCH
  5
2BF
100
AcDbEntity
  8
None
370
               0
390
0
  6
Continuous
 62
               7
100
AcDbHatch
 10
0.0
 20
0.0
 30
0.0
210
0.0
220
0.0
230
1.0
  2
SOLID
 70
               1
 71
               1
 91
        1
 92
        1
 93
        1
 72
               2
 10
30.115611599999994
 20
-157.63494739999999
 40
0.2549943899382889
 50
0.0
 51
360.0
 73
               0
 97
        1
330
2BE
 75
               0
 76
               1
 98
        1
 10
0.0
 20
0.0
  0
CIRCLE
  5
2C0
102
{ACAD_REACTORS
330
2C1
102
}
100
AcDbEntity
  8
None
370
               9
390
0
  6
Continuous
 62
               7
100
AcDbCircle
 10
31.115611599999994
 20
-157.63494739999999
 30
0.0
 40
0.2549943899382889
  0
HATCH
  5
2C1
100
AcDbEntity
  8
None
370
               0
390
0
  6
Continuous
 62
               7
100
AcDbHatch
 10
0.0
 20
0.0
 30
0.0
210
0.0
220
0.0
230
1.0
  2
SOLID
 70
               1
 71
               1
 91
        1
 92
        1
 93
        1
 72
               2
 10
31.115611599999994
 20
-157.63494739999999
 40
0.2549943899382889
 50
0.0
 51
360.0
 73
               0
 97
        1
330
2C0
 75
               0
 76
               1
 98
        1
 10
0.0
 20
0.0
  0
CIRCLE
  5
2C2
102
{ACAD_REACTORS
330
2C3
102
}
100
AcDbEntity
  8
None
370
               9
390
0
  6
Continuous
 62
               7
100
AcDbCircle
 10
32.115611599999994
 20
-157.63494739999999
 30
0.0
 40
0.2549943899382889
  0
HATCH
  5
2C3
100
AcDbEntity
  8
None
370
               0
390
0
  6
Continuous
 62
               7
100
AcDbHatch
 10
0.0
 20
0.0
 30
0.0
210
0.0
220
0.0
230
1.0
  2
SOLID
 70
               1
 71
               1
 91
        1
 92
        1
 93
        1
 72
               2
 10
32.115611599999994
 20
-157.63494739999999
 40
0.2549943899382889
 50
0.0
 51
360.0
 73
               0
 97
        1
330
2C2
 75
               0
 76
               1
 98
        1
 10
0.0
 20
0.0
  0
ENDSEC
  0
SECTION
  2
OBJECTS
  0
DICTIONARY
  5
19
100
AcDbDictionary
280
               0
281
               1
  3
ACAD_GROUP
350
1A
  3
ACAD_MLINESTYLE
350
1B
  3
ACAD_LAYOUT
350
1E
  3
ACAD_PLOTSETTINGS
350
22
  3
ACAD_PLOTSTYLENAME
350
1F
  3
ACAD_WIPEOUT_VARS
350
23
  0
DICTIONARY
  5
1A
102
{ACAD_REACTORS
330
19
102
}
100
AcDbDictionary
280
               0
281
               1
  0
DICTIONARY
  5
1B
102
{ACAD_REACTORS
330
19
102
}
100
AcDbDictionary
280
               0
281
               1
  3
Standard
350
1C
  0
MLINESTYLE
  5
1C
102
{ACAD_REACTORS
330
1B
102
}
100
AcDbMlineStyle
  2
Standard
 70
               0
  3

 62
               0
 51
90.0
 52
90.0
 71
               2
 49
0.5
 62
             256
  6
ByLayer
 49
-0.5
 62
             256
  6
ByLayer
  0
ACDBDICTIONARYWDFLT
  5
1F
102
{ACAD_REACTORS
330
19
102
}
100
AcDbDictionary
281
               1
  3
Normal
350
1D
100
AcDbDictionaryWithDefault
340
1D
  0
ACDBPLACEHOLDER
  5
1D
102
{ACAD_REACTORS
330
1F
102
}
  0
LAYOUT
  5
20
102
{ACAD_REACTORS
330
1E
102
}
100
AcDbPlotSettings
  1

  2

  4

  6

 40
0.0
 41
0.0
 42
0.0
 43
0.0
 44
0.0
 45
0.0
 46
0.0
 47
0.0
 48
0.0
 49
0.0
140
0.0
141
0.0
142
1.0
143
1.0
 70
            1024
 72
               0
 73
               0
 74
               0
  7

 75
               0
147
1.0
148
0.0
149
0.0
100
AcDbLayout
  1
Model
 70
               0
 71
               0
 10
0.0
 20
0.0
 11
0.0
 21
0.0
 12
0.0
 22
0.0
 32
0.0
 14
0.0
 24
0.0
 34
0.0
 15
0.0
 25
0.0
 35
0.0
146
0.0
 13
0.0
 23
0.0
 33
0.0
 16
0.0
 26
0.0
 36
0.0
 17
0.0
 27
0.0
 37
0.0
 76
               0
330
A
331
0
345
0
346
0
  0
LAYOUT
  5
21
102
{ACAD_REACTORS
330
1E
102
}
100
AcDbPlotSettings
  1

  2

  4

  6

 40
0.0
 41
0.0
 42
0.0
 43
0.0
 44
0.0
 45
0.0
 46
0.0
 47
0.0
 48
0.0
 49
0.0
140
0.0
141
0.0
142
1.0
143
1.0
 70
               0
 72
               0
 73
               0
 74
               0
  7

 75
               0
147
1.0
148
0.0
149
0.0
100
AcDbLayout
  1
Layout1
 70
               0
 71
               0
 10
0.0
 20
0.0
 11
0.0
 21
0.0
 12
0.0
 22
0.0
 32
0.0
 14
0.0
 24
0.0
 34
0.0
 15
0.0
 25
0.0
 35
0.0
146
0.0
 13
0.0
 23
0.0
 33
0.0
 16
0.0
 26
0.0
 36
0.0
 17
0.0
 27
0.0
 37
0.0
 76
               0
330
B
331
0
345
0
346
0
  0
DICTIONARY
  5
1E
102
{ACAD_REACTORS
330
19
102
}
100
AcDbDictionary
280
               0
281
               1
  3
Layout1
350
21
  3
Model
350
20
  0
DICTIONARY
  5
22
102
{ACAD_REACTORS
330
19
102
}
100
AcDbDictionary
280
               0
281
               1
  0
WIPEOUTVARIABLES
  5
23
100
AcDbWipeoutVariables
 70
               0
  0
ENDSEC
  0
EOF
