  0
SECTION
  2
HEADER
  9
$ACADVER
  1
AC1015
  9
$ACADMAINTVER
 70
               6
  9
$DWGCODEPAGE
  3
ANSI_1252
  9
$INSBASE
 10
0.0
 20
0.0
 30
0.0
  9
$EXTMIN
 10
-5.8725434000000014
 20
-155.2508224
 30
-1.030111111111111
  9
$EXTMAX
 10
59.093031599999989
 20
-107.5380124
 30
1.030111111111111
  9
$LIMMIN
 10
0.0
 20
0.0
  9
$LIMMAX
 10
0.0
 20
0.0
  9
$ORTHOMODE
 70
               0
  9
$REGENMODE
 70
               1
  9
$FILLMODE
 70
               1
  9
$QTEXTMODE
 70
               0
  9
$MIRRTEXT
 70
               1
  9
$LTSCALE
 40
3.1749999999999998
  9
$ATTMODE
 70
               1
  9
$TEXTSIZE
 40
0.2
  9
$TRACEWID
 40
1.0
  9
$TEXTSTYLE
  7
Standard
  9
$CLAYER
  8
None
  9
$CELTYPE
  6
Continuous
  9
$CECOLOR
 62
             256
  9
$CELTSCALE
 40
1.0
  9
$DISPSILH
 70
               0
  9
$DIMSCALE
 40
1.0
  9
$DIMASZ
 40
0.79375
  9
$DIMEXO
 40
0.4762500011827797
  9
$DIMDLI
 40
6.9999859934672708
  9
$DIMRND
 40
0.0
  9
$DIMDLE
 40
0.0
  9
$DIMEXE
 40
0.9525000023655593
  9
$DIMTP
 40
0.0
  9
$DIMTM
 40
0.0
  9
$DIMTXT
 40
0.6315976562499999
  9
$DIMCEN
 40
0.0
  9
$DIMTSZ
 40
0.0
  9
$DIMTOL
 70
               0
  9
$DIMLIM
 70
               0
  9
$DIMTIH
 70
               1
  9
$DIMTOH
 70
               1
  9
$DIMSE1
 70
               0
  9
$DIMSE2
 70
               0
  9
$DIMTAD
 70
               0
  9
$DIMZIN
 70
              11
  9
$DIMBLK
  1
VW_FILLEDARROW
  9
$DIMASO
 70
               1
  9
$DIMSHO
 70
               1
  9
$DIMPOST
  1
<>mm
  9
$DIMAPOST
  1
[]"
  9
$DIMALT
 70
               0
  9
$DIMALTD
 70
               3
  9
$DIMALTF
 40
0.0393700787401575
  9
$DIMLFAC
 40
1.0
  9
$DIMTOFL
 70
               1
  9
$DIMTVP
 40
0.0
  9
$DIMTIX
 70
               1
  9
$DIMSOXD
 70
               0
  9
$DIMSAH
 70
               0
  9
$DIMBLK1
  1

  9
$DIMBLK2
  1

  9
$DIMSTYLE
  2
IE Standard
  9
$DIMCLRD
 70
               0
  9
$DIMCLRE
 70
               0
  9
$DIMCLRT
 70
               0
  9
$DIMTFAC
 40
1.0
  9
$DIMGAP
 40
0.0
  9
$DIMJUST
 70
               0
  9
$DIMSD1
 70
               0
  9
$DIMSD2
 70
               0
  9
$DIMTOLJ
 70
               1
  9
$DIMTZIN
 70
              11
  9
$DIMALTZ
 70
               3
  9
$DIMALTTZ
 70
               3
  9
$DIMUPT
 70
               0
  9
$DIMDEC
 70
               2
  9
$DIMTDEC
 70
               2
  9
$DIMALTU
 70
               2
  9
$DIMALTTD
 70
               2
  9
$DIMTXSTY
  7
Helvetica
  9
$DIMAUNIT
 70
               0
  9
$DIMADEC
 70
               0
  9
$DIMALTRND
 40
0.0
  9
$DIMAZIN
 70
               0
  9
$DIMDSEP
 70
              46
  9
$DIMATFIT
 70
               0
  9
$DIMFRAC
 70
               2
  9
$DIMLDRBLK
  1

  9
$DIMLUNIT
 70
               2
  9
$DIMLWD
 70
              -2
  9
$DIMLWE
 70
              -2
  9
$DIMTMOVE
 70
               0
  9
$LUNITS
 70
               2
  9
$LUPREC
 70
               4
  9
$SKETCHINC
 40
0.1
  9
$FILLETRAD
 40
0.0
  9
$AUNITS
 70
               0
  9
$AUPREC
 70
               0
  9
$MENU
  1
acad
  9
$ELEVATION
 40
0.0
  9
$PELEVATION
 40
0.0
  9
$THICKNESS
 40
0.0
  9
$LIMCHECK
 70
               0
  9
$CHAMFERA
 40
0.0
  9
$CHAMFERB
 40
0.0
  9
$CHAMFERC
 40
0.0
  9
$CHAMFERD
 40
0.0
  9
$SKPOLY
 70
               0
  9
$TDCREATE
 40
2454679.548865741
  9
$TDUCREATE
 40
0.000000000
  9
$TDUPDATE
 40
2454679.548865741
  9
$TDUUPDATE
 40
0.000000000
  9
$TDINDWG
 40
0.0000000000
  9
$TDUSRTIMER
 40
0.0000000000
  9
$USRTIMER
 70
               1
  9
$ANGBASE
 50
0.0
  9
$ANGDIR
 70
               0
  9
$PDMODE
 70
               1
  9
$PDSIZE
 40
-2.0
  9
$PLINEWID
 40
0.0
  9
$SPLFRAME
 70
               0
  9
$SPLINETYPE
 70
               6
  9
$SPLINESEGS
 70
               8
  9
$HANDSEED
  5
295
  9
$SURFTAB1
 70
               6
  9
$SURFTAB2
 70
               6
  9
$SURFTYPE
 70
               6
  9
$SURFU
 70
               6
  9
$SURFV
 70
               6
  9
$UCSBASE
  2

  9
$UCSNAME
  2

  9
$UCSORG
 10
0.0
 20
0.0
 30
0.0
  9
$UCSXDIR
 10
1.0
 20
0.0
 30
0.0
  9
$UCSYDIR
 10
0.0
 20
1.0
 30
0.0
  9
$UCSORTHOREF
  2

  9
$UCSORTHOVIEW
 70
               0
  9
$UCSORGTOP
 10
0.0
 20
0.0
 30
0.0
  9
$UCSORGBOTTOM
 10
0.0
 20
0.0
 30
0.0
  9
$UCSORGLEFT
 10
0.0
 20
0.0
 30
0.0
  9
$UCSORGRIGHT
 10
0.0
 20
0.0
 30
0.0
  9
$UCSORGFRONT
 10
0.0
 20
0.0
 30
0.0
  9
$UCSORGBACK
 10
0.0
 20
0.0
 30
0.0
  9
$PUCSBASE
  2

  9
$PUCSNAME
  2

  9
$PUCSORG
 10
0.0
 20
0.0
 30
0.0
  9
$PUCSXDIR
 10
1.0
 20
0.0
 30
0.0
  9
$PUCSYDIR
 10
0.0
 20
1.0
 30
0.0
  9
$PUCSORTHOREF
  2

  9
$PUCSORTHOVIEW
 70
               0
  9
$PUCSORGTOP
 10
0.0
 20
0.0
 30
0.0
  9
$PUCSORGBOTTOM
 10
0.0
 20
0.0
 30
0.0
  9
$PUCSORGLEFT
 10
0.0
 20
0.0
 30
0.0
  9
$PUCSORGRIGHT
 10
0.0
 20
0.0
 30
0.0
  9
$PUCSORGFRONT
 10
0.0
 20
0.0
 30
0.0
  9
$PUCSORGBACK
 10
0.0
 20
0.0
 30
0.0
  9
$USERI1
 70
               0
  9
$USERI2
 70
               0
  9
$USERI3
 70
               0
  9
$USERI4
 70
               0
  9
$USERI5
 70
               0
  9
$USERR1
 40
0.0
  9
$USERR2
 40
0.0
  9
$USERR3
 40
0.0
  9
$USERR4
 40
0.0
  9
$USERR5
 40
0.0
  9
$WORLDVIEW
 70
               1
  9
$SHADEDGE
 70
               3
  9
$SHADEDIF
 70
              70
  9
$TILEMODE
 70
               1
  9
$MAXACTVP
 70
              64
  9
$PINSBASE
 10
0.0
 20
0.0
 30
0.0
  9
$PLIMCHECK
 70
               0
  9
$PEXTMIN
 10
1.0000000000000000E+20
 20
1.0000000000000000E+20
 30
1.0000000000000000E+20
  9
$PEXTMAX
 10
-1.0000000000000000E+20
 20
-1.0000000000000000E+20
 30
-1.0000000000000000E+20
  9
$PLIMMIN
 10
0.0
 20
0.0
  9
$PLIMMAX
 10
12.0
 20
9.0
  9
$UNITMODE
 70
               0
  9
$VISRETAIN
 70
               0
  9
$PLINEGEN
 70
               1
  9
$PSLTSCALE
 70
               0
  9
$TREEDEPTH
 70
            3020
  9
$CMLSTYLE
  2
Standard
  9
$CMLJUST
 70
               0
  9
$CMLSCALE
 40
1.0
  9
$PROXYGRAPHICS
 70
               0
  9
$MEASUREMENT
 70
               1
  9
$CELWEIGHT
370
               0
  9
$ENDCAPS
280
               0
  9
$JOINSTYLE
280
               0
  9
$LWDISPLAY
290
               1
  9
$INSUNITS
 70
               4
  9
$HYPERLINKBASE
  1

  9
$STYLESHEET
  1

  9
$XEDIT
290
               1
  9
$CEPSNTYPE
380
               0
  9
$PSTYLEMODE
290
               1
  9
$FINGERPRINTGUID
  2

  9
$VERSIONGUID
  2

  9
$EXTNAMES
290
               1
  9
$PSVPSCALE
 40
0.0
  0
ENDSEC
  0
SECTION
  2
CLASSES
  0
CLASS
  1
LWPOLYLINE
  2
AcDbPolyline
  3
AutoCAD 2000
 90
        0
280
               0
281
               1
  0
CLASS
  1
IMAGE
  2
AcDbRasterImage
  3
ISM
 90
      127
280
               0
281
               1
  0
CLASS
  1
OLE2FRAME
  2
AcDbOle2Frame
  3
AutoCAD 2000
 90
        0
280
               0
281
               1
  0
CLASS
  1
HATCH
  2
AcDbHatch
  3
AutoCAD 2000
 90
        0
280
               0
281
               1
  0
CLASS
  1
DICTIONARYVAR
  2
AcDbDictionaryVar
  3
AutoCAD 2000
 90
        0
280
               0
281
               0
  0
CLASS
  1
RASTERVARIABLES
  2
AcDbRasterVariables
  3
ISM
 90
        0
280
               0
281
               0
  0
CLASS
  1
IMAGEDEF
  2
AcDbRasterImageDef
  3
ISM
 90
        0
280
               0
281
               0
  0
CLASS
  1
IMAGEDEF_REACTOR
  2
AcDbRasterImageDefReactor
  3
ISM
 90
        1
280
               0
281
               0
  0
CLASS
  1
IDBUFFER
  2
AcDbIdBuffer
  3
AutoCAD 2000
 90
        0
280
               0
281
               0
  0
CLASS
  1
SPATIAL_FILTER
  2
AcDbSpatialFilter
  3
AutoCAD 2000
 90
        0
280
               0
281
               0
  0
CLASS
  1
XRECORD
  2
AcDbXrecord
  3
AutoCAD 2000
 90
        0
280
               0
281
               0
  0
CLASS
  1
SORTENTSTABLE
  2
AcDbSortentsTable
  3
AutoCAD 2000
 90
        0
280
               0
281
               0
  0
CLASS
  1
LAYER_INDEX
  2
AcDbLayerIndex
  3
AutoCAD 2000
 90
        0
280
               0
281
               0
  0
CLASS
  1
SPATIAL_INDEX
  2
AcDbSpatialIndex
  3
AutoCAD 2000
 90
        0
280
               0
281
               0
  0
CLASS
  1
OBJECT_PTR
  2
CAseDLPNTableRecord
  3
"ASE-LPNTableRecord"
 90
        1
280
               0
281
               0
  0
CLASS
  1
LAYOUT
  2
AcDbLayout
  3
AutoCAD 2000
 90
        0
280
               0
281
               0
  0
CLASS
  1
PLOTSETTINGS
  2
AcDbPlotSettings
  3
AutoCAD 2000
 90
        0
280
               0
281
               0
  0
CLASS
  1
ACDBDICTIONARYWDFLT
  2
AcDbDictionaryWithDefault
  3
AutoCAD 2000
 90
        0
280
               0
281
               0
  0
CLASS
  1
ACDBPLACEHOLDER
  2
AcDbPlaceHolder
  3
AutoCAD 2000
 90
        0
280
               0
281
               0
  0
CLASS
  1
VBA_PROJECT
  2
AcDbVbaProject
  3
acadvba
 90
        0
280
               0
281
               0
  0
CLASS
  1
WIPEOUT
  2
AcDbWipeout
  3
WipeOut|AutoCAD Express Tool|expresstools@autodesk.com
 90
      127
280
               0
281
               1
  0
CLASS
  1
WIPEOUTVARIABLES
  2
AcDbWipeoutVariables
  3
WipeOut|AutoCAD Express Tool|expresstools@autodesk.com
 90
        0
280
               0
281
               0
  0
CLASS
  1
RTEXT
  2
RText
  3
RText|AutoCAD Express Tool|expresstools@autodesk.com
 90
        0
280
               0
281
               1
  0
CLASS
  1
ARCALIGNEDTEXT
  2
AcDbArcAlignedText
  3
ATEXT|AutoCAD Express Tool|expresstools@autodesk.com
 90
        0
280
               0
281
               1
  0
ENDSEC
  0
SECTION
  2
TABLES
  0
TABLE
  2
VPORT
  5
7
100
AcDbSymbolTable
 70
               1
  0
VPORT
  5
15
100
AcDbSymbolTableRecord
100
AcDbViewportTableRecord
  2
*ACTIVE
 70
               0
 10
0.0
 20
0.0
 11
1.0
 21
1.0
 12
26.610244099999992
 22
-131.39441740000001
 13
0.0
 23
0.0
 14
1.0
 24
1.0
 15
0.0
 25
0.0
 16
0.0
 26
0.0
 36
1.0
 17
0.0
 27
0.0
 37
0.0
 40
47.712810000000005
 41
0.688564
 42
50.0
 43
0.0
 44
0.0
 50
0.0
 51
0.0
 71
               0
 72
            2000
 73
               1
 74
               1
 75
               0
 76
               0
 77
               0
 78
               0
281
               0
 65
               0
110
0.0
120
0.0
130
0.0
111
1.0
121
0.0
131
0.0
112
0.0
122
1.0
132
0.0
345
0
346
0
 79
               0
146
0.0
  0
ENDTAB
  0
TABLE
  2
LTYPE
  5
4
100
AcDbSymbolTable
 70
              27
  0
LTYPE
  5
11
100
AcDbSymbolTableRecord
100
AcDbLinetypeTableRecord
  2
ByBlock
 70
              64
  3

 72
              65
 73
               0
 40
0.0
  0
LTYPE
  5
12
100
AcDbSymbolTableRecord
100
AcDbLinetypeTableRecord
  2
ByLayer
 70
              64
  3

 72
              65
 73
               0
 40
0.0
  0
LTYPE
  5
13
100
AcDbSymbolTableRecord
100
AcDbLinetypeTableRecord
  2
Continuous
 70
              64
  3
Solid line
 72
              65
 73
               0
 40
0.0
  0
LTYPE
  5
3B
100
AcDbSymbolTableRecord
100
AcDbLinetypeTableRecord
  2
STYLE_01
 70
               0
  3

 72
              65
 73
               2
 40
3.0
 49
2.0
 74
               0
 49
-1.0
 74
               0
  0
LTYPE
  5
3C
100
AcDbSymbolTableRecord
100
AcDbLinetypeTableRecord
  2
STYLE_02
 70
               0
  3

 72
              65
 73
               2
 40
1.5
 49
1.0
 74
               0
 49
-0.5
 74
               0
  0
LTYPE
  5
3D
100
AcDbSymbolTableRecord
100
AcDbLinetypeTableRecord
  2
STYLE_03
 70
               0
  3

 72
              65
 73
               4
 40
8.0
 49
0.5
 74
               0
 49
-1.0
 74
               0
 49
1.0
 74
               0
 49
-1.0
 74
               0
  0
LTYPE
  5
3E
100
AcDbSymbolTableRecord
100
AcDbLinetypeTableRecord
  2
STYLE_04
 70
               0
  3

 72
              65
 73
               4
 40
10.0
 49
5.0
 74
               0
 49
-1.0
 74
               0
 49
1.0
 74
               0
 49
-1.0
 74
               0
  0
LTYPE
  5
3F
100
AcDbSymbolTableRecord
100
AcDbLinetypeTableRecord
  2
STYLE_05
 70
               0
  3

 72
              65
 73
               2
 40
1.0
 49
0.0002
 74
               0
 49
-0.9998
 74
               0
  0
LTYPE
  5
40
100
AcDbSymbolTableRecord
100
AcDbLinetypeTableRecord
  2
STYLE_06
 70
               0
  3

 72
              65
 73
               4
 40
4.0
 49
2.0
 74
               0
 49
-1.0
 74
               0
 49
0.0002
 74
               0
 49
-0.9998
 74
               0
  0
LTYPE
  5
41
100
AcDbSymbolTableRecord
100
AcDbLinetypeTableRecord
  2
STYLE_07
 70
               0
  3

 72
              65
 73
               6
 40
7.0
 49
2.0
 74
               0
 49
-1.0
 74
               0
 49
2.0
 74
               0
 49
-1.0
 74
               0
 49
0.0002000000000004
 74
               0
 49
-0.9997999999999996
 74
               0
  0
LTYPE
  5
42
100
AcDbSymbolTableRecord
100
AcDbLinetypeTableRecord
  2
STYLE_08
 70
               0
  3

 72
              65
 73
               6
 40
5.0
 49
2.0
 74
               0
 49
-1.0
 74
               0
 49
0.0002
 74
               0
 49
-0.9998
 74
               0
 49
0.0002000000000004
 74
               0
 49
-0.9997999999999996
 74
               0
  0
LTYPE
  5
43
100
AcDbSymbolTableRecord
100
AcDbLinetypeTableRecord
  2
STYLE_09
 70
               0
  3

 72
              65
 73
               2
 40
0.1944580078125
 49
0.111114501953125
 74
               0
 49
-0.083343505859375
 74
               0
  0
LTYPE
  5
44
100
AcDbSymbolTableRecord
100
AcDbLinetypeTableRecord
  2
STYLE_10
 70
               0
  3

 72
              65
 73
               4
 40
1.1944580078125
 49
0.611114501953125
 74
               0
 49
-0.3055419921875
 74
               0
 49
0.02777099609375
 74
               0
 49
-0.250030517578125
 74
               0
  0
LTYPE
  5
45
100
AcDbSymbolTableRecord
100
AcDbLinetypeTableRecord
  2
STYLE_11
 70
               0
  3

 72
              65
 73
               4
 40
0.861114501953125
 49
0.47222900390625
 74
               0
 49
-0.166656494140625
 74
               0
 49
0.02777099609375
 74
               0
 49
-0.1944580078125
 74
               0
  0
LTYPE
  5
46
100
AcDbSymbolTableRecord
100
AcDbLinetypeTableRecord
  2
STYLE_12
 70
               0
  3

 72
              65
 73
               2
 40
0.166656494140625
 49
0.111114501953125
 74
               0
 49
-0.0555419921875
 74
               0
  0
LTYPE
  5
47
100
AcDbSymbolTableRecord
100
AcDbLinetypeTableRecord
  2
STYLE_13
 70
               0
  3

 72
              65
 73
               4
 40
0.13702392578125
 49
0.085662841796875
 74
               0
 49
-0.017120361328125
 74
               0
 49
0.017120361328125
 74
               0
 49
-0.017120361328125
 74
               0
  0
LTYPE
  5
48
100
AcDbSymbolTableRecord
100
AcDbLinetypeTableRecord
  2
STYLE_14
 70
               0
  3

 72
              65
 73
               2
 40
0.0513916015625
 49
0.034271240234375
 74
               0
 49
-0.017120361328125
 74
               0
  0
LTYPE
  5
49
100
AcDbSymbolTableRecord
100
AcDbLinetypeTableRecord
  2
STYLE_15
 70
               0
  3

 72
              65
 73
               6
 40
0.1712646484375
 49
0.085662841796875
 74
               0
 49
-0.017120361328125
 74
               0
 49
0.017120361328125
 74
               0
 49
-0.017120361328125
 74
               0
 49
0.017120361328125
 74
               0
 49
-0.017120361328125
 74
               0
  0
LTYPE
  5
4A
100
AcDbSymbolTableRecord
100
AcDbLinetypeTableRecord
  2
STYLE_16
 70
               0
  3

 72
              65
 73
               2
 40
0.75
 49
0.5
 74
               0
 49
-0.25
 74
               0
  0
LTYPE
  5
4B
100
AcDbSymbolTableRecord
100
AcDbLinetypeTableRecord
  2
STYLE_17
 70
               0
  3

 72
              65
 73
               4
 40
0.416656494140625
 49
0.25
 74
               0
 49
-0.08331298828125
 74
               0
 49
0.02777099609375
 74
               0
 49
-0.055572509765625
 74
               0
  0
LTYPE
  5
4C
100
AcDbSymbolTableRecord
100
AcDbLinetypeTableRecord
  2
STYLE_18
 70
               0
  3

 72
              65
 73
               6
 40
0.75
 49
0.25
 74
               0
 49
-0.08331298828125
 74
               0
 49
0.25
 74
               0
 49
-0.083343505859375
 74
               0
 49
0.02777099609375
 74
               0
 49
-0.055572509765625
 74
               0
  0
LTYPE
  5
4D
100
AcDbSymbolTableRecord
100
AcDbLinetypeTableRecord
  2
STYLE_19
 70
               0
  3

 72
              65
 73
               6
 40
0.5
 49
0.25
 74
               0
 49
-0.08331298828125
 74
               0
 49
0.02777099609375
 74
               0
 49
-0.055572509765625
 74
               0
 49
0.02777099609375
 74
               0
 49
-0.055572509765625
 74
               0
  0
LTYPE
  5
4E
100
AcDbSymbolTableRecord
100
AcDbLinetypeTableRecord
  2
STYLE_20
 70
               0
  3

 72
              65
 73
               4
 40
0.52777099609375
 49
0.27777099609375
 74
               0
 49
-0.083343505859375
 74
               0
 49
0.0555419921875
 74
               0
 49
-0.111114501953125
 74
               0
  0
LTYPE
  5
4F
100
AcDbSymbolTableRecord
100
AcDbLinetypeTableRecord
  2
STYLE_21
 70
               0
  3

 72
              65
 73
               2
 40
0.138885498046875
 49
0.083343505859375
 74
               0
 49
-0.0555419921875
 74
               0
  0
LTYPE
  5
50
100
AcDbSymbolTableRecord
100
AcDbLinetypeTableRecord
  2
STYLE_22
 70
               0
  3

 72
              65
 73
               2
 40
0.166656494140625
 49
0.08331298828125
 74
               0
 49
-0.083343505859375
 74
               0
  0
LTYPE
  5
51
100
AcDbSymbolTableRecord
100
AcDbLinetypeTableRecord
  2
STYLE_23
 70
               0
  3

 72
              65
 73
               2
 40
0.27777099609375
 49
0.194427490234375
 74
               0
 49
-0.083343505859375
 74
               0
  0
LTYPE
  5
52
100
AcDbSymbolTableRecord
100
AcDbLinetypeTableRecord
  2
STYLE_24
 70
               0
  3

 72
              65
 73
               2
 40
0.5
 49
0.416656494140625
 74
               0
 49
-0.083343505859375
 74
               0
  0
ENDTAB
  0
TABLE
  2
LAYER
  5
2
100
AcDbSymbolTable
 70
               5
  0
LAYER
  5
14
100
AcDbSymbolTableRecord
100
AcDbLayerTableRecord
  2
0
 70
               0
 62
               7
  6
Continuous
290
               1
370
              -3
390
1D
  0
LAYER
  5
53
100
AcDbSymbolTableRecord
100
AcDbLayerTableRecord
  2
Defpoints
 70
               0
 62
               7
  6
Continuous
290
               0
370
              -3
390
1D
  0
LAYER
  5
54
100
AcDbSymbolTableRecord
100
AcDbLayerTableRecord
  2
None
 70
               0
 62
               7
  6
Continuous
290
               1
370
               5
390
1D
  0
LAYER
  5
55
100
AcDbSymbolTableRecord
100
AcDbLayerTableRecord
  2
Dimension
 70
               0
 62
               7
  6
Continuous
290
               1
370
               5
390
1D
  0
LAYER
  5
56
100
AcDbSymbolTableRecord
100
AcDbLayerTableRecord
  2
Solid Lines
 70
               0
 62
               7
  6
Continuous
290
               1
370
              25
390
1D
  0
ENDTAB
  0
TABLE
  2
STYLE
  5
3
100
AcDbSymbolTable
 70
               5
  0
STYLE
  5
17
100
AcDbSymbolTableRecord
100
AcDbTextStyleTableRecord
  2
Standard
 70
               0
 40
0.0
 41
1.0
 50
0.0
 71
               0
 42
0.0
  3
txt
  4

  0
STYLE
  5
37
100
AcDbSymbolTableRecord
100
AcDbTextStyleTableRecord
  2
Arial
 70
               0
 40
0.0
 41
1.0
 50
0.0
 71
               0
 42
0.0
  3
Arial
  4

1001
ACAD
1000
Arial
1071
        0
  0
STYLE
  5
38
100
AcDbSymbolTableRecord
100
AcDbTextStyleTableRecord
  2
Arial (bold)
 70
               0
 40
0.0
 41
1.0
 50
0.0
 71
               0
 42
0.0
  3
Arial
  4

1001
ACAD
1000
Arial
1071
 33554432
  0
STYLE
  5
39
100
AcDbSymbolTableRecord
100
AcDbTextStyleTableRecord
  2
Helvetica
 70
               0
 40
0.0
 41
1.0
 50
0.0
 71
               0
 42
0.0
  3
Helvetica
  4

1001
ACAD
1000
Helvetica
1071
        0
  0
STYLE
  5
3A
100
AcDbSymbolTableRecord
100
AcDbTextStyleTableRecord
  2
New Century Schlbk
 70
               0
 40
0.0
 41
1.0
 50
0.0
 71
               0
 42
0.0
  3
New Century Schlbk
  4

1001
ACAD
1000
New Century Schlbk
1071
        0
  0
ENDTAB
  0
TABLE
  2
VIEW
  5
5
100
AcDbSymbolTable
 70
               0
  0
ENDTAB
  0
TABLE
  2
UCS
  5
6
100
AcDbSymbolTable
 70
               0
  0
ENDTAB
  0
TABLE
  2
APPID
  5
8
100
AcDbSymbolTable
 70
               1
  0
APPID
  5
16
100
AcDbSymbolTableRecord
100
AcDbRegAppTableRecord
  2
ACAD
 70
               0
  0
ENDTAB
  0
TABLE
  2
DIMSTYLE
  5
9
100
AcDbSymbolTable
 70
               2
100
AcDbDimStyleTable
 71
               0
  0
DIMSTYLE
105
18
100
AcDbSymbolTableRecord
100
AcDbDimStyleTableRecord
  2
Standard
 70
               0
  3

  4

 40
1.0
 41
0.18
 42
0.0625
 43
0.38
 44
0.18
 45
0.0
 46
0.0
 47
0.0
 48
0.0
 71
               0
 72
               0
 73
               1
 74
               1
 75
               0
 76
               0
 77
               0
 78
               0
 79
               0
140
0.18
141
0.09
142
0.0
143
25.399999999999999
144
1.0
145
0.0
146
1.0
147
0.09
148
0.0
170
               0
171
               2
172
               0
173
               0
174
               0
175
               0
176
               0
177
               0
178
               0
179
               0
271
               4
272
               4
273
               2
274
               2
275
               0
276
               0
277
               2
278
              46
279
               0
280
               0
281
               0
282
               0
283
               1
284
               0
285
               0
286
               0
288
               0
289
               3
340
17
341
0
342
0
343
0
344
0
371
              -2
372
              -2
  0
DIMSTYLE
105
5F
100
AcDbSymbolTableRecord
100
AcDbDimStyleTableRecord
  2
IE Standard
 70
               0
  3
<>mm
  4
[]"
 40
1.0
 41
0.79375
 42
0.4762500011827797
 43
6.9999859934672708
 44
0.9525000023655593
 45
0.0
 46
0.0
 47
0.0
 48
0.0
 71
               0
 72
               0
 73
               1
 74
               1
 75
               0
 76
               0
 77
               0
 78
              11
 79
               0
140
0.6315976562499999
141
0.0
142
0.0
143
0.0393700787401575
144
1.0
145
0.0
146
1.0
147
0.0
148
0.0
170
               0
171
               3
172
               1
173
               0
174
               1
175
               0
176
               0
177
               0
178
               0
179
               0
271
               2
272
               2
273
               2
274
               2
275
               0
276
               2
277
               2
278
              46
279
               0
280
               0
281
               0
282
               0
283
               1
284
              11
285
               3
286
               3
288
               0
289
               0
340
39
341
5B
342
57
343
0
344
0
371
              -2
372
              -2
  0
ENDTAB
  0
TABLE
  2
BLOCK_RECORD
  5
1
100
AcDbSymbolTable
 70
              21
  0
BLOCK_RECORD
  5
A
100
AcDbSymbolTableRecord
100
AcDbBlockTableRecord
  2
*MODEL_SPACE
340
20
  0
BLOCK_RECORD
  5
B
100
AcDbSymbolTableRecord
100
AcDbBlockTableRecord
  2
*PAPER_SPACE
340
21
  0
BLOCK_RECORD
  5
57
100
AcDbSymbolTableRecord
100
AcDbBlockTableRecord
  2
VW_FILLEDARROW
340
0
  0
BLOCK_RECORD
  5
5B
100
AcDbSymbolTableRecord
100
AcDbBlockTableRecord
  2
VW_FILLEDARROW-1
340
0
  0
BLOCK_RECORD
  5
24
100
AcDbSymbolTableRecord
100
AcDbBlockTableRecord
  2
IE i logo
340
0
102
{BLKREFS
331
260
102
}
  0
BLOCK_RECORD
  5
25
100
AcDbSymbolTableRecord
100
AcDbBlockTableRecord
  2
*D3
340
0
  0
BLOCK_RECORD
  5
26
100
AcDbSymbolTableRecord
100
AcDbBlockTableRecord
  2
*D4
340
0
  0
BLOCK_RECORD
  5
27
100
AcDbSymbolTableRecord
100
AcDbBlockTableRecord
  2
*D5
340
0
  0
BLOCK_RECORD
  5
28
100
AcDbSymbolTableRecord
100
AcDbBlockTableRecord
  2
*D6
340
0
  0
BLOCK_RECORD
  5
29
100
AcDbSymbolTableRecord
100
AcDbBlockTableRecord
  2
*D7
340
0
  0
BLOCK_RECORD
  5
2A
100
AcDbSymbolTableRecord
100
AcDbBlockTableRecord
  2
*D8
340
0
  0
BLOCK_RECORD
  5
2B
100
AcDbSymbolTableRecord
100
AcDbBlockTableRecord
  2
*D9
340
0
  0
BLOCK_RECORD
  5
2C
100
AcDbSymbolTableRecord
100
AcDbBlockTableRecord
  2
*D10
340
0
  0
BLOCK_RECORD
  5
2D
100
AcDbSymbolTableRecord
100
AcDbBlockTableRecord
  2
*D11
340
0
  0
BLOCK_RECORD
  5
2E
100
AcDbSymbolTableRecord
100
AcDbBlockTableRecord
  2
*D12
340
0
  0
BLOCK_RECORD
  5
2F
100
AcDbSymbolTableRecord
100
AcDbBlockTableRecord
  2
*D13
340
0
  0
BLOCK_RECORD
  5
30
100
AcDbSymbolTableRecord
100
AcDbBlockTableRecord
  2
*D14
340
0
  0
BLOCK_RECORD
  5
31
100
AcDbSymbolTableRecord
100
AcDbBlockTableRecord
  2
*D15
340
0
  0
BLOCK_RECORD
  5
32
100
AcDbSymbolTableRecord
100
AcDbBlockTableRecord
  2
Group
340
0
102
{BLKREFS
331
28F
102
}
  0
BLOCK_RECORD
  5
33
100
AcDbSymbolTableRecord
100
AcDbBlockTableRecord
  2
*D17
340
0
  0
BLOCK_RECORD
  5
34
100
AcDbSymbolTableRecord
100
AcDbBlockTableRecord
  2
Group-1
340
0
102
{BLKREFS
331
20D
102
}
  0
BLOCK_RECORD
  5
35
100
AcDbSymbolTableRecord
100
AcDbBlockTableRecord
  2
Group-2
340
0
102
{BLKREFS
331
293
102
}
  0
BLOCK_RECORD
  5
36
100
AcDbSymbolTableRecord
100
AcDbBlockTableRecord
  2
*D20
340
0
  0
ENDTAB
  0
ENDSEC
  0
SECTION
  2
BLOCKS
  0
BLOCK
  5
D
100
AcDbEntity
  8
0
390
0
100
AcDbBlockBegin
  2
*MODEL_SPACE
 70
               0
 10
0.0
 20
0.0
 30
0.0
  3
*MODEL_SPACE
  1

  0
ENDBLK
  5
E
100
AcDbEntity
  8
0
390
0
100
AcDbBlockEnd
  0
BLOCK
  5
F
100
AcDbEntity
 67
               1
  8
0
390
0
100
AcDbBlockBegin
  2
*PAPER_SPACE
 70
               0
 10
0.0
 20
0.0
 30
0.0
  3
*PAPER_SPACE
  1

  0
ENDBLK
  5
10
100
AcDbEntity
 67
               1
  8
0
390
0
100
AcDbBlockEnd
  0
BLOCK
  5
58
100
AcDbEntity
  8
0
370
              -2
390
0
  6
ByBlock
 62
               0
100
AcDbBlockBegin
  2
VW_FILLEDARROW
 70
               0
 10
0.0
 20
0.0
 30
0.0
  3
VW_FILLEDARROW
  1

  0
SOLID
  5
59
100
AcDbEntity
  8
0
370
              -2
390
0
 62
               0
100
AcDbTrace
 10
0.0
 20
0.0
 30
0.0
 11
-0.9999389648437499
 21
-0.2679328381102956
 31
0.0
 12
-0.9999389648437499
 22
0.2679328381102958
 32
0.0
 13
-0.9999389648437499
 23
0.2679328381102958
 33
0.0
  0
ENDBLK
  5
5A
100
AcDbEntity
  8
0
390
0
100
AcDbBlockEnd
  0
BLOCK
  5
5C
100
AcDbEntity
  8
0
370
              -2
390
0
  6
ByBlock
 62
               0
100
AcDbBlockBegin
  2
VW_FILLEDARROW-1
 70
               0
 10
0.0
 20
0.0
 30
0.0
  3
VW_FILLEDARROW
  1

  0
SOLID
  5
5D
100
AcDbEntity
  8
0
370
              -2
390
0
 62
               0
100
AcDbTrace
 10
0.0
 20
0.0
 30
0.0
 11
-0.6662384033203125
 21
-0.1785180421362784
 31
0.0
 12
-0.6662384033203125
 22
0.1785180421362785
 32
0.0
 13
-0.6662384033203125
 23
0.1785180421362785
 33
0.0
  0
ENDBLK
  5
5E
100
AcDbEntity
  8
0
390
0
100
AcDbBlockEnd
  0
BLOCK
  5
60
100
AcDbEntity
  8
None
390
0
100
AcDbBlockBegin
  2
IE i logo
 70
               0
 10
0.0
 20
0.0
 30
0.0
  3
IE i logo
  1

  0
CIRCLE
  5
61
102
{ACAD_REACTORS
330
62
102
}
100
AcDbEntity
  8
None
370
               5
390
0
  6
Continuous
 62
               7
100
AcDbCircle
 10
0.0
 20
0.0
 30
0.0
 40
2.6707900018721049
  0
HATCH
  5
62
100
AcDbEntity
  8
None
370
               0
390
0
  6
Continuous
 62
               7
100
AcDbHatch
 10
0.0
 20
0.0
 30
0.0
210
0.0
220
0.0
230
1.0
  2
SOLID
 70
               1
 71
               1
 91
        1
 92
        1
 93
        1
 72
               2
 10
0.0
 20
0.0
 40
2.6707900018721049
 50
0.0
 51
360.0
 73
               0
 97
        1
330
61
 75
               0
 76
               1
 98
        1
 10
0.0
 20
0.0
  0
WIPEOUT
  5
63
100
AcDbEntity
  8
None
370
               5
390
0
  6
Continuous
 62
               7
 92
        0
100
AcDbWipeout
 90
        0
 10
-1.01559
 20
0.73569
 30
0.0
 11
0.6889700000000001
 21
0.0
 31
0.0
 12
0.0
 22
0.6889700000000001
 32
0.0
 13
1.0
 23
1.0
340
0
 70
               7
280
               1
281
              50
282
              50
283
               0
360
0
 71
               2
 91
       97
 14
-0.384131384530531
 24
0.0667881039813055
 14
-0.3634758906411018
 24
0.0346239223043094
 14
-0.3415474367534144
 24
0.00272054661306
 14
-0.3183460228674687
 24
-0.0289220230924422
 14
-0.2938716489832648
 24
-0.0603037868121978
 14
-0.2681243151008025
 24
-0.0914247445462067
 14
-0.2411040212200821
 24
-0.1222848962944686
 14
-0.2128107673411033
 24
-0.1528842420569836
 14
-0.1832445534638663
 24
-0.1832227818337517
 14
-0.1529111164129063
 24
-0.2127940984367968
 14
-0.1223161930127582
 24
-0.2410917746781425
 14
-0.0914597832634222
 24
-0.2681158105577891
 14
-0.0603418871648982
 24
-0.2938662060757359
 14
-0.0289625047171866
 24
-0.3183429612319839
 14
0.0026783640797133
 24
-0.3415460760265321
 14
0.0345807192258009
 24
-0.3634755504593811
 14
0.0667445607210765
 24
-0.384131384530531
 14
0.0986291130237893
 24
-0.4031788394269708
 14
0.1296936005921883
 24
-0.4202831763356896
 14
0.1599380234262741
 24
-0.4354443952566872
 14
0.1893623815260462
 24
-0.4486624961899646
 14
0.2179666748915049
 24
-0.4599374791355209
 14
0.2457509035226498
 24
-0.4692693440933564
 14
0.2727150674194813
 24
-0.4766580910634712
 14
0.2988591665819992
 24
-0.4821037200458653
 14
0.3237520773763735
 24
-0.485530597304672
 14
0.3469626761687736
 24
-0.4868630891040248
 14
0.3684909629591999
 24
-0.4861011954439233
 14
0.3883369377476522
 24
-0.483244916324368
 14
0.4065006005341306
 24
-0.4782942517453585
 14
0.4229819513186351
 24
-0.4712492017068954
 14
0.4377809901011655
 24
-0.4621097662089782
 14
0.450897716881722
 24
-0.4508759452516074
 14
0.462126435113285
 24
-0.4377544559269632
 14
0.4712614482488352
 24
-0.4229520153272275
 14
0.4783027562883724
 24
-0.4064686234523998
 14
0.4832503592318967
 24
-0.3883042803024801
 14
0.4861042570794083
 24
-0.3684589858774687
 14
0.486864449830907
 24
-0.3469327401773656
 14
0.4855309374863926
 24
-0.3237255432021711
 14
0.4821037200458654
 24
-0.2988373949518843
 14
0.4766580910634716
 24
-0.2726983985151745
 14
0.4692693440933567
 24
-0.24573865698071
 14
0.4599374791355212
 24
-0.217958170348491
 14
0.4486624961899646
 24
-0.1893569386185173
 14
0.4354443952566874
 24
-0.1599349617907888
 14
0.4202831763356894
 24
-0.1296922398653057
 14
0.4031788394269706
 24
-0.0986287728420684
 14
0.384131384530531
 24
-0.0667445607210762
 14
0.363475890641102
 24
-0.0345803790440801
 14
0.3415474367534145
 24
-0.0026770033528307
 14
0.3183460228674687
 24
0.0289655663526718
 14
0.2938716489832648
 24
0.0603473300724272
 14
0.2681243151008025
 24
0.0914682878064358
 14
0.2411040212200821
 24
0.1223284395546979
 14
0.2128107673411033
 24
0.1529277853172129
 14
0.1832445534638663
 24
0.1832663250939811
 14
0.1529111164129063
 24
0.2128376416970262
 14
0.1223161930127581
 24
0.2411353179383721
 14
0.0914597832634222
 24
0.2681593538180184
 14
0.0603418871648983
 24
0.2939097493359655
 14
0.0289625047171866
 24
0.3183865044922132
 14
-0.0026783640797133
 24
0.3415896192867617
 14
-0.0345807192258009
 24
0.3635190937196106
 14
-0.0667445607210765
 24
0.3841749277907604
 14
-0.0986291130237892
 24
0.4032220425054794
 14
-0.1296936005921883
 24
0.4203253588690366
 14
-0.159938023426274
 24
0.4354848768814319
 14
-0.1893623815260462
 24
0.4487005965426653
 14
-0.2179666748915049
 24
0.4599725178527369
 14
-0.2457509035226499
 24
0.4693006408116466
 14
-0.2727150674194813
 24
0.4766849654193943
 14
-0.2988591665819992
 24
0.4821254916759801
 14
-0.3237520773763735
 24
0.4855476063906992
 14
-0.3469626761687736
 24
0.4868766963728464
 14
-0.3684909629591999
 24
0.486112761622422
 14
-0.3883369377476522
 24
0.4832558021394255
 14
-0.4065006005341306
 24
0.4783058179238573
 14
-0.4229819513186351
 24
0.4712628089757174
 14
-0.4377809901011655
 24
0.4621267752950057
 14
-0.450897716881722
 24
0.450897716881722
 14
-0.462126435113285
 24
0.437781330282886
 14
-0.4712614482488352
 24
0.4229833120455172
 14
-0.4783027562883724
 24
0.4065036621696155
 14
-0.4832503592318967
 24
0.388342380655181
 14
-0.4861042570794085
 24
0.3684994675022135
 14
-0.486864449830907
 24
0.3469749227107132
 14
-0.4855309374863926
 24
0.32376874628068
 14
-0.4821037200458657
 24
0.2988809382121138
 14
-0.4766580910634715
 24
0.2727419417754038
 14
-0.4692693440933567
 24
0.2457822002409394
 14
-0.4599374791355211
 24
0.2180017136087203
 14
-0.4486624961899646
 24
0.1894004818787466
 14
-0.4354443952566874
 24
0.1599785050510182
 14
-0.4202831763356894
 24
0.1297357831255353
 14
-0.4031788394269706
 24
0.0986723161022978
 14
-0.384131384530531
 24
0.0667881039813055
  0
SPLINE
  5
64
100
AcDbEntity
  8
None
370
               5
390
0
  6
Continuous
 62
               7
100
AcDbSpline
210
0.0
220
0.0
230
1.0
 70
               9
 71
               2
 72
              17
 73
              14
 74
               0
 42
0.000001
 43
0.000001
 40
0.0
 40
0.0
 40
0.0
 40
1.0
 40
2.0
 40
3.0
 40
4.0
 40
5.0
 40
6.0
 40
7.0
 40
8.0
 40
9.0
 40
10.0
 40
11.0
 40
12.0
 40
12.0
 40
12.0
 10
-0.9357599999999999
 20
1.03416
 30
0.0
 10
-0.8805899999999999
 20
1.1231599999999999
 30
0.0
 10
-0.71412
 20
1.2896599999999998
 30
0.0
 10
-0.5361199999999999
 20
1.3999999999999999
 30
0.0
 10
-0.39428
 20
1.4246599999999998
 30
0.0
 10
-0.32662
 20
1.3569699999999998
 30
0.0
 10
-0.35128
 20
1.2151599999999998
 30
0.0
 10
-0.46162
 20
1.0371599999999999
 30
0.0
 10
-0.6280899999999999
 20
0.8706599999999999
 30
0.0
 10
-0.80609
 20
0.7603199999999999
 30
0.0
 10
-0.9479299999999999
 20
0.73569
 30
0.0
 10
-1.01559
 20
0.8033499999999999
 30
0.0
 10
-0.9909299999999999
 20
0.9451599999999999
 30
0.0
 10
-0.9357599999999999
 20
1.03416
 30
0.0
  0
WIPEOUT
  5
65
100
AcDbEntity
  8
None
370
               5
390
0
  6
Continuous
 62
               7
 92
        0
100
AcDbWipeout
 90
        0
 10
-1.7197799999999999
 20
-1.8961899999999998
 30
0.0
 11
1.8520599999999998
 21
0.0
 31
0.0
 12
0.0
 22
1.8520599999999998
 32
0.0
 13
1.0
 23
1.0
340
0
 70
               7
280
               1
281
              50
282
              50
283
               0
360
0
 71
               2
 91
       36
 14
-0.4523827521786551
 24
0.3095202099284041
 14
-0.2500026996965541
 24
0.1190404198568081
 14
-0.2142911136788225
 24
0.1190404198568081
 14
-0.0714231720354632
 24
0.3690377201602539
 14
0.0
 24
0.4523827521786551
 14
0.0714231720354633
 24
0.5
 14
0.2142857142857143
 24
0.5
 14
0.3690539183395787
 24
0.4047493061779856
 14
0.4761940757858817
 24
0.3095202099284041
 14
0.5
 24
0.2380916384998327
 14
0.5
 24
0.1071347580531948
 14
0.4880997375894949
 24
0.0714231720354632
 14
0.4642884139822685
 24
0.0714231720354632
 14
0.4285768279645368
 24
0.0829562757146097
 14
0.3214258717320173
 24
0.1666522682850447
 14
0.274726520739069
 24
0.1785579300886581
 14
0.2142857142857143
 24
0.1666522682850447
 14
0.190479790071596
 24
0.1070915629083291
 14
0.1428625422502512
 24
0.0238059242141183
 14
0.1190404198568082
 24
-0.0833450320184012
 14
0.1071347580531948
 24
-0.2142911136788225
 14
0.0714231720354633
 24
-0.2857304838936103
 14
0.0238059242141184
 24
-0.3452533935185685
 14
-0.0238059242141183
 24
-0.3866289429068173
 14
-0.0714231720354632
 24
-0.3866289429068173
 14
-0.1309622798397461
 24
-0.3571536559290736
 14
-0.1785741282679827
 24
-0.2976361456972236
 14
-0.2619029621070591
 24
-0.178579527661091
 14
-0.342424111529864
 24
-0.1071563556256276
 14
-0.4727114672310832
 24
0.0238059242141183
 14
-0.5
 24
0.0714231720354632
 14
-0.5
 24
0.1547520058745397
 14
-0.5
 24
0.2380916384998327
 14
-0.5
 24
0.2857088863211775
 14
-0.4880997375894949
 24
0.3214204723389091
 14
-0.4523827521786551
 24
0.3095202099284041
  0
POLYLINE
  5
66
100
AcDbEntity
  8
None
370
               5
390
0
  6
Continuous
 62
               7
100
AcDb2dPolyline
 66
               1
 10
0.0
 20
0.0
 30
0.0
 70
               1
 75
               5
  0
VERTEX
  5
67
100
AcDbEntity
  8
None
370
               5
390
0
  6
Continuous
 62
               7
100
AcDbVertex
100
AcDb2dVertex
 10
-1.6315899999999999
 20
-1.5434099999999999
 30
0.0
  0
VERTEX
  5
68
100
AcDbEntity
  8
None
370
               5
390
0
  6
Continuous
 62
               7
100
AcDbVertex
100
AcDb2dVertex
 10
-1.2567699999999999
 20
-1.1906299999999999
 30
0.0
  0
VERTEX
  5
69
100
AcDbEntity
  8
None
370
               5
390
0
  6
Continuous
 62
               7
100
AcDbVertex
100
AcDb2dVertex
 10
-1.1906299999999999
 20
-1.1906299999999999
 30
0.0
  0
VERTEX
  5
6A
100
AcDbEntity
  8
None
370
               5
390
0
  6
Continuous
 62
               7
100
AcDbVertex
100
AcDb2dVertex
 10
-0.9260299999999999
 20
-1.6536399999999998
 30
0.0
  0
VERTEX
  5
6B
100
AcDbEntity
  8
None
370
               5
390
0
  6
Continuous
 62
               7
100
AcDbVertex
100
AcDb2dVertex
 10
-0.79375
 20
-1.8079999999999998
 30
0.0
  0
VERTEX
  5
6C
100
AcDbEntity
  8
None
370
               5
390
0
  6
Continuous
 62
               7
100
AcDbVertex
100
AcDb2dVertex
 10
-0.6614699999999999
 20
-1.8961899999999998
 30
0.0
  0
VERTEX
  5
6D
100
AcDbEntity
  8
None
370
               5
390
0
  6
Continuous
 62
               7
100
AcDbVertex
100
AcDb2dVertex
 10
-0.39688
 20
-1.8961899999999998
 30
0.0
  0
VERTEX
  5
6E
100
AcDbEntity
  8
None
370
               5
390
0
  6
Continuous
 62
               7
100
AcDbVertex
100
AcDb2dVertex
 10
-0.11024
 20
-1.7197799999999999
 30
0.0
  0
VERTEX
  5
6F
100
AcDbEntity
  8
None
370
               5
390
0
  6
Continuous
 62
               7
100
AcDbVertex
100
AcDb2dVertex
 10
0.08819
 20
-1.5434099999999999
 30
0.0
  0
VERTEX
  5
70
100
AcDbEntity
  8
None
370
               5
390
0
  6
Continuous
 62
               7
100
AcDbVertex
100
AcDb2dVertex
 10
0.13228
 20
-1.4111199999999999
 30
0.0
  0
VERTEX
  5
71
100
AcDbEntity
  8
None
370
               5
390
0
  6
Continuous
 62
               7
100
AcDbVertex
100
AcDb2dVertex
 10
0.13228
 20
-1.16858
 30
0.0
  0
VERTEX
  5
72
100
AcDbEntity
  8
None
370
               5
390
0
  6
Continuous
 62
               7
100
AcDbVertex
100
AcDb2dVertex
 10
0.11024
 20
-1.1024399999999999
 30
0.0
  0
VERTEX
  5
73
100
AcDbEntity
  8
None
370
               5
390
0
  6
Continuous
 62
               7
100
AcDbVertex
100
AcDb2dVertex
 10
0.06614
 20
-1.1024399999999999
 30
0.0
  0
VERTEX
  5
74
100
AcDbEntity
  8
None
370
               5
390
0
  6
Continuous
 62
               7
100
AcDbVertex
100
AcDb2dVertex
 10
0.0
 20
-1.1237999999999999
 30
0.0
  0
VERTEX
  5
75
100
AcDbEntity
  8
None
370
               5
390
0
  6
Continuous
 62
               7
100
AcDbVertex
100
AcDb2dVertex
 10
-0.19845
 20
-1.2788099999999998
 30
0.0
  0
VERTEX
  5
76
100
AcDbEntity
  8
None
370
               5
390
0
  6
Continuous
 62
               7
100
AcDbVertex
100
AcDb2dVertex
 10
-0.28494
 20
-1.3008599999999999
 30
0.0
  0
VERTEX
  5
77
100
AcDbEntity
  8
None
370
               5
390
0
  6
Continuous
 62
               7
100
AcDbVertex
100
AcDb2dVertex
 10
-0.39688
 20
-1.2788099999999998
 30
0.0
  0
VERTEX
  5
78
100
AcDbEntity
  8
None
370
               5
390
0
  6
Continuous
 62
               7
100
AcDbVertex
100
AcDb2dVertex
 10
-0.44097
 20
-1.1684999999999999
 30
0.0
  0
VERTEX
  5
79
100
AcDbEntity
  8
None
370
               5
390
0
  6
Continuous
 62
               7
100
AcDbVertex
100
AcDb2dVertex
 10
-0.52916
 20
-1.0142499999999999
 30
0.0
  0
VERTEX
  5
7A
100
AcDbEntity
  8
None
370
               5
390
0
  6
Continuous
 62
               7
100
AcDbVertex
100
AcDb2dVertex
 10
-0.5732799999999999
 20
-0.8158
 30
0.0
  0
VERTEX
  5
7B
100
AcDbEntity
  8
None
370
               5
390
0
  6
Continuous
 62
               7
100
AcDbVertex
100
AcDb2dVertex
 10
-0.5953299999999999
 20
-0.5732799999999999
 30
0.0
  0
VERTEX
  5
7C
100
AcDbEntity
  8
None
370
               5
390
0
  6
Continuous
 62
               7
100
AcDbVertex
100
AcDb2dVertex
 10
-0.6614699999999999
 20
-0.44097
 30
0.0
  0
VERTEX
  5
7D
100
AcDbEntity
  8
None
370
               5
390
0
  6
Continuous
 62
               7
100
AcDbVertex
100
AcDb2dVertex
 10
-0.7496599999999999
 20
-0.33073
 30
0.0
  0
VERTEX
  5
7E
100
AcDbEntity
  8
None
370
               5
390
0
  6
Continuous
 62
               7
100
AcDbVertex
100
AcDb2dVertex
 10
-0.8378399999999999
 20
-0.2541
 30
0.0
  0
VERTEX
  5
7F
100
AcDbEntity
  8
None
370
               5
390
0
  6
Continuous
 62
               7
100
AcDbVertex
100
AcDb2dVertex
 10
-0.9260299999999999
 20
-0.2541
 30
0.0
  0
VERTEX
  5
80
100
AcDbEntity
  8
None
370
               5
390
0
  6
Continuous
 62
               7
100
AcDbVertex
100
AcDb2dVertex
 10
-1.0363
 20
-0.30869
 30
0.0
  0
VERTEX
  5
81
100
AcDbEntity
  8
None
370
               5
390
0
  6
Continuous
 62
               7
100
AcDbVertex
100
AcDb2dVertex
 10
-1.1244799999999999
 20
-0.41892
 30
0.0
  0
VERTEX
  5
82
100
AcDbEntity
  8
None
370
               5
390
0
  6
Continuous
 62
               7
100
AcDbVertex
100
AcDb2dVertex
 10
-1.2788099999999998
 20
-0.63942
 30
0.0
  0
VERTEX
  5
83
100
AcDbEntity
  8
None
370
               5
390
0
  6
Continuous
 62
               7
100
AcDbVertex
100
AcDb2dVertex
 10
-1.4279399999999998
 20
-0.7716999999999999
 30
0.0
  0
VERTEX
  5
84
100
AcDbEntity
  8
None
370
               5
390
0
  6
Continuous
 62
               7
100
AcDbVertex
100
AcDb2dVertex
 10
-1.6692399999999998
 20
-1.0142499999999999
 30
0.0
  0
VERTEX
  5
85
100
AcDbEntity
  8
None
370
               5
390
0
  6
Continuous
 62
               7
100
AcDbVertex
100
AcDb2dVertex
 10
-1.7197799999999999
 20
-1.1024399999999999
 30
0.0
  0
VERTEX
  5
86
100
AcDbEntity
  8
None
370
               5
390
0
  6
Continuous
 62
               7
100
AcDbVertex
100
AcDb2dVertex
 10
-1.7197799999999999
 20
-1.2567699999999999
 30
0.0
  0
VERTEX
  5
87
100
AcDbEntity
  8
None
370
               5
390
0
  6
Continuous
 62
               7
100
AcDbVertex
100
AcDb2dVertex
 10
-1.7197799999999999
 20
-1.4111199999999999
 30
0.0
  0
VERTEX
  5
88
100
AcDbEntity
  8
None
370
               5
390
0
  6
Continuous
 62
               7
100
AcDbVertex
100
AcDb2dVertex
 10
-1.7197799999999999
 20
-1.4993099999999999
 30
0.0
  0
VERTEX
  5
89
100
AcDbEntity
  8
None
370
               5
390
0
  6
Continuous
 62
               7
100
AcDbVertex
100
AcDb2dVertex
 10
-1.6977399999999998
 20
-1.5654499999999998
 30
0.0
  0
SEQEND
  5
8A
100
AcDbEntity
  8
None
370
               5
390
0
  6
Continuous
 62
               7
  0
POLYLINE
  5
8B
100
AcDbEntity
  8
None
370
               5
390
0
  6
Continuous
 62
               7
100
AcDb2dPolyline
 66
               1
 10
0.0
 20
0.0
 30
0.0
 75
               5
  0
VERTEX
  5
8C
100
AcDbEntity
  8
None
370
               5
390
0
  6
Continuous
 62
               7
100
AcDbVertex
100
AcDb2dVertex
 10
-1.7197799999999999
 20
-1.1410199999999999
 30
0.0
  0
VERTEX
  5
8D
100
AcDbEntity
  8
None
370
               5
390
0
  6
Continuous
 62
               7
100
AcDbVertex
100
AcDb2dVertex
 10
-1.7197799999999999
 20
-1.45522
 30
0.0
  0
VERTEX
  5
8E
100
AcDbEntity
  8
None
370
               5
390
0
  6
Continuous
 62
               7
100
AcDbVertex
100
AcDb2dVertex
 10
-1.7197799999999999
 20
-1.4772599999999998
 30
0.0
  0
VERTEX
  5
8F
100
AcDbEntity
  8
None
370
               5
390
0
  6
Continuous
 62
               7
100
AcDbVertex
100
AcDb2dVertex
 10
-1.71427
 20
-1.5158499999999999
 30
0.0
  0
SEQEND
  5
90
100
AcDbEntity
  8
None
370
               5
390
0
  6
Continuous
 62
               7
  0
ENDBLK
  5
91
100
AcDbEntity
  8
None
390
0
100
AcDbBlockEnd
  0
BLOCK
  5
92
100
AcDbEntity
  8
Dimension
390
0
100
AcDbBlockBegin
  2
*D3
 70
               1
 10
0.0
 20
0.0
 30
0.0
  3
*D3
  1

  0
LINE
  5
93
100
AcDbEntity
  8
Dimension
370
              -2
390
0
  6
Continuous
 62
               0
100
AcDbLine
 10
20.847371599999995
 20
-120.86125739881723
 30
0.0
 11
20.847371599999995
 21
-113.31424739763443
 31
0.0
  0
LINE
  5
94
100
AcDbEntity
  8
Dimension
370
              -2
390
0
  6
Continuous
 62
               0
100
AcDbLine
 10
19.597371599999995
 20
-119.61125739881723
 30
0.0
 11
19.597371599999995
 21
-113.31424739763443
 31
0.0
  0
LINE
  5
95
100
AcDbEntity
  8
Dimension
370
              -2
390
0
  6
Continuous
 62
               0
100
AcDbLine
 10
19.597371599999995
 20
-114.2667474
 30
0.0
 11
20.847371599999995
 21
-114.2667474
 31
0.0
  0
LINE
  5
96
100
AcDbEntity
  8
Dimension
370
              -2
390
0
  6
Continuous
 62
               0
100
AcDbLine
 10
20.847371599999995
 20
-114.2667474
 30
0.0
 11
22.597368098366811
 21
-114.2667474
 31
0.0
  0
SOLID
  5
97
100
AcDbEntity
  8
Dimension
370
              -2
390
0
 62
               0
100
AcDbTrace
 10
20.847371599999995
 20
-114.2667474
 30
0.0
 11
21.641121599999995
 21
-114.0540627285078
 31
0.0
 12
21.641121599999995
 22
-114.4794320714922
 32
0.0
 13
21.641121599999995
 23
-114.4794320714922
 33
0.0
  0
LINE
  5
98
100
AcDbEntity
  8
Dimension
370
              -2
390
0
  6
Continuous
 62
               0
100
AcDbLine
 10
19.597371599999995
 20
-114.2667474
 30
0.0
 11
17.754821599999993
 21
-114.2667474
 31
0.0
  0
SOLID
  5
99
100
AcDbEntity
  8
Dimension
370
              -2
390
0
 62
               0
100
AcDbTrace
 10
19.597371599999995
 20
-114.2667474
 30
0.0
 11
18.803621599999992
 21
-114.4794320714922
 31
0.0
 12
18.803621599999992
 22
-114.0540627285078
 32
0.0
 13
18.803621599999992
 23
-114.0540627285078
 33
0.0
  0
WIPEOUT
  5
9A
100
AcDbEntity
  8
Dimension
370
              -2
390
0
  6
Continuous
 62
               0
 92
        0
100
AcDbWipeout
 90
        0
 10
8.8472202236254311
 20
67.567118655555547
 30
0.0
 11
3.2102614270316234
 21
0.0
 31
0.0
 12
0.0
 22
3.2102614270316234
 32
0.0
 13
1.0
 23
1.0
340
0
 70
               7
280
               1
281
              50
282
              50
283
               0
360
0
 71
               2
 91
        5
 14
-0.5
 24
57.299417475667106
 14
0.5
 24
57.299417475667106
 14
0.5
 24
56.983483392710561
 14
-0.5
 24
56.983483392710561
 14
-0.5
 24
57.299417475667106
  0
MTEXT
  5
9B
100
AcDbEntity
  8
Dimension
390
0
 62
               0
100
AcDbMText
 10
8.8472202236254311
 20
-113.92177768819444
 30
0.0
 40
0.6315976562499999
 41
0.0
 71
               1
 72
               1
  1
1.25mm
  7
Helvetica
 73
               1
 44
0.9673603504928808
  0
WIPEOUT
  5
9C
100
AcDbEntity
  8
Dimension
370
              -2
390
0
  6
Continuous
 62
               0
 92
        0
100
AcDbWipeout
 90
        0
 10
12.057481650657055
 20
67.567116433333325
 30
0.0
 11
4.1892149156994289
 21
0.0
 31
0.0
 12
0.0
 22
4.1892149156994289
 32
0.0
 13
1.0
 23
1.0
340
0
 70
               7
280
               1
281
              50
282
              50
283
               0
360
0
 71
               2
 91
        5
 14
-0.5
 24
44.026288975211592
 14
0.5
 24
44.026288975211592
 14
0.5
 24
43.784183707181747
 14
-0.5
 24
43.784183707181747
 14
-0.5
 24
44.026288975211592
  0
MTEXT
  5
9D
100
AcDbEntity
  8
Dimension
390
0
 62
               0
100
AcDbMText
 10
12.057481650657055
 20
-113.92177991041666
 30
0.0
 40
0.6315976562499999
 41
0.0
 71
               1
 72
               1
  1
±0.125mm
  7
Helvetica
 73
               1
 44
0.9673603504928808
  0
WIPEOUT
  5
9E
100
AcDbEntity
  8
Dimension
370
              -2
390
0
  6
Continuous
 62
               0
 92
        0
100
AcDbWipeout
 90
        0
 10
16.246696566356484
 20
67.567113544444439
 30
0.0
 11
1.5081250336435108
 21
0.0
 31
0.0
 12
0.0
 22
1.5081250336435108
 32
0.0
 13
1.0
 23
1.0
340
0
 70
               7
280
               1
281
              50
282
              50
283
               0
360
0
 71
               2
 91
        5
 14
-0.5
 24
121.40574384239125
 14
0.4999999999999988
 24
121.40574384239125
 14
0.4999999999999988
 24
120.73322923751077
 14
-0.5
 24
120.73322923751077
 14
-0.5
 24
121.40574384239125
  0
MTEXT
  5
9F
100
AcDbEntity
  8
Dimension
390
0
 62
               0
100
AcDbMText
 10
16.246696566356484
 20
-113.92177850532407
 30
0.0
 40
0.6316008391203704
 41
0.0
 71
               1
 72
               1
  1
(x4)
  7
Helvetica
 73
               1
 44
0.9673603504928805
  0
POINT
  5
A0
100
AcDbEntity
  8
Defpoints
370
               0
390
0
 62
               0
100
AcDbPoint
 10
19.597371599999995
 20
-120.08750739999999
 30
0.0
  0
POINT
  5
A1
100
AcDbEntity
  8
Defpoints
370
               0
390
0
 62
               0
100
AcDbPoint
 10
20.847371599999995
 20
-121.33750739999999
 30
0.0
  0
POINT
  5
A2
100
AcDbEntity
  8
Defpoints
370
               0
390
0
 62
               0
100
AcDbPoint
 10
20.847371599999995
 20
-114.2667474
 30
0.0
  0
ENDBLK
  5
A3
100
AcDbEntity
  8
Dimension
390
0
100
AcDbBlockEnd
  0
BLOCK
  5
A4
100
AcDbEntity
  8
Dimension
390
0
100
AcDbBlockBegin
  2
*D4
 70
               1
 10
0.0
 20
0.0
 30
0.0
  3
*D4
  1

  0
LINE
  5
A5
100
AcDbEntity
  8
Dimension
370
              -2
390
0
  6
Continuous
 62
               0
100
AcDbLine
 10
19.121121598817215
 20
-120.08750739999999
 30
0.0
 11
12.994871597634436
 21
-120.08750739999999
 31
0.0
  0
LINE
  5
A6
100
AcDbEntity
  8
Dimension
370
              -2
390
0
  6
Continuous
 62
               0
100
AcDbLine
 10
20.371121598817215
 20
-121.33750739999999
 30
0.0
 11
12.994871597634434
 21
-121.33750739999999
 31
0.0
  0
LINE
  5
A7
100
AcDbEntity
  8
Dimension
370
              -2
390
0
  6
Continuous
 62
               0
100
AcDbLine
 10
13.947371599999993
 20
-121.33750739999999
 30
0.0
 11
13.947371599999993
 21
-120.08750739999999
 31
0.0
  0
LINE
  5
A8
100
AcDbEntity
  8
Dimension
370
              -2
390
0
  6
Continuous
 62
               0
100
AcDbLine
 10
13.947371599999993
 20
-120.08750739999999
 30
0.0
 11
13.947371599999993
 21
-117.8465874
 31
0.0
  0
SOLID
  5
A9
100
AcDbEntity
  8
Dimension
370
              -2
390
0
 62
               0
100
AcDbTrace
 10
13.947371599999993
 20
-120.08750739999999
 30
0.0
 11
13.73468692850779
 21
-119.2937574
 31
0.0
 12
14.160056271492197
 22
-119.2937574
 32
0.0
 13
14.160056271492197
 23
-119.2937574
 33
0.0
  0
LINE
  5
AA
100
AcDbEntity
  8
Dimension
370
              -2
390
0
  6
Continuous
 62
               0
100
AcDbLine
 10
13.947371599999993
 20
-121.33750739999999
 30
0.0
 11
13.947371599999993
 21
-123.08750389836682
 31
0.0
  0
SOLID
  5
AB
100
AcDbEntity
  8
Dimension
370
              -2
390
0
 62
               0
100
AcDbTrace
 10
13.947371599999993
 20
-121.33750739999999
 30
0.0
 11
14.160056271492197
 21
-122.13125740000001
 31
0.0
 12
13.73468692850779
 22
-122.13125740000001
 32
0.0
 13
13.73468692850779
 23
-122.13125740000001
 33
0.0
  0
WIPEOUT
  5
AC
100
AcDbEntity
  8
Dimension
370
              -2
390
0
  6
Continuous
 62
               0
 92
        0
100
AcDbWipeout
 90
        0
 10
9.4935709118127107
 20
63.987278655555542
 30
0.0
 11
3.2102614270316234
 21
0.0
 31
0.0
 12
0.0
 22
3.2102614270316234
 32
0.0
 13
1.0
 23
1.0
340
0
 70
               7
280
               1
281
              50
282
              50
283
               0
360
0
 71
               2
 91
        5
 14
-0.5
 24
57.299417475667092
 14
0.5
 24
57.299417475667092
 14
0.5
 24
56.983483392710554
 14
-0.5
 24
56.983483392710554
 14
-0.5
 24
57.299417475667092
  0
MTEXT
  5
AD
100
AcDbEntity
  8
Dimension
390
0
 62
               0
100
AcDbMText
 10
9.4935709118127107
 20
-117.50161768819444
 30
0.0
 40
0.6315976562499999
 41
0.0
 71
               1
 72
               1
  1
1.25mm
  7
Helvetica
 73
               1
 44
0.9673603504928808
  0
WIPEOUT
  5
AE
100
AcDbEntity
  8
Dimension
370
              -2
390
0
  6
Continuous
 62
               0
 92
        0
100
AcDbWipeout
 90
        0
 10
12.703832338844334
 20
63.987276433333321
 30
0.0
 11
4.1892149156994289
 21
0.0
 31
0.0
 12
0.0
 22
4.1892149156994289
 32
0.0
 13
1.0
 23
1.0
340
0
 70
               7
280
               1
281
              50
282
              50
283
               0
360
0
 71
               2
 91
        5
 14
-0.5
 24
44.026288975211592
 14
0.5
 24
44.026288975211592
 14
0.5
 24
43.784183707181747
 14
-0.5
 24
43.784183707181747
 14
-0.5
 24
44.026288975211592
  0
MTEXT
  5
AF
100
AcDbEntity
  8
Dimension
390
0
 62
               0
100
AcDbMText
 10
12.703832338844334
 20
-117.50161991041665
 30
0.0
 40
0.6315976562499999
 41
0.0
 71
               1
 72
               1
  1
±0.125mm
  7
Helvetica
 73
               1
 44
0.9673603504928808
  0
WIPEOUT
  5
B0
100
AcDbEntity
  8
Dimension
370
              -2
390
0
  6
Continuous
 62
               0
 92
        0
100
AcDbWipeout
 90
        0
 10
16.893047254543763
 20
63.987273544444434
 30
0.0
 11
1.5081250336435108
 21
0.0
 31
0.0
 12
0.0
 22
1.5081250336435108
 32
0.0
 13
1.0
 23
1.0
340
0
 70
               7
280
               1
281
              50
282
              50
283
               0
360
0
 71
               2
 91
        5
 14
-0.5
 24
121.40574384239123
 14
0.5000000000000011
 24
121.40574384239123
 14
0.5000000000000011
 24
120.73322923751077
 14
-0.5
 24
120.73322923751077
 14
-0.5
 24
121.40574384239123
  0
MTEXT
  5
B1
100
AcDbEntity
  8
Dimension
390
0
 62
               0
100
AcDbMText
 10
16.893047254543763
 20
-117.50161850532407
 30
0.0
 40
0.6316008391203704
 41
0.0
 71
               1
 72
               1
  1
(x4)
  7
Helvetica
 73
               1
 44
0.9673603504928805
  0
POINT
  5
B2
100
AcDbEntity
  8
Defpoints
370
               0
390
0
 62
               0
100
AcDbPoint
 10
20.847371599999995
 20
-121.33750739999999
 30
0.0
  0
POINT
  5
B3
100
AcDbEntity
  8
Defpoints
370
               0
390
0
 62
               0
100
AcDbPoint
 10
19.597371599999995
 20
-120.08750739999999
 30
0.0
  0
POINT
  5
B4
100
AcDbEntity
  8
Defpoints
370
               0
390
0
 62
               0
100
AcDbPoint
 10
13.947371599999993
 20
-120.08750739999999
 30
0.0
  0
ENDBLK
  5
B5
100
AcDbEntity
  8
Dimension
390
0
100
AcDbBlockEnd
  0
BLOCK
  5
B6
100
AcDbEntity
  8
Dimension
390
0
100
AcDbBlockBegin
  2
*D5
 70
               1
 10
0.0
 20
0.0
 30
0.0
  3
*D5
  1

  0
LINE
  5
B7
100
AcDbEntity
  8
Dimension
370
              -2
390
0
  6
Continuous
 62
               0
100
AcDbLine
 10
20.371121598817215
 20
-121.33750739999999
 30
0.0
 11
15.612031597634434
 21
-121.33750739999999
 31
0.0
  0
LINE
  5
B8
100
AcDbEntity
  8
Dimension
370
              -2
390
0
  6
Continuous
 62
               0
100
AcDbLine
 10
23.483621598817216
 20
-124.2000074
 30
0.0
 11
15.612031597634436
 21
-124.2000074
 31
0.0
  0
LINE
  5
B9
100
AcDbEntity
  8
Dimension
370
              -2
390
0
  6
Continuous
 62
               0
100
AcDbLine
 10
16.564531599999995
 20
-124.2000074
 30
0.0
 11
16.564531599999995
 21
-121.33750739999999
 31
0.0
  0
LINE
  5
BA
100
AcDbEntity
  8
Dimension
370
              -2
390
0
  6
Continuous
 62
               0
100
AcDbLine
 10
16.564531599999995
 20
-121.33750739999999
 30
0.0
 11
16.564531599999995
 21
-119.58751090163318
 31
0.0
  0
SOLID
  5
BB
100
AcDbEntity
  8
Dimension
370
              -2
390
0
 62
               0
100
AcDbTrace
 10
16.564531599999995
 20
-121.33750739999999
 30
0.0
 11
16.35184692850779
 21
-120.5437574
 31
0.0
 12
16.7772162714922
 22
-120.5437574
 32
0.0
 13
16.7772162714922
 23
-120.5437574
 33
0.0
  0
LINE
  5
BC
100
AcDbEntity
  8
Dimension
370
              -2
390
0
  6
Continuous
 62
               0
100
AcDbLine
 10
16.564531599999995
 20
-124.2000074
 30
0.0
 11
16.564531599999995
 21
-125.95000389836682
 31
0.0
  0
SOLID
  5
BD
100
AcDbEntity
  8
Dimension
370
              -2
390
0
 62
               0
100
AcDbTrace
 10
16.564531599999995
 20
-124.2000074
 30
0.0
 11
16.7772162714922
 21
-124.99375739999999
 31
0.0
 12
16.35184692850779
 22
-124.99375739999999
 32
0.0
 13
16.35184692850779
 23
-124.99375739999999
 33
0.0
  0
WIPEOUT
  5
BE
100
AcDbEntity
  8
Dimension
370
              -2
390
0
  6
Continuous
 62
               0
 92
        0
100
AcDbWipeout
 90
        0
 10
14.46551448721508
 20
59.065106099999994
 30
0.0
 11
4.1980342255698311
 21
0.0
 31
0.0
 12
0.0
 22
4.1980342255698311
 32
0.0
 13
1.0
 23
1.0
340
0
 70
               7
280
               1
281
              50
282
              50
283
               0
360
0
 71
               2
 91
        5
 14
-0.5
 24
43.934848122337421
 14
0.4999999999999996
 24
43.934848122337421
 14
0.4999999999999996
 24
43.693251473643514
 14
-0.5
 24
43.693251473643514
 14
-0.5
 24
43.934848122337421
  0
MTEXT
  5
BF
100
AcDbEntity
  8
Dimension
390
0
 62
               0
100
AcDbMText
 10
14.46551448721508
 20
-122.42379024374999
 30
0.0
 40
0.6315976562499999
 41
0.0
 71
               1
 72
               1
  1
2.8625mm
  7
Helvetica
 73
               1
 44
0.9673603504928808
  0
POINT
  5
C0
100
AcDbEntity
  8
Defpoints
370
               0
390
0
 62
               0
100
AcDbPoint
 10
23.959871599999992
 20
-124.2000074
 30
0.0
  0
POINT
  5
C1
100
AcDbEntity
  8
Defpoints
370
               0
390
0
 62
               0
100
AcDbPoint
 10
20.847371599999995
 20
-121.33750739999999
 30
0.0
  0
POINT
  5
C2
100
AcDbEntity
  8
Defpoints
370
               0
390
0
 62
               0
100
AcDbPoint
 10
16.564531599999995
 20
-121.33750739999999
 30
0.0
  0
ENDBLK
  5
C3
100
AcDbEntity
  8
Dimension
390
0
100
AcDbBlockEnd
  0
BLOCK
  5
C4
100
AcDbEntity
  8
Dimension
390
0
100
AcDbBlockBegin
  2
*D6
 70
               1
 10
0.0
 20
0.0
 30
0.0
  3
*D6
  1

  0
LINE
  5
C5
100
AcDbEntity
  8
Dimension
370
              -2
390
0
  6
Continuous
 62
               0
100
AcDbLine
 10
23.959871599999992
 20
-123.72375739881721
 30
0.0
 11
23.959871599999992
 21
-114.77166739763445
 31
0.0
  0
LINE
  5
C6
100
AcDbEntity
  8
Dimension
370
              -2
390
0
  6
Continuous
 62
               0
100
AcDbLine
 10
20.847371599999995
 20
-120.86125739881723
 30
0.0
 11
20.847371599999995
 21
-114.77166739763445
 31
0.0
  0
LINE
  5
C7
100
AcDbEntity
  8
Dimension
370
              -2
390
0
  6
Continuous
 62
               0
100
AcDbLine
 10
20.847371599999995
 20
-115.7241674
 30
0.0
 11
23.959871599999992
 21
-115.7241674
 31
0.0
  0
LINE
  5
C8
100
AcDbEntity
  8
Dimension
370
              -2
390
0
  6
Continuous
 62
               0
100
AcDbLine
 10
23.959871599999992
 20
-115.7241674
 30
0.0
 11
25.709871599999992
 21
-115.7241674
 31
0.0
  0
SOLID
  5
C9
100
AcDbEntity
  8
Dimension
370
              -2
390
0
 62
               0
100
AcDbTrace
 10
23.959871599999992
 20
-115.7241674
 30
0.0
 11
24.753621599999995
 21
-115.51148272850779
 31
0.0
 12
24.753621599999995
 22
-115.93685207149221
 32
0.0
 13
24.753621599999995
 23
-115.93685207149221
 33
0.0
  0
LINE
  5
CA
100
AcDbEntity
  8
Dimension
370
              -2
390
0
  6
Continuous
 62
               0
100
AcDbLine
 10
20.847371599999995
 20
-115.7241674
 30
0.0
 11
19.097375101633176
 21
-115.7241674
 31
0.0
  0
SOLID
  5
CB
100
AcDbEntity
  8
Dimension
370
              -2
390
0
 62
               0
100
AcDbTrace
 10
20.847371599999995
 20
-115.7241674
 30
0.0
 11
20.053621599999992
 21
-115.93685207149221
 31
0.0
 12
20.053621599999992
 22
-115.51148272850779
 32
0.0
 13
20.053621599999992
 23
-115.51148272850779
 33
0.0
  0
WIPEOUT
  5
CC
100
AcDbEntity
  8
Dimension
370
              -2
390
0
  6
Continuous
 62
               0
 92
        0
100
AcDbWipeout
 90
        0
 10
25.709871599999992
 20
66.109696099999994
 30
0.0
 11
4.1980342255698311
 21
0.0
 31
0.0
 12
0.0
 22
4.1980342255698311
 32
0.0
 13
1.0
 23
1.0
340
0
 70
               7
280
               1
281
              50
282
              50
283
               0
360
0
 71
               2
 91
        5
 14
-0.5
 24
43.934848122337421
 14
0.5
 24
43.934848122337421
 14
0.5
 24
43.693251473643514
 14
-0.5
 24
43.693251473643514
 14
-0.5
 24
43.934848122337421
  0
MTEXT
  5
CD
100
AcDbEntity
  8
Dimension
390
0
 62
               0
100
AcDbMText
 10
25.709871599999992
 20
-115.37920024374999
 30
0.0
 40
0.6315976562499999
 41
0.0
 71
               1
 72
               1
  1
3.1125mm
  7
Helvetica
 73
               1
 44
0.9673603504928808
  0
POINT
  5
CE
100
AcDbEntity
  8
Defpoints
370
               0
390
0
 62
               0
100
AcDbPoint
 10
20.847371599999995
 20
-121.33750739999999
 30
0.0
  0
POINT
  5
CF
100
AcDbEntity
  8
Defpoints
370
               0
390
0
 62
               0
100
AcDbPoint
 10
23.959871599999992
 20
-124.2000074
 30
0.0
  0
POINT
  5
D0
100
AcDbEntity
  8
Defpoints
370
               0
390
0
 62
               0
100
AcDbPoint
 10
23.959871599999992
 20
-115.7241674
 30
0.0
  0
ENDBLK
  5
D1
100
AcDbEntity
  8
Dimension
390
0
100
AcDbBlockEnd
  0
BLOCK
  5
D2
100
AcDbEntity
  8
Dimension
390
0
100
AcDbBlockBegin
  2
*D7
 70
               1
 10
0.0
 20
0.0
 30
0.0
  3
*D7
  1

  0
LINE
  5
D3
100
AcDbEntity
  8
Dimension
370
              -2
390
0
  6
Continuous
 62
               0
100
AcDbLine
 10
26.959871599999992
 20
-123.72375739881721
 30
0.0
 11
26.959871599999992
 21
-116.73767739763444
 31
0.0
  0
LINE
  5
D4
100
AcDbEntity
  8
Dimension
370
              -2
390
0
  6
Continuous
 62
               0
100
AcDbLine
 10
27.459871599999992
 20
-123.72375739881721
 30
0.0
 11
27.459871599999992
 21
-116.73767739763443
 31
0.0
  0
LINE
  5
D5
100
AcDbEntity
  8
Dimension
370
              -2
390
0
  6
Continuous
 62
               0
100
AcDbLine
 10
27.459871599999992
 20
-117.6901774
 30
0.0
 11
26.959871599999992
 21
-117.6901774
 31
0.0
  0
LINE
  5
D6
100
AcDbEntity
  8
Dimension
370
              -2
390
0
  6
Continuous
 62
               0
100
AcDbLine
 10
26.959871599999992
 20
-117.6901774
 30
0.0
 11
25.209875101633177
 21
-117.6901774
 31
0.0
  0
SOLID
  5
D7
100
AcDbEntity
  8
Dimension
370
              -2
390
0
 62
               0
100
AcDbTrace
 10
26.959871599999992
 20
-117.6901774
 30
0.0
 11
26.166121599999993
 21
-117.90286207149219
 31
0.0
 12
26.166121599999993
 22
-117.4774927285078
 32
0.0
 13
26.166121599999993
 23
-117.4774927285078
 33
0.0
  0
LINE
  5
D8
100
AcDbEntity
  8
Dimension
370
              -2
390
0
  6
Continuous
 62
               0
100
AcDbLine
 10
27.459871599999992
 20
-117.6901774
 30
0.0
 11
29.136171599999994
 21
-117.6901774
 31
0.0
  0
SOLID
  5
D9
100
AcDbEntity
  8
Dimension
370
              -2
390
0
 62
               0
100
AcDbTrace
 10
27.459871599999992
 20
-117.6901774
 30
0.0
 11
28.253621599999992
 21
-117.4774927285078
 31
0.0
 12
28.253621599999992
 22
-117.90286207149219
 32
0.0
 13
28.253621599999992
 23
-117.90286207149219
 33
0.0
  0
WIPEOUT
  5
DA
100
AcDbEntity
  8
Dimension
370
              -2
390
0
  6
Continuous
 62
               0
 92
        0
100
AcDbWipeout
 90
        0
 10
29.136171599999994
 20
64.143686099999996
 30
0.0
 11
4.3832417514589093
 21
0.0
 31
0.0
 12
0.0
 22
4.3832417514589093
 32
0.0
 13
1.0
 23
1.0
340
0
 70
               7
280
               1
281
              50
282
              50
283
               0
360
0
 71
               2
 91
        5
 14
-0.5
 24
42.099571581765936
 14
0.4999999999999996
 24
42.099571581765936
 14
0.4999999999999996
 24
41.868183249223605
 14
-0.5
 24
41.868183249223605
 14
-0.5
 24
42.099571581765936
  0
MTEXT
  5
DB
100
AcDbEntity
  8
Dimension
390
0
 62
               0
100
AcDbMText
 10
29.136171599999994
 20
-117.34521024374999
 30
0.0
 40
0.6315976562499999
 41
0.0
 71
               1
 72
               1
  1
0.5mm typ.
  7
Helvetica
 73
               1
 44
0.9673603504928808
  0
POINT
  5
DC
100
AcDbEntity
  8
Defpoints
370
               0
390
0
 62
               0
100
AcDbPoint
 10
27.459871599999992
 20
-124.2000074
 30
0.0
  0
POINT
  5
DD
100
AcDbEntity
  8
Defpoints
370
               0
390
0
 62
               0
100
AcDbPoint
 10
26.959871599999992
 20
-124.2000074
 30
0.0
  0
POINT
  5
DE
100
AcDbEntity
  8
Defpoints
370
               0
390
0
 62
               0
100
AcDbPoint
 10
26.959871599999992
 20
-117.6901774
 30
0.0
  0
ENDBLK
  5
DF
100
AcDbEntity
  8
Dimension
390
0
100
AcDbBlockEnd
  0
BLOCK
  5
E0
100
AcDbEntity
  8
Dimension
390
0
100
AcDbBlockBegin
  2
*D8
 70
               1
 10
0.0
 20
0.0
 30
0.0
  3
*D8
  1

  0
LINE
  5
E1
100
AcDbEntity
  8
Dimension
370
              -2
390
0
  6
Continuous
 62
               0
100
AcDbLine
 10
20.371121598817215
 20
-131.06250739999999
 30
0.0
 11
15.612031597634434
 21
-131.06250739999999
 31
0.0
  0
LINE
  5
E2
100
AcDbEntity
  8
Dimension
370
              -2
390
0
  6
Continuous
 62
               0
100
AcDbLine
 10
20.371121598817215
 20
-128.06250739999999
 30
0.0
 11
15.612031597634436
 21
-128.06250739999999
 31
0.0
  0
LINE
  5
E3
100
AcDbEntity
  8
Dimension
370
              -2
390
0
  6
Continuous
 62
               0
100
AcDbLine
 10
16.564531599999995
 20
-128.06250739999999
 30
0.0
 11
16.564531599999995
 21
-131.06250739999999
 31
0.0
  0
LINE
  5
E4
100
AcDbEntity
  8
Dimension
370
              -2
390
0
  6
Continuous
 62
               0
100
AcDbLine
 10
16.564531599999995
 20
-131.06250739999999
 30
0.0
 11
16.564531599999995
 21
-132.8125038983668
 31
0.0
  0
SOLID
  5
E5
100
AcDbEntity
  8
Dimension
370
              -2
390
0
 62
               0
100
AcDbTrace
 10
16.564531599999995
 20
-131.06250739999999
 30
0.0
 11
16.7772162714922
 21
-131.8562574
 31
0.0
 12
16.35184692850779
 22
-131.8562574
 32
0.0
 13
16.35184692850779
 23
-131.8562574
 33
0.0
  0
LINE
  5
E6
100
AcDbEntity
  8
Dimension
370
              -2
390
0
  6
Continuous
 62
               0
100
AcDbLine
 10
16.564531599999995
 20
-128.06250739999999
 30
0.0
 11
16.564531599999995
 21
-126.31251090163317
 31
0.0
  0
SOLID
  5
E7
100
AcDbEntity
  8
Dimension
370
              -2
390
0
 62
               0
100
AcDbTrace
 10
16.564531599999995
 20
-128.06250739999999
 30
0.0
 11
16.35184692850779
 21
-127.2687574
 31
0.0
 12
16.7772162714922
 22
-127.2687574
 32
0.0
 13
16.7772162714922
 23
-127.2687574
 33
0.0
  0
WIPEOUT
  5
E8
100
AcDbEntity
  8
Dimension
370
              -2
390
0
  6
Continuous
 62
               0
 92
        0
100
AcDbWipeout
 90
        0
 10
15.576758801461787
 20
52.436563009179679
 30
0.0
 11
1.9755455970764153
 21
0.0
 31
0.0
 12
0.0
 22
1.9755455970764153
 32
0.0
 13
1.0
 23
1.0
340
0
 70
               7
280
               1
281
              50
282
              50
283
               0
360
0
 71
               2
 91
        5
 14
-0.5
 24
92.799048561493123
 14
0.5000000000000009
 24
92.799048561493123
 14
0.5000000000000009
 24
92.285655703590507
 14
-0.5
 24
92.285655703590507
 14
-0.5
 24
92.799048561493123
  0
MTEXT
  5
E9
100
AcDbEntity
  8
Dimension
390
0
 62
               0
100
AcDbMText
 10
15.576758801461787
 20
-129.05233333457031
 30
0.0
 40
0.6315976562499999
 41
0.0
 71
               1
 72
               1
  1
3mm
  7
Helvetica
 73
               1
 44
0.9673603504928808
  0
POINT
  5
EA
100
AcDbEntity
  8
Defpoints
370
               0
390
0
 62
               0
100
AcDbPoint
 10
20.847371599999995
 20
-128.06250739999999
 30
0.0
  0
POINT
  5
EB
100
AcDbEntity
  8
Defpoints
370
               0
390
0
 62
               0
100
AcDbPoint
 10
20.847371599999995
 20
-131.06250739999999
 30
0.0
  0
POINT
  5
EC
100
AcDbEntity
  8
Defpoints
370
               0
390
0
 62
               0
100
AcDbPoint
 10
16.564531599999995
 20
-131.06250739999999
 30
0.0
  0
ENDBLK
  5
ED
100
AcDbEntity
  8
Dimension
390
0
100
AcDbBlockEnd
  0
BLOCK
  5
EE
100
AcDbEntity
  8
Dimension
390
0
100
AcDbBlockBegin
  2
*D9
 70
               1
 10
0.0
 20
0.0
 30
0.0
  3
*D9
  1

  0
LINE
  5
EF
100
AcDbEntity
  8
Dimension
370
              -2
390
0
  6
Continuous
 62
               0
100
AcDbLine
 10
31.048621601182774
 20
-121.33750739999999
 30
0.0
 11
35.452361602365549
 21
-121.33750739999999
 31
0.0
  0
LINE
  5
F0
100
AcDbEntity
  8
Dimension
370
              -2
390
0
  6
Continuous
 62
               0
100
AcDbLine
 10
31.048621601182774
 20
-123.33750739999999
 30
0.0
 11
35.452361602365549
 21
-123.33750739999999
 31
0.0
  0
LINE
  5
F1
100
AcDbEntity
  8
Dimension
370
              -2
390
0
  6
Continuous
 62
               0
100
AcDbLine
 10
34.499861599999988
 20
-123.33750739999999
 30
0.0
 11
34.499861599999988
 21
-121.33750739999999
 31
0.0
  0
LINE
  5
F2
100
AcDbEntity
  8
Dimension
370
              -2
390
0
  6
Continuous
 62
               0
100
AcDbLine
 10
34.499861599999988
 20
-121.33750739999999
 30
0.0
 11
34.499861599999988
 21
-119.58751090163318
 31
0.0
  0
SOLID
  5
F3
100
AcDbEntity
  8
Dimension
370
              -2
390
0
 62
               0
100
AcDbTrace
 10
34.499861599999988
 20
-121.33750739999999
 30
0.0
 11
34.28717692850779
 21
-120.5437574
 31
0.0
 12
34.712546271492194
 22
-120.5437574
 32
0.0
 13
34.712546271492194
 23
-120.5437574
 33
0.0
  0
LINE
  5
F4
100
AcDbEntity
  8
Dimension
370
              -2
390
0
  6
Continuous
 62
               0
100
AcDbLine
 10
34.499861599999988
 20
-123.33750739999999
 30
0.0
 11
34.499861599999988
 21
-125.0875038983668
 31
0.0
  0
SOLID
  5
F5
100
AcDbEntity
  8
Dimension
370
              -2
390
0
 62
               0
100
AcDbTrace
 10
34.499861599999988
 20
-123.33750739999999
 30
0.0
 11
34.712546271492194
 21
-124.1312574
 31
0.0
 12
34.28717692850779
 22
-124.1312574
 32
0.0
 13
34.28717692850779
 23
-124.1312574
 33
0.0
  0
WIPEOUT
  5
F6
100
AcDbEntity
  8
Dimension
370
              -2
390
0
  6
Continuous
 62
               0
 92
        0
100
AcDbWipeout
 90
        0
 10
33.512088801461786
 20
59.4963561
 30
0.0
 11
1.9755455970764153
 21
0.0
 31
0.0
 12
0.0
 22
1.9755455970764153
 32
0.0
 13
1.0
 23
1.0
340
0
 70
               7
280
               1
281
              50
282
              50
283
               0
360
0
 71
               2
 91
        5
 14
-0.5
 24
92.799048561493137
 14
0.4999999999999982
 24
92.799048561493137
 14
0.4999999999999982
 24
92.285655703590521
 14
-0.5
 24
92.285655703590521
 14
-0.5
 24
92.799048561493137
  0
MTEXT
  5
F7
100
AcDbEntity
  8
Dimension
390
0
 62
               0
100
AcDbMText
 10
33.512088801461786
 20
-121.99254024374999
 30
0.0
 40
0.6315976562499999
 41
0.0
 71
               1
 72
               1
  1
2mm
  7
Helvetica
 73
               1
 44
0.9673603504928808
  0
POINT
  5
F8
100
AcDbEntity
  8
Defpoints
370
               0
390
0
 62
               0
100
AcDbPoint
 10
30.572371599999993
 20
-123.33750739999999
 30
0.0
  0
POINT
  5
F9
100
AcDbEntity
  8
Defpoints
370
               0
390
0
 62
               0
100
AcDbPoint
 10
30.572371599999993
 20
-121.33750739999999
 30
0.0
  0
POINT
  5
FA
100
AcDbEntity
  8
Defpoints
370
               0
390
0
 62
               0
100
AcDbPoint
 10
34.499861599999988
 20
-121.33750739999999
 30
0.0
  0
ENDBLK
  5
FB
100
AcDbEntity
  8
Dimension
390
0
100
AcDbBlockEnd
  0
BLOCK
  5
FC
100
AcDbEntity
  8
Dimension
390
0
100
AcDbBlockBegin
  2
*D10
 70
               1
 10
0.0
 20
0.0
 30
0.0
  3
*D10
  1

  0
LINE
  5
FD
100
AcDbEntity
  8
Dimension
370
              -2
390
0
  6
Continuous
 62
               0
100
AcDbLine
 10
20.847371599999995
 20
-131.53875740118278
 30
0.0
 11
20.847371599999995
 21
-138.90510740236556
 31
0.0
  0
LINE
  5
FE
100
AcDbEntity
  8
Dimension
370
              -2
390
0
  6
Continuous
 62
               0
100
AcDbLine
 10
30.572371599999993
 20
-131.53875740118278
 30
0.0
 11
30.572371599999993
 21
-138.90510740236556
 31
0.0
  0
LINE
  5
FF
100
AcDbEntity
  8
Dimension
370
              -2
390
0
  6
Continuous
 62
               0
100
AcDbLine
 10
20.847371599999995
 20
-137.95260740000001
 30
0.0
 11
30.572371599999993
 21
-137.95260740000001
 31
0.0
  0
SOLID
  5
100
100
AcDbEntity
  8
Dimension
370
              -2
390
0
 62
               0
100
AcDbTrace
 10
20.847371599999995
 20
-137.95260740000001
 30
0.0
 11
21.641121599999995
 21
-137.73992272850779
 31
0.0
 12
21.641121599999995
 22
-138.16529207149219
 32
0.0
 13
21.641121599999995
 23
-138.16529207149219
 33
0.0
  0
SOLID
  5
101
100
AcDbEntity
  8
Dimension
370
              -2
390
0
 62
               0
100
AcDbTrace
 10
30.572371599999993
 20
-137.95260740000001
 30
0.0
 11
29.778621599999994
 21
-138.16529207149219
 31
0.0
 12
29.778621599999994
 22
-137.73992272850779
 32
0.0
 13
29.778621599999994
 23
-137.73992272850779
 33
0.0
  0
WIPEOUT
  5
102
100
AcDbEntity
  8
Dimension
370
              -2
390
0
  6
Continuous
 62
               0
 92
        0
100
AcDbWipeout
 90
        0
 10
23.094380506470397
 20
43.881256099999987
 30
0.0
 11
5.4592086580064558
 21
0.0
 31
0.0
 12
0.0
 22
5.4592086580064558
 32
0.0
 13
1.0
 23
1.0
340
0
 70
               7
280
               1
281
              50
282
              50
283
               0
360
0
 71
               2
 91
        5
 14
-0.5
 24
33.90062460015691
 14
0.5000000000000002
 24
33.90062460015691
 14
0.5000000000000002
 24
33.71484108032157
 14
-0.5
 24
33.71484108032157
 14
-0.5
 24
33.90062460015691
  0
MTEXT
  5
103
100
AcDbEntity
  8
Dimension
390
0
 62
               0
100
AcDbMText
 10
23.094380506470397
 20
-137.60764024374998
 30
0.0
 40
0.6315976562499999
 41
0.0
 71
               1
 72
               1
  1
9.725mm (x4)
  7
Helvetica
 73
               1
 44
0.9673603504928808
  0
POINT
  5
104
100
AcDbEntity
  8
Defpoints
370
               0
390
0
 62
               0
100
AcDbPoint
 10
30.572371599999993
 20
-131.06250739999999
 30
0.0
  0
POINT
  5
105
100
AcDbEntity
  8
Defpoints
370
               0
390
0
 62
               0
100
AcDbPoint
 10
20.847371599999995
 20
-131.06250739999999
 30
0.0
  0
POINT
  5
106
100
AcDbEntity
  8
Defpoints
370
               0
390
0
 62
               0
100
AcDbPoint
 10
20.847371599999995
 20
-137.95260740000001
 30
0.0
  0
ENDBLK
  5
107
100
AcDbEntity
  8
Dimension
390
0
100
AcDbBlockEnd
  0
BLOCK
  5
108
100
AcDbEntity
  8
Dimension
390
0
100
AcDbBlockBegin
  2
*D11
 70
               1
 10
0.0
 20
0.0
 30
0.0
  3
*D11
  1

  0
LINE
  5
109
100
AcDbEntity
  8
Dimension
370
              -2
390
0
  6
Continuous
 62
               0
100
AcDbLine
 10
19.597371599999995
 20
-132.78875740118278
 30
0.0
 11
19.597371599999995
 21
-140.87666740236554
 31
0.0
  0
LINE
  5
10A
100
AcDbEntity
  8
Dimension
370
              -2
390
0
  6
Continuous
 62
               0
100
AcDbLine
 10
31.822371599999993
 20
-132.78875740118278
 30
0.0
 11
31.822371599999993
 21
-140.87666740236554
 31
0.0
  0
LINE
  5
10B
100
AcDbEntity
  8
Dimension
370
              -2
390
0
  6
Continuous
 62
               0
100
AcDbLine
 10
19.597371599999995
 20
-139.92416739999999
 30
0.0
 11
31.822371599999993
 21
-139.92416739999999
 31
0.0
  0
SOLID
  5
10C
100
AcDbEntity
  8
Dimension
370
              -2
390
0
 62
               0
100
AcDbTrace
 10
19.597371599999995
 20
-139.92416739999999
 30
0.0
 11
20.391121599999995
 21
-139.7114827285078
 31
0.0
 12
20.391121599999995
 22
-140.1368520714922
 32
0.0
 13
20.391121599999995
 23
-140.1368520714922
 33
0.0
  0
SOLID
  5
10D
100
AcDbEntity
  8
Dimension
370
              -2
390
0
 62
               0
100
AcDbTrace
 10
31.822371599999993
 20
-139.92416739999999
 30
0.0
 11
31.028621599999994
 21
-140.1368520714922
 31
0.0
 12
31.028621599999994
 22
-139.7114827285078
 32
0.0
 13
31.028621599999994
 23
-139.7114827285078
 33
0.0
  0
WIPEOUT
  5
10E
100
AcDbEntity
  8
Dimension
370
              -2
390
0
  6
Continuous
 62
               0
 92
        0
100
AcDbWipeout
 90
        0
 10
22.847485921708675
 20
41.909696099999991
 30
0.0
 11
5.9530947208404541
 21
0.0
 31
0.0
 12
0.0
 22
5.9530947208404541
 32
0.0
 13
1.0
 23
1.0
340
0
 70
               7
280
               1
281
              50
282
              50
283
               0
360
0
 71
               2
 91
        5
 14
-0.5
 24
31.129611580286966
 14
0.5
 24
31.129611580286966
 14
0.5
 24
30.959241201927387
 14
-0.5
 24
30.959241201927387
 14
-0.5
 24
31.129611580286966
  0
MTEXT
  5
10F
100
AcDbEntity
  8
Dimension
390
0
 62
               0
100
AcDbMText
 10
22.847485921708675
 20
-139.57920024374999
 30
0.0
 40
0.6315976562499999
 41
0.0
 71
               1
 72
               1
  1
12.225mm (x4)
  7
Helvetica
 73
               1
 44
0.9673603504928808
  0
POINT
  5
110
100
AcDbEntity
  8
Defpoints
370
               0
390
0
 62
               0
100
AcDbPoint
 10
31.822371599999993
 20
-132.31250739999999
 30
0.0
  0
POINT
  5
111
100
AcDbEntity
  8
Defpoints
370
               0
390
0
 62
               0
100
AcDbPoint
 10
19.597371599999995
 20
-132.31250739999999
 30
0.0
  0
POINT
  5
112
100
AcDbEntity
  8
Defpoints
370
               0
390
0
 62
               0
100
AcDbPoint
 10
19.597371599999995
 20
-139.92416739999999
 30
0.0
  0
ENDBLK
  5
113
100
AcDbEntity
  8
Dimension
390
0
100
AcDbBlockEnd
  0
BLOCK
  5
114
100
AcDbEntity
  8
Dimension
390
0
100
AcDbBlockBegin
  2
*D12
 70
               1
 10
0.0
 20
0.0
 30
0.0
  3
*D12
  1

  0
LINE
  5
115
100
AcDbEntity
  8
Dimension
370
              -2
390
0
  6
Continuous
 62
               0
100
AcDbLine
 10
30.939121599999993
 20
-123.55226739999999
 30
0.0
 11
35.114526443575443
 21
-125.99730275956938
 31
0.0
  0
SOLID
  5
116
100
AcDbEntity
  8
Dimension
370
              -2
390
0
 62
               0
100
AcDbTrace
 10
30.939121599999993
 20
-123.55226739999999
 30
0.0
 11
31.465604531873144
 21
-123.70323395139539
 31
0.0
 12
31.319585917963359
 22
-123.94624973456672
 32
0.0
 13
31.319585917963359
 23
-123.94624973456672
 33
0.0
  0
LINE
  5
117
100
AcDbEntity
  8
Dimension
370
              -2
390
0
  6
Continuous
 62
               0
100
AcDbLine
 10
35.114526443575443
 20
-125.99730275956938
 30
0.0
 11
36.614523445554944
 21
-125.99730275956938
 31
0.0
  0
WIPEOUT
  5
118
100
AcDbEntity
  8
Dimension
370
              -2
390
0
  6
Continuous
 62
               0
 92
        0
100
AcDbWipeout
 90
        0
 10
36.614523445554944
 20
55.836563295986167
 30
0.0
 11
4.1451180299123127
 21
0.0
 31
0.0
 12
0.0
 22
4.1451180299123127
 32
0.0
 13
1.0
 23
1.0
340
0
 70
               7
280
               1
281
              50
282
              50
283
               0
360
0
 71
               2
 91
        5
 14
-0.5
 24
44.489333399960458
 14
0.4999999999999996
 24
44.489333399960458
 14
0.4999999999999996
 24
44.244652550662309
 14
-0.5
 24
44.244652550662309
 14
-0.5
 24
44.489333399960458
  0
MTEXT
  5
119
100
AcDbEntity
  8
Dimension
390
0
 62
               0
100
AcDbMText
 10
36.614523445554944
 20
-125.65233304776382
 30
0.0
 40
0.6315976562499999
 41
0.0
 71
               1
 72
               1
  1
Ø 0.85mm
  7
Helvetica
 73
               1
 44
0.9673603504928808
  0
WIPEOUT
  5
11A
100
AcDbEntity
  8
Dimension
370
              -2
390
0
  6
Continuous
 62
               0
 92
        0
100
AcDbWipeout
 90
        0
 10
40.759641475467255
 20
55.836561073763946
 30
0.0
 11
4.1892149156994289
 21
0.0
 31
0.0
 12
0.0
 22
4.1892149156994289
 32
0.0
 13
1.0
 23
1.0
340
0
 70
               7
280
               1
281
              50
282
              50
283
               0
360
0
 71
               2
 91
        5
 14
-0.5
 24
44.026288975211592
 14
0.5000000000000004
 24
44.026288975211592
 14
0.5000000000000004
 24
43.784183707181747
 14
-0.5
 24
43.784183707181747
 14
-0.5
 24
44.026288975211592
  0
MTEXT
  5
11B
100
AcDbEntity
  8
Dimension
390
0
 62
               0
100
AcDbMText
 10
40.759641475467255
 20
-125.65233526998604
 30
0.0
 40
0.6315976562499999
 41
0.0
 71
               1
 72
               1
  1
±0.025mm
  7
Helvetica
 73
               1
 44
0.9673603504928808
  0
WIPEOUT
  5
11C
100
AcDbEntity
  8
Dimension
370
              -2
390
0
  6
Continuous
 62
               0
 92
        0
100
AcDbWipeout
 90
        0
 10
44.948856391166686
 20
55.836558184875059
 30
0.0
 11
1.7550694108009353
 21
0.0
 31
0.0
 12
0.0
 22
1.7550694108009353
 32
0.0
 13
1.0
 23
1.0
340
0
 70
               7
280
               1
281
              50
282
              50
283
               0
360
0
 71
               2
 91
        5
 14
-0.5
 24
104.39388469643929
 14
0.5
 24
104.39388469643929
 14
0.5
 24
103.81599523812534
 14
-0.5
 24
103.81599523812534
 14
-0.5
 24
104.39388469643929
  0
MTEXT
  5
11D
100
AcDbEntity
  8
Dimension
390
0
 62
               0
100
AcDbMText
 10
44.948856391166686
 20
-125.65233386489345
 30
0.0
 40
0.6316008391203704
 41
0.0
 71
               1
 72
               1
  1
 (x2)
  7
Helvetica
 73
               1
 44
0.9673603504928805
  0
POINT
  5
11E
100
AcDbEntity
  8
Defpoints
370
               0
390
0
 62
               0
100
AcDbPoint
 10
30.205621599999994
 20
-123.12274739999999
 30
0.0
  0
POINT
  5
11F
100
AcDbEntity
  8
Defpoints
370
               0
390
0
 62
               0
100
AcDbPoint
 10
30.939121599999993
 20
-123.55226739999999
 30
0.0
  0
ENDBLK
  5
120
100
AcDbEntity
  8
Dimension
390
0
100
AcDbBlockEnd
  0
BLOCK
  5
121
100
AcDbEntity
  8
Dimension
390
0
100
AcDbBlockBegin
  2
*D13
 70
               1
 10
0.0
 20
0.0
 30
0.0
  3
*D13
  1

  0
LINE
  5
122
100
AcDbEntity
  8
Dimension
370
              -2
390
0
  6
Continuous
 62
               0
100
AcDbLine
 10
31.290461599999993
 20
-131.4263474
 30
0.0
 11
35.547355611493735
 21
-133.58321944842848
 31
0.0
  0
SOLID
  5
123
100
AcDbEntity
  8
Dimension
370
              -2
390
0
 62
               0
100
AcDbTrace
 10
31.290461599999993
 20
-131.4263474
 30
0.0
 11
31.826192940190694
 21
-131.5402206116498
 31
0.0
 12
31.697481944383721
 22
-131.79283016419461
 32
0.0
 13
31.697481944383721
 23
-131.79283016419461
 33
0.0
  0
LINE
  5
124
100
AcDbEntity
  8
Dimension
370
              -2
390
0
  6
Continuous
 62
               0
100
AcDbLine
 10
35.547355611493735
 20
-133.58321944842848
 30
0.0
 11
37.047352613473237
 21
-133.58321944842848
 31
0.0
  0
WIPEOUT
  5
125
100
AcDbEntity
  8
Dimension
370
              -2
390
0
  6
Continuous
 62
               0
 92
        0
100
AcDbWipeout
 90
        0
 10
37.047352613473237
 20
48.250646607127067
 30
0.0
 11
4.1451180299123127
 21
0.0
 31
0.0
 12
0.0
 22
4.1451180299123127
 32
0.0
 13
1.0
 23
1.0
340
0
 70
               7
280
               1
281
              50
282
              50
283
               0
360
0
 71
               2
 91
        5
 14
-0.5
 24
44.489333399960458
 14
0.4999999999999996
 24
44.489333399960458
 14
0.4999999999999996
 24
44.244652550662309
 14
-0.5
 24
44.244652550662309
 14
-0.5
 24
44.489333399960458
  0
MTEXT
  5
126
100
AcDbEntity
  8
Dimension
390
0
 62
               0
100
AcDbMText
 10
37.047352613473237
 20
-133.23824973662292
 30
0.0
 40
0.6315976562499999
 41
0.0
 71
               1
 72
               1
  1
Ø 1.61mm
  7
Helvetica
 73
               1
 44
0.9673603504928808
  0
WIPEOUT
  5
127
100
AcDbEntity
  8
Dimension
370
              -2
390
0
  6
Continuous
 62
               0
 92
        0
100
AcDbWipeout
 90
        0
 10
41.192470643385548
 20
48.250644384904845
 30
0.0
 11
3.6953285164303242
 21
0.0
 31
0.0
 12
0.0
 22
3.6953285164303242
 32
0.0
 13
1.0
 23
1.0
340
0
 70
               7
280
               1
281
              50
282
              50
283
               0
360
0
 71
               2
 91
        5
 14
-0.5
 24
49.843645142581479
 14
0.4999999999999996
 24
49.843645142581479
 14
0.4999999999999996
 24
49.56918212921461
 14
-0.5
 24
49.56918212921461
 14
-0.5
 24
49.843645142581479
  0
MTEXT
  5
128
100
AcDbEntity
  8
Dimension
390
0
 62
               0
100
AcDbMText
 10
41.192470643385548
 20
-133.23825195884515
 30
0.0
 40
0.6315976562499999
 41
0.0
 71
               1
 72
               1
  1
±0.05mm
  7
Helvetica
 73
               1
 44
0.9673603504928808
  0
WIPEOUT
  5
129
100
AcDbEntity
  8
Dimension
370
              -2
390
0
  6
Continuous
 62
               0
 92
        0
100
AcDbWipeout
 90
        0
 10
44.88779915981587
 20
48.250641496015952
 30
0.0
 11
1.7550694108009353
 21
0.0
 31
0.0
 12
0.0
 22
1.7550694108009353
 32
0.0
 13
1.0
 23
1.0
340
0
 70
               7
280
               1
281
              50
282
              50
283
               0
360
0
 71
               2
 91
        5
 14
-0.5
 24
104.39388469643929
 14
0.500000000000004
 24
104.39388469643929
 14
0.500000000000004
 24
103.81599523812534
 14
-0.5
 24
103.81599523812534
 14
-0.5
 24
104.39388469643929
  0
MTEXT
  5
12A
100
AcDbEntity
  8
Dimension
390
0
 62
               0
100
AcDbMText
 10
44.88779915981587
 20
-133.23825055375255
 30
0.0
 40
0.6316008391203704
 41
0.0
 71
               1
 72
               1
  1
 (x4)
  7
Helvetica
 73
               1
 44
0.9673603504928805
  0
POINT
  5
12B
100
AcDbEntity
  8
Defpoints
370
               0
390
0
 62
               0
100
AcDbPoint
 10
29.854281599999993
 20
-130.69866740000001
 30
0.0
  0
POINT
  5
12C
100
AcDbEntity
  8
Defpoints
370
               0
390
0
 62
               0
100
AcDbPoint
 10
31.290461599999993
 20
-131.4263474
 30
0.0
  0
ENDBLK
  5
12D
100
AcDbEntity
  8
Dimension
390
0
100
AcDbBlockEnd
  0
BLOCK
  5
12E
100
AcDbEntity
  8
Dimension
390
0
100
AcDbBlockBegin
  2
*D14
 70
               1
 10
0.0
 20
0.0
 30
0.0
  3
*D14
  1

  0
LINE
  5
12F
100
AcDbEntity
  8
Dimension
370
              -2
390
0
  6
Continuous
 62
               0
100
AcDbLine
 10
23.959871599999992
 20
-128.67625740118277
 30
0.0
 11
23.959871599999992
 21
-136.99666740236555
 31
0.0
  0
LINE
  5
130
100
AcDbEntity
  8
Dimension
370
              -2
390
0
  6
Continuous
 62
               0
100
AcDbLine
 10
27.959871599999992
 20
-128.67625740118277
 30
0.0
 11
27.959871599999992
 21
-136.99666740236555
 31
0.0
  0
LINE
  5
131
100
AcDbEntity
  8
Dimension
370
              -2
390
0
  6
Continuous
 62
               0
100
AcDbLine
 10
27.959871599999992
 20
-136.04416739999999
 30
0.0
 11
23.959871599999992
 21
-136.04416739999999
 31
0.0
  0
LINE
  5
132
100
AcDbEntity
  8
Dimension
370
              -2
390
0
  6
Continuous
 62
               0
100
AcDbLine
 10
23.959871599999992
 20
-136.04416739999999
 30
0.0
 11
22.209875101633177
 21
-136.04416739999999
 31
0.0
  0
SOLID
  5
133
100
AcDbEntity
  8
Dimension
370
              -2
390
0
 62
               0
100
AcDbTrace
 10
23.959871599999992
 20
-136.04416739999999
 30
0.0
 11
23.166121599999993
 21
-136.2568520714922
 31
0.0
 12
23.166121599999993
 22
-135.83148272850778
 32
0.0
 13
23.166121599999993
 23
-135.83148272850778
 33
0.0
  0
LINE
  5
134
100
AcDbEntity
  8
Dimension
370
              -2
390
0
  6
Continuous
 62
               0
100
AcDbLine
 10
27.959871599999992
 20
-136.04416739999999
 30
0.0
 11
29.709868098366812
 21
-136.04416739999999
 31
0.0
  0
SOLID
  5
135
100
AcDbEntity
  8
Dimension
370
              -2
390
0
 62
               0
100
AcDbTrace
 10
27.959871599999992
 20
-136.04416739999999
 30
0.0
 11
28.753621599999992
 21
-135.83148272850778
 31
0.0
 12
28.753621599999992
 22
-136.2568520714922
 32
0.0
 13
28.753621599999992
 23
-136.2568520714922
 33
0.0
  0
WIPEOUT
  5
136
100
AcDbEntity
  8
Dimension
370
              -2
390
0
  6
Continuous
 62
               0
 92
        0
100
AcDbWipeout
 90
        0
 10
24.972098801461787
 20
45.789696099999986
 30
0.0
 11
1.975545597076416
 21
0.0
 31
0.0
 12
0.0
 22
1.975545597076416
 32
0.0
 13
1.0
 23
1.0
340
0
 70
               7
280
               1
281
              50
282
              50
283
               0
360
0
 71
               2
 91
        5
 14
-0.5
 24
92.799048561493095
 14
0.4999999999999997
 24
92.799048561493095
 14
0.4999999999999997
 24
92.285655703590464
 14
-0.5
 24
92.285655703590464
 14
-0.5
 24
92.799048561493095
  0
MTEXT
  5
137
100
AcDbEntity
  8
Dimension
390
0
 62
               0
100
AcDbMText
 10
24.972098801461787
 20
-135.69920024375
 30
0.0
 40
0.6315976562499999
 41
0.0
 71
               1
 72
               1
  1
4mm
  7
Helvetica
 73
               1
 44
0.9673603504928808
  0
POINT
  5
138
100
AcDbEntity
  8
Defpoints
370
               0
390
0
 62
               0
100
AcDbPoint
 10
27.959871599999992
 20
-128.2000074
 30
0.0
  0
POINT
  5
139
100
AcDbEntity
  8
Defpoints
370
               0
390
0
 62
               0
100
AcDbPoint
 10
23.959871599999992
 20
-128.2000074
 30
0.0
  0
POINT
  5
13A
100
AcDbEntity
  8
Defpoints
370
               0
390
0
 62
               0
100
AcDbPoint
 10
23.959871599999992
 20
-136.04416739999999
 30
0.0
  0
ENDBLK
  5
13B
100
AcDbEntity
  8
Dimension
390
0
100
AcDbBlockEnd
  0
BLOCK
  5
13C
100
AcDbEntity
  8
Dimension
390
0
100
AcDbBlockBegin
  2
*D15
 70
               1
 10
0.0
 20
0.0
 30
0.0
  3
*D15
  1

  0
LINE
  5
13D
100
AcDbEntity
  8
Dimension
370
              -2
390
0
  6
Continuous
 62
               0
100
AcDbLine
 10
23.483621598817216
 20
-124.2000074
 30
0.0
 11
12.994871597634436
 21
-124.2000074
 31
0.0
  0
LINE
  5
13E
100
AcDbEntity
  8
Dimension
370
              -2
390
0
  6
Continuous
 62
               0
100
AcDbLine
 10
23.483621598817216
 20
-128.2000074
 30
0.0
 11
12.994871597634434
 21
-128.2000074
 31
0.0
  0
LINE
  5
13F
100
AcDbEntity
  8
Dimension
370
              -2
390
0
  6
Continuous
 62
               0
100
AcDbLine
 10
13.947371599999993
 20
-128.2000074
 30
0.0
 11
13.947371599999993
 21
-124.2000074
 31
0.0
  0
LINE
  5
140
100
AcDbEntity
  8
Dimension
370
              -2
390
0
  6
Continuous
 62
               0
100
AcDbLine
 10
13.947371599999993
 20
-124.2000074
 30
0.0
 11
13.947371599999993
 21
-122.45001090163318
 31
0.0
  0
SOLID
  5
141
100
AcDbEntity
  8
Dimension
370
              -2
390
0
 62
               0
100
AcDbTrace
 10
13.947371599999993
 20
-124.2000074
 30
0.0
 11
13.73468692850779
 21
-123.40625739999999
 31
0.0
 12
14.160056271492197
 22
-123.40625739999999
 32
0.0
 13
14.160056271492197
 23
-123.40625739999999
 33
0.0
  0
LINE
  5
142
100
AcDbEntity
  8
Dimension
370
              -2
390
0
  6
Continuous
 62
               0
100
AcDbLine
 10
13.947371599999993
 20
-128.2000074
 30
0.0
 11
13.947371599999993
 21
-129.95000389836682
 31
0.0
  0
SOLID
  5
143
100
AcDbEntity
  8
Dimension
370
              -2
390
0
 62
               0
100
AcDbTrace
 10
13.947371599999993
 20
-128.2000074
 30
0.0
 11
14.160056271492197
 21
-128.99375739999999
 31
0.0
 12
13.73468692850779
 22
-128.99375739999999
 32
0.0
 13
13.73468692850779
 23
-128.99375739999999
 33
0.0
  0
WIPEOUT
  5
144
100
AcDbEntity
  8
Dimension
370
              -2
390
0
  6
Continuous
 62
               0
 92
        0
100
AcDbWipeout
 90
        0
 10
12.959598801461786
 20
54.933843892968738
 30
0.0
 11
1.9755455970764153
 21
0.0
 31
0.0
 12
0.0
 22
1.9755455970764153
 32
0.0
 13
1.0
 23
1.0
340
0
 70
               7
280
               1
281
              50
282
              50
283
               0
360
0
 71
               2
 91
        5
 14
-0.5
 24
92.799048561493137
 14
0.5
 24
92.799048561493137
 14
0.5
 24
92.285655703590521
 14
-0.5
 24
92.285655703590521
 14
-0.5
 24
92.799048561493137
  0
MTEXT
  5
145
100
AcDbEntity
  8
Dimension
390
0
 62
               0
100
AcDbMText
 10
12.959598801461786
 20
-126.55505245078125
 30
0.0
 40
0.6315976562499999
 41
0.0
 71
               1
 72
               1
  1
4mm
  7
Helvetica
 73
               1
 44
0.9673603504928808
  0
POINT
  5
146
100
AcDbEntity
  8
Defpoints
370
               0
390
0
 62
               0
100
AcDbPoint
 10
23.959871599999992
 20
-128.2000074
 30
0.0
  0
POINT
  5
147
100
AcDbEntity
  8
Defpoints
370
               0
390
0
 62
               0
100
AcDbPoint
 10
23.959871599999992
 20
-124.2000074
 30
0.0
  0
POINT
  5
148
100
AcDbEntity
  8
Defpoints
370
               0
390
0
 62
               0
100
AcDbPoint
 10
13.947371599999993
 20
-124.2000074
 30
0.0
  0
ENDBLK
  5
149
100
AcDbEntity
  8
Dimension
390
0
100
AcDbBlockEnd
  0
BLOCK
  5
14A
100
AcDbEntity
  8
None
390
0
100
AcDbBlockBegin
  2
Group
 70
               0
 10
0.0
 20
0.0
 30
0.0
  3
Group
  1

  0
LINE
  5
14B
100
AcDbEntity
  8
None
370
               9
390
0
  6
STYLE_17
 62
             152
100
AcDbLine
 10
-1.1545399999999999
 20
20.27656
 30
0.0
 11
-1.1545399999999999
 21
38.276559999999996
 31
0.0
  0
LINE
  5
14C
100
AcDbEntity
  8
None
370
               9
390
0
  6
STYLE_17
 62
             152
100
AcDbLine
 10
-10.154539999999999
 20
29.276559999999996
 30
0.0
 11
7.8454599999999992
 21
29.276559999999996
 31
0.0
  0
ENDBLK
  5
14D
100
AcDbEntity
  8
None
390
0
100
AcDbBlockEnd
  0
BLOCK
  5
14E
100
AcDbEntity
  8
Dimension
390
0
100
AcDbBlockBegin
  2
*D17
 70
               1
 10
0.0
 20
0.0
 30
0.0
  3
*D17
  1

  0
LINE
  5
14F
100
AcDbEntity
  8
Dimension
370
              -2
390
0
  6
Continuous
 62
               0
100
AcDbLine
 10
18.347371599999995
 20
-134.03875740118278
 30
0.0
 11
18.347371599999995
 21
-142.82665740236556
 31
0.0
  0
LINE
  5
150
100
AcDbEntity
  8
Dimension
370
              -2
390
0
  6
Continuous
 62
               0
100
AcDbLine
 10
33.07237159999999
 20
-134.03875740118278
 30
0.0
 11
33.07237159999999
 21
-142.82665740236556
 31
0.0
  0
LINE
  5
151
100
AcDbEntity
  8
Dimension
370
              -2
390
0
  6
Continuous
 62
               0
100
AcDbLine
 10
18.347371599999995
 20
-141.8741574
 30
0.0
 11
33.07237159999999
 21
-141.8741574
 31
0.0
  0
SOLID
  5
152
100
AcDbEntity
  8
Dimension
370
              -2
390
0
 62
               0
100
AcDbTrace
 10
18.347371599999995
 20
-141.8741574
 30
0.0
 11
19.141121599999995
 21
-141.66147272850779
 31
0.0
 12
19.141121599999995
 22
-142.08684207149219
 32
0.0
 13
19.141121599999995
 23
-142.08684207149219
 33
0.0
  0
SOLID
  5
153
100
AcDbEntity
  8
Dimension
370
              -2
390
0
 62
               0
100
AcDbTrace
 10
33.07237159999999
 20
-141.8741574
 30
0.0
 11
32.278621599999994
 21
-142.08684207149219
 31
0.0
 12
32.278621599999994
 22
-141.66147272850779
 32
0.0
 13
32.278621599999994
 23
-141.66147272850779
 33
0.0
  0
WIPEOUT
  5
154
100
AcDbEntity
  8
Dimension
370
              -2
390
0
  6
Continuous
 62
               0
 92
        0
100
AcDbWipeout
 90
        0
 10
23.022762277981897
 20
39.959706099999991
 30
0.0
 11
5.4151114357842332
 21
0.0
 31
0.0
 12
0.0
 22
5.4151114357842332
 32
0.0
 13
1.0
 23
1.0
340
0
 70
               7
280
               1
281
              50
282
              50
283
               0
360
0
 71
               2
 91
        5
 14
-0.5
 24
34.172618036085311
 14
0.5
 24
34.172618036085311
 14
0.5
 24
33.985321613467356
 14
-0.5
 24
33.985321613467356
 14
-0.5
 24
34.172618036085311
  0
MTEXT
  5
155
100
AcDbEntity
  8
Dimension
390
0
 62
               0
100
AcDbMText
 10
23.022762277981897
 20
-141.52919024374998
 30
0.0
 40
0.6315976562499999
 41
0.0
 71
               1
 72
               1
  1
14.73mm sqr.
  7
Helvetica
 73
               1
 44
0.9673603504928808
  0
POINT
  5
156
100
AcDbEntity
  8
Defpoints
370
               0
390
0
 62
               0
100
AcDbPoint
 10
33.07237159999999
 20
-133.56250739999999
 30
0.0
  0
POINT
  5
157
100
AcDbEntity
  8
Defpoints
370
               0
390
0
 62
               0
100
AcDbPoint
 10
18.347371599999995
 20
-133.56250739999999
 30
0.0
  0
POINT
  5
158
100
AcDbEntity
  8
Defpoints
370
               0
390
0
 62
               0
100
AcDbPoint
 10
18.347371599999995
 20
-141.8741574
 30
0.0
  0
ENDBLK
  5
159
100
AcDbEntity
  8
Dimension
390
0
100
AcDbBlockEnd
  0
BLOCK
  5
15A
100
AcDbEntity
  8
None
390
0
100
AcDbBlockBegin
  2
Group-1
 70
               0
 10
0.0
 20
0.0
 30
0.0
  3
Group-1
  1

  0
CIRCLE
  5
15B
102
{ACAD_REACTORS
330
15C
102
}
100
AcDbEntity
  8
None
370
               9
390
0
  6
Continuous
 62
               7
100
AcDbCircle
 10
-2.9045399999999999
 20
27.276559999999996
 30
0.0
 40
0.1399986921367483
  0
HATCH
  5
15C
100
AcDbEntity
  8
None
370
               0
390
0
  6
Continuous
 62
               7
100
AcDbHatch
 10
0.0
 20
0.0
 30
0.0
210
0.0
220
0.0
230
1.0
  2
SOLID
 70
               1
 71
               1
 91
        1
 92
        1
 93
        1
 72
               2
 10
-2.9045399999999999
 20
27.276559999999996
 40
0.1399986921367483
 50
0.0
 51
360.0
 73
               0
 97
        1
330
15B
 75
               0
 76
               1
 98
        1
 10
0.0
 20
0.0
  0
CIRCLE
  5
15D
102
{ACAD_REACTORS
330
15E
102
}
100
AcDbEntity
  8
None
370
               9
390
0
  6
Continuous
 62
               7
100
AcDbCircle
 10
-2.4045399999999999
 20
27.276559999999996
 30
0.0
 40
0.139998692136748
  0
HATCH
  5
15E
100
AcDbEntity
  8
None
370
               0
390
0
  6
Continuous
 62
               7
100
AcDbHatch
 10
0.0
 20
0.0
 30
0.0
210
0.0
220
0.0
230
1.0
  2
SOLID
 70
               1
 71
               1
 91
        1
 92
        1
 93
        1
 72
               2
 10
-2.4045399999999999
 20
27.276559999999996
 40
0.139998692136748
 50
0.0
 51
360.0
 73
               0
 97
        1
330
15D
 75
               0
 76
               1
 98
        1
 10
0.0
 20
0.0
  0
CIRCLE
  5
15F
102
{ACAD_REACTORS
330
160
102
}
100
AcDbEntity
  8
None
370
               9
390
0
  6
Continuous
 62
               7
100
AcDbCircle
 10
-1.9045399999999999
 20
27.276559999999996
 30
0.0
 40
0.1399986921367482
  0
HATCH
  5
160
100
AcDbEntity
  8
None
370
               0
390
0
  6
Continuous
 62
               7
100
AcDbHatch
 10
0.0
 20
0.0
 30
0.0
210
0.0
220
0.0
230
1.0
  2
SOLID
 70
               1
 71
               1
 91
        1
 92
        1
 93
        1
 72
               2
 10
-1.9045399999999999
 20
27.276559999999996
 40
0.1399986921367482
 50
0.0
 51
360.0
 73
               0
 97
        1
330
15F
 75
               0
 76
               1
 98
        1
 10
0.0
 20
0.0
  0
CIRCLE
  5
161
102
{ACAD_REACTORS
330
162
102
}
100
AcDbEntity
  8
None
370
               9
390
0
  6
Continuous
 62
               7
100
AcDbCircle
 10
-1.4045399999999999
 20
27.276559999999996
 30
0.0
 40
0.1399986921367482
  0
HATCH
  5
162
100
AcDbEntity
  8
None
370
               0
390
0
  6
Continuous
 62
               7
100
AcDbHatch
 10
0.0
 20
0.0
 30
0.0
210
0.0
220
0.0
230
1.0
  2
SOLID
 70
               1
 71
               1
 91
        1
 92
        1
 93
        1
 72
               2
 10
-1.4045399999999999
 20
27.276559999999996
 40
0.1399986921367482
 50
0.0
 51
360.0
 73
               0
 97
        1
330
161
 75
               0
 76
               1
 98
        1
 10
0.0
 20
0.0
  0
CIRCLE
  5
163
102
{ACAD_REACTORS
330
164
102
}
100
AcDbEntity
  8
None
370
               9
390
0
  6
Continuous
 62
               7
100
AcDbCircle
 10
-0.9045399999999999
 20
27.276559999999996
 30
0.0
 40
0.1399986921367481
  0
HATCH
  5
164
100
AcDbEntity
  8
None
370
               0
390
0
  6
Continuous
 62
               7
100
AcDbHatch
 10
0.0
 20
0.0
 30
0.0
210
0.0
220
0.0
230
1.0
  2
SOLID
 70
               1
 71
               1
 91
        1
 92
        1
 93
        1
 72
               2
 10
-0.9045399999999999
 20
27.276559999999996
 40
0.1399986921367481
 50
0.0
 51
360.0
 73
               0
 97
        1
330
163
 75
               0
 76
               1
 98
        1
 10
0.0
 20
0.0
  0
CIRCLE
  5
165
102
{ACAD_REACTORS
330
166
102
}
100
AcDbEntity
  8
None
370
               9
390
0
  6
Continuous
 62
               7
100
AcDbCircle
 10
-0.40454
 20
27.276559999999996
 30
0.0
 40
0.1399986921367481
  0
HATCH
  5
166
100
AcDbEntity
  8
None
370
               0
390
0
  6
Continuous
 62
               7
100
AcDbHatch
 10
0.0
 20
0.0
 30
0.0
210
0.0
220
0.0
230
1.0
  2
SOLID
 70
               1
 71
               1
 91
        1
 92
        1
 93
        1
 72
               2
 10
-0.40454
 20
27.276559999999996
 40
0.1399986921367481
 50
0.0
 51
360.0
 73
               0
 97
        1
330
165
 75
               0
 76
               1
 98
        1
 10
0.0
 20
0.0
  0
CIRCLE
  5
167
102
{ACAD_REACTORS
330
168
102
}
100
AcDbEntity
  8
None
370
               9
390
0
  6
Continuous
 62
               7
100
AcDbCircle
 10
0.09546
 20
27.276559999999996
 30
0.0
 40
0.1399986921367481
  0
HATCH
  5
168
100
AcDbEntity
  8
None
370
               0
390
0
  6
Continuous
 62
               7
100
AcDbHatch
 10
0.0
 20
0.0
 30
0.0
210
0.0
220
0.0
230
1.0
  2
SOLID
 70
               1
 71
               1
 91
        1
 92
        1
 93
        1
 72
               2
 10
0.09546
 20
27.276559999999996
 40
0.1399986921367481
 50
0.0
 51
360.0
 73
               0
 97
        1
330
167
 75
               0
 76
               1
 98
        1
 10
0.0
 20
0.0
  0
CIRCLE
  5
169
102
{ACAD_REACTORS
330
16A
102
}
100
AcDbEntity
  8
None
370
               9
390
0
  6
Continuous
 62
               7
100
AcDbCircle
 10
0.59546
 20
27.276559999999996
 30
0.0
 40
0.1399986921367481
  0
HATCH
  5
16A
100
AcDbEntity
  8
None
370
               0
390
0
  6
Continuous
 62
               7
100
AcDbHatch
 10
0.0
 20
0.0
 30
0.0
210
0.0
220
0.0
230
1.0
  2
SOLID
 70
               1
 71
               1
 91
        1
 92
        1
 93
        1
 72
               2
 10
0.59546
 20
27.276559999999996
 40
0.1399986921367481
 50
0.0
 51
360.0
 73
               0
 97
        1
330
169
 75
               0
 76
               1
 98
        1
 10
0.0
 20
0.0
  0
CIRCLE
  5
16B
102
{ACAD_REACTORS
330
16C
102
}
100
AcDbEntity
  8
None
370
               9
390
0
  6
Continuous
 62
               7
100
AcDbCircle
 10
1.0954599999999999
 20
27.276559999999996
 30
0.0
 40
0.1399986921367482
  0
HATCH
  5
16C
100
AcDbEntity
  8
None
370
               0
390
0
  6
Continuous
 62
               7
100
AcDbHatch
 10
0.0
 20
0.0
 30
0.0
210
0.0
220
0.0
230
1.0
  2
SOLID
 70
               1
 71
               1
 91
        1
 92
        1
 93
        1
 72
               2
 10
1.0954599999999999
 20
27.276559999999996
 40
0.1399986921367482
 50
0.0
 51
360.0
 73
               0
 97
        1
330
16B
 75
               0
 76
               1
 98
        1
 10
0.0
 20
0.0
  0
CIRCLE
  5
16D
102
{ACAD_REACTORS
330
16E
102
}
100
AcDbEntity
  8
None
370
               9
390
0
  6
Continuous
 62
               7
100
AcDbCircle
 10
-2.9045399999999999
 20
27.776559999999996
 30
0.0
 40
0.1399986921367483
  0
HATCH
  5
16E
100
AcDbEntity
  8
None
370
               0
390
0
  6
Continuous
 62
               7
100
AcDbHatch
 10
0.0
 20
0.0
 30
0.0
210
0.0
220
0.0
230
1.0
  2
SOLID
 70
               1
 71
               1
 91
        1
 92
        1
 93
        1
 72
               2
 10
-2.9045399999999999
 20
27.776559999999996
 40
0.1399986921367483
 50
0.0
 51
360.0
 73
               0
 97
        1
330
16D
 75
               0
 76
               1
 98
        1
 10
0.0
 20
0.0
  0
CIRCLE
  5
16F
102
{ACAD_REACTORS
330
170
102
}
100
AcDbEntity
  8
None
370
               9
390
0
  6
Continuous
 62
               7
100
AcDbCircle
 10
-2.4045399999999999
 20
27.776559999999996
 30
0.0
 40
0.139998692136748
  0
HATCH
  5
170
100
AcDbEntity
  8
None
370
               0
390
0
  6
Continuous
 62
               7
100
AcDbHatch
 10
0.0
 20
0.0
 30
0.0
210
0.0
220
0.0
230
1.0
  2
SOLID
 70
               1
 71
               1
 91
        1
 92
        1
 93
        1
 72
               2
 10
-2.4045399999999999
 20
27.776559999999996
 40
0.139998692136748
 50
0.0
 51
360.0
 73
               0
 97
        1
330
16F
 75
               0
 76
               1
 98
        1
 10
0.0
 20
0.0
  0
CIRCLE
  5
171
102
{ACAD_REACTORS
330
172
102
}
100
AcDbEntity
  8
None
370
               9
390
0
  6
Continuous
 62
               7
100
AcDbCircle
 10
-1.9045399999999999
 20
27.776559999999996
 30
0.0
 40
0.1399986921367482
  0
HATCH
  5
172
100
AcDbEntity
  8
None
370
               0
390
0
  6
Continuous
 62
               7
100
AcDbHatch
 10
0.0
 20
0.0
 30
0.0
210
0.0
220
0.0
230
1.0
  2
SOLID
 70
               1
 71
               1
 91
        1
 92
        1
 93
        1
 72
               2
 10
-1.9045399999999999
 20
27.776559999999996
 40
0.1399986921367482
 50
0.0
 51
360.0
 73
               0
 97
        1
330
171
 75
               0
 76
               1
 98
        1
 10
0.0
 20
0.0
  0
CIRCLE
  5
173
102
{ACAD_REACTORS
330
174
102
}
100
AcDbEntity
  8
None
370
               9
390
0
  6
Continuous
 62
               7
100
AcDbCircle
 10
-1.4045399999999999
 20
27.776559999999996
 30
0.0
 40
0.1399986921367482
  0
HATCH
  5
174
100
AcDbEntity
  8
None
370
               0
390
0
  6
Continuous
 62
               7
100
AcDbHatch
 10
0.0
 20
0.0
 30
0.0
210
0.0
220
0.0
230
1.0
  2
SOLID
 70
               1
 71
               1
 91
        1
 92
        1
 93
        1
 72
               2
 10
-1.4045399999999999
 20
27.776559999999996
 40
0.1399986921367482
 50
0.0
 51
360.0
 73
               0
 97
        1
330
173
 75
               0
 76
               1
 98
        1
 10
0.0
 20
0.0
  0
CIRCLE
  5
175
102
{ACAD_REACTORS
330
176
102
}
100
AcDbEntity
  8
None
370
               9
390
0
  6
Continuous
 62
               7
100
AcDbCircle
 10
-0.9045399999999999
 20
27.776559999999996
 30
0.0
 40
0.1399986921367481
  0
HATCH
  5
176
100
AcDbEntity
  8
None
370
               0
390
0
  6
Continuous
 62
               7
100
AcDbHatch
 10
0.0
 20
0.0
 30
0.0
210
0.0
220
0.0
230
1.0
  2
SOLID
 70
               1
 71
               1
 91
        1
 92
        1
 93
        1
 72
               2
 10
-0.9045399999999999
 20
27.776559999999996
 40
0.1399986921367481
 50
0.0
 51
360.0
 73
               0
 97
        1
330
175
 75
               0
 76
               1
 98
        1
 10
0.0
 20
0.0
  0
CIRCLE
  5
177
102
{ACAD_REACTORS
330
178
102
}
100
AcDbEntity
  8
None
370
               9
390
0
  6
Continuous
 62
               7
100
AcDbCircle
 10
-0.40454
 20
27.776559999999996
 30
0.0
 40
0.1399986921367481
  0
HATCH
  5
178
100
AcDbEntity
  8
None
370
               0
390
0
  6
Continuous
 62
               7
100
AcDbHatch
 10
0.0
 20
0.0
 30
0.0
210
0.0
220
0.0
230
1.0
  2
SOLID
 70
               1
 71
               1
 91
        1
 92
        1
 93
        1
 72
               2
 10
-0.40454
 20
27.776559999999996
 40
0.1399986921367481
 50
0.0
 51
360.0
 73
               0
 97
        1
330
177
 75
               0
 76
               1
 98
        1
 10
0.0
 20
0.0
  0
CIRCLE
  5
179
102
{ACAD_REACTORS
330
17A
102
}
100
AcDbEntity
  8
None
370
               9
390
0
  6
Continuous
 62
               7
100
AcDbCircle
 10
0.09546
 20
27.776559999999996
 30
0.0
 40
0.1399986921367481
  0
HATCH
  5
17A
100
AcDbEntity
  8
None
370
               0
390
0
  6
Continuous
 62
               7
100
AcDbHatch
 10
0.0
 20
0.0
 30
0.0
210
0.0
220
0.0
230
1.0
  2
SOLID
 70
               1
 71
               1
 91
        1
 92
        1
 93
        1
 72
               2
 10
0.09546
 20
27.776559999999996
 40
0.1399986921367481
 50
0.0
 51
360.0
 73
               0
 97
        1
330
179
 75
               0
 76
               1
 98
        1
 10
0.0
 20
0.0
  0
CIRCLE
  5
17B
102
{ACAD_REACTORS
330
17C
102
}
100
AcDbEntity
  8
None
370
               9
390
0
  6
Continuous
 62
               7
100
AcDbCircle
 10
0.59546
 20
27.776559999999996
 30
0.0
 40
0.1399986921367481
  0
HATCH
  5
17C
100
AcDbEntity
  8
None
370
               0
390
0
  6
Continuous
 62
               7
100
AcDbHatch
 10
0.0
 20
0.0
 30
0.0
210
0.0
220
0.0
230
1.0
  2
SOLID
 70
               1
 71
               1
 91
        1
 92
        1
 93
        1
 72
               2
 10
0.59546
 20
27.776559999999996
 40
0.1399986921367481
 50
0.0
 51
360.0
 73
               0
 97
        1
330
17B
 75
               0
 76
               1
 98
        1
 10
0.0
 20
0.0
  0
CIRCLE
  5
17D
102
{ACAD_REACTORS
330
17E
102
}
100
AcDbEntity
  8
None
370
               9
390
0
  6
Continuous
 62
               7
100
AcDbCircle
 10
1.0954599999999999
 20
27.776559999999996
 30
0.0
 40
0.1399986921367482
  0
HATCH
  5
17E
100
AcDbEntity
  8
None
370
               0
390
0
  6
Continuous
 62
               7
100
AcDbHatch
 10
0.0
 20
0.0
 30
0.0
210
0.0
220
0.0
230
1.0
  2
SOLID
 70
               1
 71
               1
 91
        1
 92
        1
 93
        1
 72
               2
 10
1.0954599999999999
 20
27.776559999999996
 40
0.1399986921367482
 50
0.0
 51
360.0
 73
               0
 97
        1
330
17D
 75
               0
 76
               1
 98
        1
 10
0.0
 20
0.0
  0
CIRCLE
  5
17F
102
{ACAD_REACTORS
330
180
102
}
100
AcDbEntity
  8
None
370
               9
390
0
  6
Continuous
 62
               7
100
AcDbCircle
 10
-2.9045399999999999
 20
28.276559999999996
 30
0.0
 40
0.1399986921367483
  0
HATCH
  5
180
100
AcDbEntity
  8
None
370
               0
390
0
  6
Continuous
 62
               7
100
AcDbHatch
 10
0.0
 20
0.0
 30
0.0
210
0.0
220
0.0
230
1.0
  2
SOLID
 70
               1
 71
               1
 91
        1
 92
        1
 93
        1
 72
               2
 10
-2.9045399999999999
 20
28.276559999999996
 40
0.1399986921367483
 50
0.0
 51
360.0
 73
               0
 97
        1
330
17F
 75
               0
 76
               1
 98
        1
 10
0.0
 20
0.0
  0
CIRCLE
  5
181
102
{ACAD_REACTORS
330
182
102
}
100
AcDbEntity
  8
None
370
               9
390
0
  6
Continuous
 62
               7
100
AcDbCircle
 10
-2.4045399999999999
 20
28.276559999999996
 30
0.0
 40
0.139998692136748
  0
HATCH
  5
182
100
AcDbEntity
  8
None
370
               0
390
0
  6
Continuous
 62
               7
100
AcDbHatch
 10
0.0
 20
0.0
 30
0.0
210
0.0
220
0.0
230
1.0
  2
SOLID
 70
               1
 71
               1
 91
        1
 92
        1
 93
        1
 72
               2
 10
-2.4045399999999999
 20
28.276559999999996
 40
0.139998692136748
 50
0.0
 51
360.0
 73
               0
 97
        1
330
181
 75
               0
 76
               1
 98
        1
 10
0.0
 20
0.0
  0
CIRCLE
  5
183
102
{ACAD_REACTORS
330
184
102
}
100
AcDbEntity
  8
None
370
               9
390
0
  6
Continuous
 62
               7
100
AcDbCircle
 10
-1.9045399999999999
 20
28.276559999999996
 30
0.0
 40
0.1399986921367482
  0
HATCH
  5
184
100
AcDbEntity
  8
None
370
               0
390
0
  6
Continuous
 62
               7
100
AcDbHatch
 10
0.0
 20
0.0
 30
0.0
210
0.0
220
0.0
230
1.0
  2
SOLID
 70
               1
 71
               1
 91
        1
 92
        1
 93
        1
 72
               2
 10
-1.9045399999999999
 20
28.276559999999996
 40
0.1399986921367482
 50
0.0
 51
360.0
 73
               0
 97
        1
330
183
 75
               0
 76
               1
 98
        1
 10
0.0
 20
0.0
  0
CIRCLE
  5
185
102
{ACAD_REACTORS
330
186
102
}
100
AcDbEntity
  8
None
370
               9
390
0
  6
Continuous
 62
               7
100
AcDbCircle
 10
-1.4045399999999999
 20
28.276559999999996
 30
0.0
 40
0.1399986921367482
  0
HATCH
  5
186
100
AcDbEntity
  8
None
370
               0
390
0
  6
Continuous
 62
               7
100
AcDbHatch
 10
0.0
 20
0.0
 30
0.0
210
0.0
220
0.0
230
1.0
  2
SOLID
 70
               1
 71
               1
 91
        1
 92
        1
 93
        1
 72
               2
 10
-1.4045399999999999
 20
28.276559999999996
 40
0.1399986921367482
 50
0.0
 51
360.0
 73
               0
 97
        1
330
185
 75
               0
 76
               1
 98
        1
 10
0.0
 20
0.0
  0
CIRCLE
  5
187
102
{ACAD_REACTORS
330
188
102
}
100
AcDbEntity
  8
None
370
               9
390
0
  6
Continuous
 62
               7
100
AcDbCircle
 10
-0.9045399999999999
 20
28.276559999999996
 30
0.0
 40
0.1399986921367481
  0
HATCH
  5
188
100
AcDbEntity
  8
None
370
               0
390
0
  6
Continuous
 62
               7
100
AcDbHatch
 10
0.0
 20
0.0
 30
0.0
210
0.0
220
0.0
230
1.0
  2
SOLID
 70
               1
 71
               1
 91
        1
 92
        1
 93
        1
 72
               2
 10
-0.9045399999999999
 20
28.276559999999996
 40
0.1399986921367481
 50
0.0
 51
360.0
 73
               0
 97
        1
330
187
 75
               0
 76
               1
 98
        1
 10
0.0
 20
0.0
  0
CIRCLE
  5
189
102
{ACAD_REACTORS
330
18A
102
}
100
AcDbEntity
  8
None
370
               9
390
0
  6
Continuous
 62
               7
100
AcDbCircle
 10
-0.40454
 20
28.276559999999996
 30
0.0
 40
0.1399986921367481
  0
HATCH
  5
18A
100
AcDbEntity
  8
None
370
               0
390
0
  6
Continuous
 62
               7
100
AcDbHatch
 10
0.0
 20
0.0
 30
0.0
210
0.0
220
0.0
230
1.0
  2
SOLID
 70
               1
 71
               1
 91
        1
 92
        1
 93
        1
 72
               2
 10
-0.40454
 20
28.276559999999996
 40
0.1399986921367481
 50
0.0
 51
360.0
 73
               0
 97
        1
330
189
 75
               0
 76
               1
 98
        1
 10
0.0
 20
0.0
  0
CIRCLE
  5
18B
102
{ACAD_REACTORS
330
18C
102
}
100
AcDbEntity
  8
None
370
               9
390
0
  6
Continuous
 62
               7
100
AcDbCircle
 10
0.09546
 20
28.276559999999996
 30
0.0
 40
0.1399986921367481
  0
HATCH
  5
18C
100
AcDbEntity
  8
None
370
               0
390
0
  6
Continuous
 62
               7
100
AcDbHatch
 10
0.0
 20
0.0
 30
0.0
210
0.0
220
0.0
230
1.0
  2
SOLID
 70
               1
 71
               1
 91
        1
 92
        1
 93
        1
 72
               2
 10
0.09546
 20
28.276559999999996
 40
0.1399986921367481
 50
0.0
 51
360.0
 73
               0
 97
        1
330
18B
 75
               0
 76
               1
 98
        1
 10
0.0
 20
0.0
  0
CIRCLE
  5
18D
102
{ACAD_REACTORS
330
18E
102
}
100
AcDbEntity
  8
None
370
               9
390
0
  6
Continuous
 62
               7
100
AcDbCircle
 10
0.59546
 20
28.276559999999996
 30
0.0
 40
0.1399986921367481
  0
HATCH
  5
18E
100
AcDbEntity
  8
None
370
               0
390
0
  6
Continuous
 62
               7
100
AcDbHatch
 10
0.0
 20
0.0
 30
0.0
210
0.0
220
0.0
230
1.0
  2
SOLID
 70
               1
 71
               1
 91
        1
 92
        1
 93
        1
 72
               2
 10
0.59546
 20
28.276559999999996
 40
0.1399986921367481
 50
0.0
 51
360.0
 73
               0
 97
        1
330
18D
 75
               0
 76
               1
 98
        1
 10
0.0
 20
0.0
  0
CIRCLE
  5
18F
102
{ACAD_REACTORS
330
190
102
}
100
AcDbEntity
  8
None
370
               9
390
0
  6
Continuous
 62
               7
100
AcDbCircle
 10
1.0954599999999999
 20
28.276559999999996
 30
0.0
 40
0.1399986921367482
  0
HATCH
  5
190
100
AcDbEntity
  8
None
370
               0
390
0
  6
Continuous
 62
               7
100
AcDbHatch
 10
0.0
 20
0.0
 30
0.0
210
0.0
220
0.0
230
1.0
  2
SOLID
 70
               1
 71
               1
 91
        1
 92
        1
 93
        1
 72
               2
 10
1.0954599999999999
 20
28.276559999999996
 40
0.1399986921367482
 50
0.0
 51
360.0
 73
               0
 97
        1
330
18F
 75
               0
 76
               1
 98
        1
 10
0.0
 20
0.0
  0
CIRCLE
  5
191
102
{ACAD_REACTORS
330
192
102
}
100
AcDbEntity
  8
None
370
               9
390
0
  6
Continuous
 62
               7
100
AcDbCircle
 10
-2.9045399999999999
 20
28.776559999999996
 30
0.0
 40
0.1399986921367483
  0
HATCH
  5
192
100
AcDbEntity
  8
None
370
               0
390
0
  6
Continuous
 62
               7
100
AcDbHatch
 10
0.0
 20
0.0
 30
0.0
210
0.0
220
0.0
230
1.0
  2
SOLID
 70
               1
 71
               1
 91
        1
 92
        1
 93
        1
 72
               2
 10
-2.9045399999999999
 20
28.776559999999996
 40
0.1399986921367483
 50
0.0
 51
360.0
 73
               0
 97
        1
330
191
 75
               0
 76
               1
 98
        1
 10
0.0
 20
0.0
  0
CIRCLE
  5
193
102
{ACAD_REACTORS
330
194
102
}
100
AcDbEntity
  8
None
370
               9
390
0
  6
Continuous
 62
               7
100
AcDbCircle
 10
-2.4045399999999999
 20
28.776559999999996
 30
0.0
 40
0.139998692136748
  0
HATCH
  5
194
100
AcDbEntity
  8
None
370
               0
390
0
  6
Continuous
 62
               7
100
AcDbHatch
 10
0.0
 20
0.0
 30
0.0
210
0.0
220
0.0
230
1.0
  2
SOLID
 70
               1
 71
               1
 91
        1
 92
        1
 93
        1
 72
               2
 10
-2.4045399999999999
 20
28.776559999999996
 40
0.139998692136748
 50
0.0
 51
360.0
 73
               0
 97
        1
330
193
 75
               0
 76
               1
 98
        1
 10
0.0
 20
0.0
  0
CIRCLE
  5
195
102
{ACAD_REACTORS
330
196
102
}
100
AcDbEntity
  8
None
370
               9
390
0
  6
Continuous
 62
               7
100
AcDbCircle
 10
-1.9045399999999999
 20
28.776559999999996
 30
0.0
 40
0.1399986921367482
  0
HATCH
  5
196
100
AcDbEntity
  8
None
370
               0
390
0
  6
Continuous
 62
               7
100
AcDbHatch
 10
0.0
 20
0.0
 30
0.0
210
0.0
220
0.0
230
1.0
  2
SOLID
 70
               1
 71
               1
 91
        1
 92
        1
 93
        1
 72
               2
 10
-1.9045399999999999
 20
28.776559999999996
 40
0.1399986921367482
 50
0.0
 51
360.0
 73
               0
 97
        1
330
195
 75
               0
 76
               1
 98
        1
 10
0.0
 20
0.0
  0
CIRCLE
  5
197
102
{ACAD_REACTORS
330
198
102
}
100
AcDbEntity
  8
None
370
               9
390
0
  6
Continuous
 62
               7
100
AcDbCircle
 10
-1.4045399999999999
 20
28.776559999999996
 30
0.0
 40
0.1399986921367482
  0
HATCH
  5
198
100
AcDbEntity
  8
None
370
               0
390
0
  6
Continuous
 62
               7
100
AcDbHatch
 10
0.0
 20
0.0
 30
0.0
210
0.0
220
0.0
230
1.0
  2
SOLID
 70
               1
 71
               1
 91
        1
 92
        1
 93
        1
 72
               2
 10
-1.4045399999999999
 20
28.776559999999996
 40
0.1399986921367482
 50
0.0
 51
360.0
 73
               0
 97
        1
330
197
 75
               0
 76
               1
 98
        1
 10
0.0
 20
0.0
  0
CIRCLE
  5
199
102
{ACAD_REACTORS
330
19A
102
}
100
AcDbEntity
  8
None
370
               9
390
0
  6
Continuous
 62
               7
100
AcDbCircle
 10
-0.9045399999999999
 20
28.776559999999996
 30
0.0
 40
0.1399986921367481
  0
HATCH
  5
19A
100
AcDbEntity
  8
None
370
               0
390
0
  6
Continuous
 62
               7
100
AcDbHatch
 10
0.0
 20
0.0
 30
0.0
210
0.0
220
0.0
230
1.0
  2
SOLID
 70
               1
 71
               1
 91
        1
 92
        1
 93
        1
 72
               2
 10
-0.9045399999999999
 20
28.776559999999996
 40
0.1399986921367481
 50
0.0
 51
360.0
 73
               0
 97
        1
330
199
 75
               0
 76
               1
 98
        1
 10
0.0
 20
0.0
  0
CIRCLE
  5
19B
102
{ACAD_REACTORS
330
19C
102
}
100
AcDbEntity
  8
None
370
               9
390
0
  6
Continuous
 62
               7
100
AcDbCircle
 10
-0.40454
 20
28.776559999999996
 30
0.0
 40
0.1399986921367481
  0
HATCH
  5
19C
100
AcDbEntity
  8
None
370
               0
390
0
  6
Continuous
 62
               7
100
AcDbHatch
 10
0.0
 20
0.0
 30
0.0
210
0.0
220
0.0
230
1.0
  2
SOLID
 70
               1
 71
               1
 91
        1
 92
        1
 93
        1
 72
               2
 10
-0.40454
 20
28.776559999999996
 40
0.1399986921367481
 50
0.0
 51
360.0
 73
               0
 97
        1
330
19B
 75
               0
 76
               1
 98
        1
 10
0.0
 20
0.0
  0
CIRCLE
  5
19D
102
{ACAD_REACTORS
330
19E
102
}
100
AcDbEntity
  8
None
370
               9
390
0
  6
Continuous
 62
               7
100
AcDbCircle
 10
0.09546
 20
28.776559999999996
 30
0.0
 40
0.1399986921367481
  0
HATCH
  5
19E
100
AcDbEntity
  8
None
370
               0
390
0
  6
Continuous
 62
               7
100
AcDbHatch
 10
0.0
 20
0.0
 30
0.0
210
0.0
220
0.0
230
1.0
  2
SOLID
 70
               1
 71
               1
 91
        1
 92
        1
 93
        1
 72
               2
 10
0.09546
 20
28.776559999999996
 40
0.1399986921367481
 50
0.0
 51
360.0
 73
               0
 97
        1
330
19D
 75
               0
 76
               1
 98
        1
 10
0.0
 20
0.0
  0
CIRCLE
  5
19F
102
{ACAD_REACTORS
330
1A0
102
}
100
AcDbEntity
  8
None
370
               9
390
0
  6
Continuous
 62
               7
100
AcDbCircle
 10
0.59546
 20
28.776559999999996
 30
0.0
 40
0.1399986921367481
  0
HATCH
  5
1A0
100
AcDbEntity
  8
None
370
               0
390
0
  6
Continuous
 62
               7
100
AcDbHatch
 10
0.0
 20
0.0
 30
0.0
210
0.0
220
0.0
230
1.0
  2
SOLID
 70
               1
 71
               1
 91
        1
 92
        1
 93
        1
 72
               2
 10
0.59546
 20
28.776559999999996
 40
0.1399986921367481
 50
0.0
 51
360.0
 73
               0
 97
        1
330
19F
 75
               0
 76
               1
 98
        1
 10
0.0
 20
0.0
  0
CIRCLE
  5
1A1
102
{ACAD_REACTORS
330
1A2
102
}
100
AcDbEntity
  8
None
370
               9
390
0
  6
Continuous
 62
               7
100
AcDbCircle
 10
1.0954599999999999
 20
28.776559999999996
 30
0.0
 40
0.1399986921367482
  0
HATCH
  5
1A2
100
AcDbEntity
  8
None
370
               0
390
0
  6
Continuous
 62
               7
100
AcDbHatch
 10
0.0
 20
0.0
 30
0.0
210
0.0
220
0.0
230
1.0
  2
SOLID
 70
               1
 71
               1
 91
        1
 92
        1
 93
        1
 72
               2
 10
1.0954599999999999
 20
28.776559999999996
 40
0.1399986921367482
 50
0.0
 51
360.0
 73
               0
 97
        1
330
1A1
 75
               0
 76
               1
 98
        1
 10
0.0
 20
0.0
  0
CIRCLE
  5
1A3
102
{ACAD_REACTORS
330
1A4
102
}
100
AcDbEntity
  8
None
370
               9
390
0
  6
Continuous
 62
               7
100
AcDbCircle
 10
-2.9045399999999999
 20
29.276559999999996
 30
0.0
 40
0.1399986921367483
  0
HATCH
  5
1A4
100
AcDbEntity
  8
None
370
               0
390
0
  6
Continuous
 62
               7
100
AcDbHatch
 10
0.0
 20
0.0
 30
0.0
210
0.0
220
0.0
230
1.0
  2
SOLID
 70
               1
 71
               1
 91
        1
 92
        1
 93
        1
 72
               2
 10
-2.9045399999999999
 20
29.276559999999996
 40
0.1399986921367483
 50
0.0
 51
360.0
 73
               0
 97
        1
330
1A3
 75
               0
 76
               1
 98
        1
 10
0.0
 20
0.0
  0
CIRCLE
  5
1A5
102
{ACAD_REACTORS
330
1A6
102
}
100
AcDbEntity
  8
None
370
               9
390
0
  6
Continuous
 62
               7
100
AcDbCircle
 10
-2.4045399999999999
 20
29.276559999999996
 30
0.0
 40
0.139998692136748
  0
HATCH
  5
1A6
100
AcDbEntity
  8
None
370
               0
390
0
  6
Continuous
 62
               7
100
AcDbHatch
 10
0.0
 20
0.0
 30
0.0
210
0.0
220
0.0
230
1.0
  2
SOLID
 70
               1
 71
               1
 91
        1
 92
        1
 93
        1
 72
               2
 10
-2.4045399999999999
 20
29.276559999999996
 40
0.139998692136748
 50
0.0
 51
360.0
 73
               0
 97
        1
330
1A5
 75
               0
 76
               1
 98
        1
 10
0.0
 20
0.0
  0
CIRCLE
  5
1A7
102
{ACAD_REACTORS
330
1A8
102
}
100
AcDbEntity
  8
None
370
               9
390
0
  6
Continuous
 62
               7
100
AcDbCircle
 10
-1.9045399999999999
 20
29.276559999999996
 30
0.0
 40
0.1399986921367482
  0
HATCH
  5
1A8
100
AcDbEntity
  8
None
370
               0
390
0
  6
Continuous
 62
               7
100
AcDbHatch
 10
0.0
 20
0.0
 30
0.0
210
0.0
220
0.0
230
1.0
  2
SOLID
 70
               1
 71
               1
 91
        1
 92
        1
 93
        1
 72
               2
 10
-1.9045399999999999
 20
29.276559999999996
 40
0.1399986921367482
 50
0.0
 51
360.0
 73
               0
 97
        1
330
1A7
 75
               0
 76
               1
 98
        1
 10
0.0
 20
0.0
  0
CIRCLE
  5
1A9
102
{ACAD_REACTORS
330
1AA
102
}
100
AcDbEntity
  8
None
370
               9
390
0
  6
Continuous
 62
               7
100
AcDbCircle
 10
-1.4045399999999999
 20
29.276559999999996
 30
0.0
 40
0.1399986921367482
  0
HATCH
  5
1AA
100
AcDbEntity
  8
None
370
               0
390
0
  6
Continuous
 62
               7
100
AcDbHatch
 10
0.0
 20
0.0
 30
0.0
210
0.0
220
0.0
230
1.0
  2
SOLID
 70
               1
 71
               1
 91
        1
 92
        1
 93
        1
 72
               2
 10
-1.4045399999999999
 20
29.276559999999996
 40
0.1399986921367482
 50
0.0
 51
360.0
 73
               0
 97
        1
330
1A9
 75
               0
 76
               1
 98
        1
 10
0.0
 20
0.0
  0
CIRCLE
  5
1AB
102
{ACAD_REACTORS
330
1AC
102
}
100
AcDbEntity
  8
None
370
               9
390
0
  6
Continuous
 62
               7
100
AcDbCircle
 10
-0.9045399999999999
 20
29.276559999999996
 30
0.0
 40
0.1399986921367481
  0
HATCH
  5
1AC
100
AcDbEntity
  8
None
370
               0
390
0
  6
Continuous
 62
               7
100
AcDbHatch
 10
0.0
 20
0.0
 30
0.0
210
0.0
220
0.0
230
1.0
  2
SOLID
 70
               1
 71
               1
 91
        1
 92
        1
 93
        1
 72
               2
 10
-0.9045399999999999
 20
29.276559999999996
 40
0.1399986921367481
 50
0.0
 51
360.0
 73
               0
 97
        1
330
1AB
 75
               0
 76
               1
 98
        1
 10
0.0
 20
0.0
  0
CIRCLE
  5
1AD
102
{ACAD_REACTORS
330
1AE
102
}
100
AcDbEntity
  8
None
370
               9
390
0
  6
Continuous
 62
               7
100
AcDbCircle
 10
-0.40454
 20
29.276559999999996
 30
0.0
 40
0.1399986921367481
  0
HATCH
  5
1AE
100
AcDbEntity
  8
None
370
               0
390
0
  6
Continuous
 62
               7
100
AcDbHatch
 10
0.0
 20
0.0
 30
0.0
210
0.0
220
0.0
230
1.0
  2
SOLID
 70
               1
 71
               1
 91
        1
 92
        1
 93
        1
 72
               2
 10
-0.40454
 20
29.276559999999996
 40
0.1399986921367481
 50
0.0
 51
360.0
 73
               0
 97
        1
330
1AD
 75
               0
 76
               1
 98
        1
 10
0.0
 20
0.0
  0
CIRCLE
  5
1AF
102
{ACAD_REACTORS
330
1B0
102
}
100
AcDbEntity
  8
None
370
               9
390
0
  6
Continuous
 62
               7
100
AcDbCircle
 10
0.09546
 20
29.276559999999996
 30
0.0
 40
0.1399986921367481
  0
HATCH
  5
1B0
100
AcDbEntity
  8
None
370
               0
390
0
  6
Continuous
 62
               7
100
AcDbHatch
 10
0.0
 20
0.0
 30
0.0
210
0.0
220
0.0
230
1.0
  2
SOLID
 70
               1
 71
               1
 91
        1
 92
        1
 93
        1
 72
               2
 10
0.09546
 20
29.276559999999996
 40
0.1399986921367481
 50
0.0
 51
360.0
 73
               0
 97
        1
330
1AF
 75
               0
 76
               1
 98
        1
 10
0.0
 20
0.0
  0
CIRCLE
  5
1B1
102
{ACAD_REACTORS
330
1B2
102
}
100
AcDbEntity
  8
None
370
               9
390
0
  6
Continuous
 62
               7
100
AcDbCircle
 10
0.59546
 20
29.276559999999996
 30
0.0
 40
0.1399986921367481
  0
HATCH
  5
1B2
100
AcDbEntity
  8
None
370
               0
390
0
  6
Continuous
 62
               7
100
AcDbHatch
 10
0.0
 20
0.0
 30
0.0
210
0.0
220
0.0
230
1.0
  2
SOLID
 70
               1
 71
               1
 91
        1
 92
        1
 93
        1
 72
               2
 10
0.59546
 20
29.276559999999996
 40
0.1399986921367481
 50
0.0
 51
360.0
 73
               0
 97
        1
330
1B1
 75
               0
 76
               1
 98
        1
 10
0.0
 20
0.0
  0
CIRCLE
  5
1B3
102
{ACAD_REACTORS
330
1B4
102
}
100
AcDbEntity
  8
None
370
               9
390
0
  6
Continuous
 62
               7
100
AcDbCircle
 10
1.0954599999999999
 20
29.276559999999996
 30
0.0
 40
0.1399986921367482
  0
HATCH
  5
1B4
100
AcDbEntity
  8
None
370
               0
390
0
  6
Continuous
 62
               7
100
AcDbHatch
 10
0.0
 20
0.0
 30
0.0
210
0.0
220
0.0
230
1.0
  2
SOLID
 70
               1
 71
               1
 91
        1
 92
        1
 93
        1
 72
               2
 10
1.0954599999999999
 20
29.276559999999996
 40
0.1399986921367482
 50
0.0
 51
360.0
 73
               0
 97
        1
330
1B3
 75
               0
 76
               1
 98
        1
 10
0.0
 20
0.0
  0
CIRCLE
  5
1B5
102
{ACAD_REACTORS
330
1B6
102
}
100
AcDbEntity
  8
None
370
               9
390
0
  6
Continuous
 62
               7
100
AcDbCircle
 10
-2.9045399999999999
 20
29.776559999999996
 30
0.0
 40
0.1399986921367483
  0
HATCH
  5
1B6
100
AcDbEntity
  8
None
370
               0
390
0
  6
Continuous
 62
               7
100
AcDbHatch
 10
0.0
 20
0.0
 30
0.0
210
0.0
220
0.0
230
1.0
  2
SOLID
 70
               1
 71
               1
 91
        1
 92
        1
 93
        1
 72
               2
 10
-2.9045399999999999
 20
29.776559999999996
 40
0.1399986921367483
 50
0.0
 51
360.0
 73
               0
 97
        1
330
1B5
 75
               0
 76
               1
 98
        1
 10
0.0
 20
0.0
  0
CIRCLE
  5
1B7
102
{ACAD_REACTORS
330
1B8
102
}
100
AcDbEntity
  8
None
370
               9
390
0
  6
Continuous
 62
               7
100
AcDbCircle
 10
-2.4045399999999999
 20
29.776559999999996
 30
0.0
 40
0.139998692136748
  0
HATCH
  5
1B8
100
AcDbEntity
  8
None
370
               0
390
0
  6
Continuous
 62
               7
100
AcDbHatch
 10
0.0
 20
0.0
 30
0.0
210
0.0
220
0.0
230
1.0
  2
SOLID
 70
               1
 71
               1
 91
        1
 92
        1
 93
        1
 72
               2
 10
-2.4045399999999999
 20
29.776559999999996
 40
0.139998692136748
 50
0.0
 51
360.0
 73
               0
 97
        1
330
1B7
 75
               0
 76
               1
 98
        1
 10
0.0
 20
0.0
  0
CIRCLE
  5
1B9
102
{ACAD_REACTORS
330
1BA
102
}
100
AcDbEntity
  8
None
370
               9
390
0
  6
Continuous
 62
               7
100
AcDbCircle
 10
-1.9045399999999999
 20
29.776559999999996
 30
0.0
 40
0.1399986921367482
  0
HATCH
  5
1BA
100
AcDbEntity
  8
None
370
               0
390
0
  6
Continuous
 62
               7
100
AcDbHatch
 10
0.0
 20
0.0
 30
0.0
210
0.0
220
0.0
230
1.0
  2
SOLID
 70
               1
 71
               1
 91
        1
 92
        1
 93
        1
 72
               2
 10
-1.9045399999999999
 20
29.776559999999996
 40
0.1399986921367482
 50
0.0
 51
360.0
 73
               0
 97
        1
330
1B9
 75
               0
 76
               1
 98
        1
 10
0.0
 20
0.0
  0
CIRCLE
  5
1BB
102
{ACAD_REACTORS
330
1BC
102
}
100
AcDbEntity
  8
None
370
               9
390
0
  6
Continuous
 62
               7
100
AcDbCircle
 10
-1.4045399999999999
 20
29.776559999999996
 30
0.0
 40
0.1399986921367482
  0
HATCH
  5
1BC
100
AcDbEntity
  8
None
370
               0
390
0
  6
Continuous
 62
               7
100
AcDbHatch
 10
0.0
 20
0.0
 30
0.0
210
0.0
220
0.0
230
1.0
  2
SOLID
 70
               1
 71
               1
 91
        1
 92
        1
 93
        1
 72
               2
 10
-1.4045399999999999
 20
29.776559999999996
 40
0.1399986921367482
 50
0.0
 51
360.0
 73
               0
 97
        1
330
1BB
 75
               0
 76
               1
 98
        1
 10
0.0
 20
0.0
  0
CIRCLE
  5
1BD
102
{ACAD_REACTORS
330
1BE
102
}
100
AcDbEntity
  8
None
370
               9
390
0
  6
Continuous
 62
               7
100
AcDbCircle
 10
-0.9045399999999999
 20
29.776559999999996
 30
0.0
 40
0.1399986921367481
  0
HATCH
  5
1BE
100
AcDbEntity
  8
None
370
               0
390
0
  6
Continuous
 62
               7
100
AcDbHatch
 10
0.0
 20
0.0
 30
0.0
210
0.0
220
0.0
230
1.0
  2
SOLID
 70
               1
 71
               1
 91
        1
 92
        1
 93
        1
 72
               2
 10
-0.9045399999999999
 20
29.776559999999996
 40
0.1399986921367481
 50
0.0
 51
360.0
 73
               0
 97
        1
330
1BD
 75
               0
 76
               1
 98
        1
 10
0.0
 20
0.0
  0
CIRCLE
  5
1BF
102
{ACAD_REACTORS
330
1C0
102
}
100
AcDbEntity
  8
None
370
               9
390
0
  6
Continuous
 62
               7
100
AcDbCircle
 10
-0.40454
 20
29.776559999999996
 30
0.0
 40
0.1399986921367481
  0
HATCH
  5
1C0
100
AcDbEntity
  8
None
370
               0
390
0
  6
Continuous
 62
               7
100
AcDbHatch
 10
0.0
 20
0.0
 30
0.0
210
0.0
220
0.0
230
1.0
  2
SOLID
 70
               1
 71
               1
 91
        1
 92
        1
 93
        1
 72
               2
 10
-0.40454
 20
29.776559999999996
 40
0.1399986921367481
 50
0.0
 51
360.0
 73
               0
 97
        1
330
1BF
 75
               0
 76
               1
 98
        1
 10
0.0
 20
0.0
  0
CIRCLE
  5
1C1
102
{ACAD_REACTORS
330
1C2
102
}
100
AcDbEntity
  8
None
370
               9
390
0
  6
Continuous
 62
               7
100
AcDbCircle
 10
0.09546
 20
29.776559999999996
 30
0.0
 40
0.1399986921367481
  0
HATCH
  5
1C2
100
AcDbEntity
  8
None
370
               0
390
0
  6
Continuous
 62
               7
100
AcDbHatch
 10
0.0
 20
0.0
 30
0.0
210
0.0
220
0.0
230
1.0
  2
SOLID
 70
               1
 71
               1
 91
        1
 92
        1
 93
        1
 72
               2
 10
0.09546
 20
29.776559999999996
 40
0.1399986921367481
 50
0.0
 51
360.0
 73
               0
 97
        1
330
1C1
 75
               0
 76
               1
 98
        1
 10
0.0
 20
0.0
  0
CIRCLE
  5
1C3
102
{ACAD_REACTORS
330
1C4
102
}
100
AcDbEntity
  8
None
370
               9
390
0
  6
Continuous
 62
               7
100
AcDbCircle
 10
0.59546
 20
29.776559999999996
 30
0.0
 40
0.1399986921367481
  0
HATCH
  5
1C4
100
AcDbEntity
  8
None
370
               0
390
0
  6
Continuous
 62
               7
100
AcDbHatch
 10
0.0
 20
0.0
 30
0.0
210
0.0
220
0.0
230
1.0
  2
SOLID
 70
               1
 71
               1
 91
        1
 92
        1
 93
        1
 72
               2
 10
0.59546
 20
29.776559999999996
 40
0.1399986921367481
 50
0.0
 51
360.0
 73
               0
 97
        1
330
1C3
 75
               0
 76
               1
 98
        1
 10
0.0
 20
0.0
  0
CIRCLE
  5
1C5
102
{ACAD_REACTORS
330
1C6
102
}
100
AcDbEntity
  8
None
370
               9
390
0
  6
Continuous
 62
               7
100
AcDbCircle
 10
1.0954599999999999
 20
29.776559999999996
 30
0.0
 40
0.1399986921367482
  0
HATCH
  5
1C6
100
AcDbEntity
  8
None
370
               0
390
0
  6
Continuous
 62
               7
100
AcDbHatch
 10
0.0
 20
0.0
 30
0.0
210
0.0
220
0.0
230
1.0
  2
SOLID
 70
               1
 71
               1
 91
        1
 92
        1
 93
        1
 72
               2
 10
1.0954599999999999
 20
29.776559999999996
 40
0.1399986921367482
 50
0.0
 51
360.0
 73
               0
 97
        1
330
1C5
 75
               0
 76
               1
 98
        1
 10
0.0
 20
0.0
  0
CIRCLE
  5
1C7
102
{ACAD_REACTORS
330
1C8
102
}
100
AcDbEntity
  8
None
370
               9
390
0
  6
Continuous
 62
               7
100
AcDbCircle
 10
-2.9045399999999999
 20
30.276559999999996
 30
0.0
 40
0.1399986921367483
  0
HATCH
  5
1C8
100
AcDbEntity
  8
None
370
               0
390
0
  6
Continuous
 62
               7
100
AcDbHatch
 10
0.0
 20
0.0
 30
0.0
210
0.0
220
0.0
230
1.0
  2
SOLID
 70
               1
 71
               1
 91
        1
 92
        1
 93
        1
 72
               2
 10
-2.9045399999999999
 20
30.276559999999996
 40
0.1399986921367483
 50
0.0
 51
360.0
 73
               0
 97
        1
330
1C7
 75
               0
 76
               1
 98
        1
 10
0.0
 20
0.0
  0
CIRCLE
  5
1C9
102
{ACAD_REACTORS
330
1CA
102
}
100
AcDbEntity
  8
None
370
               9
390
0
  6
Continuous
 62
               7
100
AcDbCircle
 10
-2.4045399999999999
 20
30.276559999999996
 30
0.0
 40
0.139998692136748
  0
HATCH
  5
1CA
100
AcDbEntity
  8
None
370
               0
390
0
  6
Continuous
 62
               7
100
AcDbHatch
 10
0.0
 20
0.0
 30
0.0
210
0.0
220
0.0
230
1.0
  2
SOLID
 70
               1
 71
               1
 91
        1
 92
        1
 93
        1
 72
               2
 10
-2.4045399999999999
 20
30.276559999999996
 40
0.139998692136748
 50
0.0
 51
360.0
 73
               0
 97
        1
330
1C9
 75
               0
 76
               1
 98
        1
 10
0.0
 20
0.0
  0
CIRCLE
  5
1CB
102
{ACAD_REACTORS
330
1CC
102
}
100
AcDbEntity
  8
None
370
               9
390
0
  6
Continuous
 62
               7
100
AcDbCircle
 10
-1.9045399999999999
 20
30.276559999999996
 30
0.0
 40
0.1399986921367482
  0
HATCH
  5
1CC
100
AcDbEntity
  8
None
370
               0
390
0
  6
Continuous
 62
               7
100
AcDbHatch
 10
0.0
 20
0.0
 30
0.0
210
0.0
220
0.0
230
1.0
  2
SOLID
 70
               1
 71
               1
 91
        1
 92
        1
 93
        1
 72
               2
 10
-1.9045399999999999
 20
30.276559999999996
 40
0.1399986921367482
 50
0.0
 51
360.0
 73
               0
 97
        1
330
1CB
 75
               0
 76
               1
 98
        1
 10
0.0
 20
0.0
  0
CIRCLE
  5
1CD
102
{ACAD_REACTORS
330
1CE
102
}
100
AcDbEntity
  8
None
370
               9
390
0
  6
Continuous
 62
               7
100
AcDbCircle
 10
-1.4045399999999999
 20
30.276559999999996
 30
0.0
 40
0.1399986921367482
  0
HATCH
  5
1CE
100
AcDbEntity
  8
None
370
               0
390
0
  6
Continuous
 62
               7
100
AcDbHatch
 10
0.0
 20
0.0
 30
0.0
210
0.0
220
0.0
230
1.0
  2
SOLID
 70
               1
 71
               1
 91
        1
 92
        1
 93
        1
 72
               2
 10
-1.4045399999999999
 20
30.276559999999996
 40
0.1399986921367482
 50
0.0
 51
360.0
 73
               0
 97
        1
330
1CD
 75
               0
 76
               1
 98
        1
 10
0.0
 20
0.0
  0
CIRCLE
  5
1CF
102
{ACAD_REACTORS
330
1D0
102
}
100
AcDbEntity
  8
None
370
               9
390
0
  6
Continuous
 62
               7
100
AcDbCircle
 10
-0.9045399999999999
 20
30.276559999999996
 30
0.0
 40
0.1399986921367481
  0
HATCH
  5
1D0
100
AcDbEntity
  8
None
370
               0
390
0
  6
Continuous
 62
               7
100
AcDbHatch
 10
0.0
 20
0.0
 30
0.0
210
0.0
220
0.0
230
1.0
  2
SOLID
 70
               1
 71
               1
 91
        1
 92
        1
 93
        1
 72
               2
 10
-0.9045399999999999
 20
30.276559999999996
 40
0.1399986921367481
 50
0.0
 51
360.0
 73
               0
 97
        1
330
1CF
 75
               0
 76
               1
 98
        1
 10
0.0
 20
0.0
  0
CIRCLE
  5
1D1
102
{ACAD_REACTORS
330
1D2
102
}
100
AcDbEntity
  8
None
370
               9
390
0
  6
Continuous
 62
               7
100
AcDbCircle
 10
-0.40454
 20
30.276559999999996
 30
0.0
 40
0.1399986921367481
  0
HATCH
  5
1D2
100
AcDbEntity
  8
None
370
               0
390
0
  6
Continuous
 62
               7
100
AcDbHatch
 10
0.0
 20
0.0
 30
0.0
210
0.0
220
0.0
230
1.0
  2
SOLID
 70
               1
 71
               1
 91
        1
 92
        1
 93
        1
 72
               2
 10
-0.40454
 20
30.276559999999996
 40
0.1399986921367481
 50
0.0
 51
360.0
 73
               0
 97
        1
330
1D1
 75
               0
 76
               1
 98
        1
 10
0.0
 20
0.0
  0
CIRCLE
  5
1D3
102
{ACAD_REACTORS
330
1D4
102
}
100
AcDbEntity
  8
None
370
               9
390
0
  6
Continuous
 62
               7
100
AcDbCircle
 10
0.09546
 20
30.276559999999996
 30
0.0
 40
0.1399986921367481
  0
HATCH
  5
1D4
100
AcDbEntity
  8
None
370
               0
390
0
  6
Continuous
 62
               7
100
AcDbHatch
 10
0.0
 20
0.0
 30
0.0
210
0.0
220
0.0
230
1.0
  2
SOLID
 70
               1
 71
               1
 91
        1
 92
        1
 93
        1
 72
               2
 10
0.09546
 20
30.276559999999996
 40
0.1399986921367481
 50
0.0
 51
360.0
 73
               0
 97
        1
330
1D3
 75
               0
 76
               1
 98
        1
 10
0.0
 20
0.0
  0
CIRCLE
  5
1D5
102
{ACAD_REACTORS
330
1D6
102
}
100
AcDbEntity
  8
None
370
               9
390
0
  6
Continuous
 62
               7
100
AcDbCircle
 10
0.59546
 20
30.276559999999996
 30
0.0
 40
0.1399986921367481
  0
HATCH
  5
1D6
100
AcDbEntity
  8
None
370
               0
390
0
  6
Continuous
 62
               7
100
AcDbHatch
 10
0.0
 20
0.0
 30
0.0
210
0.0
220
0.0
230
1.0
  2
SOLID
 70
               1
 71
               1
 91
        1
 92
        1
 93
        1
 72
               2
 10
0.59546
 20
30.276559999999996
 40
0.1399986921367481
 50
0.0
 51
360.0
 73
               0
 97
        1
330
1D5
 75
               0
 76
               1
 98
        1
 10
0.0
 20
0.0
  0
CIRCLE
  5
1D7
102
{ACAD_REACTORS
330
1D8
102
}
100
AcDbEntity
  8
None
370
               9
390
0
  6
Continuous
 62
               7
100
AcDbCircle
 10
1.0954599999999999
 20
30.276559999999996
 30
0.0
 40
0.1399986921367482
  0
HATCH
  5
1D8
100
AcDbEntity
  8
None
370
               0
390
0
  6
Continuous
 62
               7
100
AcDbHatch
 10
0.0
 20
0.0
 30
0.0
210
0.0
220
0.0
230
1.0
  2
SOLID
 70
               1
 71
               1
 91
        1
 92
        1
 93
        1
 72
               2
 10
1.0954599999999999
 20
30.276559999999996
 40
0.1399986921367482
 50
0.0
 51
360.0
 73
               0
 97
        1
330
1D7
 75
               0
 76
               1
 98
        1
 10
0.0
 20
0.0
  0
CIRCLE
  5
1D9
102
{ACAD_REACTORS
330
1DA
102
}
100
AcDbEntity
  8
None
370
               9
390
0
  6
Continuous
 62
               7
100
AcDbCircle
 10
-2.9045399999999999
 20
30.776559999999996
 30
0.0
 40
0.1399986921367483
  0
HATCH
  5
1DA
100
AcDbEntity
  8
None
370
               0
390
0
  6
Continuous
 62
               7
100
AcDbHatch
 10
0.0
 20
0.0
 30
0.0
210
0.0
220
0.0
230
1.0
  2
SOLID
 70
               1
 71
               1
 91
        1
 92
        1
 93
        1
 72
               2
 10
-2.9045399999999999
 20
30.776559999999996
 40
0.1399986921367483
 50
0.0
 51
360.0
 73
               0
 97
        1
330
1D9
 75
               0
 76
               1
 98
        1
 10
0.0
 20
0.0
  0
CIRCLE
  5
1DB
102
{ACAD_REACTORS
330
1DC
102
}
100
AcDbEntity
  8
None
370
               9
390
0
  6
Continuous
 62
               7
100
AcDbCircle
 10
-2.4045399999999999
 20
30.776559999999996
 30
0.0
 40
0.139998692136748
  0
HATCH
  5
1DC
100
AcDbEntity
  8
None
370
               0
390
0
  6
Continuous
 62
               7
100
AcDbHatch
 10
0.0
 20
0.0
 30
0.0
210
0.0
220
0.0
230
1.0
  2
SOLID
 70
               1
 71
               1
 91
        1
 92
        1
 93
        1
 72
               2
 10
-2.4045399999999999
 20
30.776559999999996
 40
0.139998692136748
 50
0.0
 51
360.0
 73
               0
 97
        1
330
1DB
 75
               0
 76
               1
 98
        1
 10
0.0
 20
0.0
  0
CIRCLE
  5
1DD
102
{ACAD_REACTORS
330
1DE
102
}
100
AcDbEntity
  8
None
370
               9
390
0
  6
Continuous
 62
               7
100
AcDbCircle
 10
-1.9045399999999999
 20
30.776559999999996
 30
0.0
 40
0.1399986921367482
  0
HATCH
  5
1DE
100
AcDbEntity
  8
None
370
               0
390
0
  6
Continuous
 62
               7
100
AcDbHatch
 10
0.0
 20
0.0
 30
0.0
210
0.0
220
0.0
230
1.0
  2
SOLID
 70
               1
 71
               1
 91
        1
 92
        1
 93
        1
 72
               2
 10
-1.9045399999999999
 20
30.776559999999996
 40
0.1399986921367482
 50
0.0
 51
360.0
 73
               0
 97
        1
330
1DD
 75
               0
 76
               1
 98
        1
 10
0.0
 20
0.0
  0
CIRCLE
  5
1DF
102
{ACAD_REACTORS
330
1E0
102
}
100
AcDbEntity
  8
None
370
               9
390
0
  6
Continuous
 62
               7
100
AcDbCircle
 10
-1.4045399999999999
 20
30.776559999999996
 30
0.0
 40
0.1399986921367482
  0
HATCH
  5
1E0
100
AcDbEntity
  8
None
370
               0
390
0
  6
Continuous
 62
               7
100
AcDbHatch
 10
0.0
 20
0.0
 30
0.0
210
0.0
220
0.0
230
1.0
  2
SOLID
 70
               1
 71
               1
 91
        1
 92
        1
 93
        1
 72
               2
 10
-1.4045399999999999
 20
30.776559999999996
 40
0.1399986921367482
 50
0.0
 51
360.0
 73
               0
 97
        1
330
1DF
 75
               0
 76
               1
 98
        1
 10
0.0
 20
0.0
  0
CIRCLE
  5
1E1
102
{ACAD_REACTORS
330
1E2
102
}
100
AcDbEntity
  8
None
370
               9
390
0
  6
Continuous
 62
               7
100
AcDbCircle
 10
-0.9045399999999999
 20
30.776559999999996
 30
0.0
 40
0.1399986921367481
  0
HATCH
  5
1E2
100
AcDbEntity
  8
None
370
               0
390
0
  6
Continuous
 62
               7
100
AcDbHatch
 10
0.0
 20
0.0
 30
0.0
210
0.0
220
0.0
230
1.0
  2
SOLID
 70
               1
 71
               1
 91
        1
 92
        1
 93
        1
 72
               2
 10
-0.9045399999999999
 20
30.776559999999996
 40
0.1399986921367481
 50
0.0
 51
360.0
 73
               0
 97
        1
330
1E1
 75
               0
 76
               1
 98
        1
 10
0.0
 20
0.0
  0
CIRCLE
  5
1E3
102
{ACAD_REACTORS
330
1E4
102
}
100
AcDbEntity
  8
None
370
               9
390
0
  6
Continuous
 62
               7
100
AcDbCircle
 10
-0.40454
 20
30.776559999999996
 30
0.0
 40
0.1399986921367481
  0
HATCH
  5
1E4
100
AcDbEntity
  8
None
370
               0
390
0
  6
Continuous
 62
               7
100
AcDbHatch
 10
0.0
 20
0.0
 30
0.0
210
0.0
220
0.0
230
1.0
  2
SOLID
 70
               1
 71
               1
 91
        1
 92
        1
 93
        1
 72
               2
 10
-0.40454
 20
30.776559999999996
 40
0.1399986921367481
 50
0.0
 51
360.0
 73
               0
 97
        1
330
1E3
 75
               0
 76
               1
 98
        1
 10
0.0
 20
0.0
  0
CIRCLE
  5
1E5
102
{ACAD_REACTORS
330
1E6
102
}
100
AcDbEntity
  8
None
370
               9
390
0
  6
Continuous
 62
               7
100
AcDbCircle
 10
0.09546
 20
30.776559999999996
 30
0.0
 40
0.1399986921367481
  0
HATCH
  5
1E6
100
AcDbEntity
  8
None
370
               0
390
0
  6
Continuous
 62
               7
100
AcDbHatch
 10
0.0
 20
0.0
 30
0.0
210
0.0
220
0.0
230
1.0
  2
SOLID
 70
               1
 71
               1
 91
        1
 92
        1
 93
        1
 72
               2
 10
0.09546
 20
30.776559999999996
 40
0.1399986921367481
 50
0.0
 51
360.0
 73
               0
 97
        1
330
1E5
 75
               0
 76
               1
 98
        1
 10
0.0
 20
0.0
  0
CIRCLE
  5
1E7
102
{ACAD_REACTORS
330
1E8
102
}
100
AcDbEntity
  8
None
370
               9
390
0
  6
Continuous
 62
               7
100
AcDbCircle
 10
0.59546
 20
30.776559999999996
 30
0.0
 40
0.1399986921367481
  0
HATCH
  5
1E8
100
AcDbEntity
  8
None
370
               0
390
0
  6
Continuous
 62
               7
100
AcDbHatch
 10
0.0
 20
0.0
 30
0.0
210
0.0
220
0.0
230
1.0
  2
SOLID
 70
               1
 71
               1
 91
        1
 92
        1
 93
        1
 72
               2
 10
0.59546
 20
30.776559999999996
 40
0.1399986921367481
 50
0.0
 51
360.0
 73
               0
 97
        1
330
1E7
 75
               0
 76
               1
 98
        1
 10
0.0
 20
0.0
  0
CIRCLE
  5
1E9
102
{ACAD_REACTORS
330
1EA
102
}
100
AcDbEntity
  8
None
370
               9
390
0
  6
Continuous
 62
               7
100
AcDbCircle
 10
1.0954599999999999
 20
30.776559999999996
 30
0.0
 40
0.1399986921367482
  0
HATCH
  5
1EA
100
AcDbEntity
  8
None
370
               0
390
0
  6
Continuous
 62
               7
100
AcDbHatch
 10
0.0
 20
0.0
 30
0.0
210
0.0
220
0.0
230
1.0
  2
SOLID
 70
               1
 71
               1
 91
        1
 92
        1
 93
        1
 72
               2
 10
1.0954599999999999
 20
30.776559999999996
 40
0.1399986921367482
 50
0.0
 51
360.0
 73
               0
 97
        1
330
1E9
 75
               0
 76
               1
 98
        1
 10
0.0
 20
0.0
  0
CIRCLE
  5
1EB
102
{ACAD_REACTORS
330
1EC
102
}
100
AcDbEntity
  8
None
370
               9
390
0
  6
Continuous
 62
               7
100
AcDbCircle
 10
-2.9045399999999999
 20
31.276559999999996
 30
0.0
 40
0.1399986921367483
  0
HATCH
  5
1EC
100
AcDbEntity
  8
None
370
               0
390
0
  6
Continuous
 62
               7
100
AcDbHatch
 10
0.0
 20
0.0
 30
0.0
210
0.0
220
0.0
230
1.0
  2
SOLID
 70
               1
 71
               1
 91
        1
 92
        1
 93
        1
 72
               2
 10
-2.9045399999999999
 20
31.276559999999996
 40
0.1399986921367483
 50
0.0
 51
360.0
 73
               0
 97
        1
330
1EB
 75
               0
 76
               1
 98
        1
 10
0.0
 20
0.0
  0
CIRCLE
  5
1ED
102
{ACAD_REACTORS
330
1EE
102
}
100
AcDbEntity
  8
None
370
               9
390
0
  6
Continuous
 62
               7
100
AcDbCircle
 10
-2.4045399999999999
 20
31.276559999999996
 30
0.0
 40
0.139998692136748
  0
HATCH
  5
1EE
100
AcDbEntity
  8
None
370
               0
390
0
  6
Continuous
 62
               7
100
AcDbHatch
 10
0.0
 20
0.0
 30
0.0
210
0.0
220
0.0
230
1.0
  2
SOLID
 70
               1
 71
               1
 91
        1
 92
        1
 93
        1
 72
               2
 10
-2.4045399999999999
 20
31.276559999999996
 40
0.139998692136748
 50
0.0
 51
360.0
 73
               0
 97
        1
330
1ED
 75
               0
 76
               1
 98
        1
 10
0.0
 20
0.0
  0
CIRCLE
  5
1EF
102
{ACAD_REACTORS
330
1F0
102
}
100
AcDbEntity
  8
None
370
               9
390
0
  6
Continuous
 62
               7
100
AcDbCircle
 10
-1.9045399999999999
 20
31.276559999999996
 30
0.0
 40
0.1399986921367482
  0
HATCH
  5
1F0
100
AcDbEntity
  8
None
370
               0
390
0
  6
Continuous
 62
               7
100
AcDbHatch
 10
0.0
 20
0.0
 30
0.0
210
0.0
220
0.0
230
1.0
  2
SOLID
 70
               1
 71
               1
 91
        1
 92
        1
 93
        1
 72
               2
 10
-1.9045399999999999
 20
31.276559999999996
 40
0.1399986921367482
 50
0.0
 51
360.0
 73
               0
 97
        1
330
1EF
 75
               0
 76
               1
 98
        1
 10
0.0
 20
0.0
  0
CIRCLE
  5
1F1
102
{ACAD_REACTORS
330
1F2
102
}
100
AcDbEntity
  8
None
370
               9
390
0
  6
Continuous
 62
               7
100
AcDbCircle
 10
-1.4045399999999999
 20
31.276559999999996
 30
0.0
 40
0.1399986921367482
  0
HATCH
  5
1F2
100
AcDbEntity
  8
None
370
               0
390
0
  6
Continuous
 62
               7
100
AcDbHatch
 10
0.0
 20
0.0
 30
0.0
210
0.0
220
0.0
230
1.0
  2
SOLID
 70
               1
 71
               1
 91
        1
 92
        1
 93
        1
 72
               2
 10
-1.4045399999999999
 20
31.276559999999996
 40
0.1399986921367482
 50
0.0
 51
360.0
 73
               0
 97
        1
330
1F1
 75
               0
 76
               1
 98
        1
 10
0.0
 20
0.0
  0
CIRCLE
  5
1F3
102
{ACAD_REACTORS
330
1F4
102
}
100
AcDbEntity
  8
None
370
               9
390
0
  6
Continuous
 62
               7
100
AcDbCircle
 10
-0.9045399999999999
 20
31.276559999999996
 30
0.0
 40
0.1399986921367481
  0
HATCH
  5
1F4
100
AcDbEntity
  8
None
370
               0
390
0
  6
Continuous
 62
               7
100
AcDbHatch
 10
0.0
 20
0.0
 30
0.0
210
0.0
220
0.0
230
1.0
  2
SOLID
 70
               1
 71
               1
 91
        1
 92
        1
 93
        1
 72
               2
 10
-0.9045399999999999
 20
31.276559999999996
 40
0.1399986921367481
 50
0.0
 51
360.0
 73
               0
 97
        1
330
1F3
 75
               0
 76
               1
 98
        1
 10
0.0
 20
0.0
  0
CIRCLE
  5
1F5
102
{ACAD_REACTORS
330
1F6
102
}
100
AcDbEntity
  8
None
370
               9
390
0
  6
Continuous
 62
               7
100
AcDbCircle
 10
-0.40454
 20
31.276559999999996
 30
0.0
 40
0.1399986921367481
  0
HATCH
  5
1F6
100
AcDbEntity
  8
None
370
               0
390
0
  6
Continuous
 62
               7
100
AcDbHatch
 10
0.0
 20
0.0
 30
0.0
210
0.0
220
0.0
230
1.0
  2
SOLID
 70
               1
 71
               1
 91
        1
 92
        1
 93
        1
 72
               2
 10
-0.40454
 20
31.276559999999996
 40
0.1399986921367481
 50
0.0
 51
360.0
 73
               0
 97
        1
330
1F5
 75
               0
 76
               1
 98
        1
 10
0.0
 20
0.0
  0
CIRCLE
  5
1F7
102
{ACAD_REACTORS
330
1F8
102
}
100
AcDbEntity
  8
None
370
               9
390
0
  6
Continuous
 62
               7
100
AcDbCircle
 10
0.09546
 20
31.276559999999996
 30
0.0
 40
0.1399986921367481
  0
HATCH
  5
1F8
100
AcDbEntity
  8
None
370
               0
390
0
  6
Continuous
 62
               7
100
AcDbHatch
 10
0.0
 20
0.0
 30
0.0
210
0.0
220
0.0
230
1.0
  2
SOLID
 70
               1
 71
               1
 91
        1
 92
        1
 93
        1
 72
               2
 10
0.09546
 20
31.276559999999996
 40
0.1399986921367481
 50
0.0
 51
360.0
 73
               0
 97
        1
330
1F7
 75
               0
 76
               1
 98
        1
 10
0.0
 20
0.0
  0
CIRCLE
  5
1F9
102
{ACAD_REACTORS
330
1FA
102
}
100
AcDbEntity
  8
None
370
               9
390
0
  6
Continuous
 62
               7
100
AcDbCircle
 10
0.59546
 20
31.276559999999996
 30
0.0
 40
0.1399986921367481
  0
HATCH
  5
1FA
100
AcDbEntity
  8
None
370
               0
390
0
  6
Continuous
 62
               7
100
AcDbHatch
 10
0.0
 20
0.0
 30
0.0
210
0.0
220
0.0
230
1.0
  2
SOLID
 70
               1
 71
               1
 91
        1
 92
        1
 93
        1
 72
               2
 10
0.59546
 20
31.276559999999996
 40
0.1399986921367481
 50
0.0
 51
360.0
 73
               0
 97
        1
330
1F9
 75
               0
 76
               1
 98
        1
 10
0.0
 20
0.0
  0
CIRCLE
  5
1FB
102
{ACAD_REACTORS
330
1FC
102
}
100
AcDbEntity
  8
None
370
               9
390
0
  6
Continuous
 62
               7
100
AcDbCircle
 10
1.0954599999999999
 20
31.276559999999996
 30
0.0
 40
0.1399986921367482
  0
HATCH
  5
1FC
100
AcDbEntity
  8
None
370
               0
390
0
  6
Continuous
 62
               7
100
AcDbHatch
 10
0.0
 20
0.0
 30
0.0
210
0.0
220
0.0
230
1.0
  2
SOLID
 70
               1
 71
               1
 91
        1
 92
        1
 93
        1
 72
               2
 10
1.0954599999999999
 20
31.276559999999996
 40
0.1399986921367482
 50
0.0
 51
360.0
 73
               0
 97
        1
330
1FB
 75
               0
 76
               1
 98
        1
 10
0.0
 20
0.0
  0
ENDBLK
  5
1FD
100
AcDbEntity
  8
None
390
0
100
AcDbBlockEnd
  0
BLOCK
  5
1FE
100
AcDbEntity
  8
None
390
0
100
AcDbBlockBegin
  2
Group-2
 70
               0
 10
0.0
 20
0.0
 30
0.0
  3
Group-2
  1

  0
CIRCLE
  5
1FF
102
{ACAD_REACTORS
330
200
102
}
100
AcDbEntity
  8
None
370
               9
390
0
  6
Continuous
 62
             180
100
AcDbCircle
 10
-4.3151199999999994
 20
34.43656
 30
0.0
 40
0.2500014851955847
  0
HATCH
  5
200
100
AcDbEntity
  8
None
370
               0
390
0
  6
Continuous
 62
             180
100
AcDbHatch
 10
0.0
 20
0.0
 30
0.0
210
0.0
220
0.0
230
1.0
  2
SOLID
 70
               1
 71
               1
 91
        1
 92
        1
 93
        1
 72
               2
 10
-4.3151199999999994
 20
34.43656
 40
0.2500014851955847
 50
0.0
 51
360.0
 73
               0
 97
        1
330
1FF
 75
               0
 76
               1
 98
        1
 10
0.0
 20
0.0
  0
POLYLINE
  5
201
100
AcDbEntity
  8
None
370
               9
390
0
  6
STYLE_12
 62
               7
100
AcDb2dPolyline
 66
               1
 10
0.0
 20
0.0
 30
0.0
 70
               1
 75
               5
  0
VERTEX
  5
202
100
AcDbEntity
  8
None
370
               9
390
0
  6
STYLE_12
 62
               7
100
AcDbVertex
100
AcDb2dVertex
 10
-7.2670399999999997
 20
35.389059999999994
 30
0.0
  0
VERTEX
  5
203
100
AcDbEntity
  8
None
370
               9
390
0
  6
STYLE_12
 62
               7
100
AcDbVertex
100
AcDb2dVertex
 10
4.9579599999999999
 20
35.389059999999994
 30
0.0
  0
VERTEX
  5
204
100
AcDbEntity
  8
None
370
               9
390
0
  6
STYLE_12
 62
               7
100
AcDbVertex
100
AcDb2dVertex
 10
4.9579599999999999
 20
23.164059999999999
 30
0.0
  0
VERTEX
  5
205
100
AcDbEntity
  8
None
370
               9
390
0
  6
STYLE_12
 62
               7
100
AcDbVertex
100
AcDb2dVertex
 10
-7.2670399999999997
 20
23.164059999999999
 30
0.0
  0
SEQEND
  5
206
100
AcDbEntity
  8
None
370
               9
390
0
  6
STYLE_12
 62
               7
  0
CIRCLE
  5
207
100
AcDbEntity
  8
None
370
               9
390
0
  6
Continuous
 62
               7
100
AcDbCircle
 10
-6.0170399999999997
 20
34.139059999999994
 30
0.0
 40
0.8050000000000006
  0
CIRCLE
  5
208
100
AcDbEntity
  8
None
370
               9
390
0
  6
Continuous
 62
               7
100
AcDbCircle
 10
3.7079599999999995
 20
24.414059999999999
 30
0.0
 40
0.8049999999999997
  0
CIRCLE
  5
209
100
AcDbEntity
  8
None
370
               9
390
0
  6
Continuous
 62
               7
100
AcDbCircle
 10
-6.0170399999999997
 20
24.414059999999999
 30
0.0
 40
0.8050000000000006
  0
CIRCLE
  5
20A
100
AcDbEntity
  8
None
370
               9
390
0
  6
Continuous
 62
               7
100
AcDbCircle
 10
3.7079599999999995
 20
34.139059999999994
 30
0.0
 40
0.8049999999999997
  0
CIRCLE
  5
20B
100
AcDbEntity
  8
None
370
               9
390
0
  6
Continuous
 62
               7
100
AcDbCircle
 10
3.7079599999999995
 20
32.139060000000001
 30
0.0
 40
0.4250000000000003
  0
CIRCLE
  5
20C
100
AcDbEntity
  8
None
370
               9
390
0
  6
Continuous
 62
               7
100
AcDbCircle
 10
-6.0170399999999997
 20
27.414059999999999
 30
0.0
 40
0.4249999999999998
  0
INSERT
  5
20D
100
AcDbEntity
  8
None
390
0
 62
               7
100
AcDbBlockReference
  2
Group-1
 10
0.0
 20
0.0
 30
0.0
  0
ENDBLK
  5
20E
100
AcDbEntity
  8
None
390
0
100
AcDbBlockEnd
  0
BLOCK
  5
20F
100
AcDbEntity
  8
Dimension
390
0
100
AcDbBlockBegin
  2
*D20
 70
               1
 10
0.0
 20
0.0
 30
0.0
  3
*D20
  1

  0
LINE
  5
210
100
AcDbEntity
  8
Dimension
370
              -2
390
0
  6
Continuous
 62
               0
100
AcDbLine
 10
28.085951599999994
 20
-126.7608674
 30
0.0
 11
35.625270904853167
 21
-130.40000970394348
 31
0.0
  0
SOLID
  5
211
100
AcDbEntity
  8
Dimension
370
              -2
390
0
 62
               0
100
AcDbTrace
 10
28.085951599999994
 20
-126.7608674
 30
0.0
 11
28.623588707284743
 21
-126.86537346711791
 31
0.0
 12
28.499305959366808
 22
-127.12019086261608
 32
0.0
 13
28.499305959366808
 23
-127.12019086261608
 33
0.0
  0
LINE
  5
212
100
AcDbEntity
  8
Dimension
370
              -2
390
0
  6
Continuous
 62
               0
100
AcDbLine
 10
35.625270904853167
 20
-130.40000970394348
 30
0.0
 11
37.125267906832669
 21
-130.40000970394348
 31
0.0
  0
WIPEOUT
  5
213
100
AcDbEntity
  8
Dimension
370
              -2
390
0
  6
Continuous
 62
               0
 92
        0
100
AcDbWipeout
 90
        0
 10
37.125267906832669
 20
51.433853796056511
 30
0.0
 11
5.8737202591366238
 21
0.0
 31
0.0
 12
0.0
 22
5.8737202591366238
 32
0.0
 13
1.0
 23
1.0
340
0
 70
               7
280
               1
281
              50
282
              50
283
               0
360
0
 71
               2
 91
        5
 14
-0.5
 24
31.5435245390461
 14
0.5000000000000002
 24
31.5435245390461
 14
0.5000000000000002
 24
31.370851862232399
 14
-0.5
 24
31.370851862232399
 14
-0.5
 24
31.5435245390461
  0
MTEXT
  5
214
100
AcDbEntity
  8
Dimension
390
0
 62
               0
100
AcDbMText
 10
37.125267906832669
 20
-130.05504254769349
 30
0.0
 40
0.6315976562499999
 41
0.0
 71
               1
 72
               1
  1
Ø 0.28mm pad
  7
Helvetica
 73
               1
 44
0.9673603504928808
  0
POINT
  5
215
100
AcDbEntity
  8
Defpoints
370
               0
390
0
 62
               0
100
AcDbPoint
 10
27.833791599999994
 20
-126.6391474
 30
0.0
  0
POINT
  5
216
100
AcDbEntity
  8
Defpoints
370
               0
390
0
 62
               0
100
AcDbPoint
 10
28.085951599999994
 20
-126.7608674
 30
0.0
  0
ENDBLK
  5
217
100
AcDbEntity
  8
Dimension
390
0
100
AcDbBlockEnd
  0
ENDSEC
  0
SECTION
  2
ENTITIES
  0
WIPEOUT
  5
218
100
AcDbEntity
  8
Dimension
370
               5
390
0
  6
Continuous
 62
               7
 92
        0
100
AcDbWipeout
 90
        0
 10
19.432206599999994
 20
30.498651599999992
 30
0.0
 11
10.634024999999999
 21
0.0
 31
0.0
 12
0.0
 22
10.634024999999999
 32
0.0
 13
1.0
 23
1.0
340
0
 70
               7
280
               1
281
              50
282
              50
283
               0
360
0
 71
               2
 91
        5
 14
-0.5
 24
17.487702586743964
 14
0.5000000000000002
 24
17.487702586743964
 14
0.5000000000000002
 24
17.646939094087138
 14
-0.5
 24
17.646939094087138
 14
-0.5
 24
17.487702586743964
  0
POLYLINE
  5
219
100
AcDbEntity
  8
Dimension
370
               5
390
0
  6
Continuous
 62
               7
100
AcDb2dPolyline
 66
               1
 10
0.0
 20
0.0
 30
0.0
 70
               1
 75
               5
  0
VERTEX
  5
21A
100
AcDbEntity
  8
Dimension
370
               5
390
0
  6
Continuous
 62
               7
100
AcDbVertex
100
AcDb2dVertex
 10
19.432206599999994
 20
-150.1490024
 30
0.0
  0
VERTEX
  5
21B
100
AcDbEntity
  8
Dimension
370
               5
390
0
  6
Continuous
 62
               7
100
AcDbVertex
100
AcDb2dVertex
 10
30.066231599999995
 20
-150.1490024
 30
0.0
  0
VERTEX
  5
21C
100
AcDbEntity
  8
Dimension
370
               5
390
0
  6
Continuous
 62
               7
100
AcDbVertex
100
AcDb2dVertex
 10
30.066231599999995
 20
-151.84232739999999
 30
0.0
  0
VERTEX
  5
21D
100
AcDbEntity
  8
Dimension
370
               5
390
0
  6
Continuous
 62
               7
100
AcDbVertex
100
AcDb2dVertex
 10
19.432206599999994
 20
-151.84232739999999
 30
0.0
  0
SEQEND
  5
21E
100
AcDbEntity
  8
Dimension
370
               5
390
0
  6
Continuous
 62
               7
  0
WIPEOUT
  5
21F
100
AcDbEntity
  8
Dimension
370
               5
390
0
  6
Continuous
 62
               7
 92
        0
100
AcDbWipeout
 90
        0
 10
30.066231599999995
 20
30.498651599999992
 30
0.0
 11
7.4317250000000001
 21
0.0
 31
0.0
 12
0.0
 22
7.4317250000000001
 32
0.0
 13
1.0
 23
1.0
340
0
 70
               7
280
               1
281
              50
282
              50
283
               0
360
0
 71
               2
 91
        5
 14
-0.5
 24
24.807634364834541
 14
0.5
 24
24.807634364834541
 14
0.5
 24
25.035485233912716
 14
-0.5
 24
25.035485233912716
 14
-0.5
 24
24.807634364834541
  0
POLYLINE
  5
220
100
AcDbEntity
  8
Dimension
370
               5
390
0
  6
Continuous
 62
               7
100
AcDb2dPolyline
 66
               1
 10
0.0
 20
0.0
 30
0.0
 70
               1
 75
               5
  0
VERTEX
  5
221
100
AcDbEntity
  8
Dimension
370
               5
390
0
  6
Continuous
 62
               7
100
AcDbVertex
100
AcDb2dVertex
 10
30.066231599999995
 20
-150.1490024
 30
0.0
  0
VERTEX
  5
222
100
AcDbEntity
  8
Dimension
370
               5
390
0
  6
Continuous
 62
               7
100
AcDbVertex
100
AcDb2dVertex
 10
37.497956599999995
 20
-150.1490024
 30
0.0
  0
VERTEX
  5
223
100
AcDbEntity
  8
Dimension
370
               5
390
0
  6
Continuous
 62
               7
100
AcDbVertex
100
AcDb2dVertex
 10
37.497956599999995
 20
-151.84232739999999
 30
0.0
  0
VERTEX
  5
224
100
AcDbEntity
  8
Dimension
370
               5
390
0
  6
Continuous
 62
               7
100
AcDbVertex
100
AcDb2dVertex
 10
30.066231599999995
 20
-151.84232739999999
 30
0.0
  0
SEQEND
  5
225
100
AcDbEntity
  8
Dimension
370
               5
390
0
  6
Continuous
 62
               7
  0
WIPEOUT
  5
226
100
AcDbEntity
  8
Dimension
370
               5
390
0
  6
Continuous
 62
               7
 92
        0
100
AcDbWipeout
 90
        0
 10
37.497956599999995
 20
30.498651599999992
 30
0.0
 11
7.4421999999999979
 21
0.0
 31
0.0
 12
0.0
 22
7.4421999999999979
 32
0.0
 13
1.0
 23
1.0
340
0
 70
               7
280
               1
281
              50
282
              50
283
               0
360
0
 71
               2
 91
        5
 14
-0.5
 24
24.773421031415445
 14
0.5000000000000002
 24
24.773421031415445
 14
0.5000000000000002
 24
25.00095119722663
 14
-0.5
 24
25.00095119722663
 14
-0.5
 24
24.773421031415445
  0
POLYLINE
  5
227
100
AcDbEntity
  8
Dimension
370
               5
390
0
  6
Continuous
 62
               7
100
AcDb2dPolyline
 66
               1
 10
0.0
 20
0.0
 30
0.0
 70
               1
 75
               5
  0
VERTEX
  5
228
100
AcDbEntity
  8
Dimension
370
               5
390
0
  6
Continuous
 62
               7
100
AcDbVertex
100
AcDb2dVertex
 10
37.497956599999995
 20
-150.1490024
 30
0.0
  0
VERTEX
  5
229
100
AcDbEntity
  8
Dimension
370
               5
390
0
  6
Continuous
 62
               7
100
AcDbVertex
100
AcDb2dVertex
 10
44.940156599999995
 20
-150.1490024
 30
0.0
  0
VERTEX
  5
22A
100
AcDbEntity
  8
Dimension
370
               5
390
0
  6
Continuous
 62
               7
100
AcDbVertex
100
AcDb2dVertex
 10
44.940156599999995
 20
-151.84232739999999
 30
0.0
  0
VERTEX
  5
22B
100
AcDbEntity
  8
Dimension
370
               5
390
0
  6
Continuous
 62
               7
100
AcDbVertex
100
AcDb2dVertex
 10
37.497956599999995
 20
-151.84232739999999
 30
0.0
  0
SEQEND
  5
22C
100
AcDbEntity
  8
Dimension
370
               5
390
0
  6
Continuous
 62
               7
  0
WIPEOUT
  5
22D
100
AcDbEntity
  8
Dimension
370
               5
390
0
  6
Continuous
 62
               7
 92
        0
100
AcDbWipeout
 90
        0
 10
19.432206599999994
 20
28.805296599999991
 30
0.0
 11
13.623094999999999
 21
0.0
 31
0.0
 12
0.0
 22
13.623094999999999
 32
0.0
 13
1.0
 23
1.0
340
0
 70
               7
280
               1
281
              50
282
              50
283
               0
360
0
 71
               2
 91
        5
 14
-0.5
 24
13.760395233241784
 14
0.5
 24
13.760395233241784
 14
0.5
 24
13.884695548258305
 14
-0.5
 24
13.884695548258305
 14
-0.5
 24
13.760395233241784
  0
POLYLINE
  5
22E
100
AcDbEntity
  8
Dimension
370
               5
390
0
  6
Continuous
 62
               7
100
AcDb2dPolyline
 66
               1
 10
0.0
 20
0.0
 30
0.0
 70
               1
 75
               5
  0
VERTEX
  5
22F
100
AcDbEntity
  8
Dimension
370
               5
390
0
  6
Continuous
 62
               7
100
AcDbVertex
100
AcDb2dVertex
 10
19.432206599999994
 20
-151.84232739999999
 30
0.0
  0
VERTEX
  5
230
100
AcDbEntity
  8
Dimension
370
               5
390
0
  6
Continuous
 62
               7
100
AcDbVertex
100
AcDb2dVertex
 10
33.055301599999993
 20
-151.84232739999999
 30
0.0
  0
VERTEX
  5
231
100
AcDbEntity
  8
Dimension
370
               5
390
0
  6
Continuous
 62
               7
100
AcDbVertex
100
AcDb2dVertex
 10
33.055301599999993
 20
-153.53568239999998
 30
0.0
  0
VERTEX
  5
232
100
AcDbEntity
  8
Dimension
370
               5
390
0
  6
Continuous
 62
               7
100
AcDbVertex
100
AcDb2dVertex
 10
19.432206599999994
 20
-153.53568239999998
 30
0.0
  0
SEQEND
  5
233
100
AcDbEntity
  8
Dimension
370
               5
390
0
  6
Continuous
 62
               7
  0
WIPEOUT
  5
234
100
AcDbEntity
  8
Dimension
370
               5
390
0
  6
Continuous
 62
               7
 92
        0
100
AcDbWipeout
 90
        0
 10
33.055301599999993
 20
28.805296599999991
 30
0.0
 11
11.884854999999998
 21
0.0
 31
0.0
 12
0.0
 22
11.884854999999998
 32
0.0
 13
1.0
 23
1.0
340
0
 70
               7
280
               1
281
              50
282
              50
283
               0
360
0
 71
               2
 91
        5
 14
-0.5
 24
15.699817246403091
 14
0.5000000000000002
 24
15.699817246403091
 14
0.5000000000000002
 24
15.842297318730434
 14
-0.5
 24
15.842297318730434
 14
-0.5
 24
15.699817246403091
  0
POLYLINE
  5
235
100
AcDbEntity
  8
Dimension
370
               5
390
0
  6
Continuous
 62
               7
100
AcDb2dPolyline
 66
               1
 10
0.0
 20
0.0
 30
0.0
 70
               1
 75
               5
  0
VERTEX
  5
236
100
AcDbEntity
  8
Dimension
370
               5
390
0
  6
Continuous
 62
               7
100
AcDbVertex
100
AcDb2dVertex
 10
33.055301599999993
 20
-151.84232739999999
 30
0.0
  0
VERTEX
  5
237
100
AcDbEntity
  8
Dimension
370
               5
390
0
  6
Continuous
 62
               7
100
AcDbVertex
100
AcDb2dVertex
 10
44.940156599999995
 20
-151.84232739999999
 30
0.0
  0
VERTEX
  5
238
100
AcDbEntity
  8
Dimension
370
               5
390
0
  6
Continuous
 62
               7
100
AcDbVertex
100
AcDb2dVertex
 10
44.940156599999995
 20
-153.53568239999998
 30
0.0
  0
VERTEX
  5
239
100
AcDbEntity
  8
Dimension
370
               5
390
0
  6
Continuous
 62
               7
100
AcDbVertex
100
AcDb2dVertex
 10
33.055301599999993
 20
-153.53568239999998
 30
0.0
  0
SEQEND
  5
23A
100
AcDbEntity
  8
Dimension
370
               5
390
0
  6
Continuous
 62
               7
  0
WIPEOUT
  5
23B
100
AcDbEntity
  8
Dimension
370
               5
390
0
  6
Continuous
 62
               7
 92
        0
100
AcDbWipeout
 90
        0
 10
33.055301599999993
 20
27.111976599999995
 30
0.0
 11
11.884854999999998
 21
0.0
 31
0.0
 12
0.0
 22
11.884854999999998
 32
0.0
 13
1.0
 23
1.0
340
0
 70
               7
280
               1
281
              50
282
              50
283
               0
360
0
 71
               2
 91
        5
 14
-0.5
 24
15.699820191327534
 14
0.5000000000000002
 24
15.699820191327534
 14
0.5000000000000002
 24
15.842297318730434
 14
-0.5
 24
15.842297318730434
 14
-0.5
 24
15.699820191327534
  0
POLYLINE
  5
23C
100
AcDbEntity
  8
Dimension
370
               5
390
0
  6
Continuous
 62
               7
100
AcDb2dPolyline
 66
               1
 10
0.0
 20
0.0
 30
0.0
 70
               1
 75
               5
  0
VERTEX
  5
23D
100
AcDbEntity
  8
Dimension
370
               5
390
0
  6
Continuous
 62
               7
100
AcDbVertex
100
AcDb2dVertex
 10
33.055301599999993
 20
-153.53568239999998
 30
0.0
  0
VERTEX
  5
23E
100
AcDbEntity
  8
Dimension
370
               5
390
0
  6
Continuous
 62
               7
100
AcDbVertex
100
AcDb2dVertex
 10
44.940156599999995
 20
-153.53568239999998
 30
0.0
  0
VERTEX
  5
23F
100
AcDbEntity
  8
Dimension
370
               5
390
0
  6
Continuous
 62
               7
100
AcDbVertex
100
AcDb2dVertex
 10
44.940156599999995
 20
-155.22900239999998
 30
0.0
  0
VERTEX
  5
240
100
AcDbEntity
  8
Dimension
370
               5
390
0
  6
Continuous
 62
               7
100
AcDbVertex
100
AcDb2dVertex
 10
33.055301599999993
 20
-155.22900239999998
 30
0.0
  0
SEQEND
  5
241
100
AcDbEntity
  8
Dimension
370
               5
390
0
  6
Continuous
 62
               7
  0
WIPEOUT
  5
242
100
AcDbEntity
  8
Dimension
370
               5
390
0
  6
Continuous
 62
               7
 92
        0
100
AcDbWipeout
 90
        0
 10
19.432206599999994
 20
27.111976599999995
 30
0.0
 11
13.623094999999999
 21
0.0
 31
0.0
 12
0.0
 22
13.623094999999999
 32
0.0
 13
1.0
 23
1.0
340
0
 70
               7
280
               1
281
              50
282
              50
283
               0
360
0
 71
               2
 91
        5
 14
-0.5
 24
13.760397802408336
 14
0.5
 24
13.760397802408336
 14
0.5
 24
13.884695548258305
 14
-0.5
 24
13.884695548258305
 14
-0.5
 24
13.760397802408336
  0
POLYLINE
  5
243
100
AcDbEntity
  8
Dimension
370
               5
390
0
  6
Continuous
 62
               7
100
AcDb2dPolyline
 66
               1
 10
0.0
 20
0.0
 30
0.0
 70
               1
 75
               5
  0
VERTEX
  5
244
100
AcDbEntity
  8
Dimension
370
               5
390
0
  6
Continuous
 62
               7
100
AcDbVertex
100
AcDb2dVertex
 10
19.432206599999994
 20
-153.53568239999998
 30
0.0
  0
VERTEX
  5
245
100
AcDbEntity
  8
Dimension
370
               5
390
0
  6
Continuous
 62
               7
100
AcDbVertex
100
AcDb2dVertex
 10
33.055301599999993
 20
-153.53568239999998
 30
0.0
  0
VERTEX
  5
246
100
AcDbEntity
  8
Dimension
370
               5
390
0
  6
Continuous
 62
               7
100
AcDbVertex
100
AcDb2dVertex
 10
33.055301599999993
 20
-155.22900239999998
 30
0.0
  0
VERTEX
  5
247
100
AcDbEntity
  8
Dimension
370
               5
390
0
  6
Continuous
 62
               7
100
AcDbVertex
100
AcDb2dVertex
 10
19.432206599999994
 20
-155.22900239999998
 30
0.0
  0
SEQEND
  5
248
100
AcDbEntity
  8
Dimension
370
               5
390
0
  6
Continuous
 62
               7
  0
MTEXT
  5
249
100
AcDbEntity
  8
None
390
0
 62
               7
100
AcDbMText
 10
20.067206599999995
 20
-150.62845166302083
 30
0.0
 40
0.6316012369791665
 41
0.0
 71
               1
 72
               1
  1
Status: Released
  7
Arial
 73
               1
 44
0.9673603504928809
  0
MTEXT
  5
24A
100
AcDbEntity
  8
None
390
0
 62
               7
100
AcDbMText
 10
20.067206599999995
 20
-152.32320666302084
 30
0.0
 40
0.6316012369791665
 41
0.0
 71
               1
 72
               1
  1
Drawing:  H. Hansen
  7
Arial
 73
               1
 44
0.9673603504928809
  0
WIPEOUT
  5
24B
100
AcDbEntity
  8
None
370
               5
390
0
  6
Continuous
 62
               7
 92
        0
100
AcDbWipeout
 90
        0
 10
30.701231599999993
 20
30.904434849999994
 30
0.0
 11
3.9422940889994305
 21
0.0
 31
0.0
 12
0.0
 22
3.9422940889994305
 32
0.0
 13
1.0
 23
1.0
340
0
 70
               7
280
               1
281
              50
282
              50
283
               0
360
0
 71
               2
 91
        5
 14
-0.5
 24
46.752505491359436
 14
0.5000000000000004
 24
46.752505491359436
 14
0.5000000000000004
 24
46.495234793866288
 14
-0.5
 24
46.495234793866288
 14
-0.5
 24
46.752505491359436
  0
MTEXT
  5
24C
100
AcDbEntity
  8
None
390
0
 62
               7
100
AcDbMText
 10
30.701231599999993
 20
-150.58445666302083
 30
0.0
 40
0.6316012369791665
 41
0.0
 71
               1
 72
               1
  1
Scale: 4:1
  7
Arial
 73
               1
 44
0.9673603504928809
  0
MTEXT
  5
24D
100
AcDbEntity
  8
None
390
0
 62
               7
100
AcDbMText
 10
38.132956599999993
 20
-150.62986666302083
 30
0.0
 40
0.6316012369791665
 41
0.0
 71
               1
 72
               1
  1
Rev: A
  7
Arial
 73
               1
 44
0.9673603504928809
  0
MTEXT
  5
24E
100
AcDbEntity
  8
None
390
0
 62
               7
100
AcDbMText
 10
33.690301599999991
 20
-152.46412166302082
 30
0.0
 40
0.6316012369791665
 41
0.0
 71
               1
 72
               1
  1
Date: 6/20/05
  7
Arial
 73
               1
 44
0.9673603504928809
  0
MTEXT
  5
24F
100
AcDbEntity
  8
None
390
0
 62
               7
100
AcDbMText
 10
20.067206599999995
 20
-154.1063666265625
 30
0.0
 40
0.5052802734374999
 41
0.0
 71
               1
 72
               1
  1
File: SG-BGA-7048 Dwg
  7
Arial
 73
               1
 44
0.9673603504928808
  0
WIPEOUT
  5
250
100
AcDbEntity
  8
Dimension
370
               5
390
0
  6
Continuous
 62
               7
 92
        0
100
AcDbWipeout
 90
        0
 10
-5.8725434000000014
 20
27.111976599999995
 30
0.0
 11
25.304749999999995
 21
0.0
 31
0.0
 12
0.0
 22
25.304749999999995
 32
0.0
 13
1.0
 23
1.0
340
0
 70
               7
280
               1
281
              50
282
              50
283
               0
360
0
 71
               2
 91
        5
 14
-0.5
 24
7.571964907774233
 14
0.5
 24
7.571964907774233
 14
0.5
 24
7.7058004524842181
 14
-0.5
 24
7.7058004524842181
 14
-0.5
 24
7.571964907774233
  0
POLYLINE
  5
251
100
AcDbEntity
  8
Dimension
370
               5
390
0
  6
Continuous
 62
               7
100
AcDb2dPolyline
 66
               1
 10
0.0
 20
0.0
 30
0.0
 70
               1
 75
               5
  0
VERTEX
  5
252
100
AcDbEntity
  8
Dimension
370
               5
390
0
  6
Continuous
 62
               7
100
AcDbVertex
100
AcDb2dVertex
 10
-5.8725434000000014
 20
-151.84232739999999
 30
0.0
  0
VERTEX
  5
253
100
AcDbEntity
  8
Dimension
370
               5
390
0
  6
Continuous
 62
               7
100
AcDbVertex
100
AcDb2dVertex
 10
19.432206599999994
 20
-151.84232739999999
 30
0.0
  0
VERTEX
  5
254
100
AcDbEntity
  8
Dimension
370
               5
390
0
  6
Continuous
 62
               7
100
AcDbVertex
100
AcDb2dVertex
 10
19.432206599999994
 20
-155.22900239999998
 30
0.0
  0
VERTEX
  5
255
100
AcDbEntity
  8
Dimension
370
               5
390
0
  6
Continuous
 62
               7
100
AcDbVertex
100
AcDb2dVertex
 10
-5.8725434000000014
 20
-155.22900239999998
 30
0.0
  0
SEQEND
  5
256
100
AcDbEntity
  8
Dimension
370
               5
390
0
  6
Continuous
 62
               7
  0
WIPEOUT
  5
257
100
AcDbEntity
  8
Dimension
370
               5
390
0
  6
Continuous
 62
               7
 92
        0
100
AcDbWipeout
 90
        0
 10
-5.8725434000000014
 20
30.498651599999992
 30
0.0
 11
25.304749999999995
 21
0.0
 31
0.0
 12
0.0
 22
25.304749999999995
 32
0.0
 13
1.0
 23
1.0
340
0
 70
               7
280
               1
281
              50
282
              50
283
               0
360
0
 71
               2
 91
        5
 14
-0.5
 24
7.6388831741076286
 14
0.5
 24
7.6388831741076286
 14
0.5
 24
7.7058004524842181
 14
-0.5
 24
7.7058004524842181
 14
-0.5
 24
7.6388831741076286
  0
POLYLINE
  5
258
100
AcDbEntity
  8
Dimension
370
               5
390
0
  6
Continuous
 62
               7
100
AcDb2dPolyline
 66
               1
 10
0.0
 20
0.0
 30
0.0
 70
               1
 75
               5
  0
VERTEX
  5
259
100
AcDbEntity
  8
Dimension
370
               5
390
0
  6
Continuous
 62
               7
100
AcDbVertex
100
AcDb2dVertex
 10
-5.8725434000000014
 20
-150.1490024
 30
0.0
  0
VERTEX
  5
25A
100
AcDbEntity
  8
Dimension
370
               5
390
0
  6
Continuous
 62
               7
100
AcDbVertex
100
AcDb2dVertex
 10
19.432206599999994
 20
-150.1490024
 30
0.0
  0
VERTEX
  5
25B
100
AcDbEntity
  8
Dimension
370
               5
390
0
  6
Continuous
 62
               7
100
AcDbVertex
100
AcDb2dVertex
 10
19.432206599999994
 20
-151.84232739999999
 30
0.0
  0
VERTEX
  5
25C
100
AcDbEntity
  8
Dimension
370
               5
390
0
  6
Continuous
 62
               7
100
AcDbVertex
100
AcDb2dVertex
 10
-5.8725434000000014
 20
-151.84232739999999
 30
0.0
  0
SEQEND
  5
25D
100
AcDbEntity
  8
Dimension
370
               5
390
0
  6
Continuous
 62
               7
  0
MTEXT
  5
25E
100
AcDbEntity
  8
None
390
0
 62
               7
100
AcDbMText
 10
6.7798315999999943
 20
-150.59629628958334
 30
0.0
 40
0.7367565104166665
 41
0.0
 71
               2
 72
               1
  1
SG-BGA-7048 Drawing
  7
Arial (bold)
 73
               1
 44
0.9925958378970426
  0
MTEXT
  5
25F
100
AcDbEntity
  8
None
390
0
 62
               7
100
AcDbMText
 10
7.7694465999999949
 20
-152.05106804843749
 30
0.0
 40
0.5024228515624999
 41
18.369139999999998
 71
               2
 72
               1
  1
© 2005 IRONWOOD ELECTRONICS, INC.\PPO BOX 21151 ST. PAUL, MN  55121\PTele: (651) 452-8100\Pwww.ironwoodelectronics.com
  7
Arial
 73
               1
 44
0.9673603504928806
  0
INSERT
  5
260
100
AcDbEntity
  8
None
390
0
 62
               7
100
AcDbBlockReference
  2
IE i logo
 10
-3.1652384000000033
 20
-153.50920239999999
 30
0.0
 41
0.5
 42
0.5
 43
0.5
  0
MTEXT
  5
261
100
AcDbEntity
  8
None
390
0
 62
               7
100
AcDbMText
 10
33.690301599999991
 20
-154.1063666265625
 30
0.0
 40
0.5052802734374999
 41
0.0
 71
               1
 72
               1
  1
Modified:  
  7
Arial
 73
               1
 44
0.9673603504928808
  0
WIPEOUT
  5
262
100
AcDbEntity
  8
None
370
               9
390
0
  6
Continuous
 62
               7
 92
        0
100
AcDbWipeout
 90
        0
 10
47.937206599999996
 20
27.090156599999993
 30
0.0
 11
8.8900002691480822
 21
0.0
 31
0.0
 12
0.0
 22
8.8900002691480822
 32
0.0
 13
1.0
 23
1.0
340
0
 70
               7
280
               1
281
              50
282
              50
283
               0
360
0
 71
               2
 91
        5
 14
-0.5
 24
21.010795666991978
 14
0.4999999999999992
 24
21.010795666991978
 14
0.4999999999999992
 24
20.805438530352099
 14
-0.5
 24
20.805438530352099
 14
-0.5
 24
21.010795666991978
  0
MTEXT
  5
263
100
AcDbEntity
  8
None
390
0
 62
               7
100
AcDbMText
 10
47.937206599999996
 20
-153.71706588958332
 30
0.0
 40
1.1368815104166665
 41
0.0
 71
               1
 72
               1
  1
PAGE 2 of 4
  7
Arial
 73
               1
 44
0.9673603504928806
  0
MTEXT
  5
264
100
AcDbEntity
  8
None
390
0
 62
               7
100
AcDbMText
 10
28.514511599999992
 20
-148.74082985052084
 30
0.0
 40
0.5204840494791666
 41
28.552694999999996
 71
               1
 72
               1
  1
Recommended PCB Layout Tolerances:  ±0.025mm [±0.001"] unless stated otherwise.\P
  7
Helvetica
 73
               1
 44
0.9673603504928806
  0
MTEXT
  5
265
100
AcDbEntity
  8
None
390
0
 62
               7
100
AcDbMText
 10
-5.4272884000000055
 20
-107.69524356406251
 30
0.0
 40
0.6124443359374999
 41
11.826889999999999
 71
               1
 72
               1
  1
{\LRecommended PCB Layout Top View}\P
  7
Helvetica
 73
               1
 44
0.9673603504928809
  0
WIPEOUT
  5
266
100
AcDbEntity
  8
None
370
              15
390
0
  6
Continuous
 62
              12
 92
        0
100
AcDbWipeout
 90
        0
 10
-5.2888634000000074
 20
34.046716599999996
 30
0.0
 11
17.851437822977701
 21
0.0
 31
0.0
 12
0.0
 22
17.851437822977701
 32
0.0
 13
1.0
 23
1.0
340
0
 70
               7
280
               1
281
              50
282
              50
283
               0
360
0
 71
               2
 91
        5
 14
-0.5
 24
10.714358126676917
 14
0.5
 24
10.714358126676917
 14
0.5
 24
10.509822781333462
 14
-0.5
 24
10.509822781333462
 14
-0.5
 24
10.714358126676917
  0
MTEXT
  5
267
100
AcDbEntity
  8
None
390
0
 62
              12
100
AcDbMText
 10
-5.2888634000000074
 20
-144.78894664479165
 30
0.0
 40
0.5684407552083333
 41
0.0
 71
               1
 72
               1
  1
{\LTarget PCB Recommendations}\PTotal thickness: 1.6mm min.\PPlating: Gold or Solder finish\PPCB Pad height: Same or higher than solder mask
  7
Arial
 73
               1
 44
0.9673603504928806
  0
WIPEOUT
  5
268
100
AcDbEntity
  8
None
370
               9
390
0
  6
Continuous
 62
              12
 92
        0
100
AcDbWipeout
 90
        0
 10
37.432206599999994
 20
72.002963399999985
 30
0.0
 11
21.660825000000003
 21
0.0
 31
0.0
 12
0.0
 22
21.660825000000003
 32
0.0
 13
1.0
 23
1.0
340
0
 70
               7
280
               1
281
              50
282
              50
283
               0
360
0
 71
               2
 91
        5
 14
-0.5
 24
8.9180071165341115
 14
0.4999999999999997
 24
8.9180071165341115
 14
0.4999999999999997
 24
8.8025044429286492
 14
-0.5
 24
8.8025044429286492
 14
-0.5
 24
8.9180071165341115
  0
MTEXT
  5
269
100
AcDbEntity
  8
None
390
0
 62
              12
100
AcDbMText
 10
37.432206599999994
 20
-108.06284347916667
 30
0.0
 40
0.7592005208333332
 41
21.660824999999999
 71
               1
 72
               1
  1
{\L*Note: BGA pattern is not symmetrical with respect to the mounting holes.}
  7
Arial (bold)
 73
               1
 44
0.992595837897043
  0
WIPEOUT
  5
26A
100
AcDbEntity
  8
None
370
               5
390
0
  6
Continuous
 62
               7
 92
        0
100
AcDbWipeout
 90
        0
 10
41.732206599999991
 20
67.365751349999996
 30
0.0
 11
12.647089523739284
 21
0.0
 31
0.0
 12
0.0
 22
12.647089523739284
 32
0.0
 13
1.0
 23
1.0
340
0
 70
               7
280
               1
281
              50
282
              50
283
               0
360
0
 71
               2
 91
        5
 14
-0.5
 24
14.917623806468352
 14
0.5000000000000004
 24
14.917623806468352
 14
0.5000000000000004
 24
14.677037998619939
 14
-0.5
 24
14.677037998619939
 14
-0.5
 24
14.917623806468352
  0
MTEXT
  5
26B
100
AcDbEntity
  8
None
390
0
 62
               7
100
AcDbMText
 10
41.732206599999991
 20
-112.09466666302083
 30
0.0
 40
0.6316012369791665
 41
0.0
 71
               1
 72
               1
  1
Note: Full BGA pattern shown. \PPlease adjust pattern according \Pto individual requirements.
  7
Arial
 73
               1
 44
0.9673603504928809
  0
WIPEOUT
  5
26C
100
AcDbEntity
  8
None
370
               9
390
0
  6
Continuous
 62
               7
 92
        0
100
AcDbWipeout
 90
        0
 10
39.107836599999992
 20
34.788454849999994
 30
0.0
 11
19.385151269700792
 21
0.0
 31
0.0
 12
0.0
 22
19.385151269700792
 32
0.0
 13
1.0
 23
1.0
340
0
 70
               7
280
               1
281
              50
282
              50
283
               0
360
0
 71
               2
 91
        5
 14
-0.5
 24
9.9062190417363922
 14
0.5
 24
9.9062190417363922
 14
0.5
 24
9.8538987510206191
 14
-0.5
 24
9.8538987510206191
 14
-0.5
 24
9.9062190417363922
  0
MTEXT
  5
26D
100
AcDbEntity
  8
None
390
0
 62
               7
100
AcDbMText
 10
39.107836599999992
 20
-146.70043666302084
 30
0.0
 40
0.6316012369791665
 41
0.0
 71
               1
 72
               1
  1
All dimensions are in mm unless stated otherwise
  7
Arial
 73
               1
 44
0.9673603504928809
  0
WIPEOUT
  5
26E
100
AcDbEntity
  8
None
370
               9
390
0
  6
Continuous
 62
              12
 92
        0
100
AcDbWipeout
 90
        0
 10
37.287941599999996
 20
54.756180599999993
 30
0.0
 11
10.292239586512245
 21
0.0
 31
0.0
 12
0.0
 22
10.292239586512245
 32
0.0
 13
1.0
 23
1.0
340
0
 70
               7
280
               1
281
              50
282
              50
283
               0
360
0
 71
               2
 91
        5
 14
-0.5
 24
18.216355849212242
 14
0.4999999999999993
 24
18.216355849212242
 14
0.4999999999999993
 24
18.117812573817726
 14
-0.5
 24
18.117812573817726
 14
-0.5
 24
18.216355849212242
  0
MTEXT
  5
26F
100
AcDbEntity
  8
None
390
0
 62
              12
100
AcDbMText
 10
37.287941599999996
 20
-126.73271574374999
 30
0.0
 40
0.6315976562499999
 41
0.0
 71
               1
 72
               1
  1
Non plated alignment hole
  7
Arial
 73
               1
 44
0.9673603504928808
  0
WIPEOUT
  5
270
100
AcDbEntity
  8
None
370
               9
390
0
  6
Continuous
 62
              12
 92
        0
100
AcDbWipeout
 90
        0
 10
3.6018215999999939
 20
58.092579599999986
 30
0.0
 11
4.9901799999999987
 21
0.0
 31
0.0
 12
0.0
 22
4.9901799999999987
 32
0.0
 13
1.0
 23
1.0
340
0
 70
               7
280
               1
281
              50
282
              50
283
               0
360
0
 71
               2
 91
        5
 14
-0.5
 24
37.039960281993842
 14
0.5
 24
37.039960281993842
 14
0.5
 24
36.633469534165108
 14
-0.5
 24
36.633469534165108
 14
-0.5
 24
37.039960281993842
  0
MTEXT
  5
271
100
AcDbEntity
  8
None
390
0
 62
              12
100
AcDbMText
 10
3.6018215999999939
 20
-122.38208574375
 30
0.0
 40
0.6315976562499999
 41
4.9901799999999996
 71
               1
 72
               1
  1
Socket Body Size
  7
New Century Schlbk
 73
               1
 44
0.9673603504928808
  0
LINE
  5
272
100
AcDbEntity
  8
None
370
               9
390
0
  6
Continuous
 62
              12
100
AcDbLine
 10
6.096911599999995
 20
-123.23416739999999
 30
0.0
 11
8.2627415999999947
 21
-125.40000739999999
 31
0.0
  0
LINE
  5
273
100
AcDbEntity
  8
None
370
               9
390
0
  6
Continuous
 62
              12
100
AcDbLine
 10
8.2627415999999947
 20
-125.40000739999999
 30
0.0
 11
18.347371599999995
 21
-125.40000739999999
 31
0.0
  0
SOLID
  5
274
100
AcDbEntity
  8
None
370
               9
390
0
 62
              12
100
AcDbTrace
 10
18.347371599999995
 20
-125.40000739999999
 30
0.0
 11
17.839263079492181
 21
-125.53615466773743
 31
0.0
 12
17.839263079492181
 22
-125.26386013226255
 32
0.0
 13
17.839263079492181
 23
-125.26386013226255
 33
0.0
  0
WIPEOUT
  5
275
100
AcDbEntity
  8
None
370
               9
390
0
  6
Continuous
 62
              12
 92
        0
100
AcDbWipeout
 90
        0
 10
37.332621599999996
 20
47.194820599999993
 30
0.0
 11
10.098212750752765
 21
0.0
 31
0.0
 12
0.0
 22
10.098212750752765
 32
0.0
 13
1.0
 23
1.0
340
0
 70
               7
280
               1
281
              50
282
              50
283
               0
360
0
 71
               2
 91
        5
 14
-0.5
 24
18.556757517453519
 14
0.5
 24
18.556757517453519
 14
0.5
 24
18.456320833751803
 14
-0.5
 24
18.456320833751803
 14
-0.5
 24
18.556757517453519
  0
MTEXT
  5
276
100
AcDbEntity
  8
None
390
0
 62
              12
100
AcDbMText
 10
37.332621599999996
 20
-134.29407574375
 30
0.0
 40
0.6315976562499999
 41
0.0
 71
               1
 72
               1
  1
Non plated mounting hole
  7
Arial
 73
               1
 44
0.9673603504928808
  0
WIPEOUT
  5
277
100
AcDbEntity
  8
None
370
               9
390
0
  6
Continuous
 62
              12
 92
        0
100
AcDbWipeout
 90
        0
 10
8.6122015999999952
 20
69.809700599999985
 30
0.0
 11
6.5351752281188951
 21
0.0
 31
0.0
 12
0.0
 22
6.5351752281188951
 32
0.0
 13
1.0
 23
1.0
340
0
 70
               7
280
               1
281
              50
282
              50
283
               0
360
0
 71
               2
 91
        5
 14
-0.5
 24
28.401467464168604
 14
0.5
 24
28.401467464168604
 14
0.5
 24
28.246271778575345
 14
-0.5
 24
28.246271778575345
 14
-0.5
 24
28.401467464168604
  0
MTEXT
  5
278
100
AcDbEntity
  8
None
390
0
 62
              12
100
AcDbMText
 10
8.6122015999999952
 20
-111.67919574375
 30
0.0
 40
0.6315976562499999
 41
0.0
 71
               1
 72
               1
  1
Orientation Mark
  7
New Century Schlbk
 73
               1
 44
0.9673603504928808
  0
LINE
  5
279
100
AcDbEntity
  8
None
370
               9
390
0
  6
Continuous
 62
              12
100
AcDbLine
 10
22.499291599999992
 20
-120.79000739999999
 30
0.0
 11
17.438331599999994
 21
-112.0241674
 31
0.0
  0
SOLID
  5
27A
100
AcDbEntity
  8
None
370
               9
390
0
 62
              12
100
AcDbTrace
 10
22.499291599999992
 20
-120.79000739999999
 30
0.0
 11
22.127330347229623
 21
-120.41804614722963
 31
0.0
 12
22.363144332262554
 22
-120.28189887949219
 32
0.0
 13
22.363144332262554
 23
-120.28189887949219
 33
0.0
  0
LINE
  5
27B
100
AcDbEntity
  8
None
370
               9
390
0
  6
Continuous
 62
              12
100
AcDbLine
 10
17.438331599999994
 20
-112.0241674
 30
0.0
 11
15.147371599999994
 21
-112.0241674
 31
0.0
  0
DIMENSION
  5
27C
100
AcDbEntity
  8
Dimension
370
               9
390
0
  6
Continuous
 62
              12
100
AcDbDimension
  2
*D3
 10
20.847371599999995
 20
-114.2667474
 30
0.0
 11
17.754821599999993
 21
-114.2667474
 31
0.0
 70
             128
 71
               5
 72
               1
 41
1.0
 42
0.0
  3
IE Standard
100
AcDbAlignedDimension
 13
19.597371599999995
 23
-120.08750739999999
 33
0.0
 14
20.847371599999995
 24
-121.33750739999999
 34
0.0
100
AcDbRotatedDimension
1001
ACAD
1000
DSTYLE
1002
{
1070
             271
1070
               3
1070
             340
1005
37
1070
              71
1070
               1
1070
              47
1040
0.125
1070
              48
1040
0.125
1070
               3
1000
<>mm(x4)
1070
             174
1070
               0
1070
             147
1040
0.09921875
1002
}
  0
DIMENSION
  5
27D
100
AcDbEntity
  8
Dimension
370
               9
390
0
  6
Continuous
 62
              12
100
AcDbDimension
  2
*D4
 10
13.947371599999993
 20
-120.08750739999999
 30
0.0
 11
13.947371599999993
 21
-117.8465874
 31
0.0
 70
             128
 71
               5
 72
               1
 41
1.0
 42
0.0
  3
IE Standard
100
AcDbAlignedDimension
 13
20.847371599999995
 23
-121.33750739999999
 33
0.0
 14
19.597371599999995
 24
-120.08750739999999
 34
0.0
 50
90.0
100
AcDbRotatedDimension
1001
ACAD
1000
DSTYLE
1002
{
1070
             271
1070
               3
1070
             340
1005
37
1070
              71
1070
               1
1070
              47
1040
0.125
1070
              48
1040
0.125
1070
               3
1000
<>mm(x4)
1070
             174
1070
               0
1070
             147
1040
0.09921875
1002
}
  0
DIMENSION
  5
27E
100
AcDbEntity
  8
Dimension
370
               9
390
0
  6
Continuous
 62
              12
100
AcDbDimension
  2
*D5
 10
16.564531599999995
 20
-121.33750739999999
 30
0.0
 11
16.564531599999995
 21
-122.7687574
 31
0.0
 70
             128
 71
               5
 72
               1
 41
1.0
 42
0.0
  3
IE Standard
100
AcDbAlignedDimension
 13
23.959871599999992
 23
-124.2000074
 33
0.0
 14
20.847371599999995
 24
-121.33750739999999
 34
0.0
 50
90.0
100
AcDbRotatedDimension
1001
ACAD
1000
DSTYLE
1002
{
1070
             271
1070
               4
1070
             340
1005
37
1070
             147
1040
0.09921875
1002
}
  0
DIMENSION
  5
27F
100
AcDbEntity
  8
Dimension
370
               9
390
0
  6
Continuous
 62
              12
100
AcDbDimension
  2
*D6
 10
23.959871599999992
 20
-115.7241674
 30
0.0
 11
25.709871599999992
 21
-115.7241674
 31
0.0
 70
             128
 71
               5
 72
               1
 41
1.0
 42
0.0
  3
IE Standard
100
AcDbAlignedDimension
 13
20.847371599999995
 23
-121.33750739999999
 33
0.0
 14
23.959871599999992
 24
-124.2000074
 34
0.0
100
AcDbRotatedDimension
1001
ACAD
1000
DSTYLE
1002
{
1070
             271
1070
               4
1070
             340
1005
37
1070
             174
1070
               0
1070
             147
1040
0.09921875
1002
}
  0
DIMENSION
  5
280
100
AcDbEntity
  8
Dimension
370
               9
390
0
  6
Continuous
 62
              12
100
AcDbDimension
  2
*D7
 10
26.959871599999992
 20
-117.6901774
 30
0.0
 11
29.136171599999994
 21
-117.6901774
 31
0.0
 70
             128
 71
               5
 72
               1
 41
1.0
 42
0.0
  3
IE Standard
100
AcDbAlignedDimension
 13
27.459871599999992
 23
-124.2000074
 33
0.0
 14
26.959871599999992
 24
-124.2000074
 34
0.0
100
AcDbRotatedDimension
1001
ACAD
1000
DSTYLE
1002
{
1070
             340
1005
37
1070
               3
1000
<>mm typ.
1070
             174
1070
               0
1070
             147
1040
0.09921875
1002
}
  0
DIMENSION
  5
281
100
AcDbEntity
  8
Dimension
370
               9
390
0
  6
Continuous
 62
              12
100
AcDbDimension
  2
*D8
 10
16.564531599999995
 20
-131.06250739999999
 30
0.0
 11
16.564531599999995
 21
-129.3973004908203
 31
0.0
 70
             128
 71
               5
 72
               1
 41
1.0
 42
0.0
  3
IE Standard
100
AcDbAlignedDimension
 13
20.847371599999995
 23
-128.06250739999999
 33
0.0
 14
20.847371599999995
 24
-131.06250739999999
 34
0.0
 50
90.0
100
AcDbRotatedDimension
1001
ACAD
1000
DSTYLE
1002
{
1070
             340
1005
37
1070
             147
1040
0.09921875
1002
}
  0
DIMENSION
  5
282
100
AcDbEntity
  8
Dimension
370
               9
390
0
  6
Continuous
 62
              12
100
AcDbDimension
  2
*D9
 10
34.499861599999988
 20
-121.33750739999999
 30
0.0
 11
34.499861599999988
 21
-122.33750739999999
 31
0.0
 70
             128
 71
               5
 72
               1
 41
1.0
 42
0.0
  3
IE Standard
100
AcDbAlignedDimension
 13
30.572371599999993
 23
-123.33750739999999
 33
0.0
 14
30.572371599999993
 24
-121.33750739999999
 34
0.0
 50
90.0
100
AcDbRotatedDimension
1001
ACAD
1000
DSTYLE
1002
{
1070
             340
1005
37
1070
             147
1040
0.09921875
1002
}
  0
DIMENSION
  5
283
100
AcDbEntity
  8
Dimension
370
               9
390
0
  6
Continuous
 62
              12
100
AcDbDimension
  2
*D10
 10
20.847371599999995
 20
-137.95260740000001
 30
0.0
 11
25.823984835473627
 21
-137.95260740000001
 31
0.0
 70
             128
 71
               5
 72
               1
 41
1.0
 42
0.0
  3
IE Standard
100
AcDbAlignedDimension
 13
30.572371599999993
 23
-131.06250739999999
 33
0.0
 14
20.847371599999995
 24
-131.06250739999999
 34
0.0
100
AcDbRotatedDimension
1001
ACAD
1000
DSTYLE
1002
{
1070
             271
1070
               3
1070
             340
1005
37
1070
               3
1000
<>mm (x4)
1070
             147
1040
0.09921875
1002
}
  0
DIMENSION
  5
284
100
AcDbEntity
  8
Dimension
370
               9
390
0
  6
Continuous
 62
              12
100
AcDbDimension
  2
*D11
 10
19.597371599999995
 20
-139.92416739999999
 30
0.0
 11
25.824033282128902
 21
-139.92416739999999
 31
0.0
 70
             128
 71
               5
 72
               1
 41
1.0
 42
0.0
  3
IE Standard
100
AcDbAlignedDimension
 13
31.822371599999993
 23
-132.31250739999999
 33
0.0
 14
19.597371599999995
 24
-132.31250739999999
 34
0.0
100
AcDbRotatedDimension
1001
ACAD
1000
DSTYLE
1002
{
1070
             271
1070
               3
1070
             340
1005
37
1070
               3
1000
<>mm (x4)
1070
             147
1040
0.09921875
1002
}
  0
DIMENSION
  5
285
100
AcDbEntity
  8
Dimension
370
               9
390
0
  6
Continuous
 62
              12
100
AcDbDimension
  2
*D12
 10
30.205621599999994
 20
-123.12274739999999
 30
0.0
 11
36.614535065255509
 21
-125.99729109366916
 31
0.0
 70
               3
 71
               5
 72
               1
 41
1.0
 42
0.0
  3
IE Standard
100
AcDbDiametricDimension
 15
30.939121599999993
 25
-123.55226739999999
 35
0.0
 40
4.8386199999999997
1001
ACAD
1000
DSTYLE
1002
{
1070
             271
1070
               3
1070
             172
1070
               0
1070
             289
1070
               0
1070
             342
1005
5B
1070
             340
1005
37
1070
              75
1070
               1
1070
              76
1070
               1
1070
              71
1070
               1
1070
              47
1040
0.025
1070
              48
1040
0.025
1070
               3
1000
mm (x2)
1070
             174
1070
               0
1070
             147
1040
0.09921875
1002
}
  0
DIMENSION
  5
286
100
AcDbEntity
  8
Dimension
370
               9
390
0
  6
Continuous
 62
              12
100
AcDbDimension
  2
*D13
 10
29.854281599999993
 20
-130.69866740000001
 30
0.0
 11
37.047350806906756
 21
-133.58321862761872
 31
0.0
 70
               3
 71
               5
 72
               1
 41
1.0
 42
0.0
  3
IE Standard
100
AcDbDiametricDimension
 15
31.290461599999993
 25
-131.4263474
 35
0.0
 40
4.7721299999999998
1001
ACAD
1000
DSTYLE
1002
{
1070
             271
1070
               3
1070
             172
1070
               0
1070
             289
1070
               0
1070
             342
1005
5B
1070
             340
1005
37
1070
              75
1070
               1
1070
              76
1070
               1
1070
              71
1070
               1
1070
              47
1040
0.05
1070
              48
1040
0.05
1070
               3
1000
mm (x4)
1070
             174
1070
               0
1070
             147
1040
0.09921875
1002
}
  0
DIMENSION
  5
287
100
AcDbEntity
  8
Dimension
370
               9
390
0
  6
Continuous
 62
              12
100
AcDbDimension
  2
*D14
 10
23.959871599999992
 20
-136.04416739999999
 30
0.0
 11
25.959871599999992
 21
-136.04416739999999
 31
0.0
 70
             128
 71
               5
 72
               1
 41
1.0
 42
0.0
  3
IE Standard
100
AcDbAlignedDimension
 13
27.959871599999992
 23
-128.2000074
 33
0.0
 14
23.959871599999992
 24
-128.2000074
 34
0.0
100
AcDbRotatedDimension
1001
ACAD
1000
DSTYLE
1002
{
1070
             340
1005
37
1070
             147
1040
0.09921875
1002
}
  0
DIMENSION
  5
288
100
AcDbEntity
  8
Dimension
370
               9
390
0
  6
Continuous
 62
              12
100
AcDbDimension
  2
*D15
 10
13.947371599999993
 20
-124.2000074
 30
0.0
 11
13.947371599999993
 21
-126.90001960703125
 31
0.0
 70
             128
 71
               5
 72
               1
 41
1.0
 42
0.0
  3
IE Standard
100
AcDbAlignedDimension
 13
23.959871599999992
 23
-128.2000074
 33
0.0
 14
23.959871599999992
 24
-124.2000074
 34
0.0
 50
90.0
100
AcDbRotatedDimension
1001
ACAD
1000
DSTYLE
1002
{
1070
             340
1005
37
1070
             147
1040
0.09921875
1002
}
  0
POLYLINE
  5
289
100
AcDbEntity
  8
None
370
               9
390
0
  6
STYLE_12
 62
               7
100
AcDb2dPolyline
 66
               1
 10
0.0
 20
0.0
 30
0.0
 70
               1
 75
               5
  0
VERTEX
  5
28A
100
AcDbEntity
  8
None
370
               9
390
0
  6
STYLE_12
 62
               7
100
AcDbVertex
100
AcDb2dVertex
 10
18.347371599999995
 20
-118.83750739999999
 30
0.0
  0
VERTEX
  5
28B
100
AcDbEntity
  8
None
370
               9
390
0
  6
STYLE_12
 62
               7
100
AcDbVertex
100
AcDb2dVertex
 10
33.07237159999999
 20
-118.83750739999999
 30
0.0
  0
VERTEX
  5
28C
100
AcDbEntity
  8
None
370
               9
390
0
  6
STYLE_12
 62
               7
100
AcDbVertex
100
AcDb2dVertex
 10
33.07237159999999
 20
-133.56250739999999
 30
0.0
  0
VERTEX
  5
28D
100
AcDbEntity
  8
None
370
               9
390
0
  6
STYLE_12
 62
               7
100
AcDbVertex
100
AcDb2dVertex
 10
18.347371599999995
 20
-133.56250739999999
 30
0.0
  0
SEQEND
  5
28E
100
AcDbEntity
  8
None
370
               9
390
0
  6
STYLE_12
 62
               7
  0
INSERT
  5
28F
100
AcDbEntity
  8
None
390
0
 62
             152
100
AcDbBlockReference
  2
Group
 10
26.864411599999993
 20
-155.47656739999999
 30
0.0
  0
DIMENSION
  5
290
100
AcDbEntity
  8
Dimension
370
               9
390
0
  6
Continuous
 62
              12
100
AcDbDimension
  2
*D17
 10
18.347371599999995
 20
-141.8741574
 30
0.0
 11
25.730317995874017
 21
-141.8741574
 31
0.0
 70
             128
 71
               5
 72
               1
 41
1.0
 42
0.0
  3
IE Standard
100
AcDbAlignedDimension
 13
33.07237159999999
 23
-133.56250739999999
 33
0.0
 14
18.347371599999995
 24
-133.56250739999999
 34
0.0
100
AcDbRotatedDimension
1001
ACAD
1000
DSTYLE
1002
{
1070
             340
1005
37
1070
               3
1000
<>mm sqr.
1070
             147
1040
0.09921875
1002
}
  0
WIPEOUT
  5
291
100
AcDbEntity
  8
None
370
               9
390
0
  6
Continuous
 62
              12
 92
        0
100
AcDbWipeout
 90
        0
 10
21.659921599999993
 20
38.879340599999992
 30
0.0
 11
8.0697506215837276
 21
0.0
 31
0.0
 12
0.0
 22
8.0697506215837276
 32
0.0
 13
1.0
 23
1.0
340
0
 70
               7
280
               1
281
              50
282
              50
283
               0
360
0
 71
               2
 91
        5
 14
-0.5
 24
23.095615100211699
 14
0.4999999999999998
 24
23.095615100211699
 14
0.4999999999999998
 24
22.969932034208728
 14
-0.5
 24
22.969932034208728
 14
-0.5
 24
23.095615100211699
  0
MTEXT
  5
292
100
AcDbEntity
  8
None
390
0
 62
              12
100
AcDbMText
 10
21.659921599999993
 20
-142.60955574374998
 30
0.0
 40
0.6315976562499999
 41
0.0
 71
               1
 72
               1
  1
backing plate outline
  7
Arial
 73
               1
 44
0.9673603504928808
  0
INSERT
  5
293
100
AcDbEntity
  8
None
390
0
 62
               7
100
AcDbBlockReference
  2
Group-2
 10
26.864411599999993
 20
-155.47656739999999
 30
0.0
  0
DIMENSION
  5
294
100
AcDbEntity
  8
Dimension
370
               9
390
0
  6
Continuous
 62
              12
100
AcDbDimension
  2
*D20
 10
27.833791599999994
 20
-126.6391474
 30
0.0
 11
37.125206020953875
 21
-130.40013775627193
 31
0.0
 70
               3
 71
               5
 72
               1
 41
1.0
 42
0.0
  3
IE Standard
100
AcDbDiametricDimension
 15
28.085951599999994
 25
-126.7608674
 35
0.0
 40
8.3716599999999985
1001
ACAD
1000
DSTYLE
1002
{
1070
             172
1070
               0
1070
             289
1070
               0
1070
             342
1005
5B
1070
             340
1005
37
1070
              75
1070
               1
1070
              76
1070
               1
1070
               3
1000
mm pad
1070
             174
1070
               0
1070
             147
1040
0.09921875
1002
}
  0
ENDSEC
  0
SECTION
  2
OBJECTS
  0
DICTIONARY
  5
19
100
AcDbDictionary
280
               0
281
               1
  3
ACAD_GROUP
350
1A
  3
ACAD_MLINESTYLE
350
1B
  3
ACAD_LAYOUT
350
1E
  3
ACAD_PLOTSETTINGS
350
22
  3
ACAD_PLOTSTYLENAME
350
1F
  3
ACAD_WIPEOUT_VARS
350
23
  0
DICTIONARY
  5
1A
102
{ACAD_REACTORS
330
19
102
}
100
AcDbDictionary
280
               0
281
               1
  0
DICTIONARY
  5
1B
102
{ACAD_REACTORS
330
19
102
}
100
AcDbDictionary
280
               0
281
               1
  3
Standard
350
1C
  0
MLINESTYLE
  5
1C
102
{ACAD_REACTORS
330
1B
102
}
100
AcDbMlineStyle
  2
Standard
 70
               0
  3

 62
               0
 51
90.0
 52
90.0
 71
               2
 49
0.5
 62
             256
  6
ByLayer
 49
-0.5
 62
             256
  6
ByLayer
  0
ACDBDICTIONARYWDFLT
  5
1F
102
{ACAD_REACTORS
330
19
102
}
100
AcDbDictionary
281
               1
  3
Normal
350
1D
100
AcDbDictionaryWithDefault
340
1D
  0
ACDBPLACEHOLDER
  5
1D
102
{ACAD_REACTORS
330
1F
102
}
  0
LAYOUT
  5
20
102
{ACAD_REACTORS
330
1E
102
}
100
AcDbPlotSettings
  1

  2

  4

  6

 40
0.0
 41
0.0
 42
0.0
 43
0.0
 44
0.0
 45
0.0
 46
0.0
 47
0.0
 48
0.0
 49
0.0
140
0.0
141
0.0
142
1.0
143
1.0
 70
            1024
 72
               0
 73
               0
 74
               0
  7

 75
               0
147
1.0
148
0.0
149
0.0
100
AcDbLayout
  1
Model
 70
               0
 71
               0
 10
0.0
 20
0.0
 11
0.0
 21
0.0
 12
0.0
 22
0.0
 32
0.0
 14
0.0
 24
0.0
 34
0.0
 15
0.0
 25
0.0
 35
0.0
146
0.0
 13
0.0
 23
0.0
 33
0.0
 16
0.0
 26
0.0
 36
0.0
 17
0.0
 27
0.0
 37
0.0
 76
               0
330
A
331
0
345
0
346
0
  0
LAYOUT
  5
21
102
{ACAD_REACTORS
330
1E
102
}
100
AcDbPlotSettings
  1

  2

  4

  6

 40
0.0
 41
0.0
 42
0.0
 43
0.0
 44
0.0
 45
0.0
 46
0.0
 47
0.0
 48
0.0
 49
0.0
140
0.0
141
0.0
142
1.0
143
1.0
 70
               0
 72
               0
 73
               0
 74
               0
  7

 75
               0
147
1.0
148
0.0
149
0.0
100
AcDbLayout
  1
Layout1
 70
               0
 71
               0
 10
0.0
 20
0.0
 11
0.0
 21
0.0
 12
0.0
 22
0.0
 32
0.0
 14
0.0
 24
0.0
 34
0.0
 15
0.0
 25
0.0
 35
0.0
146
0.0
 13
0.0
 23
0.0
 33
0.0
 16
0.0
 26
0.0
 36
0.0
 17
0.0
 27
0.0
 37
0.0
 76
               0
330
B
331
0
345
0
346
0
  0
DICTIONARY
  5
1E
102
{ACAD_REACTORS
330
19
102
}
100
AcDbDictionary
280
               0
281
               1
  3
Layout1
350
21
  3
Model
350
20
  0
DICTIONARY
  5
22
102
{ACAD_REACTORS
330
19
102
}
100
AcDbDictionary
280
               0
281
               1
  0
WIPEOUTVARIABLES
  5
23
100
AcDbWipeoutVariables
 70
               0
  0
ENDSEC
  0
EOF
