  0
SECTION
  2
HEADER
  9
$ACADVER
  1
AC1015
  9
$ACADMAINTVER
 70
               6
  9
$DWGCODEPAGE
  3
ANSI_1252
  9
$INSBASE
 10
0.0
 20
0.0
 30
0.0
  9
$EXTMIN
 10
-28.0
 20
-17.177872441217175
 30
-0.34925
  9
$EXTMAX
 10
28.445282895988797
 20
21.999999999999986
 30
0.34925
  9
$LIMMIN
 10
0.0
 20
0.0
  9
$LIMMAX
 10
0.0
 20
0.0
  9
$ORTHOMODE
 70
               0
  9
$REGENMODE
 70
               1
  9
$FILLMODE
 70
               1
  9
$QTEXTMODE
 70
               0
  9
$MIRRTEXT
 70
               1
  9
$LTSCALE
 40
1.27
  9
$ATTMODE
 70
               1
  9
$TEXTSIZE
 40
0.2
  9
$TRACEWID
 40
1.0
  9
$TEXTSTYLE
  7
Standard
  9
$CLAYER
  8
None
  9
$CELTYPE
  6
Continuous
  9
$CECOLOR
 62
             256
  9
$CELTSCALE
 40
1.0
  9
$DISPSILH
 70
               0
  9
$DIMSCALE
 40
1.0
  9
$DIMASZ
 40
0.5612060546875
  9
$DIMEXO
 40
0.396875
  9
$DIMDLI
 40
10.16
  9
$DIMRND
 40
0.0
  9
$DIMDLE
 40
1.5874999999999999
  9
$DIMEXE
 40
0.79375
  9
$DIMTP
 40
0.0
  9
$DIMTM
 40
0.0
  9
$DIMTXT
 40
0.7579186197916666
  9
$DIMCEN
 40
0.0
  9
$DIMTSZ
 40
0.0
  9
$DIMTOL
 70
               0
  9
$DIMLIM
 70
               0
  9
$DIMTIH
 70
               0
  9
$DIMTOH
 70
               0
  9
$DIMSE1
 70
               0
  9
$DIMSE2
 70
               0
  9
$DIMTAD
 70
               1
  9
$DIMZIN
 70
              11
  9
$DIMBLK
  1
VW_SLASH
  9
$DIMASO
 70
               1
  9
$DIMSHO
 70
               1
  9
$DIMPOST
  1
<>mm
  9
$DIMAPOST
  1
[]
  9
$DIMALT
 70
               0
  9
$DIMALTD
 70
               1
  9
$DIMALTF
 40
1.0
  9
$DIMLFAC
 40
1.0
  9
$DIMTOFL
 70
               1
  9
$DIMTVP
 40
0.0
  9
$DIMTIX
 70
               1
  9
$DIMSOXD
 70
               0
  9
$DIMSAH
 70
               0
  9
$DIMBLK1
  1

  9
$DIMBLK2
  1

  9
$DIMSTYLE
  2
Arch
  9
$DIMCLRD
 70
               0
  9
$DIMCLRE
 70
               0
  9
$DIMCLRT
 70
               0
  9
$DIMTFAC
 40
1.0
  9
$DIMGAP
 40
1.5874999999999999
  9
$DIMJUST
 70
               0
  9
$DIMSD1
 70
               0
  9
$DIMSD2
 70
               0
  9
$DIMTOLJ
 70
               1
  9
$DIMTZIN
 70
              11
  9
$DIMALTZ
 70
              11
  9
$DIMALTTZ
 70
              11
  9
$DIMUPT
 70
               0
  9
$DIMDEC
 70
               1
  9
$DIMTDEC
 70
               1
  9
$DIMALTU
 70
               2
  9
$DIMALTTD
 70
               2
  9
$DIMTXSTY
  7
Arial
  9
$DIMAUNIT
 70
               0
  9
$DIMADEC
 70
               2
  9
$DIMALTRND
 40
0.0
  9
$DIMAZIN
 70
               0
  9
$DIMDSEP
 70
              46
  9
$DIMATFIT
 70
               0
  9
$DIMFRAC
 70
               2
  9
$DIMLDRBLK
  1

  9
$DIMLUNIT
 70
               2
  9
$DIMLWD
 70
              -2
  9
$DIMLWE
 70
              -2
  9
$DIMTMOVE
 70
               0
  9
$LUNITS
 70
               2
  9
$LUPREC
 70
               4
  9
$SKETCHINC
 40
0.1
  9
$FILLETRAD
 40
0.0
  9
$AUNITS
 70
               0
  9
$AUPREC
 70
               0
  9
$MENU
  1
acad
  9
$ELEVATION
 40
0.0
  9
$PELEVATION
 40
0.0
  9
$THICKNESS
 40
0.0
  9
$LIMCHECK
 70
               0
  9
$CHAMFERA
 40
0.0
  9
$CHAMFERB
 40
0.0
  9
$CHAMFERC
 40
0.0
  9
$CHAMFERD
 40
0.0
  9
$SKPOLY
 70
               0
  9
$TDCREATE
 40
2454964.492349537
  9
$TDUCREATE
 40
0.000000000
  9
$TDUPDATE
 40
2454964.492349537
  9
$TDUUPDATE
 40
0.000000000
  9
$TDINDWG
 40
0.0000000000
  9
$TDUSRTIMER
 40
0.0000000000
  9
$USRTIMER
 70
               1
  9
$ANGBASE
 50
0.0
  9
$ANGDIR
 70
               0
  9
$PDMODE
 70
               1
  9
$PDSIZE
 40
-2.0
  9
$PLINEWID
 40
0.0
  9
$SPLFRAME
 70
               0
  9
$SPLINETYPE
 70
               6
  9
$SPLINESEGS
 70
               8
  9
$HANDSEED
  5
1BE
  9
$SURFTAB1
 70
               6
  9
$SURFTAB2
 70
               6
  9
$SURFTYPE
 70
               6
  9
$SURFU
 70
               6
  9
$SURFV
 70
               6
  9
$UCSBASE
  2

  9
$UCSNAME
  2

  9
$UCSORG
 10
0.0
 20
0.0
 30
0.0
  9
$UCSXDIR
 10
1.0
 20
0.0
 30
0.0
  9
$UCSYDIR
 10
0.0
 20
1.0
 30
0.0
  9
$UCSORTHOREF
  2

  9
$UCSORTHOVIEW
 70
               0
  9
$UCSORGTOP
 10
0.0
 20
0.0
 30
0.0
  9
$UCSORGBOTTOM
 10
0.0
 20
0.0
 30
0.0
  9
$UCSORGLEFT
 10
0.0
 20
0.0
 30
0.0
  9
$UCSORGRIGHT
 10
0.0
 20
0.0
 30
0.0
  9
$UCSORGFRONT
 10
0.0
 20
0.0
 30
0.0
  9
$UCSORGBACK
 10
0.0
 20
0.0
 30
0.0
  9
$PUCSBASE
  2

  9
$PUCSNAME
  2

  9
$PUCSORG
 10
0.0
 20
0.0
 30
0.0
  9
$PUCSXDIR
 10
1.0
 20
0.0
 30
0.0
  9
$PUCSYDIR
 10
0.0
 20
1.0
 30
0.0
  9
$PUCSORTHOREF
  2

  9
$PUCSORTHOVIEW
 70
               0
  9
$PUCSORGTOP
 10
0.0
 20
0.0
 30
0.0
  9
$PUCSORGBOTTOM
 10
0.0
 20
0.0
 30
0.0
  9
$PUCSORGLEFT
 10
0.0
 20
0.0
 30
0.0
  9
$PUCSORGRIGHT
 10
0.0
 20
0.0
 30
0.0
  9
$PUCSORGFRONT
 10
0.0
 20
0.0
 30
0.0
  9
$PUCSORGBACK
 10
0.0
 20
0.0
 30
0.0
  9
$USERI1
 70
               0
  9
$USERI2
 70
               0
  9
$USERI3
 70
               0
  9
$USERI4
 70
               0
  9
$USERI5
 70
               0
  9
$USERR1
 40
0.0
  9
$USERR2
 40
0.0
  9
$USERR3
 40
0.0
  9
$USERR4
 40
0.0
  9
$USERR5
 40
0.0
  9
$WORLDVIEW
 70
               1
  9
$SHADEDGE
 70
               3
  9
$SHADEDIF
 70
              70
  9
$TILEMODE
 70
               1
  9
$MAXACTVP
 70
              64
  9
$PINSBASE
 10
0.0
 20
0.0
 30
0.0
  9
$PLIMCHECK
 70
               0
  9
$PEXTMIN
 10
1.0000000000000000E+20
 20
1.0000000000000000E+20
 30
1.0000000000000000E+20
  9
$PEXTMAX
 10
-1.0000000000000000E+20
 20
-1.0000000000000000E+20
 30
-1.0000000000000000E+20
  9
$PLIMMIN
 10
0.0
 20
0.0
  9
$PLIMMAX
 10
12.0
 20
9.0
  9
$UNITMODE
 70
               0
  9
$VISRETAIN
 70
               0
  9
$PLINEGEN
 70
               1
  9
$PSLTSCALE
 70
               0
  9
$TREEDEPTH
 70
            3020
  9
$CMLSTYLE
  2
Standard
  9
$CMLJUST
 70
               0
  9
$CMLSCALE
 40
1.0
  9
$PROXYGRAPHICS
 70
               0
  9
$MEASUREMENT
 70
               1
  9
$CELWEIGHT
370
               0
  9
$ENDCAPS
280
               0
  9
$JOINSTYLE
280
               0
  9
$LWDISPLAY
290
               1
  9
$INSUNITS
 70
               4
  9
$HYPERLINKBASE
  1

  9
$STYLESHEET
  1

  9
$XEDIT
290
               1
  9
$CEPSNTYPE
380
               0
  9
$PSTYLEMODE
290
               1
  9
$FINGERPRINTGUID
  2

  9
$VERSIONGUID
  2

  9
$EXTNAMES
290
               1
  9
$PSVPSCALE
 40
0.0
  0
ENDSEC
  0
SECTION
  2
CLASSES
  0
CLASS
  1
LWPOLYLINE
  2
AcDbPolyline
  3
AutoCAD 2000
 90
        0
280
               0
281
               1
  0
CLASS
  1
IMAGE
  2
AcDbRasterImage
  3
ISM
 90
      127
280
               0
281
               1
  0
CLASS
  1
OLE2FRAME
  2
AcDbOle2Frame
  3
AutoCAD 2000
 90
        0
280
               0
281
               1
  0
CLASS
  1
HATCH
  2
AcDbHatch
  3
AutoCAD 2000
 90
        0
280
               0
281
               1
  0
CLASS
  1
DICTIONARYVAR
  2
AcDbDictionaryVar
  3
AutoCAD 2000
 90
        0
280
               0
281
               0
  0
CLASS
  1
RASTERVARIABLES
  2
AcDbRasterVariables
  3
ISM
 90
        0
280
               0
281
               0
  0
CLASS
  1
IMAGEDEF
  2
AcDbRasterImageDef
  3
ISM
 90
        0
280
               0
281
               0
  0
CLASS
  1
IMAGEDEF_REACTOR
  2
AcDbRasterImageDefReactor
  3
ISM
 90
        1
280
               0
281
               0
  0
CLASS
  1
IDBUFFER
  2
AcDbIdBuffer
  3
AutoCAD 2000
 90
        0
280
               0
281
               0
  0
CLASS
  1
SPATIAL_FILTER
  2
AcDbSpatialFilter
  3
AutoCAD 2000
 90
        0
280
               0
281
               0
  0
CLASS
  1
XRECORD
  2
AcDbXrecord
  3
AutoCAD 2000
 90
        0
280
               0
281
               0
  0
CLASS
  1
SORTENTSTABLE
  2
AcDbSortentsTable
  3
AutoCAD 2000
 90
        0
280
               0
281
               0
  0
CLASS
  1
LAYER_INDEX
  2
AcDbLayerIndex
  3
AutoCAD 2000
 90
        0
280
               0
281
               0
  0
CLASS
  1
SPATIAL_INDEX
  2
AcDbSpatialIndex
  3
AutoCAD 2000
 90
        0
280
               0
281
               0
  0
CLASS
  1
OBJECT_PTR
  2
CAseDLPNTableRecord
  3
"ASE-LPNTableRecord"
 90
        1
280
               0
281
               0
  0
CLASS
  1
LAYOUT
  2
AcDbLayout
  3
AutoCAD 2000
 90
        0
280
               0
281
               0
  0
CLASS
  1
PLOTSETTINGS
  2
AcDbPlotSettings
  3
AutoCAD 2000
 90
        0
280
               0
281
               0
  0
CLASS
  1
ACDBDICTIONARYWDFLT
  2
AcDbDictionaryWithDefault
  3
AutoCAD 2000
 90
        0
280
               0
281
               0
  0
CLASS
  1
ACDBPLACEHOLDER
  2
AcDbPlaceHolder
  3
AutoCAD 2000
 90
        0
280
               0
281
               0
  0
CLASS
  1
VBA_PROJECT
  2
AcDbVbaProject
  3
acadvba
 90
        0
280
               0
281
               0
  0
CLASS
  1
WIPEOUT
  2
AcDbWipeout
  3
WipeOut|AutoCAD Express Tool|expresstools@autodesk.com
 90
      127
280
               0
281
               1
  0
CLASS
  1
WIPEOUTVARIABLES
  2
AcDbWipeoutVariables
  3
WipeOut|AutoCAD Express Tool|expresstools@autodesk.com
 90
        0
280
               0
281
               0
  0
CLASS
  1
RTEXT
  2
RText
  3
RText|AutoCAD Express Tool|expresstools@autodesk.com
 90
        0
280
               0
281
               1
  0
CLASS
  1
ARCALIGNEDTEXT
  2
AcDbArcAlignedText
  3
ATEXT|AutoCAD Express Tool|expresstools@autodesk.com
 90
        0
280
               0
281
               1
  0
ENDSEC
  0
SECTION
  2
TABLES
  0
TABLE
  2
VPORT
  5
7
100
AcDbSymbolTable
 70
               1
  0
VPORT
  5
15
100
AcDbSymbolTableRecord
100
AcDbViewportTableRecord
  2
*ACTIVE
 70
               0
 10
0.0
 20
0.0
 11
1.0
 21
1.0
 12
0.2226414479943983
 22
2.4110637793914051
 13
0.0
 23
0.0
 14
1.0
 24
1.0
 15
0.0
 25
0.0
 16
0.0
 26
0.0
 36
1.0
 17
0.0
 27
0.0
 37
0.0
 40
39.177872441217161
 41
0.688564
 42
50.0
 43
0.0
 44
0.0
 50
0.0
 51
0.0
 71
               0
 72
            2000
 73
               1
 74
               1
 75
               0
 76
               0
 77
               0
 78
               0
281
               0
 65
               0
110
0.0
120
0.0
130
0.0
111
1.0
121
0.0
131
0.0
112
0.0
122
1.0
132
0.0
345
0
346
0
 79
               0
146
0.0
  0
ENDTAB
  0
TABLE
  2
LTYPE
  5
4
100
AcDbSymbolTable
 70
              16
  0
LTYPE
  5
11
100
AcDbSymbolTableRecord
100
AcDbLinetypeTableRecord
  2
ByBlock
 70
              64
  3

 72
              65
 73
               0
 40
0.0
  0
LTYPE
  5
12
100
AcDbSymbolTableRecord
100
AcDbLinetypeTableRecord
  2
ByLayer
 70
              64
  3

 72
              65
 73
               0
 40
0.0
  0
LTYPE
  5
13
100
AcDbSymbolTableRecord
100
AcDbLinetypeTableRecord
  2
Continuous
 70
              64
  3
Solid line
 72
              65
 73
               0
 40
0.0
  0
LTYPE
  5
3D
100
AcDbSymbolTableRecord
100
AcDbLinetypeTableRecord
  2
STYLE_01
 70
               0
  3

 72
              65
 73
               2
 40
0.41664
 49
0.20828
 74
               0
 49
-0.20836
 74
               0
  0
LTYPE
  5
3E
100
AcDbSymbolTableRecord
100
AcDbLinetypeTableRecord
  2
STYLE_02
 70
               0
  3

 72
              65
 73
               2
 40
0.6944250000000001
 49
0.48607
 74
               0
 49
-0.2083550000000001
 74
               0
  0
LTYPE
  5
3F
100
AcDbSymbolTableRecord
100
AcDbLinetypeTableRecord
  2
STYLE_03
 70
               0
  3

 72
              65
 73
               2
 40
1.25
 49
1.0416400000000001
 74
               0
 49
-0.2083599999999999
 74
               0
  0
LTYPE
  5
40
100
AcDbSymbolTableRecord
100
AcDbLinetypeTableRecord
  2
STYLE_04
 70
               0
  3

 72
              65
 73
               2
 40
1.5277099999999999
 49
1.3194249999999998
 74
               0
 49
-0.208285
 74
               0
  0
LTYPE
  5
41
100
AcDbSymbolTableRecord
100
AcDbLinetypeTableRecord
  2
STYLE_05
 70
               0
  3

 72
              65
 73
               2
 40
0.20828
 49
0.069425
 74
               0
 49
-0.138855
 74
               0
  0
LTYPE
  5
42
100
AcDbSymbolTableRecord
100
AcDbLinetypeTableRecord
  2
STYLE_06
 70
               0
  3

 72
              65
 73
               4
 40
1.0416400000000001
 49
0.625
 74
               0
 49
-0.20828
 74
               0
 49
0.06943
 74
               0
 49
-0.13893
 74
               0
  0
LTYPE
  5
43
100
AcDbSymbolTableRecord
100
AcDbLinetypeTableRecord
  2
STYLE_07
 70
               0
  3

 72
              65
 73
               6
 40
1.875
 49
0.625
 74
               0
 49
-0.20828
 74
               0
 49
0.6250000000000001
 74
               0
 49
-0.2083599999999999
 74
               0
 49
0.06943
 74
               0
 49
-0.1389299999999999
 74
               0
  0
LTYPE
  5
44
100
AcDbSymbolTableRecord
100
AcDbLinetypeTableRecord
  2
STYLE_08
 70
               0
  3

 72
              65
 73
               6
 40
1.25
 49
0.625
 74
               0
 49
-0.20828
 74
               0
 49
0.06943
 74
               0
 49
-0.13893
 74
               0
 49
0.0694299999999999
 74
               0
 49
-0.13893
 74
               0
  0
LTYPE
  5
45
100
AcDbSymbolTableRecord
100
AcDbLinetypeTableRecord
  2
STYLE_09
 70
               0
  3

 72
              65
 73
               4
 40
5.0
 49
3.75
 74
               0
 49
-0.2777849999999998
 74
               0
 49
0.6944300000000003
 74
               0
 49
-0.2777849999999998
 74
               0
  0
LTYPE
  5
46
100
AcDbSymbolTableRecord
100
AcDbLinetypeTableRecord
  2
STYLE_10
 70
               0
  3

 72
              65
 73
               6
 40
5.9375
 49
3.75
 74
               0
 49
-0.2777849999999998
 74
               0
 49
0.6944300000000003
 74
               0
 49
-0.2777849999999998
 74
               0
 49
0.625
 74
               0
 49
-0.3125
 74
               0
  0
LTYPE
  5
47
100
AcDbSymbolTableRecord
100
AcDbLinetypeTableRecord
  2
STYLE_11
 70
               0
  3

 72
              65
 73
               2
 40
0.4166412353515625
 49
0.2777862548828125
 74
               0
 49
-0.13885498046875
 74
               0
  0
LTYPE
  5
48
100
AcDbSymbolTableRecord
100
AcDbLinetypeTableRecord
  2
STYLE_12
 70
               0
  3

 72
              65
 73
               4
 40
2.1527862548828125
 49
1.180572509765625
 74
               0
 49
-0.4166412353515625
 74
               0
 49
0.069427490234375
 74
               0
 49
-0.48614501953125
 74
               0
  0
LTYPE
  5
49
100
AcDbSymbolTableRecord
100
AcDbLinetypeTableRecord
  2
STYLE_13
 70
               0
  3

 72
              65
 73
               2
 40
1.875
 49
1.25
 74
               0
 49
-0.625
 74
               0
  0
ENDTAB
  0
TABLE
  2
LAYER
  5
2
100
AcDbSymbolTable
 70
               5
  0
LAYER
  5
14
100
AcDbSymbolTableRecord
100
AcDbLayerTableRecord
  2
0
 70
               0
 62
               7
  6
Continuous
290
               1
370
              -3
390
1D
  0
LAYER
  5
4A
100
AcDbSymbolTableRecord
100
AcDbLayerTableRecord
  2
Defpoints
 70
               0
 62
               7
  6
Continuous
290
               0
370
              -3
390
1D
  0
LAYER
  5
4B
100
AcDbSymbolTableRecord
100
AcDbLayerTableRecord
  2
None
 70
               0
 62
               7
  6
Continuous
290
               1
370
               5
390
1D
  0
LAYER
  5
4C
100
AcDbSymbolTableRecord
100
AcDbLayerTableRecord
  2
Dimension
 70
               0
 62
               7
  6
Continuous
290
               1
370
               5
390
1D
  0
LAYER
  5
4D
100
AcDbSymbolTableRecord
100
AcDbLayerTableRecord
  2
OUTLINE_PHO
 70
               0
 62
               4
  6
Continuous
290
               1
370
              15
390
1D
  0
ENDTAB
  0
TABLE
  2
STYLE
  5
3
100
AcDbSymbolTable
 70
               3
  0
STYLE
  5
17
100
AcDbSymbolTableRecord
100
AcDbTextStyleTableRecord
  2
Standard
 70
               0
 40
0.0
 41
1.0
 50
0.0
 71
               0
 42
0.0
  3
txt
  4

  0
STYLE
  5
3B
100
AcDbSymbolTableRecord
100
AcDbTextStyleTableRecord
  2
Arial
 70
               0
 40
0.0
 41
1.0
 50
0.0
 71
               0
 42
0.0
  3
Arial
  4

1001
ACAD
1000
Arial
1071
        0
  0
STYLE
  5
3C
100
AcDbSymbolTableRecord
100
AcDbTextStyleTableRecord
  2
New Century Schlbk
 70
               0
 40
0.0
 41
1.0
 50
0.0
 71
               0
 42
0.0
  3
New Century Schlbk
  4

1001
ACAD
1000
New Century Schlbk
1071
        0
  0
ENDTAB
  0
TABLE
  2
VIEW
  5
5
100
AcDbSymbolTable
 70
               0
  0
ENDTAB
  0
TABLE
  2
UCS
  5
6
100
AcDbSymbolTable
 70
               0
  0
ENDTAB
  0
TABLE
  2
APPID
  5
8
100
AcDbSymbolTable
 70
               1
  0
APPID
  5
16
100
AcDbSymbolTableRecord
100
AcDbRegAppTableRecord
  2
ACAD
 70
               0
  0
ENDTAB
  0
TABLE
  2
DIMSTYLE
  5
9
100
AcDbSymbolTable
 70
               3
100
AcDbDimStyleTable
 71
               0
  0
DIMSTYLE
105
18
100
AcDbSymbolTableRecord
100
AcDbDimStyleTableRecord
  2
Standard
 70
               0
  3

  4

 40
1.0
 41
0.18
 42
0.0625
 43
0.38
 44
0.18
 45
0.0
 46
0.0
 47
0.0
 48
0.0
 71
               0
 72
               0
 73
               1
 74
               1
 75
               0
 76
               0
 77
               0
 78
               0
 79
               0
140
0.18
141
0.09
142
0.0
143
25.399999999999999
144
1.0
145
0.0
146
1.0
147
0.09
148
0.0
170
               0
171
               2
172
               0
173
               0
174
               0
175
               0
176
               0
177
               0
178
               0
179
               0
271
               4
272
               4
273
               2
274
               2
275
               0
276
               0
277
               2
278
              46
279
               0
280
               0
281
               0
282
               0
283
               1
284
               0
285
               0
286
               0
288
               0
289
               3
340
17
341
0
342
0
343
0
344
0
371
              -2
372
              -2
  0
DIMSTYLE
105
56
100
AcDbSymbolTableRecord
100
AcDbDimStyleTableRecord
  2
IE Standard
 70
               0
  3
<>mm
  4
[]
 40
1.0
 41
0.79375
 42
0.4762500011827797
 43
6.9999859934672708
 44
0.9525000023655593
 45
0.0
 46
0.0
 47
0.0
 48
0.0
 71
               0
 72
               0
 73
               1
 74
               1
 75
               0
 76
               0
 77
               0
 78
              11
 79
               0
140
0.7579186197916666
141
0.0
142
0.0
143
1.0
144
1.0
145
0.0
146
1.0
147
0.0
148
0.0
170
               0
171
               1
172
               1
173
               0
174
               1
175
               0
176
               0
177
               0
178
               0
179
               2
271
               1
272
               1
273
               2
274
               2
275
               0
276
               2
277
               2
278
              46
279
               0
280
               0
281
               0
282
               0
283
               1
284
              11
285
              11
286
              11
288
               0
289
               0
340
3B
341
52
342
4E
343
0
344
0
371
              -2
372
              -2
  0
DIMSTYLE
105
5C
100
AcDbSymbolTableRecord
100
AcDbDimStyleTableRecord
  2
Arch
 70
               0
  3
<>mm
  4
[]
 40
1.0
 41
0.5612060546875
 42
0.396875
 43
10.16
 44
0.79375
 45
0.0
 46
1.5874999999999999
 47
0.0
 48
0.0
 71
               0
 72
               0
 73
               0
 74
               0
 75
               0
 76
               0
 77
               1
 78
              11
 79
               0
140
0.7579186197916666
141
0.0
142
0.0
143
1.0
144
1.0
145
0.0
146
1.0
147
1.5874999999999999
148
0.0
170
               0
171
               1
172
               1
173
               0
174
               1
175
               0
176
               0
177
               0
178
               0
179
               2
271
               1
272
               1
273
               2
274
               2
275
               0
276
               2
277
               2
278
              46
279
               0
280
               0
281
               0
282
               0
283
               1
284
              11
285
              11
286
              11
288
               0
289
               0
340
3B
341
4E
342
57
343
0
344
0
371
              -2
372
              -2
  0
ENDTAB
  0
TABLE
  2
BLOCK_RECORD
  5
1
100
AcDbSymbolTable
 70
              26
  0
BLOCK_RECORD
  5
A
100
AcDbSymbolTableRecord
100
AcDbBlockTableRecord
  2
*MODEL_SPACE
340
20
  0
BLOCK_RECORD
  5
B
100
AcDbSymbolTableRecord
100
AcDbBlockTableRecord
  2
*PAPER_SPACE
340
21
  0
BLOCK_RECORD
  5
4E
100
AcDbSymbolTableRecord
100
AcDbBlockTableRecord
  2
VW_FILLEDARROW
340
0
  0
BLOCK_RECORD
  5
52
100
AcDbSymbolTableRecord
100
AcDbBlockTableRecord
  2
VW_FILLEDARROW-1
340
0
  0
BLOCK_RECORD
  5
57
100
AcDbSymbolTableRecord
100
AcDbBlockTableRecord
  2
VW_SLASH
340
0
  0
BLOCK_RECORD
  5
24
100
AcDbSymbolTableRecord
100
AcDbBlockTableRecord
  2
*D3
340
0
  0
BLOCK_RECORD
  5
25
100
AcDbSymbolTableRecord
100
AcDbBlockTableRecord
  2
*D4
340
0
  0
BLOCK_RECORD
  5
26
100
AcDbSymbolTableRecord
100
AcDbBlockTableRecord
  2
*D5
340
0
  0
BLOCK_RECORD
  5
27
100
AcDbSymbolTableRecord
100
AcDbBlockTableRecord
  2
*D6
340
0
  0
BLOCK_RECORD
  5
28
100
AcDbSymbolTableRecord
100
AcDbBlockTableRecord
  2
*D7
340
0
  0
BLOCK_RECORD
  5
29
100
AcDbSymbolTableRecord
100
AcDbBlockTableRecord
  2
*D8
340
0
  0
BLOCK_RECORD
  5
2A
100
AcDbSymbolTableRecord
100
AcDbBlockTableRecord
  2
*D9
340
0
  0
BLOCK_RECORD
  5
2B
100
AcDbSymbolTableRecord
100
AcDbBlockTableRecord
  2
*D10
340
0
  0
BLOCK_RECORD
  5
2C
100
AcDbSymbolTableRecord
100
AcDbBlockTableRecord
  2
*D11
340
0
  0
BLOCK_RECORD
  5
2D
100
AcDbSymbolTableRecord
100
AcDbBlockTableRecord
  2
*D12
340
0
  0
BLOCK_RECORD
  5
2E
100
AcDbSymbolTableRecord
100
AcDbBlockTableRecord
  2
*D13
340
0
  0
BLOCK_RECORD
  5
2F
100
AcDbSymbolTableRecord
100
AcDbBlockTableRecord
  2
*D14
340
0
  0
BLOCK_RECORD
  5
30
100
AcDbSymbolTableRecord
100
AcDbBlockTableRecord
  2
*D15
340
0
  0
BLOCK_RECORD
  5
31
100
AcDbSymbolTableRecord
100
AcDbBlockTableRecord
  2
*D16
340
0
  0
BLOCK_RECORD
  5
32
100
AcDbSymbolTableRecord
100
AcDbBlockTableRecord
  2
*D17
340
0
  0
BLOCK_RECORD
  5
33
100
AcDbSymbolTableRecord
100
AcDbBlockTableRecord
  2
Symbol-1
340
0
102
{BLKREFS
331
142
331
143
331
144
331
145
331
146
331
147
331
14A
331
14B
331
14C
331
14D
331
14E
331
14F
331
152
331
153
331
154
331
155
331
156
331
157
331
15A
331
15B
331
15C
331
15D
331
15E
331
15F
102
}
  0
BLOCK_RECORD
  5
34
100
AcDbSymbolTableRecord
100
AcDbBlockTableRecord
  2
Group
340
0
102
{BLKREFS
331
163
102
}
  0
BLOCK_RECORD
  5
35
100
AcDbSymbolTableRecord
100
AcDbBlockTableRecord
  2
Group-1
340
0
102
{BLKREFS
331
164
102
}
  0
BLOCK_RECORD
  5
36
100
AcDbSymbolTableRecord
100
AcDbBlockTableRecord
  2
Group-2
340
0
102
{BLKREFS
331
165
102
}
  0
BLOCK_RECORD
  5
37
100
AcDbSymbolTableRecord
100
AcDbBlockTableRecord
  2
Group-3
340
0
102
{BLKREFS
331
166
102
}
  0
BLOCK_RECORD
  5
38
100
AcDbSymbolTableRecord
100
AcDbBlockTableRecord
  2
Group-4
340
0
102
{BLKREFS
331
1B9
102
}
  0
BLOCK_RECORD
  5
39
100
AcDbSymbolTableRecord
100
AcDbBlockTableRecord
  2
Group-5
340
0
102
{BLKREFS
331
1BC
102
}
  0
BLOCK_RECORD
  5
3A
100
AcDbSymbolTableRecord
100
AcDbBlockTableRecord
  2
*D25
340
0
  0
ENDTAB
  0
ENDSEC
  0
SECTION
  2
BLOCKS
  0
BLOCK
  5
D
100
AcDbEntity
  8
0
390
0
100
AcDbBlockBegin
  2
*MODEL_SPACE
 70
               0
 10
0.0
 20
0.0
 30
0.0
  3
*MODEL_SPACE
  1

  0
ENDBLK
  5
E
100
AcDbEntity
  8
0
390
0
100
AcDbBlockEnd
  0
BLOCK
  5
F
100
AcDbEntity
 67
               1
  8
0
390
0
100
AcDbBlockBegin
  2
*PAPER_SPACE
 70
               0
 10
0.0
 20
0.0
 30
0.0
  3
*PAPER_SPACE
  1

  0
ENDBLK
  5
10
100
AcDbEntity
 67
               1
  8
0
390
0
100
AcDbBlockEnd
  0
BLOCK
  5
4F
100
AcDbEntity
  8
0
370
              -2
390
0
  6
ByBlock
 62
               0
100
AcDbBlockBegin
  2
VW_FILLEDARROW
 70
               0
 10
0.0
 20
0.0
 30
0.0
  3
VW_FILLEDARROW
  1

  0
SOLID
  5
50
100
AcDbEntity
  8
0
370
              -2
390
0
 62
               0
100
AcDbTrace
 10
0.0
 20
0.0
 30
0.0
 11
-0.9999389648437499
 21
-0.2679328381102956
 31
0.0
 12
-0.9999389648437499
 22
0.2679328381102958
 32
0.0
 13
-0.9999389648437499
 23
0.2679328381102958
 33
0.0
  0
ENDBLK
  5
51
100
AcDbEntity
  8
0
390
0
100
AcDbBlockEnd
  0
BLOCK
  5
53
100
AcDbEntity
  8
0
370
              -2
390
0
  6
ByBlock
 62
               0
100
AcDbBlockBegin
  2
VW_FILLEDARROW-1
 70
               0
 10
0.0
 20
0.0
 30
0.0
  3
VW_FILLEDARROW
  1

  0
SOLID
  5
54
100
AcDbEntity
  8
0
370
              -2
390
0
 62
               0
100
AcDbTrace
 10
0.0
 20
0.0
 30
0.0
 11
-0.6662384033203125
 21
-0.1785180421362784
 31
0.0
 12
-0.6662384033203125
 22
0.1785180421362785
 32
0.0
 13
-0.6662384033203125
 23
0.1785180421362785
 33
0.0
  0
ENDBLK
  5
55
100
AcDbEntity
  8
0
390
0
100
AcDbBlockEnd
  0
BLOCK
  5
58
100
AcDbEntity
  8
0
370
              -2
390
0
  6
ByBlock
 62
               0
100
AcDbBlockBegin
  2
VW_SLASH
 70
               0
 10
0.0
 20
0.0
 30
0.0
  3
VW_SLASH
  1

  0
LINE
  5
59
100
AcDbEntity
  8
0
370
              -2
390
0
  6
ByBlock
 62
               0
100
AcDbLine
 10
0.0
 20
0.0
 30
0.0
 11
-1.0
 21
0.0
 31
0.0
  0
LINE
  5
5A
100
AcDbEntity
  8
0
370
              20
390
0
  6
ByBlock
 62
               0
100
AcDbLine
 10
-0.5000145658230796
 20
-0.5000145658230795
 30
0.0
 11
0.5000145658230796
 21
0.5000145658230795
 31
0.0
  0
ENDBLK
  5
5B
100
AcDbEntity
  8
0
390
0
100
AcDbBlockEnd
  0
BLOCK
  5
5D
100
AcDbEntity
  8
Dimension
390
0
100
AcDbBlockBegin
  2
*D3
 70
               1
 10
0.0
 20
0.0
 30
0.0
  3
*D3
  1

  0
LINE
  5
5E
100
AcDbEntity
  8
Dimension
370
              -2
390
0
  6
Continuous
 62
               0
100
AcDbLine
 10
-6.7542700000000195
 20
-1.1312500035483737
 30
0.0
 11
-6.7542700000000195
 21
-12.107500004731151
 31
0.0
  0
LINE
  5
5F
100
AcDbEntity
  8
Dimension
370
              -2
390
0
  6
Continuous
 62
               0
100
AcDbLine
 10
5.4707299999999464
 20
-1.1312500035483737
 30
0.0
 11
5.4707299999999464
 21
-12.107500004731151
 31
0.0
  0
LINE
  5
60
100
AcDbEntity
  8
Dimension
370
              -2
390
0
  6
Continuous
 62
               0
100
AcDbLine
 10
5.4707299999999464
 20
-11.155000002365597
 30
0.0
 11
-6.7542700000000195
 21
-11.155000002365597
 31
0.0
  0
LINE
  5
61
100
AcDbEntity
  8
Dimension
370
              -2
390
0
  6
Continuous
 62
               0
100
AcDbLine
 10
-6.7542700000000195
 20
-11.155000002365597
 30
0.0
 11
-8.5042664983668317
 21
-11.155000002365597
 31
0.0
  0
SOLID
  5
62
100
AcDbEntity
  8
Dimension
370
              -2
390
0
 62
               0
100
AcDbTrace
 10
-6.7542700000000195
 20
-11.155000002365597
 30
0.0
 11
-7.5480200000000197
 21
-11.3676846738578
 31
0.0
 12
-7.5480200000000197
 22
-10.942315330873393
 32
0.0
 13
-7.5480200000000197
 23
-10.942315330873393
 33
0.0
  0
LINE
  5
63
100
AcDbEntity
  8
Dimension
370
              -2
390
0
  6
Continuous
 62
               0
100
AcDbLine
 10
5.4707299999999464
 20
-11.155000002365597
 30
0.0
 11
7.2207264983667585
 21
-11.155000002365597
 31
0.0
  0
SOLID
  5
64
100
AcDbEntity
  8
Dimension
370
              -2
390
0
 62
               0
100
AcDbTrace
 10
5.4707299999999464
 20
-11.155000002365597
 30
0.0
 11
6.2644799999999465
 21
-10.942315330873393
 31
0.0
 12
6.2644799999999465
 22
-11.3676846738578
 32
0.0
 13
6.2644799999999465
 23
-11.3676846738578
 33
0.0
  0
WIPEOUT
  5
65
100
AcDbEntity
  8
Dimension
370
              -2
390
0
  6
Continuous
 62
               0
 92
        0
100
AcDbWipeout
 90
        0
 10
-6.8586805509917355
 20
-11.76353783569893
 30
0.0
 11
5.0376507600148521
 21
0.0
 31
0.0
 12
0.0
 22
5.0376507600148521
 32
0.0
 13
1.0
 23
1.0
340
0
 70
               7
280
               1
281
              50
282
              50
283
               0
360
0
 71
               2
 91
        5
 14
-0.5
 24
0.5
 14
0.5
 24
0.5
 14
0.5
 24
0.2584033594269222
 14
-0.5
 24
0.2584033594269222
 14
-0.5
 24
0.5
  0
MTEXT
  5
66
100
AcDbEntity
  8
Dimension
390
0
 62
               0
100
AcDbMText
 10
-6.8586805509917355
 20
-10.741036715907263
 30
0.0
 40
0.7579186197916666
 41
0.0
 71
               1
 72
               1
  1
12.225mm
  7
Arial
 73
               1
 44
0.9673603504928806
  0
WIPEOUT
  5
67
100
AcDbEntity
  8
Dimension
370
              -2
390
0
  6
Continuous
 62
               0
 92
        0
100
AcDbWipeout
 90
        0
 10
-1.8210297909768798
 20
-11.763539502365621
 30
0.0
 11
5.0270675208833486
 21
0.0
 31
0.0
 12
0.0
 22
5.0270675208833486
 32
0.0
 13
1.0
 23
1.0
340
0
 70
               7
280
               1
281
              50
282
              50
283
               0
360
0
 71
               2
 91
        5
 14
-0.5
 24
0.5
 14
0.5
 24
0.5
 14
0.5
 24
0.2578947378478542
 14
-0.5
 24
0.2578947378478542
 14
-0.5
 24
0.5
  0
MTEXT
  5
68
100
AcDbEntity
  8
Dimension
390
0
 62
               0
100
AcDbMText
 10
-1.8210297909768798
 20
-10.741038382573954
 30
0.0
 40
0.7579186197916666
 41
0.0
 71
               1
 72
               1
  1
±0.125mm
  7
Arial
 73
               1
 44
0.9673603504928806
  0
WIPEOUT
  5
69
100
AcDbEntity
  8
Dimension
370
              -2
390
0
  6
Continuous
 62
               0
 92
        0
100
AcDbWipeout
 90
        0
 10
3.2060377299064697
 20
-11.763541669032263
 30
0.0
 11
2.10608325931761
 21
0.0
 31
0.0
 12
0.0
 22
2.10608325931761
 32
0.0
 13
1.0
 23
1.0
340
0
 70
               7
280
               1
281
              50
282
              50
283
               0
360
0
 71
               2
 91
        5
 14
-0.5
 24
0.5
 14
0.5
 24
0.5
 14
0.5
 24
-0.0778894675453995
 14
-0.5
 24
-0.0778894675453995
 14
-0.5
 24
0.5
  0
MTEXT
  5
6A
100
AcDbEntity
  8
Dimension
390
0
 62
               0
100
AcDbMText
 10
3.2060377299064697
 20
-10.741037328754485
 30
0.0
 40
0.7579210069444442
 41
0.0
 71
               1
 72
               1
  1
 (x4)
  7
Arial
 73
               1
 44
0.9673603504928806
  0
POINT
  5
6B
100
AcDbEntity
  8
Defpoints
370
               0
390
0
 62
               0
100
AcDbPoint
 10
5.4707299999999464
 20
-0.6550000023655969
 30
0.0
  0
POINT
  5
6C
100
AcDbEntity
  8
Defpoints
370
               0
390
0
 62
               0
100
AcDbPoint
 10
-6.7542700000000195
 20
-0.6550000023655969
 30
0.0
  0
POINT
  5
6D
100
AcDbEntity
  8
Defpoints
370
               0
390
0
 62
               0
100
AcDbPoint
 10
-6.7542700000000195
 20
-11.155000002365595
 30
0.0
  0
ENDBLK
  5
6E
100
AcDbEntity
  8
Dimension
390
0
100
AcDbBlockEnd
  0
BLOCK
  5
6F
100
AcDbEntity
  8
Dimension
390
0
100
AcDbBlockBegin
  2
*D4
 70
               1
 10
0.0
 20
0.0
 30
0.0
  3
*D4
  1

  0
LINE
  5
70
100
AcDbEntity
  8
Dimension
370
              -2
390
0
  6
Continuous
 62
               0
100
AcDbLine
 10
-5.9805200011827964
 20
0.5949999976344031
 30
0.0
 11
-11.667654052231157
 21
0.5949999976344031
 31
0.0
  0
LINE
  5
71
100
AcDbEntity
  8
Dimension
370
              -2
390
0
  6
Continuous
 62
               0
100
AcDbLine
 10
-5.9805200011827964
 20
3.5949999976344174
 30
0.0
 11
-11.667654052231157
 21
3.5949999976344174
 31
0.0
  0
LINE
  5
72
100
AcDbEntity
  8
Dimension
370
              -2
390
0
  6
Continuous
 62
               0
100
AcDbLine
 10
-10.715154049865603
 20
3.5949999976344174
 30
0.0
 11
-10.715154049865603
 21
0.5949999976344031
 31
0.0
  0
LINE
  5
73
100
AcDbEntity
  8
Dimension
370
              -2
390
0
  6
Continuous
 62
               0
100
AcDbLine
 10
-10.715154049865603
 20
0.5949999976344031
 30
0.0
 11
-10.715154049865603
 21
-1.154996500732409
 31
0.0
  0
SOLID
  5
74
100
AcDbEntity
  8
Dimension
370
              -2
390
0
 62
               0
100
AcDbTrace
 10
-10.715154049865603
 20
0.5949999976344031
 30
0.0
 11
-10.5024693783734
 21
-0.1987500023655969
 31
0.0
 12
-10.927838721357807
 22
-0.1987500023655968
 32
0.0
 13
-10.927838721357807
 23
-0.1987500023655968
 33
0.0
  0
LINE
  5
75
100
AcDbEntity
  8
Dimension
370
              -2
390
0
  6
Continuous
 62
               0
100
AcDbLine
 10
-10.715154049865603
 20
3.5949999976344174
 30
0.0
 11
-10.715154049865603
 21
5.3449964960012295
 31
0.0
  0
SOLID
  5
76
100
AcDbEntity
  8
Dimension
370
              -2
390
0
 62
               0
100
AcDbTrace
 10
-10.715154049865603
 20
3.5949999976344174
 30
0.0
 11
-10.927838721357807
 21
4.3887499976344175
 31
0.0
 12
-10.5024693783734
 22
4.3887499976344175
 32
0.0
 13
-10.5024693783734
 23
4.3887499976344175
 33
0.0
  0
WIPEOUT
  5
77
100
AcDbEntity
  8
Dimension
370
              -2
390
0
  6
Continuous
 62
               0
 92
        0
100
AcDbWipeout
 90
        0
 10
-11.900483645404904
 20
1.3426766782984572
 30
0.0
 11
2.3706591910786088
 21
0.0
 31
0.0
 12
0.0
 22
2.3706591910786088
 32
0.0
 13
1.0
 23
1.0
340
0
 70
               7
280
               1
281
              50
282
              50
283
               0
360
0
 71
               2
 91
        5
 14
-0.5
 24
0.5
 14
0.5
 24
0.5
 14
0.5
 24
-0.0133928590748845
 14
-0.5
 24
-0.0133928590748845
 14
-0.5
 24
0.5
  0
MTEXT
  5
78
100
AcDbEntity
  8
Dimension
390
0
 62
               0
100
AcDbMText
 10
-11.900483645404904
 20
2.3651777980901239
 30
0.0
 40
0.7579186197916666
 41
0.0
 71
               1
 72
               1
  1
3mm
  7
Arial
 73
               1
 44
0.9673603504928806
  0
POINT
  5
79
100
AcDbEntity
  8
Defpoints
370
               0
390
0
 62
               0
100
AcDbPoint
 10
-5.5042700000000195
 20
3.5949999976344174
 30
0.0
  0
POINT
  5
7A
100
AcDbEntity
  8
Defpoints
370
               0
390
0
 62
               0
100
AcDbPoint
 10
-5.5042700000000195
 20
0.5949999976344031
 30
0.0
  0
POINT
  5
7B
100
AcDbEntity
  8
Defpoints
370
               0
390
0
 62
               0
100
AcDbPoint
 10
-10.715154049865603
 20
0.5949999976344031
 30
0.0
  0
ENDBLK
  5
7C
100
AcDbEntity
  8
Dimension
390
0
100
AcDbBlockEnd
  0
BLOCK
  5
7D
100
AcDbEntity
  8
Dimension
390
0
100
AcDbBlockBegin
  2
*D5
 70
               1
 10
0.0
 20
0.0
 30
0.0
  3
*D5
  1

  0
LINE
  5
7E
100
AcDbEntity
  8
Dimension
370
              -2
390
0
  6
Continuous
 62
               0
100
AcDbLine
 10
4.6969800011827232
 20
10.319999997634426
 30
0.0
 11
10.49673000236551
 21
10.319999997634426
 31
0.0
  0
LINE
  5
7F
100
AcDbEntity
  8
Dimension
370
              -2
390
0
  6
Continuous
 62
               0
100
AcDbLine
 10
4.6969800011827232
 20
8.3199999976344259
 30
0.0
 11
10.496730002365496
 21
8.3199999976344259
 31
0.0
  0
LINE
  5
80
100
AcDbEntity
  8
Dimension
370
              -2
390
0
  6
Continuous
 62
               0
100
AcDbLine
 10
9.544229999999942
 20
8.3199999976344259
 30
0.0
 11
9.544229999999942
 21
10.319999997634426
 31
0.0
  0
LINE
  5
81
100
AcDbEntity
  8
Dimension
370
              -2
390
0
  6
Continuous
 62
               0
100
AcDbLine
 10
9.544229999999942
 20
10.319999997634426
 30
0.0
 11
9.544229999999942
 21
12.069996496001238
 31
0.0
  0
SOLID
  5
82
100
AcDbEntity
  8
Dimension
370
              -2
390
0
 62
               0
100
AcDbTrace
 10
9.544229999999942
 20
10.319999997634426
 30
0.0
 11
9.3315453285077385
 21
11.113749997634425
 31
0.0
 12
9.7569146714921455
 22
11.113749997634425
 32
0.0
 13
9.7569146714921455
 23
11.113749997634425
 33
0.0
  0
LINE
  5
83
100
AcDbEntity
  8
Dimension
370
              -2
390
0
  6
Continuous
 62
               0
100
AcDbLine
 10
9.544229999999942
 20
8.3199999976344259
 30
0.0
 11
9.544229999999942
 21
6.5700034992676137
 31
0.0
  0
SOLID
  5
84
100
AcDbEntity
  8
Dimension
370
              -2
390
0
 62
               0
100
AcDbTrace
 10
9.544229999999942
 20
8.3199999976344259
 30
0.0
 11
9.7569146714921455
 21
7.5262499976344257
 31
0.0
 12
9.3315453285077385
 22
7.5262499976344257
 32
0.0
 13
9.3315453285077385
 23
7.5262499976344257
 33
0.0
  0
WIPEOUT
  5
85
100
AcDbEntity
  8
Dimension
370
              -2
390
0
  6
Continuous
 62
               0
 92
        0
100
AcDbWipeout
 90
        0
 10
8.3589004044606412
 20
8.7114602476344167
 30
0.0
 11
2.3706591910786088
 21
0.0
 31
0.0
 12
0.0
 22
2.3706591910786088
 32
0.0
 13
1.0
 23
1.0
340
0
 70
               7
280
               1
281
              50
282
              50
283
               0
360
0
 71
               2
 91
        5
 14
-0.5
 24
0.5
 14
0.5
 24
0.5
 14
0.5
 24
-0.0133928590748847
 14
-0.5
 24
-0.0133928590748847
 14
-0.5
 24
0.5
  0
MTEXT
  5
86
100
AcDbEntity
  8
Dimension
390
0
 62
               0
100
AcDbMText
 10
8.3589004044606412
 20
9.7339613674260832
 30
0.0
 40
0.7579186197916666
 41
0.0
 71
               1
 72
               1
  1
2mm
  7
Arial
 73
               1
 44
0.9673603504928806
  0
POINT
  5
87
100
AcDbEntity
  8
Defpoints
370
               0
390
0
 62
               0
100
AcDbPoint
 10
4.2207299999999464
 20
8.3199999976344259
 30
0.0
  0
POINT
  5
88
100
AcDbEntity
  8
Defpoints
370
               0
390
0
 62
               0
100
AcDbPoint
 10
4.2207299999999464
 20
10.319999997634426
 30
0.0
  0
POINT
  5
89
100
AcDbEntity
  8
Defpoints
370
               0
390
0
 62
               0
100
AcDbPoint
 10
9.5442299999999456
 20
10.319999997634426
 30
0.0
  0
ENDBLK
  5
8A
100
AcDbEntity
  8
Dimension
390
0
100
AcDbBlockEnd
  0
BLOCK
  5
8B
100
AcDbEntity
  8
Dimension
390
0
100
AcDbBlockBegin
  2
*D6
 70
               1
 10
0.0
 20
0.0
 30
0.0
  3
*D6
  1

  0
LINE
  5
8C
100
AcDbEntity
  8
Dimension
370
              -2
390
0
  6
Continuous
 62
               0
100
AcDbLine
 10
-6.7542700000000195
 20
12.046249998817203
 30
0.0
 11
-6.7542700000000195
 21
16.280989999999989
 31
0.0
  0
LINE
  5
8D
100
AcDbEntity
  8
Dimension
370
              -2
390
0
  6
Continuous
 62
               0
100
AcDbLine
 10
-5.5042700000000195
 20
10.796249998817203
 30
0.0
 11
-5.5042700000000195
 21
16.280989999999989
 31
0.0
  0
LINE
  5
8E
100
AcDbEntity
  8
Dimension
370
              -2
390
0
  6
Continuous
 62
               0
100
AcDbLine
 10
-5.5042700000000195
 20
15.328489997634435
 30
0.0
 11
-6.7542700000000195
 21
15.328489997634435
 31
0.0
  0
LINE
  5
8F
100
AcDbEntity
  8
Dimension
370
              -2
390
0
  6
Continuous
 62
               0
100
AcDbLine
 10
-6.7542700000000195
 20
15.328489997634435
 30
0.0
 11
-9.4500000000000028
 21
15.328489997634435
 31
0.0
  0
SOLID
  5
90
100
AcDbEntity
  8
Dimension
370
              -2
390
0
 62
               0
100
AcDbTrace
 10
-6.7542700000000195
 20
15.328489997634435
 30
0.0
 11
-7.5480200000000197
 21
15.115805326142231
 31
0.0
 12
-7.5480200000000197
 22
15.541174669126638
 32
0.0
 13
-7.5480200000000197
 23
15.541174669126638
 33
0.0
  0
LINE
  5
91
100
AcDbEntity
  8
Dimension
370
              -2
390
0
  6
Continuous
 62
               0
100
AcDbLine
 10
-5.5042700000000195
 20
15.328489997634435
 30
0.0
 11
-3.7542735016332074
 21
15.328489997634435
 31
0.0
  0
SOLID
  5
92
100
AcDbEntity
  8
Dimension
370
              -2
390
0
 62
               0
100
AcDbTrace
 10
-5.5042700000000195
 20
15.328489997634435
 30
0.0
 11
-4.7105200000000194
 21
15.541174669126638
 31
0.0
 12
-4.7105200000000194
 22
15.115805326142231
 32
0.0
 13
-4.7105200000000194
 23
15.115805326142231
 33
0.0
  0
WIPEOUT
  5
93
100
AcDbEntity
  8
Dimension
370
              -2
390
0
  6
Continuous
 62
               0
 92
        0
100
AcDbWipeout
 90
        0
 10
-20.435472028785284
 20
14.719952164301102
 30
0.0
 11
3.8523212485843246
 21
0.0
 31
0.0
 12
0.0
 22
3.8523212485843246
 32
0.0
 13
1.0
 23
1.0
340
0
 70
               7
280
               1
281
              50
282
              50
283
               0
360
0
 71
               2
 91
        5
 14
-0.5
 24
0.5
 14
0.5
 24
0.5
 14
0.5
 24
0.1840659380504
 14
-0.5
 24
0.1840659380504
 14
-0.5
 24
0.5
  0
MTEXT
  5
94
100
AcDbEntity
  8
Dimension
390
0
 62
               0
100
AcDbMText
 10
-20.435472028785284
 20
15.742453284092768
 30
0.0
 40
0.7579186197916666
 41
0.0
 71
               1
 72
               1
  1
1.25mm
  7
Arial
 73
               1
 44
0.9673603504928806
  0
WIPEOUT
  5
95
100
AcDbEntity
  8
Dimension
370
              -2
390
0
  6
Continuous
 62
               0
 92
        0
100
AcDbWipeout
 90
        0
 10
-16.583150780200967
 20
14.719950497634439
 30
0.0
 11
5.0270675208833495
 21
0.0
 31
0.0
 12
0.0
 22
5.0270675208833495
 32
0.0
 13
1.0
 23
1.0
340
0
 70
               7
280
               1
281
              50
282
              50
283
               0
360
0
 71
               2
 91
        5
 14
-0.5
 24
0.5
 14
0.5
 24
0.5
 14
0.5
 24
0.2578947378478543
 14
-0.5
 24
0.2578947378478543
 14
-0.5
 24
0.5
  0
MTEXT
  5
96
100
AcDbEntity
  8
Dimension
390
0
 62
               0
100
AcDbMText
 10
-16.583150780200967
 20
15.742451617426106
 30
0.0
 40
0.7579186197916666
 41
0.0
 71
               1
 72
               1
  1
±0.125mm
  7
Arial
 73
               1
 44
0.9673603504928806
  0
WIPEOUT
  5
97
100
AcDbEntity
  8
Dimension
370
              -2
390
0
  6
Continuous
 62
               0
 92
        0
100
AcDbWipeout
 90
        0
 10
-11.556083259317617
 20
14.719948330967769
 30
0.0
 11
2.1060832593176109
 21
0.0
 31
0.0
 12
0.0
 22
2.1060832593176109
 32
0.0
 13
1.0
 23
1.0
340
0
 70
               7
280
               1
281
              50
282
              50
283
               0
360
0
 71
               2
 91
        5
 14
-0.5
 24
0.5
 14
0.5
 24
0.5
 14
0.5
 24
-0.0778894675453992
 14
-0.5
 24
-0.0778894675453992
 14
-0.5
 24
0.5
  0
MTEXT
  5
98
100
AcDbEntity
  8
Dimension
390
0
 62
               0
100
AcDbMText
 10
-11.556083259317617
 20
15.742452671245546
 30
0.0
 40
0.7579210069444442
 41
0.0
 71
               1
 72
               1
  1
 (x4)
  7
Arial
 73
               1
 44
0.9673603504928806
  0
POINT
  5
99
100
AcDbEntity
  8
Defpoints
370
               0
390
0
 62
               0
100
AcDbPoint
 10
-5.5042700000000195
 20
10.319999997634426
 30
0.0
  0
POINT
  5
9A
100
AcDbEntity
  8
Defpoints
370
               0
390
0
 62
               0
100
AcDbPoint
 10
-6.7542700000000195
 20
11.569999997634426
 30
0.0
  0
POINT
  5
9B
100
AcDbEntity
  8
Defpoints
370
               0
390
0
 62
               0
100
AcDbPoint
 10
-6.7542700000000195
 20
15.328489997634435
 30
0.0
  0
ENDBLK
  5
9C
100
AcDbEntity
  8
Dimension
390
0
100
AcDbBlockEnd
  0
BLOCK
  5
9D
100
AcDbEntity
  8
Dimension
390
0
100
AcDbBlockBegin
  2
*D7
 70
               1
 10
0.0
 20
0.0
 30
0.0
  3
*D7
  1

  0
LINE
  5
9E
100
AcDbEntity
  8
Dimension
370
              -2
390
0
  6
Continuous
 62
               0
100
AcDbLine
 10
-7.2305200011827964
 20
11.569999997634426
 30
0.0
 11
-15.931770002365582
 21
11.569999997634426
 31
0.0
  0
LINE
  5
9F
100
AcDbEntity
  8
Dimension
370
              -2
390
0
  6
Continuous
 62
               0
100
AcDbLine
 10
-5.9805200011827964
 20
10.319999997634426
 30
0.0
 11
-15.931770002365568
 21
10.319999997634426
 31
0.0
  0
LINE
  5
A0
100
AcDbEntity
  8
Dimension
370
              -2
390
0
  6
Continuous
 62
               0
100
AcDbLine
 10
-14.979270000000014
 20
10.319999997634426
 30
0.0
 11
-14.979270000000014
 21
11.569999997634426
 31
0.0
  0
LINE
  5
A1
100
AcDbEntity
  8
Dimension
370
              -2
390
0
  6
Continuous
 62
               0
100
AcDbLine
 10
-14.979270000000014
 20
11.569999997634426
 30
0.0
 11
-14.979270000000014
 21
13.778489997634424
 31
0.0
  0
SOLID
  5
A2
100
AcDbEntity
  8
Dimension
370
              -2
390
0
 62
               0
100
AcDbTrace
 10
-14.979270000000014
 20
11.569999997634426
 30
0.0
 11
-15.191954671492217
 21
12.363749997634425
 31
0.0
 12
-14.76658532850781
 22
12.363749997634425
 32
0.0
 13
-14.76658532850781
 23
12.363749997634425
 33
0.0
  0
LINE
  5
A3
100
AcDbEntity
  8
Dimension
370
              -2
390
0
  6
Continuous
 62
               0
100
AcDbLine
 10
-14.979270000000014
 20
10.319999997634426
 30
0.0
 11
-14.979270000000014
 21
8.5700034992676137
 31
0.0
  0
SOLID
  5
A4
100
AcDbEntity
  8
Dimension
370
              -2
390
0
 62
               0
100
AcDbTrace
 10
-14.979270000000014
 20
10.319999997634426
 30
0.0
 11
-14.76658532850781
 21
9.5262499976344266
 31
0.0
 12
-15.191954671492217
 22
9.5262499976344266
 32
0.0
 13
-15.191954671492217
 23
9.5262499976344266
 33
0.0
  0
WIPEOUT
  5
A5
100
AcDbEntity
  8
Dimension
370
              -2
390
0
  6
Continuous
 62
               0
 92
        0
100
AcDbWipeout
 90
        0
 10
-20.472006014392662
 20
13.16995216430109
 30
0.0
 11
3.8523212485843246
 21
0.0
 31
0.0
 12
0.0
 22
3.8523212485843246
 32
0.0
 13
1.0
 23
1.0
340
0
 70
               7
280
               1
281
              50
282
              50
283
               0
360
0
 71
               2
 91
        5
 14
-0.5
 24
0.5
 14
0.5
 24
0.5
 14
0.5
 24
0.1840659380504
 14
-0.5
 24
0.1840659380504
 14
-0.5
 24
0.5
  0
MTEXT
  5
A6
100
AcDbEntity
  8
Dimension
390
0
 62
               0
100
AcDbMText
 10
-20.472006014392662
 20
14.192453284092757
 30
0.0
 40
0.7579186197916666
 41
0.0
 71
               1
 72
               1
  1
1.25mm
  7
Arial
 73
               1
 44
0.9673603504928806
  0
WIPEOUT
  5
A7
100
AcDbEntity
  8
Dimension
370
              -2
390
0
  6
Continuous
 62
               0
 92
        0
100
AcDbWipeout
 90
        0
 10
-16.619684765808344
 20
13.169950497634428
 30
0.0
 11
5.0270675208833495
 21
0.0
 31
0.0
 12
0.0
 22
5.0270675208833495
 32
0.0
 13
1.0
 23
1.0
340
0
 70
               7
280
               1
281
              50
282
              50
283
               0
360
0
 71
               2
 91
        5
 14
-0.5
 24
0.5
 14
0.5
 24
0.5
 14
0.5
 24
0.2578947378478543
 14
-0.5
 24
0.2578947378478543
 14
-0.5
 24
0.5
  0
MTEXT
  5
A8
100
AcDbEntity
  8
Dimension
390
0
 62
               0
100
AcDbMText
 10
-16.619684765808344
 20
14.192451617426094
 30
0.0
 40
0.7579186197916666
 41
0.0
 71
               1
 72
               1
  1
±0.125mm
  7
Arial
 73
               1
 44
0.9673603504928806
  0
WIPEOUT
  5
A9
100
AcDbEntity
  8
Dimension
370
              -2
390
0
  6
Continuous
 62
               0
 92
        0
100
AcDbWipeout
 90
        0
 10
-11.592617244924995
 20
13.169948330967758
 30
0.0
 11
2.1060832593176109
 21
0.0
 31
0.0
 12
0.0
 22
2.1060832593176109
 32
0.0
 13
1.0
 23
1.0
340
0
 70
               7
280
               1
281
              50
282
              50
283
               0
360
0
 71
               2
 91
        5
 14
-0.5
 24
0.5
 14
0.5
 24
0.5
 14
0.5
 24
-0.0778894675453992
 14
-0.5
 24
-0.0778894675453992
 14
-0.5
 24
0.5
  0
MTEXT
  5
AA
100
AcDbEntity
  8
Dimension
390
0
 62
               0
100
AcDbMText
 10
-11.592617244924995
 20
14.192452671245535
 30
0.0
 40
0.7579210069444442
 41
0.0
 71
               1
 72
               1
  1
 (x4)
  7
Arial
 73
               1
 44
0.9673603504928806
  0
POINT
  5
AB
100
AcDbEntity
  8
Defpoints
370
               0
390
0
 62
               0
100
AcDbPoint
 10
-5.5042700000000195
 20
10.319999997634426
 30
0.0
  0
POINT
  5
AC
100
AcDbEntity
  8
Defpoints
370
               0
390
0
 62
               0
100
AcDbPoint
 10
-6.7542700000000195
 20
11.569999997634426
 30
0.0
  0
POINT
  5
AD
100
AcDbEntity
  8
Defpoints
370
               0
390
0
 62
               0
100
AcDbPoint
 10
-14.979270000000019
 20
11.569999997634426
 30
0.0
  0
ENDBLK
  5
AE
100
AcDbEntity
  8
Dimension
390
0
100
AcDbBlockEnd
  0
BLOCK
  5
AF
100
AcDbEntity
  8
Dimension
390
0
100
AcDbBlockBegin
  2
*D8
 70
               1
 10
0.0
 20
0.0
 30
0.0
  3
*D8
  1

  0
LINE
  5
B0
100
AcDbEntity
  8
Dimension
370
              -2
390
0
  6
Continuous
 62
               0
100
AcDbLine
 10
-5.5042700000000195
 20
0.1187499964516263
 30
0.0
 11
-5.5042700000000195
 21
-9.7075000047311448
 31
0.0
  0
LINE
  5
B1
100
AcDbEntity
  8
Dimension
370
              -2
390
0
  6
Continuous
 62
               0
100
AcDbLine
 10
4.2207299999999464
 20
0.1187499964516263
 30
0.0
 11
4.2207299999999464
 21
-9.7075000047311448
 31
0.0
  0
LINE
  5
B2
100
AcDbEntity
  8
Dimension
370
              -2
390
0
  6
Continuous
 62
               0
100
AcDbLine
 10
4.2207299999999464
 20
-8.7550000023655912
 30
0.0
 11
-5.5042700000000195
 21
-8.7550000023655912
 31
0.0
  0
LINE
  5
B3
100
AcDbEntity
  8
Dimension
370
              -2
390
0
  6
Continuous
 62
               0
100
AcDbLine
 10
-5.5042700000000195
 20
-8.7550000023655912
 30
0.0
 11
-7.2542664983668317
 21
-8.7550000023655912
 31
0.0
  0
SOLID
  5
B4
100
AcDbEntity
  8
Dimension
370
              -2
390
0
 62
               0
100
AcDbTrace
 10
-5.5042700000000195
 20
-8.7550000023655912
 30
0.0
 11
-6.2980200000000197
 21
-8.9676846738577947
 31
0.0
 12
-6.2980200000000197
 22
-8.5423153308733877
 32
0.0
 13
-6.2980200000000197
 23
-8.5423153308733877
 33
0.0
  0
LINE
  5
B5
100
AcDbEntity
  8
Dimension
370
              -2
390
0
  6
Continuous
 62
               0
100
AcDbLine
 10
4.2207299999999464
 20
-8.7550000023655912
 30
0.0
 11
5.9707264983667585
 21
-8.7550000023655912
 31
0.0
  0
SOLID
  5
B6
100
AcDbEntity
  8
Dimension
370
              -2
390
0
 62
               0
100
AcDbTrace
 10
4.2207299999999464
 20
-8.7550000023655912
 30
0.0
 11
5.0144799999999465
 21
-8.5423153308733877
 31
0.0
 12
5.0144799999999465
 22
-8.9676846738577947
 32
0.0
 13
5.0144799999999465
 23
-8.9676846738577947
 33
0.0
  0
WIPEOUT
  5
B7
100
AcDbEntity
  8
Dimension
370
              -2
390
0
  6
Continuous
 62
               0
 92
        0
100
AcDbWipeout
 90
        0
 10
-3.6322410186852778
 20
-9.3635397523655861
 30
0.0
 11
6.5510630395677349
 21
0.0
 31
0.0
 12
0.0
 22
6.5510630395677349
 32
0.0
 13
1.0
 23
1.0
340
0
 70
               7
280
               1
281
              50
282
              50
283
               0
360
0
 71
               2
 91
        5
 14
-0.5
 24
0.5
 14
0.5
 24
0.5
 14
0.5
 24
0.3142164878205311
 14
-0.5
 24
0.3142164878205311
 14
-0.5
 24
0.5
  0
MTEXT
  5
B8
100
AcDbEntity
  8
Dimension
390
0
 62
               0
100
AcDbMText
 10
-3.6322410186852778
 20
-8.3410386325739196
 30
0.0
 40
0.7579186197916666
 41
0.0
 71
               1
 72
               1
  1
9.725mm (x4)
  7
Arial
 73
               1
 44
0.9673603504928806
  0
POINT
  5
B9
100
AcDbEntity
  8
Defpoints
370
               0
390
0
 62
               0
100
AcDbPoint
 10
4.2207299999999464
 20
0.5949999976344031
 30
0.0
  0
POINT
  5
BA
100
AcDbEntity
  8
Defpoints
370
               0
390
0
 62
               0
100
AcDbPoint
 10
-5.5042700000000195
 20
0.5949999976344031
 30
0.0
  0
POINT
  5
BB
100
AcDbEntity
  8
Defpoints
370
               0
390
0
 62
               0
100
AcDbPoint
 10
-5.5042700000000195
 20
-8.7550000023655965
 30
0.0
  0
ENDBLK
  5
BC
100
AcDbEntity
  8
Dimension
390
0
100
AcDbBlockEnd
  0
BLOCK
  5
BD
100
AcDbEntity
  8
Dimension
390
0
100
AcDbBlockBegin
  2
*D9
 70
               1
 10
0.0
 20
0.0
 30
0.0
  3
*D9
  1

  0
LINE
  5
BE
100
AcDbEntity
  8
Dimension
370
              -2
390
0
  6
Continuous
 62
               0
100
AcDbLine
 10
4.583749999999938
 20
8.5409999976344153
 30
0.0
 11
11.810333301782038
 21
12.967758344020069
 31
0.0
  0
SOLID
  5
BF
100
AcDbEntity
  8
Dimension
370
              -2
390
0
 62
               0
100
AcDbTrace
 10
4.583749999999938
 20
8.5409999976344153
 30
0.0
 11
4.964214317963302
 21
8.9349823322011321
 31
0.0
 12
5.1102329318730897
 22
8.6919665490298108
 32
0.0
 13
5.1102329318730897
 23
8.6919665490298108
 33
0.0
  0
LINE
  5
C0
100
AcDbEntity
  8
Dimension
370
              -2
390
0
  6
Continuous
 62
               0
100
AcDbLine
 10
11.810333301782038
 20
12.967758344020069
 30
0.0
 11
13.310330303761532
 21
12.967758344020069
 31
0.0
  0
WIPEOUT
  5
C1
100
AcDbEntity
  8
Dimension
370
              -2
390
0
  6
Continuous
 62
               0
 92
        0
100
AcDbWipeout
 90
        0
 10
11.087837301611742
 20
12.359220260686737
 30
0.0
 11
4.9741509887907256
 21
0.0
 31
0.0
 12
0.0
 22
4.9741509887907256
 32
0.0
 13
1.0
 23
1.0
340
0
 70
               7
280
               1
281
              50
282
              50
283
               0
360
0
 71
               2
 91
        5
 14
-0.5
 24
0.5
 14
0.5
 24
0.5
 14
0.5
 24
0.2553191483847805
 14
-0.5
 24
0.2553191483847805
 14
-0.5
 24
0.5
  0
MTEXT
  5
C2
100
AcDbEntity
  8
Dimension
390
0
 62
               0
100
AcDbMText
 10
11.087837301611742
 20
13.381721380478403
 30
0.0
 40
0.7579186197916666
 41
0.0
 71
               1
 72
               1
  1
Ø 0.85mm
  7
Arial
 73
               1
 44
0.9673603504928806
  0
WIPEOUT
  5
C3
100
AcDbEntity
  8
Dimension
370
              -2
390
0
  6
Continuous
 62
               0
 92
        0
100
AcDbWipeout
 90
        0
 10
16.061988290402461
 20
12.921456510686735
 30
0.0
 11
1.2170795000000005
 21
0.0
 31
0.0
 12
0.0
 22
1.2170795000000005
 32
0.0
 13
1.0
 23
1.0
340
0
 70
               7
280
               1
281
              50
282
              50
283
               0
360
0
 71
               2
 91
        5
 14
-0.5
 24
0.5
 14
0.0043478278911342
 24
0.5
 14
0.0043478278911342
 24
-0.5
 14
-0.5
 24
-0.5
 14
-0.5
 24
0.5
  0
MTEXT
  5
C4
100
AcDbEntity
  8
Dimension
390
0
 62
               0
100
AcDbMText
 10
16.368903991500375
 20
13.943957630478401
 30
0.0
 40
0.7579186197916666
 41
0.0
 71
               2
 72
               1
  1
+
  7
Arial
 73
               1
 44
0.9673603504928806
  0
WIPEOUT
  5
C5
100
AcDbEntity
  8
Dimension
370
              -2
390
0
  6
Continuous
 62
               0
 92
        0
100
AcDbWipeout
 90
        0
 10
16.194279536525247
 20
11.7969806773534
 30
0.0
 11
1.2170795000000005
 21
0.0
 31
0.0
 12
0.0
 22
1.2170795000000005
 32
0.0
 13
1.0
 23
1.0
340
0
 70
               7
280
               1
281
              50
282
              50
283
               0
360
0
 71
               2
 91
        5
 14
-0.5
 24
0.5
 14
-0.2130434700853521
 24
0.5
 14
-0.2130434700853521
 24
-0.5
 14
-0.5
 24
-0.5
 14
-0.5
 24
0.5
  0
MTEXT
  5
C6
100
AcDbEntity
  8
Dimension
390
0
 62
               0
100
AcDbMText
 10
16.368903991500375
 20
12.819481797145066
 30
0.0
 40
0.7579186197916666
 41
0.0
 71
               2
 72
               1
  1
-
  7
Arial
 73
               1
 44
0.9673603504928806
  0
WIPEOUT
  5
C7
100
AcDbEntity
  8
Dimension
370
              -2
390
0
  6
Continuous
 62
               0
 92
        0
100
AcDbWipeout
 90
        0
 10
16.675819692598296
 20
12.921456510686735
 30
0.0
 11
4.4449860042995866
 21
0.0
 31
0.0
 12
0.0
 22
4.4449860042995866
 32
0.0
 13
1.0
 23
1.0
340
0
 70
               7
280
               1
281
              50
282
              50
283
               0
360
0
 71
               2
 91
        5
 14
-0.5
 24
0.5
 14
0.5
 24
0.5
 14
0.5
 24
0.226190476455329
 14
-0.5
 24
0.226190476455329
 14
-0.5
 24
0.5
  0
MTEXT
  5
C8
100
AcDbEntity
  8
Dimension
390
0
 62
               0
100
AcDbMText
 10
16.675819692598296
 20
13.943957630478401
 30
0.0
 40
0.7579186197916666
 41
0.0
 71
               1
 72
               1
  1
0.025mm
  7
Arial
 73
               1
 44
0.9673603504928806
  0
WIPEOUT
  5
C9
100
AcDbEntity
  8
Dimension
370
              -2
390
0
  6
Continuous
 62
               0
 92
        0
100
AcDbWipeout
 90
        0
 10
16.675819692598296
 20
11.7969806773534
 30
0.0
 11
4.4449860042995866
 21
0.0
 31
0.0
 12
0.0
 22
4.4449860042995866
 32
0.0
 13
1.0
 23
1.0
340
0
 70
               7
280
               1
281
              50
282
              50
283
               0
360
0
 71
               2
 91
        5
 14
-0.5
 24
0.5
 14
0.5
 24
0.5
 14
0.5
 24
0.226190476455329
 14
-0.5
 24
0.226190476455329
 14
-0.5
 24
0.5
  0
MTEXT
  5
CA
100
AcDbEntity
  8
Dimension
390
0
 62
               0
100
AcDbMText
 10
16.675819692598296
 20
12.819481797145066
 30
0.0
 40
0.7579186197916666
 41
0.0
 71
               1
 72
               1
  1
0.025mm
  7
Arial
 73
               1
 44
0.9673603504928806
  0
WIPEOUT
  5
CB
100
AcDbEntity
  8
Dimension
370
              -2
390
0
  6
Continuous
 62
               0
 92
        0
100
AcDbWipeout
 90
        0
 10
21.120805696897875
 20
12.359216427353404
 30
0.0
 11
2.1060832593176109
 21
0.0
 31
0.0
 12
0.0
 22
2.1060832593176109
 32
0.0
 13
1.0
 23
1.0
340
0
 70
               7
280
               1
281
              50
282
              50
283
               0
360
0
 71
               2
 91
        5
 14
-0.5
 24
0.5
 14
0.5
 24
0.5
 14
0.5
 24
-0.0778894675453992
 14
-0.5
 24
-0.0778894675453992
 14
-0.5
 24
0.5
  0
MTEXT
  5
CC
100
AcDbEntity
  8
Dimension
390
0
 62
               0
100
AcDbMText
 10
21.120805696897875
 20
13.381720767631181
 30
0.0
 40
0.7579210069444442
 41
0.0
 71
               1
 72
               1
  1
 (x2)
  7
Arial
 73
               1
 44
0.9673603504928806
  0
POINT
  5
CD
100
AcDbEntity
  8
Defpoints
370
               0
390
0
 62
               0
100
AcDbPoint
 10
3.858929999999944
 20
8.0969999976344127
 30
0.0
  0
POINT
  5
CE
100
AcDbEntity
  8
Defpoints
370
               0
390
0
 62
               0
100
AcDbPoint
 10
4.583749999999938
 20
8.5409999976344153
 30
0.0
  0
ENDBLK
  5
CF
100
AcDbEntity
  8
Dimension
390
0
100
AcDbBlockEnd
  0
BLOCK
  5
D0
100
AcDbEntity
  8
Dimension
390
0
100
AcDbBlockBegin
  2
*D10
 70
               1
 10
0.0
 20
0.0
 30
0.0
  3
*D10
  1

  0
LINE
  5
D1
100
AcDbEntity
  8
Dimension
370
              -2
390
0
  6
Continuous
 62
               0
100
AcDbLine
 10
4.9043999999999386
 20
0.169999997634406
 30
0.0
 11
7.864396163706985
 21
-1.7003595131041891
 31
0.0
  0
SOLID
  5
D2
100
AcDbEntity
  8
Dimension
370
              -2
390
0
 62
               0
100
AcDbTrace
 10
4.9043999999999386
 20
0.169999997634406
 30
0.0
 11
5.4252935560334743
 21
0.0007514216383111
 31
0.0
 12
5.2708827641945462
 22
-0.2370203467493213
 32
0.0
 13
5.2708827641945462
 23
-0.2370203467493213
 33
0.0
  0
LINE
  5
D3
100
AcDbEntity
  8
Dimension
370
              -2
390
0
  6
Continuous
 62
               0
100
AcDbLine
 10
7.864396163706985
 20
-1.7003595131041891
 30
0.0
 11
9.3643931656864794
 21
-1.7003595131041891
 31
0.0
  0
WIPEOUT
  5
D4
100
AcDbEntity
  8
Dimension
370
              -2
390
0
  6
Continuous
 62
               0
 92
        0
100
AcDbWipeout
 90
        0
 10
7.4382325413943136
 20
-2.3088975964375207
 30
0.0
 11
4.9741509887907238
 21
0.0
 31
0.0
 12
0.0
 22
4.9741509887907238
 32
0.0
 13
1.0
 23
1.0
340
0
 70
               7
280
               1
281
              50
282
              50
283
               0
360
0
 71
               2
 91
        5
 14
-0.5
 24
0.5
 14
0.5
 24
0.5
 14
0.5
 24
0.2553191483847807
 14
-0.5
 24
0.2553191483847807
 14
-0.5
 24
0.5
  0
MTEXT
  5
D5
100
AcDbEntity
  8
Dimension
390
0
 62
               0
100
AcDbMText
 10
7.4382325413943136
 20
-1.2863964766458544
 30
0.0
 40
0.7579186197916666
 41
0.0
 71
               1
 72
               1
  1
Ø 1.61mm
  7
Arial
 73
               1
 44
0.9673603504928806
  0
WIPEOUT
  5
D6
100
AcDbEntity
  8
Dimension
370
              -2
390
0
  6
Continuous
 62
               0
 92
        0
100
AcDbWipeout
 90
        0
 10
12.412383530185034
 20
-1.7466613464375229
 30
0.0
 11
1.2170794999999999
 21
0.0
 31
0.0
 12
0.0
 22
1.2170794999999999
 32
0.0
 13
1.0
 23
1.0
340
0
 70
               7
280
               1
281
              50
282
              50
283
               0
360
0
 71
               2
 91
        5
 14
-0.5
 24
0.5
 14
0.0043478278911316
 24
0.5
 14
0.0043478278911316
 24
-0.5
 14
-0.5
 24
-0.5
 14
-0.5
 24
0.5
  0
MTEXT
  5
D7
100
AcDbEntity
  8
Dimension
390
0
 62
               0
100
AcDbMText
 10
12.719299231282946
 20
-0.7241602266458564
 30
0.0
 40
0.7579186197916666
 41
0.0
 71
               2
 72
               1
  1
+
  7
Arial
 73
               1
 44
0.9673603504928806
  0
WIPEOUT
  5
D8
100
AcDbEntity
  8
Dimension
370
              -2
390
0
  6
Continuous
 62
               0
 92
        0
100
AcDbWipeout
 90
        0
 10
12.544674776307819
 20
-2.8711371797708578
 30
0.0
 11
1.2170794999999996
 21
0.0
 31
0.0
 12
0.0
 22
1.2170794999999996
 32
0.0
 13
1.0
 23
1.0
340
0
 70
               7
280
               1
281
              50
282
              50
283
               0
360
0
 71
               2
 91
        5
 14
-0.5
 24
0.5
 14
-0.2130434700853519
 24
0.5
 14
-0.2130434700853519
 24
-0.5
 14
-0.5
 24
-0.5
 14
-0.5
 24
0.5
  0
MTEXT
  5
D9
100
AcDbEntity
  8
Dimension
390
0
 62
               0
100
AcDbMText
 10
12.719299231282946
 20
-1.8486360599791916
 30
0.0
 40
0.7579186197916666
 41
0.0
 71
               2
 72
               1
  1
-
  7
Arial
 73
               1
 44
0.9673603504928806
  0
WIPEOUT
  5
DA
100
AcDbEntity
  8
Dimension
370
              -2
390
0
  6
Continuous
 62
               0
 92
        0
100
AcDbWipeout
 90
        0
 10
13.026214932380867
 20
-1.7466613464375229
 30
0.0
 11
3.8523212485843246
 21
0.0
 31
0.0
 12
0.0
 22
3.8523212485843246
 32
0.0
 13
1.0
 23
1.0
340
0
 70
               7
280
               1
281
              50
282
              50
283
               0
360
0
 71
               2
 91
        5
 14
-0.5
 24
0.5
 14
0.5
 24
0.5
 14
0.5
 24
0.1840659380504002
 14
-0.5
 24
0.1840659380504002
 14
-0.5
 24
0.5
  0
MTEXT
  5
DB
100
AcDbEntity
  8
Dimension
390
0
 62
               0
100
AcDbMText
 10
13.026214932380867
 20
-0.7241602266458564
 30
0.0
 40
0.7579186197916666
 41
0.0
 71
               1
 72
               1
  1
0.05mm
  7
Arial
 73
               1
 44
0.9673603504928806
  0
WIPEOUT
  5
DC
100
AcDbEntity
  8
Dimension
370
              -2
390
0
  6
Continuous
 62
               0
 92
        0
100
AcDbWipeout
 90
        0
 10
13.026214932380867
 20
-2.8711371797708578
 30
0.0
 11
3.8523212485843246
 21
0.0
 31
0.0
 12
0.0
 22
3.8523212485843246
 32
0.0
 13
1.0
 23
1.0
340
0
 70
               7
280
               1
281
              50
282
              50
283
               0
360
0
 71
               2
 91
        5
 14
-0.5
 24
0.5
 14
0.5
 24
0.5
 14
0.5
 24
0.1840659380504002
 14
-0.5
 24
0.1840659380504002
 14
-0.5
 24
0.5
  0
MTEXT
  5
DD
100
AcDbEntity
  8
Dimension
390
0
 62
               0
100
AcDbMText
 10
13.026214932380867
 20
-1.8486360599791916
 30
0.0
 40
0.7579186197916666
 41
0.0
 71
               1
 72
               1
  1
0.05mm
  7
Arial
 73
               1
 44
0.9673603504928806
  0
WIPEOUT
  5
DE
100
AcDbEntity
  8
Dimension
370
              -2
390
0
  6
Continuous
 62
               0
 92
        0
100
AcDbWipeout
 90
        0
 10
16.878536180965185
 20
-2.3089014297708541
 30
0.0
 11
1.8097500403722115
 21
0.0
 31
0.0
 12
0.0
 22
1.8097500403722115
 32
0.0
 13
1.0
 23
1.0
340
0
 70
               7
280
               1
281
              50
282
              50
283
               0
360
0
 71
               2
 91
        5
 14
-0.5
 24
0.5
 14
0.5
 24
0.5
 14
0.5
 24
-0.1725146048804703
 14
-0.5
 24
-0.1725146048804703
 14
-0.5
 24
0.5
  0
MTEXT
  5
DF
100
AcDbEntity
  8
Dimension
390
0
 62
               0
100
AcDbMText
 10
16.878536180965185
 20
-1.2863970894930765
 30
0.0
 40
0.7579210069444442
 41
0.0
 71
               1
 72
               1
  1
(x4)
  7
Arial
 73
               1
 44
0.9673603504928806
  0
POINT
  5
E0
100
AcDbEntity
  8
Defpoints
370
               0
390
0
 62
               0
100
AcDbPoint
 10
3.5433799999999422
 20
1.0299999976344054
 30
0.0
  0
POINT
  5
E1
100
AcDbEntity
  8
Defpoints
370
               0
390
0
 62
               0
100
AcDbPoint
 10
4.9043999999999386
 20
0.169999997634406
 30
0.0
  0
ENDBLK
  5
E2
100
AcDbEntity
  8
Dimension
390
0
100
AcDbBlockEnd
  0
BLOCK
  5
E3
100
AcDbEntity
  8
Dimension
390
0
100
AcDbBlockBegin
  2
*D11
 70
               1
 10
0.0
 20
0.0
 30
0.0
  3
*D11
  1

  0
LINE
  5
E4
100
AcDbEntity
  8
Dimension
370
              -2
390
0
  6
Continuous
 62
               0
100
AcDbLine
 10
2.2193344189313962
 20
5.0674999976344139
 30
0.0
 11
7.841984250403101
 21
2.7858449938865419
 31
0.0
  0
SOLID
  5
E5
100
AcDbEntity
  8
Dimension
370
              -2
390
0
 62
               0
100
AcDbTrace
 10
2.2193344189313962
 20
5.0674999976344139
 30
0.0
 11
2.761704138201766
 21
4.9912749045708544
 31
0.0
 12
2.6509278275311914
 22
4.7303022710003537
 32
0.0
 13
2.6509278275311914
 23
4.7303022710003537
 33
0.0
  0
LINE
  5
E6
100
AcDbEntity
  8
Dimension
370
              -2
390
0
  6
Continuous
 62
               0
100
AcDbLine
 10
7.841984250403101
 20
2.7858449938865419
 30
0.0
 11
9.3419812523825954
 21
2.7858449938865419
 31
0.0
  0
WIPEOUT
  5
E7
100
AcDbEntity
  8
Dimension
370
              -2
390
0
  6
Continuous
 62
               0
 92
        0
100
AcDbWipeout
 90
        0
 10
9.3419812523825954
 20
2.1773052438865337
 30
0.0
 11
7.6305594868130129
 21
0.0
 31
0.0
 12
0.0
 22
7.6305594868130129
 32
0.0
 13
1.0
 23
1.0
340
0
 70
               7
280
               1
281
              50
282
              50
283
               0
360
0
 71
               2
 91
        5
 14
-0.5
 24
0.5
 14
0.5
 24
0.5
 14
0.5
 24
0.3404993104236546
 14
-0.5
 24
0.3404993104236546
 14
-0.5
 24
0.5
  0
MTEXT
  5
E8
100
AcDbEntity
  8
Dimension
390
0
 62
               0
100
AcDbMText
 10
9.3419812523825954
 20
3.1998063636782001
 30
0.0
 40
0.7579186197916666
 41
0.0
 71
               1
 72
               1
  1
0.6mm x 0.3mm
  7
Arial
 73
               1
 44
0.9673603504928806
  0
POINT
  5
E9
100
AcDbEntity
  8
Defpoints
370
               0
390
0
 62
               0
100
AcDbPoint
 10
1.5293344189313984
 20
5.3474999976344151
 30
0.0
  0
POINT
  5
EA
100
AcDbEntity
  8
Defpoints
370
               0
390
0
 62
               0
100
AcDbPoint
 10
2.2193344189313962
 20
5.0674999976344139
 30
0.0
  0
ENDBLK
  5
EB
100
AcDbEntity
  8
Dimension
390
0
100
AcDbBlockEnd
  0
BLOCK
  5
EC
100
AcDbEntity
  8
Dimension
390
0
100
AcDbBlockBegin
  2
*D12
 70
               1
 10
0.0
 20
0.0
 30
0.0
  3
*D12
  1

  0
LINE
  5
ED
100
AcDbEntity
  8
Dimension
370
              -2
390
0
  6
Continuous
 62
               0
100
AcDbLine
 10
-5.5042700000000195
 20
10.796249998817203
 30
0.0
 11
-5.5042700000000195
 21
21.999999999999986
 31
0.0
  0
LINE
  5
EE
100
AcDbEntity
  8
Dimension
370
              -2
390
0
  6
Continuous
 62
               0
100
AcDbLine
 10
-2.1667700000000565
 20
8.5337499988171857
 30
0.0
 11
-2.1667700000000565
 21
21.999999999999986
 31
0.0
  0
LINE
  5
EF
100
AcDbEntity
  8
Dimension
370
              -2
390
0
  6
Continuous
 62
               0
100
AcDbLine
 10
-2.1667700000000565
 20
21.047499997634432
 30
0.0
 11
-5.5042700000000195
 21
21.047499997634432
 31
0.0
  0
LINE
  5
F0
100
AcDbEntity
  8
Dimension
370
              -2
390
0
  6
Continuous
 62
               0
100
AcDbLine
 10
-5.5042700000000195
 20
21.047499997634432
 30
0.0
 11
-7.2542664983668317
 21
21.047499997634432
 31
0.0
  0
SOLID
  5
F1
100
AcDbEntity
  8
Dimension
370
              -2
390
0
 62
               0
100
AcDbTrace
 10
-5.5042700000000195
 20
21.047499997634432
 30
0.0
 11
-6.2980200000000197
 21
20.834815326142227
 31
0.0
 12
-6.2980200000000197
 22
21.260184669126637
 32
0.0
 13
-6.2980200000000197
 23
21.260184669126637
 33
0.0
  0
LINE
  5
F2
100
AcDbEntity
  8
Dimension
370
              -2
390
0
  6
Continuous
 62
               0
100
AcDbLine
 10
-2.1667700000000565
 20
21.047499997634432
 30
0.0
 11
1.2999999999999972
 21
21.047499997634432
 31
0.0
  0
SOLID
  5
F3
100
AcDbEntity
  8
Dimension
370
              -2
390
0
 62
               0
100
AcDbTrace
 10
-2.1667700000000565
 20
21.047499997634432
 30
0.0
 11
-1.3730200000000565
 21
21.260184669126637
 31
0.0
 12
-1.3730200000000565
 22
20.834815326142227
 32
0.0
 13
-1.3730200000000565
 23
20.834815326142227
 33
0.0
  0
WIPEOUT
  5
F4
100
AcDbEntity
  8
Dimension
370
              -2
390
0
  6
Continuous
 62
               0
 92
        0
100
AcDbWipeout
 90
        0
 10
1.2999999999999972
 20
20.438960247634423
 30
0.0
 11
5.4503997776243427
 21
0.0
 31
0.0
 12
0.0
 22
5.4503997776243427
 32
0.0
 13
1.0
 23
1.0
340
0
 70
               7
280
               1
281
              50
282
              50
283
               0
360
0
 71
               2
 91
        5
 14
-0.5
 24
0.5
 14
0.5
 24
0.5
 14
0.5
 24
0.2766990405003856
 14
-0.5
 24
0.2766990405003856
 14
-0.5
 24
0.5
  0
MTEXT
  5
F5
100
AcDbEntity
  8
Dimension
390
0
 62
               0
100
AcDbMText
 10
1.2999999999999972
 20
21.461461367426089
 30
0.0
 40
0.7579186197916666
 41
0.0
 71
               1
 72
               1
  1
3.3375mm*
  7
Arial
 73
               1
 44
0.9673603504928806
  0
POINT
  5
F6
100
AcDbEntity
  8
Defpoints
370
               0
390
0
 62
               0
100
AcDbPoint
 10
-2.1667700000000565
 20
8.0574999976344088
 30
0.0
  0
POINT
  5
F7
100
AcDbEntity
  8
Defpoints
370
               0
390
0
 62
               0
100
AcDbPoint
 10
-5.5042700000000195
 20
10.319999997634426
 30
0.0
  0
POINT
  5
F8
100
AcDbEntity
  8
Defpoints
370
               0
390
0
 62
               0
100
AcDbPoint
 10
-5.5042700000000195
 20
21.047499997634432
 30
0.0
  0
ENDBLK
  5
F9
100
AcDbEntity
  8
Dimension
390
0
100
AcDbBlockEnd
  0
BLOCK
  5
FA
100
AcDbEntity
  8
Dimension
390
0
100
AcDbBlockBegin
  2
*D13
 70
               1
 10
0.0
 20
0.0
 30
0.0
  3
*D13
  1

  0
LINE
  5
FB
100
AcDbEntity
  8
Dimension
370
              -2
390
0
  6
Continuous
 62
               0
100
AcDbLine
 10
-5.9805200011827964
 20
10.319999997634426
 30
0.0
 11
-10.484270002365577
 21
10.319999997634426
 31
0.0
  0
LINE
  5
FC
100
AcDbEntity
  8
Dimension
370
              -2
390
0
  6
Continuous
 62
               0
100
AcDbLine
 10
-2.6430200011828333
 20
8.0574999976344088
 30
0.0
 11
-10.484270002365577
 21
8.0574999976344088
 31
0.0
  0
LINE
  5
FD
100
AcDbEntity
  8
Dimension
370
              -2
390
0
  6
Continuous
 62
               0
100
AcDbLine
 10
-9.5317700000000229
 20
8.0574999976344088
 30
0.0
 11
-9.5317700000000229
 21
10.319999997634426
 31
0.0
  0
LINE
  5
FE
100
AcDbEntity
  8
Dimension
370
              -2
390
0
  6
Continuous
 62
               0
100
AcDbLine
 10
-9.5317700000000229
 20
10.319999997634426
 30
0.0
 11
-9.5317700000000229
 21
12.069996496001238
 31
0.0
  0
SOLID
  5
FF
100
AcDbEntity
  8
Dimension
370
              -2
390
0
 62
               0
100
AcDbTrace
 10
-9.5317700000000229
 20
10.319999997634426
 30
0.0
 11
-9.7444546714922264
 21
11.113749997634425
 31
0.0
 12
-9.3190853285078195
 22
11.113749997634425
 32
0.0
 13
-9.3190853285078195
 23
11.113749997634425
 33
0.0
  0
LINE
  5
100
100
AcDbEntity
  8
Dimension
370
              -2
390
0
  6
Continuous
 62
               0
100
AcDbLine
 10
-9.5317700000000229
 20
8.0574999976344088
 30
0.0
 11
-9.5317700000000229
 21
6.3075034992675967
 31
0.0
  0
SOLID
  5
101
100
AcDbEntity
  8
Dimension
370
              -2
390
0
 62
               0
100
AcDbTrace
 10
-9.5317700000000229
 20
8.0574999976344088
 30
0.0
 11
-9.3190853285078195
 21
7.2637499976344087
 31
0.0
 12
-9.7444546714922264
 22
7.2637499976344087
 32
0.0
 13
-9.7444546714922264
 23
7.2637499976344087
 33
0.0
  0
WIPEOUT
  5
102
100
AcDbEntity
  8
Dimension
370
              -2
390
0
  6
Continuous
 62
               0
 92
        0
100
AcDbWipeout
 90
        0
 10
-12.050595380007451
 20
8.5802102476344082
 30
0.0
 11
5.0376507600148521
 21
0.0
 31
0.0
 12
0.0
 22
5.0376507600148521
 32
0.0
 13
1.0
 23
1.0
340
0
 70
               7
280
               1
281
              50
282
              50
283
               0
360
0
 71
               2
 91
        5
 14
-0.5
 24
0.5
 14
0.5
 24
0.5
 14
0.5
 24
0.2584033594269222
 14
-0.5
 24
0.2584033594269222
 14
-0.5
 24
0.5
  0
MTEXT
  5
103
100
AcDbEntity
  8
Dimension
390
0
 62
               0
100
AcDbMText
 10
-12.050595380007451
 20
9.6027113674260747
 30
0.0
 40
0.7579186197916666
 41
0.0
 71
               1
 72
               1
  1
2.2625mm
  7
Arial
 73
               1
 44
0.9673603504928806
  0
POINT
  5
104
100
AcDbEntity
  8
Defpoints
370
               0
390
0
 62
               0
100
AcDbPoint
 10
-2.1667700000000565
 20
8.0574999976344088
 30
0.0
  0
POINT
  5
105
100
AcDbEntity
  8
Defpoints
370
               0
390
0
 62
               0
100
AcDbPoint
 10
-5.5042700000000195
 20
10.319999997634426
 30
0.0
  0
POINT
  5
106
100
AcDbEntity
  8
Defpoints
370
               0
390
0
 62
               0
100
AcDbPoint
 10
-9.5317700000000229
 20
10.319999997634426
 30
0.0
  0
ENDBLK
  5
107
100
AcDbEntity
  8
Dimension
390
0
100
AcDbBlockEnd
  0
BLOCK
  5
108
100
AcDbEntity
  8
Dimension
390
0
100
AcDbBlockBegin
  2
*D14
 70
               1
 10
0.0
 20
0.0
 30
0.0
  3
*D14
  1

  0
LINE
  5
109
100
AcDbEntity
  8
Dimension
370
              -2
390
0
  6
Continuous
 62
               0
100
AcDbLine
 10
-2.6430200011828333
 20
8.0574999976344088
 30
0.0
 11
-19.452500002365554
 21
8.0574999976344088
 31
0.0
  0
LINE
  5
10A
100
AcDbEntity
  8
Dimension
370
              -2
390
0
  6
Continuous
 62
               0
100
AcDbLine
 10
-2.6430200011828333
 20
2.8574999976344202
 30
0.0
 11
-19.452500002365554
 21
2.8574999976344202
 31
0.0
  0
LINE
  5
10B
100
AcDbEntity
  8
Dimension
370
              -2
390
0
  6
Continuous
 62
               0
100
AcDbLine
 10
-18.5
 20
8.0574999976344088
 30
0.0
 11
-18.5
 21
2.8574999976344202
 31
0.0
  0
SOLID
  5
10C
100
AcDbEntity
  8
Dimension
370
              -2
390
0
 62
               0
100
AcDbTrace
 10
-18.5
 20
8.0574999976344088
 30
0.0
 11
-18.287315328507798
 21
7.2637499976344087
 31
0.0
 12
-18.712684671492205
 22
7.2637499976344087
 32
0.0
 13
-18.712684671492205
 23
7.2637499976344087
 33
0.0
  0
SOLID
  5
10D
100
AcDbEntity
  8
Dimension
370
              -2
390
0
 62
               0
100
AcDbTrace
 10
-18.5
 20
2.8574999976344202
 30
0.0
 11
-18.712684671492205
 21
3.6512499976344204
 31
0.0
 12
-18.287315328507795
 22
3.6512499976344204
 32
0.0
 13
-18.287315328507795
 23
3.6512499976344204
 33
0.0
  0
WIPEOUT
  5
10E
100
AcDbEntity
  8
Dimension
370
              -2
390
0
  6
Continuous
 62
               0
 92
        0
100
AcDbWipeout
 90
        0
 10
-20.129828246434528
 20
4.0485702476344132
 30
0.0
 11
3.259656492869059
 21
0.0
 31
0.0
 12
0.0
 22
3.259656492869059
 32
0.0
 13
1.0
 23
1.0
340
0
 70
               7
280
               1
281
              50
282
              50
283
               0
360
0
 71
               2
 91
        5
 14
-0.5
 24
0.5
 14
0.5
 24
0.5
 14
0.5
 24
0.1266233872610423
 14
-0.5
 24
0.1266233872610423
 14
-0.5
 24
0.5
  0
MTEXT
  5
10F
100
AcDbEntity
  8
Dimension
390
0
 62
               0
100
AcDbMText
 10
-20.129828246434528
 20
5.0710713674260797
 30
0.0
 40
0.7579186197916666
 41
0.0
 71
               1
 72
               1
  1
5.2mm
  7
Arial
 73
               1
 44
0.9673603504928806
  0
POINT
  5
110
100
AcDbEntity
  8
Defpoints
370
               0
390
0
 62
               0
100
AcDbPoint
 10
-2.1667700000000565
 20
2.8574999976344202
 30
0.0
  0
POINT
  5
111
100
AcDbEntity
  8
Defpoints
370
               0
390
0
 62
               0
100
AcDbPoint
 10
-2.1667700000000565
 20
8.0574999976344088
 30
0.0
  0
POINT
  5
112
100
AcDbEntity
  8
Defpoints
370
               0
390
0
 62
               0
100
AcDbPoint
 10
-18.5
 20
8.0574999976344088
 30
0.0
  0
ENDBLK
  5
113
100
AcDbEntity
  8
Dimension
390
0
100
AcDbBlockEnd
  0
BLOCK
  5
114
100
AcDbEntity
  8
Dimension
390
0
100
AcDbBlockBegin
  2
*D15
 70
               1
 10
0.0
 20
0.0
 30
0.0
  3
*D15
  1

  0
LINE
  5
115
100
AcDbEntity
  8
Dimension
370
              -2
390
0
  6
Continuous
 62
               0
100
AcDbLine
 10
-3.4680200011828077
 20
7.2324999976344202
 30
0.0
 11
-15.082200606960839
 21
7.2324999976344202
 31
0.0
  0
LINE
  5
116
100
AcDbEntity
  8
Dimension
370
              -2
390
0
  6
Continuous
 62
               0
100
AcDbLine
 10
-3.4680200011828077
 20
3.6824999976344088
 30
0.0
 11
-15.082200606960839
 21
3.6824999976344088
 31
0.0
  0
LINE
  5
117
100
AcDbEntity
  8
Dimension
370
              -2
390
0
  6
Continuous
 62
               0
100
AcDbLine
 10
-14.129700604595286
 20
3.6824999976344088
 30
0.0
 11
-14.129700604595286
 21
7.2324999976344202
 31
0.0
  0
LINE
  5
118
100
AcDbEntity
  8
Dimension
370
              -2
390
0
  6
Continuous
 62
               0
100
AcDbLine
 10
-14.129700604595286
 20
7.2324999976344202
 30
0.0
 11
-14.129700604595286
 21
8.9824964960012323
 31
0.0
  0
SOLID
  5
119
100
AcDbEntity
  8
Dimension
370
              -2
390
0
 62
               0
100
AcDbTrace
 10
-14.129700604595286
 20
7.2324999976344202
 30
0.0
 11
-14.342385276087489
 21
8.0262499976344195
 31
0.0
 12
-13.917015933103082
 22
8.0262499976344195
 32
0.0
 13
-13.917015933103082
 23
8.0262499976344195
 33
0.0
  0
LINE
  5
11A
100
AcDbEntity
  8
Dimension
370
              -2
390
0
  6
Continuous
 62
               0
100
AcDbLine
 10
-14.129700604595286
 20
3.6824999976344088
 30
0.0
 11
-14.129700604595286
 21
1.9325034992675967
 31
0.0
  0
SOLID
  5
11B
100
AcDbEntity
  8
Dimension
370
              -2
390
0
 62
               0
100
AcDbTrace
 10
-14.129700604595286
 20
3.6824999976344088
 30
0.0
 11
-13.917015933103082
 21
2.8887499976344087
 31
0.0
 12
-14.342385276087489
 22
2.8887499976344087
 32
0.0
 13
-14.342385276087489
 23
2.8887499976344087
 33
0.0
  0
WIPEOUT
  5
11C
100
AcDbEntity
  8
Dimension
370
              -2
390
0
  6
Continuous
 62
               0
 92
        0
100
AcDbWipeout
 90
        0
 10
-16.055861228887451
 20
5.5044642615504076
 30
0.0
 11
3.8523212485843228
 21
0.0
 31
0.0
 12
0.0
 22
3.8523212485843228
 32
0.0
 13
1.0
 23
1.0
340
0
 70
               7
280
               1
281
              50
282
              50
283
               0
360
0
 71
               2
 91
        5
 14
-0.5
 24
0.5
 14
0.5
 24
0.5
 14
0.5
 24
0.1840659380504001
 14
-0.5
 24
0.1840659380504001
 14
-0.5
 24
0.5
  0
MTEXT
  5
11D
100
AcDbEntity
  8
Dimension
390
0
 62
               0
100
AcDbMText
 10
-16.055861228887451
 20
6.526965381342074
 30
0.0
 40
0.7579186197916666
 41
0.0
 71
               1
 72
               1
  1
3.55mm
  7
Arial
 73
               1
 44
0.9673603504928806
  0
POINT
  5
11E
100
AcDbEntity
  8
Defpoints
370
               0
390
0
 62
               0
100
AcDbPoint
 10
-2.9917700000000309
 20
3.6824999976344088
 30
0.0
  0
POINT
  5
11F
100
AcDbEntity
  8
Defpoints
370
               0
390
0
 62
               0
100
AcDbPoint
 10
-2.9917700000000309
 20
7.2324999976344202
 30
0.0
  0
POINT
  5
120
100
AcDbEntity
  8
Defpoints
370
               0
390
0
 62
               0
100
AcDbPoint
 10
-14.129700604595286
 20
7.2324999976344202
 30
0.0
  0
ENDBLK
  5
121
100
AcDbEntity
  8
Dimension
390
0
100
AcDbBlockEnd
  0
BLOCK
  5
122
100
AcDbEntity
  8
Dimension
390
0
100
AcDbBlockBegin
  2
*D16
 70
               1
 10
0.0
 20
0.0
 30
0.0
  3
*D16
  1

  0
LINE
  5
123
100
AcDbEntity
  8
Dimension
370
              -2
390
0
  6
Continuous
 62
               0
100
AcDbLine
 10
-2.9917700000000309
 20
3.206249996451632
 30
0.0
 11
-2.9917700000000309
 21
-5.8550000047311244
 31
0.0
  0
LINE
  5
124
100
AcDbEntity
  8
Dimension
370
              -2
390
0
  6
Continuous
 62
               0
100
AcDbLine
 10
2.2082299999999577
 20
3.206249996451632
 30
0.0
 11
2.2082299999999577
 21
-5.8550000047311244
 31
0.0
  0
LINE
  5
125
100
AcDbEntity
  8
Dimension
370
              -2
390
0
  6
Continuous
 62
               0
100
AcDbLine
 10
2.2082299999999577
 20
-4.9025000023655707
 30
0.0
 11
-2.9917700000000309
 21
-4.9025000023655707
 31
0.0
  0
LINE
  5
126
100
AcDbEntity
  8
Dimension
370
              -2
390
0
  6
Continuous
 62
               0
100
AcDbLine
 10
-2.9917700000000309
 20
-4.9025000023655707
 30
0.0
 11
-4.7417664983668431
 21
-4.9025000023655707
 31
0.0
  0
SOLID
  5
127
100
AcDbEntity
  8
Dimension
370
              -2
390
0
 62
               0
100
AcDbTrace
 10
-2.9917700000000309
 20
-4.9025000023655707
 30
0.0
 11
-3.7855200000000311
 21
-5.1151846738577742
 31
0.0
 12
-3.7855200000000306
 22
-4.6898153308733672
 32
0.0
 13
-3.7855200000000306
 23
-4.6898153308733672
 33
0.0
  0
LINE
  5
128
100
AcDbEntity
  8
Dimension
370
              -2
390
0
  6
Continuous
 62
               0
100
AcDbLine
 10
2.2082299999999577
 20
-4.9025000023655707
 30
0.0
 11
3.9582264983667699
 21
-4.9025000023655707
 31
0.0
  0
SOLID
  5
129
100
AcDbEntity
  8
Dimension
370
              -2
390
0
 62
               0
100
AcDbTrace
 10
2.2082299999999577
 20
-4.9025000023655707
 30
0.0
 11
3.0019799999999579
 21
-4.6898153308733672
 31
0.0
 12
3.0019799999999579
 22
-5.1151846738577742
 32
0.0
 13
3.0019799999999579
 23
-5.1151846738577742
 33
0.0
  0
WIPEOUT
  5
12A
100
AcDbEntity
  8
Dimension
370
              -2
390
0
  6
Continuous
 62
               0
 92
        0
100
AcDbWipeout
 90
        0
 10
-1.9633585003408172
 20
-5.511039752365579
 30
0.0
 11
3.2596564928690595
 21
0.0
 31
0.0
 12
0.0
 22
3.2596564928690595
 32
0.0
 13
1.0
 23
1.0
340
0
 70
               7
280
               1
281
              50
282
              50
283
               0
360
0
 71
               2
 91
        5
 14
-0.5
 24
0.5
 14
0.5
 24
0.5
 14
0.5
 24
0.1266233872610424
 14
-0.5
 24
0.1266233872610424
 14
-0.5
 24
0.5
  0
MTEXT
  5
12B
100
AcDbEntity
  8
Dimension
390
0
 62
               0
100
AcDbMText
 10
-1.9633585003408172
 20
-4.4885386325739125
 30
0.0
 40
0.7579186197916666
 41
0.0
 71
               1
 72
               1
  1
5.2mm
  7
Arial
 73
               1
 44
0.9673603504928806
  0
POINT
  5
12C
100
AcDbEntity
  8
Defpoints
370
               0
390
0
 62
               0
100
AcDbPoint
 10
2.2082299999999577
 20
3.6824999976344088
 30
0.0
  0
POINT
  5
12D
100
AcDbEntity
  8
Defpoints
370
               0
390
0
 62
               0
100
AcDbPoint
 10
-2.9917700000000309
 20
3.6824999976344088
 30
0.0
  0
POINT
  5
12E
100
AcDbEntity
  8
Defpoints
370
               0
390
0
 62
               0
100
AcDbPoint
 10
-2.9917700000000309
 20
-4.9025000023655707
 30
0.0
  0
ENDBLK
  5
12F
100
AcDbEntity
  8
Dimension
390
0
100
AcDbBlockEnd
  0
BLOCK
  5
130
100
AcDbEntity
  8
Dimension
390
0
100
AcDbBlockBegin
  2
*D17
 70
               1
 10
0.0
 20
0.0
 30
0.0
  3
*D17
  1

  0
LINE
  5
131
100
AcDbEntity
  8
Dimension
370
              -2
390
0
  6
Continuous
 62
               0
100
AcDbLine
 10
-2.1667700000000565
 20
2.3812499964516434
 30
0.0
 11
-2.1667700000000565
 21
-2.9550000047311329
 31
0.0
  0
LINE
  5
132
100
AcDbEntity
  8
Dimension
370
              -2
390
0
  6
Continuous
 62
               0
100
AcDbLine
 10
1.3832299999999549
 20
2.3812499964516434
 30
0.0
 11
1.3832299999999549
 21
-2.9550000047311329
 31
0.0
  0
LINE
  5
133
100
AcDbEntity
  8
Dimension
370
              -2
390
0
  6
Continuous
 62
               0
100
AcDbLine
 10
1.3832299999999549
 20
-2.0025000023655792
 30
0.0
 11
-2.1667700000000565
 21
-2.0025000023655792
 31
0.0
  0
LINE
  5
134
100
AcDbEntity
  8
Dimension
370
              -2
390
0
  6
Continuous
 62
               0
100
AcDbLine
 10
-2.1667700000000565
 20
-2.0025000023655792
 30
0.0
 11
-3.9167664983668686
 21
-2.0025000023655792
 31
0.0
  0
SOLID
  5
135
100
AcDbEntity
  8
Dimension
370
              -2
390
0
 62
               0
100
AcDbTrace
 10
-2.1667700000000565
 20
-2.0025000023655792
 30
0.0
 11
-2.9605200000000567
 21
-2.2151846738577827
 31
0.0
 12
-2.9605200000000562
 22
-1.7898153308733753
 32
0.0
 13
-2.9605200000000562
 23
-1.7898153308733753
 33
0.0
  0
LINE
  5
136
100
AcDbEntity
  8
Dimension
370
              -2
390
0
  6
Continuous
 62
               0
100
AcDbLine
 10
1.3832299999999549
 20
-2.0025000023655792
 30
0.0
 11
3.133226498366767
 21
-2.0025000023655792
 31
0.0
  0
SOLID
  5
137
100
AcDbEntity
  8
Dimension
370
              -2
390
0
 62
               0
100
AcDbTrace
 10
1.3832299999999549
 20
-2.0025000023655792
 30
0.0
 11
2.1769799999999551
 21
-1.7898153308733757
 31
0.0
 12
2.1769799999999551
 22
-2.2151846738577827
 32
0.0
 13
2.1769799999999551
 23
-2.2151846738577827
 33
0.0
  0
WIPEOUT
  5
138
100
AcDbEntity
  8
Dimension
370
              -2
390
0
  6
Continuous
 62
               0
 92
        0
100
AcDbWipeout
 90
        0
 10
-2.2615951750734666
 20
-2.6110397523655875
 30
0.0
 11
3.8523212485843232
 21
0.0
 31
0.0
 12
0.0
 22
3.8523212485843232
 32
0.0
 13
1.0
 23
1.0
340
0
 70
               7
280
               1
281
              50
282
              50
283
               0
360
0
 71
               2
 91
        5
 14
-0.5
 24
0.5
 14
0.5
 24
0.5
 14
0.5
 24
0.1840659380504001
 14
-0.5
 24
0.1840659380504001
 14
-0.5
 24
0.5
  0
MTEXT
  5
139
100
AcDbEntity
  8
Dimension
390
0
 62
               0
100
AcDbMText
 10
-2.2615951750734666
 20
-1.5885386325739212
 30
0.0
 40
0.7579186197916666
 41
0.0
 71
               1
 72
               1
  1
3.55mm
  7
Arial
 73
               1
 44
0.9673603504928806
  0
POINT
  5
13A
100
AcDbEntity
  8
Defpoints
370
               0
390
0
 62
               0
100
AcDbPoint
 10
1.3832299999999549
 20
2.8574999976344202
 30
0.0
  0
POINT
  5
13B
100
AcDbEntity
  8
Defpoints
370
               0
390
0
 62
               0
100
AcDbPoint
 10
-2.1667700000000565
 20
2.8574999976344202
 30
0.0
  0
POINT
  5
13C
100
AcDbEntity
  8
Defpoints
370
               0
390
0
 62
               0
100
AcDbPoint
 10
-2.1667700000000565
 20
-2.0025000023655792
 30
0.0
  0
ENDBLK
  5
13D
100
AcDbEntity
  8
Dimension
390
0
100
AcDbBlockEnd
  0
BLOCK
  5
13E
100
AcDbEntity
  8
None
390
0
100
AcDbBlockBegin
  2
Symbol-1
 70
               0
 10
0.0
 20
0.0
 30
0.0
  3
Symbol-1
  1

  0
SOLID
  5
13F
100
AcDbEntity
  8
None
370
               5
390
0
  6
Continuous
 62
               7
100
AcDbTrace
 10
-0.3
 20
-0.15
 30
0.0
 11
-0.3
 21
0.15
 31
0.0
 12
0.3
 22
-0.15
 32
0.0
 13
0.3
 23
0.15
 33
0.0
  0
ENDBLK
  5
140
100
AcDbEntity
  8
None
390
0
100
AcDbBlockEnd
  0
BLOCK
  5
141
100
AcDbEntity
  8
None
390
0
100
AcDbBlockBegin
  2
Group
 70
               0
 10
0.0
 20
0.0
 30
0.0
  3
Group
  1

  0
INSERT
  5
142
100
AcDbEntity
  8
None
390
0
 62
               7
100
AcDbBlockReference
  2
Symbol-1
 10
-2.6917700000000337
 20
3.8324999976344145
 30
0.0
  0
INSERT
  5
143
100
AcDbEntity
  8
None
390
0
 62
               7
100
AcDbBlockReference
  2
Symbol-1
 10
-2.6917700000000337
 20
4.4824999976344202
 30
0.0
  0
INSERT
  5
144
100
AcDbEntity
  8
None
390
0
 62
               7
100
AcDbBlockReference
  2
Symbol-1
 10
-2.6917700000000337
 20
5.1324999976344117
 30
0.0
  0
INSERT
  5
145
100
AcDbEntity
  8
None
390
0
 62
               7
100
AcDbBlockReference
  2
Symbol-1
 10
-2.6917700000000337
 20
5.7824999976344174
 30
0.0
  0
INSERT
  5
146
100
AcDbEntity
  8
None
390
0
 62
               7
100
AcDbBlockReference
  2
Symbol-1
 10
-2.6917700000000337
 20
6.4324999976344088
 30
0.0
  0
INSERT
  5
147
100
AcDbEntity
  8
None
390
0
 62
               7
100
AcDbBlockReference
  2
Symbol-1
 10
-2.6917700000000337
 20
7.0824999976344145
 30
0.0
  0
ENDBLK
  5
148
100
AcDbEntity
  8
None
390
0
100
AcDbBlockEnd
  0
BLOCK
  5
149
100
AcDbEntity
  8
None
390
0
100
AcDbBlockBegin
  2
Group-1
 70
               0
 10
0.0
 20
0.0
 30
0.0
  3
Group-1
  1

  0
INSERT
  5
14A
100
AcDbEntity
  8
None
390
0
 62
               7
100
AcDbBlockReference
  2
Symbol-1
 10
1.9082299999999606
 20
3.8324999976344145
 30
0.0
 41
-1.0
  0
INSERT
  5
14B
100
AcDbEntity
  8
None
390
0
 62
               7
100
AcDbBlockReference
  2
Symbol-1
 10
1.9082299999999606
 20
4.4824999976344202
 30
0.0
 41
-1.0
  0
INSERT
  5
14C
100
AcDbEntity
  8
None
390
0
 62
               7
100
AcDbBlockReference
  2
Symbol-1
 10
1.9082299999999606
 20
5.1324999976344117
 30
0.0
 41
-1.0
  0
INSERT
  5
14D
100
AcDbEntity
  8
None
390
0
 62
               7
100
AcDbBlockReference
  2
Symbol-1
 10
1.9082299999999606
 20
5.7824999976344174
 30
0.0
 41
-1.0
  0
INSERT
  5
14E
100
AcDbEntity
  8
None
390
0
 62
               7
100
AcDbBlockReference
  2
Symbol-1
 10
1.9082299999999606
 20
6.4324999976344088
 30
0.0
 41
-1.0
  0
INSERT
  5
14F
100
AcDbEntity
  8
None
390
0
 62
               7
100
AcDbBlockReference
  2
Symbol-1
 10
1.9082299999999606
 20
7.0824999976344145
 30
0.0
 41
-1.0
  0
ENDBLK
  5
150
100
AcDbEntity
  8
None
390
0
100
AcDbBlockEnd
  0
BLOCK
  5
151
100
AcDbEntity
  8
None
390
0
100
AcDbBlockBegin
  2
Group-2
 70
               0
 10
0.0
 20
0.0
 30
0.0
  3
Group-2
  1

  0
INSERT
  5
152
100
AcDbEntity
  8
None
390
0
 62
               7
100
AcDbBlockReference
  2
Symbol-1
 10
1.2332299999999492
 20
7.7574999976344117
 30
0.0
 41
-1.0
 50
90.0
  0
INSERT
  5
153
100
AcDbEntity
  8
None
390
0
 62
               7
100
AcDbBlockReference
  2
Symbol-1
 10
0.5832299999999435
 20
7.7574999976344117
 30
0.0
 41
-1.0
 50
90.0
  0
INSERT
  5
154
100
AcDbEntity
  8
None
390
0
 62
               7
100
AcDbBlockReference
  2
Symbol-1
 10
-0.066770000000048
 20
7.7574999976344117
 30
0.0
 41
-1.0
 50
90.0
  0
INSERT
  5
155
100
AcDbEntity
  8
None
390
0
 62
               7
100
AcDbBlockReference
  2
Symbol-1
 10
-0.7167700000000536
 20
7.7574999976344117
 30
0.0
 41
-1.0
 50
90.0
  0
INSERT
  5
156
100
AcDbEntity
  8
None
390
0
 62
               7
100
AcDbBlockReference
  2
Symbol-1
 10
-1.3667700000000451
 20
7.7574999976344117
 30
0.0
 41
-1.0
 50
90.0
  0
INSERT
  5
157
100
AcDbEntity
  8
None
390
0
 62
               7
100
AcDbBlockReference
  2
Symbol-1
 10
-2.0167700000000508
 20
7.7574999976344117
 30
0.0
 41
-1.0
 50
90.0
  0
ENDBLK
  5
158
100
AcDbEntity
  8
None
390
0
100
AcDbBlockEnd
  0
BLOCK
  5
159
100
AcDbEntity
  8
None
390
0
100
AcDbBlockBegin
  2
Group-3
 70
               0
 10
0.0
 20
0.0
 30
0.0
  3
Group-3
  1

  0
INSERT
  5
15A
100
AcDbEntity
  8
None
390
0
 62
               7
100
AcDbBlockReference
  2
Symbol-1
 10
1.2332299999999492
 20
3.1574999976344174
 30
0.0
 50
90.0
  0
INSERT
  5
15B
100
AcDbEntity
  8
None
390
0
 62
               7
100
AcDbBlockReference
  2
Symbol-1
 10
0.5832299999999435
 20
3.1574999976344174
 30
0.0
 50
90.0
  0
INSERT
  5
15C
100
AcDbEntity
  8
None
390
0
 62
               7
100
AcDbBlockReference
  2
Symbol-1
 10
-0.066770000000048
 20
3.1574999976344174
 30
0.0
 50
90.0
  0
INSERT
  5
15D
100
AcDbEntity
  8
None
390
0
 62
               7
100
AcDbBlockReference
  2
Symbol-1
 10
-0.7167700000000536
 20
3.1574999976344174
 30
0.0
 50
90.0
  0
INSERT
  5
15E
100
AcDbEntity
  8
None
390
0
 62
               7
100
AcDbBlockReference
  2
Symbol-1
 10
-1.3667700000000451
 20
3.1574999976344174
 30
0.0
 50
90.0
  0
INSERT
  5
15F
100
AcDbEntity
  8
None
390
0
 62
               7
100
AcDbBlockReference
  2
Symbol-1
 10
-2.0167700000000508
 20
3.1574999976344174
 30
0.0
 50
90.0
  0
ENDBLK
  5
160
100
AcDbEntity
  8
None
390
0
100
AcDbBlockEnd
  0
BLOCK
  5
161
100
AcDbEntity
  8
None
390
0
100
AcDbBlockBegin
  2
Group-4
 70
               0
 10
0.0
 20
0.0
 30
0.0
  3
Group-4
  1

  0
SOLID
  5
162
100
AcDbEntity
  8
None
370
               5
390
0
  6
Continuous
 62
               7
100
AcDbTrace
 10
-2.0417700000000423
 20
3.8074999976344088
 30
0.0
 11
-2.0417700000000423
 21
7.107499997634406
 31
0.0
 12
1.2582299999999549
 22
3.8074999976344088
 32
0.0
 13
1.2582299999999549
 23
7.107499997634406
 33
0.0
  0
INSERT
  5
163
100
AcDbEntity
  8
None
390
0
 62
               7
100
AcDbBlockReference
  2
Group
 10
0.0
 20
0.0
 30
0.0
  0
INSERT
  5
164
100
AcDbEntity
  8
None
390
0
 62
               7
100
AcDbBlockReference
  2
Group-1
 10
0.0
 20
0.0
 30
0.0
  0
INSERT
  5
165
100
AcDbEntity
  8
None
390
0
 62
               7
100
AcDbBlockReference
  2
Group-2
 10
0.0
 20
0.0
 30
0.0
  0
INSERT
  5
166
100
AcDbEntity
  8
None
390
0
 62
               7
100
AcDbBlockReference
  2
Group-3
 10
0.0
 20
0.0
 30
0.0
  0
ENDBLK
  5
167
100
AcDbEntity
  8
None
390
0
100
AcDbBlockEnd
  0
BLOCK
  5
168
100
AcDbEntity
  8
Dimension
390
0
100
AcDbBlockBegin
  2
Group-5
 70
               0
 10
0.0
 20
0.0
 30
0.0
  3
Group-5
  1

  0
LINE
  5
169
100
AcDbEntity
  8
None
370
               5
390
0
  6
Continuous
 62
               7
100
AcDbLine
 10
-1.4751008331205639
 20
5.4574999976344145
 30
0.0
 11
0.1915608331204908
 21
5.4574999976344145
 31
0.0
  0
LINE
  5
16A
100
AcDbEntity
  8
None
370
               5
390
0
  6
Continuous
 62
               7
100
AcDbLine
 10
-0.6417700000000366
 20
4.6241691645138872
 30
0.0
 11
-0.6417700000000366
 21
6.2908308307549419
 31
0.0
  0
LINE
  5
16B
100
AcDbEntity
  8
None
370
               5
390
0
  6
Continuous
 62
               7
100
AcDbLine
 10
-7.7542670013216792
 20
5.4574999976344145
 30
0.0
 11
-2.1417654980399448
 21
5.4574999976344145
 31
0.0
  0
LINE
  5
16C
100
AcDbEntity
  8
None
370
               5
390
0
  6
Continuous
 62
               7
100
AcDbLine
 10
0.8582254980398716
 20
5.4574999976344145
 30
0.0
 11
6.4707270013216061
 21
5.4574999976344145
 31
0.0
  0
LINE
  5
16D
100
AcDbEntity
  8
None
370
               5
390
0
  6
Continuous
 62
               7
100
AcDbLine
 10
-0.6417700000000366
 20
12.569996998956086
 30
0.0
 11
-0.6417700000000366
 21
6.9574954956743227
 31
0.0
  0
LINE
  5
16E
100
AcDbEntity
  8
None
370
               5
390
0
  6
Continuous
 62
               7
100
AcDbLine
 10
-0.6417700000000366
 20
3.9575044995945063
 30
0.0
 11
-0.6417700000000366
 21
-1.6549970036872566
 31
0.0
  0
ENDBLK
  5
16F
100
AcDbEntity
  8
Dimension
390
0
100
AcDbBlockEnd
  0
BLOCK
  5
170
100
AcDbEntity
  8
Dimension
390
0
100
AcDbBlockBegin
  2
*D25
 70
               1
 10
0.0
 20
0.0
 30
0.0
  3
*D25
  1

  0
LINE
  5
171
100
AcDbEntity
  8
Dimension
370
              -2
390
0
  6
Continuous
 62
               0
100
AcDbLine
 10
0.5832299999999435
 20
8.5337499988171857
 30
0.0
 11
0.5832299999999435
 21
19.239999999999966
 31
0.0
  0
LINE
  5
172
100
AcDbEntity
  8
Dimension
370
              -2
390
0
  6
Continuous
 62
               0
100
AcDbLine
 10
1.2332299999999492
 20
8.5337499988171857
 30
0.0
 11
1.2332299999999492
 21
19.239999999999966
 31
0.0
  0
LINE
  5
173
100
AcDbEntity
  8
Dimension
370
              -2
390
0
  6
Continuous
 62
               0
100
AcDbLine
 10
1.2332299999999492
 20
18.287499997634413
 30
0.0
 11
0.5832299999999435
 21
18.287499997634413
 31
0.0
  0
LINE
  5
174
100
AcDbEntity
  8
Dimension
370
              -2
390
0
  6
Continuous
 62
               0
100
AcDbLine
 10
0.5832299999999435
 20
18.287499997634413
 30
0.0
 11
-1.1667664983668686
 21
18.287499997634413
 31
0.0
  0
SOLID
  5
175
100
AcDbEntity
  8
Dimension
370
              -2
390
0
 62
               0
100
AcDbTrace
 10
0.5832299999999435
 20
18.287499997634413
 30
0.0
 11
-0.2105200000000564
 21
18.074815326142208
 31
0.0
 12
-0.2105200000000563
 22
18.500184669126618
 32
0.0
 13
-0.2105200000000563
 23
18.500184669126618
 33
0.0
  0
LINE
  5
176
100
AcDbEntity
  8
Dimension
370
              -2
390
0
  6
Continuous
 62
               0
100
AcDbLine
 10
1.2332299999999492
 20
18.287499997634413
 30
0.0
 11
3.7999999999999972
 21
18.287499997634413
 31
0.0
  0
SOLID
  5
177
100
AcDbEntity
  8
Dimension
370
              -2
390
0
 62
               0
100
AcDbTrace
 10
1.2332299999999492
 20
18.287499997634413
 30
0.0
 11
2.0269799999999494
 21
18.500184669126618
 31
0.0
 12
2.0269799999999494
 22
18.074815326142208
 32
0.0
 13
2.0269799999999494
 23
18.074815326142208
 33
0.0
  0
WIPEOUT
  5
178
100
AcDbEntity
  8
Dimension
370
              -2
390
0
  6
Continuous
 62
               0
 92
        0
100
AcDbWipeout
 90
        0
 10
3.7999999999999972
 20
17.678960247634404
 30
0.0
 11
5.8525652196672233
 21
0.0
 31
0.0
 12
0.0
 22
5.8525652196672233
 32
0.0
 13
1.0
 23
1.0
340
0
 70
               7
280
               1
281
              50
282
              50
283
               0
360
0
 71
               2
 91
        5
 14
-0.5
 24
0.5
 14
0.5
 24
0.5
 14
0.5
 24
0.2920434109969297
 14
-0.5
 24
0.2920434109969297
 14
-0.5
 24
0.5
  0
MTEXT
  5
179
100
AcDbEntity
  8
Dimension
390
0
 62
               0
100
AcDbMText
 10
3.7999999999999972
 20
18.70146136742607
 30
0.0
 40
0.7579186197916666
 41
0.0
 71
               1
 72
               1
  1
0.65mm typ.
  7
Arial
 73
               1
 44
0.9673603504928806
  0
POINT
  5
17A
100
AcDbEntity
  8
Defpoints
370
               0
390
0
 62
               0
100
AcDbPoint
 10
1.2332299999999492
 20
8.0574999976344088
 30
0.0
  0
POINT
  5
17B
100
AcDbEntity
  8
Defpoints
370
               0
390
0
 62
               0
100
AcDbPoint
 10
0.5832299999999435
 20
8.0574999976344088
 30
0.0
  0
POINT
  5
17C
100
AcDbEntity
  8
Defpoints
370
               0
390
0
 62
               0
100
AcDbPoint
 10
0.5832299999999435
 20
18.287499997634413
 30
0.0
  0
ENDBLK
  5
17D
100
AcDbEntity
  8
Dimension
390
0
100
AcDbBlockEnd
  0
ENDSEC
  0
SECTION
  2
ENTITIES
  0
WIPEOUT
  5
17E
100
AcDbEntity
  8
None
370
               9
390
0
  6
STYLE_11
 62
               7
 92
        0
100
AcDbWipeout
 90
        0
 10
-6.7542700000000195
 20
-0.6550000023655969
 30
0.0
 11
12.225000000000023
 21
0.0
 31
0.0
 12
0.0
 22
12.225000000000023
 32
0.0
 13
1.0
 23
1.0
340
0
 70
               7
280
               1
281
              50
282
              50
283
               0
360
0
 71
               2
 91
        5
 14
-0.5
 24
-0.5
 14
0.4999999999999953
 24
-0.5
 14
0.4999999999999953
 24
0.5
 14
-0.5
 24
0.5
 14
-0.5
 24
-0.5
  0
POLYLINE
  5
17F
100
AcDbEntity
  8
None
370
               9
390
0
  6
STYLE_11
 62
               7
100
AcDb2dPolyline
 66
               1
 10
0.0
 20
0.0
 30
0.0
 70
               1
 75
               5
  0
VERTEX
  5
180
100
AcDbEntity
  8
None
370
               9
390
0
  6
STYLE_11
 62
               7
100
AcDbVertex
100
AcDb2dVertex
 10
-6.7542700000000195
 20
11.569999997634426
 30
0.0
  0
VERTEX
  5
181
100
AcDbEntity
  8
None
370
               9
390
0
  6
STYLE_11
 62
               7
100
AcDbVertex
100
AcDb2dVertex
 10
5.4707299999999464
 20
11.569999997634426
 30
0.0
  0
VERTEX
  5
182
100
AcDbEntity
  8
None
370
               9
390
0
  6
STYLE_11
 62
               7
100
AcDbVertex
100
AcDb2dVertex
 10
5.4707299999999464
 20
-0.6550000023655969
 30
0.0
  0
VERTEX
  5
183
100
AcDbEntity
  8
None
370
               9
390
0
  6
STYLE_11
 62
               7
100
AcDbVertex
100
AcDb2dVertex
 10
-6.7542700000000195
 20
-0.6550000023655969
 30
0.0
  0
SEQEND
  5
184
100
AcDbEntity
  8
None
370
               9
390
0
  6
STYLE_11
 62
               7
  0
CIRCLE
  5
185
102
{ACAD_REACTORS
330
186
102
}
100
AcDbEntity
  8
None
370
              15
390
0
  6
Continuous
 62
             180
100
AcDbCircle
 10
-3.7371100000000297
 20
10.552259997634422
 30
0.0
 40
0.2500014851955865
  0
HATCH
  5
186
100
AcDbEntity
  8
None
370
               0
390
0
  6
Continuous
 62
             180
100
AcDbHatch
 10
0.0
 20
0.0
 30
0.0
210
0.0
220
0.0
230
1.0
  2
SOLID
 70
               1
 71
               1
 91
        1
 92
        1
 93
        1
 72
               2
 10
-3.7371100000000297
 20
10.552259997634422
 40
0.2500014851955865
 50
0.0
 51
360.0
 73
               0
 97
        1
330
185
 75
               0
 76
               1
 98
        1
 10
0.0
 20
0.0
  0
WIPEOUT
  5
187
100
AcDbEntity
  8
None
370
               9
390
0
  6
Continuous
 62
               7
 92
        0
100
AcDbWipeout
 90
        0
 10
-6.3092700000000121
 20
9.5149999976344333
 30
0.0
 11
1.6099999999999852
 21
0.0
 31
0.0
 12
0.0
 22
1.6099999999999852
 32
0.0
 13
1.0
 23
1.0
340
0
 70
               7
280
               1
281
              50
282
              50
283
               0
360
0
 71
               2
 91
        9
 14
0.5
 24
0.0
 14
0.3535533905932737
 24
0.3535533905932738
 14
0.0
 24
0.5
 14
-0.3535533905932738
 24
0.3535533905932738
 14
-0.5
 24
0.0
 14
-0.3535533905932738
 24
-0.3535533905932737
 14
0.0
 24
-0.5
 14
0.3535533905932737
 24
-0.3535533905932737
 14
0.5
 24
0.0
  0
CIRCLE
  5
188
100
AcDbEntity
  8
None
370
               9
390
0
  6
Continuous
 62
               7
100
AcDbCircle
 10
-5.5042700000000195
 20
10.319999997634426
 30
0.0
 40
0.8049999999999926
  0
WIPEOUT
  5
189
100
AcDbEntity
  8
None
370
               9
390
0
  6
Continuous
 62
               7
 92
        0
100
AcDbWipeout
 90
        0
 10
3.4157299999999395
 20
-0.2100000023656037
 30
0.0
 11
1.6100000000000136
 21
0.0
 31
0.0
 12
0.0
 22
1.6100000000000136
 32
0.0
 13
1.0
 23
1.0
340
0
 70
               7
280
               1
281
              50
282
              50
283
               0
360
0
 71
               2
 91
        9
 14
-0.5
 24
0.0
 14
-0.3535533905932736
 24
-0.3535533905932738
 14
0.0
 24
-0.5
 14
0.3535533905932736
 24
-0.3535533905932738
 14
0.5
 24
0.0
 14
0.3535533905932736
 24
0.3535533905932738
 14
0.0
 24
0.5
 14
-0.3535533905932736
 24
0.3535533905932738
 14
-0.5
 24
0.0
  0
CIRCLE
  5
18A
100
AcDbEntity
  8
None
370
               9
390
0
  6
Continuous
 62
               7
100
AcDbCircle
 10
4.2207299999999464
 20
0.5949999976344031
 30
0.0
 40
0.8050000000000068
  0
WIPEOUT
  5
18B
100
AcDbEntity
  8
None
370
               9
390
0
  6
Continuous
 62
               7
 92
        0
100
AcDbWipeout
 90
        0
 10
-6.3092700000000121
 20
-0.2100000023655895
 30
0.0
 11
1.6099999999999852
 21
0.0
 31
0.0
 12
0.0
 22
1.6099999999999852
 32
0.0
 13
1.0
 23
1.0
340
0
 70
               7
280
               1
281
              50
282
              50
283
               0
360
0
 71
               2
 91
        9
 14
0.5
 24
0.0
 14
0.3535533905932737
 24
0.3535533905932738
 14
0.0
 24
0.5
 14
-0.3535533905932738
 24
0.3535533905932738
 14
-0.5
 24
0.0
 14
-0.3535533905932738
 24
-0.3535533905932737
 14
0.0
 24
-0.5
 14
0.3535533905932737
 24
-0.3535533905932737
 14
0.5
 24
0.0
  0
CIRCLE
  5
18C
100
AcDbEntity
  8
None
370
               9
390
0
  6
Continuous
 62
               7
100
AcDbCircle
 10
-5.5042700000000195
 20
0.5949999976344031
 30
0.0
 40
0.8049999999999926
  0
WIPEOUT
  5
18D
100
AcDbEntity
  8
None
370
               9
390
0
  6
Continuous
 62
               7
 92
        0
100
AcDbWipeout
 90
        0
 10
3.4157299999999395
 20
9.5149999976344191
 30
0.0
 11
1.6100000000000136
 21
0.0
 31
0.0
 12
0.0
 22
1.6100000000000136
 32
0.0
 13
1.0
 23
1.0
340
0
 70
               7
280
               1
281
              50
282
              50
283
               0
360
0
 71
               2
 91
        9
 14
-0.5
 24
0.0
 14
-0.3535533905932736
 24
-0.3535533905932742
 14
0.0
 24
-0.5
 14
0.3535533905932736
 24
-0.3535533905932742
 14
0.5
 24
0.0
 14
0.3535533905932736
 24
0.3535533905932742
 14
0.0
 24
0.5
 14
-0.3535533905932736
 24
0.3535533905932742
 14
-0.5
 24
0.0
  0
CIRCLE
  5
18E
100
AcDbEntity
  8
None
370
               9
390
0
  6
Continuous
 62
               7
100
AcDbCircle
 10
4.2207299999999464
 20
10.319999997634426
 30
0.0
 40
0.8050000000000068
  0
WIPEOUT
  5
18F
100
AcDbEntity
  8
None
370
               9
390
0
  6
Continuous
 62
               7
 92
        0
100
AcDbWipeout
 90
        0
 10
3.7957299999999492
 20
7.8949999976344287
 30
0.0
 11
0.8499999999999943
 21
0.0
 31
0.0
 12
0.0
 22
0.8499999999999943
 32
0.0
 13
1.0
 23
1.0
340
0
 70
               7
280
               1
281
              50
282
              50
283
               0
360
0
 71
               2
 91
        9
 14
0.5
 24
0.0
 14
0.3535533905932733
 24
0.3535533905932744
 14
0.0
 24
0.5
 14
-0.3535533905932738
 24
0.3535533905932744
 14
-0.5
 24
0.0
 14
-0.3535533905932738
 24
-0.3535533905932744
 14
0.0
 24
-0.5
 14
0.3535533905932733
 24
-0.3535533905932744
 14
0.5
 24
0.0
  0
CIRCLE
  5
190
100
AcDbEntity
  8
None
370
               9
390
0
  6
Continuous
 62
               7
100
AcDbCircle
 10
4.2207299999999464
 20
8.3199999976344259
 30
0.0
 40
0.4249999999999972
  0
WIPEOUT
  5
191
100
AcDbEntity
  8
None
370
               9
390
0
  6
Continuous
 62
               7
 92
        0
100
AcDbWipeout
 90
        0
 10
-5.9292700000000167
 20
3.1699999976344202
 30
0.0
 11
0.8499999999999943
 21
0.0
 31
0.0
 12
0.0
 22
0.8499999999999943
 32
0.0
 13
1.0
 23
1.0
340
0
 70
               7
280
               1
281
              50
282
              50
283
               0
360
0
 71
               2
 91
        9
 14
0.5
 24
0.0
 14
0.3535533905932733
 24
0.3535533905932738
 14
0.0
 24
0.5
 14
-0.3535533905932733
 24
0.3535533905932738
 14
-0.5
 24
0.0
 14
-0.3535533905932733
 24
-0.3535533905932738
 14
0.0
 24
-0.5
 14
0.3535533905932733
 24
-0.3535533905932738
 14
0.5
 24
0.0
  0
CIRCLE
  5
192
100
AcDbEntity
  8
None
370
               9
390
0
  6
Continuous
 62
               7
100
AcDbCircle
 10
-5.5042700000000195
 20
3.5949999976344174
 30
0.0
 40
0.4249999999999972
  0
DIMENSION
  5
193
100
AcDbEntity
  8
Dimension
370
               5
390
0
  6
Continuous
 62
               1
100
AcDbDimension
  2
*D3
 10
-6.7542700000000195
 20
-11.155000002365595
 30
0.0
 11
-0.7732797808838257
 21
-11.155000002365595
 31
0.0
 70
             128
 71
               5
 72
               1
 41
1.0
 42
0.0
  3
IE Standard
100
AcDbAlignedDimension
 13
5.4707299999999464
 23
-0.6550000023655969
 33
0.0
 14
-6.7542700000000195
 24
-0.6550000023655969
 34
0.0
100
AcDbRotatedDimension
1001
ACAD
1000
DSTYLE
1002
{
1070
             271
1070
               3
1070
             340
1005
3B
1070
              71
1070
               1
1070
              47
1040
0.125
1070
              48
1040
0.125
1070
               3
1000
<>mm (x4)
1070
             147
1040
0.09921875
1002
}
  0
DIMENSION
  5
194
100
AcDbEntity
  8
Dimension
370
               5
390
0
  6
Continuous
 62
               1
100
AcDbDimension
  2
*D4
 10
-10.715154049865603
 20
0.5949999976344031
 30
0.0
 11
-10.715154049865603
 21
1.9512164282984656
 31
0.0
 70
             128
 71
               5
 72
               1
 41
1.0
 42
0.0
  3
IE Standard
100
AcDbAlignedDimension
 13
-5.5042700000000195
 23
3.5949999976344174
 33
0.0
 14
-5.5042700000000195
 24
0.5949999976344031
 34
0.0
 50
90.0
100
AcDbRotatedDimension
1001
ACAD
1000
DSTYLE
1002
{
1070
             271
1070
               2
1070
             340
1005
3B
1070
             147
1040
0.09921875
1002
}
  0
DIMENSION
  5
195
100
AcDbEntity
  8
Dimension
370
               5
390
0
  6
Continuous
 62
               1
100
AcDbDimension
  2
*D5
 10
9.5442299999999456
 20
10.319999997634426
 30
0.0
 11
9.5442299999999456
 21
9.3199999976344259
 31
0.0
 70
             128
 71
               5
 72
               1
 41
1.0
 42
0.0
  3
IE Standard
100
AcDbAlignedDimension
 13
4.2207299999999464
 23
8.3199999976344259
 33
0.0
 14
4.2207299999999464
 24
10.319999997634426
 34
0.0
 50
90.0
100
AcDbRotatedDimension
1001
ACAD
1000
DSTYLE
1002
{
1070
             271
1070
               2
1070
             340
1005
3B
1070
             147
1040
0.09921875
1002
}
  0
DIMENSION
  5
196
100
AcDbEntity
  8
Dimension
370
               5
390
0
  6
Continuous
 62
               1
100
AcDbDimension
  2
*D6
 10
-6.7542700000000195
 20
15.328489997634435
 30
0.0
 11
-9.4500000000000028
 21
15.328489997634435
 31
0.0
 70
             128
 71
               5
 72
               1
 41
1.0
 42
0.0
  3
IE Standard
100
AcDbAlignedDimension
 13
-5.5042700000000195
 23
10.319999997634426
 33
0.0
 14
-6.7542700000000195
 24
11.569999997634426
 34
0.0
100
AcDbRotatedDimension
1001
ACAD
1000
DSTYLE
1002
{
1070
             271
1070
               3
1070
             340
1005
3B
1070
              71
1070
               1
1070
              47
1040
0.125
1070
              48
1040
0.125
1070
               3
1000
<>mm (x4)
1070
             174
1070
               0
1070
             147
1040
0.09921875
1002
}
  0
DIMENSION
  5
197
100
AcDbEntity
  8
Dimension
370
               5
390
0
  6
Continuous
 62
               1
100
AcDbDimension
  2
*D7
 10
-14.979270000000019
 20
11.569999997634426
 30
0.0
 11
-14.979270000000019
 21
13.778489997634425
 31
0.0
 70
             128
 71
               5
 72
               1
 41
1.0
 42
0.0
  3
IE Standard
100
AcDbAlignedDimension
 13
-5.5042700000000195
 23
10.319999997634426
 33
0.0
 14
-6.7542700000000195
 24
11.569999997634426
 34
0.0
 50
90.0
100
AcDbRotatedDimension
1001
ACAD
1000
DSTYLE
1002
{
1070
             271
1070
               3
1070
             340
1005
3B
1070
              71
1070
               1
1070
              47
1040
0.125
1070
              48
1040
0.125
1070
               3
1000
<>mm (x4)
1070
             174
1070
               0
1070
             147
1040
0.09921875
1002
}
  0
DIMENSION
  5
198
100
AcDbEntity
  8
Dimension
370
               5
390
0
  6
Continuous
 62
               1
100
AcDbDimension
  2
*D8
 10
-5.5042700000000195
 20
-8.7550000023655965
 30
0.0
 11
-0.356709498901405
 21
-8.7550000023655965
 31
0.0
 70
             128
 71
               5
 72
               1
 41
1.0
 42
0.0
  3
IE Standard
100
AcDbAlignedDimension
 13
4.2207299999999464
 23
0.5949999976344031
 33
0.0
 14
-5.5042700000000195
 24
0.5949999976344031
 34
0.0
100
AcDbRotatedDimension
1001
ACAD
1000
DSTYLE
1002
{
1070
             271
1070
               3
1070
             340
1005
3B
1070
               3
1000
<>mm (x4)
1070
             147
1040
0.09921875
1002
}
  0
DIMENSION
  5
199
100
AcDbEntity
  8
Dimension
370
               5
390
0
  6
Continuous
 62
               1
100
AcDbDimension
  2
*D9
 10
3.858929999999944
 20
8.0969999976344127
 30
0.0
 11
13.310330149355678
 21
12.967758251318221
 31
0.0
 70
               3
 71
               5
 72
               1
 41
1.0
 42
0.0
  3
IE Standard
100
AcDbDiametricDimension
 15
4.583749999999938
 25
8.5409999976344153
 35
0.0
 40
8.4746499999999987
1001
ACAD
1000
DSTYLE
1002
{
1070
             271
1070
               3
1070
             172
1070
               0
1070
             289
1070
               0
1070
             342
1005
52
1070
             340
1005
3B
1070
              75
1070
               1
1070
              76
1070
               1
1070
              71
1070
               1
1070
              47
1040
0.025
1070
              48
1040
0.025
1070
               3
1000
mm (x2)
1070
             174
1070
               0
1070
             147
1040
0.09921875
1002
}
  0
DIMENSION
  5
19A
100
AcDbEntity
  8
Dimension
370
               5
390
0
  6
Continuous
 62
               1
100
AcDbDimension
  2
*D10
 10
3.5433799999999422
 20
1.0299999976344054
 30
0.0
 11
9.3643907480205613
 21
-1.7003579850516464
 31
0.0
 70
               3
 71
               5
 72
               1
 41
1.0
 42
0.0
  3
IE Standard
100
AcDbDiametricDimension
 15
4.9043999999999386
 25
0.169999997634406
 35
0.0
 40
3.5013999999999998
1001
ACAD
1000
DSTYLE
1002
{
1070
             271
1070
               3
1070
             172
1070
               0
1070
             289
1070
               0
1070
             342
1005
52
1070
             340
1005
3B
1070
              75
1070
               1
1070
              76
1070
               1
1070
              71
1070
               1
1070
              47
1040
0.05
1070
              48
1040
0.05
1070
               3
1000
mm(x4)
1070
             174
1070
               0
1070
             147
1040
0.09921875
1002
}
  0
LINE
  5
19B
100
AcDbEntity
  8
None
370
               5
390
0
  6
Continuous
 62
               1
100
AcDbLine
 10
-10.058200000000014
 20
21.500699997634413
 30
0.0
 11
-15.608860000000007
 21
21.500699997634413
 31
0.0
  0
LINE
  5
19C
100
AcDbEntity
  8
None
370
               5
390
0
  6
Continuous
 62
               1
100
AcDbLine
 10
-3.8621100000000297
 20
10.768769997634422
 30
0.0
 11
-10.058200000000014
 21
21.500699997634413
 31
0.0
  0
SOLID
  5
19D
100
AcDbEntity
  8
None
370
               5
390
0
 62
               1
100
AcDbTrace
 10
-3.8621100000000297
 20
10.768769997634422
 30
0.0
 11
-4.2340712527704012
 21
11.140731250404794
 31
0.0
 12
-3.9982572677374706
 22
11.276878518142235
 32
0.0
 13
-3.9982572677374706
 23
11.276878518142235
 33
0.0
  0
WIPEOUT
  5
19E
100
AcDbEntity
  8
None
370
               5
390
0
  6
Continuous
 62
               1
 92
        0
100
AcDbWipeout
 90
        0
 10
-21.490550000000013
 20
20.740030497634422
 30
0.0
 11
7.8422253988126727
 21
0.0
 31
0.0
 12
0.0
 22
7.8422253988126727
 32
0.0
 13
1.0
 23
1.0
340
0
 70
               7
280
               1
281
              50
282
              50
283
               0
360
0
 71
               2
 91
        5
 14
-0.5
 24
0.5000000000000004
 14
0.5000000000000004
 24
0.5000000000000004
 14
0.5000000000000004
 24
0.3448043204440075
 14
-0.5
 24
0.3448043204440075
 14
-0.5
 24
0.5000000000000004
  0
MTEXT
  5
19F
100
AcDbEntity
  8
None
390
0
 62
               1
100
AcDbMText
 10
-21.490550000000013
 20
21.762531617426085
 30
0.0
 40
0.7579186197916666
 41
0.0
 71
               1
 72
               1
  1
{\C192;\lOrientation Mark}
  7
New Century Schlbk
 73
               1
 44
0.9673603504928806
  0
WIPEOUT
  5
1A0
100
AcDbEntity
  8
None
370
              15
390
0
  6
Continuous
 62
               1
 92
        0
100
AcDbWipeout
 90
        0
 10
14.753739999999951
 20
10.454350497634422
 30
0.0
 11
12.350711488082325
 21
0.0
 31
0.0
 12
0.0
 22
12.350711488082325
 32
0.0
 13
1.0
 23
1.0
340
0
 70
               7
280
               1
281
              50
282
              50
283
               0
360
0
 71
               2
 91
        5
 14
-0.5
 24
0.5000000000000003
 14
0.4999999999999994
 24
0.5000000000000003
 14
0.4999999999999994
 24
0.4014567297459419
 14
-0.5
 24
0.4014567297459419
 14
-0.5
 24
0.5000000000000003
  0
MTEXT
  5
1A1
100
AcDbEntity
  8
None
390
0
 62
               1
100
AcDbMText
 10
14.753739999999951
 20
11.476851617426085
 30
0.0
 40
0.7579186197916666
 41
0.0
 71
               1
 72
               1
  1
{\C192;\lNon plated alignment hole}
  7
Arial
 73
               1
 44
0.9673603504928806
  0
WIPEOUT
  5
1A2
100
AcDbEntity
  8
None
370
              15
390
0
  6
Continuous
 62
               1
 92
        0
100
AcDbWipeout
 90
        0
 10
10.832629999999938
 20
-3.895779502365599
 30
0.0
 11
12.117878889991573
 21
0.0
 31
0.0
 12
0.0
 22
12.117878889991573
 32
0.0
 13
1.0
 23
1.0
340
0
 70
               7
280
               1
281
              50
282
              50
283
               0
360
0
 71
               2
 91
        5
 14
-0.5
 24
0.5000000000000002
 14
0.4999999999999997
 24
0.5000000000000002
 14
0.4999999999999997
 24
0.3995633220096621
 14
-0.5
 24
0.3995633220096621
 14
-0.5
 24
0.5000000000000002
  0
MTEXT
  5
1A3
100
AcDbEntity
  8
None
390
0
 62
               1
100
AcDbMText
 10
10.832629999999938
 20
-2.8732783825739352
 30
0.0
 40
0.7579186197916666
 41
0.0
 71
               1
 72
               1
  1
{\C192;\lNon plated mounting hole}
  7
Arial
 73
               1
 44
0.9673603504928806
  0
DIMENSION
  5
1A4
100
AcDbEntity
  8
Dimension
370
               5
390
0
  6
Continuous
 62
               1
100
AcDbDimension
  2
*D11
 10
1.5293344189313984
 20
5.3474999976344151
 30
0.0
 11
9.3419996225138711
 21
2.7858375390129004
 31
0.0
 70
               3
 71
               5
 72
               1
 41
1.0
 42
0.0
  1
0.6mm x 0.3mm
  3
IE Standard
100
AcDbDiametricDimension
 15
2.2193344189313962
 25
5.0674999976344139
 35
0.0
 40
6.0679799999999995
1001
ACAD
1000
DSTYLE
1002
{
1070
             271
1070
               4
1070
             172
1070
               0
1070
             289
1070
               0
1070
             342
1005
52
1070
             340
1005
3B
1070
              75
1070
               1
1070
              76
1070
               1
1070
             174
1070
               0
1070
             147
1040
0.09921875
1002
}
  0
WIPEOUT
  5
1A5
100
AcDbEntity
  8
None
370
               5
390
0
  6
Continuous
 62
               1
 92
        0
100
AcDbWipeout
 90
        0
 10
-21.490550000000013
 20
20.740030497634422
 30
0.0
 11
7.8422253988126727
 21
0.0
 31
0.0
 12
0.0
 22
7.8422253988126727
 32
0.0
 13
1.0
 23
1.0
340
0
 70
               7
280
               1
281
              50
282
              50
283
               0
360
0
 71
               2
 91
        5
 14
-0.5
 24
0.5000000000000004
 14
0.5000000000000004
 24
0.5000000000000004
 14
0.5000000000000004
 24
0.3448043204440075
 14
-0.5
 24
0.3448043204440075
 14
-0.5
 24
0.5000000000000004
  0
MTEXT
  5
1A6
100
AcDbEntity
  8
None
390
0
 62
               1
100
AcDbMText
 10
-21.490550000000013
 20
21.762531617426085
 30
0.0
 40
0.7579186197916666
 41
0.0
 71
               1
 72
               1
  1
{\C192;\lOrientation Mark}
  7
New Century Schlbk
 73
               1
 44
0.9673603504928806
  0
LINE
  5
1A7
100
AcDbEntity
  8
None
370
               5
390
0
  6
Continuous
 62
               1
100
AcDbLine
 10
-20.043990000000008
 20
-0.5825000023655917
 30
0.0
 11
-6.7542700000000195
 21
-0.5825000023655917
 31
0.0
  0
SOLID
  5
1A8
100
AcDbEntity
  8
None
370
               5
390
0
 62
               1
100
AcDbTrace
 10
-6.7542700000000195
 20
-0.5825000023655917
 30
0.0
 11
-7.2623785205078324
 21
-0.7186472701030326
 31
0.0
 12
-7.2623785205078324
 22
-0.4463527346281507
 32
0.0
 13
-7.2623785205078324
 23
-0.4463527346281507
 33
0.0
  0
LINE
  5
1A9
100
AcDbEntity
  8
None
370
               5
390
0
  6
Continuous
 62
               1
100
AcDbLine
 10
-23.418360000000007
 20
2.7918799976344104
 30
0.0
 11
-20.043990000000008
 21
-0.5825000023655917
 31
0.0
  0
WIPEOUT
  5
1AA
100
AcDbEntity
  8
None
370
               5
390
0
  6
Continuous
 62
               1
 92
        0
100
AcDbWipeout
 90
        0
 10
-28.0
 20
2.0667309976344228
 30
0.0
 11
5.8432300000000055
 21
0.0
 31
0.0
 12
0.0
 22
5.8432300000000055
 32
0.0
 13
1.0
 23
1.0
340
0
 70
               7
280
               1
281
              50
282
              50
283
               0
360
0
 71
               2
 91
        5
 14
-0.5
 24
0.5000000000000011
 14
0.4999999999999988
 24
0.5000000000000011
 14
0.4999999999999988
 24
0.0834223537324405
 14
-0.5
 24
0.0834223537324405
 14
-0.5
 24
0.5000000000000011
  0
MTEXT
  5
1AB
100
AcDbEntity
  8
None
390
0
 62
               1
100
AcDbMText
 10
-28.0
 20
4.3063116174260836
 30
0.0
 40
0.7579186197916666
 41
5.8432299999999993
 71
               1
 72
               1
  1
{\C192;\lSocket Body Size}
  7
New Century Schlbk
 73
               1
 44
0.9673603504928806
  0
WIPEOUT
  5
1AC
100
AcDbEntity
  8
None
370
               5
390
0
  6
Continuous
 62
               1
 92
        0
100
AcDbWipeout
 90
        0
 10
19.603879252942889
 20
2.1879204976344226
 30
0.0
 11
4.4767360671900747
 21
0.0
 31
0.0
 12
0.0
 22
4.4767360671900747
 32
0.0
 13
1.0
 23
1.0
340
0
 70
               7
280
               1
281
              50
282
              50
283
               0
360
0
 71
               2
 91
        5
 14
-0.5
 24
0.5000000000000007
 14
0.5
 24
0.5000000000000007
 14
0.5
 24
0.2281323978601391
 14
-0.5
 24
0.2281323978601391
 14
-0.5
 24
0.5000000000000007
  0
MTEXT
  5
1AD
100
AcDbEntity
  8
None
390
0
 62
               1
100
AcDbMText
 10
19.603879252942889
 20
3.2104216174260864
 30
0.0
 40
0.7579186197916666
 41
0.0
 71
               1
 72
               1
  1
{\C192;\lpad (x24)}
  7
Arial
 73
               1
 44
0.9673603504928806
  0
DIMENSION
  5
1AE
100
AcDbEntity
  8
Dimension
370
               5
390
0
  6
Continuous
 62
               1
100
AcDbDimension
  2
*D12
 10
-5.5042700000000195
 20
21.047499997634432
 30
0.0
 11
1.2999999999999972
 21
21.047499997634432
 31
0.0
 70
             128
 71
               5
 72
               1
 41
1.0
 42
0.0
  3
IE Standard
100
AcDbAlignedDimension
 13
-2.1667700000000565
 23
8.0574999976344088
 33
0.0
 14
-5.5042700000000195
 24
10.319999997634426
 34
0.0
100
AcDbRotatedDimension
1001
ACAD
1000
DSTYLE
1002
{
1070
             271
1070
               4
1070
             340
1005
3B
1070
               3
1000
<>mm*
1070
             174
1070
               0
1070
             147
1040
0.09921875
1002
}
  0
DIMENSION
  5
1AF
100
AcDbEntity
  8
Dimension
370
               5
390
0
  6
Continuous
 62
               1
100
AcDbDimension
  2
*D13
 10
-9.5317700000000229
 20
10.319999997634426
 30
0.0
 11
-9.5317700000000229
 21
9.1887499976344174
 31
0.0
 70
             128
 71
               5
 72
               1
 41
1.0
 42
0.0
  3
IE Standard
100
AcDbAlignedDimension
 13
-2.1667700000000565
 23
8.0574999976344088
 33
0.0
 14
-5.5042700000000195
 24
10.319999997634426
 34
0.0
 50
90.0
100
AcDbRotatedDimension
1001
ACAD
1000
DSTYLE
1002
{
1070
             271
1070
               4
1070
             340
1005
3B
1070
             147
1040
0.09921875
1002
}
  0
DIMENSION
  5
1B0
100
AcDbEntity
  8
Dimension
370
               5
390
0
  6
Continuous
 62
               1
100
AcDbDimension
  2
*D14
 10
-18.5
 20
8.0574999976344088
 30
0.0
 11
-18.5
 21
4.6571099976344215
 31
0.0
 70
             128
 71
               5
 72
               1
 41
1.0
 42
0.0
  3
IE Standard
100
AcDbAlignedDimension
 13
-2.1667700000000565
 23
2.8574999976344202
 33
0.0
 14
-2.1667700000000565
 24
8.0574999976344088
 34
0.0
 50
90.0
100
AcDbRotatedDimension
1001
ACAD
1000
DSTYLE
1002
{
1070
             271
1070
               2
1070
             340
1005
3B
1070
             147
1040
0.09921875
1002
}
  0
DIMENSION
  5
1B1
100
AcDbEntity
  8
Dimension
370
               5
390
0
  6
Continuous
 62
               1
100
AcDbDimension
  2
*D15
 10
-14.129700604595286
 20
7.2324999976344202
 30
0.0
 11
-14.129700604595286
 21
6.1130040115504158
 31
0.0
 70
             128
 71
               5
 72
               1
 41
1.0
 42
0.0
  3
IE Standard
100
AcDbAlignedDimension
 13
-2.9917700000000309
 23
3.6824999976344088
 33
0.0
 14
-2.9917700000000309
 24
7.2324999976344202
 34
0.0
 50
90.0
100
AcDbRotatedDimension
1001
ACAD
1000
DSTYLE
1002
{
1070
             271
1070
               2
1070
             340
1005
3B
1070
             147
1040
0.09921875
1002
}
  0
DIMENSION
  5
1B2
100
AcDbEntity
  8
Dimension
370
               5
390
0
  6
Continuous
 62
               1
100
AcDbDimension
  2
*D16
 10
-2.9917700000000309
 20
-4.9025000023655707
 30
0.0
 11
-0.3335302539062868
 21
-4.9025000023655707
 31
0.0
 70
             128
 71
               5
 72
               1
 41
1.0
 42
0.0
  3
IE Standard
100
AcDbAlignedDimension
 13
2.2082299999999577
 23
3.6824999976344088
 33
0.0
 14
-2.9917700000000309
 24
3.6824999976344088
 34
0.0
100
AcDbRotatedDimension
1001
ACAD
1000
DSTYLE
1002
{
1070
             271
1070
               2
1070
             340
1005
3B
1070
             147
1040
0.09921875
1002
}
  0
DIMENSION
  5
1B3
100
AcDbEntity
  8
Dimension
370
               5
390
0
  6
Continuous
 62
               1
100
AcDbDimension
  2
*D17
 10
-2.1667700000000565
 20
-2.0025000023655792
 30
0.0
 11
-0.3354345507813006
 21
-2.0025000023655792
 31
0.0
 70
             128
 71
               5
 72
               1
 41
1.0
 42
0.0
  3
IE Standard
100
AcDbAlignedDimension
 13
1.3832299999999549
 23
2.8574999976344202
 33
0.0
 14
-2.1667700000000565
 24
2.8574999976344202
 34
0.0
100
AcDbRotatedDimension
1001
ACAD
1000
DSTYLE
1002
{
1070
             271
1070
               2
1070
             340
1005
3B
1070
             147
1040
0.09921875
1002
}
  0
LINE
  5
1B4
100
AcDbEntity
  8
None
370
               9
390
0
  6
Continuous
 62
               1
100
AcDbLine
 10
12.25649999999996
 20
15.672379997634408
 30
0.0
 11
6.3019199999999387
 21
15.672379997634408
 31
0.0
  0
WIPEOUT
  5
1B5
100
AcDbEntity
  8
None
370
               9
390
0
  6
Continuous
 62
               1
 92
        0
100
AcDbWipeout
 90
        0
 10
11.956499999999949
 20
15.233060497634412
 30
0.0
 11
16.488782895988848
 21
0.0
 31
0.0
 12
0.0
 22
16.488782895988848
 32
0.0
 13
1.0
 23
1.0
340
0
 70
               7
280
               1
281
              50
282
              50
283
               0
360
0
 71
               2
 91
        5
 14
-0.5
 24
0.5000000000000002
 14
0.5000000000000002
 24
0.5000000000000002
 14
0.5000000000000002
 24
0.4261874264657781
 14
-0.5
 24
0.4261874264657781
 14
-0.5
 24
0.5000000000000002
  0
MTEXT
  5
1B6
100
AcDbEntity
  8
None
390
0
 62
               1
100
AcDbMText
 10
11.956499999999949
 20
16.255561617426075
 30
0.0
 40
0.7579186197916666
 41
0.0
 71
               1
 72
               1
  1
{\C192;\l3.3mm x 3.3mm thermal /GND pad}
  7
Arial
 73
               1
 44
0.9673603504928806
  0
WIPEOUT
  5
1B7
100
AcDbEntity
  8
None
370
               5
390
0
  6
Continuous
 62
               7
 92
        0
100
AcDbWipeout
 90
        0
 10
-3.3224558204325376
 20
-17.177872441217175
 30
0.0
 11
4.4567370387441656
 21
0.0
 31
0.0
 12
0.0
 22
4.4567370387441656
 32
0.0
 13
1.0
 23
1.0
340
0
 70
               7
280
               1
281
              50
282
              50
283
               0
360
0
 71
               2
 91
        5
 14
-0.5
 24
0.5000000000000016
 14
0.4999999999999996
 24
0.5000000000000016
 14
0.4999999999999996
 24
0.1965699370988575
 14
-0.5
 24
0.1965699370988575
 14
-0.5
 24
0.5000000000000016
  0
MTEXT
  5
1B8
100
AcDbEntity
  8
None
390
0
 62
               7
100
AcDbMText
 10
-3.3224558204325376
 20
-16.041762232883848
 30
0.0
 40
0.8421302083333332
 41
0.0
 71
               1
 72
               1
  1
MLF24E
  7
Arial
 73
               1
 44
0.9673603504928806
  0
INSERT
  5
1B9
100
AcDbEntity
  8
None
390
0
 62
               7
100
AcDbBlockReference
  2
Group-4
 10
0.0
 20
0.0
 30
0.0
  0
LINE
  5
1BA
100
AcDbEntity
  8
None
370
               9
390
0
  6
Continuous
 62
               1
100
AcDbLine
 10
6.3019199999999387
 20
15.672379997634408
 30
0.0
 11
0.3682299999999543
 21
6.3724999976344208
 31
0.0
  0
SOLID
  5
1BB
100
AcDbEntity
  8
None
370
               9
390
0
 62
               1
100
AcDbTrace
 10
0.3682299999999543
 20
6.3724999976344208
 30
0.0
 11
0.6221648598094798
 21
7.1540311351851029
 31
0.0
 12
0.9789096082767844
 22
6.9223583866970992
 32
0.0
 13
0.9789096082767844
 23
6.9223583866970992
 33
0.0
  0
INSERT
  5
1BC
100
AcDbEntity
  8
Dimension
390
0
 62
               7
100
AcDbBlockReference
  2
Group-5
 10
0.0
 20
0.0
 30
0.0
  0
DIMENSION
  5
1BD
100
AcDbEntity
  8
Dimension
370
               5
390
0
  6
Continuous
 62
               1
100
AcDbDimension
  2
*D25
 10
0.5832299999999435
 20
18.287499997634413
 30
0.0
 11
3.7999999999999972
 21
18.287499997634413
 31
0.0
 70
             128
 71
               5
 72
               1
 41
1.0
 42
0.0
  3
IE Standard
100
AcDbAlignedDimension
 13
1.2332299999999492
 23
8.0574999976344088
 33
0.0
 14
0.5832299999999435
 24
8.0574999976344088
 34
0.0
100
AcDbRotatedDimension
1001
ACAD
1000
DSTYLE
1002
{
1070
             271
1070
               2
1070
             340
1005
3B
1070
               3
1000
<>mm typ.
1070
             174
1070
               0
1070
             147
1040
0.09921875
1002
}
  0
ENDSEC
  0
SECTION
  2
OBJECTS
  0
DICTIONARY
  5
19
100
AcDbDictionary
280
               0
281
               1
  3
ACAD_GROUP
350
1A
  3
ACAD_MLINESTYLE
350
1B
  3
ACAD_LAYOUT
350
1E
  3
ACAD_PLOTSETTINGS
350
22
  3
ACAD_PLOTSTYLENAME
350
1F
  3
ACAD_WIPEOUT_VARS
350
23
  0
DICTIONARY
  5
1A
102
{ACAD_REACTORS
330
19
102
}
100
AcDbDictionary
280
               0
281
               1
  0
DICTIONARY
  5
1B
102
{ACAD_REACTORS
330
19
102
}
100
AcDbDictionary
280
               0
281
               1
  3
Standard
350
1C
  0
MLINESTYLE
  5
1C
102
{ACAD_REACTORS
330
1B
102
}
100
AcDbMlineStyle
  2
Standard
 70
               0
  3

 62
               0
 51
90.0
 52
90.0
 71
               2
 49
0.5
 62
             256
  6
ByLayer
 49
-0.5
 62
             256
  6
ByLayer
  0
ACDBDICTIONARYWDFLT
  5
1F
102
{ACAD_REACTORS
330
19
102
}
100
AcDbDictionary
281
               1
  3
Normal
350
1D
100
AcDbDictionaryWithDefault
340
1D
  0
ACDBPLACEHOLDER
  5
1D
102
{ACAD_REACTORS
330
1F
102
}
  0
LAYOUT
  5
20
102
{ACAD_REACTORS
330
1E
102
}
100
AcDbPlotSettings
  1

  2

  4

  6

 40
0.0
 41
0.0
 42
0.0
 43
0.0
 44
0.0
 45
0.0
 46
0.0
 47
0.0
 48
0.0
 49
0.0
140
0.0
141
0.0
142
1.0
143
1.0
 70
            1024
 72
               0
 73
               0
 74
               0
  7

 75
               0
147
1.0
148
0.0
149
0.0
100
AcDbLayout
  1
Model
 70
               0
 71
               0
 10
0.0
 20
0.0
 11
0.0
 21
0.0
 12
0.0
 22
0.0
 32
0.0
 14
0.0
 24
0.0
 34
0.0
 15
0.0
 25
0.0
 35
0.0
146
0.0
 13
0.0
 23
0.0
 33
0.0
 16
0.0
 26
0.0
 36
0.0
 17
0.0
 27
0.0
 37
0.0
 76
               0
330
A
331
0
345
0
346
0
  0
LAYOUT
  5
21
102
{ACAD_REACTORS
330
1E
102
}
100
AcDbPlotSettings
  1

  2

  4

  6

 40
0.0
 41
0.0
 42
0.0
 43
0.0
 44
0.0
 45
0.0
 46
0.0
 47
0.0
 48
0.0
 49
0.0
140
0.0
141
0.0
142
1.0
143
1.0
 70
               0
 72
               0
 73
               0
 74
               0
  7

 75
               0
147
1.0
148
0.0
149
0.0
100
AcDbLayout
  1
Layout1
 70
               0
 71
               0
 10
0.0
 20
0.0
 11
0.0
 21
0.0
 12
0.0
 22
0.0
 32
0.0
 14
0.0
 24
0.0
 34
0.0
 15
0.0
 25
0.0
 35
0.0
146
0.0
 13
0.0
 23
0.0
 33
0.0
 16
0.0
 26
0.0
 36
0.0
 17
0.0
 27
0.0
 37
0.0
 76
               0
330
B
331
0
345
0
346
0
  0
DICTIONARY
  5
1E
102
{ACAD_REACTORS
330
19
102
}
100
AcDbDictionary
280
               0
281
               1
  3
Layout1
350
21
  3
Model
350
20
  0
DICTIONARY
  5
22
102
{ACAD_REACTORS
330
19
102
}
100
AcDbDictionary
280
               0
281
               1
  0
WIPEOUTVARIABLES
  5
23
100
AcDbWipeoutVariables
 70
               0
  0
ENDSEC
  0
EOF
