  0
SECTION
  2
HEADER
  9
$ACADVER
  1
AC1015
  9
$ACADMAINTVER
 70
               6
  9
$DWGCODEPAGE
  3
ANSI_1252
  9
$INSBASE
 10
0.0
 20
0.0
 30
0.0
  9
$EXTMIN
 10
-72.189332749197874
 20
-40.410000009462237
 30
-1.3969999999999998
  9
$EXTMAX
 10
96.476888548458618
 20
37.193629990537765
 30
1.3969999999999998
  9
$LIMMIN
 10
0.0
 20
0.0
  9
$LIMMAX
 10
0.0
 20
0.0
  9
$ORTHOMODE
 70
               0
  9
$REGENMODE
 70
               1
  9
$FILLMODE
 70
               1
  9
$QTEXTMODE
 70
               0
  9
$MIRRTEXT
 70
               1
  9
$LTSCALE
 40
5.0800000000000001
  9
$ATTMODE
 70
               1
  9
$TEXTSIZE
 40
0.2
  9
$TRACEWID
 40
1.0
  9
$TEXTSTYLE
  7
Standard
  9
$CLAYER
  8
None
  9
$CELTYPE
  6
Continuous
  9
$CECOLOR
 62
             256
  9
$CELTSCALE
 40
1.0
  9
$DISPSILH
 70
               0
  9
$DIMSCALE
 40
1.0
  9
$DIMASZ
 40
2.2448242187499998
  9
$DIMEXO
 40
1.5874999999999999
  9
$DIMDLI
 40
10.16
  9
$DIMRND
 40
0.0
  9
$DIMDLE
 40
1.5874999999999999
  9
$DIMEXE
 40
3.1749999999999998
  9
$DIMTP
 40
0.0
  9
$DIMTM
 40
0.0
  9
$DIMTXT
 40
2.0211226851851847
  9
$DIMCEN
 40
0.0
  9
$DIMTSZ
 40
0.0
  9
$DIMTOL
 70
               0
  9
$DIMLIM
 70
               0
  9
$DIMTIH
 70
               0
  9
$DIMTOH
 70
               0
  9
$DIMSE1
 70
               0
  9
$DIMSE2
 70
               0
  9
$DIMTAD
 70
               1
  9
$DIMZIN
 70
               3
  9
$DIMBLK
  1
VW_SLASH
  9
$DIMASO
 70
               1
  9
$DIMSHO
 70
               1
  9
$DIMPOST
  1
<>mm
  9
$DIMAPOST
  1
[]
  9
$DIMALT
 70
               0
  9
$DIMALTD
 70
               1
  9
$DIMALTF
 40
1.0
  9
$DIMLFAC
 40
1.0
  9
$DIMTOFL
 70
               1
  9
$DIMTVP
 40
0.0
  9
$DIMTIX
 70
               1
  9
$DIMSOXD
 70
               0
  9
$DIMSAH
 70
               0
  9
$DIMBLK1
  1

  9
$DIMBLK2
  1

  9
$DIMSTYLE
  2
Arch
  9
$DIMCLRD
 70
               0
  9
$DIMCLRE
 70
               0
  9
$DIMCLRT
 70
               0
  9
$DIMTFAC
 40
1.0
  9
$DIMGAP
 40
1.5874999999999999
  9
$DIMJUST
 70
               0
  9
$DIMSD1
 70
               0
  9
$DIMSD2
 70
               0
  9
$DIMTOLJ
 70
               1
  9
$DIMTZIN
 70
               3
  9
$DIMALTZ
 70
              11
  9
$DIMALTTZ
 70
              11
  9
$DIMUPT
 70
               0
  9
$DIMDEC
 70
               1
  9
$DIMTDEC
 70
               1
  9
$DIMALTU
 70
               2
  9
$DIMALTTD
 70
               2
  9
$DIMTXSTY
  7
New Century Schlbk
  9
$DIMAUNIT
 70
               0
  9
$DIMADEC
 70
               2
  9
$DIMALTRND
 40
0.0
  9
$DIMAZIN
 70
               0
  9
$DIMDSEP
 70
              46
  9
$DIMATFIT
 70
               0
  9
$DIMFRAC
 70
               2
  9
$DIMLDRBLK
  1

  9
$DIMLUNIT
 70
               2
  9
$DIMLWD
 70
              -2
  9
$DIMLWE
 70
              -2
  9
$DIMTMOVE
 70
               0
  9
$LUNITS
 70
               2
  9
$LUPREC
 70
               4
  9
$SKETCHINC
 40
0.1
  9
$FILLETRAD
 40
0.0
  9
$AUNITS
 70
               0
  9
$AUPREC
 70
               0
  9
$MENU
  1
acad
  9
$ELEVATION
 40
0.0
  9
$PELEVATION
 40
0.0
  9
$THICKNESS
 40
0.0
  9
$LIMCHECK
 70
               0
  9
$CHAMFERA
 40
0.0
  9
$CHAMFERB
 40
0.0
  9
$CHAMFERC
 40
0.0
  9
$CHAMFERD
 40
0.0
  9
$SKPOLY
 70
               0
  9
$TDCREATE
 40
2455261.392488426
  9
$TDUCREATE
 40
0.000000000
  9
$TDUPDATE
 40
2455261.392488426
  9
$TDUUPDATE
 40
0.000000000
  9
$TDINDWG
 40
0.0000000000
  9
$TDUSRTIMER
 40
0.0000000000
  9
$USRTIMER
 70
               1
  9
$ANGBASE
 50
0.0
  9
$ANGDIR
 70
               0
  9
$PDMODE
 70
               1
  9
$PDSIZE
 40
-2.0
  9
$PLINEWID
 40
0.0
  9
$SPLFRAME
 70
               0
  9
$SPLINETYPE
 70
               6
  9
$SPLINESEGS
 70
               8
  9
$HANDSEED
  5
236
  9
$SURFTAB1
 70
               6
  9
$SURFTAB2
 70
               6
  9
$SURFTYPE
 70
               6
  9
$SURFU
 70
               6
  9
$SURFV
 70
               6
  9
$UCSBASE
  2

  9
$UCSNAME
  2

  9
$UCSORG
 10
0.0
 20
0.0
 30
0.0
  9
$UCSXDIR
 10
1.0
 20
0.0
 30
0.0
  9
$UCSYDIR
 10
0.0
 20
1.0
 30
0.0
  9
$UCSORTHOREF
  2

  9
$UCSORTHOVIEW
 70
               0
  9
$UCSORGTOP
 10
0.0
 20
0.0
 30
0.0
  9
$UCSORGBOTTOM
 10
0.0
 20
0.0
 30
0.0
  9
$UCSORGLEFT
 10
0.0
 20
0.0
 30
0.0
  9
$UCSORGRIGHT
 10
0.0
 20
0.0
 30
0.0
  9
$UCSORGFRONT
 10
0.0
 20
0.0
 30
0.0
  9
$UCSORGBACK
 10
0.0
 20
0.0
 30
0.0
  9
$PUCSBASE
  2

  9
$PUCSNAME
  2

  9
$PUCSORG
 10
0.0
 20
0.0
 30
0.0
  9
$PUCSXDIR
 10
1.0
 20
0.0
 30
0.0
  9
$PUCSYDIR
 10
0.0
 20
1.0
 30
0.0
  9
$PUCSORTHOREF
  2

  9
$PUCSORTHOVIEW
 70
               0
  9
$PUCSORGTOP
 10
0.0
 20
0.0
 30
0.0
  9
$PUCSORGBOTTOM
 10
0.0
 20
0.0
 30
0.0
  9
$PUCSORGLEFT
 10
0.0
 20
0.0
 30
0.0
  9
$PUCSORGRIGHT
 10
0.0
 20
0.0
 30
0.0
  9
$PUCSORGFRONT
 10
0.0
 20
0.0
 30
0.0
  9
$PUCSORGBACK
 10
0.0
 20
0.0
 30
0.0
  9
$USERI1
 70
               0
  9
$USERI2
 70
               0
  9
$USERI3
 70
               0
  9
$USERI4
 70
               0
  9
$USERI5
 70
               0
  9
$USERR1
 40
0.0
  9
$USERR2
 40
0.0
  9
$USERR3
 40
0.0
  9
$USERR4
 40
0.0
  9
$USERR5
 40
0.0
  9
$WORLDVIEW
 70
               1
  9
$SHADEDGE
 70
               3
  9
$SHADEDIF
 70
              70
  9
$TILEMODE
 70
               1
  9
$MAXACTVP
 70
              64
  9
$PINSBASE
 10
0.0
 20
0.0
 30
0.0
  9
$PLIMCHECK
 70
               0
  9
$PEXTMIN
 10
1.0000000000000000E+20
 20
1.0000000000000000E+20
 30
1.0000000000000000E+20
  9
$PEXTMAX
 10
-1.0000000000000000E+20
 20
-1.0000000000000000E+20
 30
-1.0000000000000000E+20
  9
$PLIMMIN
 10
0.0
 20
0.0
  9
$PLIMMAX
 10
12.0
 20
9.0
  9
$UNITMODE
 70
               0
  9
$VISRETAIN
 70
               0
  9
$PLINEGEN
 70
               1
  9
$PSLTSCALE
 70
               0
  9
$TREEDEPTH
 70
            3020
  9
$CMLSTYLE
  2
Standard
  9
$CMLJUST
 70
               0
  9
$CMLSCALE
 40
1.0
  9
$PROXYGRAPHICS
 70
               0
  9
$MEASUREMENT
 70
               1
  9
$CELWEIGHT
370
               0
  9
$ENDCAPS
280
               0
  9
$JOINSTYLE
280
               0
  9
$LWDISPLAY
290
               1
  9
$INSUNITS
 70
               4
  9
$HYPERLINKBASE
  1

  9
$STYLESHEET
  1

  9
$XEDIT
290
               1
  9
$CEPSNTYPE
380
               0
  9
$PSTYLEMODE
290
               1
  9
$FINGERPRINTGUID
  2

  9
$VERSIONGUID
  2

  9
$EXTNAMES
290
               1
  9
$PSVPSCALE
 40
0.0
  0
ENDSEC
  0
SECTION
  2
CLASSES
  0
CLASS
  1
LWPOLYLINE
  2
AcDbPolyline
  3
AutoCAD 2000
 90
        0
280
               0
281
               1
  0
CLASS
  1
IMAGE
  2
AcDbRasterImage
  3
ISM
 90
      127
280
               0
281
               1
  0
CLASS
  1
OLE2FRAME
  2
AcDbOle2Frame
  3
AutoCAD 2000
 90
        0
280
               0
281
               1
  0
CLASS
  1
HATCH
  2
AcDbHatch
  3
AutoCAD 2000
 90
        0
280
               0
281
               1
  0
CLASS
  1
DICTIONARYVAR
  2
AcDbDictionaryVar
  3
AutoCAD 2000
 90
        0
280
               0
281
               0
  0
CLASS
  1
RASTERVARIABLES
  2
AcDbRasterVariables
  3
ISM
 90
        0
280
               0
281
               0
  0
CLASS
  1
IMAGEDEF
  2
AcDbRasterImageDef
  3
ISM
 90
        0
280
               0
281
               0
  0
CLASS
  1
IMAGEDEF_REACTOR
  2
AcDbRasterImageDefReactor
  3
ISM
 90
        1
280
               0
281
               0
  0
CLASS
  1
IDBUFFER
  2
AcDbIdBuffer
  3
AutoCAD 2000
 90
        0
280
               0
281
               0
  0
CLASS
  1
SPATIAL_FILTER
  2
AcDbSpatialFilter
  3
AutoCAD 2000
 90
        0
280
               0
281
               0
  0
CLASS
  1
XRECORD
  2
AcDbXrecord
  3
AutoCAD 2000
 90
        0
280
               0
281
               0
  0
CLASS
  1
SORTENTSTABLE
  2
AcDbSortentsTable
  3
AutoCAD 2000
 90
        0
280
               0
281
               0
  0
CLASS
  1
LAYER_INDEX
  2
AcDbLayerIndex
  3
AutoCAD 2000
 90
        0
280
               0
281
               0
  0
CLASS
  1
SPATIAL_INDEX
  2
AcDbSpatialIndex
  3
AutoCAD 2000
 90
        0
280
               0
281
               0
  0
CLASS
  1
OBJECT_PTR
  2
CAseDLPNTableRecord
  3
"ASE-LPNTableRecord"
 90
        1
280
               0
281
               0
  0
CLASS
  1
LAYOUT
  2
AcDbLayout
  3
AutoCAD 2000
 90
        0
280
               0
281
               0
  0
CLASS
  1
PLOTSETTINGS
  2
AcDbPlotSettings
  3
AutoCAD 2000
 90
        0
280
               0
281
               0
  0
CLASS
  1
ACDBDICTIONARYWDFLT
  2
AcDbDictionaryWithDefault
  3
AutoCAD 2000
 90
        0
280
               0
281
               0
  0
CLASS
  1
ACDBPLACEHOLDER
  2
AcDbPlaceHolder
  3
AutoCAD 2000
 90
        0
280
               0
281
               0
  0
ENDSEC
  0
SECTION
  2
TABLES
  0
TABLE
  2
VPORT
  5
7
100
AcDbSymbolTable
 70
               1
  0
VPORT
  5
15
100
AcDbSymbolTableRecord
100
AcDbViewportTableRecord
  2
*ACTIVE
 70
               0
 10
0.0
 20
0.0
 11
1.0
 21
1.0
 12
12.143777899630365
 22
-1.6081850094622325
 13
0.0
 23
0.0
 14
1.0
 24
1.0
 15
0.0
 25
0.0
 16
0.0
 26
0.0
 36
1.0
 17
0.0
 27
0.0
 37
0.0
 40
77.60363000000001
 41
0.688564
 42
50.0
 43
0.0
 44
0.0
 50
0.0
 51
0.0
 71
               0
 72
            2000
 73
               1
 74
               1
 75
               0
 76
               0
 77
               0
 78
               0
281
               0
 65
               0
110
0.0
120
0.0
130
0.0
111
1.0
121
0.0
131
0.0
112
0.0
122
1.0
132
0.0
345
0
346
0
 79
               0
146
0.0
  0
ENDTAB
  0
TABLE
  2
LTYPE
  5
4
100
AcDbSymbolTable
 70
              14
  0
LTYPE
  5
11
100
AcDbSymbolTableRecord
100
AcDbLinetypeTableRecord
  2
ByBlock
 70
              64
  3

 72
              65
 73
               0
 40
0.0
  0
LTYPE
  5
12
100
AcDbSymbolTableRecord
100
AcDbLinetypeTableRecord
  2
ByLayer
 70
              64
  3

 72
              65
 73
               0
 40
0.0
  0
LTYPE
  5
13
100
AcDbSymbolTableRecord
100
AcDbLinetypeTableRecord
  2
Continuous
 70
              64
  3
Solid line
 72
              65
 73
               0
 40
0.0
  0
LTYPE
  5
43
100
AcDbSymbolTableRecord
100
AcDbLinetypeTableRecord
  2
STYLE_01
 70
               0
  3

 72
              65
 73
               2
 40
0.41664
 49
0.20828
 74
               0
 49
-0.20836
 74
               0
  0
LTYPE
  5
44
100
AcDbSymbolTableRecord
100
AcDbLinetypeTableRecord
  2
STYLE_02
 70
               0
  3

 72
              65
 73
               2
 40
0.6944250000000001
 49
0.48607
 74
               0
 49
-0.2083550000000001
 74
               0
  0
LTYPE
  5
45
100
AcDbSymbolTableRecord
100
AcDbLinetypeTableRecord
  2
STYLE_03
 70
               0
  3

 72
              65
 73
               2
 40
1.25
 49
1.0416400000000001
 74
               0
 49
-0.2083599999999999
 74
               0
  0
LTYPE
  5
46
100
AcDbSymbolTableRecord
100
AcDbLinetypeTableRecord
  2
STYLE_04
 70
               0
  3

 72
              65
 73
               2
 40
1.5277099999999999
 49
1.3194249999999998
 74
               0
 49
-0.208285
 74
               0
  0
LTYPE
  5
47
100
AcDbSymbolTableRecord
100
AcDbLinetypeTableRecord
  2
STYLE_05
 70
               0
  3

 72
              65
 73
               2
 40
0.20828
 49
0.069425
 74
               0
 49
-0.138855
 74
               0
  0
LTYPE
  5
48
100
AcDbSymbolTableRecord
100
AcDbLinetypeTableRecord
  2
STYLE_06
 70
               0
  3

 72
              65
 73
               4
 40
1.0416400000000001
 49
0.625
 74
               0
 49
-0.20828
 74
               0
 49
0.06943
 74
               0
 49
-0.13893
 74
               0
  0
LTYPE
  5
49
100
AcDbSymbolTableRecord
100
AcDbLinetypeTableRecord
  2
STYLE_07
 70
               0
  3

 72
              65
 73
               6
 40
1.875
 49
0.625
 74
               0
 49
-0.20828
 74
               0
 49
0.6250000000000001
 74
               0
 49
-0.2083599999999999
 74
               0
 49
0.06943
 74
               0
 49
-0.1389299999999999
 74
               0
  0
LTYPE
  5
4A
100
AcDbSymbolTableRecord
100
AcDbLinetypeTableRecord
  2
STYLE_08
 70
               0
  3

 72
              65
 73
               6
 40
1.25
 49
0.625
 74
               0
 49
-0.20828
 74
               0
 49
0.06943
 74
               0
 49
-0.13893
 74
               0
 49
0.0694299999999999
 74
               0
 49
-0.13893
 74
               0
  0
LTYPE
  5
4B
100
AcDbSymbolTableRecord
100
AcDbLinetypeTableRecord
  2
STYLE_09
 70
               0
  3

 72
              65
 73
               4
 40
5.0
 49
3.75
 74
               0
 49
-0.2777849999999998
 74
               0
 49
0.6944300000000003
 74
               0
 49
-0.2777849999999998
 74
               0
  0
LTYPE
  5
4C
100
AcDbSymbolTableRecord
100
AcDbLinetypeTableRecord
  2
STYLE_10
 70
               0
  3

 72
              65
 73
               6
 40
5.9375
 49
3.75
 74
               0
 49
-0.2777849999999998
 74
               0
 49
0.6944300000000003
 74
               0
 49
-0.2777849999999998
 74
               0
 49
0.625
 74
               0
 49
-0.3125
 74
               0
  0
LTYPE
  5
4D
100
AcDbSymbolTableRecord
100
AcDbLinetypeTableRecord
  2
STYLE_11
 70
               0
  3

 72
              65
 73
               2
 40
0.4166412353515625
 49
0.2777862548828125
 74
               0
 49
-0.13885498046875
 74
               0
  0
ENDTAB
  0
TABLE
  2
LAYER
  5
2
100
AcDbSymbolTable
 70
               4
  0
LAYER
  5
14
100
AcDbSymbolTableRecord
100
AcDbLayerTableRecord
  2
0
 70
               0
 62
               7
  6
Continuous
290
               1
370
              -3
390
1D
  0
LAYER
  5
4E
100
AcDbSymbolTableRecord
100
AcDbLayerTableRecord
  2
Defpoints
 70
               0
 62
               7
  6
Continuous
290
               0
370
              -3
390
1D
  0
LAYER
  5
4F
100
AcDbSymbolTableRecord
100
AcDbLayerTableRecord
  2
None
 70
               0
 62
               7
  6
Continuous
290
               1
370
               5
390
1D
  0
LAYER
  5
50
100
AcDbSymbolTableRecord
100
AcDbLayerTableRecord
  2
Dimension
 70
               0
 62
               7
  6
Continuous
290
               1
370
               5
390
1D
  0
ENDTAB
  0
TABLE
  2
STYLE
  5
3
100
AcDbSymbolTable
 70
               3
  0
STYLE
  5
17
100
AcDbSymbolTableRecord
100
AcDbTextStyleTableRecord
  2
Standard
 70
               0
 40
0.0
 41
1.0
 50
0.0
 71
               0
 42
0.0
  3
txt
  4

  0
STYLE
  5
41
100
AcDbSymbolTableRecord
100
AcDbTextStyleTableRecord
  2
Arial
 70
               0
 40
0.0
 41
1.0
 50
0.0
 71
               0
 42
0.0
  3
Arial
  4

1001
ACAD
1000
Arial
1071
        0
  0
STYLE
  5
42
100
AcDbSymbolTableRecord
100
AcDbTextStyleTableRecord
  2
New Century Schlbk
 70
               0
 40
0.0
 41
1.0
 50
0.0
 71
               0
 42
0.0
  3
New Century Schlbk
  4

1001
ACAD
1000
New Century Schlbk
1071
        0
  0
ENDTAB
  0
TABLE
  2
VIEW
  5
5
100
AcDbSymbolTable
 70
               0
  0
ENDTAB
  0
TABLE
  2
UCS
  5
6
100
AcDbSymbolTable
 70
               0
  0
ENDTAB
  0
TABLE
  2
APPID
  5
8
100
AcDbSymbolTable
 70
               1
  0
APPID
  5
16
100
AcDbSymbolTableRecord
100
AcDbRegAppTableRecord
  2
ACAD
 70
               0
  0
ENDTAB
  0
TABLE
  2
DIMSTYLE
  5
9
100
AcDbSymbolTable
 70
               3
100
AcDbDimStyleTable
 71
               0
  0
DIMSTYLE
105
18
100
AcDbSymbolTableRecord
100
AcDbDimStyleTableRecord
  2
Standard
 70
               0
  3

  4

 40
1.0
 41
0.18
 42
0.0625
 43
0.38
 44
0.18
 45
0.0
 46
0.0
 47
0.0
 48
0.0
 71
               0
 72
               0
 73
               1
 74
               1
 75
               0
 76
               0
 77
               0
 78
               0
 79
               0
140
0.18
141
0.09
142
0.0
143
25.399999999999999
144
1.0
145
0.0
146
1.0
147
0.09
148
0.0
170
               0
171
               2
172
               0
173
               0
174
               0
175
               0
176
               0
177
               0
178
               0
179
               0
271
               4
272
               4
273
               2
274
               2
275
               0
276
               0
277
               2
278
              46
279
               0
280
               0
281
               0
282
               0
283
               1
284
               0
285
               0
286
               0
288
               0
289
               3
340
17
341
0
342
0
343
0
344
0
371
              -2
372
              -2
  0
DIMSTYLE
105
59
100
AcDbSymbolTableRecord
100
AcDbDimStyleTableRecord
  2
IE Standard
 70
               0
  3
<>mm
  4
[]
 40
1.0
 41
3.1749999999999998
 42
1.9050000047311186
 43
6.9999859934672708
 44
3.8100000094622373
 45
0.0
 46
0.0
 47
0.0
 48
0.0
 71
               0
 72
               0
 73
               1
 74
               1
 75
               0
 76
               0
 77
               0
 78
               3
 79
               0
140
2.0211226851851847
141
0.0
142
0.0
143
1.0
144
1.0
145
0.0
146
1.0
147
0.0
148
0.0
170
               0
171
               1
172
               1
173
               0
174
               1
175
               0
176
               0
177
               0
178
               0
179
               2
271
               1
272
               1
273
               2
274
               2
275
               0
276
               2
277
               2
278
              46
279
               0
280
               0
281
               0
282
               0
283
               1
284
               3
285
              11
286
              11
288
               0
289
               0
340
42
341
55
342
51
343
0
344
0
371
              -2
372
              -2
  0
DIMSTYLE
105
5F
100
AcDbSymbolTableRecord
100
AcDbDimStyleTableRecord
  2
Arch
 70
               0
  3
<>mm
  4
[]
 40
1.0
 41
2.2448242187499998
 42
1.5874999999999999
 43
10.16
 44
3.1749999999999998
 45
0.0
 46
1.5874999999999999
 47
0.0
 48
0.0
 71
               0
 72
               0
 73
               0
 74
               0
 75
               0
 76
               0
 77
               1
 78
               3
 79
               0
140
2.0211226851851847
141
0.0
142
0.0
143
1.0
144
1.0
145
0.0
146
1.0
147
1.5874999999999999
148
0.0
170
               0
171
               1
172
               1
173
               0
174
               1
175
               0
176
               0
177
               0
178
               0
179
               2
271
               1
272
               1
273
               2
274
               2
275
               0
276
               2
277
               2
278
              46
279
               0
280
               0
281
               0
282
               0
283
               1
284
               3
285
              11
286
              11
288
               0
289
               0
340
42
341
51
342
5A
343
0
344
0
371
              -2
372
              -2
  0
ENDTAB
  0
TABLE
  2
BLOCK_RECORD
  5
1
100
AcDbSymbolTable
 70
              33
  0
BLOCK_RECORD
  5
A
100
AcDbSymbolTableRecord
100
AcDbBlockTableRecord
  2
*MODEL_SPACE
340
20
  0
BLOCK_RECORD
  5
B
100
AcDbSymbolTableRecord
100
AcDbBlockTableRecord
  2
*PAPER_SPACE
340
21
  0
BLOCK_RECORD
  5
51
100
AcDbSymbolTableRecord
100
AcDbBlockTableRecord
  2
VW_FILLEDARROW
340
0
  0
BLOCK_RECORD
  5
55
100
AcDbSymbolTableRecord
100
AcDbBlockTableRecord
  2
VW_FILLEDARROW-1
340
0
  0
BLOCK_RECORD
  5
5A
100
AcDbSymbolTableRecord
100
AcDbBlockTableRecord
  2
VW_SLASH
340
0
  0
BLOCK_RECORD
  5
23
100
AcDbSymbolTableRecord
100
AcDbBlockTableRecord
  2
*D3
340
0
  0
BLOCK_RECORD
  5
24
100
AcDbSymbolTableRecord
100
AcDbBlockTableRecord
  2
*D4
340
0
  0
BLOCK_RECORD
  5
25
100
AcDbSymbolTableRecord
100
AcDbBlockTableRecord
  2
*D5
340
0
  0
BLOCK_RECORD
  5
26
100
AcDbSymbolTableRecord
100
AcDbBlockTableRecord
  2
*D6
340
0
  0
BLOCK_RECORD
  5
27
100
AcDbSymbolTableRecord
100
AcDbBlockTableRecord
  2
*D7
340
0
  0
BLOCK_RECORD
  5
28
100
AcDbSymbolTableRecord
100
AcDbBlockTableRecord
  2
*D8
340
0
  0
BLOCK_RECORD
  5
29
100
AcDbSymbolTableRecord
100
AcDbBlockTableRecord
  2
*D9
340
0
  0
BLOCK_RECORD
  5
2A
100
AcDbSymbolTableRecord
100
AcDbBlockTableRecord
  2
*D10
340
0
  0
BLOCK_RECORD
  5
2B
100
AcDbSymbolTableRecord
100
AcDbBlockTableRecord
  2
*D11
340
0
  0
BLOCK_RECORD
  5
2C
100
AcDbSymbolTableRecord
100
AcDbBlockTableRecord
  2
*D12
340
0
  0
BLOCK_RECORD
  5
2D
100
AcDbSymbolTableRecord
100
AcDbBlockTableRecord
  2
Group
340
0
102
{BLKREFS
331
126
102
}
  0
BLOCK_RECORD
  5
2E
100
AcDbSymbolTableRecord
100
AcDbBlockTableRecord
  2
Group-1
340
0
102
{BLKREFS
331
167
102
}
  0
BLOCK_RECORD
  5
2F
100
AcDbSymbolTableRecord
100
AcDbBlockTableRecord
  2
Group-2
340
0
102
{BLKREFS
331
168
102
}
  0
BLOCK_RECORD
  5
30
100
AcDbSymbolTableRecord
100
AcDbBlockTableRecord
  2
Group-3
340
0
102
{BLKREFS
331
171
102
}
  0
BLOCK_RECORD
  5
31
100
AcDbSymbolTableRecord
100
AcDbBlockTableRecord
  2
Group-4
340
0
102
{BLKREFS
331
228
102
}
  0
BLOCK_RECORD
  5
32
100
AcDbSymbolTableRecord
100
AcDbBlockTableRecord
  2
Group-5
340
0
102
{BLKREFS
331
182
102
}
  0
BLOCK_RECORD
  5
33
100
AcDbSymbolTableRecord
100
AcDbBlockTableRecord
  2
Group-6
340
0
102
{BLKREFS
331
19E
102
}
  0
BLOCK_RECORD
  5
34
100
AcDbSymbolTableRecord
100
AcDbBlockTableRecord
  2
Group-7
340
0
102
{BLKREFS
331
19F
102
}
  0
BLOCK_RECORD
  5
35
100
AcDbSymbolTableRecord
100
AcDbBlockTableRecord
  2
Group-8
340
0
102
{BLKREFS
331
1A0
102
}
  0
BLOCK_RECORD
  5
36
100
AcDbSymbolTableRecord
100
AcDbBlockTableRecord
  2
Group-9
340
0
102
{BLKREFS
331
1A1
102
}
  0
BLOCK_RECORD
  5
37
100
AcDbSymbolTableRecord
100
AcDbBlockTableRecord
  2
Group-10
340
0
102
{BLKREFS
331
229
102
}
  0
BLOCK_RECORD
  5
38
100
AcDbSymbolTableRecord
100
AcDbBlockTableRecord
  2
*D24
340
0
  0
BLOCK_RECORD
  5
39
100
AcDbSymbolTableRecord
100
AcDbBlockTableRecord
  2
*D25
340
0
  0
BLOCK_RECORD
  5
3A
100
AcDbSymbolTableRecord
100
AcDbBlockTableRecord
  2
*D26
340
0
  0
BLOCK_RECORD
  5
3B
100
AcDbSymbolTableRecord
100
AcDbBlockTableRecord
  2
*D27
340
0
  0
BLOCK_RECORD
  5
3C
100
AcDbSymbolTableRecord
100
AcDbBlockTableRecord
  2
*D28
340
0
  0
BLOCK_RECORD
  5
3D
100
AcDbSymbolTableRecord
100
AcDbBlockTableRecord
  2
*D29
340
0
  0
BLOCK_RECORD
  5
3E
100
AcDbSymbolTableRecord
100
AcDbBlockTableRecord
  2
*D30
340
0
  0
BLOCK_RECORD
  5
3F
100
AcDbSymbolTableRecord
100
AcDbBlockTableRecord
  2
*D31
340
0
  0
BLOCK_RECORD
  5
40
100
AcDbSymbolTableRecord
100
AcDbBlockTableRecord
  2
*D32
340
0
  0
ENDTAB
  0
ENDSEC
  0
SECTION
  2
BLOCKS
  0
BLOCK
  5
D
100
AcDbEntity
  8
0
390
0
100
AcDbBlockBegin
  2
*MODEL_SPACE
 70
               0
 10
0.0
 20
0.0
 30
0.0
  3
*MODEL_SPACE
  1

  0
ENDBLK
  5
E
100
AcDbEntity
  8
0
390
0
100
AcDbBlockEnd
  0
BLOCK
  5
F
100
AcDbEntity
 67
               1
  8
0
390
0
100
AcDbBlockBegin
  2
*PAPER_SPACE
 70
               0
 10
0.0
 20
0.0
 30
0.0
  3
*PAPER_SPACE
  1

  0
ENDBLK
  5
10
100
AcDbEntity
 67
               1
  8
0
390
0
100
AcDbBlockEnd
  0
BLOCK
  5
52
100
AcDbEntity
  8
0
370
              -2
390
0
  6
ByBlock
 62
               0
100
AcDbBlockBegin
  2
VW_FILLEDARROW
 70
               0
 10
0.0
 20
0.0
 30
0.0
  3
VW_FILLEDARROW
  1

  0
SOLID
  5
53
100
AcDbEntity
  8
0
370
              -2
390
0
 62
               0
100
AcDbTrace
 10
0.0
 20
0.0
 30
0.0
 11
-0.9999389648437499
 21
-0.2679328381102956
 31
0.0
 12
-0.9999389648437499
 22
0.2679328381102958
 32
0.0
 13
-0.9999389648437499
 23
0.2679328381102958
 33
0.0
  0
ENDBLK
  5
54
100
AcDbEntity
  8
0
390
0
100
AcDbBlockEnd
  0
BLOCK
  5
56
100
AcDbEntity
  8
0
370
              -2
390
0
  6
ByBlock
 62
               0
100
AcDbBlockBegin
  2
VW_FILLEDARROW-1
 70
               0
 10
0.0
 20
0.0
 30
0.0
  3
VW_FILLEDARROW
  1

  0
SOLID
  5
57
100
AcDbEntity
  8
0
370
              -2
390
0
 62
               0
100
AcDbTrace
 10
0.0
 20
0.0
 30
0.0
 11
-0.6650756835937499
 21
-0.1782064923245222
 31
0.0
 12
-0.6650756835937498
 22
0.1782064923245224
 32
0.0
 13
-0.6650756835937498
 23
0.1782064923245224
 33
0.0
  0
ENDBLK
  5
58
100
AcDbEntity
  8
0
390
0
100
AcDbBlockEnd
  0
BLOCK
  5
5B
100
AcDbEntity
  8
0
370
              -2
390
0
  6
ByBlock
 62
               0
100
AcDbBlockBegin
  2
VW_SLASH
 70
               0
 10
0.0
 20
0.0
 30
0.0
  3
VW_SLASH
  1

  0
LINE
  5
5C
100
AcDbEntity
  8
0
370
              -2
390
0
  6
ByBlock
 62
               0
100
AcDbLine
 10
0.0
 20
0.0
 30
0.0
 11
-1.0
 21
0.0
 31
0.0
  0
LINE
  5
5D
100
AcDbEntity
  8
0
370
              20
390
0
  6
ByBlock
 62
               0
100
AcDbLine
 10
-0.499877537989201
 20
-0.4998775379892008
 30
0.0
 11
0.499877537989201
 21
0.4998775379892008
 31
0.0
  0
ENDBLK
  5
5E
100
AcDbEntity
  8
0
390
0
100
AcDbBlockEnd
  0
BLOCK
  5
60
100
AcDbEntity
  8
Dimension
390
0
100
AcDbBlockBegin
  2
*D3
 70
               1
 10
0.0
 20
0.0
 30
0.0
  3
*D3
  1

  0
LINE
  5
61
100
AcDbEntity
  8
Dimension
370
              -2
390
0
  6
Continuous
 62
               0
100
AcDbLine
 10
-8.1524983905377759
 20
12.582322158781853
 30
0.0
 11
-8.1524983905377759
 21
28.949529999999999
 31
0.0
  0
LINE
  5
62
100
AcDbEntity
  8
Dimension
370
              -2
390
0
  6
Continuous
 62
               0
100
AcDbLine
 10
-9.4024983905377759
 20
13.304009995268881
 30
0.0
 11
-9.4024983905377759
 21
28.949529999999999
 31
0.0
  0
LINE
  5
63
100
AcDbEntity
  8
Dimension
370
              -2
390
0
  6
Continuous
 62
               0
100
AcDbLine
 10
-9.4024983905377759
 20
25.139529990537763
 30
0.0
 11
-8.1524983905377759
 21
25.139529990537763
 31
0.0
  0
LINE
  5
64
100
AcDbEntity
  8
Dimension
370
              -2
390
0
  6
Continuous
 62
               0
100
AcDbLine
 10
-8.1524983905377759
 20
25.139529990537763
 30
0.0
 11
2.8000000000000007
 21
25.139529990537763
 31
0.0
  0
SOLID
  5
65
100
AcDbEntity
  8
Dimension
370
              -2
390
0
 62
               0
100
AcDbTrace
 10
-8.1524983905377759
 20
25.139529990537763
 30
0.0
 11
-4.9774983905377761
 21
25.990268676506577
 31
0.0
 12
-4.9774983905377761
 22
24.288791304568949
 32
0.0
 13
-4.9774983905377761
 23
24.288791304568949
 33
0.0
  0
LINE
  5
66
100
AcDbEntity
  8
Dimension
370
              -2
390
0
  6
Continuous
 62
               0
100
AcDbLine
 10
-9.4024983905377759
 20
25.139529990537763
 30
0.0
 11
-16.402484384005046
 21
25.139529990537763
 31
0.0
  0
SOLID
  5
67
100
AcDbEntity
  8
Dimension
370
              -2
390
0
 62
               0
100
AcDbTrace
 10
-9.4024983905377759
 20
25.139529990537763
 30
0.0
 11
-12.577498390537777
 21
24.288791304568949
 31
0.0
 12
-12.577498390537775
 22
25.990268676506577
 32
0.0
 13
-12.577498390537775
 23
25.990268676506577
 33
0.0
  0
MTEXT
  5
68
100
AcDbEntity
  8
Dimension
390
0
 62
               0
100
AcDbMText
 10
2.7999999999999989
 20
26.243430453500725
 30
0.0
 40
2.0211226851851847
 41
0.0
 71
               1
 72
               1
  1
1.25mm
  7
New Century Schlbk
 73
               1
 44
0.9673603504928809
  0
MTEXT
  5
69
100
AcDbEntity
  8
Dimension
390
0
 62
               0
100
AcDbMText
 10
13.072888512081567
 20
26.243430453500725
 30
0.0
 40
2.0211226851851847
 41
0.0
 71
               1
 72
               1
  1
±0.13mm
  7
New Century Schlbk
 73
               1
 44
0.9673603504928809
  0
MTEXT
  5
6A
100
AcDbEntity
  8
Dimension
390
0
 62
               0
100
AcDbMText
 10
24.897999784681531
 20
26.243430453500725
 30
0.0
 40
2.0211226851851847
 41
0.0
 71
               1
 72
               1
  1
 (x4)
  7
New Century Schlbk
 73
               1
 44
0.9673603504928809
  0
POINT
  5
6B
100
AcDbEntity
  8
Defpoints
370
               0
390
0
 62
               0
100
AcDbPoint
 10
-9.4024983905377759
 20
11.399009990537763
 30
0.0
  0
POINT
  5
6C
100
AcDbEntity
  8
Defpoints
370
               0
390
0
 62
               0
100
AcDbPoint
 10
-8.1524983905377759
 20
10.677322154050735
 30
0.0
  0
POINT
  5
6D
100
AcDbEntity
  8
Defpoints
370
               0
390
0
 62
               0
100
AcDbPoint
 10
-8.1524983905377759
 20
25.139529990537763
 30
0.0
  0
ENDBLK
  5
6E
100
AcDbEntity
  8
Dimension
390
0
100
AcDbBlockEnd
  0
BLOCK
  5
6F
100
AcDbEntity
  8
Dimension
390
0
100
AcDbBlockBegin
  2
*D4
 70
               1
 10
0.0
 20
0.0
 30
0.0
  3
*D4
  1

  0
LINE
  5
70
100
AcDbEntity
  8
Dimension
370
              -2
390
0
  6
Continuous
 62
               0
100
AcDbLine
 10
-11.307498395268894
 20
11.399009990537763
 30
0.0
 11
-48.774223659065512
 21
11.399009990537763
 31
0.0
  0
LINE
  5
71
100
AcDbEntity
  8
Dimension
370
              -2
390
0
  6
Continuous
 62
               0
100
AcDbLine
 10
-10.912498395268894
 20
10.149009990537763
 30
0.0
 11
-48.774223659065505
 21
10.149009990537763
 31
0.0
  0
LINE
  5
72
100
AcDbEntity
  8
Dimension
370
              -2
390
0
  6
Continuous
 62
               0
100
AcDbLine
 10
-44.964223649603269
 20
10.149009990537763
 30
0.0
 11
-44.964223649603269
 21
11.399009990537763
 31
0.0
  0
LINE
  5
73
100
AcDbEntity
  8
Dimension
370
              -2
390
0
  6
Continuous
 62
               0
100
AcDbLine
 10
-44.964223649603269
 20
11.399009990537763
 30
0.0
 11
-44.964223649603269
 21
21.577222222222225
 31
0.0
  0
SOLID
  5
74
100
AcDbEntity
  8
Dimension
370
              -2
390
0
 62
               0
100
AcDbTrace
 10
-44.964223649603269
 20
11.399009990537763
 30
0.0
 11
-45.814962335572083
 21
14.574009990537764
 31
0.0
 12
-44.113484963634455
 22
14.574009990537764
 32
0.0
 13
-44.113484963634455
 23
14.574009990537764
 33
0.0
  0
LINE
  5
75
100
AcDbEntity
  8
Dimension
370
              -2
390
0
  6
Continuous
 62
               0
100
AcDbLine
 10
-44.964223649603269
 20
10.149009990537763
 30
0.0
 11
-44.964223649603269
 21
3.1490239970704925
 31
0.0
  0
SOLID
  5
76
100
AcDbEntity
  8
Dimension
370
              -2
390
0
 62
               0
100
AcDbTrace
 10
-44.964223649603269
 20
10.149009990537763
 30
0.0
 11
-44.113484963634455
 21
6.9740099905377626
 31
0.0
 12
-45.814962335572083
 22
6.9740099905377635
 32
0.0
 13
-45.814962335572083
 23
6.9740099905377635
 33
0.0
  0
MTEXT
  5
77
100
AcDbEntity
  8
Dimension
390
0
 62
               0
100
AcDbMText
 10
-58.821334666512548
 20
22.681122685185187
 30
0.0
 40
2.0211226851851847
 41
0.0
 71
               1
 72
               1
  1
1.25mm
  7
New Century Schlbk
 73
               1
 44
0.9673603504928809
  0
MTEXT
  5
78
100
AcDbEntity
  8
Dimension
390
0
 62
               0
100
AcDbMText
 10
-48.548446154430977
 20
22.681122685185187
 30
0.0
 40
2.0211226851851847
 41
0.0
 71
               1
 72
               1
  1
±0.13mm
  7
New Century Schlbk
 73
               1
 44
0.9673603504928809
  0
MTEXT
  5
79
100
AcDbEntity
  8
Dimension
390
0
 62
               0
100
AcDbMText
 10
-36.723334881831022
 20
22.681122685185187
 30
0.0
 40
2.0211226851851847
 41
0.0
 71
               1
 72
               1
  1
 (x4)
  7
New Century Schlbk
 73
               1
 44
0.9673603504928809
  0
POINT
  5
7A
100
AcDbEntity
  8
Defpoints
370
               0
390
0
 62
               0
100
AcDbPoint
 10
-9.0074983905377763
 20
10.149009990537763
 30
0.0
  0
POINT
  5
7B
100
AcDbEntity
  8
Defpoints
370
               0
390
0
 62
               0
100
AcDbPoint
 10
-9.4024983905377759
 20
11.399009990537763
 30
0.0
  0
POINT
  5
7C
100
AcDbEntity
  8
Defpoints
370
               0
390
0
 62
               0
100
AcDbPoint
 10
-44.964223649603269
 20
11.399009990537763
 30
0.0
  0
ENDBLK
  5
7D
100
AcDbEntity
  8
Dimension
390
0
100
AcDbBlockEnd
  0
BLOCK
  5
7E
100
AcDbEntity
  8
Dimension
390
0
100
AcDbBlockBegin
  2
*D5
 70
               1
 10
0.0
 20
0.0
 30
0.0
  3
*D5
  1

  0
LINE
  5
7F
100
AcDbEntity
  8
Dimension
370
              -2
390
0
  6
Continuous
 62
               0
100
AcDbLine
 10
-9.4024983905377759
 20
-5.7309900141933499
 30
0.0
 11
-9.4024983905377759
 21
-34.210000009462235
 31
0.0
  0
LINE
  5
80
100
AcDbEntity
  8
Dimension
370
              -2
390
0
  6
Continuous
 62
               0
100
AcDbLine
 10
5.8225016094622237
 20
-5.7309900141933499
 30
0.0
 11
5.8225016094622237
 21
-34.210000009462242
 31
0.0
  0
LINE
  5
81
100
AcDbEntity
  8
Dimension
370
              -2
390
0
  6
Continuous
 62
               0
100
AcDbLine
 10
5.8225016094622237
 20
-30.400000000000002
 30
0.0
 11
-9.4024983905377759
 21
-30.400000000000002
 31
0.0
  0
LINE
  5
82
100
AcDbEntity
  8
Dimension
370
              -2
390
0
  6
Continuous
 62
               0
100
AcDbLine
 10
-9.4024983905377759
 20
-30.400000000000002
 30
0.0
 11
-16.402484384005046
 21
-30.400000000000002
 31
0.0
  0
SOLID
  5
83
100
AcDbEntity
  8
Dimension
370
              -2
390
0
 62
               0
100
AcDbTrace
 10
-9.4024983905377759
 20
-30.400000000000002
 30
0.0
 11
-12.577498390537777
 21
-31.250738685968816
 31
0.0
 12
-12.577498390537775
 22
-29.549261314031188
 32
0.0
 13
-12.577498390537775
 23
-29.549261314031188
 33
0.0
  0
LINE
  5
84
100
AcDbEntity
  8
Dimension
370
              -2
390
0
  6
Continuous
 62
               0
100
AcDbLine
 10
5.8225016094622237
 20
-30.400000000000002
 30
0.0
 11
14.4
 21
-30.400000000000002
 31
0.0
  0
SOLID
  5
85
100
AcDbEntity
  8
Dimension
370
              -2
390
0
 62
               0
100
AcDbTrace
 10
5.8225016094622237
 20
-30.400000000000002
 30
0.0
 11
8.9975016094622227
 21
-29.549261314031188
 31
0.0
 12
8.9975016094622227
 22
-31.250738685968816
 32
0.0
 13
8.9975016094622227
 23
-31.250738685968816
 33
0.0
  0
MTEXT
  5
86
100
AcDbEntity
  8
Dimension
390
0
 62
               0
100
AcDbMText
 10
14.400000000000002
 20
-29.296099537037044
 30
0.0
 40
2.0211226851851847
 41
0.0
 71
               1
 72
               1
  1
15.225mm
  7
New Century Schlbk
 73
               1
 44
0.9673603504928809
  0
MTEXT
  5
87
100
AcDbEntity
  8
Dimension
390
0
 62
               0
100
AcDbMText
 10
27.833777077992757
 20
-29.296099537037044
 30
0.0
 40
2.0211226851851847
 41
0.0
 71
               1
 72
               1
  1
±0.125mm
  7
New Century Schlbk
 73
               1
 44
0.9673603504928809
  0
MTEXT
  5
88
100
AcDbEntity
  8
Dimension
390
0
 62
               0
100
AcDbMText
 10
41.239332633548315
 20
-29.296099537037044
 30
0.0
 40
2.0211226851851847
 41
0.0
 71
               1
 72
               1
  1
 (x4)
  7
New Century Schlbk
 73
               1
 44
0.9673603504928809
  0
POINT
  5
89
100
AcDbEntity
  8
Defpoints
370
               0
390
0
 62
               0
100
AcDbPoint
 10
5.8225016094622237
 20
-3.825990009462231
 30
0.0
  0
POINT
  5
8A
100
AcDbEntity
  8
Defpoints
370
               0
390
0
 62
               0
100
AcDbPoint
 10
-9.4024983905377759
 20
-3.825990009462231
 30
0.0
  0
POINT
  5
8B
100
AcDbEntity
  8
Defpoints
370
               0
390
0
 62
               0
100
AcDbPoint
 10
-9.4024983905377759
 20
-30.400000000000002
 30
0.0
  0
ENDBLK
  5
8C
100
AcDbEntity
  8
Dimension
390
0
100
AcDbBlockEnd
  0
BLOCK
  5
8D
100
AcDbEntity
  8
Dimension
390
0
100
AcDbBlockBegin
  2
*D6
 70
               1
 10
0.0
 20
0.0
 30
0.0
  3
*D6
  1

  0
LINE
  5
8E
100
AcDbEntity
  8
Dimension
370
              -2
390
0
  6
Continuous
 62
               0
100
AcDbLine
 10
-8.1524983905377759
 20
-4.4809900141933499
 30
0.0
 11
-8.1524983905377759
 21
-27.432777787240017
 31
0.0
  0
LINE
  5
8F
100
AcDbEntity
  8
Dimension
370
              -2
390
0
  6
Continuous
 62
               0
100
AcDbLine
 10
4.5725016094622237
 20
-4.4809900141933499
 30
0.0
 11
4.5725016094622237
 21
-27.432777787240017
 31
0.0
  0
LINE
  5
90
100
AcDbEntity
  8
Dimension
370
              -2
390
0
  6
Continuous
 62
               0
100
AcDbLine
 10
4.5725016094622237
 20
-23.622777777777781
 30
0.0
 11
-8.1524983905377759
 21
-23.622777777777781
 31
0.0
  0
LINE
  5
91
100
AcDbEntity
  8
Dimension
370
              -2
390
0
  6
Continuous
 62
               0
100
AcDbLine
 10
-8.1524983905377759
 20
-23.622777777777781
 30
0.0
 11
-15.152484384005046
 21
-23.622777777777781
 31
0.0
  0
SOLID
  5
92
100
AcDbEntity
  8
Dimension
370
              -2
390
0
 62
               0
100
AcDbTrace
 10
-8.1524983905377759
 20
-23.622777777777781
 30
0.0
 11
-11.327498390537777
 21
-24.473516463746595
 31
0.0
 12
-11.327498390537775
 22
-22.772039091808967
 32
0.0
 13
-11.327498390537775
 23
-22.772039091808967
 33
0.0
  0
LINE
  5
93
100
AcDbEntity
  8
Dimension
370
              -2
390
0
  6
Continuous
 62
               0
100
AcDbLine
 10
4.5725016094622237
 20
-23.622777777777781
 30
0.0
 11
14.200000000000001
 21
-23.622777777777781
 31
0.0
  0
SOLID
  5
94
100
AcDbEntity
  8
Dimension
370
              -2
390
0
 62
               0
100
AcDbTrace
 10
4.5725016094622237
 20
-23.622777777777781
 30
0.0
 11
7.7475016094622235
 21
-22.772039091808967
 31
0.0
 12
7.7475016094622235
 22
-24.473516463746595
 32
0.0
 13
7.7475016094622235
 23
-24.473516463746595
 33
0.0
  0
MTEXT
  5
95
100
AcDbEntity
  8
Dimension
390
0
 62
               0
100
AcDbMText
 10
14.200000000000001
 20
-22.518877314814819
 30
0.0
 40
2.0211226851851847
 41
0.0
 71
               1
 72
               1
  1
12.725mm (x4)
  7
New Century Schlbk
 73
               1
 44
0.9673603504928809
  0
POINT
  5
96
100
AcDbEntity
  8
Defpoints
370
               0
390
0
 62
               0
100
AcDbPoint
 10
4.5725016094622237
 20
-2.575990009462231
 30
0.0
  0
POINT
  5
97
100
AcDbEntity
  8
Defpoints
370
               0
390
0
 62
               0
100
AcDbPoint
 10
-8.1524983905377759
 20
-2.575990009462231
 30
0.0
  0
POINT
  5
98
100
AcDbEntity
  8
Defpoints
370
               0
390
0
 62
               0
100
AcDbPoint
 10
-8.1524983905377759
 20
-23.622777777777781
 30
0.0
  0
ENDBLK
  5
99
100
AcDbEntity
  8
Dimension
390
0
100
AcDbBlockEnd
  0
BLOCK
  5
9A
100
AcDbEntity
  8
Dimension
390
0
100
AcDbBlockBegin
  2
*D7
 70
               1
 10
0.0
 20
0.0
 30
0.0
  3
*D7
  1

  0
LINE
  5
9B
100
AcDbEntity
  8
Dimension
370
              -2
390
0
  6
Continuous
 62
               0
100
AcDbLine
 10
-10.55749714510803
 20
10.149009990537763
 30
0.0
 11
-26.610000009462237
 21
10.149009990537763
 31
0.0
  0
LINE
  5
9C
100
AcDbEntity
  8
Dimension
370
              -2
390
0
  6
Continuous
 62
               0
100
AcDbLine
 10
-7.1199971451080364
 20
6.7115099905377704
 30
0.0
 11
-26.610000009462233
 21
6.7115099905377704
 31
0.0
  0
LINE
  5
9D
100
AcDbEntity
  8
Dimension
370
              -2
390
0
  6
Continuous
 62
               0
100
AcDbLine
 10
-22.799999999999997
 20
6.7115099905377704
 30
0.0
 11
-22.800000000000001
 21
10.149009990537763
 31
0.0
  0
LINE
  5
9E
100
AcDbEntity
  8
Dimension
370
              -2
390
0
  6
Continuous
 62
               0
100
AcDbLine
 10
-22.800000000000001
 20
10.149009990537763
 30
0.0
 11
-22.800000000000001
 21
18.600000000000001
 31
0.0
  0
SOLID
  5
9F
100
AcDbEntity
  8
Dimension
370
              -2
390
0
 62
               0
100
AcDbTrace
 10
-22.800000000000001
 20
10.149009990537763
 30
0.0
 11
-23.650738685968815
 21
13.324009990537764
 31
0.0
 12
-21.949261314031187
 22
13.324009990537764
 32
0.0
 13
-21.949261314031187
 23
13.324009990537764
 33
0.0
  0
LINE
  5
A0
100
AcDbEntity
  8
Dimension
370
              -2
390
0
  6
Continuous
 62
               0
100
AcDbLine
 10
-22.799999999999997
 20
6.7115099905377704
 30
0.0
 11
-22.799999999999997
 21
-0.2884760029295004
 31
0.0
  0
SOLID
  5
A1
100
AcDbEntity
  8
Dimension
370
              -2
390
0
 62
               0
100
AcDbTrace
 10
-22.799999999999997
 20
6.7115099905377704
 30
0.0
 11
-21.949261314031183
 21
3.5365099905377702
 31
0.0
 12
-23.650738685968811
 22
3.5365099905377706
 32
0.0
 13
-23.650738685968811
 23
3.5365099905377706
 33
0.0
  0
MTEXT
  5
A2
100
AcDbEntity
  8
Dimension
390
0
 62
               0
100
AcDbMText
 10
-29.51688853899638
 20
19.703900462962963
 30
0.0
 40
2.0211226851851847
 41
0.0
 71
               1
 72
               1
  1
3.4375mm
  7
New Century Schlbk
 73
               1
 44
0.9673603504928809
  0
POINT
  5
A3
100
AcDbEntity
  8
Defpoints
370
               0
390
0
 62
               0
100
AcDbPoint
 10
-5.2149971403769175
 20
6.7115099905377704
 30
0.0
  0
POINT
  5
A4
100
AcDbEntity
  8
Defpoints
370
               0
390
0
 62
               0
100
AcDbPoint
 10
-8.6524971403769122
 20
10.149009990537763
 30
0.0
  0
POINT
  5
A5
100
AcDbEntity
  8
Defpoints
370
               0
390
0
 62
               0
100
AcDbPoint
 10
-22.800000000000001
 20
10.149009990537763
 30
0.0
  0
ENDBLK
  5
A6
100
AcDbEntity
  8
Dimension
390
0
100
AcDbBlockEnd
  0
BLOCK
  5
A7
100
AcDbEntity
  8
Dimension
390
0
100
AcDbBlockBegin
  2
*D8
 70
               1
 10
0.0
 20
0.0
 30
0.0
  3
*D8
  1

  0
LINE
  5
A8
100
AcDbEntity
  8
Dimension
370
              -2
390
0
  6
Continuous
 62
               0
100
AcDbLine
 10
-4.5899983905377759
 20
-1.2634900141933521
 30
0.0
 11
-4.5899983905377759
 21
-16.610000009462237
 31
0.0
  0
LINE
  5
A9
100
AcDbEntity
  8
Dimension
370
              -2
390
0
  6
Continuous
 62
               0
100
AcDbLine
 10
1.0100016094622224
 20
-1.2634900141933521
 30
0.0
 11
1.0100016094622224
 21
-16.610000009462237
 31
0.0
  0
LINE
  5
AA
100
AcDbEntity
  8
Dimension
370
              -2
390
0
  6
Continuous
 62
               0
100
AcDbLine
 10
1.0100016094622224
 20
-12.799999999999999
 30
0.0
 11
-4.5899983905377759
 21
-12.799999999999999
 31
0.0
  0
LINE
  5
AB
100
AcDbEntity
  8
Dimension
370
              -2
390
0
  6
Continuous
 62
               0
100
AcDbLine
 10
-4.5899983905377759
 20
-12.799999999999999
 30
0.0
 11
-11.589984384005046
 21
-12.799999999999999
 31
0.0
  0
SOLID
  5
AC
100
AcDbEntity
  8
Dimension
370
              -2
390
0
 62
               0
100
AcDbTrace
 10
-4.5899983905377759
 20
-12.799999999999999
 30
0.0
 11
-7.7649983905377757
 21
-13.650738685968813
 31
0.0
 12
-7.7649983905377749
 22
-11.949261314031183
 32
0.0
 13
-7.7649983905377749
 23
-11.949261314031183
 33
0.0
  0
LINE
  5
AD
100
AcDbEntity
  8
Dimension
370
              -2
390
0
  6
Continuous
 62
               0
100
AcDbLine
 10
1.0100016094622224
 20
-12.799999999999999
 30
0.0
 11
12.600000000000001
 21
-12.799999999999999
 31
0.0
  0
SOLID
  5
AE
100
AcDbEntity
  8
Dimension
370
              -2
390
0
 62
               0
100
AcDbTrace
 10
1.0100016094622224
 20
-12.799999999999999
 30
0.0
 11
4.1850016094622227
 21
-11.949261314031185
 31
0.0
 12
4.1850016094622227
 22
-13.650738685968813
 32
0.0
 13
4.1850016094622227
 23
-13.650738685968813
 33
0.0
  0
MTEXT
  5
AF
100
AcDbEntity
  8
Dimension
390
0
 62
               0
100
AcDbMText
 10
12.6
 20
-11.696099537037036
 30
0.0
 40
2.0211226851851847
 41
0.0
 71
               1
 72
               1
  1
5.60mm
  7
New Century Schlbk
 73
               1
 44
0.9673603504928809
  0
POINT
  5
B0
100
AcDbEntity
  8
Defpoints
370
               0
390
0
 62
               0
100
AcDbPoint
 10
1.0100016094622224
 20
0.6415099905377666
 30
0.0
  0
POINT
  5
B1
100
AcDbEntity
  8
Defpoints
370
               0
390
0
 62
               0
100
AcDbPoint
 10
-4.5899983905377759
 20
0.6415099905377666
 30
0.0
  0
POINT
  5
B2
100
AcDbEntity
  8
Defpoints
370
               0
390
0
 62
               0
100
AcDbPoint
 10
-4.5899983905377759
 20
-12.799999999999999
 30
0.0
  0
ENDBLK
  5
B3
100
AcDbEntity
  8
Dimension
390
0
100
AcDbBlockEnd
  0
BLOCK
  5
B4
100
AcDbEntity
  8
Dimension
390
0
100
AcDbBlockBegin
  2
*D9
 70
               1
 10
0.0
 20
0.0
 30
0.0
  3
*D9
  1

  0
LINE
  5
B5
100
AcDbEntity
  8
Dimension
370
              -2
390
0
  6
Continuous
 62
               0
100
AcDbLine
 10
-4.5899983905377759
 20
9.2415087451080318
 30
0.0
 11
-4.5899983905377759
 21
35.200000000000003
 31
0.0
  0
LINE
  5
B6
100
AcDbEntity
  8
Dimension
370
              -2
390
0
  6
Continuous
 62
               0
100
AcDbLine
 10
-8.1524983905377759
 20
12.679008745108025
 30
0.0
 11
-8.1524983905377759
 21
35.200000000000003
 31
0.0
  0
LINE
  5
B7
100
AcDbEntity
  8
Dimension
370
              -2
390
0
  6
Continuous
 62
               0
100
AcDbLine
 10
-8.1524983905377759
 20
31.389999990537763
 30
0.0
 11
-4.5899983905377759
 21
31.389999990537763
 31
0.0
  0
LINE
  5
B8
100
AcDbEntity
  8
Dimension
370
              -2
390
0
  6
Continuous
 62
               0
100
AcDbLine
 10
-4.5899983905377759
 20
31.389999990537763
 30
0.0
 11
6.4000000000000004
 21
31.389999990537763
 31
0.0
  0
SOLID
  5
B9
100
AcDbEntity
  8
Dimension
370
              -2
390
0
 62
               0
100
AcDbTrace
 10
-4.5899983905377759
 20
31.389999990537763
 30
0.0
 11
-1.4149983905377761
 21
32.240738676506581
 31
0.0
 12
-1.4149983905377761
 22
30.539261304568949
 32
0.0
 13
-1.4149983905377761
 23
30.539261304568949
 33
0.0
  0
LINE
  5
BA
100
AcDbEntity
  8
Dimension
370
              -2
390
0
  6
Continuous
 62
               0
100
AcDbLine
 10
-8.1524983905377759
 20
31.389999990537763
 30
0.0
 11
-15.152484384005046
 21
31.389999990537763
 31
0.0
  0
SOLID
  5
BB
100
AcDbEntity
  8
Dimension
370
              -2
390
0
 62
               0
100
AcDbTrace
 10
-8.1524983905377759
 20
31.389999990537763
 30
0.0
 11
-11.327498390537777
 21
30.539261304568949
 31
0.0
 12
-11.327498390537775
 22
32.240738676506581
 32
0.0
 13
-11.327498390537775
 23
32.240738676506581
 33
0.0
  0
MTEXT
  5
BC
100
AcDbEntity
  8
Dimension
390
0
 62
               0
100
AcDbMText
 10
6.3999999999999995
 20
32.493900453500729
 30
0.0
 40
2.0211226851851847
 41
0.0
 71
               1
 72
               1
  1
3.5625mm
  7
New Century Schlbk
 73
               1
 44
0.9673603504928809
  0
POINT
  5
BD
100
AcDbEntity
  8
Defpoints
370
               0
390
0
 62
               0
100
AcDbPoint
 10
-8.1524983905377759
 20
10.774008740376907
 30
0.0
  0
POINT
  5
BE
100
AcDbEntity
  8
Defpoints
370
               0
390
0
 62
               0
100
AcDbPoint
 10
-4.5899983905377759
 20
7.3365087403769138
 30
0.0
  0
POINT
  5
BF
100
AcDbEntity
  8
Defpoints
370
               0
390
0
 62
               0
100
AcDbPoint
 10
-4.5899983905377759
 20
31.389999990537763
 30
0.0
  0
ENDBLK
  5
C0
100
AcDbEntity
  8
Dimension
390
0
100
AcDbBlockEnd
  0
BLOCK
  5
C1
100
AcDbEntity
  8
Dimension
390
0
100
AcDbBlockBegin
  2
*D10
 70
               1
 10
0.0
 20
0.0
 30
0.0
  3
*D10
  1

  0
LINE
  5
C2
100
AcDbEntity
  8
Dimension
370
              -2
390
0
  6
Continuous
 62
               0
100
AcDbLine
 10
4.959687225961483
 20
7.7842592369729227
 30
0.0
 11
53.599999999999994
 21
29.800000000000001
 31
0.0
  0
SOLID
  5
C3
100
AcDbEntity
  8
Dimension
370
              -2
390
0
 62
               0
100
AcDbTrace
 10
4.959687225961483
 20
7.7842592369729227
 30
0.0
 11
6.662258278194483
 21
9.1629740904512289
 31
0.0
 12
7.1235144356824165
 22
8.126975798543576
 32
0.0
 13
7.1235144356824165
 23
8.126975798543576
 33
0.0
  0
LINE
  5
C4
100
AcDbEntity
  8
Dimension
370
              -2
390
0
  6
Continuous
 62
               0
100
AcDbLine
 10
53.599999999999994
 20
29.800000000000001
 30
0.0
 11
59.599988007917993
 21
29.800000000000001
 31
0.0
  0
MTEXT
  5
C5
100
AcDbEntity
  8
Dimension
390
0
 62
               0
100
AcDbMText
 10
59.599988007917986
 20
30.903900462962962
 30
0.0
 40
2.0211226851851847
 41
0.0
 71
               1
 72
               1
  1
Ø 0.850mm
  7
New Century Schlbk
 73
               1
 44
0.9673603504928809
  0
MTEXT
  5
C6
100
AcDbEntity
  8
Dimension
390
0
 62
               0
100
AcDbMText
 10
74.444876197021856
 20
30.903900462962962
 30
0.0
 40
2.0211226851851847
 41
0.0
 71
               1
 72
               1
  1
±0.025mm
  7
New Century Schlbk
 73
               1
 44
0.9673603504928809
  0
MTEXT
  5
C7
100
AcDbEntity
  8
Dimension
390
0
 62
               0
100
AcDbMText
 10
87.850431752577407
 20
30.903900462962962
 30
0.0
 40
2.0211226851851847
 41
0.0
 71
               1
 72
               1
  1
 (x2)
  7
New Century Schlbk
 73
               1
 44
0.9673603504928809
  0
POINT
  5
C8
100
AcDbEntity
  8
Defpoints
370
               0
390
0
 62
               0
100
AcDbPoint
 10
4.1853159929629644
 20
7.4337607441026119
 30
0.0
  0
POINT
  5
C9
100
AcDbEntity
  8
Defpoints
370
               0
390
0
 62
               0
100
AcDbPoint
 10
4.959687225961483
 20
7.7842592369729227
 30
0.0
  0
ENDBLK
  5
CA
100
AcDbEntity
  8
Dimension
390
0
100
AcDbBlockEnd
  0
BLOCK
  5
CB
100
AcDbEntity
  8
Dimension
390
0
100
AcDbBlockBegin
  2
*D11
 70
               1
 10
0.0
 20
0.0
 30
0.0
  3
*D11
  1

  0
LINE
  5
CC
100
AcDbEntity
  8
Dimension
370
              -2
390
0
  6
Continuous
 62
               0
100
AcDbLine
 10
-7.3649983952688922
 20
6.9315099905377693
 30
0.0
 11
-70.862888502619327
 21
6.9315099905377693
 31
0.0
  0
LINE
  5
CD
100
AcDbEntity
  8
Dimension
370
              -2
390
0
  6
Continuous
 62
               0
100
AcDbLine
 10
-7.3649983952688922
 20
0.6415099905377666
 30
0.0
 11
-70.862888502619327
 21
0.6415099905377666
 31
0.0
  0
LINE
  5
CE
100
AcDbEntity
  8
Dimension
370
              -2
390
0
  6
Continuous
 62
               0
100
AcDbLine
 10
-67.052888493157084
 20
0.6415099905377666
 30
0.0
 11
-67.052888493157084
 21
6.9315099905377693
 31
0.0
  0
LINE
  5
CF
100
AcDbEntity
  8
Dimension
370
              -2
390
0
  6
Continuous
 62
               0
100
AcDbLine
 10
-67.052888493157084
 20
6.9315099905377693
 30
0.0
 11
-67.052888493157084
 21
13.931495984005039
 31
0.0
  0
SOLID
  5
D0
100
AcDbEntity
  8
Dimension
370
              -2
390
0
 62
               0
100
AcDbTrace
 10
-67.052888493157084
 20
6.9315099905377693
 30
0.0
 11
-67.903627179125905
 21
10.10650999053777
 31
0.0
 12
-66.202149807188263
 22
10.10650999053777
 32
0.0
 13
-66.202149807188263
 23
10.10650999053777
 33
0.0
  0
LINE
  5
D1
100
AcDbEntity
  8
Dimension
370
              -2
390
0
  6
Continuous
 62
               0
100
AcDbLine
 10
-67.052888493157084
 20
0.6415099905377666
 30
0.0
 11
-67.052888493157084
 21
-6.3584760029295042
 31
0.0
  0
SOLID
  5
D2
100
AcDbEntity
  8
Dimension
370
              -2
390
0
 62
               0
100
AcDbTrace
 10
-67.052888493157084
 20
0.6415099905377666
 30
0.0
 11
-66.202149807188277
 21
-2.5334900094622337
 31
0.0
 12
-67.903627179125905
 22
-2.5334900094622332
 32
0.0
 13
-67.903627179125905
 23
-2.5334900094622332
 33
0.0
  0
MTEXT
  5
D3
100
AcDbEntity
  8
Dimension
390
0
 62
               0
100
AcDbMText
 10
-72.189332749197874
 20
4.703900462962963
 30
0.0
 40
2.0211226851851847
 41
0.0
 71
               1
 72
               1
  1
6.29mm
  7
New Century Schlbk
 73
               1
 44
0.9673603504928809
  0
POINT
  5
D4
100
AcDbEntity
  8
Defpoints
370
               0
390
0
 62
               0
100
AcDbPoint
 10
-5.4599983905377734
 20
0.6415099905377666
 30
0.0
  0
POINT
  5
D5
100
AcDbEntity
  8
Defpoints
370
               0
390
0
 62
               0
100
AcDbPoint
 10
-5.4599983905377734
 20
6.9315099905377693
 30
0.0
  0
POINT
  5
D6
100
AcDbEntity
  8
Defpoints
370
               0
390
0
 62
               0
100
AcDbPoint
 10
-67.052888493157084
 20
6.9315099905377693
 30
0.0
  0
ENDBLK
  5
D7
100
AcDbEntity
  8
Dimension
390
0
100
AcDbBlockEnd
  0
BLOCK
  5
D8
100
AcDbEntity
  8
Dimension
390
0
100
AcDbBlockBegin
  2
*D12
 70
               1
 10
0.0
 20
0.0
 30
0.0
  3
*D12
  1

  0
LINE
  5
D9
100
AcDbEntity
  8
Dimension
370
              -2
390
0
  6
Continuous
 62
               0
100
AcDbLine
 10
-10.652498390537776
 20
-6.9809900141933499
 30
0.0
 11
-10.652498390537776
 21
-40.410000009462237
 31
0.0
  0
LINE
  5
DA
100
AcDbEntity
  8
Dimension
370
              -2
390
0
  6
Continuous
 62
               0
100
AcDbLine
 10
7.0725016094622237
 20
-6.9809900141933499
 30
0.0
 11
7.0725016094622237
 21
-40.410000009462237
 31
0.0
  0
LINE
  5
DB
100
AcDbEntity
  8
Dimension
370
              -2
390
0
  6
Continuous
 62
               0
100
AcDbLine
 10
7.0725016094622237
 20
-36.600000000000001
 30
0.0
 11
-10.652498390537776
 21
-36.600000000000001
 31
0.0
  0
LINE
  5
DC
100
AcDbEntity
  8
Dimension
370
              -2
390
0
  6
Continuous
 62
               0
100
AcDbLine
 10
-10.652498390537776
 20
-36.600000000000001
 30
0.0
 11
-17.652484384005046
 21
-36.600000000000001
 31
0.0
  0
SOLID
  5
DD
100
AcDbEntity
  8
Dimension
370
              -2
390
0
 62
               0
100
AcDbTrace
 10
-10.652498390537776
 20
-36.600000000000001
 30
0.0
 11
-13.827498390537777
 21
-37.450738685968815
 31
0.0
 12
-13.827498390537775
 22
-35.749261314031187
 32
0.0
 13
-13.827498390537775
 23
-35.749261314031187
 33
0.0
  0
LINE
  5
DE
100
AcDbEntity
  8
Dimension
370
              -2
390
0
  6
Continuous
 62
               0
100
AcDbLine
 10
7.0725016094622237
 20
-36.600000000000001
 30
0.0
 11
15.600000000000001
 21
-36.600000000000001
 31
0.0
  0
SOLID
  5
DF
100
AcDbEntity
  8
Dimension
370
              -2
390
0
 62
               0
100
AcDbTrace
 10
7.0725016094622237
 20
-36.600000000000001
 30
0.0
 11
10.247501609462223
 21
-35.749261314031187
 31
0.0
 12
10.247501609462223
 22
-37.450738685968815
 32
0.0
 13
10.247501609462223
 23
-37.450738685968815
 33
0.0
  0
MTEXT
  5
E0
100
AcDbEntity
  8
Dimension
390
0
 62
               0
100
AcDbMText
 10
15.6
 20
-35.49609953703704
 30
0.0
 40
2.0211226851851847
 41
0.0
 71
               1
 72
               1
  1
17.73mm sqr.
  7
New Century Schlbk
 73
               1
 44
0.9673603504928809
  0
POINT
  5
E1
100
AcDbEntity
  8
Defpoints
370
               0
390
0
 62
               0
100
AcDbPoint
 10
7.0725016094622237
 20
-5.075990009462231
 30
0.0
  0
POINT
  5
E2
100
AcDbEntity
  8
Defpoints
370
               0
390
0
 62
               0
100
AcDbPoint
 10
-10.652498390537776
 20
-5.075990009462231
 30
0.0
  0
POINT
  5
E3
100
AcDbEntity
  8
Defpoints
370
               0
390
0
 62
               0
100
AcDbPoint
 10
-10.652498390537776
 20
-36.600000000000001
 30
0.0
  0
ENDBLK
  5
E4
100
AcDbEntity
  8
Dimension
390
0
100
AcDbBlockEnd
  0
BLOCK
  5
E5
100
AcDbEntity
  8
Dimension
390
0
100
AcDbBlockBegin
  2
Group
 70
               0
 10
0.0
 20
0.0
 30
0.0
  3
Group
  1

  0
LINE
  5
E6
100
AcDbEntity
  8
None
370
               9
390
0
  6
Continuous
 62
              12
100
AcDbLine
 10
-5.2149971403769175
 20
6.7115099905377704
 30
0.0
 11
-3.9649996406986339
 21
6.7115099905377704
 31
0.0
  0
LINE
  5
E7
100
AcDbEntity
  8
None
370
               9
390
0
  6
Continuous
 62
              12
100
AcDbLine
 10
-4.5899983905377759
 20
6.086511240698627
 30
0.0
 11
-4.5899983905377759
 21
7.3365087403769138
 31
0.0
  0
ENDBLK
  5
E8
100
AcDbEntity
  8
Dimension
390
0
100
AcDbBlockEnd
  0
BLOCK
  5
E9
100
AcDbEntity
  8
None
390
0
100
AcDbBlockBegin
  2
Group-1
 70
               0
 10
0.0
 20
0.0
 30
0.0
  3
Group-1
  1

  0
POLYLINE
  5
EA
100
AcDbEntity
  8
None
370
               9
390
0
  6
Continuous
100
AcDb2dPolyline
 66
               1
 10
0.0
 20
0.0
 30
0.0
 70
               1
 75
               5
  0
VERTEX
  5
EB
100
AcDbEntity
  8
None
370
               9
390
0
  6
Continuous
100
AcDbVertex
100
AcDb2dVertex
 10
-5.4599983905377734
 20
1.0815099905377714
 30
0.0
  0
VERTEX
  5
EC
100
AcDbEntity
  8
None
370
               9
390
0
  6
Continuous
100
AcDbVertex
100
AcDb2dVertex
 10
-3.719998390537778
 20
1.0815099905377714
 30
0.0
  0
VERTEX
  5
ED
100
AcDbEntity
  8
None
370
               9
390
0
  6
Continuous
100
AcDbVertex
100
AcDb2dVertex
 10
-3.719998390537778
 20
0.6415099905377666
 30
0.0
  0
VERTEX
  5
EE
100
AcDbEntity
  8
None
370
               9
390
0
  6
Continuous
100
AcDbVertex
100
AcDb2dVertex
 10
-5.4599983905377734
 20
0.6415099905377666
 30
0.0
  0
SEQEND
  5
EF
100
AcDbEntity
  8
None
370
               9
390
0
  6
Continuous
  0
POLYLINE
  5
F0
100
AcDbEntity
  8
None
370
               9
390
0
  6
Continuous
100
AcDb2dPolyline
 66
               1
 10
0.0
 20
0.0
 30
0.0
 70
               1
 75
               5
  0
VERTEX
  5
F1
100
AcDbEntity
  8
None
370
               9
390
0
  6
Continuous
100
AcDbVertex
100
AcDb2dVertex
 10
-5.4599983905377734
 20
1.73150999053777
 30
0.0
  0
VERTEX
  5
F2
100
AcDbEntity
  8
None
370
               9
390
0
  6
Continuous
100
AcDbVertex
100
AcDb2dVertex
 10
-3.719998390537778
 20
1.73150999053777
 30
0.0
  0
VERTEX
  5
F3
100
AcDbEntity
  8
None
370
               9
390
0
  6
Continuous
100
AcDbVertex
100
AcDb2dVertex
 10
-3.719998390537778
 20
1.2915099905377652
 30
0.0
  0
VERTEX
  5
F4
100
AcDbEntity
  8
None
370
               9
390
0
  6
Continuous
100
AcDbVertex
100
AcDb2dVertex
 10
-5.4599983905377734
 20
1.2915099905377652
 30
0.0
  0
SEQEND
  5
F5
100
AcDbEntity
  8
None
370
               9
390
0
  6
Continuous
  0
POLYLINE
  5
F6
100
AcDbEntity
  8
None
370
               9
390
0
  6
Continuous
100
AcDb2dPolyline
 66
               1
 10
0.0
 20
0.0
 30
0.0
 70
               1
 75
               5
  0
VERTEX
  5
F7
100
AcDbEntity
  8
None
370
               9
390
0
  6
Continuous
100
AcDbVertex
100
AcDb2dVertex
 10
-5.4599983905377734
 20
2.3815099905377686
 30
0.0
  0
VERTEX
  5
F8
100
AcDbEntity
  8
None
370
               9
390
0
  6
Continuous
100
AcDbVertex
100
AcDb2dVertex
 10
-3.719998390537778
 20
2.3815099905377686
 30
0.0
  0
VERTEX
  5
F9
100
AcDbEntity
  8
None
370
               9
390
0
  6
Continuous
100
AcDbVertex
100
AcDb2dVertex
 10
-3.719998390537778
 20
1.9415099905377708
 30
0.0
  0
VERTEX
  5
FA
100
AcDbEntity
  8
None
370
               9
390
0
  6
Continuous
100
AcDbVertex
100
AcDb2dVertex
 10
-5.4599983905377734
 20
1.9415099905377708
 30
0.0
  0
SEQEND
  5
FB
100
AcDbEntity
  8
None
370
               9
390
0
  6
Continuous
  0
POLYLINE
  5
FC
100
AcDbEntity
  8
None
370
               9
390
0
  6
Continuous
100
AcDb2dPolyline
 66
               1
 10
0.0
 20
0.0
 30
0.0
 70
               1
 75
               5
  0
VERTEX
  5
FD
100
AcDbEntity
  8
None
370
               9
390
0
  6
Continuous
100
AcDbVertex
100
AcDb2dVertex
 10
-5.4599983905377734
 20
3.0315099905377672
 30
0.0
  0
VERTEX
  5
FE
100
AcDbEntity
  8
None
370
               9
390
0
  6
Continuous
100
AcDbVertex
100
AcDb2dVertex
 10
-3.719998390537778
 20
3.0315099905377672
 30
0.0
  0
VERTEX
  5
FF
100
AcDbEntity
  8
None
370
               9
390
0
  6
Continuous
100
AcDbVertex
100
AcDb2dVertex
 10
-3.719998390537778
 20
2.5915099905377694
 30
0.0
  0
VERTEX
  5
100
100
AcDbEntity
  8
None
370
               9
390
0
  6
Continuous
100
AcDbVertex
100
AcDb2dVertex
 10
-5.4599983905377734
 20
2.5915099905377694
 30
0.0
  0
SEQEND
  5
101
100
AcDbEntity
  8
None
370
               9
390
0
  6
Continuous
  0
POLYLINE
  5
102
100
AcDbEntity
  8
None
370
               9
390
0
  6
Continuous
100
AcDb2dPolyline
 66
               1
 10
0.0
 20
0.0
 30
0.0
 70
               1
 75
               5
  0
VERTEX
  5
103
100
AcDbEntity
  8
None
370
               9
390
0
  6
Continuous
100
AcDbVertex
100
AcDb2dVertex
 10
-5.4599983905377734
 20
3.6815099905377728
 30
0.0
  0
VERTEX
  5
104
100
AcDbEntity
  8
None
370
               9
390
0
  6
Continuous
100
AcDbVertex
100
AcDb2dVertex
 10
-3.719998390537778
 20
3.6815099905377728
 30
0.0
  0
VERTEX
  5
105
100
AcDbEntity
  8
None
370
               9
390
0
  6
Continuous
100
AcDbVertex
100
AcDb2dVertex
 10
-3.719998390537778
 20
3.241509990537768
 30
0.0
  0
VERTEX
  5
106
100
AcDbEntity
  8
None
370
               9
390
0
  6
Continuous
100
AcDbVertex
100
AcDb2dVertex
 10
-5.4599983905377734
 20
3.241509990537768
 30
0.0
  0
SEQEND
  5
107
100
AcDbEntity
  8
None
370
               9
390
0
  6
Continuous
  0
POLYLINE
  5
108
100
AcDbEntity
  8
None
370
               9
390
0
  6
Continuous
100
AcDb2dPolyline
 66
               1
 10
0.0
 20
0.0
 30
0.0
 70
               1
 75
               5
  0
VERTEX
  5
109
100
AcDbEntity
  8
None
370
               9
390
0
  6
Continuous
100
AcDbVertex
100
AcDb2dVertex
 10
-5.4599983905377734
 20
4.3315099905377714
 30
0.0
  0
VERTEX
  5
10A
100
AcDbEntity
  8
None
370
               9
390
0
  6
Continuous
100
AcDbVertex
100
AcDb2dVertex
 10
-3.719998390537778
 20
4.3315099905377714
 30
0.0
  0
VERTEX
  5
10B
100
AcDbEntity
  8
None
370
               9
390
0
  6
Continuous
100
AcDbVertex
100
AcDb2dVertex
 10
-3.719998390537778
 20
3.8915099905377666
 30
0.0
  0
VERTEX
  5
10C
100
AcDbEntity
  8
None
370
               9
390
0
  6
Continuous
100
AcDbVertex
100
AcDb2dVertex
 10
-5.4599983905377734
 20
3.8915099905377666
 30
0.0
  0
SEQEND
  5
10D
100
AcDbEntity
  8
None
370
               9
390
0
  6
Continuous
  0
POLYLINE
  5
10E
100
AcDbEntity
  8
None
370
               9
390
0
  6
Continuous
100
AcDb2dPolyline
 66
               1
 10
0.0
 20
0.0
 30
0.0
 70
               1
 75
               5
  0
VERTEX
  5
10F
100
AcDbEntity
  8
None
370
               9
390
0
  6
Continuous
100
AcDbVertex
100
AcDb2dVertex
 10
-5.4599983905377734
 20
4.9815099905377664
 30
0.0
  0
VERTEX
  5
110
100
AcDbEntity
  8
None
370
               9
390
0
  6
Continuous
100
AcDbVertex
100
AcDb2dVertex
 10
-3.719998390537778
 20
4.9815099905377664
 30
0.0
  0
VERTEX
  5
111
100
AcDbEntity
  8
None
370
               9
390
0
  6
Continuous
100
AcDbVertex
100
AcDb2dVertex
 10
-3.719998390537778
 20
4.5415099905377652
 30
0.0
  0
VERTEX
  5
112
100
AcDbEntity
  8
None
370
               9
390
0
  6
Continuous
100
AcDbVertex
100
AcDb2dVertex
 10
-5.4599983905377734
 20
4.5415099905377652
 30
0.0
  0
SEQEND
  5
113
100
AcDbEntity
  8
None
370
               9
390
0
  6
Continuous
  0
POLYLINE
  5
114
100
AcDbEntity
  8
None
370
               9
390
0
  6
Continuous
100
AcDb2dPolyline
 66
               1
 10
0.0
 20
0.0
 30
0.0
 70
               1
 75
               5
  0
VERTEX
  5
115
100
AcDbEntity
  8
None
370
               9
390
0
  6
Continuous
100
AcDbVertex
100
AcDb2dVertex
 10
-5.4599983905377734
 20
5.631509990537765
 30
0.0
  0
VERTEX
  5
116
100
AcDbEntity
  8
None
370
               9
390
0
  6
Continuous
100
AcDbVertex
100
AcDb2dVertex
 10
-3.719998390537778
 20
5.631509990537765
 30
0.0
  0
VERTEX
  5
117
100
AcDbEntity
  8
None
370
               9
390
0
  6
Continuous
100
AcDbVertex
100
AcDb2dVertex
 10
-3.719998390537778
 20
5.1915099905377673
 30
0.0
  0
VERTEX
  5
118
100
AcDbEntity
  8
None
370
               9
390
0
  6
Continuous
100
AcDbVertex
100
AcDb2dVertex
 10
-5.4599983905377734
 20
5.1915099905377673
 30
0.0
  0
SEQEND
  5
119
100
AcDbEntity
  8
None
370
               9
390
0
  6
Continuous
  0
POLYLINE
  5
11A
100
AcDbEntity
  8
None
370
               9
390
0
  6
Continuous
100
AcDb2dPolyline
 66
               1
 10
0.0
 20
0.0
 30
0.0
 70
               1
 75
               5
  0
VERTEX
  5
11B
100
AcDbEntity
  8
None
370
               9
390
0
  6
Continuous
100
AcDbVertex
100
AcDb2dVertex
 10
-5.4599983905377734
 20
6.2815099905377636
 30
0.0
  0
VERTEX
  5
11C
100
AcDbEntity
  8
None
370
               9
390
0
  6
Continuous
100
AcDbVertex
100
AcDb2dVertex
 10
-3.719998390537778
 20
6.2815099905377636
 30
0.0
  0
VERTEX
  5
11D
100
AcDbEntity
  8
None
370
               9
390
0
  6
Continuous
100
AcDbVertex
100
AcDb2dVertex
 10
-3.719998390537778
 20
5.8415099905377659
 30
0.0
  0
VERTEX
  5
11E
100
AcDbEntity
  8
None
370
               9
390
0
  6
Continuous
100
AcDbVertex
100
AcDb2dVertex
 10
-5.4599983905377734
 20
5.8415099905377659
 30
0.0
  0
SEQEND
  5
11F
100
AcDbEntity
  8
None
370
               9
390
0
  6
Continuous
  0
POLYLINE
  5
120
100
AcDbEntity
  8
None
370
               9
390
0
  6
Continuous
100
AcDb2dPolyline
 66
               1
 10
0.0
 20
0.0
 30
0.0
 70
               1
 75
               5
  0
VERTEX
  5
121
100
AcDbEntity
  8
None
370
               9
390
0
  6
Continuous
100
AcDbVertex
100
AcDb2dVertex
 10
-5.4599983905377734
 20
6.9315099905377693
 30
0.0
  0
VERTEX
  5
122
100
AcDbEntity
  8
None
370
               9
390
0
  6
Continuous
100
AcDbVertex
100
AcDb2dVertex
 10
-3.719998390537778
 20
6.9315099905377693
 30
0.0
  0
VERTEX
  5
123
100
AcDbEntity
  8
None
370
               9
390
0
  6
Continuous
100
AcDbVertex
100
AcDb2dVertex
 10
-3.719998390537778
 20
6.4915099905377716
 30
0.0
  0
VERTEX
  5
124
100
AcDbEntity
  8
None
370
               9
390
0
  6
Continuous
100
AcDbVertex
100
AcDb2dVertex
 10
-5.4599983905377734
 20
6.4915099905377716
 30
0.0
  0
SEQEND
  5
125
100
AcDbEntity
  8
None
370
               9
390
0
  6
Continuous
  0
INSERT
  5
126
100
AcDbEntity
  8
Dimension
390
0
 62
               7
100
AcDbBlockReference
  2
Group
 10
0.0
 20
0.0
 30
0.0
  0
ENDBLK
  5
127
100
AcDbEntity
  8
None
390
0
100
AcDbBlockEnd
  0
BLOCK
  5
128
100
AcDbEntity
  8
None
390
0
100
AcDbBlockBegin
  2
Group-2
 70
               0
 10
0.0
 20
0.0
 30
0.0
  3
Group-2
  1

  0
POLYLINE
  5
129
100
AcDbEntity
  8
None
370
               9
390
0
  6
Continuous
100
AcDb2dPolyline
 66
               1
 10
0.0
 20
0.0
 30
0.0
 70
               1
 75
               5
  0
VERTEX
  5
12A
100
AcDbEntity
  8
None
370
               9
390
0
  6
Continuous
100
AcDbVertex
100
AcDb2dVertex
 10
0.1400016094622214
 20
1.0815099905377714
 30
0.0
  0
VERTEX
  5
12B
100
AcDbEntity
  8
None
370
               9
390
0
  6
Continuous
100
AcDbVertex
100
AcDb2dVertex
 10
1.8800016094622234
 20
1.0815099905377714
 30
0.0
  0
VERTEX
  5
12C
100
AcDbEntity
  8
None
370
               9
390
0
  6
Continuous
100
AcDbVertex
100
AcDb2dVertex
 10
1.8800016094622234
 20
0.6415099905377666
 30
0.0
  0
VERTEX
  5
12D
100
AcDbEntity
  8
None
370
               9
390
0
  6
Continuous
100
AcDbVertex
100
AcDb2dVertex
 10
0.1400016094622214
 20
0.6415099905377666
 30
0.0
  0
SEQEND
  5
12E
100
AcDbEntity
  8
None
370
               9
390
0
  6
Continuous
  0
POLYLINE
  5
12F
100
AcDbEntity
  8
None
370
               9
390
0
  6
Continuous
100
AcDb2dPolyline
 66
               1
 10
0.0
 20
0.0
 30
0.0
 70
               1
 75
               5
  0
VERTEX
  5
130
100
AcDbEntity
  8
None
370
               9
390
0
  6
Continuous
100
AcDbVertex
100
AcDb2dVertex
 10
0.1400016094622214
 20
1.73150999053777
 30
0.0
  0
VERTEX
  5
131
100
AcDbEntity
  8
None
370
               9
390
0
  6
Continuous
100
AcDbVertex
100
AcDb2dVertex
 10
1.8800016094622234
 20
1.73150999053777
 30
0.0
  0
VERTEX
  5
132
100
AcDbEntity
  8
None
370
               9
390
0
  6
Continuous
100
AcDbVertex
100
AcDb2dVertex
 10
1.8800016094622234
 20
1.2915099905377652
 30
0.0
  0
VERTEX
  5
133
100
AcDbEntity
  8
None
370
               9
390
0
  6
Continuous
100
AcDbVertex
100
AcDb2dVertex
 10
0.1400016094622214
 20
1.2915099905377652
 30
0.0
  0
SEQEND
  5
134
100
AcDbEntity
  8
None
370
               9
390
0
  6
Continuous
  0
POLYLINE
  5
135
100
AcDbEntity
  8
None
370
               9
390
0
  6
Continuous
100
AcDb2dPolyline
 66
               1
 10
0.0
 20
0.0
 30
0.0
 70
               1
 75
               5
  0
VERTEX
  5
136
100
AcDbEntity
  8
None
370
               9
390
0
  6
Continuous
100
AcDbVertex
100
AcDb2dVertex
 10
0.1400016094622214
 20
2.3815099905377686
 30
0.0
  0
VERTEX
  5
137
100
AcDbEntity
  8
None
370
               9
390
0
  6
Continuous
100
AcDbVertex
100
AcDb2dVertex
 10
1.8800016094622234
 20
2.3815099905377686
 30
0.0
  0
VERTEX
  5
138
100
AcDbEntity
  8
None
370
               9
390
0
  6
Continuous
100
AcDbVertex
100
AcDb2dVertex
 10
1.8800016094622234
 20
1.9415099905377708
 30
0.0
  0
VERTEX
  5
139
100
AcDbEntity
  8
None
370
               9
390
0
  6
Continuous
100
AcDbVertex
100
AcDb2dVertex
 10
0.1400016094622214
 20
1.9415099905377708
 30
0.0
  0
SEQEND
  5
13A
100
AcDbEntity
  8
None
370
               9
390
0
  6
Continuous
  0
POLYLINE
  5
13B
100
AcDbEntity
  8
None
370
               9
390
0
  6
Continuous
100
AcDb2dPolyline
 66
               1
 10
0.0
 20
0.0
 30
0.0
 70
               1
 75
               5
  0
VERTEX
  5
13C
100
AcDbEntity
  8
None
370
               9
390
0
  6
Continuous
100
AcDbVertex
100
AcDb2dVertex
 10
0.1400016094622214
 20
3.0315099905377672
 30
0.0
  0
VERTEX
  5
13D
100
AcDbEntity
  8
None
370
               9
390
0
  6
Continuous
100
AcDbVertex
100
AcDb2dVertex
 10
1.8800016094622234
 20
3.0315099905377672
 30
0.0
  0
VERTEX
  5
13E
100
AcDbEntity
  8
None
370
               9
390
0
  6
Continuous
100
AcDbVertex
100
AcDb2dVertex
 10
1.8800016094622234
 20
2.5915099905377694
 30
0.0
  0
VERTEX
  5
13F
100
AcDbEntity
  8
None
370
               9
390
0
  6
Continuous
100
AcDbVertex
100
AcDb2dVertex
 10
0.1400016094622214
 20
2.5915099905377694
 30
0.0
  0
SEQEND
  5
140
100
AcDbEntity
  8
None
370
               9
390
0
  6
Continuous
  0
POLYLINE
  5
141
100
AcDbEntity
  8
None
370
               9
390
0
  6
Continuous
100
AcDb2dPolyline
 66
               1
 10
0.0
 20
0.0
 30
0.0
 70
               1
 75
               5
  0
VERTEX
  5
142
100
AcDbEntity
  8
None
370
               9
390
0
  6
Continuous
100
AcDbVertex
100
AcDb2dVertex
 10
0.1400016094622214
 20
3.6815099905377728
 30
0.0
  0
VERTEX
  5
143
100
AcDbEntity
  8
None
370
               9
390
0
  6
Continuous
100
AcDbVertex
100
AcDb2dVertex
 10
1.8800016094622234
 20
3.6815099905377728
 30
0.0
  0
VERTEX
  5
144
100
AcDbEntity
  8
None
370
               9
390
0
  6
Continuous
100
AcDbVertex
100
AcDb2dVertex
 10
1.8800016094622234
 20
3.241509990537768
 30
0.0
  0
VERTEX
  5
145
100
AcDbEntity
  8
None
370
               9
390
0
  6
Continuous
100
AcDbVertex
100
AcDb2dVertex
 10
0.1400016094622214
 20
3.241509990537768
 30
0.0
  0
SEQEND
  5
146
100
AcDbEntity
  8
None
370
               9
390
0
  6
Continuous
  0
POLYLINE
  5
147
100
AcDbEntity
  8
None
370
               9
390
0
  6
Continuous
100
AcDb2dPolyline
 66
               1
 10
0.0
 20
0.0
 30
0.0
 70
               1
 75
               5
  0
VERTEX
  5
148
100
AcDbEntity
  8
None
370
               9
390
0
  6
Continuous
100
AcDbVertex
100
AcDb2dVertex
 10
0.1400016094622214
 20
4.3315099905377714
 30
0.0
  0
VERTEX
  5
149
100
AcDbEntity
  8
None
370
               9
390
0
  6
Continuous
100
AcDbVertex
100
AcDb2dVertex
 10
1.8800016094622234
 20
4.3315099905377714
 30
0.0
  0
VERTEX
  5
14A
100
AcDbEntity
  8
None
370
               9
390
0
  6
Continuous
100
AcDbVertex
100
AcDb2dVertex
 10
1.8800016094622234
 20
3.8915099905377666
 30
0.0
  0
VERTEX
  5
14B
100
AcDbEntity
  8
None
370
               9
390
0
  6
Continuous
100
AcDbVertex
100
AcDb2dVertex
 10
0.1400016094622214
 20
3.8915099905377666
 30
0.0
  0
SEQEND
  5
14C
100
AcDbEntity
  8
None
370
               9
390
0
  6
Continuous
  0
POLYLINE
  5
14D
100
AcDbEntity
  8
None
370
               9
390
0
  6
Continuous
100
AcDb2dPolyline
 66
               1
 10
0.0
 20
0.0
 30
0.0
 70
               1
 75
               5
  0
VERTEX
  5
14E
100
AcDbEntity
  8
None
370
               9
390
0
  6
Continuous
100
AcDbVertex
100
AcDb2dVertex
 10
0.1400016094622214
 20
4.9815099905377664
 30
0.0
  0
VERTEX
  5
14F
100
AcDbEntity
  8
None
370
               9
390
0
  6
Continuous
100
AcDbVertex
100
AcDb2dVertex
 10
1.8800016094622234
 20
4.9815099905377664
 30
0.0
  0
VERTEX
  5
150
100
AcDbEntity
  8
None
370
               9
390
0
  6
Continuous
100
AcDbVertex
100
AcDb2dVertex
 10
1.8800016094622234
 20
4.5415099905377652
 30
0.0
  0
VERTEX
  5
151
100
AcDbEntity
  8
None
370
               9
390
0
  6
Continuous
100
AcDbVertex
100
AcDb2dVertex
 10
0.1400016094622214
 20
4.5415099905377652
 30
0.0
  0
SEQEND
  5
152
100
AcDbEntity
  8
None
370
               9
390
0
  6
Continuous
  0
POLYLINE
  5
153
100
AcDbEntity
  8
None
370
               9
390
0
  6
Continuous
100
AcDb2dPolyline
 66
               1
 10
0.0
 20
0.0
 30
0.0
 70
               1
 75
               5
  0
VERTEX
  5
154
100
AcDbEntity
  8
None
370
               9
390
0
  6
Continuous
100
AcDbVertex
100
AcDb2dVertex
 10
0.1400016094622214
 20
5.631509990537765
 30
0.0
  0
VERTEX
  5
155
100
AcDbEntity
  8
None
370
               9
390
0
  6
Continuous
100
AcDbVertex
100
AcDb2dVertex
 10
1.8800016094622234
 20
5.631509990537765
 30
0.0
  0
VERTEX
  5
156
100
AcDbEntity
  8
None
370
               9
390
0
  6
Continuous
100
AcDbVertex
100
AcDb2dVertex
 10
1.8800016094622234
 20
5.1915099905377673
 30
0.0
  0
VERTEX
  5
157
100
AcDbEntity
  8
None
370
               9
390
0
  6
Continuous
100
AcDbVertex
100
AcDb2dVertex
 10
0.1400016094622214
 20
5.1915099905377673
 30
0.0
  0
SEQEND
  5
158
100
AcDbEntity
  8
None
370
               9
390
0
  6
Continuous
  0
POLYLINE
  5
159
100
AcDbEntity
  8
None
370
               9
390
0
  6
Continuous
100
AcDb2dPolyline
 66
               1
 10
0.0
 20
0.0
 30
0.0
 70
               1
 75
               5
  0
VERTEX
  5
15A
100
AcDbEntity
  8
None
370
               9
390
0
  6
Continuous
100
AcDbVertex
100
AcDb2dVertex
 10
0.1400016094622214
 20
6.2815099905377636
 30
0.0
  0
VERTEX
  5
15B
100
AcDbEntity
  8
None
370
               9
390
0
  6
Continuous
100
AcDbVertex
100
AcDb2dVertex
 10
1.8800016094622234
 20
6.2815099905377636
 30
0.0
  0
VERTEX
  5
15C
100
AcDbEntity
  8
None
370
               9
390
0
  6
Continuous
100
AcDbVertex
100
AcDb2dVertex
 10
1.8800016094622234
 20
5.8415099905377659
 30
0.0
  0
VERTEX
  5
15D
100
AcDbEntity
  8
None
370
               9
390
0
  6
Continuous
100
AcDbVertex
100
AcDb2dVertex
 10
0.1400016094622214
 20
5.8415099905377659
 30
0.0
  0
SEQEND
  5
15E
100
AcDbEntity
  8
None
370
               9
390
0
  6
Continuous
  0
POLYLINE
  5
15F
100
AcDbEntity
  8
None
370
               9
390
0
  6
Continuous
100
AcDb2dPolyline
 66
               1
 10
0.0
 20
0.0
 30
0.0
 70
               1
 75
               5
  0
VERTEX
  5
160
100
AcDbEntity
  8
None
370
               9
390
0
  6
Continuous
100
AcDbVertex
100
AcDb2dVertex
 10
0.1400016094622214
 20
6.9315099905377693
 30
0.0
  0
VERTEX
  5
161
100
AcDbEntity
  8
None
370
               9
390
0
  6
Continuous
100
AcDbVertex
100
AcDb2dVertex
 10
1.8800016094622234
 20
6.9315099905377693
 30
0.0
  0
VERTEX
  5
162
100
AcDbEntity
  8
None
370
               9
390
0
  6
Continuous
100
AcDbVertex
100
AcDb2dVertex
 10
1.8800016094622234
 20
6.4915099905377716
 30
0.0
  0
VERTEX
  5
163
100
AcDbEntity
  8
None
370
               9
390
0
  6
Continuous
100
AcDbVertex
100
AcDb2dVertex
 10
0.1400016094622214
 20
6.4915099905377716
 30
0.0
  0
SEQEND
  5
164
100
AcDbEntity
  8
None
370
               9
390
0
  6
Continuous
  0
ENDBLK
  5
165
100
AcDbEntity
  8
None
390
0
100
AcDbBlockEnd
  0
BLOCK
  5
166
100
AcDbEntity
  8
None
390
0
100
AcDbBlockBegin
  2
Group-3
 70
               0
 10
0.0
 20
0.0
 30
0.0
  3
Group-3
  1

  0
INSERT
  5
167
100
AcDbEntity
  8
None
390
0
100
AcDbBlockReference
  2
Group-1
 10
0.0
 20
0.0
 30
0.0
  0
INSERT
  5
168
100
AcDbEntity
  8
None
390
0
100
AcDbBlockReference
  2
Group-2
 10
0.0
 20
0.0
 30
0.0
  0
ENDBLK
  5
169
100
AcDbEntity
  8
None
390
0
100
AcDbBlockEnd
  0
BLOCK
  5
16A
100
AcDbEntity
  8
None
390
0
100
AcDbBlockBegin
  2
Group-4
 70
               0
 10
0.0
 20
0.0
 30
0.0
  3
Group-4
  1

  0
POLYLINE
  5
16B
100
AcDbEntity
  8
None
370
               9
390
0
  6
Continuous
100
AcDb2dPolyline
 66
               1
 10
0.0
 20
0.0
 30
0.0
 70
               1
 75
               5
  0
VERTEX
  5
16C
100
AcDbEntity
  8
None
370
               9
390
0
  6
Continuous
100
AcDbVertex
100
AcDb2dVertex
 10
-2.9899983905377741
 20
5.6365099905377605
 30
0.0
  0
VERTEX
  5
16D
100
AcDbEntity
  8
None
370
               9
390
0
  6
Continuous
100
AcDbVertex
100
AcDb2dVertex
 10
-0.5899983905377826
 20
5.6365099905377605
 30
0.0
  0
VERTEX
  5
16E
100
AcDbEntity
  8
None
370
               9
390
0
  6
Continuous
100
AcDbVertex
100
AcDb2dVertex
 10
-0.5899983905377826
 20
1.9365099905377683
 30
0.0
  0
VERTEX
  5
16F
100
AcDbEntity
  8
None
370
               9
390
0
  6
Continuous
100
AcDbVertex
100
AcDb2dVertex
 10
-2.9899983905377741
 20
1.9365099905377683
 30
0.0
  0
SEQEND
  5
170
100
AcDbEntity
  8
None
370
               9
390
0
  6
Continuous
  0
INSERT
  5
171
100
AcDbEntity
  8
None
390
0
100
AcDbBlockReference
  2
Group-3
 10
0.0
 20
0.0
 30
0.0
  0
ENDBLK
  5
172
100
AcDbEntity
  8
None
390
0
100
AcDbBlockEnd
  0
BLOCK
  5
173
100
AcDbEntity
  8
Dimension
390
0
100
AcDbBlockBegin
  2
Group-5
 70
               0
 10
0.0
 20
0.0
 30
0.0
  3
Group-5
  1

  0
LINE
  5
174
100
AcDbEntity
  8
None
370
               9
390
0
  6
Continuous
 62
              12
100
AcDbLine
 10
-2.4149971403769181
 20
3.7865099905377662
 30
0.0
 11
-1.164999640698634
 21
3.7865099905377662
 31
0.0
  0
LINE
  5
175
100
AcDbEntity
  8
None
370
               9
390
0
  6
Continuous
 62
              12
100
AcDbLine
 10
-1.7899983905377761
 20
3.1615112406986228
 30
0.0
 11
-1.7899983905377761
 21
4.4115087403769095
 31
0.0
  0
LINE
  5
176
100
AcDbEntity
  8
None
370
               9
390
0
  6
Continuous
 62
              12
100
AcDbLine
 10
-10.152496891527527
 20
3.7865099905377662
 30
0.0
 11
-2.914996139065452
 21
3.7865099905377662
 31
0.0
  0
LINE
  5
177
100
AcDbEntity
  8
None
370
               9
390
0
  6
Continuous
 62
              12
100
AcDbLine
 10
-0.6650006420101002
 20
3.7865099905377662
 30
0.0
 11
6.5725001104519727
 21
3.7865099905377662
 31
0.0
  0
LINE
  5
178
100
AcDbEntity
  8
None
370
               9
390
0
  6
Continuous
 62
              12
100
AcDbLine
 10
-1.7899983905377761
 20
12.149008491527511
 30
0.0
 11
-1.7899983905377761
 21
4.911507739065442
 31
0.0
  0
LINE
  5
179
100
AcDbEntity
  8
None
370
               9
390
0
  6
Continuous
 62
              12
100
AcDbLine
 10
-1.7899983905377761
 20
2.6615122420100903
 30
0.0
 11
-1.7899983905377761
 21
-4.5759885104519817
 31
0.0
  0
ENDBLK
  5
17A
100
AcDbEntity
  8
Dimension
390
0
100
AcDbBlockEnd
  0
BLOCK
  5
17B
100
AcDbEntity
  8
None
390
0
100
AcDbBlockBegin
  2
Group-6
 70
               0
 10
0.0
 20
0.0
 30
0.0
  3
Group-6
  1

  0
POLYLINE
  5
17C
100
AcDbEntity
  8
None
370
               9
390
0
  6
STYLE_11
 62
               7
100
AcDb2dPolyline
 66
               1
 10
0.0
 20
0.0
 30
0.0
 70
               1
 75
               5
  0
VERTEX
  5
17D
100
AcDbEntity
  8
None
370
               9
390
0
  6
STYLE_11
 62
               7
100
AcDbVertex
100
AcDb2dVertex
 10
-9.4024983905377759
 20
11.399009990537763
 30
0.0
  0
VERTEX
  5
17E
100
AcDbEntity
  8
None
370
               9
390
0
  6
STYLE_11
 62
               7
100
AcDbVertex
100
AcDb2dVertex
 10
5.8225016094622237
 20
11.399009990537763
 30
0.0
  0
VERTEX
  5
17F
100
AcDbEntity
  8
None
370
               9
390
0
  6
STYLE_11
 62
               7
100
AcDbVertex
100
AcDb2dVertex
 10
5.8225016094622237
 20
-3.825990009462231
 30
0.0
  0
VERTEX
  5
180
100
AcDbEntity
  8
None
370
               9
390
0
  6
STYLE_11
 62
               7
100
AcDbVertex
100
AcDb2dVertex
 10
-9.4024983905377759
 20
-3.825990009462231
 30
0.0
  0
SEQEND
  5
181
100
AcDbEntity
  8
None
370
               9
390
0
  6
STYLE_11
 62
               7
  0
INSERT
  5
182
100
AcDbEntity
  8
Dimension
390
0
 62
               7
100
AcDbBlockReference
  2
Group-5
 10
0.0
 20
0.0
 30
0.0
  0
ENDBLK
  5
183
100
AcDbEntity
  8
None
390
0
100
AcDbBlockEnd
  0
BLOCK
  5
184
100
AcDbEntity
  8
Dimension
390
0
100
AcDbBlockBegin
  2
Group-7
 70
               0
 10
0.0
 20
0.0
 30
0.0
  3
Group-7
  1

  0
LINE
  5
185
100
AcDbEntity
  8
None
370
               9
390
0
  6
Continuous
 62
              12
100
AcDbLine
 10
3.9475028596230812
 20
7.6090099905377642
 30
0.0
 11
5.1975003593013653
 21
7.6090099905377642
 31
0.0
  0
LINE
  5
186
100
AcDbEntity
  8
None
370
               9
390
0
  6
Continuous
 62
              12
100
AcDbLine
 10
4.5725016094622237
 20
6.9840112406986208
 30
0.0
 11
4.5725016094622237
 21
8.2340087403769076
 31
0.0
  0
ENDBLK
  5
187
100
AcDbEntity
  8
Dimension
390
0
100
AcDbBlockEnd
  0
BLOCK
  5
188
100
AcDbEntity
  8
Dimension
390
0
100
AcDbBlockBegin
  2
Group-8
 70
               0
 10
0.0
 20
0.0
 30
0.0
  3
Group-8
  1

  0
LINE
  5
189
100
AcDbEntity
  8
None
370
               9
390
0
  6
Continuous
 62
              12
100
AcDbLine
 10
-8.7774971403769175
 20
2.5040099905377673
 30
0.0
 11
-7.5274996406986343
 21
2.5040099905377673
 31
0.0
  0
LINE
  5
18A
100
AcDbEntity
  8
None
370
               9
390
0
  6
Continuous
 62
              12
100
AcDbLine
 10
-8.1524983905377759
 20
1.8790112406986239
 30
0.0
 11
-8.1524983905377759
 21
3.1290087403769107
 31
0.0
  0
ENDBLK
  5
18B
100
AcDbEntity
  8
Dimension
390
0
100
AcDbBlockEnd
  0
BLOCK
  5
18C
100
AcDbEntity
  8
Dimension
390
0
100
AcDbBlockBegin
  2
Group-9
 70
               0
 10
0.0
 20
0.0
 30
0.0
  3
Group-9
  1

  0
LINE
  5
18D
100
AcDbEntity
  8
None
370
               9
390
0
  6
Continuous
 62
              12
100
AcDbLine
 10
-8.7774971403769175
 20
10.149009990537763
 30
0.0
 11
-7.5274996406986343
 21
10.149009990537763
 31
0.0
  0
LINE
  5
18E
100
AcDbEntity
  8
None
370
               9
390
0
  6
Continuous
 62
              12
100
AcDbLine
 10
-8.1524983905377759
 20
9.5240112406986199
 30
0.0
 11
-8.1524983905377759
 21
10.774008740376907
 31
0.0
  0
ENDBLK
  5
18F
100
AcDbEntity
  8
Dimension
390
0
100
AcDbBlockEnd
  0
BLOCK
  5
190
100
AcDbEntity
  8
None
390
0
100
AcDbBlockBegin
  2
Group-10
 70
               0
 10
0.0
 20
0.0
 30
0.0
  3
Group-10
  1

  0
CIRCLE
  5
191
100
AcDbEntity
  8
None
370
               9
390
0
  6
Continuous
 62
             180
100
AcDbCircle
 10
-6.4505783905377747
 20
10.44650999053777
 30
0.0
 40
0.2500014851955839
  0
CIRCLE
  5
192
100
AcDbEntity
  8
None
370
               9
390
0
  6
Continuous
 62
               7
100
AcDbCircle
 10
-8.1524983905377759
 20
10.149009990537763
 30
0.0
 40
0.8550000000000004
  0
CIRCLE
  5
193
100
AcDbEntity
  8
None
370
               9
390
0
  6
Continuous
 62
               7
100
AcDbCircle
 10
4.5725016094622237
 20
-2.575990009462231
 30
0.0
 40
0.8550000000000004
  0
CIRCLE
  5
194
100
AcDbEntity
  8
None
370
               9
390
0
  6
Continuous
 62
               7
100
AcDbCircle
 10
-8.1524983905377759
 20
-2.575990009462231
 30
0.0
 40
0.8550000000000004
  0
CIRCLE
  5
195
100
AcDbEntity
  8
None
370
               9
390
0
  6
Continuous
 62
               7
100
AcDbCircle
 10
4.5725016094622237
 20
10.149009990537763
 30
0.0
 40
0.8550000000000004
  0
CIRCLE
  5
196
100
AcDbEntity
  8
None
370
               9
390
0
  6
Continuous
 62
               7
100
AcDbCircle
 10
4.5725016094622237
 20
7.6090099905377642
 30
0.0
 40
0.4250000000000007
  0
CIRCLE
  5
197
100
AcDbEntity
  8
None
370
               9
390
0
  6
Continuous
 62
               7
100
AcDbCircle
 10
-8.1524983905377759
 20
2.5040099905377673
 30
0.0
 40
0.4250000000000007
  0
POLYLINE
  5
198
100
AcDbEntity
  8
None
370
               9
390
0
  6
STYLE_11
 62
               7
100
AcDb2dPolyline
 66
               1
 10
0.0
 20
0.0
 30
0.0
 70
               1
 75
               5
  0
VERTEX
  5
199
100
AcDbEntity
  8
None
370
               9
390
0
  6
STYLE_11
 62
               7
100
AcDbVertex
100
AcDb2dVertex
 10
-10.652498390537776
 20
12.649009990537763
 30
0.0
  0
VERTEX
  5
19A
100
AcDbEntity
  8
None
370
               9
390
0
  6
STYLE_11
 62
               7
100
AcDbVertex
100
AcDb2dVertex
 10
7.0725016094622237
 20
12.649009990537763
 30
0.0
  0
VERTEX
  5
19B
100
AcDbEntity
  8
None
370
               9
390
0
  6
STYLE_11
 62
               7
100
AcDbVertex
100
AcDb2dVertex
 10
7.0725016094622237
 20
-5.075990009462231
 30
0.0
  0
VERTEX
  5
19C
100
AcDbEntity
  8
None
370
               9
390
0
  6
STYLE_11
 62
               7
100
AcDbVertex
100
AcDb2dVertex
 10
-10.652498390537776
 20
-5.075990009462231
 30
0.0
  0
SEQEND
  5
19D
100
AcDbEntity
  8
None
370
               9
390
0
  6
STYLE_11
 62
               7
  0
INSERT
  5
19E
100
AcDbEntity
  8
None
390
0
 62
               7
100
AcDbBlockReference
  2
Group-6
 10
0.0
 20
0.0
 30
0.0
  0
INSERT
  5
19F
100
AcDbEntity
  8
Dimension
390
0
 62
               7
100
AcDbBlockReference
  2
Group-7
 10
0.0
 20
0.0
 30
0.0
  0
INSERT
  5
1A0
100
AcDbEntity
  8
Dimension
390
0
 62
               7
100
AcDbBlockReference
  2
Group-8
 10
0.0
 20
0.0
 30
0.0
  0
INSERT
  5
1A1
100
AcDbEntity
  8
Dimension
390
0
 62
               7
100
AcDbBlockReference
  2
Group-9
 10
0.0
 20
0.0
 30
0.0
  0
ENDBLK
  5
1A2
100
AcDbEntity
  8
None
390
0
100
AcDbBlockEnd
  0
BLOCK
  5
1A3
100
AcDbEntity
  8
Dimension
390
0
100
AcDbBlockBegin
  2
*D24
 70
               1
 10
0.0
 20
0.0
 30
0.0
  3
*D24
  1

  0
LINE
  5
1A4
100
AcDbEntity
  8
Dimension
370
              -2
390
0
  6
Continuous
 62
               0
100
AcDbLine
 10
-5.4599983905377734
 20
-1.2634900141933521
 30
0.0
 11
-5.4599983905377734
 21
-22.028864563368931
 31
0.0
  0
LINE
  5
1A5
100
AcDbEntity
  8
Dimension
370
              -2
390
0
  6
Continuous
 62
               0
100
AcDbLine
 10
1.8800016094622234
 20
-1.2634900141933521
 30
0.0
 11
1.8800016094622234
 21
-22.028864563368931
 31
0.0
  0
LINE
  5
1A6
100
AcDbEntity
  8
Dimension
370
              -2
390
0
  6
Continuous
 62
               0
100
AcDbLine
 10
1.8800016094622234
 20
-18.218864553906695
 30
0.0
 11
-5.4599983905377734
 21
-18.218864553906695
 31
0.0
  0
LINE
  5
1A7
100
AcDbEntity
  8
Dimension
370
              -2
390
0
  6
Continuous
 62
               0
100
AcDbLine
 10
-5.4599983905377734
 20
-18.218864553906695
 30
0.0
 11
-12.459984384005043
 21
-18.218864553906695
 31
0.0
  0
SOLID
  5
1A8
100
AcDbEntity
  8
Dimension
370
              -2
390
0
 62
               0
100
AcDbTrace
 10
-5.4599983905377734
 20
-18.218864553906695
 30
0.0
 11
-8.6349983905377741
 21
-19.069603239875509
 31
0.0
 12
-8.6349983905377723
 22
-17.368125867937881
 32
0.0
 13
-8.6349983905377723
 23
-17.368125867937881
 33
0.0
  0
LINE
  5
1A9
100
AcDbEntity
  8
Dimension
370
              -2
390
0
  6
Continuous
 62
               0
100
AcDbLine
 10
1.8800016094622234
 20
-18.218864553906695
 30
0.0
 11
12.4
 21
-18.218864553906695
 31
0.0
  0
SOLID
  5
1AA
100
AcDbEntity
  8
Dimension
370
              -2
390
0
 62
               0
100
AcDbTrace
 10
1.8800016094622234
 20
-18.218864553906695
 30
0.0
 11
5.0550016094622237
 21
-17.368125867937881
 31
0.0
 12
5.0550016094622237
 22
-19.069603239875509
 32
0.0
 13
5.0550016094622237
 23
-19.069603239875509
 33
0.0
  0
MTEXT
  5
1AB
100
AcDbEntity
  8
Dimension
390
0
 62
               0
100
AcDbMText
 10
12.4
 20
-17.114964090943733
 30
0.0
 40
2.0211226851851847
 41
0.0
 71
               1
 72
               1
  1
7.34mm
  7
New Century Schlbk
 73
               1
 44
0.9673603504928809
  0
POINT
  5
1AC
100
AcDbEntity
  8
Defpoints
370
               0
390
0
 62
               0
100
AcDbPoint
 10
1.8800016094622234
 20
0.6415099905377666
 30
0.0
  0
POINT
  5
1AD
100
AcDbEntity
  8
Defpoints
370
               0
390
0
 62
               0
100
AcDbPoint
 10
-5.4599983905377734
 20
0.6415099905377666
 30
0.0
  0
POINT
  5
1AE
100
AcDbEntity
  8
Defpoints
370
               0
390
0
 62
               0
100
AcDbPoint
 10
-5.4599983905377734
 20
-18.218864553906695
 30
0.0
  0
ENDBLK
  5
1AF
100
AcDbEntity
  8
Dimension
390
0
100
AcDbBlockEnd
  0
BLOCK
  5
1B0
100
AcDbEntity
  8
Dimension
390
0
100
AcDbBlockBegin
  2
*D25
 70
               1
 10
0.0
 20
0.0
 30
0.0
  3
*D25
  1

  0
LINE
  5
1B1
100
AcDbEntity
  8
Dimension
370
              -2
390
0
  6
Continuous
 62
               0
100
AcDbLine
 10
5.3348625415763191
 20
-2.9630698580543715
 30
0.0
 11
8.6100000094622331
 21
-4.6259826094622456
 31
0.0
  0
SOLID
  5
1B2
100
AcDbEntity
  8
Dimension
370
              -2
390
0
 62
               0
100
AcDbTrace
 10
5.3348625415763191
 20
-2.9630698580543715
 30
0.0
 11
7.477787902339128
 21
-3.4185627046536071
 31
0.0
 12
6.9629439191112272
 22
-4.4290009148328018
 32
0.0
 13
6.9629439191112272
 23
-4.4290009148328018
 33
0.0
  0
LINE
  5
1B3
100
AcDbEntity
  8
Dimension
370
              -2
390
0
  6
Continuous
 62
               0
100
AcDbLine
 10
8.6100000094622331
 20
-4.6259826094622456
 30
0.0
 11
14.609988017380232
 21
-4.6259826094622456
 31
0.0
  0
MTEXT
  5
1B4
100
AcDbEntity
  8
Dimension
390
0
 62
               0
100
AcDbMText
 10
14.609988017380232
 20
-3.5220821464992826
 30
0.0
 40
2.0211226851851847
 41
0.0
 71
               1
 72
               1
  1
Ø 1.71mm
  7
New Century Schlbk
 73
               1
 44
0.9673603504928809
  0
MTEXT
  5
1B5
100
AcDbEntity
  8
Dimension
390
0
 62
               0
100
AcDbMText
 10
27.874431923528505
 20
-3.5220821464992831
 30
0.0
 40
2.0211226851851847
 41
0.0
 71
               1
 72
               1
  1
±0.10mm
  7
New Century Schlbk
 73
               1
 44
0.9673603504928809
  0
MTEXT
  5
1B6
100
AcDbEntity
  8
Dimension
390
0
 62
               0
100
AcDbMText
 10
39.699543196128467
 20
-3.5220821464992826
 30
0.0
 40
2.0211226851851847
 41
0.0
 71
               1
 72
               1
  1
 (x4)
  7
New Century Schlbk
 73
               1
 44
0.9673603504928809
  0
POINT
  5
1B7
100
AcDbEntity
  8
Defpoints
370
               0
390
0
 62
               0
100
AcDbPoint
 10
3.8101406773481266
 20
-2.188910160870094
 30
0.0
  0
POINT
  5
1B8
100
AcDbEntity
  8
Defpoints
370
               0
390
0
 62
               0
100
AcDbPoint
 10
5.3348625415763191
 20
-2.9630698580543715
 30
0.0
  0
ENDBLK
  5
1B9
100
AcDbEntity
  8
Dimension
390
0
100
AcDbBlockEnd
  0
BLOCK
  5
1BA
100
AcDbEntity
  8
Dimension
390
0
100
AcDbBlockBegin
  2
*D26
 70
               1
 10
0.0
 20
0.0
 30
0.0
  3
*D26
  1

  0
LINE
  5
1BB
100
AcDbEntity
  8
Dimension
370
              -2
390
0
  6
Continuous
 62
               0
100
AcDbLine
 10
1.3150016141933361
 20
5.6365099905377605
 30
0.0
 11
73.093555772345951
 21
5.6365099905377605
 31
0.0
  0
LINE
  5
1BC
100
AcDbEntity
  8
Dimension
370
              -2
390
0
  6
Continuous
 62
               0
100
AcDbLine
 10
1.3150016141933361
 20
1.9365099905377683
 30
0.0
 11
73.093555772345951
 21
1.9365099905377683
 31
0.0
  0
LINE
  5
1BD
100
AcDbEntity
  8
Dimension
370
              -2
390
0
  6
Continuous
 62
               0
100
AcDbLine
 10
69.283555762883708
 20
1.9365099905377683
 30
0.0
 11
69.283555762883708
 21
5.6365099905377605
 31
0.0
  0
LINE
  5
1BE
100
AcDbEntity
  8
Dimension
370
              -2
390
0
  6
Continuous
 62
               0
100
AcDbLine
 10
69.283555762883708
 20
5.6365099905377605
 30
0.0
 11
69.283555762883708
 21
12.63649598400503
 31
0.0
  0
SOLID
  5
1BF
100
AcDbEntity
  8
Dimension
370
              -2
390
0
 62
               0
100
AcDbTrace
 10
69.283555762883708
 20
5.6365099905377605
 30
0.0
 11
68.432817076914887
 21
8.8115099905377612
 31
0.0
 12
70.134294448852529
 22
8.8115099905377612
 32
0.0
 13
70.134294448852529
 23
8.8115099905377612
 33
0.0
  0
LINE
  5
1C0
100
AcDbEntity
  8
Dimension
370
              -2
390
0
  6
Continuous
 62
               0
100
AcDbLine
 10
69.283555762883708
 20
1.9365099905377683
 30
0.0
 11
69.283555762883708
 21
-5.577222222222221
 31
0.0
  0
SOLID
  5
1C1
100
AcDbEntity
  8
Dimension
370
              -2
390
0
 62
               0
100
AcDbTrace
 10
69.283555762883708
 20
1.9365099905377683
 30
0.0
 11
70.134294448852515
 21
-1.238490009462232
 31
0.0
 12
68.432817076914887
 22
-1.2384900094622315
 32
0.0
 13
68.432817076914887
 23
-1.2384900094622315
 33
0.0
  0
MTEXT
  5
1C2
100
AcDbEntity
  8
Dimension
390
0
 62
               0
100
AcDbMText
 10
64.147111506842919
 20
-4.4733217592592585
 30
0.0
 40
2.0211226851851847
 41
0.0
 71
               1
 72
               1
  1
3.70mm
  7
New Century Schlbk
 73
               1
 44
0.9673603504928809
  0
POINT
  5
1C3
100
AcDbEntity
  8
Defpoints
370
               0
390
0
 62
               0
100
AcDbPoint
 10
-0.5899983905377826
 20
1.9365099905377683
 30
0.0
  0
POINT
  5
1C4
100
AcDbEntity
  8
Defpoints
370
               0
390
0
 62
               0
100
AcDbPoint
 10
-0.5899983905377826
 20
5.6365099905377605
 30
0.0
  0
POINT
  5
1C5
100
AcDbEntity
  8
Defpoints
370
               0
390
0
 62
               0
100
AcDbPoint
 10
69.283555762883708
 20
5.6365099905377605
 30
0.0
  0
ENDBLK
  5
1C6
100
AcDbEntity
  8
Dimension
390
0
100
AcDbBlockEnd
  0
BLOCK
  5
1C7
100
AcDbEntity
  8
Dimension
390
0
100
AcDbBlockBegin
  2
*D27
 70
               1
 10
0.0
 20
0.0
 30
0.0
  3
*D27
  1

  0
LINE
  5
1C8
100
AcDbEntity
  8
Dimension
370
              -2
390
0
  6
Continuous
 62
               0
100
AcDbLine
 10
7.1025003640324842
 20
7.6090099905377642
 30
0.0
 11
93.570000018924475
 21
7.6090099905377642
 31
0.0
  0
LINE
  5
1C9
100
AcDbEntity
  8
Dimension
370
              -2
390
0
  6
Continuous
 62
               0
100
AcDbLine
 10
8.4775001151830907
 20
3.7865099905377662
 30
0.0
 11
93.570000018924475
 21
3.7865099905377662
 31
0.0
  0
LINE
  5
1CA
100
AcDbEntity
  8
Dimension
370
              -2
390
0
  6
Continuous
 62
               0
100
AcDbLine
 10
89.760000009462232
 20
3.7865099905377662
 30
0.0
 11
89.760000009462232
 21
7.6090099905377642
 31
0.0
  0
LINE
  5
1CB
100
AcDbEntity
  8
Dimension
370
              -2
390
0
  6
Continuous
 62
               0
100
AcDbLine
 10
89.760000009462232
 20
7.6090099905377642
 30
0.0
 11
89.760000009462232
 21
14.608995984005034
 31
0.0
  0
SOLID
  5
1CC
100
AcDbEntity
  8
Dimension
370
              -2
390
0
 62
               0
100
AcDbTrace
 10
89.760000009462232
 20
7.6090099905377642
 30
0.0
 11
88.909261323493411
 21
10.784009990537765
 31
0.0
 12
90.610738695431053
 22
10.784009990537765
 32
0.0
 13
90.610738695431053
 23
10.784009990537765
 33
0.0
  0
LINE
  5
1CD
100
AcDbEntity
  8
Dimension
370
              -2
390
0
  6
Continuous
 62
               0
100
AcDbLine
 10
89.760000009462232
 20
3.7865099905377662
 30
0.0
 11
89.760000009462232
 21
-3.2134760029295046
 31
0.0
  0
SOLID
  5
1CE
100
AcDbEntity
  8
Dimension
370
              -2
390
0
 62
               0
100
AcDbTrace
 10
89.760000009462232
 20
3.7865099905377662
 30
0.0
 11
90.610738695431039
 21
0.6115099905377659
 31
0.0
 12
88.909261323493411
 22
0.6115099905377663
 32
0.0
 13
88.909261323493411
 23
0.6115099905377663
 33
0.0
  0
MTEXT
  5
1CF
100
AcDbEntity
  8
Dimension
390
0
 62
               0
100
AcDbMText
 10
83.04311147046586
 20
6.9039004629629641
 30
0.0
 40
2.0211226851851847
 41
0.0
 71
               1
 72
               1
  1
3.8225mm
  7
New Century Schlbk
 73
               1
 44
0.9673603504928809
  0
POINT
  5
1D0
100
AcDbEntity
  8
Defpoints
370
               0
390
0
 62
               0
100
AcDbPoint
 10
6.5725001104519727
 20
3.7865099905377662
 30
0.0
  0
POINT
  5
1D1
100
AcDbEntity
  8
Defpoints
370
               0
390
0
 62
               0
100
AcDbPoint
 10
5.1975003593013653
 20
7.6090099905377642
 30
0.0
  0
POINT
  5
1D2
100
AcDbEntity
  8
Defpoints
370
               0
390
0
 62
               0
100
AcDbPoint
 10
89.760000009462232
 20
7.6090099905377642
 30
0.0
  0
ENDBLK
  5
1D3
100
AcDbEntity
  8
Dimension
390
0
100
AcDbBlockEnd
  0
BLOCK
  5
1D4
100
AcDbEntity
  8
Dimension
390
0
100
AcDbBlockBegin
  2
*D28
 70
               1
 10
0.0
 20
0.0
 30
0.0
  3
*D28
  1

  0
LINE
  5
1D5
100
AcDbEntity
  8
Dimension
370
              -2
390
0
  6
Continuous
 62
               0
100
AcDbLine
 10
-10.682497145108035
 20
2.5040099905377673
 30
0.0
 11
-36.078140081404825
 21
2.5040099905377673
 31
0.0
  0
LINE
  5
1D6
100
AcDbEntity
  8
Dimension
370
              -2
390
0
  6
Continuous
 62
               0
100
AcDbLine
 10
-12.057496896258645
 20
3.7865099905377662
 30
0.0
 11
-36.078140081404825
 21
3.7865099905377662
 31
0.0
  0
LINE
  5
1D7
100
AcDbEntity
  8
Dimension
370
              -2
390
0
  6
Continuous
 62
               0
100
AcDbLine
 10
-32.268140071942589
 20
3.7865099905377662
 30
0.0
 11
-32.268140071942589
 21
2.5040099905377673
 31
0.0
  0
LINE
  5
1D8
100
AcDbEntity
  8
Dimension
370
              -2
390
0
  6
Continuous
 62
               0
100
AcDbLine
 10
-32.268140071942589
 20
2.5040099905377673
 30
0.0
 11
-32.268140071942589
 21
-8.5999999999999996
 31
0.0
  0
SOLID
  5
1D9
100
AcDbEntity
  8
Dimension
370
              -2
390
0
 62
               0
100
AcDbTrace
 10
-32.268140071942589
 20
2.5040099905377673
 30
0.0
 11
-31.417401385973776
 21
-0.670990009462233
 31
0.0
 12
-33.118878757911403
 22
-0.6709900094622325
 32
0.0
 13
-33.118878757911403
 23
-0.6709900094622325
 33
0.0
  0
LINE
  5
1DA
100
AcDbEntity
  8
Dimension
370
              -2
390
0
  6
Continuous
 62
               0
100
AcDbLine
 10
-32.268140071942589
 20
3.7865099905377662
 30
0.0
 11
-32.268140071942589
 21
10.786495984005036
 31
0.0
  0
SOLID
  5
1DB
100
AcDbEntity
  8
Dimension
370
              -2
390
0
 62
               0
100
AcDbTrace
 10
-32.268140071942589
 20
3.7865099905377662
 30
0.0
 11
-33.118878757911403
 21
6.961509990537766
 31
0.0
 12
-31.417401385973776
 22
6.961509990537766
 32
0.0
 13
-31.417401385973776
 23
6.961509990537766
 33
0.0
  0
MTEXT
  5
1DC
100
AcDbEntity
  8
Dimension
390
0
 62
               0
100
AcDbMText
 10
-38.985028610938969
 20
-7.4960995370370362
 30
0.0
 40
2.0211226851851847
 41
0.0
 71
               1
 72
               1
  1
1.2825mm
  7
New Century Schlbk
 73
               1
 44
0.9673603504928809
  0
POINT
  5
1DD
100
AcDbEntity
  8
Defpoints
370
               0
390
0
 62
               0
100
AcDbPoint
 10
-10.152496891527527
 20
3.7865099905377662
 30
0.0
  0
POINT
  5
1DE
100
AcDbEntity
  8
Defpoints
370
               0
390
0
 62
               0
100
AcDbPoint
 10
-8.7774971403769175
 20
2.5040099905377673
 30
0.0
  0
POINT
  5
1DF
100
AcDbEntity
  8
Defpoints
370
               0
390
0
 62
               0
100
AcDbPoint
 10
-32.268140071942589
 20
2.5040099905377673
 30
0.0
  0
ENDBLK
  5
1E0
100
AcDbEntity
  8
Dimension
390
0
100
AcDbBlockEnd
  0
BLOCK
  5
1E1
100
AcDbEntity
  8
Dimension
390
0
100
AcDbBlockBegin
  2
*D29
 70
               1
 10
0.0
 20
0.0
 30
0.0
  3
*D29
  1

  0
LINE
  5
1E2
100
AcDbEntity
  8
Dimension
370
              -2
390
0
  6
Continuous
 62
               0
100
AcDbLine
 10
-7.3649983952688922
 20
6.7115099905377704
 30
0.0
 11
-57.210000009462235
 21
6.7115099905377704
 31
0.0
  0
LINE
  5
1E3
100
AcDbEntity
  8
Dimension
370
              -2
390
0
  6
Continuous
 62
               0
100
AcDbLine
 10
-7.3649983952688922
 20
0.861509990537769
 30
0.0
 11
-57.210000009462242
 21
0.861509990537769
 31
0.0
  0
LINE
  5
1E4
100
AcDbEntity
  8
Dimension
370
              -2
390
0
  6
Continuous
 62
               0
100
AcDbLine
 10
-53.400000000000006
 20
0.861509990537769
 30
0.0
 11
-53.400000000000006
 21
6.7115099905377704
 31
0.0
  0
LINE
  5
1E5
100
AcDbEntity
  8
Dimension
370
              -2
390
0
  6
Continuous
 62
               0
100
AcDbLine
 10
-53.400000000000006
 20
6.7115099905377704
 30
0.0
 11
-53.400000000000006
 21
13.71149598400504
 31
0.0
  0
SOLID
  5
1E6
100
AcDbEntity
  8
Dimension
370
              -2
390
0
 62
               0
100
AcDbTrace
 10
-53.400000000000006
 20
6.7115099905377704
 30
0.0
 11
-54.25073868596882
 21
9.8865099905377711
 31
0.0
 12
-52.549261314031192
 22
9.8865099905377711
 32
0.0
 13
-52.549261314031192
 23
9.8865099905377711
 33
0.0
  0
LINE
  5
1E7
100
AcDbEntity
  8
Dimension
370
              -2
390
0
  6
Continuous
 62
               0
100
AcDbLine
 10
-53.400000000000006
 20
0.861509990537769
 30
0.0
 11
-53.400000000000006
 21
-6.1384760029295018
 31
0.0
  0
SOLID
  5
1E8
100
AcDbEntity
  8
Dimension
370
              -2
390
0
 62
               0
100
AcDbTrace
 10
-53.400000000000006
 20
0.861509990537769
 30
0.0
 11
-52.549261314031192
 21
-2.3134900094622313
 31
0.0
 12
-54.25073868596882
 22
-2.3134900094622308
 32
0.0
 13
-54.25073868596882
 23
-2.3134900094622308
 33
0.0
  0
MTEXT
  5
1E9
100
AcDbEntity
  8
Dimension
390
0
 62
               0
100
AcDbMText
 10
-58.536444256040788
 20
4.503900462962962
 30
0.0
 40
2.0211226851851847
 41
0.0
 71
               1
 72
               1
  1
5.85mm
  7
New Century Schlbk
 73
               1
 44
0.9673603504928809
  0
POINT
  5
1EA
100
AcDbEntity
  8
Defpoints
370
               0
390
0
 62
               0
100
AcDbPoint
 10
-5.4599983905377734
 20
0.861509990537769
 30
0.0
  0
POINT
  5
1EB
100
AcDbEntity
  8
Defpoints
370
               0
390
0
 62
               0
100
AcDbPoint
 10
-5.4599983905377734
 20
6.7115099905377704
 30
0.0
  0
POINT
  5
1EC
100
AcDbEntity
  8
Defpoints
370
               0
390
0
 62
               0
100
AcDbPoint
 10
-53.400000000000006
 20
6.7115099905377704
 30
0.0
  0
ENDBLK
  5
1ED
100
AcDbEntity
  8
Dimension
390
0
100
AcDbBlockEnd
  0
BLOCK
  5
1EE
100
AcDbEntity
  8
Dimension
390
0
100
AcDbBlockBegin
  2
*D30
 70
               1
 10
0.0
 20
0.0
 30
0.0
  3
*D30
  1

  0
LINE
  5
1EF
100
AcDbEntity
  8
Dimension
370
              -2
390
0
  6
Continuous
 62
               0
100
AcDbLine
 10
-2.9899983905377741
 20
7.5415099952688793
 30
0.0
 11
-2.9899983905377741
 21
23.410000009462237
 31
0.0
  0
LINE
  5
1F0
100
AcDbEntity
  8
Dimension
370
              -2
390
0
  6
Continuous
 62
               0
100
AcDbLine
 10
-0.5899983905377826
 20
7.5415099952688793
 30
0.0
 11
-0.5899983905377826
 21
23.410000009462237
 31
0.0
  0
LINE
  5
1F1
100
AcDbEntity
  8
Dimension
370
              -2
390
0
  6
Continuous
 62
               0
100
AcDbLine
 10
-0.5899983905377826
 20
19.600000000000001
 30
0.0
 11
-2.9899983905377741
 21
19.600000000000001
 31
0.0
  0
LINE
  5
1F2
100
AcDbEntity
  8
Dimension
370
              -2
390
0
  6
Continuous
 62
               0
100
AcDbLine
 10
-2.9899983905377741
 20
19.600000000000001
 30
0.0
 11
-9.9899843840050444
 21
19.600000000000001
 31
0.0
  0
SOLID
  5
1F3
100
AcDbEntity
  8
Dimension
370
              -2
390
0
 62
               0
100
AcDbTrace
 10
-2.9899983905377741
 20
19.600000000000001
 30
0.0
 11
-6.1649983905377734
 21
18.749261314031187
 31
0.0
 12
-6.1649983905377734
 22
20.450738685968815
 32
0.0
 13
-6.1649983905377734
 23
20.450738685968815
 33
0.0
  0
LINE
  5
1F4
100
AcDbEntity
  8
Dimension
370
              -2
390
0
  6
Continuous
 62
               0
100
AcDbLine
 10
-0.5899983905377826
 20
19.600000000000001
 30
0.0
 11
5.0718263252519016
 21
19.600000000000001
 31
0.0
  0
SOLID
  5
1F5
100
AcDbEntity
  8
Dimension
370
              -2
390
0
 62
               0
100
AcDbTrace
 10
-0.5899983905377826
 20
19.600000000000001
 30
0.0
 11
2.5850016094622172
 21
20.450738685968815
 31
0.0
 12
2.5850016094622172
 22
18.749261314031187
 32
0.0
 13
2.5850016094622172
 23
18.749261314031187
 33
0.0
  0
MTEXT
  5
1F6
100
AcDbEntity
  8
Dimension
390
0
 62
               0
100
AcDbMText
 10
5.0718263252519016
 20
20.703900462962963
 30
0.0
 40
2.0211226851851847
 41
0.0
 71
               1
 72
               1
  1
2.40mm
  7
New Century Schlbk
 73
               1
 44
0.9673603504928809
  0
POINT
  5
1F7
100
AcDbEntity
  8
Defpoints
370
               0
390
0
 62
               0
100
AcDbPoint
 10
-0.5899983905377826
 20
5.6365099905377605
 30
0.0
  0
POINT
  5
1F8
100
AcDbEntity
  8
Defpoints
370
               0
390
0
 62
               0
100
AcDbPoint
 10
-2.9899983905377741
 20
5.6365099905377605
 30
0.0
  0
POINT
  5
1F9
100
AcDbEntity
  8
Defpoints
370
               0
390
0
 62
               0
100
AcDbPoint
 10
-2.9899983905377741
 20
19.600000000000001
 30
0.0
  0
ENDBLK
  5
1FA
100
AcDbEntity
  8
Dimension
390
0
100
AcDbBlockEnd
  0
BLOCK
  5
1FB
100
AcDbEntity
  8
Dimension
390
0
100
AcDbBlockBegin
  2
*D31
 70
               1
 10
0.0
 20
0.0
 30
0.0
  3
*D31
  1

  0
LINE
  5
1FC
100
AcDbEntity
  8
Dimension
370
              -2
390
0
  6
Continuous
 62
               0
100
AcDbLine
 10
3.7850016141933418
 20
1.5115099905377676
 30
0.0
 11
58.210000009462242
 21
1.5115099905377676
 31
0.0
  0
LINE
  5
1FD
100
AcDbEntity
  8
Dimension
370
              -2
390
0
  6
Continuous
 62
               0
100
AcDbLine
 10
3.7850016141933418
 20
0.861509990537769
 30
0.0
 11
58.210000009462242
 21
0.861509990537769
 31
0.0
  0
LINE
  5
1FE
100
AcDbEntity
  8
Dimension
370
              -2
390
0
  6
Continuous
 62
               0
100
AcDbLine
 10
54.400000000000006
 20
0.861509990537769
 30
0.0
 11
54.400000000000006
 21
1.5115099905377676
 31
0.0
  0
LINE
  5
1FF
100
AcDbEntity
  8
Dimension
370
              -2
390
0
  6
Continuous
 62
               0
100
AcDbLine
 10
54.400000000000006
 20
1.5115099905377676
 30
0.0
 11
54.400000000000006
 21
8.5114959840050375
 31
0.0
  0
SOLID
  5
200
100
AcDbEntity
  8
Dimension
370
              -2
390
0
 62
               0
100
AcDbTrace
 10
54.400000000000006
 20
1.5115099905377676
 30
0.0
 11
53.549261314031192
 21
4.6865099905377674
 31
0.0
 12
55.25073868596882
 22
4.6865099905377674
 32
0.0
 13
55.25073868596882
 23
4.6865099905377674
 33
0.0
  0
LINE
  5
201
100
AcDbEntity
  8
Dimension
370
              -2
390
0
  6
Continuous
 62
               0
100
AcDbLine
 10
54.400000000000006
 20
0.861509990537769
 30
0.0
 11
54.400000000000006
 21
-6.6000000000000005
 31
0.0
  0
SOLID
  5
202
100
AcDbEntity
  8
Dimension
370
              -2
390
0
 62
               0
100
AcDbTrace
 10
54.400000000000006
 20
0.861509990537769
 30
0.0
 11
55.25073868596882
 21
-2.3134900094622313
 31
0.0
 12
53.549261314031192
 22
-2.3134900094622308
 32
0.0
 13
53.549261314031192
 23
-2.3134900094622308
 33
0.0
  0
MTEXT
  5
203
100
AcDbEntity
  8
Dimension
390
0
 62
               0
100
AcDbMText
 10
49.263555743959223
 20
-5.496099537037038
 30
0.0
 40
2.0211226851851847
 41
0.0
 71
               1
 72
               1
  1
0.65mm
  7
New Century Schlbk
 73
               1
 44
0.9673603504928809
  0
POINT
  5
204
100
AcDbEntity
  8
Defpoints
370
               0
390
0
 62
               0
100
AcDbPoint
 10
1.8800016094622234
 20
0.861509990537769
 30
0.0
  0
POINT
  5
205
100
AcDbEntity
  8
Defpoints
370
               0
390
0
 62
               0
100
AcDbPoint
 10
1.8800016094622234
 20
1.5115099905377676
 30
0.0
  0
POINT
  5
206
100
AcDbEntity
  8
Defpoints
370
               0
390
0
 62
               0
100
AcDbPoint
 10
54.400000000000006
 20
1.5115099905377676
 30
0.0
  0
ENDBLK
  5
207
100
AcDbEntity
  8
Dimension
390
0
100
AcDbBlockEnd
  0
BLOCK
  5
208
100
AcDbEntity
  8
Dimension
390
0
100
AcDbBlockBegin
  2
*D32
 70
               1
 10
0.0
 20
0.0
 30
0.0
  3
*D32
  1

  0
LINE
  5
209
100
AcDbEntity
  8
Dimension
370
              -2
390
0
  6
Continuous
 62
               0
100
AcDbLine
 10
3.7850016141933418
 20
6.9315099905377693
 30
0.0
 11
35.410000009462237
 21
6.9315099905377693
 31
0.0
  0
LINE
  5
20A
100
AcDbEntity
  8
Dimension
370
              -2
390
0
  6
Continuous
 62
               0
100
AcDbLine
 10
3.7850016141933418
 20
6.4915099905377716
 30
0.0
 11
35.410000009462237
 21
6.4915099905377716
 31
0.0
  0
LINE
  5
20B
100
AcDbEntity
  8
Dimension
370
              -2
390
0
  6
Continuous
 62
               0
100
AcDbLine
 10
31.599999999999998
 20
6.4915099905377716
 30
0.0
 11
31.599999999999998
 21
6.9315099905377693
 31
0.0
  0
LINE
  5
20C
100
AcDbEntity
  8
Dimension
370
              -2
390
0
  6
Continuous
 62
               0
100
AcDbLine
 10
31.599999999999998
 20
6.9315099905377693
 30
0.0
 11
31.599999999999998
 21
14.200000000000001
 31
0.0
  0
SOLID
  5
20D
100
AcDbEntity
  8
Dimension
370
              -2
390
0
 62
               0
100
AcDbTrace
 10
31.599999999999998
 20
6.9315099905377693
 30
0.0
 11
30.749261314031184
 21
10.10650999053777
 31
0.0
 12
32.450738685968815
 22
10.10650999053777
 32
0.0
 13
32.450738685968815
 23
10.10650999053777
 33
0.0
  0
LINE
  5
20E
100
AcDbEntity
  8
Dimension
370
              -2
390
0
  6
Continuous
 62
               0
100
AcDbLine
 10
31.599999999999998
 20
6.4915099905377716
 30
0.0
 11
31.599999999999998
 21
-0.5084760029294992
 31
0.0
  0
SOLID
  5
20F
100
AcDbEntity
  8
Dimension
370
              -2
390
0
 62
               0
100
AcDbTrace
 10
31.599999999999998
 20
6.4915099905377716
 30
0.0
 11
32.450738685968808
 21
3.3165099905377713
 31
0.0
 12
30.749261314031184
 22
3.3165099905377717
 32
0.0
 13
30.749261314031184
 23
3.3165099905377717
 33
0.0
  0
MTEXT
  5
210
100
AcDbEntity
  8
Dimension
390
0
 62
               0
100
AcDbMText
 10
26.463555743959212
 20
15.303900462962964
 30
0.0
 40
2.0211226851851847
 41
0.0
 71
               1
 72
               1
  1
0.44mm
  7
New Century Schlbk
 73
               1
 44
0.9673603504928809
  0
POINT
  5
211
100
AcDbEntity
  8
Defpoints
370
               0
390
0
 62
               0
100
AcDbPoint
 10
1.8800016094622234
 20
6.4915099905377716
 30
0.0
  0
POINT
  5
212
100
AcDbEntity
  8
Defpoints
370
               0
390
0
 62
               0
100
AcDbPoint
 10
1.8800016094622234
 20
6.9315099905377693
 30
0.0
  0
POINT
  5
213
100
AcDbEntity
  8
Defpoints
370
               0
390
0
 62
               0
100
AcDbPoint
 10
31.599999999999998
 20
6.9315099905377693
 30
0.0
  0
ENDBLK
  5
214
100
AcDbEntity
  8
Dimension
390
0
100
AcDbBlockEnd
  0
ENDSEC
  0
SECTION
  2
ENTITIES
  0
MTEXT
  5
215
100
AcDbEntity
  8
None
390
0
 62
              12
100
AcDbMText
 10
-71.08700129075558
 20
-19.945228012568645
 30
0.0
 40
2.0211226851851847
 41
26.287001290755576
 71
               1
 72
               1
  1
{\C226;\lSocket Body Size}
  7
New Century Schlbk
 73
               1
 44
0.9673603504928809
  0
LINE
  5
216
100
AcDbEntity
  8
None
370
               9
390
0
  6
Continuous
 62
              12
100
AcDbLine
 10
-42.200000000000003
 20
-3.0911666536078712
 30
0.0
 11
-9.4024983905377759
 21
-3.0911666536078712
 31
0.0
  0
SOLID
  5
217
100
AcDbEntity
  8
None
370
               9
390
0
 62
              12
100
AcDbTrace
 10
-9.4024983905377759
 20
-3.0911666536078712
 30
0.0
 11
-12.577498390537777
 21
-3.9419053395766857
 31
0.0
 12
-12.577498390537775
 22
-2.2404279676390559
 32
0.0
 13
-12.577498390537775
 23
-2.2404279676390559
 33
0.0
  0
MTEXT
  5
218
100
AcDbEntity
  8
None
390
0
 62
              12
100
AcDbMText
 10
10.289381609462223
 20
-5.6581373242770496
 30
0.0
 40
2.0211226851851847
 41
0.0
 71
               1
 72
               1
  1
{\C226;\lNon plated mounting hole}
  7
Arial
 73
               1
 44
0.9673603504928809
  0
MTEXT
  5
219
100
AcDbEntity
  8
None
390
0
 62
              12
100
AcDbMText
 10
60.707871609462224
 20
27.09186267572295
 30
0.0
 40
2.0211226851851847
 41
0.0
 71
               1
 72
               1
  1
{\C226;\lNon plated alignment hole}
  7
Arial
 73
               1
 44
0.9673603504928809
  0
MTEXT
  5
21A
100
AcDbEntity
  8
None
390
0
 62
              12
100
AcDbMText
 10
-54.882118390537777
 20
36.674752675722949
 30
0.0
 40
2.0211226851851847
 41
0.0
 71
               1
 72
               1
  1
{\C226;\lOrientation Mark}
  7
New Century Schlbk
 73
               1
 44
0.9673603504928809
  0
LINE
  5
21B
100
AcDbEntity
  8
None
370
               9
390
0
  6
Continuous
 62
              12
100
AcDbLine
 10
-6.4505783905377747
 20
10.44650999053777
 30
0.0
 11
-32.600000000000001
 21
34.800000000000004
 31
0.0
  0
SOLID
  5
21C
100
AcDbEntity
  8
None
370
               9
390
0
 62
              12
100
AcDbTrace
 10
-6.4505783905377747
 20
10.44650999053777
 30
0.0
 11
-9.3528287818510982
 21
11.989663896642281
 31
0.0
 12
-8.1924240045061829
 22
13.234045670830124
 32
0.0
 13
-8.1924240045061829
 23
13.234045670830124
 33
0.0
  0
DIMENSION
  5
21D
100
AcDbEntity
  8
Dimension
370
               9
390
0
  6
Continuous
 62
              12
100
AcDbDimension
  2
*D3
 10
-8.1524983905377759
 20
25.139529990537763
 30
0.0
 11
2.8000000000000007
 21
25.139529990537763
 31
0.0
 70
             128
 71
               5
 72
               1
 41
1.0
 42
0.0
  3
IE Standard
100
AcDbAlignedDimension
 13
-9.4024983905377759
 23
11.399009990537763
 33
0.0
 14
-8.1524983905377759
 24
10.677322154050735
 34
0.0
100
AcDbRotatedDimension
1001
ACAD
1000
DSTYLE
1002
{
1070
             271
1070
               2
1070
             340
1005
41
1070
              71
1070
               1
1070
              47
1040
0.125
1070
              48
1040
0.125
1070
               3
1000
<>mm (x4)
1070
             174
1070
               0
1070
             147
1040
0.396875
1002
}
  0
DIMENSION
  5
21E
100
AcDbEntity
  8
Dimension
370
               9
390
0
  6
Continuous
 62
              12
100
AcDbDimension
  2
*D4
 10
-44.964223649603269
 20
11.399009990537763
 30
0.0
 11
-44.964223649603269
 21
21.577222222222225
 31
0.0
 70
             128
 71
               5
 72
               1
 41
1.0
 42
0.0
  3
IE Standard
100
AcDbAlignedDimension
 13
-9.0074983905377763
 23
10.149009990537763
 33
0.0
 14
-9.4024983905377759
 24
11.399009990537763
 34
0.0
 50
90.0
100
AcDbRotatedDimension
1001
ACAD
1000
DSTYLE
1002
{
1070
             271
1070
               2
1070
             340
1005
41
1070
              71
1070
               1
1070
              47
1040
0.125
1070
              48
1040
0.125
1070
               3
1000
<>mm (x4)
1070
             174
1070
               0
1070
             147
1040
0.396875
1002
}
  0
DIMENSION
  5
21F
100
AcDbEntity
  8
Dimension
370
               9
390
0
  6
Continuous
 62
              12
100
AcDbDimension
  2
*D5
 10
-9.4024983905377759
 20
-30.400000000000002
 30
0.0
 11
14.400000000000002
 21
-30.400000000000002
 31
0.0
 70
             128
 71
               5
 72
               1
 41
1.0
 42
0.0
  3
IE Standard
100
AcDbAlignedDimension
 13
5.8225016094622237
 23
-3.825990009462231
 33
0.0
 14
-9.4024983905377759
 24
-3.825990009462231
 34
0.0
100
AcDbRotatedDimension
1001
ACAD
1000
DSTYLE
1002
{
1070
             271
1070
               3
1070
             340
1005
41
1070
              71
1070
               1
1070
              47
1040
0.125
1070
              48
1040
0.125
1070
               3
1000
<>mm (x4)
1070
             174
1070
               0
1070
             147
1040
0.396875
1002
}
  0
DIMENSION
  5
220
100
AcDbEntity
  8
Dimension
370
               9
390
0
  6
Continuous
 62
              12
100
AcDbDimension
  2
*D6
 10
-8.1524983905377759
 20
-23.622777777777781
 30
0.0
 11
14.199999999999999
 21
-23.622777777777781
 31
0.0
 70
             128
 71
               5
 72
               1
 41
1.0
 42
0.0
  3
IE Standard
100
AcDbAlignedDimension
 13
4.5725016094622237
 23
-2.575990009462231
 33
0.0
 14
-8.1524983905377759
 24
-2.575990009462231
 34
0.0
100
AcDbRotatedDimension
1001
ACAD
1000
DSTYLE
1002
{
1070
             271
1070
               3
1070
             340
1005
41
1070
               3
1000
<>mm (x4)
1070
             174
1070
               0
1070
             147
1040
0.396875
1002
}
  0
DIMENSION
  5
221
100
AcDbEntity
  8
Dimension
370
               9
390
0
  6
Continuous
 62
              12
100
AcDbDimension
  2
*D7
 10
-22.800000000000001
 20
10.149009990537763
 30
0.0
 11
-22.800000000000001
 21
18.600000000000001
 31
0.0
 70
             128
 71
               5
 72
               1
 41
1.0
 42
0.0
  3
IE Standard
100
AcDbAlignedDimension
 13
-5.2149971403769175
 23
6.7115099905377704
 33
0.0
 14
-8.6524971403769122
 24
10.149009990537763
 34
0.0
 50
90.0
100
AcDbRotatedDimension
1001
ACAD
1000
DSTYLE
1002
{
1070
             271
1070
               4
1070
             340
1005
41
1070
             174
1070
               0
1070
             147
1040
0.396875
1002
}
  0
DIMENSION
  5
222
100
AcDbEntity
  8
Dimension
370
               9
390
0
  6
Continuous
 62
              12
100
AcDbDimension
  2
*D8
 10
-4.5899983905377759
 20
-12.799999999999999
 30
0.0
 11
12.600000000000001
 21
-12.799999999999999
 31
0.0
 70
             128
 71
               5
 72
               1
 41
1.0
 42
0.0
  3
IE Standard
100
AcDbAlignedDimension
 13
1.0100016094622224
 23
0.6415099905377666
 33
0.0
 14
-4.5899983905377759
 24
0.6415099905377666
 34
0.0
100
AcDbRotatedDimension
1001
ACAD
1000
DSTYLE
1002
{
1070
             271
1070
               2
1070
             340
1005
41
1070
             174
1070
               0
1070
             147
1040
0.396875
1002
}
  0
DIMENSION
  5
223
100
AcDbEntity
  8
Dimension
370
               9
390
0
  6
Continuous
 62
              12
100
AcDbDimension
  2
*D9
 10
-4.5899983905377759
 20
31.389999990537763
 30
0.0
 11
6.4000000000000004
 21
31.389999990537763
 31
0.0
 70
             128
 71
               5
 72
               1
 41
1.0
 42
0.0
  3
IE Standard
100
AcDbAlignedDimension
 13
-8.1524983905377759
 23
10.774008740376907
 33
0.0
 14
-4.5899983905377759
 24
7.3365087403769138
 34
0.0
100
AcDbRotatedDimension
1001
ACAD
1000
DSTYLE
1002
{
1070
             271
1070
               4
1070
             340
1005
41
1070
             174
1070
               0
1070
             147
1040
0.396875
1002
}
  0
DIMENSION
  5
224
100
AcDbEntity
  8
Dimension
370
               9
390
0
  6
Continuous
 62
              12
100
AcDbDimension
  2
*D10
 10
4.1853159929629644
 20
7.4337607441026119
 30
0.0
 11
59.599988007918014
 21
29.799999999999955
 31
0.0
 70
               3
 71
               5
 72
               1
 41
1.0
 42
0.0
  3
IE Standard
100
AcDbDiametricDimension
 15
4.959687225961483
 25
7.7842592369729227
 35
0.0
 40
53.390756391917755
1001
ACAD
1000
DSTYLE
1002
{
1070
             271
1070
               3
1070
             172
1070
               0
1070
             289
1070
               0
1070
             342
1005
55
1070
             340
1005
41
1070
              75
1070
               1
1070
              76
1070
               1
1070
              71
1070
               1
1070
              47
1040
0.025
1070
              48
1040
0.025
1070
               3
1000
mm (x2)
1070
             174
1070
               0
1070
             147
1040
0.396875
1002
}
  0
DIMENSION
  5
225
100
AcDbEntity
  8
Dimension
370
               9
390
0
  6
Continuous
 62
              12
100
AcDbDimension
  2
*D11
 10
-67.052888493157084
 20
6.9315099905377693
 30
0.0
 11
-67.052888493157084
 21
3.6000000000000001
 31
0.0
 70
             128
 71
               5
 72
               1
 41
1.0
 42
0.0
  3
IE Standard
100
AcDbAlignedDimension
 13
-5.4599983905377734
 23
0.6415099905377666
 33
0.0
 14
-5.4599983905377734
 24
6.9315099905377693
 34
0.0
 50
90.0
100
AcDbRotatedDimension
1001
ACAD
1000
DSTYLE
1002
{
1070
             271
1070
               2
1070
             340
1005
41
1070
             147
1040
0.396875
1002
}
  0
DIMENSION
  5
226
100
AcDbEntity
  8
Dimension
370
               9
390
0
  6
Continuous
 62
              12
100
AcDbDimension
  2
*D12
 10
-10.652498390537776
 20
-36.600000000000001
 30
0.0
 11
15.600000000000005
 21
-36.600000000000001
 31
0.0
 70
             128
 71
               5
 72
               1
 41
1.0
 42
0.0
  3
IE Standard
100
AcDbAlignedDimension
 13
7.0725016094622237
 23
-5.075990009462231
 33
0.0
 14
-10.652498390537776
 24
-5.075990009462231
 34
0.0
100
AcDbRotatedDimension
1001
ACAD
1000
DSTYLE
1002
{
1070
             271
1070
               2
1070
             340
1005
41
1070
               3
1000
<>mm sqr.
1070
             174
1070
               0
1070
             147
1040
0.396875
1002
}
  0
MTEXT
  5
227
100
AcDbEntity
  8
None
390
0
 62
              12
100
AcDbMText
 10
33.220061609462228
 20
-35.56097923228387
 30
0.0
 40
2.0211226851851847
 41
0.0
 71
               1
 72
               1
  1
{\C226;\lbacking plate outline}
  7
Arial
 73
               1
 44
0.9673603504928809
  0
INSERT
  5
228
100
AcDbEntity
  8
None
390
0
 62
               7
100
AcDbBlockReference
  2
Group-4
 10
0.0
 20
0.0
 30
0.0
  0
INSERT
  5
229
100
AcDbEntity
  8
None
390
0
 62
               7
100
AcDbBlockReference
  2
Group-10
 10
0.0
 20
0.0
 30
0.0
  0
DIMENSION
  5
22A
100
AcDbEntity
  8
Dimension
370
               9
390
0
  6
Continuous
 62
              12
100
AcDbDimension
  2
*D24
 10
-5.4599983905377734
 20
-18.218864553906695
 30
0.0
 11
12.400000000000002
 21
-18.218864553906695
 31
0.0
 70
             128
 71
               5
 72
               1
 41
1.0
 42
0.0
  3
IE Standard
100
AcDbAlignedDimension
 13
1.8800016094622234
 23
0.6415099905377666
 33
0.0
 14
-5.4599983905377734
 24
0.6415099905377666
 34
0.0
100
AcDbRotatedDimension
1001
ACAD
1000
DSTYLE
1002
{
1070
             271
1070
               2
1070
             340
1005
41
1070
             174
1070
               0
1070
             147
1040
0.396875
1002
}
  0
CIRCLE
  5
22B
100
AcDbEntity
  8
None
370
               9
390
0
  6
Continuous
 62
              12
100
AcDbCircle
 10
4.5725016094622237
 20
-2.575990009462231
 30
0.0
 40
0.8549999999999939
  0
DIMENSION
  5
22C
100
AcDbEntity
  8
Dimension
370
               9
390
0
  6
Continuous
 62
              12
100
AcDbDimension
  2
*D25
 10
3.8101406773481266
 20
-2.188910160870094
 30
0.0
 11
14.609988017380235
 21
-4.6259826094622429
 31
0.0
 70
               3
 71
               5
 72
               1
 41
1.0
 42
0.0
  3
IE Standard
100
AcDbDiametricDimension
 15
5.3348625415763191
 25
-2.9630698580543715
 35
0.0
 40
3.67311914486109
1001
ACAD
1000
DSTYLE
1002
{
1070
             271
1070
               2
1070
             172
1070
               0
1070
             289
1070
               0
1070
             342
1005
55
1070
             340
1005
41
1070
              75
1070
               1
1070
              76
1070
               1
1070
              71
1070
               1
1070
              47
1040
0.1
1070
              48
1040
0.1
1070
               3
1000
mm (x4)
1070
             174
1070
               0
1070
             147
1040
0.396875
1002
}
  0
DIMENSION
  5
22D
100
AcDbEntity
  8
Dimension
370
               9
390
0
  6
Continuous
 62
              12
100
AcDbDimension
  2
*D26
 10
69.283555762883708
 20
5.6365099905377605
 30
0.0
 11
69.283555762883708
 21
-5.5772222222222219
 31
0.0
 70
             128
 71
               5
 72
               1
 41
1.0
 42
0.0
  3
IE Standard
100
AcDbAlignedDimension
 13
-0.5899983905377826
 23
1.9365099905377683
 33
0.0
 14
-0.5899983905377826
 24
5.6365099905377605
 34
0.0
 50
90.0
100
AcDbRotatedDimension
1001
ACAD
1000
DSTYLE
1002
{
1070
             271
1070
               2
1070
             340
1005
41
1070
             174
1070
               0
1070
             147
1040
0.396875
1002
}
  0
DIMENSION
  5
22E
100
AcDbEntity
  8
Dimension
370
               9
390
0
  6
Continuous
 62
              12
100
AcDbDimension
  2
*D27
 10
89.760000009462232
 20
7.6090099905377642
 30
0.0
 11
89.760000009462232
 21
5.8000000000000007
 31
0.0
 70
             128
 71
               5
 72
               1
 41
1.0
 42
0.0
  3
IE Standard
100
AcDbAlignedDimension
 13
6.5725001104519727
 23
3.7865099905377662
 33
0.0
 14
5.1975003593013653
 24
7.6090099905377642
 34
0.0
 50
90.0
100
AcDbRotatedDimension
1001
ACAD
1000
DSTYLE
1002
{
1070
             271
1070
               4
1070
             340
1005
41
1070
             147
1040
0.396875
1002
}
  0
DIMENSION
  5
22F
100
AcDbEntity
  8
Dimension
370
               9
390
0
  6
Continuous
 62
              12
100
AcDbDimension
  2
*D28
 10
-32.268140071942589
 20
2.5040099905377673
 30
0.0
 11
-32.268140071942589
 21
-8.5999999999999996
 31
0.0
 70
             128
 71
               5
 72
               1
 41
1.0
 42
0.0
  3
IE Standard
100
AcDbAlignedDimension
 13
-10.152496891527527
 23
3.7865099905377662
 33
0.0
 14
-8.7774971403769175
 24
2.5040099905377673
 34
0.0
 50
90.0
100
AcDbRotatedDimension
1001
ACAD
1000
DSTYLE
1002
{
1070
             271
1070
               4
1070
             340
1005
41
1070
             174
1070
               0
1070
             147
1040
0.396875
1002
}
  0
DIMENSION
  5
230
100
AcDbEntity
  8
Dimension
370
               9
390
0
  6
Continuous
 62
              12
100
AcDbDimension
  2
*D29
 10
-53.400000000000006
 20
6.7115099905377704
 30
0.0
 11
-53.400000000000006
 21
3.4000000000000004
 31
0.0
 70
             128
 71
               5
 72
               1
 41
1.0
 42
0.0
  3
IE Standard
100
AcDbAlignedDimension
 13
-5.4599983905377734
 23
0.861509990537769
 33
0.0
 14
-5.4599983905377734
 24
6.7115099905377704
 34
0.0
 50
90.0
100
AcDbRotatedDimension
1001
ACAD
1000
DSTYLE
1002
{
1070
             271
1070
               2
1070
             340
1005
41
1070
             147
1040
0.396875
1002
}
  0
DIMENSION
  5
231
100
AcDbEntity
  8
Dimension
370
               9
390
0
  6
Continuous
 62
              12
100
AcDbDimension
  2
*D30
 10
-2.9899983905377741
 20
19.600000000000001
 30
0.0
 11
5.0718263252519016
 21
19.600000000000001
 31
0.0
 70
             128
 71
               5
 72
               1
 41
1.0
 42
0.0
  3
IE Standard
100
AcDbAlignedDimension
 13
-0.5899983905377826
 23
5.6365099905377605
 33
0.0
 14
-2.9899983905377741
 24
5.6365099905377605
 34
0.0
100
AcDbRotatedDimension
1001
ACAD
1000
DSTYLE
1002
{
1070
             271
1070
               2
1070
             340
1005
41
1070
             174
1070
               0
1070
             147
1040
0.396875
1002
}
  0
DIMENSION
  5
232
100
AcDbEntity
  8
Dimension
370
               9
390
0
  6
Continuous
 62
              12
100
AcDbDimension
  2
*D31
 10
54.400000000000006
 20
1.5115099905377676
 30
0.0
 11
54.400000000000006
 21
-6.6000000000000014
 31
0.0
 70
             128
 71
               5
 72
               1
 41
1.0
 42
0.0
  3
IE Standard
100
AcDbAlignedDimension
 13
1.8800016094622234
 23
0.861509990537769
 33
0.0
 14
1.8800016094622234
 24
1.5115099905377676
 34
0.0
 50
90.0
100
AcDbRotatedDimension
1001
ACAD
1000
DSTYLE
1002
{
1070
             271
1070
               2
1070
             340
1005
41
1070
             174
1070
               0
1070
             147
1040
0.396875
1002
}
  0
DIMENSION
  5
233
100
AcDbEntity
  8
Dimension
370
               9
390
0
  6
Continuous
 62
              12
100
AcDbDimension
  2
*D32
 10
31.599999999999998
 20
6.9315099905377693
 30
0.0
 11
31.599999999999998
 21
14.200000000000001
 31
0.0
 70
             128
 71
               5
 72
               1
 41
1.0
 42
0.0
  3
IE Standard
100
AcDbAlignedDimension
 13
1.8800016094622234
 23
6.4915099905377716
 33
0.0
 14
1.8800016094622234
 24
6.9315099905377693
 34
0.0
 50
90.0
100
AcDbRotatedDimension
1001
ACAD
1000
DSTYLE
1002
{
1070
             271
1070
               2
1070
             340
1005
41
1070
             174
1070
               0
1070
             147
1040
0.396875
1002
}
  0
MTEXT
  5
234
100
AcDbEntity
  8
None
390
0
 62
              12
100
AcDbMText
 10
-6.1399999905377687
 20
7.3838422350850124
 30
0.0
 40
2.0211226851851847
 41
0.0
 71
               1
 72
               1
  1
{\C226;\l1}
  7
Arial
 73
               1
 44
0.9673603504928809
  0
LINE
  5
235
100
AcDbEntity
  8
None
370
               5
390
0
  6
Continuous
 62
              12
100
AcDbLine
 10
-42.200000000000003
 20
-3.0911666536078712
 30
0.0
 11
-57.943500645377796
 21
-19.426350697753829
 31
0.0
  0
ENDSEC
  0
SECTION
  2
OBJECTS
  0
DICTIONARY
  5
19
100
AcDbDictionary
280
               0
281
               1
  3
ACAD_GROUP
350
1A
  3
ACAD_MLINESTYLE
350
1B
  3
ACAD_LAYOUT
350
1E
  3
ACAD_PLOTSETTINGS
350
22
  3
ACAD_PLOTSTYLENAME
350
1F
  0
DICTIONARY
  5
1A
102
{ACAD_REACTORS
330
19
102
}
100
AcDbDictionary
280
               0
281
               1
  0
DICTIONARY
  5
1B
102
{ACAD_REACTORS
330
19
102
}
100
AcDbDictionary
280
               0
281
               1
  3
Standard
350
1C
  0
MLINESTYLE
  5
1C
102
{ACAD_REACTORS
330
1B
102
}
100
AcDbMlineStyle
  2
Standard
 70
               0
  3

 62
               0
 51
90.0
 52
90.0
 71
               2
 49
0.5
 62
             256
  6
ByLayer
 49
-0.5
 62
             256
  6
ByLayer
  0
ACDBDICTIONARYWDFLT
  5
1F
102
{ACAD_REACTORS
330
19
102
}
100
AcDbDictionary
281
               1
  3
Normal
350
1D
100
AcDbDictionaryWithDefault
340
1D
  0
ACDBPLACEHOLDER
  5
1D
102
{ACAD_REACTORS
330
1F
102
}
  0
LAYOUT
  5
20
102
{ACAD_REACTORS
330
1E
102
}
100
AcDbPlotSettings
  1

  2

  4

  6

 40
0.0
 41
0.0
 42
0.0
 43
0.0
 44
0.0
 45
0.0
 46
0.0
 47
0.0
 48
0.0
 49
0.0
140
0.0
141
0.0
142
1.0
143
1.0
 70
            1024
 72
               0
 73
               0
 74
               0
  7

 75
               0
147
1.0
148
0.0
149
0.0
100
AcDbLayout
  1
Model
 70
               0
 71
               0
 10
0.0
 20
0.0
 11
0.0
 21
0.0
 12
0.0
 22
0.0
 32
0.0
 14
0.0
 24
0.0
 34
0.0
 15
0.0
 25
0.0
 35
0.0
146
0.0
 13
0.0
 23
0.0
 33
0.0
 16
0.0
 26
0.0
 36
0.0
 17
0.0
 27
0.0
 37
0.0
 76
               0
330
A
331
0
345
0
346
0
  0
LAYOUT
  5
21
102
{ACAD_REACTORS
330
1E
102
}
100
AcDbPlotSettings
  1

  2

  4

  6

 40
0.0
 41
0.0
 42
0.0
 43
0.0
 44
0.0
 45
0.0
 46
0.0
 47
0.0
 48
0.0
 49
0.0
140
0.0
141
0.0
142
1.0
143
1.0
 70
               0
 72
               0
 73
               0
 74
               0
  7

 75
               0
147
1.0
148
0.0
149
0.0
100
AcDbLayout
  1
Layout1
 70
               0
 71
               0
 10
0.0
 20
0.0
 11
0.0
 21
0.0
 12
0.0
 22
0.0
 32
0.0
 14
0.0
 24
0.0
 34
0.0
 15
0.0
 25
0.0
 35
0.0
146
0.0
 13
0.0
 23
0.0
 33
0.0
 16
0.0
 26
0.0
 36
0.0
 17
0.0
 27
0.0
 37
0.0
 76
               0
330
B
331
0
345
0
346
0
  0
DICTIONARY
  5
1E
102
{ACAD_REACTORS
330
19
102
}
100
AcDbDictionary
280
               0
281
               1
  3
Layout1
350
21
  3
Model
350
20
  0
DICTIONARY
  5
22
102
{ACAD_REACTORS
330
19
102
}
100
AcDbDictionary
280
               0
281
               1
  0
ENDSEC
  0
EOF
