  0
SECTION
  2
HEADER
  9
$ACADVER
  1
AC1015
  9
$ACADMAINTVER
 70
               6
  9
$DWGCODEPAGE
  3
ANSI_1252
  9
$INSBASE
 10
0.0
 20
0.0
 30
0.0
  9
$EXTMIN
 10
-86.994250053829617
 20
-41.61000000946224
 30
-1.3969999999999998
  9
$EXTMAX
 10
55.27800032297769
 20
55.599999999999994
 30
1.3969999999999998
  9
$LIMMIN
 10
0.0
 20
0.0
  9
$LIMMAX
 10
0.0
 20
0.0
  9
$ORTHOMODE
 70
               0
  9
$REGENMODE
 70
               1
  9
$FILLMODE
 70
               1
  9
$QTEXTMODE
 70
               0
  9
$MIRRTEXT
 70
               1
  9
$LTSCALE
 40
5.0800000000000001
  9
$ATTMODE
 70
               1
  9
$TEXTSIZE
 40
0.2
  9
$TRACEWID
 40
1.0
  9
$TEXTSTYLE
  7
Standard
  9
$CLAYER
  8
None
  9
$CELTYPE
  6
Continuous
  9
$CECOLOR
 62
             256
  9
$CELTSCALE
 40
1.0
  9
$DISPSILH
 70
               0
  9
$DIMSCALE
 40
1.0
  9
$DIMASZ
 40
3.1749999999999998
  9
$DIMEXO
 40
1.5874999999999999
  9
$DIMDLI
 40
10.16
  9
$DIMRND
 40
0.0
  9
$DIMDLE
 40
0.0
  9
$DIMEXE
 40
3.1749999999999998
  9
$DIMTP
 40
0.0
  9
$DIMTM
 40
0.0
  9
$DIMTXT
 40
2.273763020833333
  9
$DIMCEN
 40
0.0
  9
$DIMTSZ
 40
0.0
  9
$DIMTOL
 70
               0
  9
$DIMLIM
 70
               0
  9
$DIMTIH
 70
               1
  9
$DIMTOH
 70
               1
  9
$DIMSE1
 70
               0
  9
$DIMSE2
 70
               0
  9
$DIMTAD
 70
               0
  9
$DIMZIN
 70
               3
  9
$DIMBLK
  1
VW_FILLEDARROW
  9
$DIMASO
 70
               1
  9
$DIMSHO
 70
               1
  9
$DIMPOST
  1
<>mm
  9
$DIMAPOST
  1
[]
  9
$DIMALT
 70
               0
  9
$DIMALTD
 70
               1
  9
$DIMALTF
 40
1.0
  9
$DIMLFAC
 40
1.0
  9
$DIMTOFL
 70
               0
  9
$DIMTVP
 40
0.0
  9
$DIMTIX
 70
               1
  9
$DIMSOXD
 70
               0
  9
$DIMSAH
 70
               0
  9
$DIMBLK1
  1

  9
$DIMBLK2
  1

  9
$DIMSTYLE
  2
ASME
  9
$DIMCLRD
 70
               0
  9
$DIMCLRE
 70
               0
  9
$DIMCLRT
 70
               0
  9
$DIMTFAC
 40
1.0
  9
$DIMGAP
 40
0.0
  9
$DIMJUST
 70
               0
  9
$DIMSD1
 70
               0
  9
$DIMSD2
 70
               0
  9
$DIMTOLJ
 70
               1
  9
$DIMTZIN
 70
               3
  9
$DIMALTZ
 70
              11
  9
$DIMALTTZ
 70
              11
  9
$DIMUPT
 70
               0
  9
$DIMDEC
 70
               1
  9
$DIMTDEC
 70
               1
  9
$DIMALTU
 70
               2
  9
$DIMALTTD
 70
               2
  9
$DIMTXSTY
  7
Helvetica
  9
$DIMAUNIT
 70
               0
  9
$DIMADEC
 70
               2
  9
$DIMALTRND
 40
0.0
  9
$DIMAZIN
 70
               0
  9
$DIMDSEP
 70
              46
  9
$DIMATFIT
 70
               0
  9
$DIMFRAC
 70
               2
  9
$DIMLDRBLK
  1

  9
$DIMLUNIT
 70
               2
  9
$DIMLWD
 70
              -2
  9
$DIMLWE
 70
              -2
  9
$DIMTMOVE
 70
               0
  9
$LUNITS
 70
               2
  9
$LUPREC
 70
               4
  9
$SKETCHINC
 40
0.1
  9
$FILLETRAD
 40
0.0
  9
$AUNITS
 70
               0
  9
$AUPREC
 70
               0
  9
$MENU
  1
acad
  9
$ELEVATION
 40
0.0
  9
$PELEVATION
 40
0.0
  9
$THICKNESS
 40
0.0
  9
$LIMCHECK
 70
               0
  9
$CHAMFERA
 40
0.0
  9
$CHAMFERB
 40
0.0
  9
$CHAMFERC
 40
0.0
  9
$CHAMFERD
 40
0.0
  9
$SKPOLY
 70
               0
  9
$TDCREATE
 40
2455664.528148148
  9
$TDUCREATE
 40
0.000000000
  9
$TDUPDATE
 40
2455664.528148148
  9
$TDUUPDATE
 40
0.000000000
  9
$TDINDWG
 40
0.0000000000
  9
$TDUSRTIMER
 40
0.0000000000
  9
$USRTIMER
 70
               1
  9
$ANGBASE
 50
0.0
  9
$ANGDIR
 70
               0
  9
$PDMODE
 70
               1
  9
$PDSIZE
 40
-2.0
  9
$PLINEWID
 40
0.0
  9
$SPLFRAME
 70
               0
  9
$SPLINETYPE
 70
               6
  9
$SPLINESEGS
 70
               8
  9
$HANDSEED
  5
334
  9
$SURFTAB1
 70
               6
  9
$SURFTAB2
 70
               6
  9
$SURFTYPE
 70
               6
  9
$SURFU
 70
               6
  9
$SURFV
 70
               6
  9
$UCSBASE
  2

  9
$UCSNAME
  2

  9
$UCSORG
 10
0.0
 20
0.0
 30
0.0
  9
$UCSXDIR
 10
1.0
 20
0.0
 30
0.0
  9
$UCSYDIR
 10
0.0
 20
1.0
 30
0.0
  9
$UCSORTHOREF
  2

  9
$UCSORTHOVIEW
 70
               0
  9
$UCSORGTOP
 10
0.0
 20
0.0
 30
0.0
  9
$UCSORGBOTTOM
 10
0.0
 20
0.0
 30
0.0
  9
$UCSORGLEFT
 10
0.0
 20
0.0
 30
0.0
  9
$UCSORGRIGHT
 10
0.0
 20
0.0
 30
0.0
  9
$UCSORGFRONT
 10
0.0
 20
0.0
 30
0.0
  9
$UCSORGBACK
 10
0.0
 20
0.0
 30
0.0
  9
$PUCSBASE
  2

  9
$PUCSNAME
  2

  9
$PUCSORG
 10
0.0
 20
0.0
 30
0.0
  9
$PUCSXDIR
 10
1.0
 20
0.0
 30
0.0
  9
$PUCSYDIR
 10
0.0
 20
1.0
 30
0.0
  9
$PUCSORTHOREF
  2

  9
$PUCSORTHOVIEW
 70
               0
  9
$PUCSORGTOP
 10
0.0
 20
0.0
 30
0.0
  9
$PUCSORGBOTTOM
 10
0.0
 20
0.0
 30
0.0
  9
$PUCSORGLEFT
 10
0.0
 20
0.0
 30
0.0
  9
$PUCSORGRIGHT
 10
0.0
 20
0.0
 30
0.0
  9
$PUCSORGFRONT
 10
0.0
 20
0.0
 30
0.0
  9
$PUCSORGBACK
 10
0.0
 20
0.0
 30
0.0
  9
$USERI1
 70
               0
  9
$USERI2
 70
               0
  9
$USERI3
 70
               0
  9
$USERI4
 70
               0
  9
$USERI5
 70
               0
  9
$USERR1
 40
0.0
  9
$USERR2
 40
0.0
  9
$USERR3
 40
0.0
  9
$USERR4
 40
0.0
  9
$USERR5
 40
0.0
  9
$WORLDVIEW
 70
               1
  9
$SHADEDGE
 70
               3
  9
$SHADEDIF
 70
              70
  9
$TILEMODE
 70
               1
  9
$MAXACTVP
 70
              64
  9
$PINSBASE
 10
0.0
 20
0.0
 30
0.0
  9
$PLIMCHECK
 70
               0
  9
$PEXTMIN
 10
1.0000000000000000E+20
 20
1.0000000000000000E+20
 30
1.0000000000000000E+20
  9
$PEXTMAX
 10
-1.0000000000000000E+20
 20
-1.0000000000000000E+20
 30
-1.0000000000000000E+20
  9
$PLIMMIN
 10
0.0
 20
0.0
  9
$PLIMMAX
 10
12.0
 20
9.0
  9
$UNITMODE
 70
               0
  9
$VISRETAIN
 70
               0
  9
$PLINEGEN
 70
               1
  9
$PSLTSCALE
 70
               0
  9
$TREEDEPTH
 70
            3020
  9
$CMLSTYLE
  2
Standard
  9
$CMLJUST
 70
               0
  9
$CMLSCALE
 40
1.0
  9
$PROXYGRAPHICS
 70
               0
  9
$MEASUREMENT
 70
               1
  9
$CELWEIGHT
370
               0
  9
$ENDCAPS
280
               0
  9
$JOINSTYLE
280
               0
  9
$LWDISPLAY
290
               1
  9
$INSUNITS
 70
               4
  9
$HYPERLINKBASE
  1

  9
$STYLESHEET
  1

  9
$XEDIT
290
               1
  9
$CEPSNTYPE
380
               0
  9
$PSTYLEMODE
290
               1
  9
$FINGERPRINTGUID
  2

  9
$VERSIONGUID
  2

  9
$EXTNAMES
290
               1
  9
$PSVPSCALE
 40
0.0
  0
ENDSEC
  0
SECTION
  2
CLASSES
  0
CLASS
  1
LWPOLYLINE
  2
AcDbPolyline
  3
AutoCAD 2000
 90
        0
280
               0
281
               1
  0
CLASS
  1
IMAGE
  2
AcDbRasterImage
  3
ISM
 90
      127
280
               0
281
               1
  0
CLASS
  1
OLE2FRAME
  2
AcDbOle2Frame
  3
AutoCAD 2000
 90
        0
280
               0
281
               1
  0
CLASS
  1
HATCH
  2
AcDbHatch
  3
AutoCAD 2000
 90
        0
280
               0
281
               1
  0
CLASS
  1
DICTIONARYVAR
  2
AcDbDictionaryVar
  3
AutoCAD 2000
 90
        0
280
               0
281
               0
  0
CLASS
  1
RASTERVARIABLES
  2
AcDbRasterVariables
  3
ISM
 90
        0
280
               0
281
               0
  0
CLASS
  1
IMAGEDEF
  2
AcDbRasterImageDef
  3
ISM
 90
        0
280
               0
281
               0
  0
CLASS
  1
IMAGEDEF_REACTOR
  2
AcDbRasterImageDefReactor
  3
ISM
 90
        1
280
               0
281
               0
  0
CLASS
  1
IDBUFFER
  2
AcDbIdBuffer
  3
AutoCAD 2000
 90
        0
280
               0
281
               0
  0
CLASS
  1
SPATIAL_FILTER
  2
AcDbSpatialFilter
  3
AutoCAD 2000
 90
        0
280
               0
281
               0
  0
CLASS
  1
XRECORD
  2
AcDbXrecord
  3
AutoCAD 2000
 90
        0
280
               0
281
               0
  0
CLASS
  1
SORTENTSTABLE
  2
AcDbSortentsTable
  3
AutoCAD 2000
 90
        0
280
               0
281
               0
  0
CLASS
  1
LAYER_INDEX
  2
AcDbLayerIndex
  3
AutoCAD 2000
 90
        0
280
               0
281
               0
  0
CLASS
  1
SPATIAL_INDEX
  2
AcDbSpatialIndex
  3
AutoCAD 2000
 90
        0
280
               0
281
               0
  0
CLASS
  1
OBJECT_PTR
  2
CAseDLPNTableRecord
  3
"ASE-LPNTableRecord"
 90
        1
280
               0
281
               0
  0
CLASS
  1
LAYOUT
  2
AcDbLayout
  3
AutoCAD 2000
 90
        0
280
               0
281
               0
  0
CLASS
  1
PLOTSETTINGS
  2
AcDbPlotSettings
  3
AutoCAD 2000
 90
        0
280
               0
281
               0
  0
CLASS
  1
ACDBDICTIONARYWDFLT
  2
AcDbDictionaryWithDefault
  3
AutoCAD 2000
 90
        0
280
               0
281
               0
  0
CLASS
  1
ACDBPLACEHOLDER
  2
AcDbPlaceHolder
  3
AutoCAD 2000
 90
        0
280
               0
281
               0
  0
ENDSEC
  0
SECTION
  2
TABLES
  0
TABLE
  2
VPORT
  5
7
100
AcDbSymbolTable
 70
               1
  0
VPORT
  5
15
100
AcDbSymbolTableRecord
100
AcDbViewportTableRecord
  2
*ACTIVE
 70
               0
 10
0.0
 20
0.0
 11
1.0
 21
1.0
 12
-15.858124865425964
 22
6.9949999952688771
 13
0.0
 23
0.0
 14
1.0
 24
1.0
 15
0.0
 25
0.0
 16
0.0
 26
0.0
 36
1.0
 17
0.0
 27
0.0
 37
0.0
 40
97.210000009462235
 41
0.688564
 42
50.0
 43
0.0
 44
0.0
 50
0.0
 51
0.0
 71
               0
 72
            2000
 73
               1
 74
               1
 75
               0
 76
               0
 77
               0
 78
               0
281
               0
 65
               0
110
0.0
120
0.0
130
0.0
111
1.0
121
0.0
131
0.0
112
0.0
122
1.0
132
0.0
345
0
346
0
 79
               0
146
0.0
  0
ENDTAB
  0
TABLE
  2
LTYPE
  5
4
100
AcDbSymbolTable
 70
              15
  0
LTYPE
  5
11
100
AcDbSymbolTableRecord
100
AcDbLinetypeTableRecord
  2
ByBlock
 70
              64
  3

 72
              65
 73
               0
 40
0.0
  0
LTYPE
  5
12
100
AcDbSymbolTableRecord
100
AcDbLinetypeTableRecord
  2
ByLayer
 70
              64
  3

 72
              65
 73
               0
 40
0.0
  0
LTYPE
  5
13
100
AcDbSymbolTableRecord
100
AcDbLinetypeTableRecord
  2
Continuous
 70
              64
  3
Solid line
 72
              65
 73
               0
 40
0.0
  0
LTYPE
  5
36
100
AcDbSymbolTableRecord
100
AcDbLinetypeTableRecord
  2
STYLE_01
 70
               0
  3

 72
              65
 73
               2
 40
0.41664
 49
0.20828
 74
               0
 49
-0.20836
 74
               0
  0
LTYPE
  5
37
100
AcDbSymbolTableRecord
100
AcDbLinetypeTableRecord
  2
STYLE_02
 70
               0
  3

 72
              65
 73
               2
 40
0.6944250000000001
 49
0.48607
 74
               0
 49
-0.2083550000000001
 74
               0
  0
LTYPE
  5
38
100
AcDbSymbolTableRecord
100
AcDbLinetypeTableRecord
  2
STYLE_03
 70
               0
  3

 72
              65
 73
               2
 40
1.25
 49
1.0416400000000001
 74
               0
 49
-0.2083599999999999
 74
               0
  0
LTYPE
  5
39
100
AcDbSymbolTableRecord
100
AcDbLinetypeTableRecord
  2
STYLE_04
 70
               0
  3

 72
              65
 73
               2
 40
1.5277099999999999
 49
1.3194249999999998
 74
               0
 49
-0.208285
 74
               0
  0
LTYPE
  5
3A
100
AcDbSymbolTableRecord
100
AcDbLinetypeTableRecord
  2
STYLE_05
 70
               0
  3

 72
              65
 73
               2
 40
0.20828
 49
0.069425
 74
               0
 49
-0.138855
 74
               0
  0
LTYPE
  5
3B
100
AcDbSymbolTableRecord
100
AcDbLinetypeTableRecord
  2
STYLE_06
 70
               0
  3

 72
              65
 73
               4
 40
1.0416400000000001
 49
0.625
 74
               0
 49
-0.20828
 74
               0
 49
0.06943
 74
               0
 49
-0.13893
 74
               0
  0
LTYPE
  5
3C
100
AcDbSymbolTableRecord
100
AcDbLinetypeTableRecord
  2
STYLE_07
 70
               0
  3

 72
              65
 73
               6
 40
1.875
 49
0.625
 74
               0
 49
-0.20828
 74
               0
 49
0.6250000000000001
 74
               0
 49
-0.2083599999999999
 74
               0
 49
0.06943
 74
               0
 49
-0.1389299999999999
 74
               0
  0
LTYPE
  5
3D
100
AcDbSymbolTableRecord
100
AcDbLinetypeTableRecord
  2
STYLE_08
 70
               0
  3

 72
              65
 73
               6
 40
1.25
 49
0.625
 74
               0
 49
-0.20828
 74
               0
 49
0.06943
 74
               0
 49
-0.13893
 74
               0
 49
0.0694299999999999
 74
               0
 49
-0.13893
 74
               0
  0
LTYPE
  5
3E
100
AcDbSymbolTableRecord
100
AcDbLinetypeTableRecord
  2
STYLE_09
 70
               0
  3

 72
              65
 73
               4
 40
5.0
 49
3.75
 74
               0
 49
-0.2777849999999998
 74
               0
 49
0.6944300000000003
 74
               0
 49
-0.2777849999999998
 74
               0
  0
LTYPE
  5
3F
100
AcDbSymbolTableRecord
100
AcDbLinetypeTableRecord
  2
STYLE_10
 70
               0
  3

 72
              65
 73
               6
 40
5.9375
 49
3.75
 74
               0
 49
-0.2777849999999998
 74
               0
 49
0.6944300000000003
 74
               0
 49
-0.2777849999999998
 74
               0
 49
0.625
 74
               0
 49
-0.3125
 74
               0
  0
LTYPE
  5
40
100
AcDbSymbolTableRecord
100
AcDbLinetypeTableRecord
  2
STYLE_11
 70
               0
  3

 72
              65
 73
               2
 40
0.4166412353515625
 49
0.2777862548828125
 74
               0
 49
-0.13885498046875
 74
               0
  0
LTYPE
  5
41
100
AcDbSymbolTableRecord
100
AcDbLinetypeTableRecord
  2
STYLE_12
 70
               0
  3

 72
              65
 73
               4
 40
25.0
 49
12.5
 74
               0
 49
-2.5
 74
               0
 49
2.5
 74
               0
 49
-2.5
 74
               0
  0
ENDTAB
  0
TABLE
  2
LAYER
  5
2
100
AcDbSymbolTable
 70
               4
  0
LAYER
  5
14
100
AcDbSymbolTableRecord
100
AcDbLayerTableRecord
  2
0
 70
               0
 62
               7
  6
Continuous
290
               1
370
              -3
390
1D
  0
LAYER
  5
42
100
AcDbSymbolTableRecord
100
AcDbLayerTableRecord
  2
Defpoints
 70
               0
 62
               7
  6
Continuous
290
               0
370
              -3
390
1D
  0
LAYER
  5
43
100
AcDbSymbolTableRecord
100
AcDbLayerTableRecord
  2
None
 70
               0
 62
               7
  6
Continuous
290
               1
370
               5
390
1D
  0
LAYER
  5
44
100
AcDbSymbolTableRecord
100
AcDbLayerTableRecord
  2
Dimension
 70
               0
 62
               7
  6
Continuous
290
               1
370
               5
390
1D
  0
ENDTAB
  0
TABLE
  2
STYLE
  5
3
100
AcDbSymbolTable
 70
               4
  0
STYLE
  5
17
100
AcDbSymbolTableRecord
100
AcDbTextStyleTableRecord
  2
Standard
 70
               0
 40
0.0
 41
1.0
 50
0.0
 71
               0
 42
0.0
  3
txt
  4

  0
STYLE
  5
33
100
AcDbSymbolTableRecord
100
AcDbTextStyleTableRecord
  2
Arial
 70
               0
 40
0.0
 41
1.0
 50
0.0
 71
               0
 42
0.0
  3
Arial
  4

1001
ACAD
1000
Arial
1071
        0
  0
STYLE
  5
34
100
AcDbSymbolTableRecord
100
AcDbTextStyleTableRecord
  2
Helvetica
 70
               0
 40
0.0
 41
1.0
 50
0.0
 71
               0
 42
0.0
  3
Helvetica
  4

1001
ACAD
1000
Helvetica
1071
        0
  0
STYLE
  5
35
100
AcDbSymbolTableRecord
100
AcDbTextStyleTableRecord
  2
New Century Schlbk
 70
               0
 40
0.0
 41
1.0
 50
0.0
 71
               0
 42
0.0
  3
New Century Schlbk
  4

1001
ACAD
1000
New Century Schlbk
1071
        0
  0
ENDTAB
  0
TABLE
  2
VIEW
  5
5
100
AcDbSymbolTable
 70
               0
  0
ENDTAB
  0
TABLE
  2
UCS
  5
6
100
AcDbSymbolTable
 70
               0
  0
ENDTAB
  0
TABLE
  2
APPID
  5
8
100
AcDbSymbolTable
 70
               1
  0
APPID
  5
16
100
AcDbSymbolTableRecord
100
AcDbRegAppTableRecord
  2
ACAD
 70
               0
  0
ENDTAB
  0
TABLE
  2
DIMSTYLE
  5
9
100
AcDbSymbolTable
 70
               3
100
AcDbDimStyleTable
 71
               0
  0
DIMSTYLE
105
18
100
AcDbSymbolTableRecord
100
AcDbDimStyleTableRecord
  2
Standard
 70
               0
  3

  4

 40
1.0
 41
0.18
 42
0.0625
 43
0.38
 44
0.18
 45
0.0
 46
0.0
 47
0.0
 48
0.0
 71
               0
 72
               0
 73
               1
 74
               1
 75
               0
 76
               0
 77
               0
 78
               0
 79
               0
140
0.18
141
0.09
142
0.0
143
25.399999999999999
144
1.0
145
0.0
146
1.0
147
0.09
148
0.0
170
               0
171
               2
172
               0
173
               0
174
               0
175
               0
176
               0
177
               0
178
               0
179
               0
271
               4
272
               4
273
               2
274
               2
275
               0
276
               0
277
               2
278
              46
279
               0
280
               0
281
               0
282
               0
283
               1
284
               0
285
               0
286
               0
288
               0
289
               3
340
17
341
0
342
0
343
0
344
0
371
              -2
372
              -2
  0
DIMSTYLE
105
4D
100
AcDbSymbolTableRecord
100
AcDbDimStyleTableRecord
  2
IE Standard
 70
               0
  3
<>mm
  4
[]
 40
1.0
 41
3.1749999999999998
 42
1.9050000047311186
 43
6.9999859934672708
 44
3.8100000094622373
 45
0.0
 46
0.0
 47
0.0
 48
0.0
 71
               0
 72
               0
 73
               1
 74
               1
 75
               0
 76
               0
 77
               0
 78
               3
 79
               0
140
2.273763020833333
141
0.0
142
0.0
143
1.0
144
1.0
145
0.0
146
1.0
147
0.0
148
0.0
170
               0
171
               1
172
               1
173
               0
174
               1
175
               0
176
               0
177
               0
178
               0
179
               2
271
               1
272
               1
273
               2
274
               2
275
               0
276
               2
277
               2
278
              46
279
               0
280
               0
281
               0
282
               0
283
               1
284
               3
285
              11
286
              11
288
               0
289
               0
340
34
341
49
342
45
343
0
344
0
371
              -2
372
              -2
  0
DIMSTYLE
105
4E
100
AcDbSymbolTableRecord
100
AcDbDimStyleTableRecord
  2
ASME
 70
               0
  3
<>mm
  4
[]
 40
1.0
 41
3.1749999999999998
 42
1.5874999999999999
 43
10.16
 44
3.1749999999999998
 45
0.0
 46
0.0
 47
0.0
 48
0.0
 71
               0
 72
               0
 73
               1
 74
               1
 75
               0
 76
               0
 77
               0
 78
               3
 79
               0
140
2.273763020833333
141
0.0
142
0.0
143
1.0
144
1.0
145
0.0
146
1.0
147
0.0
148
0.0
170
               0
171
               1
172
               0
173
               0
174
               1
175
               0
176
               0
177
               0
178
               0
179
               2
271
               1
272
               1
273
               2
274
               2
275
               0
276
               2
277
               2
278
              46
279
               0
280
               0
281
               0
282
               0
283
               1
284
               3
285
              11
286
              11
288
               0
289
               0
340
34
341
45
342
45
343
0
344
0
371
              -2
372
              -2
  0
ENDTAB
  0
TABLE
  2
BLOCK_RECORD
  5
1
100
AcDbSymbolTable
 70
              18
  0
BLOCK_RECORD
  5
A
100
AcDbSymbolTableRecord
100
AcDbBlockTableRecord
  2
*MODEL_SPACE
340
20
  0
BLOCK_RECORD
  5
B
100
AcDbSymbolTableRecord
100
AcDbBlockTableRecord
  2
*PAPER_SPACE
340
21
  0
BLOCK_RECORD
  5
45
100
AcDbSymbolTableRecord
100
AcDbBlockTableRecord
  2
VW_FILLEDARROW
340
0
  0
BLOCK_RECORD
  5
49
100
AcDbSymbolTableRecord
100
AcDbBlockTableRecord
  2
VW_FILLEDARROW-1
340
0
  0
BLOCK_RECORD
  5
23
100
AcDbSymbolTableRecord
100
AcDbBlockTableRecord
  2
*D2
340
0
  0
BLOCK_RECORD
  5
24
100
AcDbSymbolTableRecord
100
AcDbBlockTableRecord
  2
*D3
340
0
  0
BLOCK_RECORD
  5
25
100
AcDbSymbolTableRecord
100
AcDbBlockTableRecord
  2
*D4
340
0
  0
BLOCK_RECORD
  5
26
100
AcDbSymbolTableRecord
100
AcDbBlockTableRecord
  2
Group
340
0
102
{BLKREFS
331
292
102
}
  0
BLOCK_RECORD
  5
27
100
AcDbSymbolTableRecord
100
AcDbBlockTableRecord
  2
Group-1
340
0
102
{BLKREFS
331
299
102
}
  0
BLOCK_RECORD
  5
28
100
AcDbSymbolTableRecord
100
AcDbBlockTableRecord
  2
Group-2
340
0
102
{BLKREFS
331
31C
102
}
  0
BLOCK_RECORD
  5
29
100
AcDbSymbolTableRecord
100
AcDbBlockTableRecord
  2
*D8
340
0
  0
BLOCK_RECORD
  5
2A
100
AcDbSymbolTableRecord
100
AcDbBlockTableRecord
  2
*D9
340
0
  0
BLOCK_RECORD
  5
2B
100
AcDbSymbolTableRecord
100
AcDbBlockTableRecord
  2
*D10
340
0
  0
BLOCK_RECORD
  5
2C
100
AcDbSymbolTableRecord
100
AcDbBlockTableRecord
  2
*D11
340
0
  0
BLOCK_RECORD
  5
2D
100
AcDbSymbolTableRecord
100
AcDbBlockTableRecord
  2
*D12
340
0
  0
BLOCK_RECORD
  5
2E
100
AcDbSymbolTableRecord
100
AcDbBlockTableRecord
  2
*D13
340
0
  0
BLOCK_RECORD
  5
2F
100
AcDbSymbolTableRecord
100
AcDbBlockTableRecord
  2
*D14
340
0
  0
BLOCK_RECORD
  5
30
100
AcDbSymbolTableRecord
100
AcDbBlockTableRecord
  2
*D15
340
0
  0
BLOCK_RECORD
  5
31
100
AcDbSymbolTableRecord
100
AcDbBlockTableRecord
  2
*D16
340
0
  0
BLOCK_RECORD
  5
32
100
AcDbSymbolTableRecord
100
AcDbBlockTableRecord
  2
*D17
340
0
  0
ENDTAB
  0
ENDSEC
  0
SECTION
  2
BLOCKS
  0
BLOCK
  5
D
100
AcDbEntity
  8
0
390
0
100
AcDbBlockBegin
  2
*MODEL_SPACE
 70
               0
 10
0.0
 20
0.0
 30
0.0
  3
*MODEL_SPACE
  1

  0
ENDBLK
  5
E
100
AcDbEntity
  8
0
390
0
100
AcDbBlockEnd
  0
BLOCK
  5
F
100
AcDbEntity
 67
               1
  8
0
390
0
100
AcDbBlockBegin
  2
*PAPER_SPACE
 70
               0
 10
0.0
 20
0.0
 30
0.0
  3
*PAPER_SPACE
  1

  0
ENDBLK
  5
10
100
AcDbEntity
 67
               1
  8
0
390
0
100
AcDbBlockEnd
  0
BLOCK
  5
46
100
AcDbEntity
  8
0
370
              -2
390
0
  6
ByBlock
 62
               0
100
AcDbBlockBegin
  2
VW_FILLEDARROW
 70
               0
 10
0.0
 20
0.0
 30
0.0
  3
VW_FILLEDARROW
  1

  0
SOLID
  5
47
100
AcDbEntity
  8
0
370
              -2
390
0
 62
               0
100
AcDbTrace
 10
0.0
 20
0.0
 30
0.0
 11
-0.9999389648437499
 21
-0.2679328381102956
 31
0.0
 12
-0.9999389648437499
 22
0.2679328381102958
 32
0.0
 13
-0.9999389648437499
 23
0.2679328381102958
 33
0.0
  0
ENDBLK
  5
48
100
AcDbEntity
  8
0
390
0
100
AcDbBlockEnd
  0
BLOCK
  5
4A
100
AcDbEntity
  8
0
370
              -2
390
0
  6
ByBlock
 62
               0
100
AcDbBlockBegin
  2
VW_FILLEDARROW-1
 70
               0
 10
0.0
 20
0.0
 30
0.0
  3
VW_FILLEDARROW
  1

  0
SOLID
  5
4B
100
AcDbEntity
  8
0
370
              -2
390
0
 62
               0
100
AcDbTrace
 10
0.0
 20
0.0
 30
0.0
 11
-0.6650756835937499
 21
-0.1782064923245222
 31
0.0
 12
-0.6650756835937498
 22
0.1782064923245224
 32
0.0
 13
-0.6650756835937498
 23
0.1782064923245224
 33
0.0
  0
ENDBLK
  5
4C
100
AcDbEntity
  8
0
390
0
100
AcDbBlockEnd
  0
BLOCK
  5
4F
100
AcDbEntity
  8
Dimension
390
0
100
AcDbBlockBegin
  2
*D2
 70
               1
 10
0.0
 20
0.0
 30
0.0
  3
*D2
  1

  0
LINE
  5
50
100
AcDbEntity
  8
Dimension
370
              -2
390
0
  6
Continuous
 62
               0
100
AcDbLine
 10
-30.834542938328134
 20
35.243317257600978
 30
0.0
 11
-72.627374861430781
 21
35.243317257600978
 31
0.0
  0
LINE
  5
51
100
AcDbEntity
  8
Dimension
370
              -2
390
0
  6
Continuous
 62
               0
100
AcDbLine
 10
-30.834542938328134
 20
7.0183172576007742
 30
0.0
 11
-72.627374861430795
 21
7.0183172576007742
 31
0.0
  0
LINE
  5
52
100
AcDbEntity
  8
Dimension
370
              -2
390
0
  6
Continuous
 62
               0
100
AcDbLine
 10
-68.817374851968552
 20
35.243317257600978
 30
0.0
 11
-68.817374851968552
 21
7.0183172576007742
 31
0.0
  0
SOLID
  5
53
100
AcDbEntity
  8
Dimension
370
              -2
390
0
 62
               0
100
AcDbTrace
 10
-68.817374851968552
 20
35.243317257600978
 30
0.0
 11
-67.966636165999745
 21
32.068317257600981
 31
0.0
 12
-69.668113537937373
 22
32.068317257600981
 32
0.0
 13
-69.668113537937373
 23
32.068317257600981
 33
0.0
  0
SOLID
  5
54
100
AcDbEntity
  8
Dimension
370
              -2
390
0
 62
               0
100
AcDbTrace
 10
-68.817374851968552
 20
7.0183172576007742
 30
0.0
 11
-69.668113537937373
 21
10.193317257600775
 31
0.0
 12
-67.966636165999731
 22
10.193317257600775
 32
0.0
 13
-67.966636165999731
 23
10.193317257600775
 33
0.0
  0
MTEXT
  5
55
100
AcDbEntity
  8
Dimension
390
0
 62
               0
100
AcDbMText
 10
-86.994250053829617
 20
23.441888020833339
 30
0.0
 40
2.273763020833333
 41
0.0
 71
               1
 72
               1
  1
28.225mm
  7
Helvetica
 73
               1
 44
0.9673603504928806
  0
MTEXT
  5
56
100
AcDbEntity
  8
Dimension
390
0
 62
               0
100
AcDbMText
 10
-71.881250000000009
 20
23.441888020833339
 30
0.0
 40
2.273763020833333
 41
0.0
 71
               1
 72
               1
  1
±0.125mm
  7
Helvetica
 73
               1
 44
0.9673603504928806
  0
MTEXT
  5
57
100
AcDbEntity
  8
Dimension
390
0
 62
               0
100
AcDbMText
 10
-56.800000000000004
 20
23.441888020833339
 30
0.0
 40
2.273763020833333
 41
0.0
 71
               1
 72
               1
  1
 sqr.
  7
Helvetica
 73
               1
 44
0.9673603504928806
  0
POINT
  5
58
100
AcDbEntity
  8
Defpoints
370
               0
390
0
 62
               0
100
AcDbPoint
 10
-28.929542933597016
 20
7.0183172576007742
 30
0.0
  0
POINT
  5
59
100
AcDbEntity
  8
Defpoints
370
               0
390
0
 62
               0
100
AcDbPoint
 10
-28.929542933597016
 20
35.243317257600978
 30
0.0
  0
POINT
  5
5A
100
AcDbEntity
  8
Defpoints
370
               0
390
0
 62
               0
100
AcDbPoint
 10
-68.817374851968552
 20
35.243317257600978
 30
0.0
  0
ENDBLK
  5
5B
100
AcDbEntity
  8
Dimension
390
0
100
AcDbBlockEnd
  0
BLOCK
  5
5C
100
AcDbEntity
  8
Dimension
390
0
100
AcDbBlockBegin
  2
*D3
 70
               1
 10
0.0
 20
0.0
 30
0.0
  3
*D3
  1

  0
LINE
  5
5D
100
AcDbEntity
  8
Dimension
370
              -2
390
0
  6
Continuous
 62
               0
100
AcDbLine
 10
-3.8617539676652228
 20
18.584750984626154
 30
0.0
 11
1.5464079986113903
 21
14.27713179222798
 31
0.0
  0
SOLID
  5
5E
100
AcDbEntity
  8
Dimension
370
              -2
390
0
 62
               0
100
AcDbTrace
 10
-3.8617539676652228
 20
18.584750984626154
 30
0.0
 11
-1.8603589553752973
 21
17.69367251452125
 31
0.0
 12
-2.5740342790671313
 22
16.81235688660497
 32
0.0
 13
-2.5740342790671313
 23
16.81235688660497
 33
0.0
  0
LINE
  5
5F
100
AcDbEntity
  8
Dimension
370
              -2
390
0
  6
Continuous
 62
               0
100
AcDbLine
 10
1.5464079986113903
 20
14.27713179222798
 30
0.0
 11
7.54639600652939
 21
14.27713179222798
 31
0.0
  0
MTEXT
  5
60
100
AcDbEntity
  8
Dimension
390
0
 62
               0
100
AcDbMText
 10
7.5463960065293918
 20
15.519019813061313
 30
0.0
 40
2.273763020833333
 41
0.0
 71
               1
 72
               1
  1
Ø 0.4300mm pad (x 521)
  7
Helvetica
 73
               1
 44
0.9673603504928806
  0
POINT
  5
61
100
AcDbEntity
  8
Defpoints
370
               0
390
0
 62
               0
100
AcDbPoint
 10
-4.1981004883599287
 20
18.852652119406393
 30
0.0
  0
POINT
  5
62
100
AcDbEntity
  8
Defpoints
370
               0
390
0
 62
               0
100
AcDbPoint
 10
-3.8617539676652228
 20
18.584750984626154
 30
0.0
  0
ENDBLK
  5
63
100
AcDbEntity
  8
Dimension
390
0
100
AcDbBlockEnd
  0
BLOCK
  5
64
100
AcDbEntity
  8
Dimension
390
0
100
AcDbBlockBegin
  2
*D4
 70
               1
 10
0.0
 20
0.0
 30
0.0
  3
*D4
  1

  0
LINE
  5
65
100
AcDbEntity
  8
Dimension
370
              -2
390
0
  6
Continuous
 62
               0
100
AcDbLine
 10
-28.929542933597016
 20
5.1133172528696553
 30
0.0
 11
-28.929542933597016
 21
-10.139237272181191
 31
0.0
  0
LINE
  5
66
100
AcDbEntity
  8
Dimension
370
              -2
390
0
  6
Continuous
 62
               0
100
AcDbLine
 10
-27.679542933597027
 20
6.3633172528696411
 30
0.0
 11
-27.679542933597027
 21
-10.139237272181191
 31
0.0
  0
LINE
  5
67
100
AcDbEntity
  8
Dimension
370
              -2
390
0
  6
Continuous
 62
               0
100
AcDbLine
 10
-27.679542933597027
 20
-6.3292372627189533
 30
0.0
 11
-28.929542933597016
 21
-6.3292372627189533
 31
0.0
  0
LINE
  5
68
100
AcDbEntity
  8
Dimension
370
              -2
390
0
  6
Continuous
 62
               0
100
AcDbLine
 10
-28.929542933597016
 20
-6.3292372627189533
 30
0.0
 11
-35.92952892706429
 21
-6.3292372627189533
 31
0.0
  0
SOLID
  5
69
100
AcDbEntity
  8
Dimension
370
              -2
390
0
 62
               0
100
AcDbTrace
 10
-28.929542933597016
 20
-6.3292372627189533
 30
0.0
 11
-32.104542933597017
 21
-7.1799759486877681
 31
0.0
 12
-32.104542933597017
 22
-5.4784985767501375
 32
0.0
 13
-32.104542933597017
 23
-5.4784985767501375
 33
0.0
  0
LINE
  5
6A
100
AcDbEntity
  8
Dimension
370
              -2
390
0
  6
Continuous
 62
               0
100
AcDbLine
 10
-27.679542933597027
 20
-6.3292372627189533
 30
0.0
 11
-20.951533745173563
 21
-6.3292372627189533
 31
0.0
  0
SOLID
  5
6B
100
AcDbEntity
  8
Dimension
370
              -2
390
0
 62
               0
100
AcDbTrace
 10
-27.679542933597027
 20
-6.3292372627189533
 30
0.0
 11
-24.504542933597026
 21
-5.4784985767501393
 31
0.0
 12
-24.504542933597026
 22
-7.1799759486877672
 32
0.0
 13
-24.504542933597026
 23
-7.1799759486877672
 33
0.0
  0
MTEXT
  5
6C
100
AcDbEntity
  8
Dimension
390
0
 62
               0
100
AcDbMText
 10
-20.951533745173563
 20
-5.0873492418856205
 30
0.0
 40
2.273763020833333
 41
0.0
 71
               1
 72
               1
  1
1.25mm
  7
Helvetica
 73
               1
 44
0.9673603504928806
  0
MTEXT
  5
6D
100
AcDbEntity
  8
Dimension
390
0
 62
               0
100
AcDbMText
 10
-9.3945329915589255
 20
-5.0873492418856205
 30
0.0
 40
2.273763020833333
 41
0.0
 71
               1
 72
               1
  1
±0.13mm
  7
Helvetica
 73
               1
 44
0.9673603504928806
  0
POINT
  5
6E
100
AcDbEntity
  8
Defpoints
370
               0
390
0
 62
               0
100
AcDbPoint
 10
-27.679542933597027
 20
8.26831725760076
 30
0.0
  0
POINT
  5
6F
100
AcDbEntity
  8
Defpoints
370
               0
390
0
 62
               0
100
AcDbPoint
 10
-28.929542933597016
 20
7.0183172576007742
 30
0.0
  0
POINT
  5
70
100
AcDbEntity
  8
Defpoints
370
               0
390
0
 62
               0
100
AcDbPoint
 10
-28.929542933597016
 20
-6.3292372627189533
 30
0.0
  0
ENDBLK
  5
71
100
AcDbEntity
  8
Dimension
390
0
100
AcDbBlockEnd
  0
BLOCK
  5
72
100
AcDbEntity
  8
None
390
0
100
AcDbBlockBegin
  2
Group
 70
               0
 10
0.0
 20
0.0
 30
0.0
  3
Group
  1

  0
CIRCLE
  5
73
100
AcDbEntity
  8
None
370
               9
390
0
  6
Continuous
 62
               7
100
AcDbCircle
 10
-25.217042933597025
 20
31.530817257600944
 30
0.0
 40
0.2149952699479594
  0
CIRCLE
  5
74
100
AcDbEntity
  8
None
370
               9
390
0
  6
Continuous
 62
               7
100
AcDbCircle
 10
-24.417042933597013
 20
31.530817257600944
 30
0.0
 40
0.2149952699479717
  0
CIRCLE
  5
75
100
AcDbEntity
  8
None
370
               9
390
0
  6
Continuous
 62
               7
100
AcDbCircle
 10
-23.61704293359703
 20
31.530817257600944
 30
0.0
 40
0.2149952699479471
  0
CIRCLE
  5
76
100
AcDbEntity
  8
None
370
               9
390
0
  6
Continuous
 62
               7
100
AcDbCircle
 10
-22.817042933597019
 20
31.530817257600944
 30
0.0
 40
0.2149952699479717
  0
CIRCLE
  5
77
100
AcDbEntity
  8
None
370
               9
390
0
  6
Continuous
 62
               7
100
AcDbCircle
 10
-22.017042933597022
 20
31.530817257600944
 30
0.0
 40
0.2149952699479594
  0
CIRCLE
  5
78
100
AcDbEntity
  8
None
370
               9
390
0
  6
Continuous
 62
               7
100
AcDbCircle
 10
-21.217042933597025
 20
31.530817257600944
 30
0.0
 40
0.2149952699479594
  0
CIRCLE
  5
79
100
AcDbEntity
  8
None
370
               9
390
0
  6
Continuous
 62
               7
100
AcDbCircle
 10
-20.417042933597013
 20
31.530817257600944
 30
0.0
 40
0.2149952699479717
  0
CIRCLE
  5
7A
100
AcDbEntity
  8
None
370
               9
390
0
  6
Continuous
 62
               7
100
AcDbCircle
 10
-19.61704293359703
 20
31.530817257600944
 30
0.0
 40
0.2149952699479471
  0
CIRCLE
  5
7B
100
AcDbEntity
  8
None
370
               9
390
0
  6
Continuous
 62
               7
100
AcDbCircle
 10
-18.817042933597019
 20
31.530817257600944
 30
0.0
 40
0.2149952699479717
  0
CIRCLE
  5
7C
100
AcDbEntity
  8
None
370
               9
390
0
  6
Continuous
 62
               7
100
AcDbCircle
 10
-18.017042933597018
 20
31.530817257600944
 30
0.0
 40
0.2149952699479594
  0
CIRCLE
  5
7D
100
AcDbEntity
  8
None
370
               9
390
0
  6
Continuous
 62
               7
100
AcDbCircle
 10
-17.217042933597021
 20
31.530817257600944
 30
0.0
 40
0.2149952699479594
  0
CIRCLE
  5
7E
100
AcDbEntity
  8
None
370
               9
390
0
  6
Continuous
 62
               7
100
AcDbCircle
 10
-16.417042933597006
 20
31.530817257600944
 30
0.0
 40
0.2149952699479717
  0
CIRCLE
  5
7F
100
AcDbEntity
  8
None
370
               9
390
0
  6
Continuous
 62
               7
100
AcDbCircle
 10
-15.617042933597023
 20
31.530817257600944
 30
0.0
 40
0.2149952699479471
  0
CIRCLE
  5
80
100
AcDbEntity
  8
None
370
               9
390
0
  6
Continuous
 62
               7
100
AcDbCircle
 10
-14.81704293359701
 20
31.530817257600944
 30
0.0
 40
0.2149952699479732
  0
CIRCLE
  5
81
100
AcDbEntity
  8
None
370
               9
390
0
  6
Continuous
 62
               7
100
AcDbCircle
 10
-14.017042933597001
 20
31.530817257600944
 30
0.0
 40
0.2149952699479702
  0
CIRCLE
  5
82
100
AcDbEntity
  8
None
370
               9
390
0
  6
Continuous
 62
               7
100
AcDbCircle
 10
-13.217042933597018
 20
31.530817257600944
 30
0.0
 40
0.2149952699479471
  0
CIRCLE
  5
83
100
AcDbEntity
  8
None
370
               9
390
0
  6
Continuous
 62
               7
100
AcDbCircle
 10
-12.417042933597006
 20
31.530817257600944
 30
0.0
 40
0.2149952699479717
  0
CIRCLE
  5
84
100
AcDbEntity
  8
None
370
               9
390
0
  6
Continuous
 62
               7
100
AcDbCircle
 10
-11.617042933597023
 20
31.530817257600944
 30
0.0
 40
0.2149952699479471
  0
CIRCLE
  5
85
100
AcDbEntity
  8
None
370
               9
390
0
  6
Continuous
 62
               7
100
AcDbCircle
 10
-10.81704293359701
 20
31.530817257600944
 30
0.0
 40
0.2149952699479717
  0
CIRCLE
  5
86
100
AcDbEntity
  8
None
370
               9
390
0
  6
Continuous
 62
               7
100
AcDbCircle
 10
-10.017042933597001
 20
31.530817257600944
 30
0.0
 40
0.2149952699479717
  0
CIRCLE
  5
87
100
AcDbEntity
  8
None
370
               9
390
0
  6
Continuous
 62
               7
100
AcDbCircle
 10
-9.2170429335970177
 20
31.530817257600944
 30
0.0
 40
0.2149952699479471
  0
CIRCLE
  5
88
100
AcDbEntity
  8
None
370
               9
390
0
  6
Continuous
 62
               7
100
AcDbCircle
 10
-8.4170429335970081
 20
31.530817257600944
 30
0.0
 40
0.2149952699479702
  0
CIRCLE
  5
89
100
AcDbEntity
  8
None
370
               9
390
0
  6
Continuous
 62
               7
100
AcDbCircle
 10
-7.6170429335970269
 20
31.530817257600944
 30
0.0
 40
0.2149952699479471
  0
CIRCLE
  5
8A
100
AcDbEntity
  8
None
370
               9
390
0
  6
Continuous
 62
               7
100
AcDbCircle
 10
-6.8170429335970182
 20
31.530817257600944
 30
0.0
 40
0.2149952699479709
  0
CIRCLE
  5
8B
100
AcDbEntity
  8
None
370
               9
390
0
  6
Continuous
 62
               7
100
AcDbCircle
 10
-6.0170429335970077
 20
31.530817257600944
 30
0.0
 40
0.2149952699479709
  0
CIRCLE
  5
8C
100
AcDbEntity
  8
None
370
               9
390
0
  6
Continuous
 62
               7
100
AcDbCircle
 10
-5.2170429335969963
 20
31.530817257600944
 30
0.0
 40
0.2149952699479717
  0
CIRCLE
  5
8D
100
AcDbEntity
  8
None
370
               9
390
0
  6
Continuous
 62
               7
100
AcDbCircle
 10
-4.4170429335970134
 20
31.530817257600944
 30
0.0
 40
0.2149952699479471
  0
CIRCLE
  5
8E
100
AcDbEntity
  8
None
370
               9
390
0
  6
Continuous
 62
               7
100
AcDbCircle
 10
-25.217042933597025
 20
30.730817257600933
 30
0.0
 40
0.2149952699479736
  0
CIRCLE
  5
8F
100
AcDbEntity
  8
None
370
               9
390
0
  6
Continuous
 62
               7
100
AcDbCircle
 10
-24.417042933597013
 20
30.730817257600933
 30
0.0
 40
0.2149952699479859
  0
CIRCLE
  5
90
100
AcDbEntity
  8
None
370
               9
390
0
  6
Continuous
 62
               7
100
AcDbCircle
 10
-23.61704293359703
 20
30.730817257600933
 30
0.0
 40
0.2149952699479613
  0
CIRCLE
  5
91
100
AcDbEntity
  8
None
370
               9
390
0
  6
Continuous
 62
               7
100
AcDbCircle
 10
-22.817042933597019
 20
30.730817257600933
 30
0.0
 40
0.2149952699479859
  0
CIRCLE
  5
92
100
AcDbEntity
  8
None
370
               9
390
0
  6
Continuous
 62
               7
100
AcDbCircle
 10
-22.017042933597022
 20
30.730817257600933
 30
0.0
 40
0.2149952699479736
  0
CIRCLE
  5
93
100
AcDbEntity
  8
None
370
               9
390
0
  6
Continuous
 62
               7
100
AcDbCircle
 10
-21.217042933597025
 20
30.730817257600933
 30
0.0
 40
0.2149952699479736
  0
CIRCLE
  5
94
100
AcDbEntity
  8
None
370
               9
390
0
  6
Continuous
 62
               7
100
AcDbCircle
 10
-20.417042933597013
 20
30.730817257600933
 30
0.0
 40
0.2149952699479859
  0
CIRCLE
  5
95
100
AcDbEntity
  8
None
370
               9
390
0
  6
Continuous
 62
               7
100
AcDbCircle
 10
-19.61704293359703
 20
30.730817257600933
 30
0.0
 40
0.2149952699479613
  0
CIRCLE
  5
96
100
AcDbEntity
  8
None
370
               9
390
0
  6
Continuous
 62
               7
100
AcDbCircle
 10
-18.817042933597019
 20
30.730817257600933
 30
0.0
 40
0.2149952699479859
  0
CIRCLE
  5
97
100
AcDbEntity
  8
None
370
               9
390
0
  6
Continuous
 62
               7
100
AcDbCircle
 10
-18.017042933597018
 20
30.730817257600933
 30
0.0
 40
0.2149952699479736
  0
CIRCLE
  5
98
100
AcDbEntity
  8
None
370
               9
390
0
  6
Continuous
 62
               7
100
AcDbCircle
 10
-17.217042933597021
 20
30.730817257600933
 30
0.0
 40
0.2149952699479736
  0
CIRCLE
  5
99
100
AcDbEntity
  8
None
370
               9
390
0
  6
Continuous
 62
               7
100
AcDbCircle
 10
-16.417042933597006
 20
30.730817257600933
 30
0.0
 40
0.2149952699479859
  0
CIRCLE
  5
9A
100
AcDbEntity
  8
None
370
               9
390
0
  6
Continuous
 62
               7
100
AcDbCircle
 10
-15.617042933597023
 20
30.730817257600933
 30
0.0
 40
0.2149952699479613
  0
CIRCLE
  5
9B
100
AcDbEntity
  8
None
370
               9
390
0
  6
Continuous
 62
               7
100
AcDbCircle
 10
-14.81704293359701
 20
30.730817257600933
 30
0.0
 40
0.2149952699479875
  0
CIRCLE
  5
9C
100
AcDbEntity
  8
None
370
               9
390
0
  6
Continuous
 62
               7
100
AcDbCircle
 10
-14.017042933597001
 20
30.730817257600933
 30
0.0
 40
0.2149952699479844
  0
CIRCLE
  5
9D
100
AcDbEntity
  8
None
370
               9
390
0
  6
Continuous
 62
               7
100
AcDbCircle
 10
-13.217042933597018
 20
30.730817257600933
 30
0.0
 40
0.2149952699479613
  0
CIRCLE
  5
9E
100
AcDbEntity
  8
None
370
               9
390
0
  6
Continuous
 62
               7
100
AcDbCircle
 10
-12.417042933597006
 20
30.730817257600933
 30
0.0
 40
0.2149952699479859
  0
CIRCLE
  5
9F
100
AcDbEntity
  8
None
370
               9
390
0
  6
Continuous
 62
               7
100
AcDbCircle
 10
-11.617042933597023
 20
30.730817257600933
 30
0.0
 40
0.2149952699479613
  0
CIRCLE
  5
A0
100
AcDbEntity
  8
None
370
               9
390
0
  6
Continuous
 62
               7
100
AcDbCircle
 10
-10.81704293359701
 20
30.730817257600933
 30
0.0
 40
0.2149952699479859
  0
CIRCLE
  5
A1
100
AcDbEntity
  8
None
370
               9
390
0
  6
Continuous
 62
               7
100
AcDbCircle
 10
-10.017042933597001
 20
30.730817257600933
 30
0.0
 40
0.2149952699479859
  0
CIRCLE
  5
A2
100
AcDbEntity
  8
None
370
               9
390
0
  6
Continuous
 62
               7
100
AcDbCircle
 10
-9.2170429335970177
 20
30.730817257600933
 30
0.0
 40
0.2149952699479613
  0
CIRCLE
  5
A3
100
AcDbEntity
  8
None
370
               9
390
0
  6
Continuous
 62
               7
100
AcDbCircle
 10
-8.4170429335970081
 20
30.730817257600933
 30
0.0
 40
0.2149952699479844
  0
CIRCLE
  5
A4
100
AcDbEntity
  8
None
370
               9
390
0
  6
Continuous
 62
               7
100
AcDbCircle
 10
-7.6170429335970269
 20
30.730817257600933
 30
0.0
 40
0.2149952699479613
  0
CIRCLE
  5
A5
100
AcDbEntity
  8
None
370
               9
390
0
  6
Continuous
 62
               7
100
AcDbCircle
 10
-6.8170429335970182
 20
30.730817257600933
 30
0.0
 40
0.2149952699479852
  0
CIRCLE
  5
A6
100
AcDbEntity
  8
None
370
               9
390
0
  6
Continuous
 62
               7
100
AcDbCircle
 10
-6.0170429335970077
 20
30.730817257600933
 30
0.0
 40
0.2149952699479852
  0
CIRCLE
  5
A7
100
AcDbEntity
  8
None
370
               9
390
0
  6
Continuous
 62
               7
100
AcDbCircle
 10
-5.2170429335969963
 20
30.730817257600933
 30
0.0
 40
0.2149952699479859
  0
CIRCLE
  5
A8
100
AcDbEntity
  8
None
370
               9
390
0
  6
Continuous
 62
               7
100
AcDbCircle
 10
-4.4170429335970134
 20
30.730817257600933
 30
0.0
 40
0.2149952699479613
  0
CIRCLE
  5
A9
100
AcDbEntity
  8
None
370
               9
390
0
  6
Continuous
 62
               7
100
AcDbCircle
 10
-25.217042933597025
 20
29.930817257600935
 30
0.0
 40
0.2149952699479665
  0
CIRCLE
  5
AA
100
AcDbEntity
  8
None
370
               9
390
0
  6
Continuous
 62
               7
100
AcDbCircle
 10
-24.417042933597013
 20
29.930817257600935
 30
0.0
 40
0.2149952699479788
  0
CIRCLE
  5
AB
100
AcDbEntity
  8
None
370
               9
390
0
  6
Continuous
 62
               7
100
AcDbCircle
 10
-23.61704293359703
 20
29.930817257600935
 30
0.0
 40
0.2149952699479542
  0
CIRCLE
  5
AC
100
AcDbEntity
  8
None
370
               9
390
0
  6
Continuous
 62
               7
100
AcDbCircle
 10
-22.817042933597019
 20
29.930817257600935
 30
0.0
 40
0.2149952699479788
  0
CIRCLE
  5
AD
100
AcDbEntity
  8
None
370
               9
390
0
  6
Continuous
 62
               7
100
AcDbCircle
 10
-22.017042933597022
 20
29.930817257600935
 30
0.0
 40
0.2149952699479665
  0
CIRCLE
  5
AE
100
AcDbEntity
  8
None
370
               9
390
0
  6
Continuous
 62
               7
100
AcDbCircle
 10
-21.217042933597025
 20
29.930817257600935
 30
0.0
 40
0.2149952699479665
  0
CIRCLE
  5
AF
100
AcDbEntity
  8
None
370
               9
390
0
  6
Continuous
 62
               7
100
AcDbCircle
 10
-20.417042933597013
 20
29.930817257600935
 30
0.0
 40
0.2149952699479788
  0
CIRCLE
  5
B0
100
AcDbEntity
  8
None
370
               9
390
0
  6
Continuous
 62
               7
100
AcDbCircle
 10
-19.61704293359703
 20
29.930817257600935
 30
0.0
 40
0.2149952699479542
  0
CIRCLE
  5
B1
100
AcDbEntity
  8
None
370
               9
390
0
  6
Continuous
 62
               7
100
AcDbCircle
 10
-18.817042933597019
 20
29.930817257600935
 30
0.0
 40
0.2149952699479788
  0
CIRCLE
  5
B2
100
AcDbEntity
  8
None
370
               9
390
0
  6
Continuous
 62
               7
100
AcDbCircle
 10
-18.017042933597018
 20
29.930817257600935
 30
0.0
 40
0.2149952699479665
  0
CIRCLE
  5
B3
100
AcDbEntity
  8
None
370
               9
390
0
  6
Continuous
 62
               7
100
AcDbCircle
 10
-17.217042933597021
 20
29.930817257600935
 30
0.0
 40
0.2149952699479665
  0
CIRCLE
  5
B4
100
AcDbEntity
  8
None
370
               9
390
0
  6
Continuous
 62
               7
100
AcDbCircle
 10
-16.417042933597006
 20
29.930817257600935
 30
0.0
 40
0.2149952699479788
  0
CIRCLE
  5
B5
100
AcDbEntity
  8
None
370
               9
390
0
  6
Continuous
 62
               7
100
AcDbCircle
 10
-15.617042933597023
 20
29.930817257600935
 30
0.0
 40
0.2149952699479542
  0
CIRCLE
  5
B6
100
AcDbEntity
  8
None
370
               9
390
0
  6
Continuous
 62
               7
100
AcDbCircle
 10
-14.81704293359701
 20
29.930817257600935
 30
0.0
 40
0.2149952699479804
  0
CIRCLE
  5
B7
100
AcDbEntity
  8
None
370
               9
390
0
  6
Continuous
 62
               7
100
AcDbCircle
 10
-14.017042933597001
 20
29.930817257600935
 30
0.0
 40
0.2149952699479773
  0
CIRCLE
  5
B8
100
AcDbEntity
  8
None
370
               9
390
0
  6
Continuous
 62
               7
100
AcDbCircle
 10
-13.217042933597018
 20
29.930817257600935
 30
0.0
 40
0.2149952699479542
  0
CIRCLE
  5
B9
100
AcDbEntity
  8
None
370
               9
390
0
  6
Continuous
 62
               7
100
AcDbCircle
 10
-12.417042933597006
 20
29.930817257600935
 30
0.0
 40
0.2149952699479788
  0
CIRCLE
  5
BA
100
AcDbEntity
  8
None
370
               9
390
0
  6
Continuous
 62
               7
100
AcDbCircle
 10
-11.617042933597023
 20
29.930817257600935
 30
0.0
 40
0.2149952699479542
  0
CIRCLE
  5
BB
100
AcDbEntity
  8
None
370
               9
390
0
  6
Continuous
 62
               7
100
AcDbCircle
 10
-10.81704293359701
 20
29.930817257600935
 30
0.0
 40
0.2149952699479788
  0
CIRCLE
  5
BC
100
AcDbEntity
  8
None
370
               9
390
0
  6
Continuous
 62
               7
100
AcDbCircle
 10
-10.017042933597001
 20
29.930817257600935
 30
0.0
 40
0.2149952699479788
  0
CIRCLE
  5
BD
100
AcDbEntity
  8
None
370
               9
390
0
  6
Continuous
 62
               7
100
AcDbCircle
 10
-9.2170429335970177
 20
29.930817257600935
 30
0.0
 40
0.2149952699479542
  0
CIRCLE
  5
BE
100
AcDbEntity
  8
None
370
               9
390
0
  6
Continuous
 62
               7
100
AcDbCircle
 10
-8.4170429335970081
 20
29.930817257600935
 30
0.0
 40
0.2149952699479773
  0
CIRCLE
  5
BF
100
AcDbEntity
  8
None
370
               9
390
0
  6
Continuous
 62
               7
100
AcDbCircle
 10
-7.6170429335970269
 20
29.930817257600935
 30
0.0
 40
0.2149952699479542
  0
CIRCLE
  5
C0
100
AcDbEntity
  8
None
370
               9
390
0
  6
Continuous
 62
               7
100
AcDbCircle
 10
-6.8170429335970182
 20
29.930817257600935
 30
0.0
 40
0.2149952699479781
  0
CIRCLE
  5
C1
100
AcDbEntity
  8
None
370
               9
390
0
  6
Continuous
 62
               7
100
AcDbCircle
 10
-6.0170429335970077
 20
29.930817257600935
 30
0.0
 40
0.2149952699479781
  0
CIRCLE
  5
C2
100
AcDbEntity
  8
None
370
               9
390
0
  6
Continuous
 62
               7
100
AcDbCircle
 10
-5.2170429335969963
 20
29.930817257600935
 30
0.0
 40
0.2149952699479788
  0
CIRCLE
  5
C3
100
AcDbEntity
  8
None
370
               9
390
0
  6
Continuous
 62
               7
100
AcDbCircle
 10
-4.4170429335970134
 20
29.930817257600935
 30
0.0
 40
0.2149952699479542
  0
CIRCLE
  5
C4
100
AcDbEntity
  8
None
370
               9
390
0
  6
Continuous
 62
               7
100
AcDbCircle
 10
-25.217042933597025
 20
29.130817257600938
 30
0.0
 40
0.2149952699479665
  0
CIRCLE
  5
C5
100
AcDbEntity
  8
None
370
               9
390
0
  6
Continuous
 62
               7
100
AcDbCircle
 10
-24.417042933597013
 20
29.130817257600938
 30
0.0
 40
0.2149952699479788
  0
CIRCLE
  5
C6
100
AcDbEntity
  8
None
370
               9
390
0
  6
Continuous
 62
               7
100
AcDbCircle
 10
-23.61704293359703
 20
29.130817257600938
 30
0.0
 40
0.2149952699479542
  0
CIRCLE
  5
C7
100
AcDbEntity
  8
None
370
               9
390
0
  6
Continuous
 62
               7
100
AcDbCircle
 10
-22.817042933597019
 20
29.130817257600938
 30
0.0
 40
0.2149952699479788
  0
CIRCLE
  5
C8
100
AcDbEntity
  8
None
370
               9
390
0
  6
Continuous
 62
               7
100
AcDbCircle
 10
-22.017042933597022
 20
29.130817257600938
 30
0.0
 40
0.2149952699479665
  0
CIRCLE
  5
C9
100
AcDbEntity
  8
None
370
               9
390
0
  6
Continuous
 62
               7
100
AcDbCircle
 10
-21.217042933597025
 20
29.130817257600938
 30
0.0
 40
0.2149952699479665
  0
CIRCLE
  5
CA
100
AcDbEntity
  8
None
370
               9
390
0
  6
Continuous
 62
               7
100
AcDbCircle
 10
-20.417042933597013
 20
29.130817257600938
 30
0.0
 40
0.2149952699479788
  0
CIRCLE
  5
CB
100
AcDbEntity
  8
None
370
               9
390
0
  6
Continuous
 62
               7
100
AcDbCircle
 10
-19.61704293359703
 20
29.130817257600938
 30
0.0
 40
0.2149952699479542
  0
CIRCLE
  5
CC
100
AcDbEntity
  8
None
370
               9
390
0
  6
Continuous
 62
               7
100
AcDbCircle
 10
-18.817042933597019
 20
29.130817257600938
 30
0.0
 40
0.2149952699479788
  0
CIRCLE
  5
CD
100
AcDbEntity
  8
None
370
               9
390
0
  6
Continuous
 62
               7
100
AcDbCircle
 10
-18.017042933597018
 20
29.130817257600938
 30
0.0
 40
0.2149952699479665
  0
CIRCLE
  5
CE
100
AcDbEntity
  8
None
370
               9
390
0
  6
Continuous
 62
               7
100
AcDbCircle
 10
-17.217042933597021
 20
29.130817257600938
 30
0.0
 40
0.2149952699479665
  0
CIRCLE
  5
CF
100
AcDbEntity
  8
None
370
               9
390
0
  6
Continuous
 62
               7
100
AcDbCircle
 10
-16.417042933597006
 20
29.130817257600938
 30
0.0
 40
0.2149952699479788
  0
CIRCLE
  5
D0
100
AcDbEntity
  8
None
370
               9
390
0
  6
Continuous
 62
               7
100
AcDbCircle
 10
-15.617042933597023
 20
29.130817257600938
 30
0.0
 40
0.2149952699479542
  0
CIRCLE
  5
D1
100
AcDbEntity
  8
None
370
               9
390
0
  6
Continuous
 62
               7
100
AcDbCircle
 10
-14.81704293359701
 20
29.130817257600938
 30
0.0
 40
0.2149952699479804
  0
CIRCLE
  5
D2
100
AcDbEntity
  8
None
370
               9
390
0
  6
Continuous
 62
               7
100
AcDbCircle
 10
-14.017042933597001
 20
29.130817257600938
 30
0.0
 40
0.2149952699479773
  0
CIRCLE
  5
D3
100
AcDbEntity
  8
None
370
               9
390
0
  6
Continuous
 62
               7
100
AcDbCircle
 10
-13.217042933597018
 20
29.130817257600938
 30
0.0
 40
0.2149952699479542
  0
CIRCLE
  5
D4
100
AcDbEntity
  8
None
370
               9
390
0
  6
Continuous
 62
               7
100
AcDbCircle
 10
-12.417042933597006
 20
29.130817257600938
 30
0.0
 40
0.2149952699479788
  0
CIRCLE
  5
D5
100
AcDbEntity
  8
None
370
               9
390
0
  6
Continuous
 62
               7
100
AcDbCircle
 10
-11.617042933597023
 20
29.130817257600938
 30
0.0
 40
0.2149952699479542
  0
CIRCLE
  5
D6
100
AcDbEntity
  8
None
370
               9
390
0
  6
Continuous
 62
               7
100
AcDbCircle
 10
-10.81704293359701
 20
29.130817257600938
 30
0.0
 40
0.2149952699479788
  0
CIRCLE
  5
D7
100
AcDbEntity
  8
None
370
               9
390
0
  6
Continuous
 62
               7
100
AcDbCircle
 10
-10.017042933597001
 20
29.130817257600938
 30
0.0
 40
0.2149952699479788
  0
CIRCLE
  5
D8
100
AcDbEntity
  8
None
370
               9
390
0
  6
Continuous
 62
               7
100
AcDbCircle
 10
-9.2170429335970177
 20
29.130817257600938
 30
0.0
 40
0.2149952699479542
  0
CIRCLE
  5
D9
100
AcDbEntity
  8
None
370
               9
390
0
  6
Continuous
 62
               7
100
AcDbCircle
 10
-8.4170429335970081
 20
29.130817257600938
 30
0.0
 40
0.2149952699479773
  0
CIRCLE
  5
DA
100
AcDbEntity
  8
None
370
               9
390
0
  6
Continuous
 62
               7
100
AcDbCircle
 10
-7.6170429335970269
 20
29.130817257600938
 30
0.0
 40
0.2149952699479542
  0
CIRCLE
  5
DB
100
AcDbEntity
  8
None
370
               9
390
0
  6
Continuous
 62
               7
100
AcDbCircle
 10
-6.8170429335970182
 20
29.130817257600938
 30
0.0
 40
0.2149952699479781
  0
CIRCLE
  5
DC
100
AcDbEntity
  8
None
370
               9
390
0
  6
Continuous
 62
               7
100
AcDbCircle
 10
-6.0170429335970077
 20
29.130817257600938
 30
0.0
 40
0.2149952699479781
  0
CIRCLE
  5
DD
100
AcDbEntity
  8
None
370
               9
390
0
  6
Continuous
 62
               7
100
AcDbCircle
 10
-5.2170429335969963
 20
29.130817257600938
 30
0.0
 40
0.2149952699479788
  0
CIRCLE
  5
DE
100
AcDbEntity
  8
None
370
               9
390
0
  6
Continuous
 62
               7
100
AcDbCircle
 10
-4.4170429335970134
 20
29.130817257600938
 30
0.0
 40
0.2149952699479542
  0
CIRCLE
  5
DF
100
AcDbEntity
  8
None
370
               9
390
0
  6
Continuous
 62
               7
100
AcDbCircle
 10
-25.217042933597025
 20
28.330817257600927
 30
0.0
 40
0.2149952699479736
  0
CIRCLE
  5
E0
100
AcDbEntity
  8
None
370
               9
390
0
  6
Continuous
 62
               7
100
AcDbCircle
 10
-24.417042933597013
 20
28.330817257600927
 30
0.0
 40
0.2149952699479859
  0
CIRCLE
  5
E1
100
AcDbEntity
  8
None
370
               9
390
0
  6
Continuous
 62
               7
100
AcDbCircle
 10
-23.61704293359703
 20
28.330817257600927
 30
0.0
 40
0.2149952699479613
  0
CIRCLE
  5
E2
100
AcDbEntity
  8
None
370
               9
390
0
  6
Continuous
 62
               7
100
AcDbCircle
 10
-22.817042933597019
 20
28.330817257600927
 30
0.0
 40
0.2149952699479859
  0
CIRCLE
  5
E3
100
AcDbEntity
  8
None
370
               9
390
0
  6
Continuous
 62
               7
100
AcDbCircle
 10
-22.017042933597022
 20
28.330817257600927
 30
0.0
 40
0.2149952699479736
  0
CIRCLE
  5
E4
100
AcDbEntity
  8
None
370
               9
390
0
  6
Continuous
 62
               7
100
AcDbCircle
 10
-21.217042933597025
 20
28.330817257600927
 30
0.0
 40
0.2149952699479736
  0
CIRCLE
  5
E5
100
AcDbEntity
  8
None
370
               9
390
0
  6
Continuous
 62
               7
100
AcDbCircle
 10
-20.417042933597013
 20
28.330817257600927
 30
0.0
 40
0.2149952699479859
  0
CIRCLE
  5
E6
100
AcDbEntity
  8
None
370
               9
390
0
  6
Continuous
 62
               7
100
AcDbCircle
 10
-19.61704293359703
 20
28.330817257600927
 30
0.0
 40
0.2149952699479613
  0
CIRCLE
  5
E7
100
AcDbEntity
  8
None
370
               9
390
0
  6
Continuous
 62
               7
100
AcDbCircle
 10
-18.817042933597019
 20
28.330817257600927
 30
0.0
 40
0.2149952699479859
  0
CIRCLE
  5
E8
100
AcDbEntity
  8
None
370
               9
390
0
  6
Continuous
 62
               7
100
AcDbCircle
 10
-18.017042933597018
 20
28.330817257600927
 30
0.0
 40
0.2149952699479736
  0
CIRCLE
  5
E9
100
AcDbEntity
  8
None
370
               9
390
0
  6
Continuous
 62
               7
100
AcDbCircle
 10
-17.217042933597021
 20
28.330817257600927
 30
0.0
 40
0.2149952699479736
  0
CIRCLE
  5
EA
100
AcDbEntity
  8
None
370
               9
390
0
  6
Continuous
 62
               7
100
AcDbCircle
 10
-16.417042933597006
 20
28.330817257600927
 30
0.0
 40
0.2149952699479859
  0
CIRCLE
  5
EB
100
AcDbEntity
  8
None
370
               9
390
0
  6
Continuous
 62
               7
100
AcDbCircle
 10
-15.617042933597023
 20
28.330817257600927
 30
0.0
 40
0.2149952699479613
  0
CIRCLE
  5
EC
100
AcDbEntity
  8
None
370
               9
390
0
  6
Continuous
 62
               7
100
AcDbCircle
 10
-14.81704293359701
 20
28.330817257600927
 30
0.0
 40
0.2149952699479875
  0
CIRCLE
  5
ED
100
AcDbEntity
  8
None
370
               9
390
0
  6
Continuous
 62
               7
100
AcDbCircle
 10
-14.017042933597001
 20
28.330817257600927
 30
0.0
 40
0.2149952699479844
  0
CIRCLE
  5
EE
100
AcDbEntity
  8
None
370
               9
390
0
  6
Continuous
 62
               7
100
AcDbCircle
 10
-13.217042933597018
 20
28.330817257600927
 30
0.0
 40
0.2149952699479613
  0
CIRCLE
  5
EF
100
AcDbEntity
  8
None
370
               9
390
0
  6
Continuous
 62
               7
100
AcDbCircle
 10
-12.417042933597006
 20
28.330817257600927
 30
0.0
 40
0.2149952699479859
  0
CIRCLE
  5
F0
100
AcDbEntity
  8
None
370
               9
390
0
  6
Continuous
 62
               7
100
AcDbCircle
 10
-11.617042933597023
 20
28.330817257600927
 30
0.0
 40
0.2149952699479613
  0
CIRCLE
  5
F1
100
AcDbEntity
  8
None
370
               9
390
0
  6
Continuous
 62
               7
100
AcDbCircle
 10
-10.81704293359701
 20
28.330817257600927
 30
0.0
 40
0.2149952699479859
  0
CIRCLE
  5
F2
100
AcDbEntity
  8
None
370
               9
390
0
  6
Continuous
 62
               7
100
AcDbCircle
 10
-10.017042933597001
 20
28.330817257600927
 30
0.0
 40
0.2149952699479859
  0
CIRCLE
  5
F3
100
AcDbEntity
  8
None
370
               9
390
0
  6
Continuous
 62
               7
100
AcDbCircle
 10
-9.2170429335970177
 20
28.330817257600927
 30
0.0
 40
0.2149952699479613
  0
CIRCLE
  5
F4
100
AcDbEntity
  8
None
370
               9
390
0
  6
Continuous
 62
               7
100
AcDbCircle
 10
-8.4170429335970081
 20
28.330817257600927
 30
0.0
 40
0.2149952699479844
  0
CIRCLE
  5
F5
100
AcDbEntity
  8
None
370
               9
390
0
  6
Continuous
 62
               7
100
AcDbCircle
 10
-7.6170429335970269
 20
28.330817257600927
 30
0.0
 40
0.2149952699479613
  0
CIRCLE
  5
F6
100
AcDbEntity
  8
None
370
               9
390
0
  6
Continuous
 62
               7
100
AcDbCircle
 10
-6.8170429335970182
 20
28.330817257600927
 30
0.0
 40
0.2149952699479852
  0
CIRCLE
  5
F7
100
AcDbEntity
  8
None
370
               9
390
0
  6
Continuous
 62
               7
100
AcDbCircle
 10
-6.0170429335970077
 20
28.330817257600927
 30
0.0
 40
0.2149952699479852
  0
CIRCLE
  5
F8
100
AcDbEntity
  8
None
370
               9
390
0
  6
Continuous
 62
               7
100
AcDbCircle
 10
-5.2170429335969963
 20
28.330817257600927
 30
0.0
 40
0.2149952699479859
  0
CIRCLE
  5
F9
100
AcDbEntity
  8
None
370
               9
390
0
  6
Continuous
 62
               7
100
AcDbCircle
 10
-4.4170429335970134
 20
28.330817257600927
 30
0.0
 40
0.2149952699479613
  0
CIRCLE
  5
FA
100
AcDbEntity
  8
None
370
               9
390
0
  6
Continuous
 62
               7
100
AcDbCircle
 10
-25.217042933597025
 20
27.530817257600944
 30
0.0
 40
0.2149952699479594
  0
CIRCLE
  5
FB
100
AcDbEntity
  8
None
370
               9
390
0
  6
Continuous
 62
               7
100
AcDbCircle
 10
-24.417042933597013
 20
27.530817257600944
 30
0.0
 40
0.2149952699479717
  0
CIRCLE
  5
FC
100
AcDbEntity
  8
None
370
               9
390
0
  6
Continuous
 62
               7
100
AcDbCircle
 10
-23.61704293359703
 20
27.530817257600944
 30
0.0
 40
0.2149952699479471
  0
CIRCLE
  5
FD
100
AcDbEntity
  8
None
370
               9
390
0
  6
Continuous
 62
               7
100
AcDbCircle
 10
-22.817042933597019
 20
27.530817257600944
 30
0.0
 40
0.2149952699479717
  0
CIRCLE
  5
FE
100
AcDbEntity
  8
None
370
               9
390
0
  6
Continuous
 62
               7
100
AcDbCircle
 10
-22.017042933597022
 20
27.530817257600944
 30
0.0
 40
0.2149952699479594
  0
CIRCLE
  5
FF
100
AcDbEntity
  8
None
370
               9
390
0
  6
Continuous
 62
               7
100
AcDbCircle
 10
-7.6170429335970269
 20
27.530817257600944
 30
0.0
 40
0.2149952699479471
  0
CIRCLE
  5
100
100
AcDbEntity
  8
None
370
               9
390
0
  6
Continuous
 62
               7
100
AcDbCircle
 10
-6.8170429335970182
 20
27.530817257600944
 30
0.0
 40
0.2149952699479709
  0
CIRCLE
  5
101
100
AcDbEntity
  8
None
370
               9
390
0
  6
Continuous
 62
               7
100
AcDbCircle
 10
-6.0170429335970077
 20
27.530817257600944
 30
0.0
 40
0.2149952699479709
  0
CIRCLE
  5
102
100
AcDbEntity
  8
None
370
               9
390
0
  6
Continuous
 62
               7
100
AcDbCircle
 10
-5.2170429335969963
 20
27.530817257600944
 30
0.0
 40
0.2149952699479717
  0
CIRCLE
  5
103
100
AcDbEntity
  8
None
370
               9
390
0
  6
Continuous
 62
               7
100
AcDbCircle
 10
-4.4170429335970134
 20
27.530817257600944
 30
0.0
 40
0.2149952699479471
  0
CIRCLE
  5
104
100
AcDbEntity
  8
None
370
               9
390
0
  6
Continuous
 62
               7
100
AcDbCircle
 10
-25.217042933597025
 20
26.730817257600933
 30
0.0
 40
0.2149952699479736
  0
CIRCLE
  5
105
100
AcDbEntity
  8
None
370
               9
390
0
  6
Continuous
 62
               7
100
AcDbCircle
 10
-24.417042933597013
 20
26.730817257600933
 30
0.0
 40
0.2149952699479859
  0
CIRCLE
  5
106
100
AcDbEntity
  8
None
370
               9
390
0
  6
Continuous
 62
               7
100
AcDbCircle
 10
-23.61704293359703
 20
26.730817257600933
 30
0.0
 40
0.2149952699479613
  0
CIRCLE
  5
107
100
AcDbEntity
  8
None
370
               9
390
0
  6
Continuous
 62
               7
100
AcDbCircle
 10
-22.817042933597019
 20
26.730817257600933
 30
0.0
 40
0.2149952699479859
  0
CIRCLE
  5
108
100
AcDbEntity
  8
None
370
               9
390
0
  6
Continuous
 62
               7
100
AcDbCircle
 10
-22.017042933597022
 20
26.730817257600933
 30
0.0
 40
0.2149952699479736
  0
CIRCLE
  5
109
100
AcDbEntity
  8
None
370
               9
390
0
  6
Continuous
 62
               7
100
AcDbCircle
 10
-7.6170429335970269
 20
26.730817257600933
 30
0.0
 40
0.2149952699479613
  0
CIRCLE
  5
10A
100
AcDbEntity
  8
None
370
               9
390
0
  6
Continuous
 62
               7
100
AcDbCircle
 10
-6.8170429335970182
 20
26.730817257600933
 30
0.0
 40
0.2149952699479852
  0
CIRCLE
  5
10B
100
AcDbEntity
  8
None
370
               9
390
0
  6
Continuous
 62
               7
100
AcDbCircle
 10
-6.0170429335970077
 20
26.730817257600933
 30
0.0
 40
0.2149952699479852
  0
CIRCLE
  5
10C
100
AcDbEntity
  8
None
370
               9
390
0
  6
Continuous
 62
               7
100
AcDbCircle
 10
-5.2170429335969963
 20
26.730817257600933
 30
0.0
 40
0.2149952699479859
  0
CIRCLE
  5
10D
100
AcDbEntity
  8
None
370
               9
390
0
  6
Continuous
 62
               7
100
AcDbCircle
 10
-4.4170429335970134
 20
26.730817257600933
 30
0.0
 40
0.2149952699479613
  0
CIRCLE
  5
10E
100
AcDbEntity
  8
None
370
               9
390
0
  6
Continuous
 62
               7
100
AcDbCircle
 10
-25.217042933597025
 20
25.930817257600935
 30
0.0
 40
0.2149952699479665
  0
CIRCLE
  5
10F
100
AcDbEntity
  8
None
370
               9
390
0
  6
Continuous
 62
               7
100
AcDbCircle
 10
-24.417042933597013
 20
25.930817257600935
 30
0.0
 40
0.2149952699479788
  0
CIRCLE
  5
110
100
AcDbEntity
  8
None
370
               9
390
0
  6
Continuous
 62
               7
100
AcDbCircle
 10
-23.61704293359703
 20
25.930817257600935
 30
0.0
 40
0.2149952699479542
  0
CIRCLE
  5
111
100
AcDbEntity
  8
None
370
               9
390
0
  6
Continuous
 62
               7
100
AcDbCircle
 10
-22.817042933597019
 20
25.930817257600935
 30
0.0
 40
0.2149952699479788
  0
CIRCLE
  5
112
100
AcDbEntity
  8
None
370
               9
390
0
  6
Continuous
 62
               7
100
AcDbCircle
 10
-22.017042933597022
 20
25.930817257600935
 30
0.0
 40
0.2149952699479665
  0
CIRCLE
  5
113
100
AcDbEntity
  8
None
370
               9
390
0
  6
Continuous
 62
               7
100
AcDbCircle
 10
-7.6170429335970269
 20
25.930817257600935
 30
0.0
 40
0.2149952699479542
  0
CIRCLE
  5
114
100
AcDbEntity
  8
None
370
               9
390
0
  6
Continuous
 62
               7
100
AcDbCircle
 10
-6.8170429335970182
 20
25.930817257600935
 30
0.0
 40
0.2149952699479781
  0
CIRCLE
  5
115
100
AcDbEntity
  8
None
370
               9
390
0
  6
Continuous
 62
               7
100
AcDbCircle
 10
-6.0170429335970077
 20
25.930817257600935
 30
0.0
 40
0.2149952699479781
  0
CIRCLE
  5
116
100
AcDbEntity
  8
None
370
               9
390
0
  6
Continuous
 62
               7
100
AcDbCircle
 10
-5.2170429335969963
 20
25.930817257600935
 30
0.0
 40
0.2149952699479788
  0
CIRCLE
  5
117
100
AcDbEntity
  8
None
370
               9
390
0
  6
Continuous
 62
               7
100
AcDbCircle
 10
-4.4170429335970134
 20
25.930817257600935
 30
0.0
 40
0.2149952699479542
  0
CIRCLE
  5
118
100
AcDbEntity
  8
None
370
               9
390
0
  6
Continuous
 62
               7
100
AcDbCircle
 10
-25.217042933597025
 20
25.130817257600938
 30
0.0
 40
0.2149952699479665
  0
CIRCLE
  5
119
100
AcDbEntity
  8
None
370
               9
390
0
  6
Continuous
 62
               7
100
AcDbCircle
 10
-24.417042933597013
 20
25.130817257600938
 30
0.0
 40
0.2149952699479788
  0
CIRCLE
  5
11A
100
AcDbEntity
  8
None
370
               9
390
0
  6
Continuous
 62
               7
100
AcDbCircle
 10
-23.61704293359703
 20
25.130817257600938
 30
0.0
 40
0.2149952699479542
  0
CIRCLE
  5
11B
100
AcDbEntity
  8
None
370
               9
390
0
  6
Continuous
 62
               7
100
AcDbCircle
 10
-22.817042933597019
 20
25.130817257600938
 30
0.0
 40
0.2149952699479788
  0
CIRCLE
  5
11C
100
AcDbEntity
  8
None
370
               9
390
0
  6
Continuous
 62
               7
100
AcDbCircle
 10
-22.017042933597022
 20
25.130817257600938
 30
0.0
 40
0.2149952699479665
  0
CIRCLE
  5
11D
100
AcDbEntity
  8
None
370
               9
390
0
  6
Continuous
 62
               7
100
AcDbCircle
 10
-7.6170429335970269
 20
25.130817257600938
 30
0.0
 40
0.2149952699479542
  0
CIRCLE
  5
11E
100
AcDbEntity
  8
None
370
               9
390
0
  6
Continuous
 62
               7
100
AcDbCircle
 10
-6.8170429335970182
 20
25.130817257600938
 30
0.0
 40
0.2149952699479781
  0
CIRCLE
  5
11F
100
AcDbEntity
  8
None
370
               9
390
0
  6
Continuous
 62
               7
100
AcDbCircle
 10
-6.0170429335970077
 20
25.130817257600938
 30
0.0
 40
0.2149952699479781
  0
CIRCLE
  5
120
100
AcDbEntity
  8
None
370
               9
390
0
  6
Continuous
 62
               7
100
AcDbCircle
 10
-5.2170429335969963
 20
25.130817257600938
 30
0.0
 40
0.2149952699479788
  0
CIRCLE
  5
121
100
AcDbEntity
  8
None
370
               9
390
0
  6
Continuous
 62
               7
100
AcDbCircle
 10
-4.4170429335970134
 20
25.130817257600938
 30
0.0
 40
0.2149952699479542
  0
CIRCLE
  5
122
100
AcDbEntity
  8
None
370
               9
390
0
  6
Continuous
 62
               7
100
AcDbCircle
 10
-25.217042933597025
 20
24.330817257600941
 30
0.0
 40
0.2149952699479665
  0
CIRCLE
  5
123
100
AcDbEntity
  8
None
370
               9
390
0
  6
Continuous
 62
               7
100
AcDbCircle
 10
-24.417042933597013
 20
24.330817257600941
 30
0.0
 40
0.2149952699479788
  0
CIRCLE
  5
124
100
AcDbEntity
  8
None
370
               9
390
0
  6
Continuous
 62
               7
100
AcDbCircle
 10
-23.61704293359703
 20
24.330817257600941
 30
0.0
 40
0.2149952699479542
  0
CIRCLE
  5
125
100
AcDbEntity
  8
None
370
               9
390
0
  6
Continuous
 62
               7
100
AcDbCircle
 10
-22.817042933597019
 20
24.330817257600941
 30
0.0
 40
0.2149952699479788
  0
CIRCLE
  5
126
100
AcDbEntity
  8
None
370
               9
390
0
  6
Continuous
 62
               7
100
AcDbCircle
 10
-22.017042933597022
 20
24.330817257600941
 30
0.0
 40
0.2149952699479665
  0
CIRCLE
  5
127
100
AcDbEntity
  8
None
370
               9
390
0
  6
Continuous
 62
               7
100
AcDbCircle
 10
-18.017042933597018
 20
24.330817257600941
 30
0.0
 40
0.2149952699479665
  0
CIRCLE
  5
128
100
AcDbEntity
  8
None
370
               9
390
0
  6
Continuous
 62
               7
100
AcDbCircle
 10
-17.217042933597021
 20
24.330817257600941
 30
0.0
 40
0.2149952699479665
  0
CIRCLE
  5
129
100
AcDbEntity
  8
None
370
               9
390
0
  6
Continuous
 62
               7
100
AcDbCircle
 10
-16.417042933597006
 20
24.330817257600941
 30
0.0
 40
0.2149952699479788
  0
CIRCLE
  5
12A
100
AcDbEntity
  8
None
370
               9
390
0
  6
Continuous
 62
               7
100
AcDbCircle
 10
-15.617042933597023
 20
24.330817257600941
 30
0.0
 40
0.2149952699479542
  0
CIRCLE
  5
12B
100
AcDbEntity
  8
None
370
               9
390
0
  6
Continuous
 62
               7
100
AcDbCircle
 10
-14.81704293359701
 20
24.330817257600941
 30
0.0
 40
0.2149952699479804
  0
CIRCLE
  5
12C
100
AcDbEntity
  8
None
370
               9
390
0
  6
Continuous
 62
               7
100
AcDbCircle
 10
-14.017042933597001
 20
24.330817257600941
 30
0.0
 40
0.2149952699479773
  0
CIRCLE
  5
12D
100
AcDbEntity
  8
None
370
               9
390
0
  6
Continuous
 62
               7
100
AcDbCircle
 10
-13.217042933597018
 20
24.330817257600941
 30
0.0
 40
0.2149952699479542
  0
CIRCLE
  5
12E
100
AcDbEntity
  8
None
370
               9
390
0
  6
Continuous
 62
               7
100
AcDbCircle
 10
-12.417042933597006
 20
24.330817257600941
 30
0.0
 40
0.2149952699479788
  0
CIRCLE
  5
12F
100
AcDbEntity
  8
None
370
               9
390
0
  6
Continuous
 62
               7
100
AcDbCircle
 10
-11.617042933597023
 20
24.330817257600941
 30
0.0
 40
0.2149952699479542
  0
CIRCLE
  5
130
100
AcDbEntity
  8
None
370
               9
390
0
  6
Continuous
 62
               7
100
AcDbCircle
 10
-7.6170429335970269
 20
24.330817257600941
 30
0.0
 40
0.2149952699479542
  0
CIRCLE
  5
131
100
AcDbEntity
  8
None
370
               9
390
0
  6
Continuous
 62
               7
100
AcDbCircle
 10
-6.8170429335970182
 20
24.330817257600941
 30
0.0
 40
0.2149952699479781
  0
CIRCLE
  5
132
100
AcDbEntity
  8
None
370
               9
390
0
  6
Continuous
 62
               7
100
AcDbCircle
 10
-6.0170429335970077
 20
24.330817257600941
 30
0.0
 40
0.2149952699479781
  0
CIRCLE
  5
133
100
AcDbEntity
  8
None
370
               9
390
0
  6
Continuous
 62
               7
100
AcDbCircle
 10
-5.2170429335969963
 20
24.330817257600941
 30
0.0
 40
0.2149952699479788
  0
CIRCLE
  5
134
100
AcDbEntity
  8
None
370
               9
390
0
  6
Continuous
 62
               7
100
AcDbCircle
 10
-4.4170429335970134
 20
24.330817257600941
 30
0.0
 40
0.2149952699479542
  0
CIRCLE
  5
135
100
AcDbEntity
  8
None
370
               9
390
0
  6
Continuous
 62
               7
100
AcDbCircle
 10
-25.217042933597025
 20
23.530817257600944
 30
0.0
 40
0.2149952699479594
  0
CIRCLE
  5
136
100
AcDbEntity
  8
None
370
               9
390
0
  6
Continuous
 62
               7
100
AcDbCircle
 10
-24.417042933597013
 20
23.530817257600944
 30
0.0
 40
0.2149952699479717
  0
CIRCLE
  5
137
100
AcDbEntity
  8
None
370
               9
390
0
  6
Continuous
 62
               7
100
AcDbCircle
 10
-23.61704293359703
 20
23.530817257600944
 30
0.0
 40
0.2149952699479471
  0
CIRCLE
  5
138
100
AcDbEntity
  8
None
370
               9
390
0
  6
Continuous
 62
               7
100
AcDbCircle
 10
-22.817042933597019
 20
23.530817257600944
 30
0.0
 40
0.2149952699479717
  0
CIRCLE
  5
139
100
AcDbEntity
  8
None
370
               9
390
0
  6
Continuous
 62
               7
100
AcDbCircle
 10
-22.017042933597022
 20
23.530817257600944
 30
0.0
 40
0.2149952699479594
  0
CIRCLE
  5
13A
100
AcDbEntity
  8
None
370
               9
390
0
  6
Continuous
 62
               7
100
AcDbCircle
 10
-18.017042933597018
 20
23.530817257600944
 30
0.0
 40
0.2149952699479594
  0
CIRCLE
  5
13B
100
AcDbEntity
  8
None
370
               9
390
0
  6
Continuous
 62
               7
100
AcDbCircle
 10
-17.217042933597021
 20
23.530817257600944
 30
0.0
 40
0.2149952699479594
  0
CIRCLE
  5
13C
100
AcDbEntity
  8
None
370
               9
390
0
  6
Continuous
 62
               7
100
AcDbCircle
 10
-16.417042933597006
 20
23.530817257600944
 30
0.0
 40
0.2149952699479717
  0
CIRCLE
  5
13D
100
AcDbEntity
  8
None
370
               9
390
0
  6
Continuous
 62
               7
100
AcDbCircle
 10
-15.617042933597023
 20
23.530817257600944
 30
0.0
 40
0.2149952699479471
  0
CIRCLE
  5
13E
100
AcDbEntity
  8
None
370
               9
390
0
  6
Continuous
 62
               7
100
AcDbCircle
 10
-14.81704293359701
 20
23.530817257600944
 30
0.0
 40
0.2149952699479732
  0
CIRCLE
  5
13F
100
AcDbEntity
  8
None
370
               9
390
0
  6
Continuous
 62
               7
100
AcDbCircle
 10
-14.017042933597001
 20
23.530817257600944
 30
0.0
 40
0.2149952699479702
  0
CIRCLE
  5
140
100
AcDbEntity
  8
None
370
               9
390
0
  6
Continuous
 62
               7
100
AcDbCircle
 10
-13.217042933597018
 20
23.530817257600944
 30
0.0
 40
0.2149952699479471
  0
CIRCLE
  5
141
100
AcDbEntity
  8
None
370
               9
390
0
  6
Continuous
 62
               7
100
AcDbCircle
 10
-12.417042933597006
 20
23.530817257600944
 30
0.0
 40
0.2149952699479717
  0
CIRCLE
  5
142
100
AcDbEntity
  8
None
370
               9
390
0
  6
Continuous
 62
               7
100
AcDbCircle
 10
-11.617042933597023
 20
23.530817257600944
 30
0.0
 40
0.2149952699479471
  0
CIRCLE
  5
143
100
AcDbEntity
  8
None
370
               9
390
0
  6
Continuous
 62
               7
100
AcDbCircle
 10
-7.6170429335970269
 20
23.530817257600944
 30
0.0
 40
0.2149952699479471
  0
CIRCLE
  5
144
100
AcDbEntity
  8
None
370
               9
390
0
  6
Continuous
 62
               7
100
AcDbCircle
 10
-6.8170429335970182
 20
23.530817257600944
 30
0.0
 40
0.2149952699479709
  0
CIRCLE
  5
145
100
AcDbEntity
  8
None
370
               9
390
0
  6
Continuous
 62
               7
100
AcDbCircle
 10
-6.0170429335970077
 20
23.530817257600944
 30
0.0
 40
0.2149952699479709
  0
CIRCLE
  5
146
100
AcDbEntity
  8
None
370
               9
390
0
  6
Continuous
 62
               7
100
AcDbCircle
 10
-5.2170429335969963
 20
23.530817257600944
 30
0.0
 40
0.2149952699479717
  0
CIRCLE
  5
147
100
AcDbEntity
  8
None
370
               9
390
0
  6
Continuous
 62
               7
100
AcDbCircle
 10
-4.4170429335970134
 20
23.530817257600944
 30
0.0
 40
0.2149952699479471
  0
CIRCLE
  5
148
100
AcDbEntity
  8
None
370
               9
390
0
  6
Continuous
 62
               7
100
AcDbCircle
 10
-25.217042933597025
 20
22.730817257600933
 30
0.0
 40
0.2149952699479736
  0
CIRCLE
  5
149
100
AcDbEntity
  8
None
370
               9
390
0
  6
Continuous
 62
               7
100
AcDbCircle
 10
-24.417042933597013
 20
22.730817257600933
 30
0.0
 40
0.2149952699479859
  0
CIRCLE
  5
14A
100
AcDbEntity
  8
None
370
               9
390
0
  6
Continuous
 62
               7
100
AcDbCircle
 10
-23.61704293359703
 20
22.730817257600933
 30
0.0
 40
0.2149952699479613
  0
CIRCLE
  5
14B
100
AcDbEntity
  8
None
370
               9
390
0
  6
Continuous
 62
               7
100
AcDbCircle
 10
-22.817042933597019
 20
22.730817257600933
 30
0.0
 40
0.2149952699479859
  0
CIRCLE
  5
14C
100
AcDbEntity
  8
None
370
               9
390
0
  6
Continuous
 62
               7
100
AcDbCircle
 10
-22.017042933597022
 20
22.730817257600933
 30
0.0
 40
0.2149952699479736
  0
CIRCLE
  5
14D
100
AcDbEntity
  8
None
370
               9
390
0
  6
Continuous
 62
               7
100
AcDbCircle
 10
-18.017042933597018
 20
22.730817257600933
 30
0.0
 40
0.2149952699479736
  0
CIRCLE
  5
14E
100
AcDbEntity
  8
None
370
               9
390
0
  6
Continuous
 62
               7
100
AcDbCircle
 10
-17.217042933597021
 20
22.730817257600933
 30
0.0
 40
0.2149952699479736
  0
CIRCLE
  5
14F
100
AcDbEntity
  8
None
370
               9
390
0
  6
Continuous
 62
               7
100
AcDbCircle
 10
-16.417042933597006
 20
22.730817257600933
 30
0.0
 40
0.2149952699479859
  0
CIRCLE
  5
150
100
AcDbEntity
  8
None
370
               9
390
0
  6
Continuous
 62
               7
100
AcDbCircle
 10
-15.617042933597023
 20
22.730817257600933
 30
0.0
 40
0.2149952699479613
  0
CIRCLE
  5
151
100
AcDbEntity
  8
None
370
               9
390
0
  6
Continuous
 62
               7
100
AcDbCircle
 10
-14.81704293359701
 20
22.730817257600933
 30
0.0
 40
0.2149952699479875
  0
CIRCLE
  5
152
100
AcDbEntity
  8
None
370
               9
390
0
  6
Continuous
 62
               7
100
AcDbCircle
 10
-14.017042933597001
 20
22.730817257600933
 30
0.0
 40
0.2149952699479844
  0
CIRCLE
  5
153
100
AcDbEntity
  8
None
370
               9
390
0
  6
Continuous
 62
               7
100
AcDbCircle
 10
-13.217042933597018
 20
22.730817257600933
 30
0.0
 40
0.2149952699479613
  0
CIRCLE
  5
154
100
AcDbEntity
  8
None
370
               9
390
0
  6
Continuous
 62
               7
100
AcDbCircle
 10
-12.417042933597006
 20
22.730817257600933
 30
0.0
 40
0.2149952699479859
  0
CIRCLE
  5
155
100
AcDbEntity
  8
None
370
               9
390
0
  6
Continuous
 62
               7
100
AcDbCircle
 10
-11.617042933597023
 20
22.730817257600933
 30
0.0
 40
0.2149952699479613
  0
CIRCLE
  5
156
100
AcDbEntity
  8
None
370
               9
390
0
  6
Continuous
 62
               7
100
AcDbCircle
 10
-7.6170429335970269
 20
22.730817257600933
 30
0.0
 40
0.2149952699479613
  0
CIRCLE
  5
157
100
AcDbEntity
  8
None
370
               9
390
0
  6
Continuous
 62
               7
100
AcDbCircle
 10
-6.8170429335970182
 20
22.730817257600933
 30
0.0
 40
0.2149952699479852
  0
CIRCLE
  5
158
100
AcDbEntity
  8
None
370
               9
390
0
  6
Continuous
 62
               7
100
AcDbCircle
 10
-6.0170429335970077
 20
22.730817257600933
 30
0.0
 40
0.2149952699479852
  0
CIRCLE
  5
159
100
AcDbEntity
  8
None
370
               9
390
0
  6
Continuous
 62
               7
100
AcDbCircle
 10
-5.2170429335969963
 20
22.730817257600933
 30
0.0
 40
0.2149952699479859
  0
CIRCLE
  5
15A
100
AcDbEntity
  8
None
370
               9
390
0
  6
Continuous
 62
               7
100
AcDbCircle
 10
-4.4170429335970134
 20
22.730817257600933
 30
0.0
 40
0.2149952699479613
  0
CIRCLE
  5
15B
100
AcDbEntity
  8
None
370
               9
390
0
  6
Continuous
 62
               7
100
AcDbCircle
 10
-25.217042933597025
 20
21.930817257600907
 30
0.0
 40
0.2149952699479665
  0
CIRCLE
  5
15C
100
AcDbEntity
  8
None
370
               9
390
0
  6
Continuous
 62
               7
100
AcDbCircle
 10
-24.417042933597013
 20
21.930817257600907
 30
0.0
 40
0.2149952699479788
  0
CIRCLE
  5
15D
100
AcDbEntity
  8
None
370
               9
390
0
  6
Continuous
 62
               7
100
AcDbCircle
 10
-23.61704293359703
 20
21.930817257600907
 30
0.0
 40
0.2149952699479542
  0
CIRCLE
  5
15E
100
AcDbEntity
  8
None
370
               9
390
0
  6
Continuous
 62
               7
100
AcDbCircle
 10
-22.817042933597019
 20
21.930817257600907
 30
0.0
 40
0.2149952699479788
  0
CIRCLE
  5
15F
100
AcDbEntity
  8
None
370
               9
390
0
  6
Continuous
 62
               7
100
AcDbCircle
 10
-22.017042933597022
 20
21.930817257600907
 30
0.0
 40
0.2149952699479665
  0
CIRCLE
  5
160
100
AcDbEntity
  8
None
370
               9
390
0
  6
Continuous
 62
               7
100
AcDbCircle
 10
-18.017042933597018
 20
21.930817257600907
 30
0.0
 40
0.2149952699479665
  0
CIRCLE
  5
161
100
AcDbEntity
  8
None
370
               9
390
0
  6
Continuous
 62
               7
100
AcDbCircle
 10
-17.217042933597021
 20
21.930817257600907
 30
0.0
 40
0.2149952699479665
  0
CIRCLE
  5
162
100
AcDbEntity
  8
None
370
               9
390
0
  6
Continuous
 62
               7
100
AcDbCircle
 10
-16.417042933597006
 20
21.930817257600907
 30
0.0
 40
0.2149952699479788
  0
CIRCLE
  5
163
100
AcDbEntity
  8
None
370
               9
390
0
  6
Continuous
 62
               7
100
AcDbCircle
 10
-15.617042933597023
 20
21.930817257600907
 30
0.0
 40
0.2149952699479542
  0
CIRCLE
  5
164
100
AcDbEntity
  8
None
370
               9
390
0
  6
Continuous
 62
               7
100
AcDbCircle
 10
-14.81704293359701
 20
21.930817257600907
 30
0.0
 40
0.2149952699479804
  0
CIRCLE
  5
165
100
AcDbEntity
  8
None
370
               9
390
0
  6
Continuous
 62
               7
100
AcDbCircle
 10
-14.017042933597001
 20
21.930817257600907
 30
0.0
 40
0.2149952699479773
  0
CIRCLE
  5
166
100
AcDbEntity
  8
None
370
               9
390
0
  6
Continuous
 62
               7
100
AcDbCircle
 10
-13.217042933597018
 20
21.930817257600907
 30
0.0
 40
0.2149952699479542
  0
CIRCLE
  5
167
100
AcDbEntity
  8
None
370
               9
390
0
  6
Continuous
 62
               7
100
AcDbCircle
 10
-12.417042933597006
 20
21.930817257600907
 30
0.0
 40
0.2149952699479788
  0
CIRCLE
  5
168
100
AcDbEntity
  8
None
370
               9
390
0
  6
Continuous
 62
               7
100
AcDbCircle
 10
-11.617042933597023
 20
21.930817257600907
 30
0.0
 40
0.2149952699479542
  0
CIRCLE
  5
169
100
AcDbEntity
  8
None
370
               9
390
0
  6
Continuous
 62
               7
100
AcDbCircle
 10
-7.6170429335970269
 20
21.930817257600907
 30
0.0
 40
0.2149952699479542
  0
CIRCLE
  5
16A
100
AcDbEntity
  8
None
370
               9
390
0
  6
Continuous
 62
               7
100
AcDbCircle
 10
-6.8170429335970182
 20
21.930817257600907
 30
0.0
 40
0.2149952699479781
  0
CIRCLE
  5
16B
100
AcDbEntity
  8
None
370
               9
390
0
  6
Continuous
 62
               7
100
AcDbCircle
 10
-6.0170429335970077
 20
21.930817257600907
 30
0.0
 40
0.2149952699479781
  0
CIRCLE
  5
16C
100
AcDbEntity
  8
None
370
               9
390
0
  6
Continuous
 62
               7
100
AcDbCircle
 10
-5.2170429335969963
 20
21.930817257600907
 30
0.0
 40
0.2149952699479788
  0
CIRCLE
  5
16D
100
AcDbEntity
  8
None
370
               9
390
0
  6
Continuous
 62
               7
100
AcDbCircle
 10
-4.4170429335970134
 20
21.930817257600907
 30
0.0
 40
0.2149952699479542
  0
CIRCLE
  5
16E
100
AcDbEntity
  8
None
370
               9
390
0
  6
Continuous
 62
               7
100
AcDbCircle
 10
-25.217042933597025
 20
21.130817257600896
 30
0.0
 40
0.2149952699479665
  0
CIRCLE
  5
16F
100
AcDbEntity
  8
None
370
               9
390
0
  6
Continuous
 62
               7
100
AcDbCircle
 10
-24.417042933597013
 20
21.130817257600896
 30
0.0
 40
0.2149952699479788
  0
CIRCLE
  5
170
100
AcDbEntity
  8
None
370
               9
390
0
  6
Continuous
 62
               7
100
AcDbCircle
 10
-23.61704293359703
 20
21.130817257600896
 30
0.0
 40
0.2149952699479542
  0
CIRCLE
  5
171
100
AcDbEntity
  8
None
370
               9
390
0
  6
Continuous
 62
               7
100
AcDbCircle
 10
-22.817042933597019
 20
21.130817257600896
 30
0.0
 40
0.2149952699479788
  0
CIRCLE
  5
172
100
AcDbEntity
  8
None
370
               9
390
0
  6
Continuous
 62
               7
100
AcDbCircle
 10
-22.017042933597022
 20
21.130817257600896
 30
0.0
 40
0.2149952699479665
  0
CIRCLE
  5
173
100
AcDbEntity
  8
None
370
               9
390
0
  6
Continuous
 62
               7
100
AcDbCircle
 10
-18.017042933597018
 20
21.130817257600896
 30
0.0
 40
0.2149952699479665
  0
CIRCLE
  5
174
100
AcDbEntity
  8
None
370
               9
390
0
  6
Continuous
 62
               7
100
AcDbCircle
 10
-17.217042933597021
 20
21.130817257600896
 30
0.0
 40
0.2149952699479665
  0
CIRCLE
  5
175
100
AcDbEntity
  8
None
370
               9
390
0
  6
Continuous
 62
               7
100
AcDbCircle
 10
-16.417042933597006
 20
21.130817257600896
 30
0.0
 40
0.2149952699479788
  0
CIRCLE
  5
176
100
AcDbEntity
  8
None
370
               9
390
0
  6
Continuous
 62
               7
100
AcDbCircle
 10
-15.617042933597023
 20
21.130817257600896
 30
0.0
 40
0.2149952699479542
  0
CIRCLE
  5
177
100
AcDbEntity
  8
None
370
               9
390
0
  6
Continuous
 62
               7
100
AcDbCircle
 10
-14.81704293359701
 20
21.130817257600896
 30
0.0
 40
0.2149952699479804
  0
CIRCLE
  5
178
100
AcDbEntity
  8
None
370
               9
390
0
  6
Continuous
 62
               7
100
AcDbCircle
 10
-14.017042933597001
 20
21.130817257600896
 30
0.0
 40
0.2149952699479773
  0
CIRCLE
  5
179
100
AcDbEntity
  8
None
370
               9
390
0
  6
Continuous
 62
               7
100
AcDbCircle
 10
-13.217042933597018
 20
21.130817257600896
 30
0.0
 40
0.2149952699479542
  0
CIRCLE
  5
17A
100
AcDbEntity
  8
None
370
               9
390
0
  6
Continuous
 62
               7
100
AcDbCircle
 10
-12.417042933597006
 20
21.130817257600896
 30
0.0
 40
0.2149952699479788
  0
CIRCLE
  5
17B
100
AcDbEntity
  8
None
370
               9
390
0
  6
Continuous
 62
               7
100
AcDbCircle
 10
-11.617042933597023
 20
21.130817257600896
 30
0.0
 40
0.2149952699479542
  0
CIRCLE
  5
17C
100
AcDbEntity
  8
None
370
               9
390
0
  6
Continuous
 62
               7
100
AcDbCircle
 10
-7.6170429335970269
 20
21.130817257600896
 30
0.0
 40
0.2149952699479542
  0
CIRCLE
  5
17D
100
AcDbEntity
  8
None
370
               9
390
0
  6
Continuous
 62
               7
100
AcDbCircle
 10
-6.8170429335970182
 20
21.130817257600896
 30
0.0
 40
0.2149952699479781
  0
CIRCLE
  5
17E
100
AcDbEntity
  8
None
370
               9
390
0
  6
Continuous
 62
               7
100
AcDbCircle
 10
-6.0170429335970077
 20
21.130817257600896
 30
0.0
 40
0.2149952699479781
  0
CIRCLE
  5
17F
100
AcDbEntity
  8
None
370
               9
390
0
  6
Continuous
 62
               7
100
AcDbCircle
 10
-5.2170429335969963
 20
21.130817257600896
 30
0.0
 40
0.2149952699479788
  0
CIRCLE
  5
180
100
AcDbEntity
  8
None
370
               9
390
0
  6
Continuous
 62
               7
100
AcDbCircle
 10
-4.4170429335970134
 20
21.130817257600896
 30
0.0
 40
0.2149952699479542
  0
CIRCLE
  5
181
100
AcDbEntity
  8
None
370
               9
390
0
  6
Continuous
 62
               7
100
AcDbCircle
 10
-25.217042933597025
 20
20.330817257600856
 30
0.0
 40
0.2149952699479736
  0
CIRCLE
  5
182
100
AcDbEntity
  8
None
370
               9
390
0
  6
Continuous
 62
               7
100
AcDbCircle
 10
-24.417042933597013
 20
20.330817257600856
 30
0.0
 40
0.2149952699479859
  0
CIRCLE
  5
183
100
AcDbEntity
  8
None
370
               9
390
0
  6
Continuous
 62
               7
100
AcDbCircle
 10
-23.61704293359703
 20
20.330817257600856
 30
0.0
 40
0.2149952699479613
  0
CIRCLE
  5
184
100
AcDbEntity
  8
None
370
               9
390
0
  6
Continuous
 62
               7
100
AcDbCircle
 10
-22.817042933597019
 20
20.330817257600856
 30
0.0
 40
0.2149952699479859
  0
CIRCLE
  5
185
100
AcDbEntity
  8
None
370
               9
390
0
  6
Continuous
 62
               7
100
AcDbCircle
 10
-22.017042933597022
 20
20.330817257600856
 30
0.0
 40
0.2149952699479736
  0
CIRCLE
  5
186
100
AcDbEntity
  8
None
370
               9
390
0
  6
Continuous
 62
               7
100
AcDbCircle
 10
-18.017042933597018
 20
20.330817257600856
 30
0.0
 40
0.2149952699479736
  0
CIRCLE
  5
187
100
AcDbEntity
  8
None
370
               9
390
0
  6
Continuous
 62
               7
100
AcDbCircle
 10
-17.217042933597021
 20
20.330817257600856
 30
0.0
 40
0.2149952699479736
  0
CIRCLE
  5
188
100
AcDbEntity
  8
None
370
               9
390
0
  6
Continuous
 62
               7
100
AcDbCircle
 10
-16.417042933597006
 20
20.330817257600856
 30
0.0
 40
0.2149952699479859
  0
CIRCLE
  5
189
100
AcDbEntity
  8
None
370
               9
390
0
  6
Continuous
 62
               7
100
AcDbCircle
 10
-15.617042933597023
 20
20.330817257600856
 30
0.0
 40
0.2149952699479613
  0
CIRCLE
  5
18A
100
AcDbEntity
  8
None
370
               9
390
0
  6
Continuous
 62
               7
100
AcDbCircle
 10
-14.81704293359701
 20
20.330817257600856
 30
0.0
 40
0.2149952699479875
  0
CIRCLE
  5
18B
100
AcDbEntity
  8
None
370
               9
390
0
  6
Continuous
 62
               7
100
AcDbCircle
 10
-14.017042933597001
 20
20.330817257600856
 30
0.0
 40
0.2149952699479844
  0
CIRCLE
  5
18C
100
AcDbEntity
  8
None
370
               9
390
0
  6
Continuous
 62
               7
100
AcDbCircle
 10
-13.217042933597018
 20
20.330817257600856
 30
0.0
 40
0.2149952699479613
  0
CIRCLE
  5
18D
100
AcDbEntity
  8
None
370
               9
390
0
  6
Continuous
 62
               7
100
AcDbCircle
 10
-12.417042933597006
 20
20.330817257600856
 30
0.0
 40
0.2149952699479859
  0
CIRCLE
  5
18E
100
AcDbEntity
  8
None
370
               9
390
0
  6
Continuous
 62
               7
100
AcDbCircle
 10
-11.617042933597023
 20
20.330817257600856
 30
0.0
 40
0.2149952699479613
  0
CIRCLE
  5
18F
100
AcDbEntity
  8
None
370
               9
390
0
  6
Continuous
 62
               7
100
AcDbCircle
 10
-7.6170429335970269
 20
20.330817257600856
 30
0.0
 40
0.2149952699479613
  0
CIRCLE
  5
190
100
AcDbEntity
  8
None
370
               9
390
0
  6
Continuous
 62
               7
100
AcDbCircle
 10
-6.8170429335970182
 20
20.330817257600856
 30
0.0
 40
0.2149952699479852
  0
CIRCLE
  5
191
100
AcDbEntity
  8
None
370
               9
390
0
  6
Continuous
 62
               7
100
AcDbCircle
 10
-6.0170429335970077
 20
20.330817257600856
 30
0.0
 40
0.2149952699479852
  0
CIRCLE
  5
192
100
AcDbEntity
  8
None
370
               9
390
0
  6
Continuous
 62
               7
100
AcDbCircle
 10
-5.2170429335969963
 20
20.330817257600856
 30
0.0
 40
0.2149952699479859
  0
CIRCLE
  5
193
100
AcDbEntity
  8
None
370
               9
390
0
  6
Continuous
 62
               7
100
AcDbCircle
 10
-4.4170429335970134
 20
20.330817257600856
 30
0.0
 40
0.2149952699479613
  0
CIRCLE
  5
194
100
AcDbEntity
  8
None
370
               9
390
0
  6
Continuous
 62
               7
100
AcDbCircle
 10
-25.217042933597025
 20
19.530817257600845
 30
0.0
 40
0.2149952699479665
  0
CIRCLE
  5
195
100
AcDbEntity
  8
None
370
               9
390
0
  6
Continuous
 62
               7
100
AcDbCircle
 10
-24.417042933597013
 20
19.530817257600845
 30
0.0
 40
0.2149952699479788
  0
CIRCLE
  5
196
100
AcDbEntity
  8
None
370
               9
390
0
  6
Continuous
 62
               7
100
AcDbCircle
 10
-23.61704293359703
 20
19.530817257600845
 30
0.0
 40
0.2149952699479542
  0
CIRCLE
  5
197
100
AcDbEntity
  8
None
370
               9
390
0
  6
Continuous
 62
               7
100
AcDbCircle
 10
-22.817042933597019
 20
19.530817257600845
 30
0.0
 40
0.2149952699479788
  0
CIRCLE
  5
198
100
AcDbEntity
  8
None
370
               9
390
0
  6
Continuous
 62
               7
100
AcDbCircle
 10
-22.017042933597022
 20
19.530817257600845
 30
0.0
 40
0.2149952699479665
  0
CIRCLE
  5
199
100
AcDbEntity
  8
None
370
               9
390
0
  6
Continuous
 62
               7
100
AcDbCircle
 10
-18.017042933597018
 20
19.530817257600845
 30
0.0
 40
0.2149952699479665
  0
CIRCLE
  5
19A
100
AcDbEntity
  8
None
370
               9
390
0
  6
Continuous
 62
               7
100
AcDbCircle
 10
-17.217042933597021
 20
19.530817257600845
 30
0.0
 40
0.2149952699479665
  0
CIRCLE
  5
19B
100
AcDbEntity
  8
None
370
               9
390
0
  6
Continuous
 62
               7
100
AcDbCircle
 10
-16.417042933597006
 20
19.530817257600845
 30
0.0
 40
0.2149952699479788
  0
CIRCLE
  5
19C
100
AcDbEntity
  8
None
370
               9
390
0
  6
Continuous
 62
               7
100
AcDbCircle
 10
-15.617042933597023
 20
19.530817257600845
 30
0.0
 40
0.2149952699479542
  0
CIRCLE
  5
19D
100
AcDbEntity
  8
None
370
               9
390
0
  6
Continuous
 62
               7
100
AcDbCircle
 10
-14.81704293359701
 20
19.530817257600845
 30
0.0
 40
0.2149952699479804
  0
CIRCLE
  5
19E
100
AcDbEntity
  8
None
370
               9
390
0
  6
Continuous
 62
               7
100
AcDbCircle
 10
-14.017042933597001
 20
19.530817257600845
 30
0.0
 40
0.2149952699479773
  0
CIRCLE
  5
19F
100
AcDbEntity
  8
None
370
               9
390
0
  6
Continuous
 62
               7
100
AcDbCircle
 10
-13.217042933597018
 20
19.530817257600845
 30
0.0
 40
0.2149952699479542
  0
CIRCLE
  5
1A0
100
AcDbEntity
  8
None
370
               9
390
0
  6
Continuous
 62
               7
100
AcDbCircle
 10
-12.417042933597006
 20
19.530817257600845
 30
0.0
 40
0.2149952699479788
  0
CIRCLE
  5
1A1
100
AcDbEntity
  8
None
370
               9
390
0
  6
Continuous
 62
               7
100
AcDbCircle
 10
-11.617042933597023
 20
19.530817257600845
 30
0.0
 40
0.2149952699479542
  0
CIRCLE
  5
1A2
100
AcDbEntity
  8
None
370
               9
390
0
  6
Continuous
 62
               7
100
AcDbCircle
 10
-7.6170429335970269
 20
19.530817257600845
 30
0.0
 40
0.2149952699479542
  0
CIRCLE
  5
1A3
100
AcDbEntity
  8
None
370
               9
390
0
  6
Continuous
 62
               7
100
AcDbCircle
 10
-6.8170429335970182
 20
19.530817257600845
 30
0.0
 40
0.2149952699479781
  0
CIRCLE
  5
1A4
100
AcDbEntity
  8
None
370
               9
390
0
  6
Continuous
 62
               7
100
AcDbCircle
 10
-6.0170429335970077
 20
19.530817257600845
 30
0.0
 40
0.2149952699479781
  0
CIRCLE
  5
1A5
100
AcDbEntity
  8
None
370
               9
390
0
  6
Continuous
 62
               7
100
AcDbCircle
 10
-5.2170429335969963
 20
19.530817257600845
 30
0.0
 40
0.2149952699479788
  0
CIRCLE
  5
1A6
100
AcDbEntity
  8
None
370
               9
390
0
  6
Continuous
 62
               7
100
AcDbCircle
 10
-4.4170429335970134
 20
19.530817257600845
 30
0.0
 40
0.2149952699479542
  0
CIRCLE
  5
1A7
100
AcDbEntity
  8
None
370
               9
390
0
  6
Continuous
 62
               7
100
AcDbCircle
 10
-25.217042933597025
 20
18.730817257600819
 30
0.0
 40
0.2149952699479665
  0
CIRCLE
  5
1A8
100
AcDbEntity
  8
None
370
               9
390
0
  6
Continuous
 62
               7
100
AcDbCircle
 10
-24.417042933597013
 20
18.730817257600819
 30
0.0
 40
0.2149952699479788
  0
CIRCLE
  5
1A9
100
AcDbEntity
  8
None
370
               9
390
0
  6
Continuous
 62
               7
100
AcDbCircle
 10
-23.61704293359703
 20
18.730817257600819
 30
0.0
 40
0.2149952699479542
  0
CIRCLE
  5
1AA
100
AcDbEntity
  8
None
370
               9
390
0
  6
Continuous
 62
               7
100
AcDbCircle
 10
-22.817042933597019
 20
18.730817257600819
 30
0.0
 40
0.2149952699479788
  0
CIRCLE
  5
1AB
100
AcDbEntity
  8
None
370
               9
390
0
  6
Continuous
 62
               7
100
AcDbCircle
 10
-22.017042933597022
 20
18.730817257600819
 30
0.0
 40
0.2149952699479665
  0
CIRCLE
  5
1AC
100
AcDbEntity
  8
None
370
               9
390
0
  6
Continuous
 62
               7
100
AcDbCircle
 10
-18.017042933597018
 20
18.730817257600819
 30
0.0
 40
0.2149952699479665
  0
CIRCLE
  5
1AD
100
AcDbEntity
  8
None
370
               9
390
0
  6
Continuous
 62
               7
100
AcDbCircle
 10
-17.217042933597021
 20
18.730817257600819
 30
0.0
 40
0.2149952699479665
  0
CIRCLE
  5
1AE
100
AcDbEntity
  8
None
370
               9
390
0
  6
Continuous
 62
               7
100
AcDbCircle
 10
-16.417042933597006
 20
18.730817257600819
 30
0.0
 40
0.2149952699479788
  0
CIRCLE
  5
1AF
100
AcDbEntity
  8
None
370
               9
390
0
  6
Continuous
 62
               7
100
AcDbCircle
 10
-15.617042933597023
 20
18.730817257600819
 30
0.0
 40
0.2149952699479542
  0
CIRCLE
  5
1B0
100
AcDbEntity
  8
None
370
               9
390
0
  6
Continuous
 62
               7
100
AcDbCircle
 10
-14.81704293359701
 20
18.730817257600819
 30
0.0
 40
0.2149952699479804
  0
CIRCLE
  5
1B1
100
AcDbEntity
  8
None
370
               9
390
0
  6
Continuous
 62
               7
100
AcDbCircle
 10
-14.017042933597001
 20
18.730817257600819
 30
0.0
 40
0.2149952699479773
  0
CIRCLE
  5
1B2
100
AcDbEntity
  8
None
370
               9
390
0
  6
Continuous
 62
               7
100
AcDbCircle
 10
-13.217042933597018
 20
18.730817257600819
 30
0.0
 40
0.2149952699479542
  0
CIRCLE
  5
1B3
100
AcDbEntity
  8
None
370
               9
390
0
  6
Continuous
 62
               7
100
AcDbCircle
 10
-12.417042933597006
 20
18.730817257600819
 30
0.0
 40
0.2149952699479788
  0
CIRCLE
  5
1B4
100
AcDbEntity
  8
None
370
               9
390
0
  6
Continuous
 62
               7
100
AcDbCircle
 10
-11.617042933597023
 20
18.730817257600819
 30
0.0
 40
0.2149952699479542
  0
CIRCLE
  5
1B5
100
AcDbEntity
  8
None
370
               9
390
0
  6
Continuous
 62
               7
100
AcDbCircle
 10
-7.6170429335970269
 20
18.730817257600819
 30
0.0
 40
0.2149952699479542
  0
CIRCLE
  5
1B6
100
AcDbEntity
  8
None
370
               9
390
0
  6
Continuous
 62
               7
100
AcDbCircle
 10
-6.8170429335970182
 20
18.730817257600819
 30
0.0
 40
0.2149952699479781
  0
CIRCLE
  5
1B7
100
AcDbEntity
  8
None
370
               9
390
0
  6
Continuous
 62
               7
100
AcDbCircle
 10
-6.0170429335970077
 20
18.730817257600819
 30
0.0
 40
0.2149952699479781
  0
CIRCLE
  5
1B8
100
AcDbEntity
  8
None
370
               9
390
0
  6
Continuous
 62
               7
100
AcDbCircle
 10
-5.2170429335969963
 20
18.730817257600819
 30
0.0
 40
0.2149952699479788
  0
CIRCLE
  5
1B9
100
AcDbEntity
  8
None
370
               9
390
0
  6
Continuous
 62
               7
100
AcDbCircle
 10
-4.4170429335970134
 20
18.730817257600819
 30
0.0
 40
0.2149952699479542
  0
CIRCLE
  5
1BA
100
AcDbEntity
  8
None
370
               9
390
0
  6
Continuous
 62
               7
100
AcDbCircle
 10
-25.217042933597025
 20
17.930817257600822
 30
0.0
 40
0.2149952699479665
  0
CIRCLE
  5
1BB
100
AcDbEntity
  8
None
370
               9
390
0
  6
Continuous
 62
               7
100
AcDbCircle
 10
-24.417042933597013
 20
17.930817257600822
 30
0.0
 40
0.2149952699479788
  0
CIRCLE
  5
1BC
100
AcDbEntity
  8
None
370
               9
390
0
  6
Continuous
 62
               7
100
AcDbCircle
 10
-23.61704293359703
 20
17.930817257600822
 30
0.0
 40
0.2149952699479542
  0
CIRCLE
  5
1BD
100
AcDbEntity
  8
None
370
               9
390
0
  6
Continuous
 62
               7
100
AcDbCircle
 10
-22.817042933597019
 20
17.930817257600822
 30
0.0
 40
0.2149952699479788
  0
CIRCLE
  5
1BE
100
AcDbEntity
  8
None
370
               9
390
0
  6
Continuous
 62
               7
100
AcDbCircle
 10
-22.017042933597022
 20
17.930817257600822
 30
0.0
 40
0.2149952699479665
  0
CIRCLE
  5
1BF
100
AcDbEntity
  8
None
370
               9
390
0
  6
Continuous
 62
               7
100
AcDbCircle
 10
-18.017042933597018
 20
17.930817257600822
 30
0.0
 40
0.2149952699479665
  0
CIRCLE
  5
1C0
100
AcDbEntity
  8
None
370
               9
390
0
  6
Continuous
 62
               7
100
AcDbCircle
 10
-17.217042933597021
 20
17.930817257600822
 30
0.0
 40
0.2149952699479665
  0
CIRCLE
  5
1C1
100
AcDbEntity
  8
None
370
               9
390
0
  6
Continuous
 62
               7
100
AcDbCircle
 10
-16.417042933597006
 20
17.930817257600822
 30
0.0
 40
0.2149952699479788
  0
CIRCLE
  5
1C2
100
AcDbEntity
  8
None
370
               9
390
0
  6
Continuous
 62
               7
100
AcDbCircle
 10
-15.617042933597023
 20
17.930817257600822
 30
0.0
 40
0.2149952699479542
  0
CIRCLE
  5
1C3
100
AcDbEntity
  8
None
370
               9
390
0
  6
Continuous
 62
               7
100
AcDbCircle
 10
-14.81704293359701
 20
17.930817257600822
 30
0.0
 40
0.2149952699479804
  0
CIRCLE
  5
1C4
100
AcDbEntity
  8
None
370
               9
390
0
  6
Continuous
 62
               7
100
AcDbCircle
 10
-14.017042933597001
 20
17.930817257600822
 30
0.0
 40
0.2149952699479773
  0
CIRCLE
  5
1C5
100
AcDbEntity
  8
None
370
               9
390
0
  6
Continuous
 62
               7
100
AcDbCircle
 10
-13.217042933597018
 20
17.930817257600822
 30
0.0
 40
0.2149952699479542
  0
CIRCLE
  5
1C6
100
AcDbEntity
  8
None
370
               9
390
0
  6
Continuous
 62
               7
100
AcDbCircle
 10
-12.417042933597006
 20
17.930817257600822
 30
0.0
 40
0.2149952699479788
  0
CIRCLE
  5
1C7
100
AcDbEntity
  8
None
370
               9
390
0
  6
Continuous
 62
               7
100
AcDbCircle
 10
-11.617042933597023
 20
17.930817257600822
 30
0.0
 40
0.2149952699479542
  0
CIRCLE
  5
1C8
100
AcDbEntity
  8
None
370
               9
390
0
  6
Continuous
 62
               7
100
AcDbCircle
 10
-7.6170429335970269
 20
17.930817257600822
 30
0.0
 40
0.2149952699479542
  0
CIRCLE
  5
1C9
100
AcDbEntity
  8
None
370
               9
390
0
  6
Continuous
 62
               7
100
AcDbCircle
 10
-6.8170429335970182
 20
17.930817257600822
 30
0.0
 40
0.2149952699479781
  0
CIRCLE
  5
1CA
100
AcDbEntity
  8
None
370
               9
390
0
  6
Continuous
 62
               7
100
AcDbCircle
 10
-6.0170429335970077
 20
17.930817257600822
 30
0.0
 40
0.2149952699479781
  0
CIRCLE
  5
1CB
100
AcDbEntity
  8
None
370
               9
390
0
  6
Continuous
 62
               7
100
AcDbCircle
 10
-5.2170429335969963
 20
17.930817257600822
 30
0.0
 40
0.2149952699479788
  0
CIRCLE
  5
1CC
100
AcDbEntity
  8
None
370
               9
390
0
  6
Continuous
 62
               7
100
AcDbCircle
 10
-4.4170429335970134
 20
17.930817257600822
 30
0.0
 40
0.2149952699479542
  0
CIRCLE
  5
1CD
100
AcDbEntity
  8
None
370
               9
390
0
  6
Continuous
 62
               7
100
AcDbCircle
 10
-25.217042933597025
 20
17.13081725760081
 30
0.0
 40
0.2149952699479665
  0
CIRCLE
  5
1CE
100
AcDbEntity
  8
None
370
               9
390
0
  6
Continuous
 62
               7
100
AcDbCircle
 10
-24.417042933597013
 20
17.13081725760081
 30
0.0
 40
0.2149952699479788
  0
CIRCLE
  5
1CF
100
AcDbEntity
  8
None
370
               9
390
0
  6
Continuous
 62
               7
100
AcDbCircle
 10
-23.61704293359703
 20
17.13081725760081
 30
0.0
 40
0.2149952699479542
  0
CIRCLE
  5
1D0
100
AcDbEntity
  8
None
370
               9
390
0
  6
Continuous
 62
               7
100
AcDbCircle
 10
-22.817042933597019
 20
17.13081725760081
 30
0.0
 40
0.2149952699479788
  0
CIRCLE
  5
1D1
100
AcDbEntity
  8
None
370
               9
390
0
  6
Continuous
 62
               7
100
AcDbCircle
 10
-22.017042933597022
 20
17.13081725760081
 30
0.0
 40
0.2149952699479665
  0
CIRCLE
  5
1D2
100
AcDbEntity
  8
None
370
               9
390
0
  6
Continuous
 62
               7
100
AcDbCircle
 10
-7.6170429335970269
 20
17.13081725760081
 30
0.0
 40
0.2149952699479542
  0
CIRCLE
  5
1D3
100
AcDbEntity
  8
None
370
               9
390
0
  6
Continuous
 62
               7
100
AcDbCircle
 10
-6.8170429335970182
 20
17.13081725760081
 30
0.0
 40
0.2149952699479781
  0
CIRCLE
  5
1D4
100
AcDbEntity
  8
None
370
               9
390
0
  6
Continuous
 62
               7
100
AcDbCircle
 10
-6.0170429335970077
 20
17.13081725760081
 30
0.0
 40
0.2149952699479781
  0
CIRCLE
  5
1D5
100
AcDbEntity
  8
None
370
               9
390
0
  6
Continuous
 62
               7
100
AcDbCircle
 10
-5.2170429335969963
 20
17.13081725760081
 30
0.0
 40
0.2149952699479788
  0
CIRCLE
  5
1D6
100
AcDbEntity
  8
None
370
               9
390
0
  6
Continuous
 62
               7
100
AcDbCircle
 10
-4.4170429335970134
 20
17.13081725760081
 30
0.0
 40
0.2149952699479542
  0
CIRCLE
  5
1D7
100
AcDbEntity
  8
None
370
               9
390
0
  6
Continuous
 62
               7
100
AcDbCircle
 10
-25.217042933597025
 20
16.330817257600813
 30
0.0
 40
0.2149952699479665
  0
CIRCLE
  5
1D8
100
AcDbEntity
  8
None
370
               9
390
0
  6
Continuous
 62
               7
100
AcDbCircle
 10
-24.417042933597013
 20
16.330817257600813
 30
0.0
 40
0.2149952699479788
  0
CIRCLE
  5
1D9
100
AcDbEntity
  8
None
370
               9
390
0
  6
Continuous
 62
               7
100
AcDbCircle
 10
-23.61704293359703
 20
16.330817257600813
 30
0.0
 40
0.2149952699479542
  0
CIRCLE
  5
1DA
100
AcDbEntity
  8
None
370
               9
390
0
  6
Continuous
 62
               7
100
AcDbCircle
 10
-22.817042933597019
 20
16.330817257600813
 30
0.0
 40
0.2149952699479788
  0
CIRCLE
  5
1DB
100
AcDbEntity
  8
None
370
               9
390
0
  6
Continuous
 62
               7
100
AcDbCircle
 10
-22.017042933597022
 20
16.330817257600813
 30
0.0
 40
0.2149952699479665
  0
CIRCLE
  5
1DC
100
AcDbEntity
  8
None
370
               9
390
0
  6
Continuous
 62
               7
100
AcDbCircle
 10
-7.6170429335970269
 20
16.330817257600813
 30
0.0
 40
0.2149952699479542
  0
CIRCLE
  5
1DD
100
AcDbEntity
  8
None
370
               9
390
0
  6
Continuous
 62
               7
100
AcDbCircle
 10
-6.8170429335970182
 20
16.330817257600813
 30
0.0
 40
0.2149952699479781
  0
CIRCLE
  5
1DE
100
AcDbEntity
  8
None
370
               9
390
0
  6
Continuous
 62
               7
100
AcDbCircle
 10
-6.0170429335970077
 20
16.330817257600813
 30
0.0
 40
0.2149952699479781
  0
CIRCLE
  5
1DF
100
AcDbEntity
  8
None
370
               9
390
0
  6
Continuous
 62
               7
100
AcDbCircle
 10
-5.2170429335969963
 20
16.330817257600813
 30
0.0
 40
0.2149952699479788
  0
CIRCLE
  5
1E0
100
AcDbEntity
  8
None
370
               9
390
0
  6
Continuous
 62
               7
100
AcDbCircle
 10
-4.4170429335970134
 20
16.330817257600813
 30
0.0
 40
0.2149952699479542
  0
CIRCLE
  5
1E1
100
AcDbEntity
  8
None
370
               9
390
0
  6
Continuous
 62
               7
100
AcDbCircle
 10
-25.217042933597025
 20
15.530817257600816
 30
0.0
 40
0.2149952699479665
  0
CIRCLE
  5
1E2
100
AcDbEntity
  8
None
370
               9
390
0
  6
Continuous
 62
               7
100
AcDbCircle
 10
-24.417042933597013
 20
15.530817257600816
 30
0.0
 40
0.2149952699479788
  0
CIRCLE
  5
1E3
100
AcDbEntity
  8
None
370
               9
390
0
  6
Continuous
 62
               7
100
AcDbCircle
 10
-23.61704293359703
 20
15.530817257600816
 30
0.0
 40
0.2149952699479542
  0
CIRCLE
  5
1E4
100
AcDbEntity
  8
None
370
               9
390
0
  6
Continuous
 62
               7
100
AcDbCircle
 10
-22.817042933597019
 20
15.530817257600816
 30
0.0
 40
0.2149952699479788
  0
CIRCLE
  5
1E5
100
AcDbEntity
  8
None
370
               9
390
0
  6
Continuous
 62
               7
100
AcDbCircle
 10
-22.017042933597022
 20
15.530817257600816
 30
0.0
 40
0.2149952699479665
  0
CIRCLE
  5
1E6
100
AcDbEntity
  8
None
370
               9
390
0
  6
Continuous
 62
               7
100
AcDbCircle
 10
-7.6170429335970269
 20
15.530817257600816
 30
0.0
 40
0.2149952699479542
  0
CIRCLE
  5
1E7
100
AcDbEntity
  8
None
370
               9
390
0
  6
Continuous
 62
               7
100
AcDbCircle
 10
-6.8170429335970182
 20
15.530817257600816
 30
0.0
 40
0.2149952699479781
  0
CIRCLE
  5
1E8
100
AcDbEntity
  8
None
370
               9
390
0
  6
Continuous
 62
               7
100
AcDbCircle
 10
-6.0170429335970077
 20
15.530817257600816
 30
0.0
 40
0.2149952699479781
  0
CIRCLE
  5
1E9
100
AcDbEntity
  8
None
370
               9
390
0
  6
Continuous
 62
               7
100
AcDbCircle
 10
-5.2170429335969963
 20
15.530817257600816
 30
0.0
 40
0.2149952699479788
  0
CIRCLE
  5
1EA
100
AcDbEntity
  8
None
370
               9
390
0
  6
Continuous
 62
               7
100
AcDbCircle
 10
-4.4170429335970134
 20
15.530817257600816
 30
0.0
 40
0.2149952699479542
  0
CIRCLE
  5
1EB
100
AcDbEntity
  8
None
370
               9
390
0
  6
Continuous
 62
               7
100
AcDbCircle
 10
-25.217042933597025
 20
14.730817257600819
 30
0.0
 40
0.2149952699479665
  0
CIRCLE
  5
1EC
100
AcDbEntity
  8
None
370
               9
390
0
  6
Continuous
 62
               7
100
AcDbCircle
 10
-24.417042933597013
 20
14.730817257600819
 30
0.0
 40
0.2149952699479788
  0
CIRCLE
  5
1ED
100
AcDbEntity
  8
None
370
               9
390
0
  6
Continuous
 62
               7
100
AcDbCircle
 10
-23.61704293359703
 20
14.730817257600819
 30
0.0
 40
0.2149952699479542
  0
CIRCLE
  5
1EE
100
AcDbEntity
  8
None
370
               9
390
0
  6
Continuous
 62
               7
100
AcDbCircle
 10
-22.817042933597019
 20
14.730817257600819
 30
0.0
 40
0.2149952699479788
  0
CIRCLE
  5
1EF
100
AcDbEntity
  8
None
370
               9
390
0
  6
Continuous
 62
               7
100
AcDbCircle
 10
-22.017042933597022
 20
14.730817257600819
 30
0.0
 40
0.2149952699479665
  0
CIRCLE
  5
1F0
100
AcDbEntity
  8
None
370
               9
390
0
  6
Continuous
 62
               7
100
AcDbCircle
 10
-7.6170429335970269
 20
14.730817257600819
 30
0.0
 40
0.2149952699479542
  0
CIRCLE
  5
1F1
100
AcDbEntity
  8
None
370
               9
390
0
  6
Continuous
 62
               7
100
AcDbCircle
 10
-6.8170429335970182
 20
14.730817257600819
 30
0.0
 40
0.2149952699479781
  0
CIRCLE
  5
1F2
100
AcDbEntity
  8
None
370
               9
390
0
  6
Continuous
 62
               7
100
AcDbCircle
 10
-6.0170429335970077
 20
14.730817257600819
 30
0.0
 40
0.2149952699479781
  0
CIRCLE
  5
1F3
100
AcDbEntity
  8
None
370
               9
390
0
  6
Continuous
 62
               7
100
AcDbCircle
 10
-5.2170429335969963
 20
14.730817257600819
 30
0.0
 40
0.2149952699479788
  0
CIRCLE
  5
1F4
100
AcDbEntity
  8
None
370
               9
390
0
  6
Continuous
 62
               7
100
AcDbCircle
 10
-4.4170429335970134
 20
14.730817257600819
 30
0.0
 40
0.2149952699479542
  0
CIRCLE
  5
1F5
100
AcDbEntity
  8
None
370
               9
390
0
  6
Continuous
 62
               7
100
AcDbCircle
 10
-25.217042933597025
 20
13.930817257600822
 30
0.0
 40
0.2149952699479665
  0
CIRCLE
  5
1F6
100
AcDbEntity
  8
None
370
               9
390
0
  6
Continuous
 62
               7
100
AcDbCircle
 10
-24.417042933597013
 20
13.930817257600822
 30
0.0
 40
0.2149952699479788
  0
CIRCLE
  5
1F7
100
AcDbEntity
  8
None
370
               9
390
0
  6
Continuous
 62
               7
100
AcDbCircle
 10
-23.61704293359703
 20
13.930817257600822
 30
0.0
 40
0.2149952699479542
  0
CIRCLE
  5
1F8
100
AcDbEntity
  8
None
370
               9
390
0
  6
Continuous
 62
               7
100
AcDbCircle
 10
-22.817042933597019
 20
13.930817257600822
 30
0.0
 40
0.2149952699479788
  0
CIRCLE
  5
1F9
100
AcDbEntity
  8
None
370
               9
390
0
  6
Continuous
 62
               7
100
AcDbCircle
 10
-22.017042933597022
 20
13.930817257600822
 30
0.0
 40
0.2149952699479665
  0
CIRCLE
  5
1FA
100
AcDbEntity
  8
None
370
               9
390
0
  6
Continuous
 62
               7
100
AcDbCircle
 10
-21.217042933597025
 20
13.930817257600822
 30
0.0
 40
0.2149952699479665
  0
CIRCLE
  5
1FB
100
AcDbEntity
  8
None
370
               9
390
0
  6
Continuous
 62
               7
100
AcDbCircle
 10
-20.417042933597013
 20
13.930817257600822
 30
0.0
 40
0.2149952699479788
  0
CIRCLE
  5
1FC
100
AcDbEntity
  8
None
370
               9
390
0
  6
Continuous
 62
               7
100
AcDbCircle
 10
-19.61704293359703
 20
13.930817257600822
 30
0.0
 40
0.2149952699479542
  0
CIRCLE
  5
1FD
100
AcDbEntity
  8
None
370
               9
390
0
  6
Continuous
 62
               7
100
AcDbCircle
 10
-18.817042933597019
 20
13.930817257600822
 30
0.0
 40
0.2149952699479788
  0
CIRCLE
  5
1FE
100
AcDbEntity
  8
None
370
               9
390
0
  6
Continuous
 62
               7
100
AcDbCircle
 10
-18.017042933597018
 20
13.930817257600822
 30
0.0
 40
0.2149952699479665
  0
CIRCLE
  5
1FF
100
AcDbEntity
  8
None
370
               9
390
0
  6
Continuous
 62
               7
100
AcDbCircle
 10
-17.217042933597021
 20
13.930817257600822
 30
0.0
 40
0.2149952699479665
  0
CIRCLE
  5
200
100
AcDbEntity
  8
None
370
               9
390
0
  6
Continuous
 62
               7
100
AcDbCircle
 10
-16.417042933597006
 20
13.930817257600822
 30
0.0
 40
0.2149952699479788
  0
CIRCLE
  5
201
100
AcDbEntity
  8
None
370
               9
390
0
  6
Continuous
 62
               7
100
AcDbCircle
 10
-15.617042933597023
 20
13.930817257600822
 30
0.0
 40
0.2149952699479542
  0
CIRCLE
  5
202
100
AcDbEntity
  8
None
370
               9
390
0
  6
Continuous
 62
               7
100
AcDbCircle
 10
-14.81704293359701
 20
13.930817257600822
 30
0.0
 40
0.2149952699479804
  0
CIRCLE
  5
203
100
AcDbEntity
  8
None
370
               9
390
0
  6
Continuous
 62
               7
100
AcDbCircle
 10
-14.017042933597001
 20
13.930817257600822
 30
0.0
 40
0.2149952699479773
  0
CIRCLE
  5
204
100
AcDbEntity
  8
None
370
               9
390
0
  6
Continuous
 62
               7
100
AcDbCircle
 10
-13.217042933597018
 20
13.930817257600822
 30
0.0
 40
0.2149952699479542
  0
CIRCLE
  5
205
100
AcDbEntity
  8
None
370
               9
390
0
  6
Continuous
 62
               7
100
AcDbCircle
 10
-12.417042933597006
 20
13.930817257600822
 30
0.0
 40
0.2149952699479788
  0
CIRCLE
  5
206
100
AcDbEntity
  8
None
370
               9
390
0
  6
Continuous
 62
               7
100
AcDbCircle
 10
-11.617042933597023
 20
13.930817257600822
 30
0.0
 40
0.2149952699479542
  0
CIRCLE
  5
207
100
AcDbEntity
  8
None
370
               9
390
0
  6
Continuous
 62
               7
100
AcDbCircle
 10
-10.81704293359701
 20
13.930817257600822
 30
0.0
 40
0.2149952699479788
  0
CIRCLE
  5
208
100
AcDbEntity
  8
None
370
               9
390
0
  6
Continuous
 62
               7
100
AcDbCircle
 10
-10.017042933597001
 20
13.930817257600822
 30
0.0
 40
0.2149952699479788
  0
CIRCLE
  5
209
100
AcDbEntity
  8
None
370
               9
390
0
  6
Continuous
 62
               7
100
AcDbCircle
 10
-9.2170429335970177
 20
13.930817257600822
 30
0.0
 40
0.2149952699479542
  0
CIRCLE
  5
20A
100
AcDbEntity
  8
None
370
               9
390
0
  6
Continuous
 62
               7
100
AcDbCircle
 10
-8.4170429335970081
 20
13.930817257600822
 30
0.0
 40
0.2149952699479773
  0
CIRCLE
  5
20B
100
AcDbEntity
  8
None
370
               9
390
0
  6
Continuous
 62
               7
100
AcDbCircle
 10
-7.6170429335970269
 20
13.930817257600822
 30
0.0
 40
0.2149952699479542
  0
CIRCLE
  5
20C
100
AcDbEntity
  8
None
370
               9
390
0
  6
Continuous
 62
               7
100
AcDbCircle
 10
-6.8170429335970182
 20
13.930817257600822
 30
0.0
 40
0.2149952699479781
  0
CIRCLE
  5
20D
100
AcDbEntity
  8
None
370
               9
390
0
  6
Continuous
 62
               7
100
AcDbCircle
 10
-6.0170429335970077
 20
13.930817257600822
 30
0.0
 40
0.2149952699479781
  0
CIRCLE
  5
20E
100
AcDbEntity
  8
None
370
               9
390
0
  6
Continuous
 62
               7
100
AcDbCircle
 10
-5.2170429335969963
 20
13.930817257600822
 30
0.0
 40
0.2149952699479788
  0
CIRCLE
  5
20F
100
AcDbEntity
  8
None
370
               9
390
0
  6
Continuous
 62
               7
100
AcDbCircle
 10
-4.4170429335970134
 20
13.930817257600822
 30
0.0
 40
0.2149952699479542
  0
CIRCLE
  5
210
100
AcDbEntity
  8
None
370
               9
390
0
  6
Continuous
 62
               7
100
AcDbCircle
 10
-25.217042933597025
 20
13.13081725760081
 30
0.0
 40
0.2149952699479665
  0
CIRCLE
  5
211
100
AcDbEntity
  8
None
370
               9
390
0
  6
Continuous
 62
               7
100
AcDbCircle
 10
-24.417042933597013
 20
13.13081725760081
 30
0.0
 40
0.2149952699479788
  0
CIRCLE
  5
212
100
AcDbEntity
  8
None
370
               9
390
0
  6
Continuous
 62
               7
100
AcDbCircle
 10
-23.61704293359703
 20
13.13081725760081
 30
0.0
 40
0.2149952699479542
  0
CIRCLE
  5
213
100
AcDbEntity
  8
None
370
               9
390
0
  6
Continuous
 62
               7
100
AcDbCircle
 10
-22.817042933597019
 20
13.13081725760081
 30
0.0
 40
0.2149952699479788
  0
CIRCLE
  5
214
100
AcDbEntity
  8
None
370
               9
390
0
  6
Continuous
 62
               7
100
AcDbCircle
 10
-22.017042933597022
 20
13.13081725760081
 30
0.0
 40
0.2149952699479665
  0
CIRCLE
  5
215
100
AcDbEntity
  8
None
370
               9
390
0
  6
Continuous
 62
               7
100
AcDbCircle
 10
-21.217042933597025
 20
13.13081725760081
 30
0.0
 40
0.2149952699479665
  0
CIRCLE
  5
216
100
AcDbEntity
  8
None
370
               9
390
0
  6
Continuous
 62
               7
100
AcDbCircle
 10
-20.417042933597013
 20
13.13081725760081
 30
0.0
 40
0.2149952699479788
  0
CIRCLE
  5
217
100
AcDbEntity
  8
None
370
               9
390
0
  6
Continuous
 62
               7
100
AcDbCircle
 10
-19.61704293359703
 20
13.13081725760081
 30
0.0
 40
0.2149952699479542
  0
CIRCLE
  5
218
100
AcDbEntity
  8
None
370
               9
390
0
  6
Continuous
 62
               7
100
AcDbCircle
 10
-18.817042933597019
 20
13.13081725760081
 30
0.0
 40
0.2149952699479788
  0
CIRCLE
  5
219
100
AcDbEntity
  8
None
370
               9
390
0
  6
Continuous
 62
               7
100
AcDbCircle
 10
-18.017042933597018
 20
13.13081725760081
 30
0.0
 40
0.2149952699479665
  0
CIRCLE
  5
21A
100
AcDbEntity
  8
None
370
               9
390
0
  6
Continuous
 62
               7
100
AcDbCircle
 10
-17.217042933597021
 20
13.13081725760081
 30
0.0
 40
0.2149952699479665
  0
CIRCLE
  5
21B
100
AcDbEntity
  8
None
370
               9
390
0
  6
Continuous
 62
               7
100
AcDbCircle
 10
-16.417042933597006
 20
13.13081725760081
 30
0.0
 40
0.2149952699479788
  0
CIRCLE
  5
21C
100
AcDbEntity
  8
None
370
               9
390
0
  6
Continuous
 62
               7
100
AcDbCircle
 10
-15.617042933597023
 20
13.13081725760081
 30
0.0
 40
0.2149952699479542
  0
CIRCLE
  5
21D
100
AcDbEntity
  8
None
370
               9
390
0
  6
Continuous
 62
               7
100
AcDbCircle
 10
-14.81704293359701
 20
13.13081725760081
 30
0.0
 40
0.2149952699479804
  0
CIRCLE
  5
21E
100
AcDbEntity
  8
None
370
               9
390
0
  6
Continuous
 62
               7
100
AcDbCircle
 10
-14.017042933597001
 20
13.13081725760081
 30
0.0
 40
0.2149952699479773
  0
CIRCLE
  5
21F
100
AcDbEntity
  8
None
370
               9
390
0
  6
Continuous
 62
               7
100
AcDbCircle
 10
-13.217042933597018
 20
13.13081725760081
 30
0.0
 40
0.2149952699479542
  0
CIRCLE
  5
220
100
AcDbEntity
  8
None
370
               9
390
0
  6
Continuous
 62
               7
100
AcDbCircle
 10
-12.417042933597006
 20
13.13081725760081
 30
0.0
 40
0.2149952699479788
  0
CIRCLE
  5
221
100
AcDbEntity
  8
None
370
               9
390
0
  6
Continuous
 62
               7
100
AcDbCircle
 10
-11.617042933597023
 20
13.13081725760081
 30
0.0
 40
0.2149952699479542
  0
CIRCLE
  5
222
100
AcDbEntity
  8
None
370
               9
390
0
  6
Continuous
 62
               7
100
AcDbCircle
 10
-10.81704293359701
 20
13.13081725760081
 30
0.0
 40
0.2149952699479788
  0
CIRCLE
  5
223
100
AcDbEntity
  8
None
370
               9
390
0
  6
Continuous
 62
               7
100
AcDbCircle
 10
-10.017042933597001
 20
13.13081725760081
 30
0.0
 40
0.2149952699479788
  0
CIRCLE
  5
224
100
AcDbEntity
  8
None
370
               9
390
0
  6
Continuous
 62
               7
100
AcDbCircle
 10
-9.2170429335970177
 20
13.13081725760081
 30
0.0
 40
0.2149952699479542
  0
CIRCLE
  5
225
100
AcDbEntity
  8
None
370
               9
390
0
  6
Continuous
 62
               7
100
AcDbCircle
 10
-8.4170429335970081
 20
13.13081725760081
 30
0.0
 40
0.2149952699479773
  0
CIRCLE
  5
226
100
AcDbEntity
  8
None
370
               9
390
0
  6
Continuous
 62
               7
100
AcDbCircle
 10
-7.6170429335970269
 20
13.13081725760081
 30
0.0
 40
0.2149952699479542
  0
CIRCLE
  5
227
100
AcDbEntity
  8
None
370
               9
390
0
  6
Continuous
 62
               7
100
AcDbCircle
 10
-6.8170429335970182
 20
13.13081725760081
 30
0.0
 40
0.2149952699479781
  0
CIRCLE
  5
228
100
AcDbEntity
  8
None
370
               9
390
0
  6
Continuous
 62
               7
100
AcDbCircle
 10
-6.0170429335970077
 20
13.13081725760081
 30
0.0
 40
0.2149952699479781
  0
CIRCLE
  5
229
100
AcDbEntity
  8
None
370
               9
390
0
  6
Continuous
 62
               7
100
AcDbCircle
 10
-5.2170429335969963
 20
13.13081725760081
 30
0.0
 40
0.2149952699479788
  0
CIRCLE
  5
22A
100
AcDbEntity
  8
None
370
               9
390
0
  6
Continuous
 62
               7
100
AcDbCircle
 10
-4.4170429335970134
 20
13.13081725760081
 30
0.0
 40
0.2149952699479542
  0
CIRCLE
  5
22B
100
AcDbEntity
  8
None
370
               9
390
0
  6
Continuous
 62
               7
100
AcDbCircle
 10
-25.217042933597025
 20
12.330817257600813
 30
0.0
 40
0.2149952699479665
  0
CIRCLE
  5
22C
100
AcDbEntity
  8
None
370
               9
390
0
  6
Continuous
 62
               7
100
AcDbCircle
 10
-24.417042933597013
 20
12.330817257600813
 30
0.0
 40
0.2149952699479788
  0
CIRCLE
  5
22D
100
AcDbEntity
  8
None
370
               9
390
0
  6
Continuous
 62
               7
100
AcDbCircle
 10
-23.61704293359703
 20
12.330817257600813
 30
0.0
 40
0.2149952699479542
  0
CIRCLE
  5
22E
100
AcDbEntity
  8
None
370
               9
390
0
  6
Continuous
 62
               7
100
AcDbCircle
 10
-22.817042933597019
 20
12.330817257600813
 30
0.0
 40
0.2149952699479788
  0
CIRCLE
  5
22F
100
AcDbEntity
  8
None
370
               9
390
0
  6
Continuous
 62
               7
100
AcDbCircle
 10
-22.017042933597022
 20
12.330817257600813
 30
0.0
 40
0.2149952699479665
  0
CIRCLE
  5
230
100
AcDbEntity
  8
None
370
               9
390
0
  6
Continuous
 62
               7
100
AcDbCircle
 10
-21.217042933597025
 20
12.330817257600813
 30
0.0
 40
0.2149952699479665
  0
CIRCLE
  5
231
100
AcDbEntity
  8
None
370
               9
390
0
  6
Continuous
 62
               7
100
AcDbCircle
 10
-20.417042933597013
 20
12.330817257600813
 30
0.0
 40
0.2149952699479788
  0
CIRCLE
  5
232
100
AcDbEntity
  8
None
370
               9
390
0
  6
Continuous
 62
               7
100
AcDbCircle
 10
-19.61704293359703
 20
12.330817257600813
 30
0.0
 40
0.2149952699479542
  0
CIRCLE
  5
233
100
AcDbEntity
  8
None
370
               9
390
0
  6
Continuous
 62
               7
100
AcDbCircle
 10
-18.817042933597019
 20
12.330817257600813
 30
0.0
 40
0.2149952699479788
  0
CIRCLE
  5
234
100
AcDbEntity
  8
None
370
               9
390
0
  6
Continuous
 62
               7
100
AcDbCircle
 10
-18.017042933597018
 20
12.330817257600813
 30
0.0
 40
0.2149952699479665
  0
CIRCLE
  5
235
100
AcDbEntity
  8
None
370
               9
390
0
  6
Continuous
 62
               7
100
AcDbCircle
 10
-17.217042933597021
 20
12.330817257600813
 30
0.0
 40
0.2149952699479665
  0
CIRCLE
  5
236
100
AcDbEntity
  8
None
370
               9
390
0
  6
Continuous
 62
               7
100
AcDbCircle
 10
-16.417042933597006
 20
12.330817257600813
 30
0.0
 40
0.2149952699479788
  0
CIRCLE
  5
237
100
AcDbEntity
  8
None
370
               9
390
0
  6
Continuous
 62
               7
100
AcDbCircle
 10
-15.617042933597023
 20
12.330817257600813
 30
0.0
 40
0.2149952699479542
  0
CIRCLE
  5
238
100
AcDbEntity
  8
None
370
               9
390
0
  6
Continuous
 62
               7
100
AcDbCircle
 10
-14.81704293359701
 20
12.330817257600813
 30
0.0
 40
0.2149952699479804
  0
CIRCLE
  5
239
100
AcDbEntity
  8
None
370
               9
390
0
  6
Continuous
 62
               7
100
AcDbCircle
 10
-14.017042933597001
 20
12.330817257600813
 30
0.0
 40
0.2149952699479773
  0
CIRCLE
  5
23A
100
AcDbEntity
  8
None
370
               9
390
0
  6
Continuous
 62
               7
100
AcDbCircle
 10
-13.217042933597018
 20
12.330817257600813
 30
0.0
 40
0.2149952699479542
  0
CIRCLE
  5
23B
100
AcDbEntity
  8
None
370
               9
390
0
  6
Continuous
 62
               7
100
AcDbCircle
 10
-12.417042933597006
 20
12.330817257600813
 30
0.0
 40
0.2149952699479788
  0
CIRCLE
  5
23C
100
AcDbEntity
  8
None
370
               9
390
0
  6
Continuous
 62
               7
100
AcDbCircle
 10
-11.617042933597023
 20
12.330817257600813
 30
0.0
 40
0.2149952699479542
  0
CIRCLE
  5
23D
100
AcDbEntity
  8
None
370
               9
390
0
  6
Continuous
 62
               7
100
AcDbCircle
 10
-10.81704293359701
 20
12.330817257600813
 30
0.0
 40
0.2149952699479788
  0
CIRCLE
  5
23E
100
AcDbEntity
  8
None
370
               9
390
0
  6
Continuous
 62
               7
100
AcDbCircle
 10
-10.017042933597001
 20
12.330817257600813
 30
0.0
 40
0.2149952699479788
  0
CIRCLE
  5
23F
100
AcDbEntity
  8
None
370
               9
390
0
  6
Continuous
 62
               7
100
AcDbCircle
 10
-9.2170429335970177
 20
12.330817257600813
 30
0.0
 40
0.2149952699479542
  0
CIRCLE
  5
240
100
AcDbEntity
  8
None
370
               9
390
0
  6
Continuous
 62
               7
100
AcDbCircle
 10
-8.4170429335970081
 20
12.330817257600813
 30
0.0
 40
0.2149952699479773
  0
CIRCLE
  5
241
100
AcDbEntity
  8
None
370
               9
390
0
  6
Continuous
 62
               7
100
AcDbCircle
 10
-7.6170429335970269
 20
12.330817257600813
 30
0.0
 40
0.2149952699479542
  0
CIRCLE
  5
242
100
AcDbEntity
  8
None
370
               9
390
0
  6
Continuous
 62
               7
100
AcDbCircle
 10
-6.8170429335970182
 20
12.330817257600813
 30
0.0
 40
0.2149952699479781
  0
CIRCLE
  5
243
100
AcDbEntity
  8
None
370
               9
390
0
  6
Continuous
 62
               7
100
AcDbCircle
 10
-6.0170429335970077
 20
12.330817257600813
 30
0.0
 40
0.2149952699479781
  0
CIRCLE
  5
244
100
AcDbEntity
  8
None
370
               9
390
0
  6
Continuous
 62
               7
100
AcDbCircle
 10
-5.2170429335969963
 20
12.330817257600813
 30
0.0
 40
0.2149952699479788
  0
CIRCLE
  5
245
100
AcDbEntity
  8
None
370
               9
390
0
  6
Continuous
 62
               7
100
AcDbCircle
 10
-4.4170429335970134
 20
12.330817257600813
 30
0.0
 40
0.2149952699479542
  0
CIRCLE
  5
246
100
AcDbEntity
  8
None
370
               9
390
0
  6
Continuous
 62
               7
100
AcDbCircle
 10
-25.217042933597025
 20
11.530817257600816
 30
0.0
 40
0.2149952699479665
  0
CIRCLE
  5
247
100
AcDbEntity
  8
None
370
               9
390
0
  6
Continuous
 62
               7
100
AcDbCircle
 10
-24.417042933597013
 20
11.530817257600816
 30
0.0
 40
0.2149952699479788
  0
CIRCLE
  5
248
100
AcDbEntity
  8
None
370
               9
390
0
  6
Continuous
 62
               7
100
AcDbCircle
 10
-23.61704293359703
 20
11.530817257600816
 30
0.0
 40
0.2149952699479542
  0
CIRCLE
  5
249
100
AcDbEntity
  8
None
370
               9
390
0
  6
Continuous
 62
               7
100
AcDbCircle
 10
-22.817042933597019
 20
11.530817257600816
 30
0.0
 40
0.2149952699479788
  0
CIRCLE
  5
24A
100
AcDbEntity
  8
None
370
               9
390
0
  6
Continuous
 62
               7
100
AcDbCircle
 10
-22.017042933597022
 20
11.530817257600816
 30
0.0
 40
0.2149952699479665
  0
CIRCLE
  5
24B
100
AcDbEntity
  8
None
370
               9
390
0
  6
Continuous
 62
               7
100
AcDbCircle
 10
-21.217042933597025
 20
11.530817257600816
 30
0.0
 40
0.2149952699479665
  0
CIRCLE
  5
24C
100
AcDbEntity
  8
None
370
               9
390
0
  6
Continuous
 62
               7
100
AcDbCircle
 10
-20.417042933597013
 20
11.530817257600816
 30
0.0
 40
0.2149952699479788
  0
CIRCLE
  5
24D
100
AcDbEntity
  8
None
370
               9
390
0
  6
Continuous
 62
               7
100
AcDbCircle
 10
-19.61704293359703
 20
11.530817257600816
 30
0.0
 40
0.2149952699479542
  0
CIRCLE
  5
24E
100
AcDbEntity
  8
None
370
               9
390
0
  6
Continuous
 62
               7
100
AcDbCircle
 10
-18.817042933597019
 20
11.530817257600816
 30
0.0
 40
0.2149952699479788
  0
CIRCLE
  5
24F
100
AcDbEntity
  8
None
370
               9
390
0
  6
Continuous
 62
               7
100
AcDbCircle
 10
-18.017042933597018
 20
11.530817257600816
 30
0.0
 40
0.2149952699479665
  0
CIRCLE
  5
250
100
AcDbEntity
  8
None
370
               9
390
0
  6
Continuous
 62
               7
100
AcDbCircle
 10
-17.217042933597021
 20
11.530817257600816
 30
0.0
 40
0.2149952699479665
  0
CIRCLE
  5
251
100
AcDbEntity
  8
None
370
               9
390
0
  6
Continuous
 62
               7
100
AcDbCircle
 10
-16.417042933597006
 20
11.530817257600816
 30
0.0
 40
0.2149952699479788
  0
CIRCLE
  5
252
100
AcDbEntity
  8
None
370
               9
390
0
  6
Continuous
 62
               7
100
AcDbCircle
 10
-15.617042933597023
 20
11.530817257600816
 30
0.0
 40
0.2149952699479542
  0
CIRCLE
  5
253
100
AcDbEntity
  8
None
370
               9
390
0
  6
Continuous
 62
               7
100
AcDbCircle
 10
-14.81704293359701
 20
11.530817257600816
 30
0.0
 40
0.2149952699479804
  0
CIRCLE
  5
254
100
AcDbEntity
  8
None
370
               9
390
0
  6
Continuous
 62
               7
100
AcDbCircle
 10
-14.017042933597001
 20
11.530817257600816
 30
0.0
 40
0.2149952699479773
  0
CIRCLE
  5
255
100
AcDbEntity
  8
None
370
               9
390
0
  6
Continuous
 62
               7
100
AcDbCircle
 10
-13.217042933597018
 20
11.530817257600816
 30
0.0
 40
0.2149952699479542
  0
CIRCLE
  5
256
100
AcDbEntity
  8
None
370
               9
390
0
  6
Continuous
 62
               7
100
AcDbCircle
 10
-12.417042933597006
 20
11.530817257600816
 30
0.0
 40
0.2149952699479788
  0
CIRCLE
  5
257
100
AcDbEntity
  8
None
370
               9
390
0
  6
Continuous
 62
               7
100
AcDbCircle
 10
-11.617042933597023
 20
11.530817257600816
 30
0.0
 40
0.2149952699479542
  0
CIRCLE
  5
258
100
AcDbEntity
  8
None
370
               9
390
0
  6
Continuous
 62
               7
100
AcDbCircle
 10
-10.81704293359701
 20
11.530817257600816
 30
0.0
 40
0.2149952699479788
  0
CIRCLE
  5
259
100
AcDbEntity
  8
None
370
               9
390
0
  6
Continuous
 62
               7
100
AcDbCircle
 10
-10.017042933597001
 20
11.530817257600816
 30
0.0
 40
0.2149952699479788
  0
CIRCLE
  5
25A
100
AcDbEntity
  8
None
370
               9
390
0
  6
Continuous
 62
               7
100
AcDbCircle
 10
-9.2170429335970177
 20
11.530817257600816
 30
0.0
 40
0.2149952699479542
  0
CIRCLE
  5
25B
100
AcDbEntity
  8
None
370
               9
390
0
  6
Continuous
 62
               7
100
AcDbCircle
 10
-8.4170429335970081
 20
11.530817257600816
 30
0.0
 40
0.2149952699479773
  0
CIRCLE
  5
25C
100
AcDbEntity
  8
None
370
               9
390
0
  6
Continuous
 62
               7
100
AcDbCircle
 10
-7.6170429335970269
 20
11.530817257600816
 30
0.0
 40
0.2149952699479542
  0
CIRCLE
  5
25D
100
AcDbEntity
  8
None
370
               9
390
0
  6
Continuous
 62
               7
100
AcDbCircle
 10
-6.8170429335970182
 20
11.530817257600816
 30
0.0
 40
0.2149952699479781
  0
CIRCLE
  5
25E
100
AcDbEntity
  8
None
370
               9
390
0
  6
Continuous
 62
               7
100
AcDbCircle
 10
-6.0170429335970077
 20
11.530817257600816
 30
0.0
 40
0.2149952699479781
  0
CIRCLE
  5
25F
100
AcDbEntity
  8
None
370
               9
390
0
  6
Continuous
 62
               7
100
AcDbCircle
 10
-5.2170429335969963
 20
11.530817257600816
 30
0.0
 40
0.2149952699479788
  0
CIRCLE
  5
260
100
AcDbEntity
  8
None
370
               9
390
0
  6
Continuous
 62
               7
100
AcDbCircle
 10
-4.4170429335970134
 20
11.530817257600816
 30
0.0
 40
0.2149952699479542
  0
CIRCLE
  5
261
100
AcDbEntity
  8
None
370
               9
390
0
  6
Continuous
 62
               7
100
AcDbCircle
 10
-25.217042933597025
 20
10.730817257600812
 30
0.0
 40
0.2149952699479665
  0
CIRCLE
  5
262
100
AcDbEntity
  8
None
370
               9
390
0
  6
Continuous
 62
               7
100
AcDbCircle
 10
-24.417042933597013
 20
10.730817257600812
 30
0.0
 40
0.2149952699479788
  0
CIRCLE
  5
263
100
AcDbEntity
  8
None
370
               9
390
0
  6
Continuous
 62
               7
100
AcDbCircle
 10
-23.61704293359703
 20
10.730817257600812
 30
0.0
 40
0.2149952699479542
  0
CIRCLE
  5
264
100
AcDbEntity
  8
None
370
               9
390
0
  6
Continuous
 62
               7
100
AcDbCircle
 10
-22.817042933597019
 20
10.730817257600812
 30
0.0
 40
0.2149952699479788
  0
CIRCLE
  5
265
100
AcDbEntity
  8
None
370
               9
390
0
  6
Continuous
 62
               7
100
AcDbCircle
 10
-22.017042933597022
 20
10.730817257600812
 30
0.0
 40
0.2149952699479665
  0
CIRCLE
  5
266
100
AcDbEntity
  8
None
370
               9
390
0
  6
Continuous
 62
               7
100
AcDbCircle
 10
-21.217042933597025
 20
10.730817257600812
 30
0.0
 40
0.2149952699479665
  0
CIRCLE
  5
267
100
AcDbEntity
  8
None
370
               9
390
0
  6
Continuous
 62
               7
100
AcDbCircle
 10
-20.417042933597013
 20
10.730817257600812
 30
0.0
 40
0.2149952699479788
  0
CIRCLE
  5
268
100
AcDbEntity
  8
None
370
               9
390
0
  6
Continuous
 62
               7
100
AcDbCircle
 10
-19.61704293359703
 20
10.730817257600812
 30
0.0
 40
0.2149952699479542
  0
CIRCLE
  5
269
100
AcDbEntity
  8
None
370
               9
390
0
  6
Continuous
 62
               7
100
AcDbCircle
 10
-18.817042933597019
 20
10.730817257600812
 30
0.0
 40
0.2149952699479788
  0
CIRCLE
  5
26A
100
AcDbEntity
  8
None
370
               9
390
0
  6
Continuous
 62
               7
100
AcDbCircle
 10
-18.017042933597018
 20
10.730817257600812
 30
0.0
 40
0.2149952699479665
  0
CIRCLE
  5
26B
100
AcDbEntity
  8
None
370
               9
390
0
  6
Continuous
 62
               7
100
AcDbCircle
 10
-17.217042933597021
 20
10.730817257600812
 30
0.0
 40
0.2149952699479665
  0
CIRCLE
  5
26C
100
AcDbEntity
  8
None
370
               9
390
0
  6
Continuous
 62
               7
100
AcDbCircle
 10
-16.417042933597006
 20
10.730817257600812
 30
0.0
 40
0.2149952699479788
  0
CIRCLE
  5
26D
100
AcDbEntity
  8
None
370
               9
390
0
  6
Continuous
 62
               7
100
AcDbCircle
 10
-15.617042933597023
 20
10.730817257600812
 30
0.0
 40
0.2149952699479542
  0
CIRCLE
  5
26E
100
AcDbEntity
  8
None
370
               9
390
0
  6
Continuous
 62
               7
100
AcDbCircle
 10
-14.81704293359701
 20
10.730817257600812
 30
0.0
 40
0.2149952699479804
  0
CIRCLE
  5
26F
100
AcDbEntity
  8
None
370
               9
390
0
  6
Continuous
 62
               7
100
AcDbCircle
 10
-14.017042933597001
 20
10.730817257600812
 30
0.0
 40
0.2149952699479773
  0
CIRCLE
  5
270
100
AcDbEntity
  8
None
370
               9
390
0
  6
Continuous
 62
               7
100
AcDbCircle
 10
-13.217042933597018
 20
10.730817257600812
 30
0.0
 40
0.2149952699479542
  0
CIRCLE
  5
271
100
AcDbEntity
  8
None
370
               9
390
0
  6
Continuous
 62
               7
100
AcDbCircle
 10
-12.417042933597006
 20
10.730817257600812
 30
0.0
 40
0.2149952699479788
  0
CIRCLE
  5
272
100
AcDbEntity
  8
None
370
               9
390
0
  6
Continuous
 62
               7
100
AcDbCircle
 10
-11.617042933597023
 20
10.730817257600812
 30
0.0
 40
0.2149952699479542
  0
CIRCLE
  5
273
100
AcDbEntity
  8
None
370
               9
390
0
  6
Continuous
 62
               7
100
AcDbCircle
 10
-10.81704293359701
 20
10.730817257600812
 30
0.0
 40
0.2149952699479788
  0
CIRCLE
  5
274
100
AcDbEntity
  8
None
370
               9
390
0
  6
Continuous
 62
               7
100
AcDbCircle
 10
-10.017042933597001
 20
10.730817257600812
 30
0.0
 40
0.2149952699479788
  0
CIRCLE
  5
275
100
AcDbEntity
  8
None
370
               9
390
0
  6
Continuous
 62
               7
100
AcDbCircle
 10
-9.2170429335970177
 20
10.730817257600812
 30
0.0
 40
0.2149952699479542
  0
CIRCLE
  5
276
100
AcDbEntity
  8
None
370
               9
390
0
  6
Continuous
 62
               7
100
AcDbCircle
 10
-8.4170429335970081
 20
10.730817257600812
 30
0.0
 40
0.2149952699479773
  0
CIRCLE
  5
277
100
AcDbEntity
  8
None
370
               9
390
0
  6
Continuous
 62
               7
100
AcDbCircle
 10
-7.6170429335970269
 20
10.730817257600812
 30
0.0
 40
0.2149952699479542
  0
CIRCLE
  5
278
100
AcDbEntity
  8
None
370
               9
390
0
  6
Continuous
 62
               7
100
AcDbCircle
 10
-6.8170429335970182
 20
10.730817257600812
 30
0.0
 40
0.2149952699479781
  0
CIRCLE
  5
279
100
AcDbEntity
  8
None
370
               9
390
0
  6
Continuous
 62
               7
100
AcDbCircle
 10
-6.0170429335970077
 20
10.730817257600812
 30
0.0
 40
0.2149952699479781
  0
CIRCLE
  5
27A
100
AcDbEntity
  8
None
370
               9
390
0
  6
Continuous
 62
               7
100
AcDbCircle
 10
-5.2170429335969963
 20
10.730817257600812
 30
0.0
 40
0.2149952699479788
  0
CIRCLE
  5
27B
100
AcDbEntity
  8
None
370
               9
390
0
  6
Continuous
 62
               7
100
AcDbCircle
 10
-4.4170429335970134
 20
10.730817257600812
 30
0.0
 40
0.2149952699479542
  0
ENDBLK
  5
27C
100
AcDbEntity
  8
None
390
0
100
AcDbBlockEnd
  0
BLOCK
  5
27D
100
AcDbEntity
  8
Dimension
390
0
100
AcDbBlockBegin
  2
Group-1
 70
               0
 10
0.0
 20
0.0
 30
0.0
  3
Group-1
  1

  0
LINE
  5
27E
100
AcDbEntity
  8
None
370
               9
390
0
  6
STYLE_12
 62
             180
100
AcDbLine
 10
-15.875375208597038
 20
21.130817257600881
 30
0.0
 11
-13.758710658597041
 21
21.130817257600881
 31
0.0
  0
LINE
  5
27F
100
AcDbEntity
  8
None
370
               9
390
0
  6
STYLE_12
 62
             180
100
AcDbLine
 10
-14.817042933597039
 20
20.072484982600855
 30
0.0
 11
-14.817042933597039
 21
22.189149532600922
 31
0.0
  0
LINE
  5
280
100
AcDbEntity
  8
None
370
               9
390
0
  6
STYLE_12
 62
             180
100
AcDbLine
 10
-29.987875208597004
 20
21.130817257600881
 30
0.0
 11
-16.404541346097037
 21
21.130817257600881
 31
0.0
  0
LINE
  5
281
100
AcDbEntity
  8
None
370
               9
390
0
  6
STYLE_12
 62
             180
100
AcDbLine
 10
-13.229544521097042
 20
21.130817257600881
 30
0.0
 11
0.3537893414029636
 21
21.130817257600881
 31
0.0
  0
LINE
  5
282
100
AcDbEntity
  8
None
370
               9
390
0
  6
STYLE_12
 62
             180
100
AcDbLine
 10
-14.817042933597039
 20
36.301649532600976
 30
0.0
 11
-14.817042933597039
 21
22.718315670100935
 31
0.0
  0
LINE
  5
283
100
AcDbEntity
  8
None
370
               9
390
0
  6
STYLE_12
 62
             180
100
AcDbLine
 10
-14.817042933597039
 20
19.543318845100842
 30
0.0
 11
-14.817042933597039
 21
5.9599849826007834
 31
0.0
  0
ENDBLK
  5
284
100
AcDbEntity
  8
Dimension
390
0
100
AcDbBlockEnd
  0
BLOCK
  5
285
100
AcDbEntity
  8
None
390
0
100
AcDbBlockBegin
  2
Group-2
 70
               0
 10
0.0
 20
0.0
 30
0.0
  3
Group-2
  1

  0
CIRCLE
  5
286
100
AcDbEntity
  8
None
370
               9
390
0
  6
Continuous
 62
               7
100
AcDbCircle
 10
-27.679542933597027
 20
8.26831725760076
 30
0.0
 40
0.8499999999999979
  0
CIRCLE
  5
287
100
AcDbEntity
  8
None
370
               9
390
0
  6
Continuous
 62
               7
100
AcDbCircle
 10
-27.679542933597027
 20
13.348317257600726
 30
0.0
 40
0.4249999999999972
  0
CIRCLE
  5
288
100
AcDbEntity
  8
None
370
               9
390
0
  6
Continuous
 62
               7
100
AcDbCircle
 10
-27.679542933597027
 20
33.993317257600978
 30
0.0
 40
0.8499999999999979
  0
CIRCLE
  5
289
100
AcDbEntity
  8
None
370
               9
390
0
  6
Continuous
 62
               7
100
AcDbCircle
 10
-1.9545429335970343
 20
33.993317257600978
 30
0.0
 40
0.8499999999999996
  0
CIRCLE
  5
28A
100
AcDbEntity
  8
None
370
               9
390
0
  6
Continuous
 62
               7
100
AcDbCircle
 10
-1.9545429335970343
 20
31.453317257600958
 30
0.0
 40
0.4250000000000114
  0
CIRCLE
  5
28B
100
AcDbEntity
  8
None
370
               9
390
0
  6
Continuous
 62
               7
100
AcDbCircle
 10
-1.9545429335970343
 20
8.26831725760076
 30
0.0
 40
0.8499999999999996
  0
POLYLINE
  5
28C
100
AcDbEntity
  8
None
370
               9
390
0
  6
STYLE_11
 62
               7
100
AcDb2dPolyline
 66
               1
 10
0.0
 20
0.0
 30
0.0
 70
               1
 75
               5
  0
VERTEX
  5
28D
100
AcDbEntity
  8
None
370
               9
390
0
  6
STYLE_11
 62
               7
100
AcDbVertex
100
AcDb2dVertex
 10
-28.929542933597016
 20
35.243317257600978
 30
0.0
  0
VERTEX
  5
28E
100
AcDbEntity
  8
None
370
               9
390
0
  6
STYLE_11
 62
               7
100
AcDbVertex
100
AcDb2dVertex
 10
-0.7045429335970344
 20
35.243317257600978
 30
0.0
  0
VERTEX
  5
28F
100
AcDbEntity
  8
None
370
               9
390
0
  6
STYLE_11
 62
               7
100
AcDbVertex
100
AcDb2dVertex
 10
-0.7045429335970344
 20
7.0183172576007742
 30
0.0
  0
VERTEX
  5
290
100
AcDbEntity
  8
None
370
               9
390
0
  6
STYLE_11
 62
               7
100
AcDbVertex
100
AcDb2dVertex
 10
-28.929542933597016
 20
7.0183172576007742
 30
0.0
  0
SEQEND
  5
291
100
AcDbEntity
  8
None
370
               9
390
0
  6
STYLE_11
 62
               7
  0
INSERT
  5
292
100
AcDbEntity
  8
None
390
0
 62
               7
100
AcDbBlockReference
  2
Group
 10
0.0
 20
0.0
 30
0.0
  0
POLYLINE
  5
293
100
AcDbEntity
  8
None
370
               9
390
0
  6
STYLE_11
 62
               7
100
AcDb2dPolyline
 66
               1
 10
0.0
 20
0.0
 30
0.0
 70
               1
 75
               5
  0
VERTEX
  5
294
100
AcDbEntity
  8
None
370
               9
390
0
  6
STYLE_11
 62
               7
100
AcDbVertex
100
AcDb2dVertex
 10
-28.929542933597016
 20
35.243317257600978
 30
0.0
  0
VERTEX
  5
295
100
AcDbEntity
  8
None
370
               9
390
0
  6
STYLE_11
 62
               7
100
AcDbVertex
100
AcDb2dVertex
 10
-0.7045429335970344
 20
35.243317257600978
 30
0.0
  0
VERTEX
  5
296
100
AcDbEntity
  8
None
370
               9
390
0
  6
STYLE_11
 62
               7
100
AcDbVertex
100
AcDb2dVertex
 10
-0.7045429335970344
 20
7.0183172576007742
 30
0.0
  0
VERTEX
  5
297
100
AcDbEntity
  8
None
370
               9
390
0
  6
STYLE_11
 62
               7
100
AcDbVertex
100
AcDb2dVertex
 10
-28.929542933597016
 20
7.0183172576007742
 30
0.0
  0
SEQEND
  5
298
100
AcDbEntity
  8
None
370
               9
390
0
  6
STYLE_11
 62
               7
  0
INSERT
  5
299
100
AcDbEntity
  8
Dimension
390
0
 62
               7
100
AcDbBlockReference
  2
Group-1
 10
0.0
 20
0.0
 30
0.0
  0
ENDBLK
  5
29A
100
AcDbEntity
  8
None
390
0
100
AcDbBlockEnd
  0
BLOCK
  5
29B
100
AcDbEntity
  8
Dimension
390
0
100
AcDbBlockBegin
  2
*D8
 70
               1
 10
0.0
 20
0.0
 30
0.0
  3
*D8
  1

  0
LINE
  5
29C
100
AcDbEntity
  8
Dimension
370
              -2
390
0
  6
Continuous
 62
               0
100
AcDbLine
 10
-27.679542933597027
 20
35.8983172623321
 30
0.0
 11
-27.679542933597027
 21
55.599999999999994
 31
0.0
  0
LINE
  5
29D
100
AcDbEntity
  8
Dimension
370
              -2
390
0
  6
Continuous
 62
               0
100
AcDbLine
 10
-25.217042933597025
 20
33.435817262332066
 30
0.0
 11
-25.217042933597025
 21
55.599999999999994
 31
0.0
  0
LINE
  5
29E
100
AcDbEntity
  8
Dimension
370
              -2
390
0
  6
Continuous
 62
               0
100
AcDbLine
 10
-25.217042933597025
 20
51.789999990537758
 30
0.0
 11
-27.679542933597027
 21
51.789999990537758
 31
0.0
  0
LINE
  5
29F
100
AcDbEntity
  8
Dimension
370
              -2
390
0
  6
Continuous
 62
               0
100
AcDbLine
 10
-27.679542933597027
 20
51.789999990537758
 30
0.0
 11
-40.200000000000003
 21
51.789999990537758
 31
0.0
  0
SOLID
  5
2A0
100
AcDbEntity
  8
Dimension
370
              -2
390
0
 62
               0
100
AcDbTrace
 10
-27.679542933597027
 20
51.789999990537758
 30
0.0
 11
-30.854542933597028
 21
50.939261304568944
 31
0.0
 12
-30.854542933597028
 22
52.640738676506572
 32
0.0
 13
-30.854542933597028
 23
52.640738676506572
 33
0.0
  0
LINE
  5
2A1
100
AcDbEntity
  8
Dimension
370
              -2
390
0
  6
Continuous
 62
               0
100
AcDbLine
 10
-25.217042933597025
 20
51.789999990537758
 30
0.0
 11
-18.217056940129755
 21
51.789999990537758
 31
0.0
  0
SOLID
  5
2A2
100
AcDbEntity
  8
Dimension
370
              -2
390
0
 62
               0
100
AcDbTrace
 10
-25.217042933597025
 20
51.789999990537758
 30
0.0
 11
-22.042042933597024
 21
52.640738676506572
 31
0.0
 12
-22.042042933597024
 22
50.939261304568944
 32
0.0
 13
-22.042042933597024
 23
50.939261304568944
 33
0.0
  0
MTEXT
  5
2A3
100
AcDbEntity
  8
Dimension
390
0
 62
               0
100
AcDbMText
 10
-55.313000053829612
 20
53.031888011371088
 30
0.0
 40
2.273763020833333
 41
0.0
 71
               1
 72
               1
  1
2.4625mm
  7
Helvetica
 73
               1
 44
0.9673603504928806
  0
POINT
  5
2A4
100
AcDbEntity
  8
Defpoints
370
               0
390
0
 62
               0
100
AcDbPoint
 10
-25.217042933597025
 20
31.530817257600944
 30
0.0
  0
POINT
  5
2A5
100
AcDbEntity
  8
Defpoints
370
               0
390
0
 62
               0
100
AcDbPoint
 10
-27.679542933597027
 20
33.993317257600978
 30
0.0
  0
POINT
  5
2A6
100
AcDbEntity
  8
Defpoints
370
               0
390
0
 62
               0
100
AcDbPoint
 10
-27.679542933597027
 20
51.789999990537758
 30
0.0
  0
ENDBLK
  5
2A7
100
AcDbEntity
  8
Dimension
390
0
100
AcDbBlockEnd
  0
BLOCK
  5
2A8
100
AcDbEntity
  8
Dimension
390
0
100
AcDbBlockBegin
  2
*D9
 70
               1
 10
0.0
 20
0.0
 30
0.0
  3
*D9
  1

  0
LINE
  5
2A9
100
AcDbEntity
  8
Dimension
370
              -2
390
0
  6
Continuous
 62
               0
100
AcDbLine
 10
-27.122042938328143
 20
31.530817257600944
 30
0.0
 11
-45.61000000946224
 21
31.530817257600944
 31
0.0
  0
LINE
  5
2AA
100
AcDbEntity
  8
Dimension
370
              -2
390
0
  6
Continuous
 62
               0
100
AcDbLine
 10
-29.584542938328145
 20
33.993317257600978
 30
0.0
 11
-45.61000000946224
 21
33.993317257600978
 31
0.0
  0
LINE
  5
2AB
100
AcDbEntity
  8
Dimension
370
              -2
390
0
  6
Continuous
 62
               0
100
AcDbLine
 10
-41.800000000000004
 20
33.993317257600978
 30
0.0
 11
-41.800000000000004
 21
31.530817257600944
 31
0.0
  0
LINE
  5
2AC
100
AcDbEntity
  8
Dimension
370
              -2
390
0
  6
Continuous
 62
               0
100
AcDbLine
 10
-41.800000000000004
 20
31.530817257600944
 30
0.0
 11
-41.800000000000004
 21
24.530831264133674
 31
0.0
  0
SOLID
  5
2AD
100
AcDbEntity
  8
Dimension
370
              -2
390
0
 62
               0
100
AcDbTrace
 10
-41.800000000000004
 20
31.530817257600944
 30
0.0
 11
-40.94926131403119
 21
28.355817257600943
 31
0.0
 12
-42.650738685968818
 22
28.355817257600943
 32
0.0
 13
-42.650738685968818
 23
28.355817257600943
 33
0.0
  0
LINE
  5
2AE
100
AcDbEntity
  8
Dimension
370
              -2
390
0
  6
Continuous
 62
               0
100
AcDbLine
 10
-41.800000000000004
 20
33.993317257600978
 30
0.0
 11
-41.800000000000004
 21
43.400000000000006
 31
0.0
  0
SOLID
  5
2AF
100
AcDbEntity
  8
Dimension
370
              -2
390
0
 62
               0
100
AcDbTrace
 10
-41.800000000000004
 20
33.993317257600978
 30
0.0
 11
-42.650738685968818
 21
37.168317257600975
 31
0.0
 12
-40.94926131403119
 22
37.168317257600975
 32
0.0
 13
-40.94926131403119
 23
37.168317257600975
 33
0.0
  0
MTEXT
  5
2B0
100
AcDbEntity
  8
Dimension
390
0
 62
               0
100
AcDbMText
 10
-49.356500026914809
 20
44.641888020833335
 30
0.0
 40
2.273763020833333
 41
0.0
 71
               1
 72
               1
  1
2.4625mm
  7
Helvetica
 73
               1
 44
0.9673603504928806
  0
POINT
  5
2B1
100
AcDbEntity
  8
Defpoints
370
               0
390
0
 62
               0
100
AcDbPoint
 10
-27.679542933597027
 20
33.993317257600978
 30
0.0
  0
POINT
  5
2B2
100
AcDbEntity
  8
Defpoints
370
               0
390
0
 62
               0
100
AcDbPoint
 10
-25.217042933597025
 20
31.530817257600944
 30
0.0
  0
POINT
  5
2B3
100
AcDbEntity
  8
Defpoints
370
               0
390
0
 62
               0
100
AcDbPoint
 10
-41.800000000000004
 20
31.530817257600944
 30
0.0
  0
ENDBLK
  5
2B4
100
AcDbEntity
  8
Dimension
390
0
100
AcDbBlockEnd
  0
BLOCK
  5
2B5
100
AcDbEntity
  8
Dimension
390
0
100
AcDbBlockBegin
  2
*D10
 70
               1
 10
0.0
 20
0.0
 30
0.0
  3
*D10
  1

  0
LINE
  5
2B6
100
AcDbEntity
  8
Dimension
370
              -2
390
0
  6
Continuous
 62
               0
100
AcDbLine
 10
-10.017042933597001
 20
33.435817262332066
 30
0.0
 11
-10.017042933597001
 21
48.799603267063198
 31
0.0
  0
LINE
  5
2B7
100
AcDbEntity
  8
Dimension
370
              -2
390
0
  6
Continuous
 62
               0
100
AcDbLine
 10
-9.2170429335970177
 20
33.435817262332066
 30
0.0
 11
-9.2170429335970177
 21
48.799603267063198
 31
0.0
  0
LINE
  5
2B8
100
AcDbEntity
  8
Dimension
370
              -2
390
0
  6
Continuous
 62
               0
100
AcDbLine
 10
-9.2170429335970177
 20
44.989603257600962
 30
0.0
 11
-10.017042933597001
 21
44.989603257600962
 31
0.0
  0
LINE
  5
2B9
100
AcDbEntity
  8
Dimension
370
              -2
390
0
  6
Continuous
 62
               0
100
AcDbLine
 10
-10.017042933597001
 20
44.989603257600962
 30
0.0
 11
-17.017028927064271
 21
44.989603257600962
 31
0.0
  0
SOLID
  5
2BA
100
AcDbEntity
  8
Dimension
370
              -2
390
0
 62
               0
100
AcDbTrace
 10
-10.017042933597001
 20
44.989603257600962
 30
0.0
 11
-13.192042933597001
 21
44.138864571632148
 31
0.0
 12
-13.192042933597
 22
45.840341943569776
 32
0.0
 13
-13.192042933597
 23
45.840341943569776
 33
0.0
  0
LINE
  5
2BB
100
AcDbEntity
  8
Dimension
370
              -2
390
0
  6
Continuous
 62
               0
100
AcDbLine
 10
-9.2170429335970177
 20
44.989603257600962
 30
0.0
 11
1.4000000000000004
 21
44.989603257600962
 31
0.0
  0
SOLID
  5
2BC
100
AcDbEntity
  8
Dimension
370
              -2
390
0
 62
               0
100
AcDbTrace
 10
-9.2170429335970177
 20
44.989603257600962
 30
0.0
 11
-6.0420429335970178
 21
45.840341943569776
 31
0.0
 12
-6.0420429335970178
 22
44.138864571632148
 32
0.0
 13
-6.0420429335970178
 23
44.138864571632148
 33
0.0
  0
MTEXT
  5
2BD
100
AcDbEntity
  8
Dimension
390
0
 62
               0
100
AcDbMText
 10
1.3999999999999986
 20
46.231491278434291
 30
0.0
 40
2.273763020833333
 41
0.0
 71
               1
 72
               1
  1
0.80mm typ.
  7
Helvetica
 73
               1
 44
0.9673603504928806
  0
POINT
  5
2BE
100
AcDbEntity
  8
Defpoints
370
               0
390
0
 62
               0
100
AcDbPoint
 10
-9.2170429335970177
 20
31.530817257600944
 30
0.0
  0
POINT
  5
2BF
100
AcDbEntity
  8
Defpoints
370
               0
390
0
 62
               0
100
AcDbPoint
 10
-10.017042933597001
 20
31.530817257600944
 30
0.0
  0
POINT
  5
2C0
100
AcDbEntity
  8
Defpoints
370
               0
390
0
 62
               0
100
AcDbPoint
 10
-10.017042933597001
 20
44.989603257600962
 30
0.0
  0
ENDBLK
  5
2C1
100
AcDbEntity
  8
Dimension
390
0
100
AcDbBlockEnd
  0
BLOCK
  5
2C2
100
AcDbEntity
  8
Dimension
390
0
100
AcDbBlockBegin
  2
*D11
 70
               1
 10
0.0
 20
0.0
 30
0.0
  3
*D11
  1

  0
LINE
  5
2C3
100
AcDbEntity
  8
Dimension
370
              -2
390
0
  6
Continuous
 62
               0
100
AcDbLine
 10
-29.584542938328145
 20
8.26831725760076
 30
0.0
 11
-47.794538213007243
 21
8.26831725760076
 31
0.0
  0
LINE
  5
2C4
100
AcDbEntity
  8
Dimension
370
              -2
390
0
  6
Continuous
 62
               0
100
AcDbLine
 10
-29.584542938328145
 20
13.348317257600726
 30
0.0
 11
-47.794538213007236
 21
13.348317257600726
 31
0.0
  0
LINE
  5
2C5
100
AcDbEntity
  8
Dimension
370
              -2
390
0
  6
Continuous
 62
               0
100
AcDbLine
 10
-43.984538203545
 20
13.348317257600726
 30
0.0
 11
-43.984538203545
 21
8.26831725760076
 31
0.0
  0
LINE
  5
2C6
100
AcDbEntity
  8
Dimension
370
              -2
390
0
  6
Continuous
 62
               0
100
AcDbLine
 10
-43.984538203545
 20
8.26831725760076
 30
0.0
 11
-43.984538203545
 21
1.2683312641334892
 31
0.0
  0
SOLID
  5
2C7
100
AcDbEntity
  8
Dimension
370
              -2
390
0
 62
               0
100
AcDbTrace
 10
-43.984538203545
 20
8.26831725760076
 30
0.0
 11
-43.133799517576186
 21
5.0933172576007593
 31
0.0
 12
-44.835276889513814
 22
5.0933172576007602
 32
0.0
 13
-44.835276889513814
 23
5.0933172576007602
 33
0.0
  0
LINE
  5
2C8
100
AcDbEntity
  8
Dimension
370
              -2
390
0
  6
Continuous
 62
               0
100
AcDbLine
 10
-43.984538203545
 20
13.348317257600726
 30
0.0
 11
-43.984538203545
 21
20.348303251067996
 31
0.0
  0
SOLID
  5
2C9
100
AcDbEntity
  8
Dimension
370
              -2
390
0
 62
               0
100
AcDbTrace
 10
-43.984538203545
 20
13.348317257600726
 30
0.0
 11
-44.835276889513814
 21
16.523317257600727
 31
0.0
 12
-43.133799517576186
 22
16.523317257600727
 32
0.0
 13
-43.133799517576186
 23
16.523317257600727
 33
0.0
  0
MTEXT
  5
2CA
100
AcDbEntity
  8
Dimension
390
0
 62
               0
100
AcDbMText
 10
-49.763038580352315
 20
11.843531609594518
 30
0.0
 40
2.273763020833333
 41
0.0
 71
               1
 72
               1
  1
5.08mm
  7
Helvetica
 73
               1
 44
0.9673603504928806
  0
POINT
  5
2CB
100
AcDbEntity
  8
Defpoints
370
               0
390
0
 62
               0
100
AcDbPoint
 10
-27.679542933597027
 20
13.348317257600726
 30
0.0
  0
POINT
  5
2CC
100
AcDbEntity
  8
Defpoints
370
               0
390
0
 62
               0
100
AcDbPoint
 10
-27.679542933597027
 20
8.26831725760076
 30
0.0
  0
POINT
  5
2CD
100
AcDbEntity
  8
Defpoints
370
               0
390
0
 62
               0
100
AcDbPoint
 10
-43.984538203545
 20
8.26831725760076
 30
0.0
  0
ENDBLK
  5
2CE
100
AcDbEntity
  8
Dimension
390
0
100
AcDbBlockEnd
  0
BLOCK
  5
2CF
100
AcDbEntity
  8
Dimension
390
0
100
AcDbBlockBegin
  2
*D12
 70
               1
 10
0.0
 20
0.0
 30
0.0
  3
*D12
  1

  0
LINE
  5
2D0
100
AcDbEntity
  8
Dimension
370
              -2
390
0
  6
Continuous
 62
               0
100
AcDbLine
 10
-0.0495429288659157
 20
31.453317257600958
 30
0.0
 11
34.325461805917229
 21
31.453317257600958
 31
0.0
  0
LINE
  5
2D1
100
AcDbEntity
  8
Dimension
370
              -2
390
0
  6
Continuous
 62
               0
100
AcDbLine
 10
-0.0495429288659157
 20
33.993317257600978
 30
0.0
 11
34.325461805917229
 21
33.993317257600978
 31
0.0
  0
LINE
  5
2D2
100
AcDbEntity
  8
Dimension
370
              -2
390
0
  6
Continuous
 62
               0
100
AcDbLine
 10
30.515461796454993
 20
33.993317257600978
 30
0.0
 11
30.515461796454993
 21
31.453317257600958
 31
0.0
  0
LINE
  5
2D3
100
AcDbEntity
  8
Dimension
370
              -2
390
0
  6
Continuous
 62
               0
100
AcDbLine
 10
30.515461796454993
 20
31.453317257600958
 30
0.0
 11
30.515461796454993
 21
24.453331264133688
 31
0.0
  0
SOLID
  5
2D4
100
AcDbEntity
  8
Dimension
370
              -2
390
0
 62
               0
100
AcDbTrace
 10
30.515461796454993
 20
31.453317257600958
 30
0.0
 11
31.366200482423807
 21
28.278317257600957
 31
0.0
 12
29.664723110486179
 22
28.278317257600957
 32
0.0
 13
29.664723110486179
 23
28.278317257600957
 33
0.0
  0
LINE
  5
2D5
100
AcDbEntity
  8
Dimension
370
              -2
390
0
  6
Continuous
 62
               0
100
AcDbLine
 10
30.515461796454993
 20
33.993317257600978
 30
0.0
 11
30.515461796454993
 21
48.400000000000006
 31
0.0
  0
SOLID
  5
2D6
100
AcDbEntity
  8
Dimension
370
              -2
390
0
 62
               0
100
AcDbTrace
 10
30.515461796454993
 20
33.993317257600978
 30
0.0
 11
29.664723110486179
 21
37.168317257600975
 31
0.0
 12
31.366200482423807
 22
37.168317257600975
 32
0.0
 13
31.366200482423807
 23
37.168317257600975
 33
0.0
  0
MTEXT
  5
2D7
100
AcDbEntity
  8
Dimension
390
0
 62
               0
100
AcDbMText
 10
24.736961419647674
 20
49.641888020833335
 30
0.0
 40
2.273763020833333
 41
0.0
 71
               1
 72
               1
  1
2.54mm
  7
Helvetica
 73
               1
 44
0.9673603504928806
  0
POINT
  5
2D8
100
AcDbEntity
  8
Defpoints
370
               0
390
0
 62
               0
100
AcDbPoint
 10
-1.9545429335970343
 20
33.993317257600978
 30
0.0
  0
POINT
  5
2D9
100
AcDbEntity
  8
Defpoints
370
               0
390
0
 62
               0
100
AcDbPoint
 10
-1.9545429335970343
 20
31.453317257600958
 30
0.0
  0
POINT
  5
2DA
100
AcDbEntity
  8
Defpoints
370
               0
390
0
 62
               0
100
AcDbPoint
 10
30.515461796454993
 20
31.453317257600958
 30
0.0
  0
ENDBLK
  5
2DB
100
AcDbEntity
  8
Dimension
390
0
100
AcDbBlockEnd
  0
BLOCK
  5
2DC
100
AcDbEntity
  8
Dimension
390
0
100
AcDbBlockBegin
  2
*D13
 70
               1
 10
0.0
 20
0.0
 30
0.0
  3
*D13
  1

  0
LINE
  5
2DD
100
AcDbEntity
  8
Dimension
370
              -2
390
0
  6
Continuous
 62
               0
100
AcDbLine
 10
-30.834542938328134
 20
7.0183172576007742
 30
0.0
 11
-58.603766398262799
 21
7.0183172576007742
 31
0.0
  0
LINE
  5
2DE
100
AcDbEntity
  8
Dimension
370
              -2
390
0
  6
Continuous
 62
               0
100
AcDbLine
 10
-29.584542938328145
 20
8.26831725760076
 30
0.0
 11
-58.603766398262799
 21
8.26831725760076
 31
0.0
  0
LINE
  5
2DF
100
AcDbEntity
  8
Dimension
370
              -2
390
0
  6
Continuous
 62
               0
100
AcDbLine
 10
-54.793766388800563
 20
8.26831725760076
 30
0.0
 11
-54.793766388800563
 21
7.0183172576007742
 31
0.0
  0
LINE
  5
2E0
100
AcDbEntity
  8
Dimension
370
              -2
390
0
  6
Continuous
 62
               0
100
AcDbLine
 10
-54.793766388800563
 20
7.0183172576007742
 30
0.0
 11
-54.793766388800563
 21
-9.0
 31
0.0
  0
SOLID
  5
2E1
100
AcDbEntity
  8
Dimension
370
              -2
390
0
 62
               0
100
AcDbTrace
 10
-54.793766388800563
 20
7.0183172576007742
 30
0.0
 11
-53.943027702831749
 21
3.8433172576007739
 31
0.0
 12
-55.644505074769377
 22
3.8433172576007744
 32
0.0
 13
-55.644505074769377
 23
3.8433172576007744
 33
0.0
  0
LINE
  5
2E2
100
AcDbEntity
  8
Dimension
370
              -2
390
0
  6
Continuous
 62
               0
100
AcDbLine
 10
-54.793766388800563
 20
8.26831725760076
 30
0.0
 11
-54.793766388800563
 21
15.26830325106803
 31
0.0
  0
SOLID
  5
2E3
100
AcDbEntity
  8
Dimension
370
              -2
390
0
 62
               0
100
AcDbTrace
 10
-54.793766388800563
 20
8.26831725760076
 30
0.0
 11
-55.644505074769377
 21
11.443317257600761
 31
0.0
 12
-53.943027702831749
 22
11.443317257600761
 32
0.0
 13
-53.943027702831749
 23
11.443317257600761
 33
0.0
  0
MTEXT
  5
2E4
100
AcDbEntity
  8
Dimension
390
0
 62
               0
100
AcDbMText
 10
-67.223892276989247
 20
-7.7581119791666673
 30
0.0
 40
2.273763020833333
 41
0.0
 71
               1
 72
               1
  1
1.25mm
  7
Helvetica
 73
               1
 44
0.9673603504928806
  0
MTEXT
  5
2E5
100
AcDbEntity
  8
Dimension
390
0
 62
               0
100
AcDbMText
 10
-55.666891523374609
 20
-7.7581119791666673
 30
0.0
 40
2.273763020833333
 41
0.0
 71
               1
 72
               1
  1
±0.13mm
  7
Helvetica
 73
               1
 44
0.9673603504928806
  0
POINT
  5
2E6
100
AcDbEntity
  8
Defpoints
370
               0
390
0
 62
               0
100
AcDbPoint
 10
-27.679542933597027
 20
8.26831725760076
 30
0.0
  0
POINT
  5
2E7
100
AcDbEntity
  8
Defpoints
370
               0
390
0
 62
               0
100
AcDbPoint
 10
-28.929542933597016
 20
7.0183172576007742
 30
0.0
  0
POINT
  5
2E8
100
AcDbEntity
  8
Defpoints
370
               0
390
0
 62
               0
100
AcDbPoint
 10
-54.793766388800563
 20
7.0183172576007742
 30
0.0
  0
ENDBLK
  5
2E9
100
AcDbEntity
  8
Dimension
390
0
100
AcDbBlockEnd
  0
BLOCK
  5
2EA
100
AcDbEntity
  8
Dimension
390
0
100
AcDbBlockBegin
  2
*D14
 70
               1
 10
0.0
 20
0.0
 30
0.0
  3
*D14
  1

  0
LINE
  5
2EB
100
AcDbEntity
  8
Dimension
370
              -2
390
0
  6
Continuous
 62
               0
100
AcDbLine
 10
-27.679542933597027
 20
6.3633172528696411
 30
0.0
 11
-27.679542933597027
 21
-30.810000009462232
 31
0.0
  0
LINE
  5
2EC
100
AcDbEntity
  8
Dimension
370
              -2
390
0
  6
Continuous
 62
               0
100
AcDbLine
 10
-1.9545429335970343
 20
6.3633172528696411
 30
0.0
 11
-1.9545429335970343
 21
-30.810000009462232
 31
0.0
  0
LINE
  5
2ED
100
AcDbEntity
  8
Dimension
370
              -2
390
0
  6
Continuous
 62
               0
100
AcDbLine
 10
-1.9545429335970343
 20
-26.999999999999996
 30
0.0
 11
-27.679542933597027
 21
-26.999999999999996
 31
0.0
  0
LINE
  5
2EE
100
AcDbEntity
  8
Dimension
370
              -2
390
0
  6
Continuous
 62
               0
100
AcDbLine
 10
-27.679542933597027
 20
-26.999999999999996
 30
0.0
 11
-34.679528927064297
 21
-26.999999999999996
 31
0.0
  0
SOLID
  5
2EF
100
AcDbEntity
  8
Dimension
370
              -2
390
0
 62
               0
100
AcDbTrace
 10
-27.679542933597027
 20
-26.999999999999996
 30
0.0
 11
-30.854542933597028
 21
-27.85073868596881
 31
0.0
 12
-30.854542933597028
 22
-26.149261314031182
 32
0.0
 13
-30.854542933597028
 23
-26.149261314031182
 33
0.0
  0
LINE
  5
2F0
100
AcDbEntity
  8
Dimension
370
              -2
390
0
  6
Continuous
 62
               0
100
AcDbLine
 10
-1.9545429335970343
 20
-26.999999999999996
 30
0.0
 11
5.0454430598702364
 21
-26.999999999999996
 31
0.0
  0
SOLID
  5
2F1
100
AcDbEntity
  8
Dimension
370
              -2
390
0
 62
               0
100
AcDbTrace
 10
-1.9545429335970343
 20
-26.999999999999996
 30
0.0
 11
1.2204570664029655
 21
-26.149261314031182
 31
0.0
 12
1.2204570664029655
 22
-27.85073868596881
 32
0.0
 13
1.2204570664029655
 23
-27.85073868596881
 33
0.0
  0
MTEXT
  5
2F2
100
AcDbEntity
  8
Dimension
390
0
 62
               0
100
AcDbMText
 10
-24.471125592125787
 20
-25.75811197916666
 30
0.0
 40
2.273763020833333
 41
0.0
 71
               1
 72
               1
  1
25.725mm(x4)
  7
Helvetica
 73
               1
 44
0.9673603504928806
  0
POINT
  5
2F3
100
AcDbEntity
  8
Defpoints
370
               0
390
0
 62
               0
100
AcDbPoint
 10
-1.9545429335970343
 20
8.26831725760076
 30
0.0
  0
POINT
  5
2F4
100
AcDbEntity
  8
Defpoints
370
               0
390
0
 62
               0
100
AcDbPoint
 10
-27.679542933597027
 20
8.26831725760076
 30
0.0
  0
POINT
  5
2F5
100
AcDbEntity
  8
Defpoints
370
               0
390
0
 62
               0
100
AcDbPoint
 10
-27.679542933597027
 20
-26.999999999999996
 30
0.0
  0
ENDBLK
  5
2F6
100
AcDbEntity
  8
Dimension
390
0
100
AcDbBlockEnd
  0
BLOCK
  5
2F7
100
AcDbEntity
  8
Dimension
390
0
100
AcDbBlockBegin
  2
*D15
 70
               1
 10
0.0
 20
0.0
 30
0.0
  3
*D15
  1

  0
LINE
  5
2F8
100
AcDbEntity
  8
Dimension
370
              -2
390
0
  6
Continuous
 62
               0
100
AcDbLine
 10
-1.6671089560312771
 20
31.14025702611108
 30
0.0
 11
5.3999999999999995
 21
23.443078061834697
 31
0.0
  0
SOLID
  5
2F9
100
AcDbEntity
  8
Dimension
370
              -2
390
0
 62
               0
100
AcDbTrace
 10
-1.6671089560312771
 20
31.14025702611108
 30
0.0
 11
0.1702501787530166
 21
29.947062052551352
 31
0.0
 12
-0.6725067562125471
 22
29.188240299948305
 32
0.0
 13
-0.6725067562125471
 23
29.188240299948305
 33
0.0
  0
LINE
  5
2FA
100
AcDbEntity
  8
Dimension
370
              -2
390
0
  6
Continuous
 62
               0
100
AcDbLine
 10
5.3999999999999995
 20
23.443078061834697
 30
0.0
 11
11.399988007917999
 21
23.443078061834697
 31
0.0
  0
MTEXT
  5
2FB
100
AcDbEntity
  8
Dimension
390
0
 62
               0
100
AcDbMText
 10
11.399988007917997
 20
24.684966082668033
 30
0.0
 40
2.273763020833333
 41
0.0
 71
               1
 72
               1
  1
Ø 0.850mm
  7
Helvetica
 73
               1
 44
0.9673603504928806
  0
MTEXT
  5
2FC
100
AcDbEntity
  8
Dimension
390
0
 62
               0
100
AcDbMText
 10
28.100488061747612
 20
24.684966082668033
 30
0.0
 40
2.273763020833333
 41
0.0
 71
               1
 72
               1
  1
±0.025mm
  7
Helvetica
 73
               1
 44
0.9673603504928806
  0
MTEXT
  5
2FD
100
AcDbEntity
  8
Dimension
390
0
 62
               0
100
AcDbMText
 10
43.181738061747609
 20
24.684966082668033
 30
0.0
 40
2.273763020833333
 41
0.0
 71
               1
 72
               1
  1
 (x2)
  7
Helvetica
 73
               1
 44
0.9673603504928806
  0
POINT
  5
2FE
100
AcDbEntity
  8
Defpoints
370
               0
390
0
 62
               0
100
AcDbPoint
 10
-2.2419769111634191
 20
31.766377489090978
 30
0.0
  0
POINT
  5
2FF
100
AcDbEntity
  8
Defpoints
370
               0
390
0
 62
               0
100
AcDbPoint
 10
-1.6671089560312771
 20
31.14025702611108
 30
0.0
  0
ENDBLK
  5
300
100
AcDbEntity
  8
Dimension
390
0
100
AcDbBlockEnd
  0
BLOCK
  5
301
100
AcDbEntity
  8
Dimension
390
0
100
AcDbBlockBegin
  2
*D16
 70
               1
 10
0.0
 20
0.0
 30
0.0
  3
*D16
  1

  0
LINE
  5
302
100
AcDbEntity
  8
Dimension
370
              -2
390
0
  6
Continuous
 62
               0
100
AcDbLine
 10
-30.17954293359702
 20
3.8633172528697619
 30
0.0
 11
-30.17954293359702
 21
-41.61000000946224
 31
0.0
  0
LINE
  5
303
100
AcDbEntity
  8
Dimension
370
              -2
390
0
  6
Continuous
 62
               0
100
AcDbLine
 10
0.5454570664027383
 20
3.8633172528697619
 30
0.0
 11
0.5454570664027383
 21
-41.610000009462233
 31
0.0
  0
LINE
  5
304
100
AcDbEntity
  8
Dimension
370
              -2
390
0
  6
Continuous
 62
               0
100
AcDbLine
 10
0.5454570664027383
 20
-37.799999999999997
 30
0.0
 11
-30.17954293359702
 21
-37.799999999999997
 31
0.0
  0
LINE
  5
305
100
AcDbEntity
  8
Dimension
370
              -2
390
0
  6
Continuous
 62
               0
100
AcDbLine
 10
-30.17954293359702
 20
-37.799999999999997
 30
0.0
 11
-37.17952892706429
 21
-37.799999999999997
 31
0.0
  0
SOLID
  5
306
100
AcDbEntity
  8
Dimension
370
              -2
390
0
 62
               0
100
AcDbTrace
 10
-30.17954293359702
 20
-37.799999999999997
 30
0.0
 11
-33.354542933597017
 21
-38.650738685968811
 31
0.0
 12
-33.354542933597017
 22
-36.949261314031183
 32
0.0
 13
-33.354542933597017
 23
-36.949261314031183
 33
0.0
  0
LINE
  5
307
100
AcDbEntity
  8
Dimension
370
              -2
390
0
  6
Continuous
 62
               0
100
AcDbLine
 10
0.5454570664027383
 20
-37.799999999999997
 30
0.0
 11
15.4
 21
-37.799999999999997
 31
0.0
  0
SOLID
  5
308
100
AcDbEntity
  8
Dimension
370
              -2
390
0
 62
               0
100
AcDbTrace
 10
0.5454570664027383
 20
-37.799999999999997
 30
0.0
 11
3.7204570664027381
 21
-36.949261314031183
 31
0.0
 12
3.7204570664027381
 22
-38.650738685968811
 32
0.0
 13
3.7204570664027381
 23
-38.650738685968811
 33
0.0
  0
MTEXT
  5
309
100
AcDbEntity
  8
Dimension
390
0
 62
               0
100
AcDbMText
 10
15.400000000000002
 20
-36.558111979166668
 30
0.0
 40
2.273763020833333
 41
0.0
 71
               1
 72
               1
  1
30.725mm sq. backing plate
  7
Helvetica
 73
               1
 44
0.9673603504928806
  0
POINT
  5
30A
100
AcDbEntity
  8
Defpoints
370
               0
390
0
 62
               0
100
AcDbPoint
 10
0.5454570664027383
 20
5.7683172576008808
 30
0.0
  0
POINT
  5
30B
100
AcDbEntity
  8
Defpoints
370
               0
390
0
 62
               0
100
AcDbPoint
 10
-30.17954293359702
 20
5.7683172576008808
 30
0.0
  0
POINT
  5
30C
100
AcDbEntity
  8
Defpoints
370
               0
390
0
 62
               0
100
AcDbPoint
 10
-30.17954293359702
 20
-37.799999999999997
 30
0.0
  0
ENDBLK
  5
30D
100
AcDbEntity
  8
Dimension
390
0
100
AcDbBlockEnd
  0
BLOCK
  5
30E
100
AcDbEntity
  8
Dimension
390
0
100
AcDbBlockBegin
  2
*D17
 70
               1
 10
0.0
 20
0.0
 30
0.0
  3
*D17
  1

  0
LINE
  5
30F
100
AcDbEntity
  8
Dimension
370
              -2
390
0
  6
Continuous
 62
               0
100
AcDbLine
 10
-1.2028370546842773
 20
7.871532339026448
 30
0.0
 11
3.996407998611387
 21
5.1271317922279724
 31
0.0
  0
SOLID
  5
310
100
AcDbEntity
  8
Dimension
370
              -2
390
0
 62
               0
100
AcDbTrace
 10
-1.2028370546842773
 20
7.871532339026448
 30
0.0
 11
0.9318124818784703
 21
7.3787096618331844
 31
0.0
 12
0.39941233355911
 22
6.3774106127346508
 32
0.0
 13
0.39941233355911
 23
6.3774106127346508
 33
0.0
  0
LINE
  5
311
100
AcDbEntity
  8
Dimension
370
              -2
390
0
  6
Continuous
 62
               0
100
AcDbLine
 10
3.996407998611387
 20
5.1271317922279724
 30
0.0
 11
9.9963960065293875
 21
5.1271317922279724
 31
0.0
  0
MTEXT
  5
312
100
AcDbEntity
  8
Dimension
390
0
 62
               0
100
AcDbMText
 10
9.9963960065293875
 20
6.3690198130613069
 30
0.0
 40
2.273763020833333
 41
0.0
 71
               1
 72
               1
  1
Ø 1.70mm
  7
Helvetica
 73
               1
 44
0.9673603504928806
  0
MTEXT
  5
313
100
AcDbEntity
  8
Dimension
390
0
 62
               0
100
AcDbMText
 10
24.918897083121724
 20
6.3690198130613069
 30
0.0
 40
2.273763020833333
 41
0.0
 71
               1
 72
               1
  1
±0.10mm
  7
Helvetica
 73
               1
 44
0.9673603504928806
  0
MTEXT
  5
314
100
AcDbEntity
  8
Dimension
390
0
 62
               0
100
AcDbMText
 10
38.222148105884443
 20
6.3690198130613069
 30
0.0
 40
2.273763020833333
 41
0.0
 71
               1
 72
               1
  1
 (x4)
  7
Helvetica
 73
               1
 44
0.9673603504928806
  0
POINT
  5
315
100
AcDbEntity
  8
Defpoints
370
               0
390
0
 62
               0
100
AcDbPoint
 10
-2.7062488125097914
 20
8.6651021761750684
 30
0.0
  0
POINT
  5
316
100
AcDbEntity
  8
Defpoints
370
               0
390
0
 62
               0
100
AcDbPoint
 10
-1.2028370546842773
 20
7.871532339026448
 30
0.0
  0
ENDBLK
  5
317
100
AcDbEntity
  8
Dimension
390
0
100
AcDbBlockEnd
  0
ENDSEC
  0
SECTION
  2
ENTITIES
  0
DIMENSION
  5
318
100
AcDbEntity
  8
Dimension
370
               5
390
0
  6
Continuous
 62
               1
100
AcDbDimension
  2
*D2
 10
-68.817374851968552
 20
35.243317257600978
 30
0.0
 11
-68.817374851968552
 21
22.200000000000003
 31
0.0
 70
             128
 71
               5
 72
               1
 41
1.0
 42
0.0
  3
IE Standard
100
AcDbAlignedDimension
 13
-28.929542933597016
 23
7.0183172576007742
 33
0.0
 14
-28.929542933597016
 24
35.243317257600978
 34
0.0
 50
90.0
100
AcDbRotatedDimension
1001
ACAD
1000
DSTYLE
1002
{
1070
             271
1070
               3
1070
             340
1005
33
1070
              71
1070
               1
1070
              47
1040
0.125
1070
              48
1040
0.125
1070
               3
1000
<>mm sqr.
1070
             147
1040
0.396875
1002
}
  0
DIMENSION
  5
319
100
AcDbEntity
  8
Dimension
370
               5
390
0
  6
Continuous
 62
               1
100
AcDbDimension
  2
*D3
 10
-4.1981004883599287
 20
18.852652119406393
 30
0.0
 11
7.5463960065294371
 21
14.27713179222804
 31
0.0
 70
               3
 71
               5
 72
               1
 41
1.0
 42
0.0
  3
IE Standard
100
AcDbDiametricDimension
 15
-3.8617539676652228
 25
18.584750984626154
 35
0.0
 40
6.9140291408264991
1001
ACAD
1000
DSTYLE
1002
{
1070
             271
1070
               4
1070
             172
1070
               0
1070
             289
1070
               0
1070
             342
1005
49
1070
             340
1005
33
1070
              75
1070
               1
1070
              76
1070
               1
1070
               3
1000
mm pad (x 521)
1070
             174
1070
               0
1070
             147
1040
0.396875
1002
}
  0
MTEXT
  5
31A
100
AcDbEntity
  8
None
390
0
 62
               1
100
AcDbMText
 10
-76.594893496751254
 20
20.494452700788649
 30
0.0
 40
2.273763020833333
 41
0.0
 71
               1
 72
               1
  1
{\C192;\lSocket size}
  7
New Century Schlbk
 73
               1
 44
0.9673603504928806
  0
DIMENSION
  5
31B
100
AcDbEntity
  8
Dimension
370
               5
390
0
  6
Continuous
 62
               1
100
AcDbDimension
  2
*D4
 10
-28.929542933597016
 20
-6.3292372627189533
 30
0.0
 11
-20.951533745173563
 21
-6.3292372627189533
 31
0.0
 70
             128
 71
               5
 72
               1
 41
1.0
 42
0.0
  3
IE Standard
100
AcDbAlignedDimension
 13
-27.679542933597027
 23
8.26831725760076
 33
0.0
 14
-28.929542933597016
 24
7.0183172576007742
 34
0.0
100
AcDbRotatedDimension
1001
ACAD
1000
DSTYLE
1002
{
1070
             271
1070
               2
1070
             340
1005
33
1070
              71
1070
               1
1070
              47
1040
0.13
1070
              48
1040
0.13
1070
             174
1070
               0
1070
             147
1040
0.396875
1002
}
  0
INSERT
  5
31C
100
AcDbEntity
  8
None
390
0
 62
               7
100
AcDbBlockReference
  2
Group-2
 10
0.0
 20
0.0
 30
0.0
  0
CIRCLE
  5
31D
100
AcDbEntity
  8
None
370
               5
390
0
  6
Continuous
 62
               7
100
AcDbCircle
 10
-25.957652933597053
 20
33.943317257600967
 30
0.0
 40
0.2124400000000151
  0
MTEXT
  5
31E
100
AcDbEntity
  8
None
390
0
 62
               1
100
AcDbMText
 10
-12.52855090899312
 20
55.006397401465634
 30
0.0
 40
2.273763020833333
 41
0.0
 71
               1
 72
               1
  1
{\C192;\lOrientation Mark}
  7
New Century Schlbk
 73
               1
 44
0.9673603504928806
  0
MTEXT
  5
31F
100
AcDbEntity
  8
None
390
0
 62
               1
100
AcDbMText
 10
11.517333795323953
 20
21.842442439275622
 30
0.0
 40
2.273763020833333
 41
0.0
 71
               1
 72
               1
  1
{\C192;\lNon Plated Alignment Hole}
  7
Arial
 73
               1
 44
0.9673603504928806
  0
DIMENSION
  5
320
100
AcDbEntity
  8
Dimension
370
               5
390
0
  6
Continuous
 62
               1
100
AcDbDimension
  2
*D8
 10
-27.679542933597027
 20
51.789999990537758
 30
0.0
 11
-40.200000000000003
 21
51.789999990537758
 31
0.0
 70
             128
 71
               5
 72
               1
 41
1.0
 42
0.0
  3
IE Standard
100
AcDbAlignedDimension
 13
-25.217042933597025
 23
31.530817257600944
 33
0.0
 14
-27.679542933597027
 24
33.993317257600978
 34
0.0
100
AcDbRotatedDimension
1001
ACAD
1000
DSTYLE
1002
{
1070
             271
1070
               4
1070
             340
1005
33
1070
             174
1070
               0
1070
             147
1040
0.396875
1002
}
  0
DIMENSION
  5
321
100
AcDbEntity
  8
Dimension
370
               5
390
0
  6
Continuous
 62
               1
100
AcDbDimension
  2
*D9
 10
-41.800000000000004
 20
31.530817257600944
 30
0.0
 11
-41.800000000000004
 21
43.400000000000006
 31
0.0
 70
             128
 71
               5
 72
               1
 41
1.0
 42
0.0
  3
IE Standard
100
AcDbAlignedDimension
 13
-27.679542933597027
 23
33.993317257600978
 33
0.0
 14
-25.217042933597025
 24
31.530817257600944
 34
0.0
 50
90.0
100
AcDbRotatedDimension
1001
ACAD
1000
DSTYLE
1002
{
1070
             271
1070
               4
1070
             340
1005
33
1070
             174
1070
               0
1070
             147
1040
0.396875
1002
}
  0
DIMENSION
  5
322
100
AcDbEntity
  8
Dimension
370
               5
390
0
  6
Continuous
 62
               1
100
AcDbDimension
  2
*D10
 10
-10.017042933597001
 20
44.989603257600962
 30
0.0
 11
1.4000000000000004
 21
44.989603257600962
 31
0.0
 70
             128
 71
               5
 72
               1
 41
1.0
 42
0.0
  3
IE Standard
100
AcDbAlignedDimension
 13
-9.2170429335970177
 23
31.530817257600944
 33
0.0
 14
-10.017042933597001
 24
31.530817257600944
 34
0.0
100
AcDbRotatedDimension
1001
ACAD
1000
DSTYLE
1002
{
1070
             271
1070
               2
1070
             340
1005
33
1070
               3
1000
<>mm typ.
1070
             174
1070
               0
1070
             147
1040
0.396875
1002
}
  0
DIMENSION
  5
323
100
AcDbEntity
  8
Dimension
370
               5
390
0
  6
Continuous
 62
               1
100
AcDbDimension
  2
*D11
 10
-43.984538203545
 20
8.26831725760076
 30
0.0
 11
-43.984538203545
 21
10.601643588761185
 31
0.0
 70
             128
 71
               5
 72
               1
 41
1.0
 42
0.0
  3
IE Standard
100
AcDbAlignedDimension
 13
-27.679542933597027
 23
13.348317257600726
 33
0.0
 14
-27.679542933597027
 24
8.26831725760076
 34
0.0
 50
90.0
100
AcDbRotatedDimension
1001
ACAD
1000
DSTYLE
1002
{
1070
             271
1070
               2
1070
             340
1005
33
1070
             147
1040
0.396875
1002
}
  0
DIMENSION
  5
324
100
AcDbEntity
  8
Dimension
370
               5
390
0
  6
Continuous
 62
               1
100
AcDbDimension
  2
*D12
 10
30.515461796454993
 20
31.453317257600958
 30
0.0
 11
30.515461796454993
 21
48.400000000000006
 31
0.0
 70
             128
 71
               5
 72
               1
 41
1.0
 42
0.0
  3
IE Standard
100
AcDbAlignedDimension
 13
-1.9545429335970343
 23
33.993317257600978
 33
0.0
 14
-1.9545429335970343
 24
31.453317257600958
 34
0.0
 50
90.0
100
AcDbRotatedDimension
1001
ACAD
1000
DSTYLE
1002
{
1070
             271
1070
               2
1070
             340
1005
33
1070
             174
1070
               0
1070
             147
1040
0.396875
1002
}
  0
DIMENSION
  5
325
100
AcDbEntity
  8
Dimension
370
               5
390
0
  6
Continuous
 62
               1
100
AcDbDimension
  2
*D13
 10
-54.793766388800563
 20
7.0183172576007742
 30
0.0
 11
-54.793766388800563
 21
-9.0
 31
0.0
 70
             128
 71
               5
 72
               1
 41
1.0
 42
0.0
  3
IE Standard
100
AcDbAlignedDimension
 13
-27.679542933597027
 23
8.26831725760076
 33
0.0
 14
-28.929542933597016
 24
7.0183172576007742
 34
0.0
 50
90.0
100
AcDbRotatedDimension
1001
ACAD
1000
DSTYLE
1002
{
1070
             271
1070
               2
1070
             340
1005
33
1070
              71
1070
               1
1070
              47
1040
0.13
1070
              48
1040
0.13
1070
             174
1070
               0
1070
             147
1040
0.396875
1002
}
  0
LINE
  5
326
100
AcDbEntity
  8
None
370
               5
390
0
  6
Continuous
 62
               1
100
AcDbLine
 10
-11.0
 20
51.800000000000004
 30
0.0
 11
-25.825862933597044
 21
34.155757257600982
 31
0.0
  0
SOLID
  5
327
100
AcDbEntity
  8
None
370
               5
390
0
 62
               1
100
AcDbTrace
 10
-25.825862933597044
 20
34.155757257600982
 30
0.0
 11
-24.903472792382814
 21
36.046937307567383
 31
0.0
 12
-24.081459614122004
 22
35.332372153395099
 32
0.0
 13
-24.081459614122004
 23
35.332372153395099
 33
0.0
  0
MTEXT
  5
328
100
AcDbEntity
  8
None
390
0
 62
               1
100
AcDbMText
 10
6.1041758680674043
 20
3.749837812490497
 30
0.0
 40
2.273763020833333
 41
0.0
 71
               1
 72
               1
  1
{\C192;\lNon Plated Mounting Hole}
  7
Arial
 73
               1
 44
0.9673603504928806
  0
DIMENSION
  5
329
100
AcDbEntity
  8
Dimension
370
               5
390
0
  6
Continuous
 62
               1
100
AcDbDimension
  2
*D14
 10
-27.679542933597027
 20
-26.999999999999996
 30
0.0
 11
-14.200000000000001
 21
-26.999999999999996
 31
0.0
 70
             128
 71
               5
 72
               1
 41
1.0
 42
0.0
  3
IE Standard
100
AcDbAlignedDimension
 13
-1.9545429335970343
 23
8.26831725760076
 33
0.0
 14
-27.679542933597027
 24
8.26831725760076
 34
0.0
100
AcDbRotatedDimension
1001
ACAD
1000
DSTYLE
1002
{
1070
             271
1070
               3
1070
             340
1005
33
1070
               3
1000
<>mm(x4)
1070
             147
1040
0.396875
1002
}
  0
DIMENSION
  5
32A
100
AcDbEntity
  8
Dimension
370
               5
390
0
  6
Continuous
 62
               1
100
AcDbDimension
  2
*D15
 10
-2.2419769111634191
 20
31.766377489090978
 30
0.0
 11
11.399988007918012
 21
23.443078061834711
 31
0.0
 70
               3
 71
               5
 72
               1
 41
1.0
 42
0.0
  3
IE Standard
100
AcDbDiametricDimension
 15
-1.6671089560312771
 25
31.14025702611108
 35
0.0
 40
10.449430271766797
1001
ACAD
1000
DSTYLE
1002
{
1070
             271
1070
               3
1070
             172
1070
               0
1070
             289
1070
               0
1070
             342
1005
49
1070
             340
1005
33
1070
              75
1070
               1
1070
              76
1070
               1
1070
              71
1070
               1
1070
              47
1040
0.025
1070
              48
1040
0.025
1070
               3
1000
mm (x2)
1070
             174
1070
               0
1070
             147
1040
0.396875
1002
}
  0
POLYLINE
  5
32B
100
AcDbEntity
  8
None
370
               9
390
0
  6
STYLE_11
 62
               7
100
AcDb2dPolyline
 66
               1
 10
0.0
 20
0.0
 30
0.0
 70
               1
 75
               5
  0
VERTEX
  5
32C
100
AcDbEntity
  8
None
370
               9
390
0
  6
STYLE_11
 62
               7
100
AcDbVertex
100
AcDb2dVertex
 10
-30.17954293359702
 20
36.493317257600978
 30
0.0
  0
VERTEX
  5
32D
100
AcDbEntity
  8
None
370
               9
390
0
  6
STYLE_11
 62
               7
100
AcDbVertex
100
AcDb2dVertex
 10
0.5454570664027383
 20
36.493317257600978
 30
0.0
  0
VERTEX
  5
32E
100
AcDbEntity
  8
None
370
               9
390
0
  6
STYLE_11
 62
               7
100
AcDbVertex
100
AcDb2dVertex
 10
0.5454570664027383
 20
5.7683172576008808
 30
0.0
  0
VERTEX
  5
32F
100
AcDbEntity
  8
None
370
               9
390
0
  6
STYLE_11
 62
               7
100
AcDbVertex
100
AcDb2dVertex
 10
-30.17954293359702
 20
5.7683172576008808
 30
0.0
  0
SEQEND
  5
330
100
AcDbEntity
  8
None
370
               9
390
0
  6
STYLE_11
 62
               7
  0
DIMENSION
  5
331
100
AcDbEntity
  8
Dimension
370
               5
390
0
  6
Continuous
 62
               1
100
AcDbDimension
  2
*D16
 10
-30.17954293359702
 20
-37.799999999999997
 30
0.0
 11
15.400000000000006
 21
-37.799999999999997
 31
0.0
 70
             128
 71
               5
 72
               1
 41
1.0
 42
0.0
  3
IE Standard
100
AcDbAlignedDimension
 13
0.5454570664027383
 23
5.7683172576008808
 33
0.0
 14
-30.17954293359702
 24
5.7683172576008808
 34
0.0
100
AcDbRotatedDimension
1001
ACAD
1000
DSTYLE
1002
{
1070
             271
1070
               3
1070
             340
1005
33
1070
               3
1000
<>mm sq. backing plate
1070
             174
1070
               0
1070
             147
1040
0.396875
1002
}
  0
CIRCLE
  5
332
100
AcDbEntity
  8
None
370
               5
390
0
  6
Continuous
 62
               1
100
AcDbCircle
 10
-1.9545429335970343
 20
8.26831725760076
 30
0.0
 40
0.8499999999999992
  0
DIMENSION
  5
333
100
AcDbEntity
  8
Dimension
370
               5
390
0
  6
Continuous
 62
               1
100
AcDbDimension
  2
*D17
 10
-2.7062488125097914
 20
8.6651021761750684
 30
0.0
 11
9.996396006529384
 21
5.1271317922279662
 31
0.0
 70
               3
 71
               5
 72
               1
 41
1.0
 42
0.0
  3
IE Standard
100
AcDbDiametricDimension
 15
-1.2028370546842773
 25
7.871532339026448
 35
0.0
 40
5.8791056705494933
1001
ACAD
1000
DSTYLE
1002
{
1070
             271
1070
               2
1070
             172
1070
               0
1070
             289
1070
               0
1070
             342
1005
49
1070
             340
1005
33
1070
              75
1070
               1
1070
              76
1070
               1
1070
              71
1070
               1
1070
              47
1040
0.1
1070
              48
1040
0.1
1070
               3
1000
mm (x4)
1070
             174
1070
               0
1070
             147
1040
0.396875
1002
}
  0
ENDSEC
  0
SECTION
  2
OBJECTS
  0
DICTIONARY
  5
19
100
AcDbDictionary
280
               0
281
               1
  3
ACAD_GROUP
350
1A
  3
ACAD_MLINESTYLE
350
1B
  3
ACAD_LAYOUT
350
1E
  3
ACAD_PLOTSETTINGS
350
22
  3
ACAD_PLOTSTYLENAME
350
1F
  0
DICTIONARY
  5
1A
102
{ACAD_REACTORS
330
19
102
}
100
AcDbDictionary
280
               0
281
               1
  0
DICTIONARY
  5
1B
102
{ACAD_REACTORS
330
19
102
}
100
AcDbDictionary
280
               0
281
               1
  3
Standard
350
1C
  0
MLINESTYLE
  5
1C
102
{ACAD_REACTORS
330
1B
102
}
100
AcDbMlineStyle
  2
Standard
 70
               0
  3

 62
               0
 51
90.0
 52
90.0
 71
               2
 49
0.5
 62
             256
  6
ByLayer
 49
-0.5
 62
             256
  6
ByLayer
  0
ACDBDICTIONARYWDFLT
  5
1F
102
{ACAD_REACTORS
330
19
102
}
100
AcDbDictionary
281
               1
  3
Normal
350
1D
100
AcDbDictionaryWithDefault
340
1D
  0
ACDBPLACEHOLDER
  5
1D
102
{ACAD_REACTORS
330
1F
102
}
  0
LAYOUT
  5
20
102
{ACAD_REACTORS
330
1E
102
}
100
AcDbPlotSettings
  1

  2

  4

  6

 40
0.0
 41
0.0
 42
0.0
 43
0.0
 44
0.0
 45
0.0
 46
0.0
 47
0.0
 48
0.0
 49
0.0
140
0.0
141
0.0
142
1.0
143
1.0
 70
            1024
 72
               0
 73
               0
 74
               0
  7

 75
               0
147
1.0
148
0.0
149
0.0
100
AcDbLayout
  1
Model
 70
               0
 71
               0
 10
0.0
 20
0.0
 11
0.0
 21
0.0
 12
0.0
 22
0.0
 32
0.0
 14
0.0
 24
0.0
 34
0.0
 15
0.0
 25
0.0
 35
0.0
146
0.0
 13
0.0
 23
0.0
 33
0.0
 16
0.0
 26
0.0
 36
0.0
 17
0.0
 27
0.0
 37
0.0
 76
               0
330
A
331
0
345
0
346
0
  0
LAYOUT
  5
21
102
{ACAD_REACTORS
330
1E
102
}
100
AcDbPlotSettings
  1

  2

  4

  6

 40
0.0
 41
0.0
 42
0.0
 43
0.0
 44
0.0
 45
0.0
 46
0.0
 47
0.0
 48
0.0
 49
0.0
140
0.0
141
0.0
142
1.0
143
1.0
 70
               0
 72
               0
 73
               0
 74
               0
  7

 75
               0
147
1.0
148
0.0
149
0.0
100
AcDbLayout
  1
Layout1
 70
               0
 71
               0
 10
0.0
 20
0.0
 11
0.0
 21
0.0
 12
0.0
 22
0.0
 32
0.0
 14
0.0
 24
0.0
 34
0.0
 15
0.0
 25
0.0
 35
0.0
146
0.0
 13
0.0
 23
0.0
 33
0.0
 16
0.0
 26
0.0
 36
0.0
 17
0.0
 27
0.0
 37
0.0
 76
               0
330
B
331
0
345
0
346
0
  0
DICTIONARY
  5
1E
102
{ACAD_REACTORS
330
19
102
}
100
AcDbDictionary
280
               0
281
               1
  3
Layout1
350
21
  3
Model
350
20
  0
DICTIONARY
  5
22
102
{ACAD_REACTORS
330
19
102
}
100
AcDbDictionary
280
               0
281
               1
  0
ENDSEC
  0
EOF
