  0
SECTION
  2
HEADER
  9
$ACADVER
  1
AC1015
  9
$ACADMAINTVER
 70
               6
  9
$DWGCODEPAGE
  3
ANSI_1252
  9
$INSBASE
 10
0.0
 20
0.0
 30
0.0
  9
$EXTMIN
 10
-82.129004939441671
 20
-24.910000009462237
 30
0.0
  9
$EXTMAX
 10
67.600000000000009
 20
41.437619990537755
 30
0.0
  9
$LIMMIN
 10
0.0
 20
0.0
  9
$LIMMAX
 10
0.0
 20
0.0
  9
$ORTHOMODE
 70
               0
  9
$REGENMODE
 70
               1
  9
$FILLMODE
 70
               1
  9
$QTEXTMODE
 70
               0
  9
$MIRRTEXT
 70
               1
  9
$LTSCALE
 40
5.0800000000000001
  9
$ATTMODE
 70
               1
  9
$TEXTSIZE
 40
0.2
  9
$TRACEWID
 40
1.0
  9
$TEXTSTYLE
  7
Standard
  9
$CLAYER
  8
None
  9
$CELTYPE
  6
Continuous
  9
$CECOLOR
 62
             256
  9
$CELTSCALE
 40
1.0
  9
$DISPSILH
 70
               0
  9
$DIMSCALE
 40
1.0
  9
$DIMASZ
 40
3.1749999999999998
  9
$DIMEXO
 40
1.5874999999999999
  9
$DIMDLI
 40
10.16
  9
$DIMRND
 40
0.0
  9
$DIMDLE
 40
0.0
  9
$DIMEXE
 40
3.1749999999999998
  9
$DIMTP
 40
0.0
  9
$DIMTM
 40
0.0
  9
$DIMTXT
 40
1.5158420138888884
  9
$DIMCEN
 40
0.0
  9
$DIMTSZ
 40
0.0
  9
$DIMTOL
 70
               0
  9
$DIMLIM
 70
               0
  9
$DIMTIH
 70
               1
  9
$DIMTOH
 70
               1
  9
$DIMSE1
 70
               0
  9
$DIMSE2
 70
               0
  9
$DIMTAD
 70
               0
  9
$DIMZIN
 70
               3
  9
$DIMBLK
  1
VW_FILLEDARROW
  9
$DIMASO
 70
               1
  9
$DIMSHO
 70
               1
  9
$DIMPOST
  1
<>mm
  9
$DIMAPOST
  1
[]
  9
$DIMALT
 70
               0
  9
$DIMALTD
 70
               1
  9
$DIMALTF
 40
1.0
  9
$DIMLFAC
 40
1.0
  9
$DIMTOFL
 70
               0
  9
$DIMTVP
 40
0.0
  9
$DIMTIX
 70
               1
  9
$DIMSOXD
 70
               0
  9
$DIMSAH
 70
               0
  9
$DIMBLK1
  1

  9
$DIMBLK2
  1

  9
$DIMSTYLE
  2
ASME
  9
$DIMCLRD
 70
               0
  9
$DIMCLRE
 70
               0
  9
$DIMCLRT
 70
               0
  9
$DIMTFAC
 40
1.0
  9
$DIMGAP
 40
0.0
  9
$DIMJUST
 70
               0
  9
$DIMSD1
 70
               0
  9
$DIMSD2
 70
               0
  9
$DIMTOLJ
 70
               1
  9
$DIMTZIN
 70
               3
  9
$DIMALTZ
 70
              11
  9
$DIMALTTZ
 70
              11
  9
$DIMUPT
 70
               0
  9
$DIMDEC
 70
               1
  9
$DIMTDEC
 70
               1
  9
$DIMALTU
 70
               2
  9
$DIMALTTD
 70
               2
  9
$DIMTXSTY
  7
New Century Schlbk
  9
$DIMAUNIT
 70
               0
  9
$DIMADEC
 70
               2
  9
$DIMALTRND
 40
0.0
  9
$DIMAZIN
 70
               0
  9
$DIMDSEP
 70
              46
  9
$DIMATFIT
 70
               0
  9
$DIMFRAC
 70
               2
  9
$DIMLDRBLK
  1

  9
$DIMLUNIT
 70
               2
  9
$DIMLWD
 70
              -2
  9
$DIMLWE
 70
              -2
  9
$DIMTMOVE
 70
               0
  9
$LUNITS
 70
               2
  9
$LUPREC
 70
               4
  9
$SKETCHINC
 40
0.1
  9
$FILLETRAD
 40
0.0
  9
$AUNITS
 70
               0
  9
$AUPREC
 70
               0
  9
$MENU
  1
acad
  9
$ELEVATION
 40
0.0
  9
$PELEVATION
 40
0.0
  9
$THICKNESS
 40
0.0
  9
$LIMCHECK
 70
               0
  9
$CHAMFERA
 40
0.0
  9
$CHAMFERB
 40
0.0
  9
$CHAMFERC
 40
0.0
  9
$CHAMFERD
 40
0.0
  9
$SKPOLY
 70
               0
  9
$TDCREATE
 40
2455845.669375000
  9
$TDUCREATE
 40
0.000000000
  9
$TDUPDATE
 40
2455845.669375000
  9
$TDUUPDATE
 40
0.000000000
  9
$TDINDWG
 40
0.0000000000
  9
$TDUSRTIMER
 40
0.0000000000
  9
$USRTIMER
 70
               1
  9
$ANGBASE
 50
0.0
  9
$ANGDIR
 70
               0
  9
$PDMODE
 70
               1
  9
$PDSIZE
 40
-2.0
  9
$PLINEWID
 40
0.0
  9
$SPLFRAME
 70
               0
  9
$SPLINETYPE
 70
               6
  9
$SPLINESEGS
 70
               8
  9
$HANDSEED
  5
287
  9
$SURFTAB1
 70
               6
  9
$SURFTAB2
 70
               6
  9
$SURFTYPE
 70
               6
  9
$SURFU
 70
               6
  9
$SURFV
 70
               6
  9
$UCSBASE
  2

  9
$UCSNAME
  2

  9
$UCSORG
 10
0.0
 20
0.0
 30
0.0
  9
$UCSXDIR
 10
1.0
 20
0.0
 30
0.0
  9
$UCSYDIR
 10
0.0
 20
1.0
 30
0.0
  9
$UCSORTHOREF
  2

  9
$UCSORTHOVIEW
 70
               0
  9
$UCSORGTOP
 10
0.0
 20
0.0
 30
0.0
  9
$UCSORGBOTTOM
 10
0.0
 20
0.0
 30
0.0
  9
$UCSORGLEFT
 10
0.0
 20
0.0
 30
0.0
  9
$UCSORGRIGHT
 10
0.0
 20
0.0
 30
0.0
  9
$UCSORGFRONT
 10
0.0
 20
0.0
 30
0.0
  9
$UCSORGBACK
 10
0.0
 20
0.0
 30
0.0
  9
$PUCSBASE
  2

  9
$PUCSNAME
  2

  9
$PUCSORG
 10
0.0
 20
0.0
 30
0.0
  9
$PUCSXDIR
 10
1.0
 20
0.0
 30
0.0
  9
$PUCSYDIR
 10
0.0
 20
1.0
 30
0.0
  9
$PUCSORTHOREF
  2

  9
$PUCSORTHOVIEW
 70
               0
  9
$PUCSORGTOP
 10
0.0
 20
0.0
 30
0.0
  9
$PUCSORGBOTTOM
 10
0.0
 20
0.0
 30
0.0
  9
$PUCSORGLEFT
 10
0.0
 20
0.0
 30
0.0
  9
$PUCSORGRIGHT
 10
0.0
 20
0.0
 30
0.0
  9
$PUCSORGFRONT
 10
0.0
 20
0.0
 30
0.0
  9
$PUCSORGBACK
 10
0.0
 20
0.0
 30
0.0
  9
$USERI1
 70
               0
  9
$USERI2
 70
               0
  9
$USERI3
 70
               0
  9
$USERI4
 70
               0
  9
$USERI5
 70
               0
  9
$USERR1
 40
0.0
  9
$USERR2
 40
0.0
  9
$USERR3
 40
0.0
  9
$USERR4
 40
0.0
  9
$USERR5
 40
0.0
  9
$WORLDVIEW
 70
               1
  9
$SHADEDGE
 70
               3
  9
$SHADEDIF
 70
              70
  9
$TILEMODE
 70
               1
  9
$MAXACTVP
 70
              64
  9
$PINSBASE
 10
0.0
 20
0.0
 30
0.0
  9
$PLIMCHECK
 70
               0
  9
$PEXTMIN
 10
1.0000000000000000E+20
 20
1.0000000000000000E+20
 30
1.0000000000000000E+20
  9
$PEXTMAX
 10
-1.0000000000000000E+20
 20
-1.0000000000000000E+20
 30
-1.0000000000000000E+20
  9
$PLIMMIN
 10
0.0
 20
0.0
  9
$PLIMMAX
 10
12.0
 20
9.0
  9
$UNITMODE
 70
               0
  9
$VISRETAIN
 70
               0
  9
$PLINEGEN
 70
               1
  9
$PSLTSCALE
 70
               0
  9
$TREEDEPTH
 70
            3020
  9
$CMLSTYLE
  2
Standard
  9
$CMLJUST
 70
               0
  9
$CMLSCALE
 40
1.0
  9
$PROXYGRAPHICS
 70
               0
  9
$MEASUREMENT
 70
               1
  9
$CELWEIGHT
370
               0
  9
$ENDCAPS
280
               0
  9
$JOINSTYLE
280
               0
  9
$LWDISPLAY
290
               1
  9
$INSUNITS
 70
               4
  9
$HYPERLINKBASE
  1

  9
$STYLESHEET
  1

  9
$XEDIT
290
               1
  9
$CEPSNTYPE
380
               0
  9
$PSTYLEMODE
290
               1
  9
$FINGERPRINTGUID
  2

  9
$VERSIONGUID
  2

  9
$EXTNAMES
290
               1
  9
$PSVPSCALE
 40
0.0
  0
ENDSEC
  0
SECTION
  2
CLASSES
  0
CLASS
  1
LWPOLYLINE
  2
AcDbPolyline
  3
AutoCAD 2000
 90
        0
280
               0
281
               1
  0
CLASS
  1
IMAGE
  2
AcDbRasterImage
  3
ISM
 90
      127
280
               0
281
               1
  0
CLASS
  1
OLE2FRAME
  2
AcDbOle2Frame
  3
AutoCAD 2000
 90
        0
280
               0
281
               1
  0
CLASS
  1
HATCH
  2
AcDbHatch
  3
AutoCAD 2000
 90
        0
280
               0
281
               1
  0
CLASS
  1
DICTIONARYVAR
  2
AcDbDictionaryVar
  3
AutoCAD 2000
 90
        0
280
               0
281
               0
  0
CLASS
  1
RASTERVARIABLES
  2
AcDbRasterVariables
  3
ISM
 90
        0
280
               0
281
               0
  0
CLASS
  1
IMAGEDEF
  2
AcDbRasterImageDef
  3
ISM
 90
        0
280
               0
281
               0
  0
CLASS
  1
IMAGEDEF_REACTOR
  2
AcDbRasterImageDefReactor
  3
ISM
 90
        1
280
               0
281
               0
  0
CLASS
  1
IDBUFFER
  2
AcDbIdBuffer
  3
AutoCAD 2000
 90
        0
280
               0
281
               0
  0
CLASS
  1
SPATIAL_FILTER
  2
AcDbSpatialFilter
  3
AutoCAD 2000
 90
        0
280
               0
281
               0
  0
CLASS
  1
XRECORD
  2
AcDbXrecord
  3
AutoCAD 2000
 90
        0
280
               0
281
               0
  0
CLASS
  1
SORTENTSTABLE
  2
AcDbSortentsTable
  3
AutoCAD 2000
 90
        0
280
               0
281
               0
  0
CLASS
  1
LAYER_INDEX
  2
AcDbLayerIndex
  3
AutoCAD 2000
 90
        0
280
               0
281
               0
  0
CLASS
  1
SPATIAL_INDEX
  2
AcDbSpatialIndex
  3
AutoCAD 2000
 90
        0
280
               0
281
               0
  0
CLASS
  1
OBJECT_PTR
  2
CAseDLPNTableRecord
  3
"ASE-LPNTableRecord"
 90
        1
280
               0
281
               0
  0
CLASS
  1
LAYOUT
  2
AcDbLayout
  3
AutoCAD 2000
 90
        0
280
               0
281
               0
  0
CLASS
  1
PLOTSETTINGS
  2
AcDbPlotSettings
  3
AutoCAD 2000
 90
        0
280
               0
281
               0
  0
CLASS
  1
ACDBDICTIONARYWDFLT
  2
AcDbDictionaryWithDefault
  3
AutoCAD 2000
 90
        0
280
               0
281
               0
  0
CLASS
  1
ACDBPLACEHOLDER
  2
AcDbPlaceHolder
  3
AutoCAD 2000
 90
        0
280
               0
281
               0
  0
ENDSEC
  0
SECTION
  2
TABLES
  0
TABLE
  2
VPORT
  5
7
100
AcDbSymbolTable
 70
               1
  0
VPORT
  5
15
100
AcDbSymbolTableRecord
100
AcDbViewportTableRecord
  2
*ACTIVE
 70
               0
 10
0.0
 20
0.0
 11
1.0
 21
1.0
 12
-7.2645024697208385
 22
8.2638099905377587
 13
0.0
 23
0.0
 14
1.0
 24
1.0
 15
0.0
 25
0.0
 16
0.0
 26
0.0
 36
1.0
 17
0.0
 27
0.0
 37
0.0
 40
66.347619999999992
 41
0.688564
 42
50.0
 43
0.0
 44
0.0
 50
0.0
 51
0.0
 71
               0
 72
            2000
 73
               1
 74
               1
 75
               0
 76
               0
 77
               0
 78
               0
281
               0
 65
               0
110
0.0
120
0.0
130
0.0
111
1.0
121
0.0
131
0.0
112
0.0
122
1.0
132
0.0
345
0
346
0
 79
               0
146
0.0
  0
ENDTAB
  0
TABLE
  2
LTYPE
  5
4
100
AcDbSymbolTable
 70
              15
  0
LTYPE
  5
11
100
AcDbSymbolTableRecord
100
AcDbLinetypeTableRecord
  2
ByBlock
 70
              64
  3

 72
              65
 73
               0
 40
0.0
  0
LTYPE
  5
12
100
AcDbSymbolTableRecord
100
AcDbLinetypeTableRecord
  2
ByLayer
 70
              64
  3

 72
              65
 73
               0
 40
0.0
  0
LTYPE
  5
13
100
AcDbSymbolTableRecord
100
AcDbLinetypeTableRecord
  2
Continuous
 70
              64
  3
Solid line
 72
              65
 73
               0
 40
0.0
  0
LTYPE
  5
33
100
AcDbSymbolTableRecord
100
AcDbLinetypeTableRecord
  2
STYLE_01
 70
               0
  3

 72
              65
 73
               2
 40
0.41664
 49
0.20828
 74
               0
 49
-0.20836
 74
               0
  0
LTYPE
  5
34
100
AcDbSymbolTableRecord
100
AcDbLinetypeTableRecord
  2
STYLE_02
 70
               0
  3

 72
              65
 73
               2
 40
0.6944250000000001
 49
0.48607
 74
               0
 49
-0.2083550000000001
 74
               0
  0
LTYPE
  5
35
100
AcDbSymbolTableRecord
100
AcDbLinetypeTableRecord
  2
STYLE_03
 70
               0
  3

 72
              65
 73
               2
 40
1.25
 49
1.0416400000000001
 74
               0
 49
-0.2083599999999999
 74
               0
  0
LTYPE
  5
36
100
AcDbSymbolTableRecord
100
AcDbLinetypeTableRecord
  2
STYLE_04
 70
               0
  3

 72
              65
 73
               2
 40
1.5277099999999999
 49
1.3194249999999998
 74
               0
 49
-0.208285
 74
               0
  0
LTYPE
  5
37
100
AcDbSymbolTableRecord
100
AcDbLinetypeTableRecord
  2
STYLE_05
 70
               0
  3

 72
              65
 73
               2
 40
0.20828
 49
0.069425
 74
               0
 49
-0.138855
 74
               0
  0
LTYPE
  5
38
100
AcDbSymbolTableRecord
100
AcDbLinetypeTableRecord
  2
STYLE_06
 70
               0
  3

 72
              65
 73
               4
 40
1.0416400000000001
 49
0.625
 74
               0
 49
-0.20828
 74
               0
 49
0.06943
 74
               0
 49
-0.13893
 74
               0
  0
LTYPE
  5
39
100
AcDbSymbolTableRecord
100
AcDbLinetypeTableRecord
  2
STYLE_07
 70
               0
  3

 72
              65
 73
               6
 40
1.875
 49
0.625
 74
               0
 49
-0.20828
 74
               0
 49
0.6250000000000001
 74
               0
 49
-0.2083599999999999
 74
               0
 49
0.06943
 74
               0
 49
-0.1389299999999999
 74
               0
  0
LTYPE
  5
3A
100
AcDbSymbolTableRecord
100
AcDbLinetypeTableRecord
  2
STYLE_08
 70
               0
  3

 72
              65
 73
               6
 40
1.25
 49
0.625
 74
               0
 49
-0.20828
 74
               0
 49
0.06943
 74
               0
 49
-0.13893
 74
               0
 49
0.0694299999999999
 74
               0
 49
-0.13893
 74
               0
  0
LTYPE
  5
3B
100
AcDbSymbolTableRecord
100
AcDbLinetypeTableRecord
  2
STYLE_09
 70
               0
  3

 72
              65
 73
               4
 40
5.0
 49
3.75
 74
               0
 49
-0.2777849999999998
 74
               0
 49
0.6944300000000003
 74
               0
 49
-0.2777849999999998
 74
               0
  0
LTYPE
  5
3C
100
AcDbSymbolTableRecord
100
AcDbLinetypeTableRecord
  2
STYLE_10
 70
               0
  3

 72
              65
 73
               6
 40
5.9375
 49
3.75
 74
               0
 49
-0.2777849999999998
 74
               0
 49
0.6944300000000003
 74
               0
 49
-0.2777849999999998
 74
               0
 49
0.625
 74
               0
 49
-0.3125
 74
               0
  0
LTYPE
  5
3D
100
AcDbSymbolTableRecord
100
AcDbLinetypeTableRecord
  2
STYLE_11
 70
               0
  3

 72
              65
 73
               4
 40
2.1527862548828125
 49
1.180572509765625
 74
               0
 49
-0.4166412353515625
 74
               0
 49
0.069427490234375
 74
               0
 49
-0.48614501953125
 74
               0
  0
LTYPE
  5
3E
100
AcDbSymbolTableRecord
100
AcDbLinetypeTableRecord
  2
STYLE_12
 70
               0
  3

 72
              65
 73
               2
 40
0.4166412353515625
 49
0.2777862548828125
 74
               0
 49
-0.13885498046875
 74
               0
  0
ENDTAB
  0
TABLE
  2
LAYER
  5
2
100
AcDbSymbolTable
 70
               4
  0
LAYER
  5
14
100
AcDbSymbolTableRecord
100
AcDbLayerTableRecord
  2
0
 70
               0
 62
               7
  6
Continuous
290
               1
370
              -3
390
1D
  0
LAYER
  5
3F
100
AcDbSymbolTableRecord
100
AcDbLayerTableRecord
  2
Defpoints
 70
               0
 62
               7
  6
Continuous
290
               0
370
              -3
390
1D
  0
LAYER
  5
40
100
AcDbSymbolTableRecord
100
AcDbLayerTableRecord
  2
None
 70
               0
 62
               7
  6
Continuous
290
               1
370
               5
390
1D
  0
LAYER
  5
41
100
AcDbSymbolTableRecord
100
AcDbLayerTableRecord
  2
Dimension
 70
               0
 62
               7
  6
Continuous
290
               1
370
               5
390
1D
  0
ENDTAB
  0
TABLE
  2
STYLE
  5
3
100
AcDbSymbolTable
 70
               3
  0
STYLE
  5
17
100
AcDbSymbolTableRecord
100
AcDbTextStyleTableRecord
  2
Standard
 70
               0
 40
0.0
 41
1.0
 50
0.0
 71
               0
 42
0.0
  3
txt
  4

  0
STYLE
  5
31
100
AcDbSymbolTableRecord
100
AcDbTextStyleTableRecord
  2
Arial
 70
               0
 40
0.0
 41
1.0
 50
0.0
 71
               0
 42
0.0
  3
Arial
  4

1001
ACAD
1000
Arial
1071
        0
  0
STYLE
  5
32
100
AcDbSymbolTableRecord
100
AcDbTextStyleTableRecord
  2
New Century Schlbk
 70
               0
 40
0.0
 41
1.0
 50
0.0
 71
               0
 42
0.0
  3
New Century Schlbk
  4

1001
ACAD
1000
New Century Schlbk
1071
        0
  0
ENDTAB
  0
TABLE
  2
VIEW
  5
5
100
AcDbSymbolTable
 70
               0
  0
ENDTAB
  0
TABLE
  2
UCS
  5
6
100
AcDbSymbolTable
 70
               0
  0
ENDTAB
  0
TABLE
  2
APPID
  5
8
100
AcDbSymbolTable
 70
               1
  0
APPID
  5
16
100
AcDbSymbolTableRecord
100
AcDbRegAppTableRecord
  2
ACAD
 70
               0
  0
ENDTAB
  0
TABLE
  2
DIMSTYLE
  5
9
100
AcDbSymbolTable
 70
               3
100
AcDbDimStyleTable
 71
               0
  0
DIMSTYLE
105
18
100
AcDbSymbolTableRecord
100
AcDbDimStyleTableRecord
  2
Standard
 70
               0
  3

  4

 40
1.0
 41
0.18
 42
0.0625
 43
0.38
 44
0.18
 45
0.0
 46
0.0
 47
0.0
 48
0.0
 71
               0
 72
               0
 73
               1
 74
               1
 75
               0
 76
               0
 77
               0
 78
               0
 79
               0
140
0.18
141
0.09
142
0.0
143
25.399999999999999
144
1.0
145
0.0
146
1.0
147
0.09
148
0.0
170
               0
171
               2
172
               0
173
               0
174
               0
175
               0
176
               0
177
               0
178
               0
179
               0
271
               4
272
               4
273
               2
274
               2
275
               0
276
               0
277
               2
278
              46
279
               0
280
               0
281
               0
282
               0
283
               1
284
               0
285
               0
286
               0
288
               0
289
               3
340
17
341
0
342
0
343
0
344
0
371
              -2
372
              -2
  0
DIMSTYLE
105
4A
100
AcDbSymbolTableRecord
100
AcDbDimStyleTableRecord
  2
IE Standard
 70
               0
  3
<>mm
  4
[]
 40
1.0
 41
3.1749999999999998
 42
1.9050000047311186
 43
6.9999859934672708
 44
3.8100000094622373
 45
0.0
 46
0.0
 47
0.0
 48
0.0
 71
               0
 72
               0
 73
               1
 74
               1
 75
               0
 76
               0
 77
               0
 78
               3
 79
               0
140
1.5158420138888884
141
0.0
142
0.0
143
1.0
144
1.0
145
0.0
146
1.0
147
0.0
148
0.0
170
               0
171
               1
172
               1
173
               0
174
               1
175
               0
176
               0
177
               0
178
               0
179
               2
271
               1
272
               1
273
               2
274
               2
275
               0
276
               2
277
               2
278
              46
279
               0
280
               0
281
               0
282
               0
283
               1
284
               3
285
              11
286
              11
288
               0
289
               0
340
32
341
46
342
42
343
0
344
0
371
              -2
372
              -2
  0
DIMSTYLE
105
4B
100
AcDbSymbolTableRecord
100
AcDbDimStyleTableRecord
  2
ASME
 70
               0
  3
<>mm
  4
[]
 40
1.0
 41
3.1749999999999998
 42
1.5874999999999999
 43
10.16
 44
3.1749999999999998
 45
0.0
 46
0.0
 47
0.0
 48
0.0
 71
               0
 72
               0
 73
               1
 74
               1
 75
               0
 76
               0
 77
               0
 78
               3
 79
               0
140
1.5158420138888884
141
0.0
142
0.0
143
1.0
144
1.0
145
0.0
146
1.0
147
0.0
148
0.0
170
               0
171
               1
172
               0
173
               0
174
               1
175
               0
176
               0
177
               0
178
               0
179
               2
271
               1
272
               1
273
               2
274
               2
275
               0
276
               2
277
               2
278
              46
279
               0
280
               0
281
               0
282
               0
283
               1
284
               3
285
              11
286
              11
288
               0
289
               0
340
32
341
42
342
42
343
0
344
0
371
              -2
372
              -2
  0
ENDTAB
  0
TABLE
  2
BLOCK_RECORD
  5
1
100
AcDbSymbolTable
 70
              16
  0
BLOCK_RECORD
  5
A
100
AcDbSymbolTableRecord
100
AcDbBlockTableRecord
  2
*MODEL_SPACE
340
20
  0
BLOCK_RECORD
  5
B
100
AcDbSymbolTableRecord
100
AcDbBlockTableRecord
  2
*PAPER_SPACE
340
21
  0
BLOCK_RECORD
  5
42
100
AcDbSymbolTableRecord
100
AcDbBlockTableRecord
  2
VW_FILLEDARROW
340
0
  0
BLOCK_RECORD
  5
46
100
AcDbSymbolTableRecord
100
AcDbBlockTableRecord
  2
VW_FILLEDARROW-1
340
0
  0
BLOCK_RECORD
  5
23
100
AcDbSymbolTableRecord
100
AcDbBlockTableRecord
  2
*D2
340
0
  0
BLOCK_RECORD
  5
24
100
AcDbSymbolTableRecord
100
AcDbBlockTableRecord
  2
*D3
340
0
  0
BLOCK_RECORD
  5
25
100
AcDbSymbolTableRecord
100
AcDbBlockTableRecord
  2
*D4
340
0
  0
BLOCK_RECORD
  5
26
100
AcDbSymbolTableRecord
100
AcDbBlockTableRecord
  2
*D5
340
0
  0
BLOCK_RECORD
  5
27
100
AcDbSymbolTableRecord
100
AcDbBlockTableRecord
  2
*D6
340
0
  0
BLOCK_RECORD
  5
28
100
AcDbSymbolTableRecord
100
AcDbBlockTableRecord
  2
*D7
340
0
  0
BLOCK_RECORD
  5
29
100
AcDbSymbolTableRecord
100
AcDbBlockTableRecord
  2
*D8
340
0
  0
BLOCK_RECORD
  5
2A
100
AcDbSymbolTableRecord
100
AcDbBlockTableRecord
  2
*D9
340
0
  0
BLOCK_RECORD
  5
2B
100
AcDbSymbolTableRecord
100
AcDbBlockTableRecord
  2
*D10
340
0
  0
BLOCK_RECORD
  5
2C
100
AcDbSymbolTableRecord
100
AcDbBlockTableRecord
  2
*D11
340
0
  0
BLOCK_RECORD
  5
2D
100
AcDbSymbolTableRecord
100
AcDbBlockTableRecord
  2
*D12
340
0
  0
BLOCK_RECORD
  5
2E
100
AcDbSymbolTableRecord
100
AcDbBlockTableRecord
  2
*D13
340
0
  0
BLOCK_RECORD
  5
2F
100
AcDbSymbolTableRecord
100
AcDbBlockTableRecord
  2
*D14
340
0
  0
BLOCK_RECORD
  5
30
100
AcDbSymbolTableRecord
100
AcDbBlockTableRecord
  2
*D15
340
0
  0
ENDTAB
  0
ENDSEC
  0
SECTION
  2
BLOCKS
  0
BLOCK
  5
D
100
AcDbEntity
  8
0
390
0
100
AcDbBlockBegin
  2
*MODEL_SPACE
 70
               0
 10
0.0
 20
0.0
 30
0.0
  3
*MODEL_SPACE
  1

  0
ENDBLK
  5
E
100
AcDbEntity
  8
0
390
0
100
AcDbBlockEnd
  0
BLOCK
  5
F
100
AcDbEntity
 67
               1
  8
0
390
0
100
AcDbBlockBegin
  2
*PAPER_SPACE
 70
               0
 10
0.0
 20
0.0
 30
0.0
  3
*PAPER_SPACE
  1

  0
ENDBLK
  5
10
100
AcDbEntity
 67
               1
  8
0
390
0
100
AcDbBlockEnd
  0
BLOCK
  5
43
100
AcDbEntity
  8
0
370
              -2
390
0
  6
ByBlock
 62
               0
100
AcDbBlockBegin
  2
VW_FILLEDARROW
 70
               0
 10
0.0
 20
0.0
 30
0.0
  3
VW_FILLEDARROW
  1

  0
SOLID
  5
44
100
AcDbEntity
  8
0
370
              -2
390
0
 62
               0
100
AcDbTrace
 10
0.0
 20
0.0
 30
0.0
 11
-0.9999389648437499
 21
-0.2679328381102956
 31
0.0
 12
-0.9999389648437499
 22
0.2679328381102958
 32
0.0
 13
-0.9999389648437499
 23
0.2679328381102958
 33
0.0
  0
ENDBLK
  5
45
100
AcDbEntity
  8
0
390
0
100
AcDbBlockEnd
  0
BLOCK
  5
47
100
AcDbEntity
  8
0
370
              -2
390
0
  6
ByBlock
 62
               0
100
AcDbBlockBegin
  2
VW_FILLEDARROW-1
 70
               0
 10
0.0
 20
0.0
 30
0.0
  3
VW_FILLEDARROW
  1

  0
SOLID
  5
48
100
AcDbEntity
  8
0
370
              -2
390
0
 62
               0
100
AcDbTrace
 10
0.0
 20
0.0
 30
0.0
 11
-0.6650756835937499
 21
-0.1782064923245222
 31
0.0
 12
-0.6650756835937498
 22
0.1782064923245224
 32
0.0
 13
-0.6650756835937498
 23
0.1782064923245224
 33
0.0
  0
ENDBLK
  5
49
100
AcDbEntity
  8
0
390
0
100
AcDbBlockEnd
  0
BLOCK
  5
4C
100
AcDbEntity
  8
Dimension
390
0
100
AcDbBlockBegin
  2
*D2
 70
               1
 10
0.0
 20
0.0
 30
0.0
  3
*D2
  1

  0
LINE
  5
4D
100
AcDbEntity
  8
Dimension
370
              -2
390
0
  6
Continuous
 62
               0
100
AcDbLine
 10
-13.475460000000002
 20
12.018079995268879
 30
0.0
 11
-13.475460000000002
 21
41.437619990537755
 31
0.0
  0
LINE
  5
4E
100
AcDbEntity
  8
Dimension
370
              -2
390
0
  6
Continuous
 62
               0
100
AcDbLine
 10
-14.725460000000002
 20
13.268079995268879
 30
0.0
 11
-14.725460000000002
 21
41.437619990537755
 31
0.0
  0
LINE
  5
4F
100
AcDbEntity
  8
Dimension
370
              -2
390
0
  6
Continuous
 62
               0
100
AcDbLine
 10
-14.725460000000002
 20
37.627619981075519
 30
0.0
 11
-13.475460000000002
 21
37.627619981075519
 31
0.0
  0
LINE
  5
50
100
AcDbEntity
  8
Dimension
370
              -2
390
0
  6
Continuous
 62
               0
100
AcDbLine
 10
-13.475460000000002
 20
37.627619981075519
 30
0.0
 11
-6.475474006532731
 21
37.627619981075519
 31
0.0
  0
SOLID
  5
51
100
AcDbEntity
  8
Dimension
370
              -2
390
0
 62
               0
100
AcDbTrace
 10
-13.475460000000002
 20
37.627619981075519
 30
0.0
 11
-10.300460000000001
 21
38.478358667044333
 31
0.0
 12
-10.300460000000001
 22
36.776881295106705
 32
0.0
 13
-10.300460000000001
 23
36.776881295106705
 33
0.0
  0
LINE
  5
52
100
AcDbEntity
  8
Dimension
370
              -2
390
0
  6
Continuous
 62
               0
100
AcDbLine
 10
-14.725460000000002
 20
37.627619981075519
 30
0.0
 11
-31.900000000000002
 21
37.627619981075519
 31
0.0
  0
SOLID
  5
53
100
AcDbEntity
  8
Dimension
370
              -2
390
0
 62
               0
100
AcDbTrace
 10
-14.725460000000002
 20
37.627619981075519
 30
0.0
 11
-17.900460000000002
 21
36.776881295106705
 31
0.0
 12
-17.900460000000002
 22
38.478358667044333
 32
0.0
 13
-17.900460000000002
 23
38.478358667044333
 33
0.0
  0
MTEXT
  5
54
100
AcDbEntity
  8
Dimension
390
0
 62
               0
100
AcDbMText
 10
-51.983638660113009
 20
38.367350883853298
 30
0.0
 40
1.5158420138888884
 41
0.0
 71
               1
 72
               1
  1
1.25mm
  7
New Century Schlbk
 73
               1
 44
0.9673603504928806
  0
MTEXT
  5
55
100
AcDbEntity
  8
Dimension
390
0
 62
               0
100
AcDbMText
 10
-44.278971939616724
 20
38.543739772742192
 30
0.0
 40
1.5158420138888884
 41
0.0
 71
               1
 72
               1
  1
±0.13mm
  7
New Century Schlbk
 73
               1
 44
0.9673603504928806
  0
MTEXT
  5
56
100
AcDbEntity
  8
Dimension
390
0
 62
               0
100
AcDbMText
 10
-35.410138821601862
 20
38.432210548205148
 30
0.0
 40
1.2632016782407407
 41
0.0
 71
               1
 72
               1
  1
 (x4)
  7
New Century Schlbk
 73
               1
 44
0.9673603504928805
  0
POINT
  5
57
100
AcDbEntity
  8
Defpoints
370
               0
390
0
 62
               0
100
AcDbPoint
 10
-14.725460000000002
 20
11.363079990537761
 30
0.0
  0
POINT
  5
58
100
AcDbEntity
  8
Defpoints
370
               0
390
0
 62
               0
100
AcDbPoint
 10
-13.475460000000002
 20
10.113079990537761
 30
0.0
  0
POINT
  5
59
100
AcDbEntity
  8
Defpoints
370
               0
390
0
 62
               0
100
AcDbPoint
 10
-13.475460000000002
 20
37.627619981075519
 30
0.0
  0
ENDBLK
  5
5A
100
AcDbEntity
  8
Dimension
390
0
100
AcDbBlockEnd
  0
BLOCK
  5
5B
100
AcDbEntity
  8
Dimension
390
0
100
AcDbBlockBegin
  2
*D3
 70
               1
 10
0.0
 20
0.0
 30
0.0
  3
*D3
  1

  0
LINE
  5
5C
100
AcDbEntity
  8
Dimension
370
              -2
390
0
  6
Continuous
 62
               0
100
AcDbLine
 10
-16.63046000473112
 20
11.363079990537761
 30
0.0
 11
-42.310000009462236
 21
11.363079990537761
 31
0.0
  0
LINE
  5
5D
100
AcDbEntity
  8
Dimension
370
              -2
390
0
  6
Continuous
 62
               0
100
AcDbLine
 10
-15.38046000473112
 20
10.113079990537761
 30
0.0
 11
-42.310000009462236
 21
10.113079990537761
 31
0.0
  0
LINE
  5
5E
100
AcDbEntity
  8
Dimension
370
              -2
390
0
  6
Continuous
 62
               0
100
AcDbLine
 10
-38.5
 20
10.113079990537761
 30
0.0
 11
-38.5
 21
11.363079990537761
 31
0.0
  0
LINE
  5
5F
100
AcDbEntity
  8
Dimension
370
              -2
390
0
  6
Continuous
 62
               0
100
AcDbLine
 10
-38.5
 20
11.363079990537761
 30
0.0
 11
-38.5
 21
20.300000000000001
 31
0.0
  0
SOLID
  5
60
100
AcDbEntity
  8
Dimension
370
              -2
390
0
 62
               0
100
AcDbTrace
 10
-38.5
 20
11.363079990537761
 30
0.0
 11
-39.350738685968814
 21
14.53807999053776
 31
0.0
 12
-37.649261314031186
 22
14.53807999053776
 32
0.0
 13
-37.649261314031186
 23
14.53807999053776
 33
0.0
  0
LINE
  5
61
100
AcDbEntity
  8
Dimension
370
              -2
390
0
  6
Continuous
 62
               0
100
AcDbLine
 10
-38.5
 20
10.113079990537761
 30
0.0
 11
-38.5
 21
3.1130939970704903
 31
0.0
  0
SOLID
  5
62
100
AcDbEntity
  8
Dimension
370
              -2
390
0
 62
               0
100
AcDbTrace
 10
-38.5
 20
10.113079990537761
 30
0.0
 11
-37.649261314031186
 21
6.9380799905377604
 31
0.0
 12
-39.350738685968814
 22
6.9380799905377613
 32
0.0
 13
-39.350738685968814
 23
6.9380799905377613
 33
0.0
  0
MTEXT
  5
63
100
AcDbEntity
  8
Dimension
390
0
 62
               0
100
AcDbMText
 10
-48.541819330056505
 20
21.039730902777777
 30
0.0
 40
1.5158420138888884
 41
0.0
 71
               1
 72
               1
  1
1.25mm
  7
New Century Schlbk
 73
               1
 44
0.9673603504928806
  0
MTEXT
  5
64
100
AcDbEntity
  8
Dimension
390
0
 62
               0
100
AcDbMText
 10
-40.837152609560221
 20
21.216119791666664
 30
0.0
 40
1.5158420138888884
 41
0.0
 71
               1
 72
               1
  1
±0.13mm
  7
New Century Schlbk
 73
               1
 44
0.9673603504928806
  0
MTEXT
  5
65
100
AcDbEntity
  8
Dimension
390
0
 62
               0
100
AcDbMText
 10
-31.968319491545358
 20
21.10459056712963
 30
0.0
 40
1.2632016782407407
 41
0.0
 71
               1
 72
               1
  1
 (x4)
  7
New Century Schlbk
 73
               1
 44
0.9673603504928805
  0
POINT
  5
66
100
AcDbEntity
  8
Defpoints
370
               0
390
0
 62
               0
100
AcDbPoint
 10
-13.475460000000002
 20
10.113079990537761
 30
0.0
  0
POINT
  5
67
100
AcDbEntity
  8
Defpoints
370
               0
390
0
 62
               0
100
AcDbPoint
 10
-14.725460000000002
 20
11.363079990537761
 30
0.0
  0
POINT
  5
68
100
AcDbEntity
  8
Defpoints
370
               0
390
0
 62
               0
100
AcDbPoint
 10
-38.5
 20
11.363079990537761
 30
0.0
  0
ENDBLK
  5
69
100
AcDbEntity
  8
Dimension
390
0
100
AcDbBlockEnd
  0
BLOCK
  5
6A
100
AcDbEntity
  8
Dimension
390
0
100
AcDbBlockBegin
  2
*D4
 70
               1
 10
0.0
 20
0.0
 30
0.0
  3
*D4
  1

  0
LINE
  5
6B
100
AcDbEntity
  8
Dimension
370
              -2
390
0
  6
Continuous
 62
               0
100
AcDbLine
 10
-16.63046000473112
 20
11.363079990537761
 30
0.0
 11
-74.366130009462239
 21
11.363079990537761
 31
0.0
  0
LINE
  5
6C
100
AcDbEntity
  8
Dimension
370
              -2
390
0
  6
Continuous
 62
               0
100
AcDbLine
 10
-16.63046000473112
 20
-9.8619200094622368
 30
0.0
 11
-74.366130009462239
 21
-9.8619200094622368
 31
0.0
  0
LINE
  5
6D
100
AcDbEntity
  8
Dimension
370
              -2
390
0
  6
Continuous
 62
               0
100
AcDbLine
 10
-70.556129999999996
 20
11.363079990537761
 30
0.0
 11
-70.556129999999996
 21
-9.8619200094622368
 31
0.0
  0
SOLID
  5
6E
100
AcDbEntity
  8
Dimension
370
              -2
390
0
 62
               0
100
AcDbTrace
 10
-70.556129999999996
 20
11.363079990537761
 30
0.0
 11
-69.705391314031189
 21
8.1880799905377604
 31
0.0
 12
-71.406868685968817
 22
8.1880799905377621
 32
0.0
 13
-71.406868685968817
 23
8.1880799905377621
 33
0.0
  0
SOLID
  5
6F
100
AcDbEntity
  8
Dimension
370
              -2
390
0
 62
               0
100
AcDbTrace
 10
-70.556129999999996
 20
-9.8619200094622368
 30
0.0
 11
-71.406868685968817
 21
-6.686920009462237
 31
0.0
 12
-69.705391314031175
 22
-6.686920009462237
 32
0.0
 13
-69.705391314031175
 23
-6.686920009462237
 33
0.0
  0
MTEXT
  5
70
100
AcDbEntity
  8
Dimension
390
0
 62
               0
100
AcDbMText
 10
-82.129004939441671
 20
2.639730902777778
 30
0.0
 40
1.5158420138888884
 41
0.0
 71
               1
 72
               1
  1
21.225mm
  7
New Century Schlbk
 73
               1
 44
0.9673603504928806
  0
MTEXT
  5
71
100
AcDbEntity
  8
Dimension
390
0
 62
               0
100
AcDbMText
 10
-72.053671794511999
 20
2.8161197916666665
 30
0.0
 40
1.5158420138888884
 41
0.0
 71
               1
 72
               1
  1
±0.125mm
  7
New Century Schlbk
 73
               1
 44
0.9673603504928806
  0
MTEXT
  5
72
100
AcDbEntity
  8
Dimension
390
0
 62
               0
100
AcDbMText
 10
-61.999505127845332
 20
2.70459056712963
 30
0.0
 40
1.2632016782407407
 41
0.0
 71
               1
 72
               1
  1
(x4)
  7
New Century Schlbk
 73
               1
 44
0.9673603504928805
  0
POINT
  5
73
100
AcDbEntity
  8
Defpoints
370
               0
390
0
 62
               0
100
AcDbPoint
 10
-14.725460000000002
 20
-9.8619200094622368
 30
0.0
  0
POINT
  5
74
100
AcDbEntity
  8
Defpoints
370
               0
390
0
 62
               0
100
AcDbPoint
 10
-14.725460000000002
 20
11.363079990537761
 30
0.0
  0
POINT
  5
75
100
AcDbEntity
  8
Defpoints
370
               0
390
0
 62
               0
100
AcDbPoint
 10
-70.556129999999996
 20
11.363079990537761
 30
0.0
  0
ENDBLK
  5
76
100
AcDbEntity
  8
Dimension
390
0
100
AcDbBlockEnd
  0
BLOCK
  5
77
100
AcDbEntity
  8
Dimension
390
0
100
AcDbBlockBegin
  2
*D5
 70
               1
 10
0.0
 20
0.0
 30
0.0
  3
*D5
  1

  0
LINE
  5
78
100
AcDbEntity
  8
Dimension
370
              -2
390
0
  6
Continuous
 62
               0
100
AcDbLine
 10
-13.475460000000002
 20
-10.516920014193355
 30
0.0
 11
-13.475460000000002
 21
-24.910000009462237
 31
0.0
  0
LINE
  5
79
100
AcDbEntity
  8
Dimension
370
              -2
390
0
  6
Continuous
 62
               0
100
AcDbLine
 10
5.249539999999997
 20
-10.516920014193355
 30
0.0
 11
5.249539999999997
 21
-24.910000009462237
 31
0.0
  0
LINE
  5
7A
100
AcDbEntity
  8
Dimension
370
              -2
390
0
  6
Continuous
 62
               0
100
AcDbLine
 10
5.249539999999997
 20
-21.100000000000001
 30
0.0
 11
-13.475460000000002
 21
-21.100000000000001
 31
0.0
  0
LINE
  5
7B
100
AcDbEntity
  8
Dimension
370
              -2
390
0
  6
Continuous
 62
               0
100
AcDbLine
 10
-13.475460000000002
 20
-21.100000000000001
 30
0.0
 11
-20.475445993467272
 21
-21.100000000000001
 31
0.0
  0
SOLID
  5
7C
100
AcDbEntity
  8
Dimension
370
              -2
390
0
 62
               0
100
AcDbTrace
 10
-13.475460000000002
 20
-21.100000000000001
 30
0.0
 11
-16.650460000000002
 21
-21.950738685968815
 31
0.0
 12
-16.650460000000002
 22
-20.249261314031187
 32
0.0
 13
-16.650460000000002
 23
-20.249261314031187
 33
0.0
  0
LINE
  5
7D
100
AcDbEntity
  8
Dimension
370
              -2
390
0
  6
Continuous
 62
               0
100
AcDbLine
 10
5.249539999999997
 20
-21.100000000000001
 30
0.0
 11
12.249525993467268
 21
-21.100000000000001
 31
0.0
  0
SOLID
  5
7E
100
AcDbEntity
  8
Dimension
370
              -2
390
0
 62
               0
100
AcDbTrace
 10
5.249539999999997
 20
-21.100000000000001
 30
0.0
 11
8.4245399999999968
 21
-20.249261314031187
 31
0.0
 12
8.4245399999999968
 22
-21.950738685968815
 32
0.0
 13
8.4245399999999968
 23
-21.950738685968815
 33
0.0
  0
MTEXT
  5
7F
100
AcDbEntity
  8
Dimension
390
0
 62
               0
100
AcDbMText
 10
-11.043749999999999
 20
-20.272074652777778
 30
0.0
 40
1.5158420138888884
 41
0.0
 71
               1
 72
               1
  1
18.725mm (x4)
  7
New Century Schlbk
 73
               1
 44
0.9673603504928806
  0
POINT
  5
80
100
AcDbEntity
  8
Defpoints
370
               0
390
0
 62
               0
100
AcDbPoint
 10
5.249539999999997
 20
-8.6119200094622368
 30
0.0
  0
POINT
  5
81
100
AcDbEntity
  8
Defpoints
370
               0
390
0
 62
               0
100
AcDbPoint
 10
-13.475460000000002
 20
-8.6119200094622368
 30
0.0
  0
POINT
  5
82
100
AcDbEntity
  8
Defpoints
370
               0
390
0
 62
               0
100
AcDbPoint
 10
-13.475460000000002
 20
-21.100000000000001
 30
0.0
  0
ENDBLK
  5
83
100
AcDbEntity
  8
Dimension
390
0
100
AcDbBlockEnd
  0
BLOCK
  5
84
100
AcDbEntity
  8
Dimension
390
0
100
AcDbBlockBegin
  2
*D6
 70
               1
 10
0.0
 20
0.0
 30
0.0
  3
*D6
  1

  0
LINE
  5
85
100
AcDbEntity
  8
Dimension
370
              -2
390
0
  6
Continuous
 62
               0
100
AcDbLine
 10
-3.7379600000000028
 20
9.8555799952688794
 30
0.0
 11
-3.7379600000000028
 21
24.960579999999997
 31
0.0
  0
LINE
  5
86
100
AcDbEntity
  8
Dimension
370
              -2
390
0
  6
Continuous
 62
               0
100
AcDbLine
 10
-2.937960000000003
 20
9.8555799952688794
 30
0.0
 11
-2.937960000000003
 21
24.960579999999997
 31
0.0
  0
LINE
  5
87
100
AcDbEntity
  8
Dimension
370
              -2
390
0
  6
Continuous
 62
               0
100
AcDbLine
 10
-2.937960000000003
 20
21.150579990537761
 30
0.0
 11
-3.7379600000000028
 21
21.150579990537761
 31
0.0
  0
LINE
  5
88
100
AcDbEntity
  8
Dimension
370
              -2
390
0
  6
Continuous
 62
               0
100
AcDbLine
 10
-3.7379600000000028
 20
21.150579990537761
 30
0.0
 11
-10.737945993467275
 21
21.150579990537761
 31
0.0
  0
SOLID
  5
89
100
AcDbEntity
  8
Dimension
370
              -2
390
0
 62
               0
100
AcDbTrace
 10
-3.7379600000000028
 20
21.150579990537761
 30
0.0
 11
-6.9129600000000027
 21
20.299841304568947
 31
0.0
 12
-6.9129600000000018
 22
22.001318676506575
 32
0.0
 13
-6.9129600000000018
 23
22.001318676506575
 33
0.0
  0
LINE
  5
8A
100
AcDbEntity
  8
Dimension
370
              -2
390
0
  6
Continuous
 62
               0
100
AcDbLine
 10
-2.937960000000003
 20
21.150579990537761
 30
0.0
 11
8.3000000000000007
 21
21.150579990537761
 31
0.0
  0
SOLID
  5
8B
100
AcDbEntity
  8
Dimension
370
              -2
390
0
 62
               0
100
AcDbTrace
 10
-2.937960000000003
 20
21.150579990537761
 30
0.0
 11
0.2370399999999968
 21
22.001318676506575
 31
0.0
 12
0.2370399999999968
 22
20.299841304568947
 32
0.0
 13
0.2370399999999968
 23
20.299841304568947
 33
0.0
  0
MTEXT
  5
8C
100
AcDbEntity
  8
Dimension
390
0
 62
               0
100
AcDbMText
 10
8.2999999999999989
 20
21.978505337759984
 30
0.0
 40
1.5158420138888884
 41
0.0
 71
               1
 72
               1
  1
0.80mm typ.
  7
New Century Schlbk
 73
               1
 44
0.9673603504928806
  0
POINT
  5
8D
100
AcDbEntity
  8
Defpoints
370
               0
390
0
 62
               0
100
AcDbPoint
 10
-2.937960000000003
 20
7.9505799905377614
 30
0.0
  0
POINT
  5
8E
100
AcDbEntity
  8
Defpoints
370
               0
390
0
 62
               0
100
AcDbPoint
 10
-3.7379600000000028
 20
7.9505799905377614
 30
0.0
  0
POINT
  5
8F
100
AcDbEntity
  8
Defpoints
370
               0
390
0
 62
               0
100
AcDbPoint
 10
-3.7379600000000028
 20
21.150579990537761
 30
0.0
  0
ENDBLK
  5
90
100
AcDbEntity
  8
Dimension
390
0
100
AcDbBlockEnd
  0
BLOCK
  5
91
100
AcDbEntity
  8
Dimension
390
0
100
AcDbBlockBegin
  2
*D7
 70
               1
 10
0.0
 20
0.0
 30
0.0
  3
*D7
  1

  0
LINE
  5
92
100
AcDbEntity
  8
Dimension
370
              -2
390
0
  6
Continuous
 62
               0
100
AcDbLine
 10
5.6849134113957893
 20
-9.2890278241044868
 30
0.0
 11
10.0
 21
-16.0
 31
0.0
  0
SOLID
  5
93
100
AcDbEntity
  8
Dimension
370
              -2
390
0
 62
               0
100
AcDbTrace
 10
5.6849134113957893
 20
-9.2890278241044868
 30
0.0
 11
7.2871627996391766
 21
-10.783149550396285
 31
0.0
 12
6.3254412216667397
 22
-11.384099889541137
 32
0.0
 13
6.3254412216667397
 23
-11.384099889541137
 33
0.0
  0
LINE
  5
94
100
AcDbEntity
  8
Dimension
370
              -2
390
0
  6
Continuous
 62
               0
100
AcDbLine
 10
10.0
 20
-16.0
 30
0.0
 11
15.999988007917999
 21
-16.0
 31
0.0
  0
MTEXT
  5
95
100
AcDbEntity
  8
Dimension
390
0
 62
               0
100
AcDbMText
 10
15.999988007917997
 20
-15.260269097222224
 30
0.0
 40
1.5158420138888884
 41
0.0
 71
               1
 72
               1
  1
Ø 1.61mm
  7
New Century Schlbk
 73
               1
 44
0.9673603504928806
  0
MTEXT
  5
96
100
AcDbEntity
  8
Dimension
390
0
 62
               0
100
AcDbMText
 10
25.948320937529203
 20
-15.083880208333337
 30
0.0
 40
1.5158420138888884
 41
0.0
 71
               1
 72
               1
  1
±0.05mm
  7
New Century Schlbk
 73
               1
 44
0.9673603504928806
  0
MTEXT
  5
97
100
AcDbEntity
  8
Dimension
390
0
 62
               0
100
AcDbMText
 10
34.817154055544066
 20
-15.195409432870372
 30
0.0
 40
1.2632016782407407
 41
0.0
 71
               1
 72
               1
  1
 (x4)
  7
New Century Schlbk
 73
               1
 44
0.9673603504928805
  0
POINT
  5
98
100
AcDbEntity
  8
Defpoints
370
               0
390
0
 62
               0
100
AcDbPoint
 10
4.8141665886042038
 20
-7.9348121948199886
 30
0.0
  0
POINT
  5
99
100
AcDbEntity
  8
Defpoints
370
               0
390
0
 62
               0
100
AcDbPoint
 10
5.6849134113957893
 20
-9.2890278241044868
 30
0.0
  0
ENDBLK
  5
9A
100
AcDbEntity
  8
Dimension
390
0
100
AcDbBlockEnd
  0
BLOCK
  5
9B
100
AcDbEntity
  8
Dimension
390
0
100
AcDbBlockBegin
  2
*D8
 70
               1
 10
0.0
 20
0.0
 30
0.0
  3
*D8
  1

  0
LINE
  5
9C
100
AcDbEntity
  8
Dimension
370
              -2
390
0
  6
Continuous
 62
               0
100
AcDbLine
 10
5.5111785806235352
 20
7.2381617122529036
 30
0.0
 11
11.400000000000002
 21
-0.3000000000000007
 31
0.0
  0
SOLID
  5
9D
100
AcDbEntity
  8
Dimension
370
              -2
390
0
 62
               0
100
AcDbTrace
 10
5.5111785806235352
 20
7.2381617122529036
 30
0.0
 11
7.2375522150227152
 21
5.8893708057166618
 31
0.0
 12
6.3318665511687726
 22
5.2068877055994864
 32
0.0
 13
6.3318665511687726
 23
5.2068877055994864
 33
0.0
  0
LINE
  5
9E
100
AcDbEntity
  8
Dimension
370
              -2
390
0
  6
Continuous
 62
               0
100
AcDbLine
 10
11.400000000000002
 20
-0.3000000000000007
 30
0.0
 11
17.399988007918001
 21
-0.3000000000000007
 31
0.0
  0
MTEXT
  5
9F
100
AcDbEntity
  8
Dimension
390
0
 62
               0
100
AcDbMText
 10
17.399988007918004
 20
0.4397309027777769
 30
0.0
 40
1.5158420138888884
 41
0.0
 71
               1
 72
               1
  1
Ø 0.85mm
  7
New Century Schlbk
 73
               1
 44
0.9673603504928806
  0
MTEXT
  5
A0
100
AcDbEntity
  8
Dimension
390
0
 62
               0
100
AcDbMText
 10
27.348320937529209
 20
0.6161197916666654
 30
0.0
 40
1.5158420138888884
 41
0.0
 71
               1
 72
               1
  1
±0.03mm
  7
New Century Schlbk
 73
               1
 44
0.9673603504928806
  0
MTEXT
  5
A1
100
AcDbEntity
  8
Dimension
390
0
 62
               0
100
AcDbMText
 10
36.217154055544071
 20
0.5045905671296287
 30
0.0
 40
1.2632016782407407
 41
0.0
 71
               1
 72
               1
  1
 (x2)
  7
New Century Schlbk
 73
               1
 44
0.9673603504928805
  0
POINT
  5
A2
100
AcDbEntity
  8
Defpoints
370
               0
390
0
 62
               0
100
AcDbPoint
 10
4.9879014193764561
 20
7.9079982688226202
 30
0.0
  0
POINT
  5
A3
100
AcDbEntity
  8
Defpoints
370
               0
390
0
 62
               0
100
AcDbPoint
 10
5.5111785806235352
 20
7.2381617122529036
 30
0.0
  0
ENDBLK
  5
A4
100
AcDbEntity
  8
Dimension
390
0
100
AcDbBlockEnd
  0
BLOCK
  5
A5
100
AcDbEntity
  8
Dimension
390
0
100
AcDbBlockBegin
  2
*D9
 70
               1
 10
0.0
 20
0.0
 30
0.0
  3
*D9
  1

  0
LINE
  5
A6
100
AcDbEntity
  8
Dimension
370
              -2
390
0
  6
Continuous
 62
               0
100
AcDbLine
 10
3.5704881827706183
 20
3.0069172199472298
 30
0.0
 11
11.200000000000001
 21
-7.0999999999999996
 31
0.0
  0
SOLID
  5
A7
100
AcDbEntity
  8
Dimension
370
              -2
390
0
 62
               0
100
AcDbTrace
 10
3.5704881827706183
 20
3.0069172199472298
 30
0.0
 11
5.2968618171697983
 21
1.6581263134109883
 31
0.0
 12
4.3911761533158558
 22
0.9756432132938122
 32
0.0
 13
4.3911761533158558
 23
0.9756432132938122
 33
0.0
  0
LINE
  5
A8
100
AcDbEntity
  8
Dimension
370
              -2
390
0
  6
Continuous
 62
               0
100
AcDbLine
 10
11.200000000000001
 20
-7.0999999999999996
 30
0.0
 11
17.199988007918002
 21
-7.0999999999999996
 31
0.0
  0
MTEXT
  5
A9
100
AcDbEntity
  8
Dimension
390
0
 62
               0
100
AcDbMText
 10
17.199988007918002
 20
-6.2720746527777775
 30
0.0
 40
1.5158420138888884
 41
0.0
 71
               1
 72
               1
  1
Ø 0.360mmxPAD
  7
New Century Schlbk
 73
               1
 44
0.9673603504928806
  0
POINT
  5
AA
100
AcDbEntity
  8
Defpoints
370
               0
390
0
 62
               0
100
AcDbPoint
 10
3.3535918172293742
 20
3.2942427611282961
 30
0.0
  0
POINT
  5
AB
100
AcDbEntity
  8
Defpoints
370
               0
390
0
 62
               0
100
AcDbPoint
 10
3.5704881827706183
 20
3.0069172199472298
 30
0.0
  0
ENDBLK
  5
AC
100
AcDbEntity
  8
Dimension
390
0
100
AcDbBlockEnd
  0
BLOCK
  5
AD
100
AcDbEntity
  8
Dimension
390
0
100
AcDbBlockBegin
  2
*D10
 70
               1
 10
0.0
 20
0.0
 30
0.0
  3
*D10
  1

  0
LINE
  5
AE
100
AcDbEntity
  8
Dimension
370
              -2
390
0
  6
Continuous
 62
               0
100
AcDbLine
 10
-13.475460000000002
 20
12.018079995268879
 30
0.0
 11
-13.475460000000002
 21
34.449999999999996
 31
0.0
  0
LINE
  5
AF
100
AcDbEntity
  8
Dimension
370
              -2
390
0
  6
Continuous
 62
               0
100
AcDbLine
 10
-10.937960000000002
 20
9.8555799952688794
 30
0.0
 11
-10.937960000000002
 21
34.449999999999996
 31
0.0
  0
LINE
  5
B0
100
AcDbEntity
  8
Dimension
370
              -2
390
0
  6
Continuous
 62
               0
100
AcDbLine
 10
-10.937960000000002
 20
30.63999999053776
 30
0.0
 11
-13.475460000000002
 21
30.63999999053776
 31
0.0
  0
LINE
  5
B1
100
AcDbEntity
  8
Dimension
370
              -2
390
0
  6
Continuous
 62
               0
100
AcDbLine
 10
-13.475460000000002
 20
30.63999999053776
 30
0.0
 11
-23.700000000000003
 21
30.63999999053776
 31
0.0
  0
SOLID
  5
B2
100
AcDbEntity
  8
Dimension
370
              -2
390
0
 62
               0
100
AcDbTrace
 10
-13.475460000000002
 20
30.63999999053776
 30
0.0
 11
-16.650460000000002
 21
29.789261304568946
 31
0.0
 12
-16.650460000000002
 22
31.490738676506574
 32
0.0
 13
-16.650460000000002
 23
31.490738676506574
 33
0.0
  0
LINE
  5
B3
100
AcDbEntity
  8
Dimension
370
              -2
390
0
  6
Continuous
 62
               0
100
AcDbLine
 10
-10.937960000000002
 20
30.63999999053776
 30
0.0
 11
-3.9379740065327313
 21
30.63999999053776
 31
0.0
  0
SOLID
  5
B4
100
AcDbEntity
  8
Dimension
370
              -2
390
0
 62
               0
100
AcDbTrace
 10
-10.937960000000002
 20
30.63999999053776
 30
0.0
 11
-7.7629600000000023
 21
31.490738676506574
 31
0.0
 12
-7.7629600000000023
 22
29.789261304568946
 32
0.0
 13
-7.7629600000000023
 23
29.789261304568946
 33
0.0
  0
MTEXT
  5
B5
100
AcDbEntity
  8
Dimension
390
0
 62
               0
100
AcDbMText
 10
-33.775333144929675
 20
31.467925337759983
 30
0.0
 40
1.5158420138888884
 41
0.0
 71
               1
 72
               1
  1
2.5375mm
  7
New Century Schlbk
 73
               1
 44
0.9673603504928806
  0
POINT
  5
B6
100
AcDbEntity
  8
Defpoints
370
               0
390
0
 62
               0
100
AcDbPoint
 10
-10.937960000000002
 20
7.9505799905377614
 30
0.0
  0
POINT
  5
B7
100
AcDbEntity
  8
Defpoints
370
               0
390
0
 62
               0
100
AcDbPoint
 10
-13.475460000000002
 20
10.113079990537761
 30
0.0
  0
POINT
  5
B8
100
AcDbEntity
  8
Defpoints
370
               0
390
0
 62
               0
100
AcDbPoint
 10
-13.475460000000002
 20
30.63999999053776
 30
0.0
  0
ENDBLK
  5
B9
100
AcDbEntity
  8
Dimension
390
0
100
AcDbBlockEnd
  0
BLOCK
  5
BA
100
AcDbEntity
  8
Dimension
390
0
100
AcDbBlockBegin
  2
*D11
 70
               1
 10
0.0
 20
0.0
 30
0.0
  3
*D11
  1

  0
LINE
  5
BB
100
AcDbEntity
  8
Dimension
370
              -2
390
0
  6
Continuous
 62
               0
100
AcDbLine
 10
7.1545400047311158
 20
10.113079990537761
 30
0.0
 11
15.938340009462234
 21
10.113079990537761
 31
0.0
  0
LINE
  5
BC
100
AcDbEntity
  8
Dimension
370
              -2
390
0
  6
Continuous
 62
               0
100
AcDbLine
 10
7.1545400047311158
 20
7.5730799905377619
 30
0.0
 11
15.938340009462232
 21
7.5730799905377619
 31
0.0
  0
LINE
  5
BD
100
AcDbEntity
  8
Dimension
370
              -2
390
0
  6
Continuous
 62
               0
100
AcDbLine
 10
12.128339999999994
 20
7.5730799905377619
 30
0.0
 11
12.128339999999994
 21
10.113079990537761
 31
0.0
  0
LINE
  5
BE
100
AcDbEntity
  8
Dimension
370
              -2
390
0
  6
Continuous
 62
               0
100
AcDbLine
 10
12.128339999999994
 20
10.113079990537761
 30
0.0
 11
12.128339999999994
 21
17.600000000000001
 31
0.0
  0
SOLID
  5
BF
100
AcDbEntity
  8
Dimension
370
              -2
390
0
 62
               0
100
AcDbTrace
 10
12.128339999999994
 20
10.113079990537761
 30
0.0
 11
11.27760131403118
 21
13.28807999053776
 31
0.0
 12
12.979078685968808
 22
13.28807999053776
 32
0.0
 13
12.979078685968808
 23
13.28807999053776
 33
0.0
  0
LINE
  5
C0
100
AcDbEntity
  8
Dimension
370
              -2
390
0
  6
Continuous
 62
               0
100
AcDbLine
 10
12.128339999999994
 20
7.5730799905377619
 30
0.0
 11
12.128339999999994
 21
0.5730939970704911
 31
0.0
  0
SOLID
  5
C1
100
AcDbEntity
  8
Dimension
370
              -2
390
0
 62
               0
100
AcDbTrace
 10
12.128339999999994
 20
7.5730799905377619
 30
0.0
 11
12.979078685968807
 21
4.3980799905377612
 31
0.0
 12
11.27760131403118
 22
4.3980799905377621
 32
0.0
 13
11.27760131403118
 23
4.3980799905377621
 33
0.0
  0
MTEXT
  5
C2
100
AcDbEntity
  8
Dimension
390
0
 62
               0
100
AcDbMText
 10
8.2760066397518539
 20
18.427925347222224
 30
0.0
 40
1.5158420138888884
 41
0.0
 71
               1
 72
               1
  1
2.54mm
  7
New Century Schlbk
 73
               1
 44
0.9673603504928806
  0
POINT
  5
C3
100
AcDbEntity
  8
Defpoints
370
               0
390
0
 62
               0
100
AcDbPoint
 10
5.249539999999997
 20
7.5730799905377619
 30
0.0
  0
POINT
  5
C4
100
AcDbEntity
  8
Defpoints
370
               0
390
0
 62
               0
100
AcDbPoint
 10
5.249539999999997
 20
10.113079990537761
 30
0.0
  0
POINT
  5
C5
100
AcDbEntity
  8
Defpoints
370
               0
390
0
 62
               0
100
AcDbPoint
 10
12.128339999999994
 20
10.113079990537761
 30
0.0
  0
ENDBLK
  5
C6
100
AcDbEntity
  8
Dimension
390
0
100
AcDbBlockEnd
  0
BLOCK
  5
C7
100
AcDbEntity
  8
Dimension
390
0
100
AcDbBlockBegin
  2
*D12
 70
               1
 10
0.0
 20
0.0
 30
0.0
  3
*D12
  1

  0
LINE
  5
C8
100
AcDbEntity
  8
Dimension
370
              -2
390
0
  6
Continuous
 62
               0
100
AcDbLine
 10
-10.937960000000002
 20
9.8555799952688794
 30
0.0
 11
-10.937960000000002
 21
29.349420009462239
 31
0.0
  0
LINE
  5
C9
100
AcDbEntity
  8
Dimension
370
              -2
390
0
  6
Continuous
 62
               0
100
AcDbLine
 10
3.4620399999999956
 20
9.8555799952688794
 30
0.0
 11
3.4620399999999956
 21
29.349420009462239
 31
0.0
  0
LINE
  5
CA
100
AcDbEntity
  8
Dimension
370
              -2
390
0
  6
Continuous
 62
               0
100
AcDbLine
 10
3.4620399999999956
 20
25.539420000000003
 30
0.0
 11
-10.937960000000002
 21
25.539420000000003
 31
0.0
  0
LINE
  5
CB
100
AcDbEntity
  8
Dimension
370
              -2
390
0
  6
Continuous
 62
               0
100
AcDbLine
 10
-10.937960000000002
 20
25.539420000000003
 30
0.0
 11
-17.937945993467274
 21
25.539420000000003
 31
0.0
  0
SOLID
  5
CC
100
AcDbEntity
  8
Dimension
370
              -2
390
0
 62
               0
100
AcDbTrace
 10
-10.937960000000002
 20
25.539420000000003
 30
0.0
 11
-14.112960000000001
 21
24.688681314031189
 31
0.0
 12
-14.112960000000001
 22
26.390158685968817
 32
0.0
 13
-14.112960000000001
 23
26.390158685968817
 33
0.0
  0
LINE
  5
CD
100
AcDbEntity
  8
Dimension
370
              -2
390
0
  6
Continuous
 62
               0
100
AcDbLine
 10
3.4620399999999956
 20
25.539420000000003
 30
0.0
 11
10.462025993467266
 21
25.539420000000003
 31
0.0
  0
SOLID
  5
CE
100
AcDbEntity
  8
Dimension
370
              -2
390
0
 62
               0
100
AcDbTrace
 10
3.4620399999999956
 20
25.539420000000003
 30
0.0
 11
6.6370399999999954
 21
26.390158685968817
 31
0.0
 12
6.6370399999999954
 22
24.688681314031189
 32
0.0
 13
6.6370399999999954
 23
24.688681314031189
 33
0.0
  0
MTEXT
  5
CF
100
AcDbEntity
  8
Dimension
390
0
 62
               0
100
AcDbMText
 10
-7.9449997981389355
 20
26.367345347222226
 30
0.0
 40
1.5158420138888884
 41
0.0
 71
               1
 72
               1
  1
14.40mm
  7
New Century Schlbk
 73
               1
 44
0.9673603504928806
  0
POINT
  5
D0
100
AcDbEntity
  8
Defpoints
370
               0
390
0
 62
               0
100
AcDbPoint
 10
3.4620399999999956
 20
7.9505799905377614
 30
0.0
  0
POINT
  5
D1
100
AcDbEntity
  8
Defpoints
370
               0
390
0
 62
               0
100
AcDbPoint
 10
-10.937960000000002
 20
7.9505799905377614
 30
0.0
  0
POINT
  5
D2
100
AcDbEntity
  8
Defpoints
370
               0
390
0
 62
               0
100
AcDbPoint
 10
-10.937960000000002
 20
25.539420000000003
 30
0.0
  0
ENDBLK
  5
D3
100
AcDbEntity
  8
Dimension
390
0
100
AcDbBlockEnd
  0
BLOCK
  5
D4
100
AcDbEntity
  8
Dimension
390
0
100
AcDbBlockBegin
  2
*D13
 70
               1
 10
0.0
 20
0.0
 30
0.0
  3
*D13
  1

  0
LINE
  5
D5
100
AcDbEntity
  8
Dimension
370
              -2
390
0
  6
Continuous
 62
               0
100
AcDbLine
 10
-12.84296000473112
 20
7.9505799905377614
 30
0.0
 11
-57.010000009462239
 21
7.9505799905377614
 31
0.0
  0
LINE
  5
D6
100
AcDbEntity
  8
Dimension
370
              -2
390
0
  6
Continuous
 62
               0
100
AcDbLine
 10
-12.84296000473112
 20
-6.4494200094622371
 30
0.0
 11
-57.010000009462239
 21
-6.4494200094622371
 31
0.0
  0
LINE
  5
D7
100
AcDbEntity
  8
Dimension
370
              -2
390
0
  6
Continuous
 62
               0
100
AcDbLine
 10
-53.200000000000003
 20
-6.4494200094622371
 30
0.0
 11
-53.200000000000003
 21
7.9505799905377614
 31
0.0
  0
LINE
  5
D8
100
AcDbEntity
  8
Dimension
370
              -2
390
0
  6
Continuous
 62
               0
100
AcDbLine
 10
-53.200000000000003
 20
7.9505799905377614
 30
0.0
 11
-53.200000000000003
 21
14.950565984005031
 31
0.0
  0
SOLID
  5
D9
100
AcDbEntity
  8
Dimension
370
              -2
390
0
 62
               0
100
AcDbTrace
 10
-53.200000000000003
 20
7.9505799905377614
 30
0.0
 11
-54.050738685968817
 21
11.125579990537762
 31
0.0
 12
-52.349261314031189
 22
11.125579990537762
 32
0.0
 13
-52.349261314031189
 23
11.125579990537762
 33
0.0
  0
LINE
  5
DA
100
AcDbEntity
  8
Dimension
370
              -2
390
0
  6
Continuous
 62
               0
100
AcDbLine
 10
-53.200000000000003
 20
-6.4494200094622371
 30
0.0
 11
-53.200000000000003
 21
-13.449406002929507
 31
0.0
  0
SOLID
  5
DB
100
AcDbEntity
  8
Dimension
370
              -2
390
0
 62
               0
100
AcDbTrace
 10
-53.200000000000003
 20
-6.4494200094622371
 30
0.0
 11
-52.349261314031189
 21
-9.6244200094622379
 31
0.0
 12
-54.050738685968817
 22
-9.6244200094622379
 32
0.0
 13
-54.050738685968817
 23
-9.6244200094622379
 33
0.0
  0
MTEXT
  5
DC
100
AcDbEntity
  8
Dimension
390
0
 62
               0
100
AcDbMText
 10
-57.64499979813894
 20
2.0279253472222223
 30
0.0
 40
1.5158420138888884
 41
0.0
 71
               1
 72
               1
  1
14.40mm
  7
New Century Schlbk
 73
               1
 44
0.9673603504928806
  0
POINT
  5
DD
100
AcDbEntity
  8
Defpoints
370
               0
390
0
 62
               0
100
AcDbPoint
 10
-10.937960000000002
 20
-6.4494200094622371
 30
0.0
  0
POINT
  5
DE
100
AcDbEntity
  8
Defpoints
370
               0
390
0
 62
               0
100
AcDbPoint
 10
-10.937960000000002
 20
7.9505799905377614
 30
0.0
  0
POINT
  5
DF
100
AcDbEntity
  8
Defpoints
370
               0
390
0
 62
               0
100
AcDbPoint
 10
-53.200000000000003
 20
7.9505799905377614
 30
0.0
  0
ENDBLK
  5
E0
100
AcDbEntity
  8
Dimension
390
0
100
AcDbBlockEnd
  0
BLOCK
  5
E1
100
AcDbEntity
  8
Dimension
390
0
100
AcDbBlockBegin
  2
*D14
 70
               1
 10
0.0
 20
0.0
 30
0.0
  3
*D14
  1

  0
LINE
  5
E2
100
AcDbEntity
  8
Dimension
370
              -2
390
0
  6
Continuous
 62
               0
100
AcDbLine
 10
-15.38046000473112
 20
10.113079990537761
 30
0.0
 11
-29.992530000000002
 21
10.113079990537761
 31
0.0
  0
LINE
  5
E3
100
AcDbEntity
  8
Dimension
370
              -2
390
0
  6
Continuous
 62
               0
100
AcDbLine
 10
-12.84296000473112
 20
7.9505799905377614
 30
0.0
 11
-29.992530000000002
 21
7.9505799905377614
 31
0.0
  0
LINE
  5
E4
100
AcDbEntity
  8
Dimension
370
              -2
390
0
  6
Continuous
 62
               0
100
AcDbLine
 10
-26.182529990537766
 20
7.9505799905377614
 30
0.0
 11
-26.182529990537766
 21
10.113079990537761
 31
0.0
  0
LINE
  5
E5
100
AcDbEntity
  8
Dimension
370
              -2
390
0
  6
Continuous
 62
               0
100
AcDbLine
 10
-26.182529990537766
 20
10.113079990537761
 30
0.0
 11
-26.182529990537766
 21
17.113065984005033
 31
0.0
  0
SOLID
  5
E6
100
AcDbEntity
  8
Dimension
370
              -2
390
0
 62
               0
100
AcDbTrace
 10
-26.182529990537766
 20
10.113079990537761
 30
0.0
 11
-27.03326867650658
 21
13.28807999053776
 31
0.0
 12
-25.331791304568952
 22
13.28807999053776
 32
0.0
 13
-25.331791304568952
 23
13.28807999053776
 33
0.0
  0
LINE
  5
E7
100
AcDbEntity
  8
Dimension
370
              -2
390
0
  6
Continuous
 62
               0
100
AcDbLine
 10
-26.182529990537766
 20
7.9505799905377614
 30
0.0
 11
-26.182529990537766
 21
0.2999999999999998
 31
0.0
  0
SOLID
  5
E8
100
AcDbEntity
  8
Dimension
370
              -2
390
0
 62
               0
100
AcDbTrace
 10
-26.182529990537766
 20
7.9505799905377614
 30
0.0
 11
-25.331791304568952
 21
4.7755799905377607
 31
0.0
 12
-27.03326867650658
 22
4.7755799905377616
 32
0.0
 13
-27.03326867650658
 23
4.7755799905377616
 33
0.0
  0
MTEXT
  5
E9
100
AcDbEntity
  8
Dimension
390
0
 62
               0
100
AcDbMText
 10
-33.029946603374817
 20
1.1279253472222217
 30
0.0
 40
1.5158420138888884
 41
0.0
 71
               1
 72
               1
  1
2.1625mm(x4)
  7
New Century Schlbk
 73
               1
 44
0.9673603504928806
  0
POINT
  5
EA
100
AcDbEntity
  8
Defpoints
370
               0
390
0
 62
               0
100
AcDbPoint
 10
-10.937960000000002
 20
7.9505799905377614
 30
0.0
  0
POINT
  5
EB
100
AcDbEntity
  8
Defpoints
370
               0
390
0
 62
               0
100
AcDbPoint
 10
-13.475460000000002
 20
10.113079990537761
 30
0.0
  0
POINT
  5
EC
100
AcDbEntity
  8
Defpoints
370
               0
390
0
 62
               0
100
AcDbPoint
 10
-26.182529990537766
 20
10.113079990537761
 30
0.0
  0
ENDBLK
  5
ED
100
AcDbEntity
  8
Dimension
390
0
100
AcDbBlockEnd
  0
BLOCK
  5
EE
100
AcDbEntity
  8
Dimension
390
0
100
AcDbBlockBegin
  2
*D15
 70
               1
 10
0.0
 20
0.0
 30
0.0
  3
*D15
  1

  0
LINE
  5
EF
100
AcDbEntity
  8
Dimension
370
              -2
390
0
  6
Continuous
 62
               0
100
AcDbLine
 10
-15.062960000000002
 20
-3.5319200094622372
 30
0.0
 11
-40.875
 21
-3.5319200094622372
 31
0.0
  0
LINE
  5
F0
100
AcDbEntity
  8
Dimension
370
              -2
390
0
  6
Continuous
 62
               0
100
AcDbLine
 10
-15.062960000000002
 20
-8.6119200094622368
 30
0.0
 11
-40.875
 21
-8.6119200094622368
 31
0.0
  0
LINE
  5
F1
100
AcDbEntity
  8
Dimension
370
              -2
390
0
  6
Continuous
 62
               0
100
AcDbLine
 10
-37.700000000000003
 20
-3.5319200094622372
 30
0.0
 11
-37.700000000000003
 21
4.0880799905377625
 31
0.0
  0
SOLID
  5
F2
100
AcDbEntity
  8
Dimension
370
              -2
390
0
 62
               0
100
AcDbTrace
 10
-37.700000000000003
 20
-3.5319200094622372
 30
0.0
 11
-38.550738685968817
 21
-0.3569200094622373
 31
0.0
 12
-36.849261314031189
 22
-0.3569200094622373
 32
0.0
 13
-36.849261314031189
 23
-0.3569200094622373
 33
0.0
  0
LINE
  5
F3
100
AcDbEntity
  8
Dimension
370
              -2
390
0
  6
Continuous
 62
               0
100
AcDbLine
 10
-37.700000000000003
 20
-8.6119200094622368
 30
0.0
 11
-37.700000000000003
 21
-16.231920009462236
 31
0.0
  0
SOLID
  5
F4
100
AcDbEntity
  8
Dimension
370
              -2
390
0
 62
               0
100
AcDbTrace
 10
-37.700000000000003
 20
-8.6119200094622368
 30
0.0
 11
-36.849261314031189
 21
-11.786920009462238
 31
0.0
 12
-38.550738685968817
 22
-11.786920009462236
 32
0.0
 13
-38.550738685968817
 23
-11.786920009462236
 33
0.0
  0
MTEXT
  5
F5
100
AcDbEntity
  8
Dimension
390
0
 62
               0
100
AcDbMText
 10
-41.552333360248142
 20
-5.621494662240015
 30
0.0
 40
1.5158420138888884
 41
0.0
 71
               1
 72
               1
  1
5.08mm
  7
New Century Schlbk
 73
               1
 44
0.9673603504928806
  0
POINT
  5
F6
100
AcDbEntity
  8
Defpoints
370
               0
390
0
 62
               0
100
AcDbPoint
 10
-13.475460000000002
 20
-8.6119200094622368
 30
0.0
  0
POINT
  5
F7
100
AcDbEntity
  8
Defpoints
370
               0
390
0
 62
               0
100
AcDbPoint
 10
-13.475460000000002
 20
-3.5319200094622372
 30
0.0
  0
POINT
  5
F8
100
AcDbEntity
  8
Defpoints
370
               0
390
0
 62
               0
100
AcDbPoint
 10
-37.700000000000003
 20
-3.5319200094622372
 30
0.0
  0
ENDBLK
  5
F9
100
AcDbEntity
  8
Dimension
390
0
100
AcDbBlockEnd
  0
ENDSEC
  0
SECTION
  2
ENTITIES
  0
MTEXT
  5
FA
100
AcDbEntity
  8
None
390
0
 62
              12
100
AcDbMText
 10
16.025259999999992
 20
-18.212747995573348
 30
0.0
 40
1.5158420138888884
 41
0.0
 71
               1
 72
               1
  1
{\C226;\lnon plated Mounting Hole}
  7
New Century Schlbk
 73
               1
 44
0.9673603504928806
  0
MTEXT
  5
FB
100
AcDbEntity
  8
None
390
0
 62
              12
100
AcDbMText
 10
17.471669999999996
 20
-1.8415879955733496
 30
0.0
 40
1.5158420138888884
 41
0.0
 71
               1
 72
               1
  1
{\C226;\lnon plated Alignment Hole}
  7
New Century Schlbk
 73
               1
 44
0.9673603504928806
  0
CIRCLE
  5
FC
100
AcDbEntity
  8
None
370
              15
390
0
  6
Continuous
 62
             180
100
AcDbCircle
 10
-11.850460000000002
 20
10.188079990537762
 30
0.0
 40
0.2500014851955879
  0
MTEXT
  5
FD
100
AcDbEntity
  8
None
390
0
 62
              12
100
AcDbMText
 10
-43.000000000000014
 20
26.311139454052245
 30
0.0
 40
1.5158420138888884
 41
0.0
 71
               1
 72
               1
  1
{\C226;\lOrientation Mark}
  7
New Century Schlbk
 73
               1
 44
0.9673603504928806
  0
LINE
  5
FE
100
AcDbEntity
  8
None
370
              15
390
0
  6
Continuous
 62
              12
100
AcDbLine
 10
-11.850460000000002
 20
10.438079990537762
 30
0.0
 11
-26.800000000000001
 21
25.387619990537765
 31
0.0
  0
SOLID
  5
FF
100
AcDbEntity
  8
None
370
              15
390
0
 62
              12
100
AcDbTrace
 10
-11.850460000000002
 20
10.438079990537762
 30
0.0
 11
-14.697087124133571
 21
12.081580926938768
 31
0.0
 12
-13.493960936401008
 22
13.284707114671331
 32
0.0
 13
-13.493960936401008
 23
13.284707114671331
 33
0.0
  0
LINE
  5
100
100
AcDbEntity
  8
None
370
              15
390
0
  6
STYLE_11
 62
             191
100
AcDbLine
 10
-4.1129600000000028
 20
-9.8619200094622368
 30
0.0
 11
-4.1129600000000028
 21
11.363079990537761
 31
0.0
  0
LINE
  5
101
100
AcDbEntity
  8
None
370
              15
390
0
  6
STYLE_11
 62
             191
100
AcDbLine
 10
-14.725460000000002
 20
0.7505799905377623
 30
0.0
 11
6.4995399999999952
 21
0.7505799905377623
 31
0.0
  0
DIMENSION
  5
102
100
AcDbEntity
  8
Dimension
370
               5
390
0
  6
Continuous
 62
              12
100
AcDbDimension
  2
*D2
 10
-13.475460000000002
 20
37.627619981075519
 30
0.0
 11
-31.900000000000002
 21
37.627619981075519
 31
0.0
 70
             128
 71
               5
 72
               1
 41
1.0
 42
0.0
  3
IE Standard
100
AcDbAlignedDimension
 13
-14.725460000000002
 23
11.363079990537761
 33
0.0
 14
-13.475460000000002
 24
10.113079990537761
 34
0.0
100
AcDbRotatedDimension
1001
ACAD
1000
DSTYLE
1002
{
1070
             271
1070
               2
1070
             340
1005
31
1070
              71
1070
               1
1070
              47
1040
0.13
1070
              48
1040
0.13
1070
               3
1000
<>mm (x4)
1070
             174
1070
               0
1070
             147
1040
0.396875
1002
}
  0
DIMENSION
  5
103
100
AcDbEntity
  8
Dimension
370
               5
390
0
  6
Continuous
 62
              12
100
AcDbDimension
  2
*D3
 10
-38.5
 20
11.363079990537761
 30
0.0
 11
-38.5
 21
20.300000000000001
 31
0.0
 70
             128
 71
               5
 72
               1
 41
1.0
 42
0.0
  3
IE Standard
100
AcDbAlignedDimension
 13
-13.475460000000002
 23
10.113079990537761
 33
0.0
 14
-14.725460000000002
 24
11.363079990537761
 34
0.0
 50
90.0
100
AcDbRotatedDimension
1001
ACAD
1000
DSTYLE
1002
{
1070
             271
1070
               2
1070
             340
1005
31
1070
              71
1070
               1
1070
              47
1040
0.13
1070
              48
1040
0.13
1070
               3
1000
<>mm (x4)
1070
             174
1070
               0
1070
             147
1040
0.396875
1002
}
  0
DIMENSION
  5
104
100
AcDbEntity
  8
Dimension
370
               5
390
0
  6
Continuous
 62
              12
100
AcDbDimension
  2
*D4
 10
-70.556129999999996
 20
11.363079990537761
 30
0.0
 11
-70.556129999999996
 21
1.9000000000000004
 31
0.0
 70
             128
 71
               5
 72
               1
 41
1.0
 42
0.0
  3
IE Standard
100
AcDbAlignedDimension
 13
-14.725460000000002
 23
-9.8619200094622368
 33
0.0
 14
-14.725460000000002
 24
11.363079990537761
 34
0.0
 50
90.0
100
AcDbRotatedDimension
1001
ACAD
1000
DSTYLE
1002
{
1070
             271
1070
               3
1070
             340
1005
31
1070
              71
1070
               1
1070
              47
1040
0.125
1070
              48
1040
0.125
1070
               3
1000
<>mm(x4)
1070
             147
1040
0.396875
1002
}
  0
DIMENSION
  5
105
100
AcDbEntity
  8
Dimension
370
               5
390
0
  6
Continuous
 62
              12
100
AcDbDimension
  2
*D5
 10
-13.475460000000002
 20
-21.100000000000001
 30
0.0
 11
-3.9000000000000004
 21
-21.100000000000001
 31
0.0
 70
             128
 71
               5
 72
               1
 41
1.0
 42
0.0
  3
IE Standard
100
AcDbAlignedDimension
 13
5.249539999999997
 23
-8.6119200094622368
 33
0.0
 14
-13.475460000000002
 24
-8.6119200094622368
 34
0.0
100
AcDbRotatedDimension
1001
ACAD
1000
DSTYLE
1002
{
1070
             271
1070
               3
1070
             340
1005
31
1070
               3
1000
<>mm (x4)
1070
             147
1040
0.396875
1002
}
  0
DIMENSION
  5
106
100
AcDbEntity
  8
Dimension
370
               5
390
0
  6
Continuous
 62
              12
100
AcDbDimension
  2
*D6
 10
-3.7379600000000028
 20
21.150579990537761
 30
0.0
 11
8.3000000000000025
 21
21.150579990537761
 31
0.0
 70
             128
 71
               5
 72
               1
 41
1.0
 42
0.0
  3
IE Standard
100
AcDbAlignedDimension
 13
-2.937960000000003
 23
7.9505799905377614
 33
0.0
 14
-3.7379600000000028
 24
7.9505799905377614
 34
0.0
100
AcDbRotatedDimension
1001
ACAD
1000
DSTYLE
1002
{
1070
             271
1070
               2
1070
             340
1005
31
1070
               3
1000
<>mm typ.
1070
             174
1070
               0
1070
             147
1040
0.396875
1002
}
  0
DIMENSION
  5
107
100
AcDbEntity
  8
Dimension
370
               5
390
0
  6
Continuous
 62
              12
100
AcDbDimension
  2
*D7
 10
4.8141665886042038
 20
-7.9348121948199886
 30
0.0
 11
15.999988007918006
 21
-15.999999999999995
 31
0.0
 70
               3
 71
               5
 72
               1
 41
1.0
 42
0.0
  3
IE Standard
100
AcDbDiametricDimension
 15
5.6849134113957893
 25
-9.2890278241044868
 35
0.0
 40
7.9785412083159466
1001
ACAD
1000
DSTYLE
1002
{
1070
             271
1070
               2
1070
             172
1070
               0
1070
             289
1070
               0
1070
             342
1005
46
1070
             340
1005
31
1070
              75
1070
               1
1070
              76
1070
               1
1070
              71
1070
               1
1070
              47
1040
0.05
1070
              48
1040
0.05
1070
               3
1000
mm (x4)
1070
             174
1070
               0
1070
             147
1040
0.396875
1002
}
  0
POLYLINE
  5
108
100
AcDbEntity
  8
None
370
               9
390
0
  6
STYLE_12
 62
               7
100
AcDb2dPolyline
 66
               1
 10
0.0
 20
0.0
 30
0.0
 70
               1
 75
               5
  0
VERTEX
  5
109
100
AcDbEntity
  8
None
370
               9
390
0
  6
STYLE_12
 62
               7
100
AcDbVertex
100
AcDb2dVertex
 10
-14.725460000000002
 20
11.363079990537761
 30
0.0
  0
VERTEX
  5
10A
100
AcDbEntity
  8
None
370
               9
390
0
  6
STYLE_12
 62
               7
100
AcDbVertex
100
AcDb2dVertex
 10
6.4995399999999952
 20
11.363079990537761
 30
0.0
  0
VERTEX
  5
10B
100
AcDbEntity
  8
None
370
               9
390
0
  6
STYLE_12
 62
               7
100
AcDbVertex
100
AcDb2dVertex
 10
6.4995399999999952
 20
-9.8619200094622368
 30
0.0
  0
VERTEX
  5
10C
100
AcDbEntity
  8
None
370
               9
390
0
  6
STYLE_12
 62
               7
100
AcDbVertex
100
AcDb2dVertex
 10
-14.725460000000002
 20
-9.8619200094622368
 30
0.0
  0
SEQEND
  5
10D
100
AcDbEntity
  8
None
370
               9
390
0
  6
STYLE_12
 62
               7
  0
DIMENSION
  5
10E
100
AcDbEntity
  8
Dimension
370
               5
390
0
  6
Continuous
 62
              12
100
AcDbDimension
  2
*D8
 10
4.9879014193764561
 20
7.9079982688226202
 30
0.0
 11
17.39998800791799
 21
-0.3000000000000069
 31
0.0
 70
               3
 71
               5
 72
               1
 41
1.0
 42
0.0
  3
IE Standard
100
AcDbDiametricDimension
 15
5.5111785806235352
 25
7.2381617122529036
 35
0.0
 40
9.5656729877924782
1001
ACAD
1000
DSTYLE
1002
{
1070
             271
1070
               2
1070
             172
1070
               0
1070
             289
1070
               0
1070
             342
1005
46
1070
             340
1005
31
1070
              75
1070
               1
1070
              76
1070
               1
1070
              71
1070
               1
1070
              47
1040
0.025
1070
              48
1040
0.025
1070
               3
1000
mm (x2)
1070
             174
1070
               0
1070
             147
1040
0.396875
1002
}
  0
DIMENSION
  5
10F
100
AcDbEntity
  8
Dimension
370
              15
390
0
  6
Continuous
 62
              12
100
AcDbDimension
  2
*D9
 10
3.3535918172293742
 20
3.2942427611282961
 30
0.0
 11
17.199988007917984
 21
-7.1000000000000139
 31
0.0
 70
               3
 71
               5
 72
               1
 41
1.0
 42
0.0
  3
IE Standard
100
AcDbDiametricDimension
 15
3.5704881827706183
 25
3.0069172199472298
 35
0.0
 40
12.663302344179762
1001
ACAD
1000
DSTYLE
1002
{
1070
             271
1070
               3
1070
             172
1070
               0
1070
             289
1070
               0
1070
             342
1005
46
1070
             340
1005
31
1070
              75
1070
               1
1070
              76
1070
               1
1070
               3
1000
mmxPAD
1070
             174
1070
               0
1070
             147
1040
0.396875
1002
}
  0
DIMENSION
  5
110
100
AcDbEntity
  8
Dimension
370
              15
390
0
  6
Continuous
 62
              12
100
AcDbDimension
  2
*D10
 10
-13.475460000000002
 20
30.63999999053776
 30
0.0
 11
-23.700000000000003
 21
30.63999999053776
 31
0.0
 70
             128
 71
               5
 72
               1
 41
1.0
 42
0.0
  3
IE Standard
100
AcDbAlignedDimension
 13
-10.937960000000002
 23
7.9505799905377614
 33
0.0
 14
-13.475460000000002
 24
10.113079990537761
 34
0.0
100
AcDbRotatedDimension
1001
ACAD
1000
DSTYLE
1002
{
1070
             271
1070
               4
1070
             340
1005
31
1070
             174
1070
               0
1070
             147
1040
0.396875
1002
}
  0
MTEXT
  5
111
100
AcDbEntity
  8
None
390
0
 62
              12
100
AcDbMText
 10
-76.078036657204436
 20
-0.2720746527777846
 30
0.0
 40
1.5158420138888884
 41
0.0
 71
               1
 72
               1
  1
{\C226;\lSocket size}
  7
New Century Schlbk
 73
               1
 44
0.9673603504928806
  0
CIRCLE
  5
112
100
AcDbEntity
  8
None
370
               9
390
0
  6
Continuous
 62
               7
100
AcDbCircle
 10
-13.475460000000002
 20
10.113079990537761
 30
0.0
 40
0.8049999999999997
  0
DIMENSION
  5
113
100
AcDbEntity
  8
Dimension
370
              15
390
0
  6
Continuous
 62
              12
100
AcDbDimension
  2
*D11
 10
12.128339999999994
 20
10.113079990537761
 30
0.0
 11
12.128339999999994
 21
17.600000000000001
 31
0.0
 70
             128
 71
               5
 72
               1
 41
1.0
 42
0.0
  3
IE Standard
100
AcDbAlignedDimension
 13
5.249539999999997
 23
7.5730799905377619
 33
0.0
 14
5.249539999999997
 24
10.113079990537761
 34
0.0
 50
90.0
100
AcDbRotatedDimension
1001
ACAD
1000
DSTYLE
1002
{
1070
             271
1070
               2
1070
             340
1005
31
1070
             174
1070
               0
1070
             147
1040
0.396875
1002
}
  0
CIRCLE
  5
114
100
AcDbEntity
  8
None
370
               5
390
0
  6
Continuous
 62
               7
100
AcDbCircle
 10
5.249539999999997
 20
7.5730799905377619
 30
0.0
 40
0.4249999999999998
  0
CIRCLE
  5
115
100
AcDbEntity
  8
None
370
               5
390
0
  6
Continuous
 62
               7
100
AcDbCircle
 10
-13.475460000000002
 20
-3.5319200094622372
 30
0.0
 40
0.4250000000000003
  0
CIRCLE
  5
116
100
AcDbEntity
  8
None
370
              15
390
0
  6
Continuous
 62
               7
100
AcDbCircle
 10
-3.7379600000000028
 20
0.7505799905377623
 30
0.0
 40
0.1799982336024434
  0
MTEXT
  5
117
100
AcDbEntity
  8
None
390
0
 62
               7
100
AcDbMText
 10
16.828339999999997
 20
32.505142004426652
 30
0.0
 40
1.5158420138888884
 41
50.771660000000011
 71
               1
 72
               1
  1
{\LNote: BGA pattern is not symmetrical with respect to the mounting holes.}
  7
Arial
 73
               1
 44
0.9673603504928806
  0
CIRCLE
  5
118
100
AcDbEntity
  8
None
370
               9
390
0
  6
Continuous
 62
               7
100
AcDbCircle
 10
5.249539999999997
 20
10.113079990537761
 30
0.0
 40
0.8050000000000015
  0
CIRCLE
  5
119
100
AcDbEntity
  8
None
370
               9
390
0
  6
Continuous
 62
               7
100
AcDbCircle
 10
5.249539999999997
 20
-8.6119200094622368
 30
0.0
 40
0.8050000000000015
  0
CIRCLE
  5
11A
100
AcDbEntity
  8
None
370
               9
390
0
  6
Continuous
 62
               7
100
AcDbCircle
 10
-13.475460000000002
 20
-8.6119200094622368
 30
0.0
 40
0.8049999999999997
  0
CIRCLE
  5
11B
100
AcDbEntity
  8
None
370
              15
390
0
  6
Continuous
 62
               7
100
AcDbCircle
 10
-2.937960000000003
 20
0.7505799905377623
 30
0.0
 40
0.1799982336024434
  0
CIRCLE
  5
11C
100
AcDbEntity
  8
None
370
              15
390
0
  6
Continuous
 62
               7
100
AcDbCircle
 10
-2.1379600000000032
 20
0.7505799905377623
 30
0.0
 40
0.1799982336024443
  0
CIRCLE
  5
11D
100
AcDbEntity
  8
None
370
              15
390
0
  6
Continuous
 62
               7
100
AcDbCircle
 10
-1.3379600000000034
 20
0.7505799905377623
 30
0.0
 40
0.1799982336024443
  0
CIRCLE
  5
11E
100
AcDbEntity
  8
None
370
              15
390
0
  6
Continuous
 62
               7
100
AcDbCircle
 10
-0.5379600000000036
 20
0.7505799905377623
 30
0.0
 40
0.1799982336024443
  0
CIRCLE
  5
11F
100
AcDbEntity
  8
None
370
              15
390
0
  6
Continuous
 62
               7
100
AcDbCircle
 10
0.2620399999999963
 20
0.7505799905377623
 30
0.0
 40
0.1799982336024443
  0
CIRCLE
  5
120
100
AcDbEntity
  8
None
370
              15
390
0
  6
Continuous
 62
               7
100
AcDbCircle
 10
1.062039999999997
 20
0.7505799905377623
 30
0.0
 40
0.1799982336024443
  0
CIRCLE
  5
121
100
AcDbEntity
  8
None
370
              15
390
0
  6
Continuous
 62
               7
100
AcDbCircle
 10
1.8620399999999959
 20
0.7505799905377623
 30
0.0
 40
0.1799982336024443
  0
CIRCLE
  5
122
100
AcDbEntity
  8
None
370
              15
390
0
  6
Continuous
 62
               7
100
AcDbCircle
 10
2.6620399999999966
 20
0.7505799905377623
 30
0.0
 40
0.1799982336024443
  0
CIRCLE
  5
123
100
AcDbEntity
  8
None
370
              15
390
0
  6
Continuous
 62
               7
100
AcDbCircle
 10
3.4620399999999956
 20
0.7505799905377623
 30
0.0
 40
0.1799982336024443
  0
CIRCLE
  5
124
100
AcDbEntity
  8
None
370
              15
390
0
  6
Continuous
 62
               7
100
AcDbCircle
 10
-3.7379600000000028
 20
1.5505799905377622
 30
0.0
 40
0.1799982336024434
  0
CIRCLE
  5
125
100
AcDbEntity
  8
None
370
              15
390
0
  6
Continuous
 62
               7
100
AcDbCircle
 10
-2.937960000000003
 20
1.5505799905377622
 30
0.0
 40
0.1799982336024434
  0
CIRCLE
  5
126
100
AcDbEntity
  8
None
370
              15
390
0
  6
Continuous
 62
               7
100
AcDbCircle
 10
-2.1379600000000032
 20
1.5505799905377622
 30
0.0
 40
0.1799982336024443
  0
CIRCLE
  5
127
100
AcDbEntity
  8
None
370
              15
390
0
  6
Continuous
 62
               7
100
AcDbCircle
 10
-1.3379600000000034
 20
1.5505799905377622
 30
0.0
 40
0.1799982336024443
  0
CIRCLE
  5
128
100
AcDbEntity
  8
None
370
              15
390
0
  6
Continuous
 62
               7
100
AcDbCircle
 10
-0.5379600000000036
 20
1.5505799905377622
 30
0.0
 40
0.1799982336024443
  0
CIRCLE
  5
129
100
AcDbEntity
  8
None
370
              15
390
0
  6
Continuous
 62
               7
100
AcDbCircle
 10
0.2620399999999963
 20
1.5505799905377622
 30
0.0
 40
0.1799982336024443
  0
CIRCLE
  5
12A
100
AcDbEntity
  8
None
370
              15
390
0
  6
Continuous
 62
               7
100
AcDbCircle
 10
1.062039999999997
 20
1.5505799905377622
 30
0.0
 40
0.1799982336024443
  0
CIRCLE
  5
12B
100
AcDbEntity
  8
None
370
              15
390
0
  6
Continuous
 62
               7
100
AcDbCircle
 10
1.8620399999999959
 20
1.5505799905377622
 30
0.0
 40
0.1799982336024443
  0
CIRCLE
  5
12C
100
AcDbEntity
  8
None
370
              15
390
0
  6
Continuous
 62
               7
100
AcDbCircle
 10
2.6620399999999966
 20
1.5505799905377622
 30
0.0
 40
0.1799982336024443
  0
CIRCLE
  5
12D
100
AcDbEntity
  8
None
370
              15
390
0
  6
Continuous
 62
               7
100
AcDbCircle
 10
3.4620399999999956
 20
1.5505799905377622
 30
0.0
 40
0.1799982336024443
  0
CIRCLE
  5
12E
100
AcDbEntity
  8
None
370
              15
390
0
  6
Continuous
 62
               7
100
AcDbCircle
 10
-3.7379600000000028
 20
2.3505799905377622
 30
0.0
 40
0.1799982336024434
  0
CIRCLE
  5
12F
100
AcDbEntity
  8
None
370
              15
390
0
  6
Continuous
 62
               7
100
AcDbCircle
 10
-2.937960000000003
 20
2.3505799905377622
 30
0.0
 40
0.1799982336024434
  0
CIRCLE
  5
130
100
AcDbEntity
  8
None
370
              15
390
0
  6
Continuous
 62
               7
100
AcDbCircle
 10
-2.1379600000000032
 20
2.3505799905377622
 30
0.0
 40
0.1799982336024443
  0
CIRCLE
  5
131
100
AcDbEntity
  8
None
370
              15
390
0
  6
Continuous
 62
               7
100
AcDbCircle
 10
-1.3379600000000034
 20
2.3505799905377622
 30
0.0
 40
0.1799982336024443
  0
CIRCLE
  5
132
100
AcDbEntity
  8
None
370
              15
390
0
  6
Continuous
 62
               7
100
AcDbCircle
 10
-0.5379600000000036
 20
2.3505799905377622
 30
0.0
 40
0.1799982336024443
  0
CIRCLE
  5
133
100
AcDbEntity
  8
None
370
              15
390
0
  6
Continuous
 62
               7
100
AcDbCircle
 10
0.2620399999999963
 20
2.3505799905377622
 30
0.0
 40
0.1799982336024443
  0
CIRCLE
  5
134
100
AcDbEntity
  8
None
370
              15
390
0
  6
Continuous
 62
               7
100
AcDbCircle
 10
1.062039999999997
 20
2.3505799905377622
 30
0.0
 40
0.1799982336024443
  0
CIRCLE
  5
135
100
AcDbEntity
  8
None
370
              15
390
0
  6
Continuous
 62
               7
100
AcDbCircle
 10
1.8620399999999959
 20
2.3505799905377622
 30
0.0
 40
0.1799982336024443
  0
CIRCLE
  5
136
100
AcDbEntity
  8
None
370
              15
390
0
  6
Continuous
 62
               7
100
AcDbCircle
 10
2.6620399999999966
 20
2.3505799905377622
 30
0.0
 40
0.1799982336024443
  0
CIRCLE
  5
137
100
AcDbEntity
  8
None
370
              15
390
0
  6
Continuous
 62
               7
100
AcDbCircle
 10
3.4620399999999956
 20
2.3505799905377622
 30
0.0
 40
0.1799982336024443
  0
CIRCLE
  5
138
100
AcDbEntity
  8
None
370
              15
390
0
  6
Continuous
 62
               7
100
AcDbCircle
 10
-3.7379600000000028
 20
3.1505799905377621
 30
0.0
 40
0.1799982336024434
  0
CIRCLE
  5
139
100
AcDbEntity
  8
None
370
              15
390
0
  6
Continuous
 62
               7
100
AcDbCircle
 10
-2.937960000000003
 20
3.1505799905377621
 30
0.0
 40
0.1799982336024434
  0
CIRCLE
  5
13A
100
AcDbEntity
  8
None
370
              15
390
0
  6
Continuous
 62
               7
100
AcDbCircle
 10
-2.1379600000000032
 20
3.1505799905377621
 30
0.0
 40
0.1799982336024443
  0
CIRCLE
  5
13B
100
AcDbEntity
  8
None
370
              15
390
0
  6
Continuous
 62
               7
100
AcDbCircle
 10
-1.3379600000000034
 20
3.1505799905377621
 30
0.0
 40
0.1799982336024443
  0
CIRCLE
  5
13C
100
AcDbEntity
  8
None
370
              15
390
0
  6
Continuous
 62
               7
100
AcDbCircle
 10
-0.5379600000000036
 20
3.1505799905377621
 30
0.0
 40
0.1799982336024443
  0
CIRCLE
  5
13D
100
AcDbEntity
  8
None
370
              15
390
0
  6
Continuous
 62
               7
100
AcDbCircle
 10
0.2620399999999963
 20
3.1505799905377621
 30
0.0
 40
0.1799982336024443
  0
CIRCLE
  5
13E
100
AcDbEntity
  8
None
370
              15
390
0
  6
Continuous
 62
               7
100
AcDbCircle
 10
1.062039999999997
 20
3.1505799905377621
 30
0.0
 40
0.1799982336024443
  0
CIRCLE
  5
13F
100
AcDbEntity
  8
None
370
              15
390
0
  6
Continuous
 62
               7
100
AcDbCircle
 10
1.8620399999999959
 20
3.1505799905377621
 30
0.0
 40
0.1799982336024443
  0
CIRCLE
  5
140
100
AcDbEntity
  8
None
370
              15
390
0
  6
Continuous
 62
               7
100
AcDbCircle
 10
2.6620399999999966
 20
3.1505799905377621
 30
0.0
 40
0.1799982336024443
  0
CIRCLE
  5
141
100
AcDbEntity
  8
None
370
              15
390
0
  6
Continuous
 62
               7
100
AcDbCircle
 10
3.4620399999999956
 20
3.1505799905377621
 30
0.0
 40
0.1799982336024443
  0
CIRCLE
  5
142
100
AcDbEntity
  8
None
370
              15
390
0
  6
Continuous
 62
               7
100
AcDbCircle
 10
-3.7379600000000028
 20
3.9505799905377619
 30
0.0
 40
0.1799982336024434
  0
CIRCLE
  5
143
100
AcDbEntity
  8
None
370
              15
390
0
  6
Continuous
 62
               7
100
AcDbCircle
 10
-2.937960000000003
 20
3.9505799905377619
 30
0.0
 40
0.1799982336024434
  0
CIRCLE
  5
144
100
AcDbEntity
  8
None
370
              15
390
0
  6
Continuous
 62
               7
100
AcDbCircle
 10
-2.1379600000000032
 20
3.9505799905377619
 30
0.0
 40
0.1799982336024443
  0
CIRCLE
  5
145
100
AcDbEntity
  8
None
370
              15
390
0
  6
Continuous
 62
               7
100
AcDbCircle
 10
-1.3379600000000034
 20
3.9505799905377619
 30
0.0
 40
0.1799982336024443
  0
CIRCLE
  5
146
100
AcDbEntity
  8
None
370
              15
390
0
  6
Continuous
 62
               7
100
AcDbCircle
 10
-0.5379600000000036
 20
3.9505799905377619
 30
0.0
 40
0.1799982336024443
  0
CIRCLE
  5
147
100
AcDbEntity
  8
None
370
              15
390
0
  6
Continuous
 62
               7
100
AcDbCircle
 10
0.2620399999999963
 20
3.9505799905377619
 30
0.0
 40
0.1799982336024443
  0
CIRCLE
  5
148
100
AcDbEntity
  8
None
370
              15
390
0
  6
Continuous
 62
               7
100
AcDbCircle
 10
1.062039999999997
 20
3.9505799905377619
 30
0.0
 40
0.1799982336024443
  0
CIRCLE
  5
149
100
AcDbEntity
  8
None
370
              15
390
0
  6
Continuous
 62
               7
100
AcDbCircle
 10
1.8620399999999959
 20
3.9505799905377619
 30
0.0
 40
0.1799982336024443
  0
CIRCLE
  5
14A
100
AcDbEntity
  8
None
370
              15
390
0
  6
Continuous
 62
               7
100
AcDbCircle
 10
2.6620399999999966
 20
3.9505799905377619
 30
0.0
 40
0.1799982336024443
  0
CIRCLE
  5
14B
100
AcDbEntity
  8
None
370
              15
390
0
  6
Continuous
 62
               7
100
AcDbCircle
 10
3.4620399999999956
 20
3.9505799905377619
 30
0.0
 40
0.1799982336024443
  0
CIRCLE
  5
14C
100
AcDbEntity
  8
None
370
              15
390
0
  6
Continuous
 62
               7
100
AcDbCircle
 10
-3.7379600000000028
 20
4.7505799905377621
 30
0.0
 40
0.1799982336024434
  0
CIRCLE
  5
14D
100
AcDbEntity
  8
None
370
              15
390
0
  6
Continuous
 62
               7
100
AcDbCircle
 10
-2.937960000000003
 20
4.7505799905377621
 30
0.0
 40
0.1799982336024434
  0
CIRCLE
  5
14E
100
AcDbEntity
  8
None
370
              15
390
0
  6
Continuous
 62
               7
100
AcDbCircle
 10
-2.1379600000000032
 20
4.7505799905377621
 30
0.0
 40
0.1799982336024443
  0
CIRCLE
  5
14F
100
AcDbEntity
  8
None
370
              15
390
0
  6
Continuous
 62
               7
100
AcDbCircle
 10
-1.3379600000000034
 20
4.7505799905377621
 30
0.0
 40
0.1799982336024443
  0
CIRCLE
  5
150
100
AcDbEntity
  8
None
370
              15
390
0
  6
Continuous
 62
               7
100
AcDbCircle
 10
-0.5379600000000036
 20
4.7505799905377621
 30
0.0
 40
0.1799982336024443
  0
CIRCLE
  5
151
100
AcDbEntity
  8
None
370
              15
390
0
  6
Continuous
 62
               7
100
AcDbCircle
 10
0.2620399999999963
 20
4.7505799905377621
 30
0.0
 40
0.1799982336024443
  0
CIRCLE
  5
152
100
AcDbEntity
  8
None
370
              15
390
0
  6
Continuous
 62
               7
100
AcDbCircle
 10
1.062039999999997
 20
4.7505799905377621
 30
0.0
 40
0.1799982336024443
  0
CIRCLE
  5
153
100
AcDbEntity
  8
None
370
              15
390
0
  6
Continuous
 62
               7
100
AcDbCircle
 10
1.8620399999999959
 20
4.7505799905377621
 30
0.0
 40
0.1799982336024443
  0
CIRCLE
  5
154
100
AcDbEntity
  8
None
370
              15
390
0
  6
Continuous
 62
               7
100
AcDbCircle
 10
2.6620399999999966
 20
4.7505799905377621
 30
0.0
 40
0.1799982336024443
  0
CIRCLE
  5
155
100
AcDbEntity
  8
None
370
              15
390
0
  6
Continuous
 62
               7
100
AcDbCircle
 10
3.4620399999999956
 20
4.7505799905377621
 30
0.0
 40
0.1799982336024443
  0
CIRCLE
  5
156
100
AcDbEntity
  8
None
370
              15
390
0
  6
Continuous
 62
               7
100
AcDbCircle
 10
-3.7379600000000028
 20
5.550579990537762
 30
0.0
 40
0.1799982336024434
  0
CIRCLE
  5
157
100
AcDbEntity
  8
None
370
              15
390
0
  6
Continuous
 62
               7
100
AcDbCircle
 10
-2.937960000000003
 20
5.550579990537762
 30
0.0
 40
0.1799982336024434
  0
CIRCLE
  5
158
100
AcDbEntity
  8
None
370
              15
390
0
  6
Continuous
 62
               7
100
AcDbCircle
 10
-2.1379600000000032
 20
5.550579990537762
 30
0.0
 40
0.1799982336024443
  0
CIRCLE
  5
159
100
AcDbEntity
  8
None
370
              15
390
0
  6
Continuous
 62
               7
100
AcDbCircle
 10
-1.3379600000000034
 20
5.550579990537762
 30
0.0
 40
0.1799982336024443
  0
CIRCLE
  5
15A
100
AcDbEntity
  8
None
370
              15
390
0
  6
Continuous
 62
               7
100
AcDbCircle
 10
-0.5379600000000036
 20
5.550579990537762
 30
0.0
 40
0.1799982336024443
  0
CIRCLE
  5
15B
100
AcDbEntity
  8
None
370
              15
390
0
  6
Continuous
 62
               7
100
AcDbCircle
 10
0.2620399999999963
 20
5.550579990537762
 30
0.0
 40
0.1799982336024443
  0
CIRCLE
  5
15C
100
AcDbEntity
  8
None
370
              15
390
0
  6
Continuous
 62
               7
100
AcDbCircle
 10
1.062039999999997
 20
5.550579990537762
 30
0.0
 40
0.1799982336024443
  0
CIRCLE
  5
15D
100
AcDbEntity
  8
None
370
              15
390
0
  6
Continuous
 62
               7
100
AcDbCircle
 10
1.8620399999999959
 20
5.550579990537762
 30
0.0
 40
0.1799982336024443
  0
CIRCLE
  5
15E
100
AcDbEntity
  8
None
370
              15
390
0
  6
Continuous
 62
               7
100
AcDbCircle
 10
2.6620399999999966
 20
5.550579990537762
 30
0.0
 40
0.1799982336024443
  0
CIRCLE
  5
15F
100
AcDbEntity
  8
None
370
              15
390
0
  6
Continuous
 62
               7
100
AcDbCircle
 10
3.4620399999999956
 20
5.550579990537762
 30
0.0
 40
0.1799982336024443
  0
CIRCLE
  5
160
100
AcDbEntity
  8
None
370
              15
390
0
  6
Continuous
 62
               7
100
AcDbCircle
 10
-3.7379600000000028
 20
6.3505799905377618
 30
0.0
 40
0.1799982336024434
  0
CIRCLE
  5
161
100
AcDbEntity
  8
None
370
              15
390
0
  6
Continuous
 62
               7
100
AcDbCircle
 10
-2.937960000000003
 20
6.3505799905377618
 30
0.0
 40
0.1799982336024434
  0
CIRCLE
  5
162
100
AcDbEntity
  8
None
370
              15
390
0
  6
Continuous
 62
               7
100
AcDbCircle
 10
-2.1379600000000032
 20
6.3505799905377618
 30
0.0
 40
0.1799982336024443
  0
CIRCLE
  5
163
100
AcDbEntity
  8
None
370
              15
390
0
  6
Continuous
 62
               7
100
AcDbCircle
 10
-1.3379600000000034
 20
6.3505799905377618
 30
0.0
 40
0.1799982336024443
  0
CIRCLE
  5
164
100
AcDbEntity
  8
None
370
              15
390
0
  6
Continuous
 62
               7
100
AcDbCircle
 10
-0.5379600000000036
 20
6.3505799905377618
 30
0.0
 40
0.1799982336024443
  0
CIRCLE
  5
165
100
AcDbEntity
  8
None
370
              15
390
0
  6
Continuous
 62
               7
100
AcDbCircle
 10
0.2620399999999963
 20
6.3505799905377618
 30
0.0
 40
0.1799982336024443
  0
CIRCLE
  5
166
100
AcDbEntity
  8
None
370
              15
390
0
  6
Continuous
 62
               7
100
AcDbCircle
 10
1.062039999999997
 20
6.3505799905377618
 30
0.0
 40
0.1799982336024443
  0
CIRCLE
  5
167
100
AcDbEntity
  8
None
370
              15
390
0
  6
Continuous
 62
               7
100
AcDbCircle
 10
1.8620399999999959
 20
6.3505799905377618
 30
0.0
 40
0.1799982336024443
  0
CIRCLE
  5
168
100
AcDbEntity
  8
None
370
              15
390
0
  6
Continuous
 62
               7
100
AcDbCircle
 10
2.6620399999999966
 20
6.3505799905377618
 30
0.0
 40
0.1799982336024443
  0
CIRCLE
  5
169
100
AcDbEntity
  8
None
370
              15
390
0
  6
Continuous
 62
               7
100
AcDbCircle
 10
3.4620399999999956
 20
6.3505799905377618
 30
0.0
 40
0.1799982336024443
  0
CIRCLE
  5
16A
100
AcDbEntity
  8
None
370
              15
390
0
  6
Continuous
 62
               7
100
AcDbCircle
 10
-3.7379600000000028
 20
7.1505799905377616
 30
0.0
 40
0.1799982336024434
  0
CIRCLE
  5
16B
100
AcDbEntity
  8
None
370
              15
390
0
  6
Continuous
 62
               7
100
AcDbCircle
 10
-2.937960000000003
 20
7.1505799905377616
 30
0.0
 40
0.1799982336024434
  0
CIRCLE
  5
16C
100
AcDbEntity
  8
None
370
              15
390
0
  6
Continuous
 62
               7
100
AcDbCircle
 10
-2.1379600000000032
 20
7.1505799905377616
 30
0.0
 40
0.1799982336024443
  0
CIRCLE
  5
16D
100
AcDbEntity
  8
None
370
              15
390
0
  6
Continuous
 62
               7
100
AcDbCircle
 10
-1.3379600000000034
 20
7.1505799905377616
 30
0.0
 40
0.1799982336024443
  0
CIRCLE
  5
16E
100
AcDbEntity
  8
None
370
              15
390
0
  6
Continuous
 62
               7
100
AcDbCircle
 10
-0.5379600000000036
 20
7.1505799905377616
 30
0.0
 40
0.1799982336024443
  0
CIRCLE
  5
16F
100
AcDbEntity
  8
None
370
              15
390
0
  6
Continuous
 62
               7
100
AcDbCircle
 10
0.2620399999999963
 20
7.1505799905377616
 30
0.0
 40
0.1799982336024443
  0
CIRCLE
  5
170
100
AcDbEntity
  8
None
370
              15
390
0
  6
Continuous
 62
               7
100
AcDbCircle
 10
1.062039999999997
 20
7.1505799905377616
 30
0.0
 40
0.1799982336024443
  0
CIRCLE
  5
171
100
AcDbEntity
  8
None
370
              15
390
0
  6
Continuous
 62
               7
100
AcDbCircle
 10
1.8620399999999959
 20
7.1505799905377616
 30
0.0
 40
0.1799982336024443
  0
CIRCLE
  5
172
100
AcDbEntity
  8
None
370
              15
390
0
  6
Continuous
 62
               7
100
AcDbCircle
 10
2.6620399999999966
 20
7.1505799905377616
 30
0.0
 40
0.1799982336024443
  0
CIRCLE
  5
173
100
AcDbEntity
  8
None
370
              15
390
0
  6
Continuous
 62
               7
100
AcDbCircle
 10
3.4620399999999956
 20
7.1505799905377616
 30
0.0
 40
0.1799982336024443
  0
CIRCLE
  5
174
100
AcDbEntity
  8
None
370
              15
390
0
  6
Continuous
 62
               7
100
AcDbCircle
 10
-3.7379600000000028
 20
7.9505799905377614
 30
0.0
 40
0.1799982336024434
  0
CIRCLE
  5
175
100
AcDbEntity
  8
None
370
              15
390
0
  6
Continuous
 62
               7
100
AcDbCircle
 10
-2.937960000000003
 20
7.9505799905377614
 30
0.0
 40
0.1799982336024434
  0
CIRCLE
  5
176
100
AcDbEntity
  8
None
370
              15
390
0
  6
Continuous
 62
               7
100
AcDbCircle
 10
-2.1379600000000032
 20
7.9505799905377614
 30
0.0
 40
0.1799982336024443
  0
CIRCLE
  5
177
100
AcDbEntity
  8
None
370
              15
390
0
  6
Continuous
 62
               7
100
AcDbCircle
 10
-1.3379600000000034
 20
7.9505799905377614
 30
0.0
 40
0.1799982336024443
  0
CIRCLE
  5
178
100
AcDbEntity
  8
None
370
              15
390
0
  6
Continuous
 62
               7
100
AcDbCircle
 10
-0.5379600000000036
 20
7.9505799905377614
 30
0.0
 40
0.1799982336024443
  0
CIRCLE
  5
179
100
AcDbEntity
  8
None
370
              15
390
0
  6
Continuous
 62
               7
100
AcDbCircle
 10
0.2620399999999963
 20
7.9505799905377614
 30
0.0
 40
0.1799982336024443
  0
CIRCLE
  5
17A
100
AcDbEntity
  8
None
370
              15
390
0
  6
Continuous
 62
               7
100
AcDbCircle
 10
1.062039999999997
 20
7.9505799905377614
 30
0.0
 40
0.1799982336024443
  0
CIRCLE
  5
17B
100
AcDbEntity
  8
None
370
              15
390
0
  6
Continuous
 62
               7
100
AcDbCircle
 10
1.8620399999999959
 20
7.9505799905377614
 30
0.0
 40
0.1799982336024443
  0
CIRCLE
  5
17C
100
AcDbEntity
  8
None
370
              15
390
0
  6
Continuous
 62
               7
100
AcDbCircle
 10
2.6620399999999966
 20
7.9505799905377614
 30
0.0
 40
0.1799982336024443
  0
CIRCLE
  5
17D
100
AcDbEntity
  8
None
370
              15
390
0
  6
Continuous
 62
               7
100
AcDbCircle
 10
3.4620399999999956
 20
7.9505799905377614
 30
0.0
 40
0.1799982336024443
  0
CIRCLE
  5
17E
100
AcDbEntity
  8
None
370
              15
390
0
  6
Continuous
 62
               7
100
AcDbCircle
 10
-4.5379600000000035
 20
1.5505799905377622
 30
0.0
 40
0.1799982336024434
  0
CIRCLE
  5
17F
100
AcDbEntity
  8
None
370
              15
390
0
  6
Continuous
 62
               7
100
AcDbCircle
 10
-5.3379600000000025
 20
1.5505799905377622
 30
0.0
 40
0.1799982336024443
  0
CIRCLE
  5
180
100
AcDbEntity
  8
None
370
              15
390
0
  6
Continuous
 62
               7
100
AcDbCircle
 10
-6.1379600000000032
 20
1.5505799905377622
 30
0.0
 40
0.1799982336024434
  0
CIRCLE
  5
181
100
AcDbEntity
  8
None
370
              15
390
0
  6
Continuous
 62
               7
100
AcDbCircle
 10
-6.937960000000003
 20
1.5505799905377622
 30
0.0
 40
0.1799982336024434
  0
CIRCLE
  5
182
100
AcDbEntity
  8
None
370
              15
390
0
  6
Continuous
 62
               7
100
AcDbCircle
 10
-7.7379600000000028
 20
1.5505799905377622
 30
0.0
 40
0.1799982336024443
  0
CIRCLE
  5
183
100
AcDbEntity
  8
None
370
              15
390
0
  6
Continuous
 62
               7
100
AcDbCircle
 10
-8.5379600000000018
 20
1.5505799905377622
 30
0.0
 40
0.1799982336024443
  0
CIRCLE
  5
184
100
AcDbEntity
  8
None
370
              15
390
0
  6
Continuous
 62
               7
100
AcDbCircle
 10
-9.3379600000000025
 20
1.5505799905377622
 30
0.0
 40
0.1799982336024443
  0
CIRCLE
  5
185
100
AcDbEntity
  8
None
370
              15
390
0
  6
Continuous
 62
               7
100
AcDbCircle
 10
-10.137960000000003
 20
1.5505799905377622
 30
0.0
 40
0.1799982336024443
  0
CIRCLE
  5
186
100
AcDbEntity
  8
None
370
              15
390
0
  6
Continuous
 62
               7
100
AcDbCircle
 10
-10.937960000000002
 20
1.5505799905377622
 30
0.0
 40
0.1799982336024443
  0
CIRCLE
  5
187
100
AcDbEntity
  8
None
370
              15
390
0
  6
Continuous
 62
               7
100
AcDbCircle
 10
-4.5379600000000035
 20
2.3505799905377622
 30
0.0
 40
0.1799982336024434
  0
CIRCLE
  5
188
100
AcDbEntity
  8
None
370
              15
390
0
  6
Continuous
 62
               7
100
AcDbCircle
 10
-5.3379600000000025
 20
2.3505799905377622
 30
0.0
 40
0.1799982336024443
  0
CIRCLE
  5
189
100
AcDbEntity
  8
None
370
              15
390
0
  6
Continuous
 62
               7
100
AcDbCircle
 10
-6.1379600000000032
 20
2.3505799905377622
 30
0.0
 40
0.1799982336024434
  0
CIRCLE
  5
18A
100
AcDbEntity
  8
None
370
              15
390
0
  6
Continuous
 62
               7
100
AcDbCircle
 10
-6.937960000000003
 20
2.3505799905377622
 30
0.0
 40
0.1799982336024434
  0
CIRCLE
  5
18B
100
AcDbEntity
  8
None
370
              15
390
0
  6
Continuous
 62
               7
100
AcDbCircle
 10
-7.7379600000000028
 20
2.3505799905377622
 30
0.0
 40
0.1799982336024443
  0
CIRCLE
  5
18C
100
AcDbEntity
  8
None
370
              15
390
0
  6
Continuous
 62
               7
100
AcDbCircle
 10
-8.5379600000000018
 20
2.3505799905377622
 30
0.0
 40
0.1799982336024443
  0
CIRCLE
  5
18D
100
AcDbEntity
  8
None
370
              15
390
0
  6
Continuous
 62
               7
100
AcDbCircle
 10
-9.3379600000000025
 20
2.3505799905377622
 30
0.0
 40
0.1799982336024443
  0
CIRCLE
  5
18E
100
AcDbEntity
  8
None
370
              15
390
0
  6
Continuous
 62
               7
100
AcDbCircle
 10
-10.137960000000003
 20
2.3505799905377622
 30
0.0
 40
0.1799982336024443
  0
CIRCLE
  5
18F
100
AcDbEntity
  8
None
370
              15
390
0
  6
Continuous
 62
               7
100
AcDbCircle
 10
-10.937960000000002
 20
2.3505799905377622
 30
0.0
 40
0.1799982336024443
  0
CIRCLE
  5
190
100
AcDbEntity
  8
None
370
              15
390
0
  6
Continuous
 62
               7
100
AcDbCircle
 10
-4.5379600000000035
 20
3.1505799905377621
 30
0.0
 40
0.1799982336024434
  0
CIRCLE
  5
191
100
AcDbEntity
  8
None
370
              15
390
0
  6
Continuous
 62
               7
100
AcDbCircle
 10
-5.3379600000000025
 20
3.1505799905377621
 30
0.0
 40
0.1799982336024443
  0
CIRCLE
  5
192
100
AcDbEntity
  8
None
370
              15
390
0
  6
Continuous
 62
               7
100
AcDbCircle
 10
-6.1379600000000032
 20
3.1505799905377621
 30
0.0
 40
0.1799982336024434
  0
CIRCLE
  5
193
100
AcDbEntity
  8
None
370
              15
390
0
  6
Continuous
 62
               7
100
AcDbCircle
 10
-6.937960000000003
 20
3.1505799905377621
 30
0.0
 40
0.1799982336024434
  0
CIRCLE
  5
194
100
AcDbEntity
  8
None
370
              15
390
0
  6
Continuous
 62
               7
100
AcDbCircle
 10
-7.7379600000000028
 20
3.1505799905377621
 30
0.0
 40
0.1799982336024443
  0
CIRCLE
  5
195
100
AcDbEntity
  8
None
370
              15
390
0
  6
Continuous
 62
               7
100
AcDbCircle
 10
-8.5379600000000018
 20
3.1505799905377621
 30
0.0
 40
0.1799982336024443
  0
CIRCLE
  5
196
100
AcDbEntity
  8
None
370
              15
390
0
  6
Continuous
 62
               7
100
AcDbCircle
 10
-9.3379600000000025
 20
3.1505799905377621
 30
0.0
 40
0.1799982336024443
  0
CIRCLE
  5
197
100
AcDbEntity
  8
None
370
              15
390
0
  6
Continuous
 62
               7
100
AcDbCircle
 10
-10.137960000000003
 20
3.1505799905377621
 30
0.0
 40
0.1799982336024443
  0
CIRCLE
  5
198
100
AcDbEntity
  8
None
370
              15
390
0
  6
Continuous
 62
               7
100
AcDbCircle
 10
-10.937960000000002
 20
3.1505799905377621
 30
0.0
 40
0.1799982336024443
  0
CIRCLE
  5
199
100
AcDbEntity
  8
None
370
              15
390
0
  6
Continuous
 62
               7
100
AcDbCircle
 10
-4.5379600000000035
 20
3.9505799905377619
 30
0.0
 40
0.1799982336024434
  0
CIRCLE
  5
19A
100
AcDbEntity
  8
None
370
              15
390
0
  6
Continuous
 62
               7
100
AcDbCircle
 10
-5.3379600000000025
 20
3.9505799905377619
 30
0.0
 40
0.1799982336024443
  0
CIRCLE
  5
19B
100
AcDbEntity
  8
None
370
              15
390
0
  6
Continuous
 62
               7
100
AcDbCircle
 10
-6.1379600000000032
 20
3.9505799905377619
 30
0.0
 40
0.1799982336024434
  0
CIRCLE
  5
19C
100
AcDbEntity
  8
None
370
              15
390
0
  6
Continuous
 62
               7
100
AcDbCircle
 10
-6.937960000000003
 20
3.9505799905377619
 30
0.0
 40
0.1799982336024434
  0
CIRCLE
  5
19D
100
AcDbEntity
  8
None
370
              15
390
0
  6
Continuous
 62
               7
100
AcDbCircle
 10
-7.7379600000000028
 20
3.9505799905377619
 30
0.0
 40
0.1799982336024443
  0
CIRCLE
  5
19E
100
AcDbEntity
  8
None
370
              15
390
0
  6
Continuous
 62
               7
100
AcDbCircle
 10
-8.5379600000000018
 20
3.9505799905377619
 30
0.0
 40
0.1799982336024443
  0
CIRCLE
  5
19F
100
AcDbEntity
  8
None
370
              15
390
0
  6
Continuous
 62
               7
100
AcDbCircle
 10
-9.3379600000000025
 20
3.9505799905377619
 30
0.0
 40
0.1799982336024443
  0
CIRCLE
  5
1A0
100
AcDbEntity
  8
None
370
              15
390
0
  6
Continuous
 62
               7
100
AcDbCircle
 10
-10.137960000000003
 20
3.9505799905377619
 30
0.0
 40
0.1799982336024443
  0
CIRCLE
  5
1A1
100
AcDbEntity
  8
None
370
              15
390
0
  6
Continuous
 62
               7
100
AcDbCircle
 10
-10.937960000000002
 20
3.9505799905377619
 30
0.0
 40
0.1799982336024443
  0
CIRCLE
  5
1A2
100
AcDbEntity
  8
None
370
              15
390
0
  6
Continuous
 62
               7
100
AcDbCircle
 10
-4.5379600000000035
 20
4.7505799905377621
 30
0.0
 40
0.1799982336024434
  0
CIRCLE
  5
1A3
100
AcDbEntity
  8
None
370
              15
390
0
  6
Continuous
 62
               7
100
AcDbCircle
 10
-5.3379600000000025
 20
4.7505799905377621
 30
0.0
 40
0.1799982336024443
  0
CIRCLE
  5
1A4
100
AcDbEntity
  8
None
370
              15
390
0
  6
Continuous
 62
               7
100
AcDbCircle
 10
-6.1379600000000032
 20
4.7505799905377621
 30
0.0
 40
0.1799982336024434
  0
CIRCLE
  5
1A5
100
AcDbEntity
  8
None
370
              15
390
0
  6
Continuous
 62
               7
100
AcDbCircle
 10
-6.937960000000003
 20
4.7505799905377621
 30
0.0
 40
0.1799982336024434
  0
CIRCLE
  5
1A6
100
AcDbEntity
  8
None
370
              15
390
0
  6
Continuous
 62
               7
100
AcDbCircle
 10
-7.7379600000000028
 20
4.7505799905377621
 30
0.0
 40
0.1799982336024443
  0
CIRCLE
  5
1A7
100
AcDbEntity
  8
None
370
              15
390
0
  6
Continuous
 62
               7
100
AcDbCircle
 10
-8.5379600000000018
 20
4.7505799905377621
 30
0.0
 40
0.1799982336024443
  0
CIRCLE
  5
1A8
100
AcDbEntity
  8
None
370
              15
390
0
  6
Continuous
 62
               7
100
AcDbCircle
 10
-9.3379600000000025
 20
4.7505799905377621
 30
0.0
 40
0.1799982336024443
  0
CIRCLE
  5
1A9
100
AcDbEntity
  8
None
370
              15
390
0
  6
Continuous
 62
               7
100
AcDbCircle
 10
-10.137960000000003
 20
4.7505799905377621
 30
0.0
 40
0.1799982336024443
  0
CIRCLE
  5
1AA
100
AcDbEntity
  8
None
370
              15
390
0
  6
Continuous
 62
               7
100
AcDbCircle
 10
-10.937960000000002
 20
4.7505799905377621
 30
0.0
 40
0.1799982336024443
  0
CIRCLE
  5
1AB
100
AcDbEntity
  8
None
370
              15
390
0
  6
Continuous
 62
               7
100
AcDbCircle
 10
-4.5379600000000035
 20
5.550579990537762
 30
0.0
 40
0.1799982336024434
  0
CIRCLE
  5
1AC
100
AcDbEntity
  8
None
370
              15
390
0
  6
Continuous
 62
               7
100
AcDbCircle
 10
-5.3379600000000025
 20
5.550579990537762
 30
0.0
 40
0.1799982336024443
  0
CIRCLE
  5
1AD
100
AcDbEntity
  8
None
370
              15
390
0
  6
Continuous
 62
               7
100
AcDbCircle
 10
-6.1379600000000032
 20
5.550579990537762
 30
0.0
 40
0.1799982336024434
  0
CIRCLE
  5
1AE
100
AcDbEntity
  8
None
370
              15
390
0
  6
Continuous
 62
               7
100
AcDbCircle
 10
-6.937960000000003
 20
5.550579990537762
 30
0.0
 40
0.1799982336024434
  0
CIRCLE
  5
1AF
100
AcDbEntity
  8
None
370
              15
390
0
  6
Continuous
 62
               7
100
AcDbCircle
 10
-7.7379600000000028
 20
5.550579990537762
 30
0.0
 40
0.1799982336024443
  0
CIRCLE
  5
1B0
100
AcDbEntity
  8
None
370
              15
390
0
  6
Continuous
 62
               7
100
AcDbCircle
 10
-8.5379600000000018
 20
5.550579990537762
 30
0.0
 40
0.1799982336024443
  0
CIRCLE
  5
1B1
100
AcDbEntity
  8
None
370
              15
390
0
  6
Continuous
 62
               7
100
AcDbCircle
 10
-9.3379600000000025
 20
5.550579990537762
 30
0.0
 40
0.1799982336024443
  0
CIRCLE
  5
1B2
100
AcDbEntity
  8
None
370
              15
390
0
  6
Continuous
 62
               7
100
AcDbCircle
 10
-10.137960000000003
 20
5.550579990537762
 30
0.0
 40
0.1799982336024443
  0
CIRCLE
  5
1B3
100
AcDbEntity
  8
None
370
              15
390
0
  6
Continuous
 62
               7
100
AcDbCircle
 10
-10.937960000000002
 20
5.550579990537762
 30
0.0
 40
0.1799982336024443
  0
CIRCLE
  5
1B4
100
AcDbEntity
  8
None
370
              15
390
0
  6
Continuous
 62
               7
100
AcDbCircle
 10
-4.5379600000000035
 20
6.3505799905377618
 30
0.0
 40
0.1799982336024434
  0
CIRCLE
  5
1B5
100
AcDbEntity
  8
None
370
              15
390
0
  6
Continuous
 62
               7
100
AcDbCircle
 10
-5.3379600000000025
 20
6.3505799905377618
 30
0.0
 40
0.1799982336024443
  0
CIRCLE
  5
1B6
100
AcDbEntity
  8
None
370
              15
390
0
  6
Continuous
 62
               7
100
AcDbCircle
 10
-6.1379600000000032
 20
6.3505799905377618
 30
0.0
 40
0.1799982336024434
  0
CIRCLE
  5
1B7
100
AcDbEntity
  8
None
370
              15
390
0
  6
Continuous
 62
               7
100
AcDbCircle
 10
-6.937960000000003
 20
6.3505799905377618
 30
0.0
 40
0.1799982336024434
  0
CIRCLE
  5
1B8
100
AcDbEntity
  8
None
370
              15
390
0
  6
Continuous
 62
               7
100
AcDbCircle
 10
-7.7379600000000028
 20
6.3505799905377618
 30
0.0
 40
0.1799982336024443
  0
CIRCLE
  5
1B9
100
AcDbEntity
  8
None
370
              15
390
0
  6
Continuous
 62
               7
100
AcDbCircle
 10
-8.5379600000000018
 20
6.3505799905377618
 30
0.0
 40
0.1799982336024443
  0
CIRCLE
  5
1BA
100
AcDbEntity
  8
None
370
              15
390
0
  6
Continuous
 62
               7
100
AcDbCircle
 10
-9.3379600000000025
 20
6.3505799905377618
 30
0.0
 40
0.1799982336024443
  0
CIRCLE
  5
1BB
100
AcDbEntity
  8
None
370
              15
390
0
  6
Continuous
 62
               7
100
AcDbCircle
 10
-10.137960000000003
 20
6.3505799905377618
 30
0.0
 40
0.1799982336024443
  0
CIRCLE
  5
1BC
100
AcDbEntity
  8
None
370
              15
390
0
  6
Continuous
 62
               7
100
AcDbCircle
 10
-10.937960000000002
 20
6.3505799905377618
 30
0.0
 40
0.1799982336024443
  0
CIRCLE
  5
1BD
100
AcDbEntity
  8
None
370
              15
390
0
  6
Continuous
 62
               7
100
AcDbCircle
 10
-4.5379600000000035
 20
7.1505799905377616
 30
0.0
 40
0.1799982336024434
  0
CIRCLE
  5
1BE
100
AcDbEntity
  8
None
370
              15
390
0
  6
Continuous
 62
               7
100
AcDbCircle
 10
-5.3379600000000025
 20
7.1505799905377616
 30
0.0
 40
0.1799982336024443
  0
CIRCLE
  5
1BF
100
AcDbEntity
  8
None
370
              15
390
0
  6
Continuous
 62
               7
100
AcDbCircle
 10
-6.1379600000000032
 20
7.1505799905377616
 30
0.0
 40
0.1799982336024434
  0
CIRCLE
  5
1C0
100
AcDbEntity
  8
None
370
              15
390
0
  6
Continuous
 62
               7
100
AcDbCircle
 10
-6.937960000000003
 20
7.1505799905377616
 30
0.0
 40
0.1799982336024434
  0
CIRCLE
  5
1C1
100
AcDbEntity
  8
None
370
              15
390
0
  6
Continuous
 62
               7
100
AcDbCircle
 10
-7.7379600000000028
 20
7.1505799905377616
 30
0.0
 40
0.1799982336024443
  0
CIRCLE
  5
1C2
100
AcDbEntity
  8
None
370
              15
390
0
  6
Continuous
 62
               7
100
AcDbCircle
 10
-8.5379600000000018
 20
7.1505799905377616
 30
0.0
 40
0.1799982336024443
  0
CIRCLE
  5
1C3
100
AcDbEntity
  8
None
370
              15
390
0
  6
Continuous
 62
               7
100
AcDbCircle
 10
-9.3379600000000025
 20
7.1505799905377616
 30
0.0
 40
0.1799982336024443
  0
CIRCLE
  5
1C4
100
AcDbEntity
  8
None
370
              15
390
0
  6
Continuous
 62
               7
100
AcDbCircle
 10
-10.137960000000003
 20
7.1505799905377616
 30
0.0
 40
0.1799982336024443
  0
CIRCLE
  5
1C5
100
AcDbEntity
  8
None
370
              15
390
0
  6
Continuous
 62
               7
100
AcDbCircle
 10
-10.937960000000002
 20
7.1505799905377616
 30
0.0
 40
0.1799982336024443
  0
CIRCLE
  5
1C6
100
AcDbEntity
  8
None
370
              15
390
0
  6
Continuous
 62
               7
100
AcDbCircle
 10
-4.5379600000000035
 20
7.9505799905377614
 30
0.0
 40
0.1799982336024434
  0
CIRCLE
  5
1C7
100
AcDbEntity
  8
None
370
              15
390
0
  6
Continuous
 62
               7
100
AcDbCircle
 10
-5.3379600000000025
 20
7.9505799905377614
 30
0.0
 40
0.1799982336024443
  0
CIRCLE
  5
1C8
100
AcDbEntity
  8
None
370
              15
390
0
  6
Continuous
 62
               7
100
AcDbCircle
 10
-6.1379600000000032
 20
7.9505799905377614
 30
0.0
 40
0.1799982336024434
  0
CIRCLE
  5
1C9
100
AcDbEntity
  8
None
370
              15
390
0
  6
Continuous
 62
               7
100
AcDbCircle
 10
-6.937960000000003
 20
7.9505799905377614
 30
0.0
 40
0.1799982336024434
  0
CIRCLE
  5
1CA
100
AcDbEntity
  8
None
370
              15
390
0
  6
Continuous
 62
               7
100
AcDbCircle
 10
-7.7379600000000028
 20
7.9505799905377614
 30
0.0
 40
0.1799982336024443
  0
CIRCLE
  5
1CB
100
AcDbEntity
  8
None
370
              15
390
0
  6
Continuous
 62
               7
100
AcDbCircle
 10
-8.5379600000000018
 20
7.9505799905377614
 30
0.0
 40
0.1799982336024443
  0
CIRCLE
  5
1CC
100
AcDbEntity
  8
None
370
              15
390
0
  6
Continuous
 62
               7
100
AcDbCircle
 10
-9.3379600000000025
 20
7.9505799905377614
 30
0.0
 40
0.1799982336024443
  0
CIRCLE
  5
1CD
100
AcDbEntity
  8
None
370
              15
390
0
  6
Continuous
 62
               7
100
AcDbCircle
 10
-10.137960000000003
 20
7.9505799905377614
 30
0.0
 40
0.1799982336024443
  0
CIRCLE
  5
1CE
100
AcDbEntity
  8
None
370
              15
390
0
  6
Continuous
 62
               7
100
AcDbCircle
 10
-10.937960000000002
 20
7.9505799905377614
 30
0.0
 40
0.1799982336024443
  0
CIRCLE
  5
1CF
100
AcDbEntity
  8
None
370
              15
390
0
  6
Continuous
 62
               7
100
AcDbCircle
 10
-4.5379600000000035
 20
-0.0494200094622377
 30
0.0
 40
0.1799982336024434
  0
CIRCLE
  5
1D0
100
AcDbEntity
  8
None
370
              15
390
0
  6
Continuous
 62
               7
100
AcDbCircle
 10
-5.3379600000000025
 20
-0.0494200094622377
 30
0.0
 40
0.1799982336024443
  0
CIRCLE
  5
1D1
100
AcDbEntity
  8
None
370
              15
390
0
  6
Continuous
 62
               7
100
AcDbCircle
 10
-6.1379600000000032
 20
-0.0494200094622377
 30
0.0
 40
0.1799982336024434
  0
CIRCLE
  5
1D2
100
AcDbEntity
  8
None
370
              15
390
0
  6
Continuous
 62
               7
100
AcDbCircle
 10
-6.937960000000003
 20
-0.0494200094622377
 30
0.0
 40
0.1799982336024434
  0
CIRCLE
  5
1D3
100
AcDbEntity
  8
None
370
              15
390
0
  6
Continuous
 62
               7
100
AcDbCircle
 10
-7.7379600000000028
 20
-0.0494200094622377
 30
0.0
 40
0.1799982336024443
  0
CIRCLE
  5
1D4
100
AcDbEntity
  8
None
370
              15
390
0
  6
Continuous
 62
               7
100
AcDbCircle
 10
-8.5379600000000018
 20
-0.0494200094622377
 30
0.0
 40
0.1799982336024443
  0
CIRCLE
  5
1D5
100
AcDbEntity
  8
None
370
              15
390
0
  6
Continuous
 62
               7
100
AcDbCircle
 10
-9.3379600000000025
 20
-0.0494200094622377
 30
0.0
 40
0.1799982336024443
  0
CIRCLE
  5
1D6
100
AcDbEntity
  8
None
370
              15
390
0
  6
Continuous
 62
               7
100
AcDbCircle
 10
-10.137960000000003
 20
-0.0494200094622377
 30
0.0
 40
0.1799982336024443
  0
CIRCLE
  5
1D7
100
AcDbEntity
  8
None
370
              15
390
0
  6
Continuous
 62
               7
100
AcDbCircle
 10
-10.937960000000002
 20
-0.0494200094622377
 30
0.0
 40
0.1799982336024443
  0
CIRCLE
  5
1D8
100
AcDbEntity
  8
None
370
              15
390
0
  6
Continuous
 62
               7
100
AcDbCircle
 10
-4.5379600000000035
 20
-0.8494200094622375
 30
0.0
 40
0.1799982336024434
  0
CIRCLE
  5
1D9
100
AcDbEntity
  8
None
370
              15
390
0
  6
Continuous
 62
               7
100
AcDbCircle
 10
-5.3379600000000025
 20
-0.8494200094622375
 30
0.0
 40
0.1799982336024442
  0
CIRCLE
  5
1DA
100
AcDbEntity
  8
None
370
              15
390
0
  6
Continuous
 62
               7
100
AcDbCircle
 10
-6.1379600000000032
 20
-0.8494200094622375
 30
0.0
 40
0.1799982336024434
  0
CIRCLE
  5
1DB
100
AcDbEntity
  8
None
370
              15
390
0
  6
Continuous
 62
               7
100
AcDbCircle
 10
-6.937960000000003
 20
-0.8494200094622375
 30
0.0
 40
0.1799982336024434
  0
CIRCLE
  5
1DC
100
AcDbEntity
  8
None
370
              15
390
0
  6
Continuous
 62
               7
100
AcDbCircle
 10
-7.7379600000000028
 20
-0.8494200094622375
 30
0.0
 40
0.1799982336024442
  0
CIRCLE
  5
1DD
100
AcDbEntity
  8
None
370
              15
390
0
  6
Continuous
 62
               7
100
AcDbCircle
 10
-8.5379600000000018
 20
-0.8494200094622375
 30
0.0
 40
0.1799982336024442
  0
CIRCLE
  5
1DE
100
AcDbEntity
  8
None
370
              15
390
0
  6
Continuous
 62
               7
100
AcDbCircle
 10
-9.3379600000000025
 20
-0.8494200094622375
 30
0.0
 40
0.1799982336024442
  0
CIRCLE
  5
1DF
100
AcDbEntity
  8
None
370
              15
390
0
  6
Continuous
 62
               7
100
AcDbCircle
 10
-10.137960000000003
 20
-0.8494200094622375
 30
0.0
 40
0.1799982336024442
  0
CIRCLE
  5
1E0
100
AcDbEntity
  8
None
370
              15
390
0
  6
Continuous
 62
               7
100
AcDbCircle
 10
-10.937960000000002
 20
-0.8494200094622375
 30
0.0
 40
0.1799982336024442
  0
CIRCLE
  5
1E1
100
AcDbEntity
  8
None
370
              15
390
0
  6
Continuous
 62
               7
100
AcDbCircle
 10
-4.5379600000000035
 20
-1.6494200094622375
 30
0.0
 40
0.1799982336024434
  0
CIRCLE
  5
1E2
100
AcDbEntity
  8
None
370
              15
390
0
  6
Continuous
 62
               7
100
AcDbCircle
 10
-5.3379600000000025
 20
-1.6494200094622375
 30
0.0
 40
0.1799982336024443
  0
CIRCLE
  5
1E3
100
AcDbEntity
  8
None
370
              15
390
0
  6
Continuous
 62
               7
100
AcDbCircle
 10
-6.1379600000000032
 20
-1.6494200094622375
 30
0.0
 40
0.1799982336024434
  0
CIRCLE
  5
1E4
100
AcDbEntity
  8
None
370
              15
390
0
  6
Continuous
 62
               7
100
AcDbCircle
 10
-6.937960000000003
 20
-1.6494200094622375
 30
0.0
 40
0.1799982336024434
  0
CIRCLE
  5
1E5
100
AcDbEntity
  8
None
370
              15
390
0
  6
Continuous
 62
               7
100
AcDbCircle
 10
-7.7379600000000028
 20
-1.6494200094622375
 30
0.0
 40
0.1799982336024443
  0
CIRCLE
  5
1E6
100
AcDbEntity
  8
None
370
              15
390
0
  6
Continuous
 62
               7
100
AcDbCircle
 10
-8.5379600000000018
 20
-1.6494200094622375
 30
0.0
 40
0.1799982336024443
  0
CIRCLE
  5
1E7
100
AcDbEntity
  8
None
370
              15
390
0
  6
Continuous
 62
               7
100
AcDbCircle
 10
-9.3379600000000025
 20
-1.6494200094622375
 30
0.0
 40
0.1799982336024443
  0
CIRCLE
  5
1E8
100
AcDbEntity
  8
None
370
              15
390
0
  6
Continuous
 62
               7
100
AcDbCircle
 10
-10.137960000000003
 20
-1.6494200094622375
 30
0.0
 40
0.1799982336024443
  0
CIRCLE
  5
1E9
100
AcDbEntity
  8
None
370
              15
390
0
  6
Continuous
 62
               7
100
AcDbCircle
 10
-10.937960000000002
 20
-1.6494200094622375
 30
0.0
 40
0.1799982336024443
  0
CIRCLE
  5
1EA
100
AcDbEntity
  8
None
370
              15
390
0
  6
Continuous
 62
               7
100
AcDbCircle
 10
-4.5379600000000035
 20
-2.4494200094622376
 30
0.0
 40
0.1799982336024434
  0
CIRCLE
  5
1EB
100
AcDbEntity
  8
None
370
              15
390
0
  6
Continuous
 62
               7
100
AcDbCircle
 10
-5.3379600000000025
 20
-2.4494200094622376
 30
0.0
 40
0.1799982336024443
  0
CIRCLE
  5
1EC
100
AcDbEntity
  8
None
370
              15
390
0
  6
Continuous
 62
               7
100
AcDbCircle
 10
-6.1379600000000032
 20
-2.4494200094622376
 30
0.0
 40
0.1799982336024434
  0
CIRCLE
  5
1ED
100
AcDbEntity
  8
None
370
              15
390
0
  6
Continuous
 62
               7
100
AcDbCircle
 10
-6.937960000000003
 20
-2.4494200094622376
 30
0.0
 40
0.1799982336024434
  0
CIRCLE
  5
1EE
100
AcDbEntity
  8
None
370
              15
390
0
  6
Continuous
 62
               7
100
AcDbCircle
 10
-7.7379600000000028
 20
-2.4494200094622376
 30
0.0
 40
0.1799982336024443
  0
CIRCLE
  5
1EF
100
AcDbEntity
  8
None
370
              15
390
0
  6
Continuous
 62
               7
100
AcDbCircle
 10
-8.5379600000000018
 20
-2.4494200094622376
 30
0.0
 40
0.1799982336024443
  0
CIRCLE
  5
1F0
100
AcDbEntity
  8
None
370
              15
390
0
  6
Continuous
 62
               7
100
AcDbCircle
 10
-9.3379600000000025
 20
-2.4494200094622376
 30
0.0
 40
0.1799982336024443
  0
CIRCLE
  5
1F1
100
AcDbEntity
  8
None
370
              15
390
0
  6
Continuous
 62
               7
100
AcDbCircle
 10
-10.137960000000003
 20
-2.4494200094622376
 30
0.0
 40
0.1799982336024443
  0
CIRCLE
  5
1F2
100
AcDbEntity
  8
None
370
              15
390
0
  6
Continuous
 62
               7
100
AcDbCircle
 10
-10.937960000000002
 20
-2.4494200094622376
 30
0.0
 40
0.1799982336024443
  0
CIRCLE
  5
1F3
100
AcDbEntity
  8
None
370
              15
390
0
  6
Continuous
 62
               7
100
AcDbCircle
 10
-4.5379600000000035
 20
-3.2494200094622374
 30
0.0
 40
0.1799982336024434
  0
CIRCLE
  5
1F4
100
AcDbEntity
  8
None
370
              15
390
0
  6
Continuous
 62
               7
100
AcDbCircle
 10
-5.3379600000000025
 20
-3.2494200094622374
 30
0.0
 40
0.1799982336024443
  0
CIRCLE
  5
1F5
100
AcDbEntity
  8
None
370
              15
390
0
  6
Continuous
 62
               7
100
AcDbCircle
 10
-6.1379600000000032
 20
-3.2494200094622374
 30
0.0
 40
0.1799982336024434
  0
CIRCLE
  5
1F6
100
AcDbEntity
  8
None
370
              15
390
0
  6
Continuous
 62
               7
100
AcDbCircle
 10
-6.937960000000003
 20
-3.2494200094622374
 30
0.0
 40
0.1799982336024434
  0
CIRCLE
  5
1F7
100
AcDbEntity
  8
None
370
              15
390
0
  6
Continuous
 62
               7
100
AcDbCircle
 10
-7.7379600000000028
 20
-3.2494200094622374
 30
0.0
 40
0.1799982336024443
  0
CIRCLE
  5
1F8
100
AcDbEntity
  8
None
370
              15
390
0
  6
Continuous
 62
               7
100
AcDbCircle
 10
-8.5379600000000018
 20
-3.2494200094622374
 30
0.0
 40
0.1799982336024443
  0
CIRCLE
  5
1F9
100
AcDbEntity
  8
None
370
              15
390
0
  6
Continuous
 62
               7
100
AcDbCircle
 10
-9.3379600000000025
 20
-3.2494200094622374
 30
0.0
 40
0.1799982336024443
  0
CIRCLE
  5
1FA
100
AcDbEntity
  8
None
370
              15
390
0
  6
Continuous
 62
               7
100
AcDbCircle
 10
-10.137960000000003
 20
-3.2494200094622374
 30
0.0
 40
0.1799982336024443
  0
CIRCLE
  5
1FB
100
AcDbEntity
  8
None
370
              15
390
0
  6
Continuous
 62
               7
100
AcDbCircle
 10
-10.937960000000002
 20
-3.2494200094622374
 30
0.0
 40
0.1799982336024443
  0
CIRCLE
  5
1FC
100
AcDbEntity
  8
None
370
              15
390
0
  6
Continuous
 62
               7
100
AcDbCircle
 10
-4.5379600000000035
 20
-4.0494200094622377
 30
0.0
 40
0.1799982336024434
  0
CIRCLE
  5
1FD
100
AcDbEntity
  8
None
370
              15
390
0
  6
Continuous
 62
               7
100
AcDbCircle
 10
-5.3379600000000025
 20
-4.0494200094622377
 30
0.0
 40
0.1799982336024443
  0
CIRCLE
  5
1FE
100
AcDbEntity
  8
None
370
              15
390
0
  6
Continuous
 62
               7
100
AcDbCircle
 10
-6.1379600000000032
 20
-4.0494200094622377
 30
0.0
 40
0.1799982336024434
  0
CIRCLE
  5
1FF
100
AcDbEntity
  8
None
370
              15
390
0
  6
Continuous
 62
               7
100
AcDbCircle
 10
-6.937960000000003
 20
-4.0494200094622377
 30
0.0
 40
0.1799982336024434
  0
CIRCLE
  5
200
100
AcDbEntity
  8
None
370
              15
390
0
  6
Continuous
 62
               7
100
AcDbCircle
 10
-7.7379600000000028
 20
-4.0494200094622377
 30
0.0
 40
0.1799982336024443
  0
CIRCLE
  5
201
100
AcDbEntity
  8
None
370
              15
390
0
  6
Continuous
 62
               7
100
AcDbCircle
 10
-8.5379600000000018
 20
-4.0494200094622377
 30
0.0
 40
0.1799982336024443
  0
CIRCLE
  5
202
100
AcDbEntity
  8
None
370
              15
390
0
  6
Continuous
 62
               7
100
AcDbCircle
 10
-9.3379600000000025
 20
-4.0494200094622377
 30
0.0
 40
0.1799982336024443
  0
CIRCLE
  5
203
100
AcDbEntity
  8
None
370
              15
390
0
  6
Continuous
 62
               7
100
AcDbCircle
 10
-10.137960000000003
 20
-4.0494200094622377
 30
0.0
 40
0.1799982336024443
  0
CIRCLE
  5
204
100
AcDbEntity
  8
None
370
              15
390
0
  6
Continuous
 62
               7
100
AcDbCircle
 10
-10.937960000000002
 20
-4.0494200094622377
 30
0.0
 40
0.1799982336024443
  0
CIRCLE
  5
205
100
AcDbEntity
  8
None
370
              15
390
0
  6
Continuous
 62
               7
100
AcDbCircle
 10
-4.5379600000000035
 20
-4.8494200094622375
 30
0.0
 40
0.1799982336024434
  0
CIRCLE
  5
206
100
AcDbEntity
  8
None
370
              15
390
0
  6
Continuous
 62
               7
100
AcDbCircle
 10
-5.3379600000000025
 20
-4.8494200094622375
 30
0.0
 40
0.1799982336024443
  0
CIRCLE
  5
207
100
AcDbEntity
  8
None
370
              15
390
0
  6
Continuous
 62
               7
100
AcDbCircle
 10
-6.1379600000000032
 20
-4.8494200094622375
 30
0.0
 40
0.1799982336024434
  0
CIRCLE
  5
208
100
AcDbEntity
  8
None
370
              15
390
0
  6
Continuous
 62
               7
100
AcDbCircle
 10
-6.937960000000003
 20
-4.8494200094622375
 30
0.0
 40
0.1799982336024434
  0
CIRCLE
  5
209
100
AcDbEntity
  8
None
370
              15
390
0
  6
Continuous
 62
               7
100
AcDbCircle
 10
-7.7379600000000028
 20
-4.8494200094622375
 30
0.0
 40
0.1799982336024443
  0
CIRCLE
  5
20A
100
AcDbEntity
  8
None
370
              15
390
0
  6
Continuous
 62
               7
100
AcDbCircle
 10
-8.5379600000000018
 20
-4.8494200094622375
 30
0.0
 40
0.1799982336024443
  0
CIRCLE
  5
20B
100
AcDbEntity
  8
None
370
              15
390
0
  6
Continuous
 62
               7
100
AcDbCircle
 10
-9.3379600000000025
 20
-4.8494200094622375
 30
0.0
 40
0.1799982336024443
  0
CIRCLE
  5
20C
100
AcDbEntity
  8
None
370
              15
390
0
  6
Continuous
 62
               7
100
AcDbCircle
 10
-10.137960000000003
 20
-4.8494200094622375
 30
0.0
 40
0.1799982336024443
  0
CIRCLE
  5
20D
100
AcDbEntity
  8
None
370
              15
390
0
  6
Continuous
 62
               7
100
AcDbCircle
 10
-10.937960000000002
 20
-4.8494200094622375
 30
0.0
 40
0.1799982336024443
  0
CIRCLE
  5
20E
100
AcDbEntity
  8
None
370
              15
390
0
  6
Continuous
 62
               7
100
AcDbCircle
 10
-4.5379600000000035
 20
-5.6494200094622373
 30
0.0
 40
0.1799982336024434
  0
CIRCLE
  5
20F
100
AcDbEntity
  8
None
370
              15
390
0
  6
Continuous
 62
               7
100
AcDbCircle
 10
-5.3379600000000025
 20
-5.6494200094622373
 30
0.0
 40
0.1799982336024443
  0
CIRCLE
  5
210
100
AcDbEntity
  8
None
370
              15
390
0
  6
Continuous
 62
               7
100
AcDbCircle
 10
-6.1379600000000032
 20
-5.6494200094622373
 30
0.0
 40
0.1799982336024434
  0
CIRCLE
  5
211
100
AcDbEntity
  8
None
370
              15
390
0
  6
Continuous
 62
               7
100
AcDbCircle
 10
-6.937960000000003
 20
-5.6494200094622373
 30
0.0
 40
0.1799982336024434
  0
CIRCLE
  5
212
100
AcDbEntity
  8
None
370
              15
390
0
  6
Continuous
 62
               7
100
AcDbCircle
 10
-7.7379600000000028
 20
-5.6494200094622373
 30
0.0
 40
0.1799982336024443
  0
CIRCLE
  5
213
100
AcDbEntity
  8
None
370
              15
390
0
  6
Continuous
 62
               7
100
AcDbCircle
 10
-8.5379600000000018
 20
-5.6494200094622373
 30
0.0
 40
0.1799982336024443
  0
CIRCLE
  5
214
100
AcDbEntity
  8
None
370
              15
390
0
  6
Continuous
 62
               7
100
AcDbCircle
 10
-9.3379600000000025
 20
-5.6494200094622373
 30
0.0
 40
0.1799982336024443
  0
CIRCLE
  5
215
100
AcDbEntity
  8
None
370
              15
390
0
  6
Continuous
 62
               7
100
AcDbCircle
 10
-10.137960000000003
 20
-5.6494200094622373
 30
0.0
 40
0.1799982336024443
  0
CIRCLE
  5
216
100
AcDbEntity
  8
None
370
              15
390
0
  6
Continuous
 62
               7
100
AcDbCircle
 10
-10.937960000000002
 20
-5.6494200094622373
 30
0.0
 40
0.1799982336024443
  0
CIRCLE
  5
217
100
AcDbEntity
  8
None
370
              15
390
0
  6
Continuous
 62
               7
100
AcDbCircle
 10
-4.5379600000000035
 20
-6.4494200094622371
 30
0.0
 40
0.1799982336024434
  0
CIRCLE
  5
218
100
AcDbEntity
  8
None
370
              15
390
0
  6
Continuous
 62
               7
100
AcDbCircle
 10
-5.3379600000000025
 20
-6.4494200094622371
 30
0.0
 40
0.1799982336024443
  0
CIRCLE
  5
219
100
AcDbEntity
  8
None
370
              15
390
0
  6
Continuous
 62
               7
100
AcDbCircle
 10
-6.1379600000000032
 20
-6.4494200094622371
 30
0.0
 40
0.1799982336024434
  0
CIRCLE
  5
21A
100
AcDbEntity
  8
None
370
              15
390
0
  6
Continuous
 62
               7
100
AcDbCircle
 10
-6.937960000000003
 20
-6.4494200094622371
 30
0.0
 40
0.1799982336024434
  0
CIRCLE
  5
21B
100
AcDbEntity
  8
None
370
              15
390
0
  6
Continuous
 62
               7
100
AcDbCircle
 10
-7.7379600000000028
 20
-6.4494200094622371
 30
0.0
 40
0.1799982336024443
  0
CIRCLE
  5
21C
100
AcDbEntity
  8
None
370
              15
390
0
  6
Continuous
 62
               7
100
AcDbCircle
 10
-8.5379600000000018
 20
-6.4494200094622371
 30
0.0
 40
0.1799982336024443
  0
CIRCLE
  5
21D
100
AcDbEntity
  8
None
370
              15
390
0
  6
Continuous
 62
               7
100
AcDbCircle
 10
-9.3379600000000025
 20
-6.4494200094622371
 30
0.0
 40
0.1799982336024443
  0
CIRCLE
  5
21E
100
AcDbEntity
  8
None
370
              15
390
0
  6
Continuous
 62
               7
100
AcDbCircle
 10
-10.137960000000003
 20
-6.4494200094622371
 30
0.0
 40
0.1799982336024443
  0
CIRCLE
  5
21F
100
AcDbEntity
  8
None
370
              15
390
0
  6
Continuous
 62
               7
100
AcDbCircle
 10
-10.937960000000002
 20
-6.4494200094622371
 30
0.0
 40
0.1799982336024443
  0
CIRCLE
  5
220
100
AcDbEntity
  8
None
370
              15
390
0
  6
Continuous
 62
               7
100
AcDbCircle
 10
-2.937960000000003
 20
-0.0494200094622377
 30
0.0
 40
0.1799982336024434
  0
CIRCLE
  5
221
100
AcDbEntity
  8
None
370
              15
390
0
  6
Continuous
 62
               7
100
AcDbCircle
 10
-2.1379600000000032
 20
-0.0494200094622377
 30
0.0
 40
0.1799982336024443
  0
CIRCLE
  5
222
100
AcDbEntity
  8
None
370
              15
390
0
  6
Continuous
 62
               7
100
AcDbCircle
 10
-1.3379600000000034
 20
-0.0494200094622377
 30
0.0
 40
0.1799982336024443
  0
CIRCLE
  5
223
100
AcDbEntity
  8
None
370
              15
390
0
  6
Continuous
 62
               7
100
AcDbCircle
 10
-0.5379600000000036
 20
-0.0494200094622377
 30
0.0
 40
0.1799982336024443
  0
CIRCLE
  5
224
100
AcDbEntity
  8
None
370
              15
390
0
  6
Continuous
 62
               7
100
AcDbCircle
 10
0.2620399999999963
 20
-0.0494200094622377
 30
0.0
 40
0.1799982336024443
  0
CIRCLE
  5
225
100
AcDbEntity
  8
None
370
              15
390
0
  6
Continuous
 62
               7
100
AcDbCircle
 10
1.062039999999997
 20
-0.0494200094622377
 30
0.0
 40
0.1799982336024443
  0
CIRCLE
  5
226
100
AcDbEntity
  8
None
370
              15
390
0
  6
Continuous
 62
               7
100
AcDbCircle
 10
1.8620399999999959
 20
-0.0494200094622377
 30
0.0
 40
0.1799982336024443
  0
CIRCLE
  5
227
100
AcDbEntity
  8
None
370
              15
390
0
  6
Continuous
 62
               7
100
AcDbCircle
 10
2.6620399999999966
 20
-0.0494200094622377
 30
0.0
 40
0.1799982336024443
  0
CIRCLE
  5
228
100
AcDbEntity
  8
None
370
              15
390
0
  6
Continuous
 62
               7
100
AcDbCircle
 10
3.4620399999999956
 20
-0.0494200094622377
 30
0.0
 40
0.1799982336024443
  0
CIRCLE
  5
229
100
AcDbEntity
  8
None
370
              15
390
0
  6
Continuous
 62
               7
100
AcDbCircle
 10
-2.937960000000003
 20
-0.8494200094622375
 30
0.0
 40
0.1799982336024434
  0
CIRCLE
  5
22A
100
AcDbEntity
  8
None
370
              15
390
0
  6
Continuous
 62
               7
100
AcDbCircle
 10
-2.1379600000000032
 20
-0.8494200094622375
 30
0.0
 40
0.1799982336024442
  0
CIRCLE
  5
22B
100
AcDbEntity
  8
None
370
              15
390
0
  6
Continuous
 62
               7
100
AcDbCircle
 10
-1.3379600000000034
 20
-0.8494200094622375
 30
0.0
 40
0.1799982336024442
  0
CIRCLE
  5
22C
100
AcDbEntity
  8
None
370
              15
390
0
  6
Continuous
 62
               7
100
AcDbCircle
 10
-0.5379600000000036
 20
-0.8494200094622375
 30
0.0
 40
0.1799982336024442
  0
CIRCLE
  5
22D
100
AcDbEntity
  8
None
370
              15
390
0
  6
Continuous
 62
               7
100
AcDbCircle
 10
0.2620399999999963
 20
-0.8494200094622375
 30
0.0
 40
0.1799982336024442
  0
CIRCLE
  5
22E
100
AcDbEntity
  8
None
370
              15
390
0
  6
Continuous
 62
               7
100
AcDbCircle
 10
1.062039999999997
 20
-0.8494200094622375
 30
0.0
 40
0.1799982336024442
  0
CIRCLE
  5
22F
100
AcDbEntity
  8
None
370
              15
390
0
  6
Continuous
 62
               7
100
AcDbCircle
 10
1.8620399999999959
 20
-0.8494200094622375
 30
0.0
 40
0.1799982336024442
  0
CIRCLE
  5
230
100
AcDbEntity
  8
None
370
              15
390
0
  6
Continuous
 62
               7
100
AcDbCircle
 10
2.6620399999999966
 20
-0.8494200094622375
 30
0.0
 40
0.1799982336024442
  0
CIRCLE
  5
231
100
AcDbEntity
  8
None
370
              15
390
0
  6
Continuous
 62
               7
100
AcDbCircle
 10
3.4620399999999956
 20
-0.8494200094622375
 30
0.0
 40
0.1799982336024442
  0
CIRCLE
  5
232
100
AcDbEntity
  8
None
370
              15
390
0
  6
Continuous
 62
               7
100
AcDbCircle
 10
-2.937960000000003
 20
-1.6494200094622375
 30
0.0
 40
0.1799982336024434
  0
CIRCLE
  5
233
100
AcDbEntity
  8
None
370
              15
390
0
  6
Continuous
 62
               7
100
AcDbCircle
 10
-2.1379600000000032
 20
-1.6494200094622375
 30
0.0
 40
0.1799982336024443
  0
CIRCLE
  5
234
100
AcDbEntity
  8
None
370
              15
390
0
  6
Continuous
 62
               7
100
AcDbCircle
 10
-1.3379600000000034
 20
-1.6494200094622375
 30
0.0
 40
0.1799982336024443
  0
CIRCLE
  5
235
100
AcDbEntity
  8
None
370
              15
390
0
  6
Continuous
 62
               7
100
AcDbCircle
 10
-0.5379600000000036
 20
-1.6494200094622375
 30
0.0
 40
0.1799982336024443
  0
CIRCLE
  5
236
100
AcDbEntity
  8
None
370
              15
390
0
  6
Continuous
 62
               7
100
AcDbCircle
 10
0.2620399999999963
 20
-1.6494200094622375
 30
0.0
 40
0.1799982336024443
  0
CIRCLE
  5
237
100
AcDbEntity
  8
None
370
              15
390
0
  6
Continuous
 62
               7
100
AcDbCircle
 10
1.062039999999997
 20
-1.6494200094622375
 30
0.0
 40
0.1799982336024443
  0
CIRCLE
  5
238
100
AcDbEntity
  8
None
370
              15
390
0
  6
Continuous
 62
               7
100
AcDbCircle
 10
1.8620399999999959
 20
-1.6494200094622375
 30
0.0
 40
0.1799982336024443
  0
CIRCLE
  5
239
100
AcDbEntity
  8
None
370
              15
390
0
  6
Continuous
 62
               7
100
AcDbCircle
 10
2.6620399999999966
 20
-1.6494200094622375
 30
0.0
 40
0.1799982336024443
  0
CIRCLE
  5
23A
100
AcDbEntity
  8
None
370
              15
390
0
  6
Continuous
 62
               7
100
AcDbCircle
 10
3.4620399999999956
 20
-1.6494200094622375
 30
0.0
 40
0.1799982336024443
  0
CIRCLE
  5
23B
100
AcDbEntity
  8
None
370
              15
390
0
  6
Continuous
 62
               7
100
AcDbCircle
 10
-2.937960000000003
 20
-2.4494200094622376
 30
0.0
 40
0.1799982336024434
  0
CIRCLE
  5
23C
100
AcDbEntity
  8
None
370
              15
390
0
  6
Continuous
 62
               7
100
AcDbCircle
 10
-2.1379600000000032
 20
-2.4494200094622376
 30
0.0
 40
0.1799982336024443
  0
CIRCLE
  5
23D
100
AcDbEntity
  8
None
370
              15
390
0
  6
Continuous
 62
               7
100
AcDbCircle
 10
-1.3379600000000034
 20
-2.4494200094622376
 30
0.0
 40
0.1799982336024443
  0
CIRCLE
  5
23E
100
AcDbEntity
  8
None
370
              15
390
0
  6
Continuous
 62
               7
100
AcDbCircle
 10
-0.5379600000000036
 20
-2.4494200094622376
 30
0.0
 40
0.1799982336024443
  0
CIRCLE
  5
23F
100
AcDbEntity
  8
None
370
              15
390
0
  6
Continuous
 62
               7
100
AcDbCircle
 10
0.2620399999999963
 20
-2.4494200094622376
 30
0.0
 40
0.1799982336024443
  0
CIRCLE
  5
240
100
AcDbEntity
  8
None
370
              15
390
0
  6
Continuous
 62
               7
100
AcDbCircle
 10
1.062039999999997
 20
-2.4494200094622376
 30
0.0
 40
0.1799982336024443
  0
CIRCLE
  5
241
100
AcDbEntity
  8
None
370
              15
390
0
  6
Continuous
 62
               7
100
AcDbCircle
 10
1.8620399999999959
 20
-2.4494200094622376
 30
0.0
 40
0.1799982336024443
  0
CIRCLE
  5
242
100
AcDbEntity
  8
None
370
              15
390
0
  6
Continuous
 62
               7
100
AcDbCircle
 10
2.6620399999999966
 20
-2.4494200094622376
 30
0.0
 40
0.1799982336024443
  0
CIRCLE
  5
243
100
AcDbEntity
  8
None
370
              15
390
0
  6
Continuous
 62
               7
100
AcDbCircle
 10
3.4620399999999956
 20
-2.4494200094622376
 30
0.0
 40
0.1799982336024443
  0
CIRCLE
  5
244
100
AcDbEntity
  8
None
370
              15
390
0
  6
Continuous
 62
               7
100
AcDbCircle
 10
-2.937960000000003
 20
-3.2494200094622374
 30
0.0
 40
0.1799982336024434
  0
CIRCLE
  5
245
100
AcDbEntity
  8
None
370
              15
390
0
  6
Continuous
 62
               7
100
AcDbCircle
 10
-2.1379600000000032
 20
-3.2494200094622374
 30
0.0
 40
0.1799982336024443
  0
CIRCLE
  5
246
100
AcDbEntity
  8
None
370
              15
390
0
  6
Continuous
 62
               7
100
AcDbCircle
 10
-1.3379600000000034
 20
-3.2494200094622374
 30
0.0
 40
0.1799982336024443
  0
CIRCLE
  5
247
100
AcDbEntity
  8
None
370
              15
390
0
  6
Continuous
 62
               7
100
AcDbCircle
 10
-0.5379600000000036
 20
-3.2494200094622374
 30
0.0
 40
0.1799982336024443
  0
CIRCLE
  5
248
100
AcDbEntity
  8
None
370
              15
390
0
  6
Continuous
 62
               7
100
AcDbCircle
 10
0.2620399999999963
 20
-3.2494200094622374
 30
0.0
 40
0.1799982336024443
  0
CIRCLE
  5
249
100
AcDbEntity
  8
None
370
              15
390
0
  6
Continuous
 62
               7
100
AcDbCircle
 10
1.062039999999997
 20
-3.2494200094622374
 30
0.0
 40
0.1799982336024443
  0
CIRCLE
  5
24A
100
AcDbEntity
  8
None
370
              15
390
0
  6
Continuous
 62
               7
100
AcDbCircle
 10
1.8620399999999959
 20
-3.2494200094622374
 30
0.0
 40
0.1799982336024443
  0
CIRCLE
  5
24B
100
AcDbEntity
  8
None
370
              15
390
0
  6
Continuous
 62
               7
100
AcDbCircle
 10
2.6620399999999966
 20
-3.2494200094622374
 30
0.0
 40
0.1799982336024443
  0
CIRCLE
  5
24C
100
AcDbEntity
  8
None
370
              15
390
0
  6
Continuous
 62
               7
100
AcDbCircle
 10
3.4620399999999956
 20
-3.2494200094622374
 30
0.0
 40
0.1799982336024443
  0
CIRCLE
  5
24D
100
AcDbEntity
  8
None
370
              15
390
0
  6
Continuous
 62
               7
100
AcDbCircle
 10
-2.937960000000003
 20
-4.0494200094622377
 30
0.0
 40
0.1799982336024434
  0
CIRCLE
  5
24E
100
AcDbEntity
  8
None
370
              15
390
0
  6
Continuous
 62
               7
100
AcDbCircle
 10
-2.1379600000000032
 20
-4.0494200094622377
 30
0.0
 40
0.1799982336024443
  0
CIRCLE
  5
24F
100
AcDbEntity
  8
None
370
              15
390
0
  6
Continuous
 62
               7
100
AcDbCircle
 10
-1.3379600000000034
 20
-4.0494200094622377
 30
0.0
 40
0.1799982336024443
  0
CIRCLE
  5
250
100
AcDbEntity
  8
None
370
              15
390
0
  6
Continuous
 62
               7
100
AcDbCircle
 10
-0.5379600000000036
 20
-4.0494200094622377
 30
0.0
 40
0.1799982336024443
  0
CIRCLE
  5
251
100
AcDbEntity
  8
None
370
              15
390
0
  6
Continuous
 62
               7
100
AcDbCircle
 10
0.2620399999999963
 20
-4.0494200094622377
 30
0.0
 40
0.1799982336024443
  0
CIRCLE
  5
252
100
AcDbEntity
  8
None
370
              15
390
0
  6
Continuous
 62
               7
100
AcDbCircle
 10
1.062039999999997
 20
-4.0494200094622377
 30
0.0
 40
0.1799982336024443
  0
CIRCLE
  5
253
100
AcDbEntity
  8
None
370
              15
390
0
  6
Continuous
 62
               7
100
AcDbCircle
 10
1.8620399999999959
 20
-4.0494200094622377
 30
0.0
 40
0.1799982336024443
  0
CIRCLE
  5
254
100
AcDbEntity
  8
None
370
              15
390
0
  6
Continuous
 62
               7
100
AcDbCircle
 10
2.6620399999999966
 20
-4.0494200094622377
 30
0.0
 40
0.1799982336024443
  0
CIRCLE
  5
255
100
AcDbEntity
  8
None
370
              15
390
0
  6
Continuous
 62
               7
100
AcDbCircle
 10
3.4620399999999956
 20
-4.0494200094622377
 30
0.0
 40
0.1799982336024443
  0
CIRCLE
  5
256
100
AcDbEntity
  8
None
370
              15
390
0
  6
Continuous
 62
               7
100
AcDbCircle
 10
-2.937960000000003
 20
-4.8494200094622375
 30
0.0
 40
0.1799982336024434
  0
CIRCLE
  5
257
100
AcDbEntity
  8
None
370
              15
390
0
  6
Continuous
 62
               7
100
AcDbCircle
 10
-2.1379600000000032
 20
-4.8494200094622375
 30
0.0
 40
0.1799982336024443
  0
CIRCLE
  5
258
100
AcDbEntity
  8
None
370
              15
390
0
  6
Continuous
 62
               7
100
AcDbCircle
 10
-1.3379600000000034
 20
-4.8494200094622375
 30
0.0
 40
0.1799982336024443
  0
CIRCLE
  5
259
100
AcDbEntity
  8
None
370
              15
390
0
  6
Continuous
 62
               7
100
AcDbCircle
 10
-0.5379600000000036
 20
-4.8494200094622375
 30
0.0
 40
0.1799982336024443
  0
CIRCLE
  5
25A
100
AcDbEntity
  8
None
370
              15
390
0
  6
Continuous
 62
               7
100
AcDbCircle
 10
0.2620399999999963
 20
-4.8494200094622375
 30
0.0
 40
0.1799982336024443
  0
CIRCLE
  5
25B
100
AcDbEntity
  8
None
370
              15
390
0
  6
Continuous
 62
               7
100
AcDbCircle
 10
1.062039999999997
 20
-4.8494200094622375
 30
0.0
 40
0.1799982336024443
  0
CIRCLE
  5
25C
100
AcDbEntity
  8
None
370
              15
390
0
  6
Continuous
 62
               7
100
AcDbCircle
 10
1.8620399999999959
 20
-4.8494200094622375
 30
0.0
 40
0.1799982336024443
  0
CIRCLE
  5
25D
100
AcDbEntity
  8
None
370
              15
390
0
  6
Continuous
 62
               7
100
AcDbCircle
 10
2.6620399999999966
 20
-4.8494200094622375
 30
0.0
 40
0.1799982336024443
  0
CIRCLE
  5
25E
100
AcDbEntity
  8
None
370
              15
390
0
  6
Continuous
 62
               7
100
AcDbCircle
 10
3.4620399999999956
 20
-4.8494200094622375
 30
0.0
 40
0.1799982336024443
  0
CIRCLE
  5
25F
100
AcDbEntity
  8
None
370
              15
390
0
  6
Continuous
 62
               7
100
AcDbCircle
 10
-2.937960000000003
 20
-5.6494200094622373
 30
0.0
 40
0.1799982336024434
  0
CIRCLE
  5
260
100
AcDbEntity
  8
None
370
              15
390
0
  6
Continuous
 62
               7
100
AcDbCircle
 10
-2.1379600000000032
 20
-5.6494200094622373
 30
0.0
 40
0.1799982336024443
  0
CIRCLE
  5
261
100
AcDbEntity
  8
None
370
              15
390
0
  6
Continuous
 62
               7
100
AcDbCircle
 10
-1.3379600000000034
 20
-5.6494200094622373
 30
0.0
 40
0.1799982336024443
  0
CIRCLE
  5
262
100
AcDbEntity
  8
None
370
              15
390
0
  6
Continuous
 62
               7
100
AcDbCircle
 10
-0.5379600000000036
 20
-5.6494200094622373
 30
0.0
 40
0.1799982336024443
  0
CIRCLE
  5
263
100
AcDbEntity
  8
None
370
              15
390
0
  6
Continuous
 62
               7
100
AcDbCircle
 10
0.2620399999999963
 20
-5.6494200094622373
 30
0.0
 40
0.1799982336024443
  0
CIRCLE
  5
264
100
AcDbEntity
  8
None
370
              15
390
0
  6
Continuous
 62
               7
100
AcDbCircle
 10
1.062039999999997
 20
-5.6494200094622373
 30
0.0
 40
0.1799982336024443
  0
CIRCLE
  5
265
100
AcDbEntity
  8
None
370
              15
390
0
  6
Continuous
 62
               7
100
AcDbCircle
 10
1.8620399999999959
 20
-5.6494200094622373
 30
0.0
 40
0.1799982336024443
  0
CIRCLE
  5
266
100
AcDbEntity
  8
None
370
              15
390
0
  6
Continuous
 62
               7
100
AcDbCircle
 10
2.6620399999999966
 20
-5.6494200094622373
 30
0.0
 40
0.1799982336024443
  0
CIRCLE
  5
267
100
AcDbEntity
  8
None
370
              15
390
0
  6
Continuous
 62
               7
100
AcDbCircle
 10
3.4620399999999956
 20
-5.6494200094622373
 30
0.0
 40
0.1799982336024443
  0
CIRCLE
  5
268
100
AcDbEntity
  8
None
370
              15
390
0
  6
Continuous
 62
               7
100
AcDbCircle
 10
-2.937960000000003
 20
-6.4494200094622371
 30
0.0
 40
0.1799982336024434
  0
CIRCLE
  5
269
100
AcDbEntity
  8
None
370
              15
390
0
  6
Continuous
 62
               7
100
AcDbCircle
 10
-2.1379600000000032
 20
-6.4494200094622371
 30
0.0
 40
0.1799982336024443
  0
CIRCLE
  5
26A
100
AcDbEntity
  8
None
370
              15
390
0
  6
Continuous
 62
               7
100
AcDbCircle
 10
-1.3379600000000034
 20
-6.4494200094622371
 30
0.0
 40
0.1799982336024443
  0
CIRCLE
  5
26B
100
AcDbEntity
  8
None
370
              15
390
0
  6
Continuous
 62
               7
100
AcDbCircle
 10
-0.5379600000000036
 20
-6.4494200094622371
 30
0.0
 40
0.1799982336024443
  0
CIRCLE
  5
26C
100
AcDbEntity
  8
None
370
              15
390
0
  6
Continuous
 62
               7
100
AcDbCircle
 10
0.2620399999999963
 20
-6.4494200094622371
 30
0.0
 40
0.1799982336024443
  0
CIRCLE
  5
26D
100
AcDbEntity
  8
None
370
              15
390
0
  6
Continuous
 62
               7
100
AcDbCircle
 10
1.062039999999997
 20
-6.4494200094622371
 30
0.0
 40
0.1799982336024443
  0
CIRCLE
  5
26E
100
AcDbEntity
  8
None
370
              15
390
0
  6
Continuous
 62
               7
100
AcDbCircle
 10
1.8620399999999959
 20
-6.4494200094622371
 30
0.0
 40
0.1799982336024443
  0
CIRCLE
  5
26F
100
AcDbEntity
  8
None
370
              15
390
0
  6
Continuous
 62
               7
100
AcDbCircle
 10
2.6620399999999966
 20
-6.4494200094622371
 30
0.0
 40
0.1799982336024443
  0
CIRCLE
  5
270
100
AcDbEntity
  8
None
370
              15
390
0
  6
Continuous
 62
               7
100
AcDbCircle
 10
3.4620399999999956
 20
-6.4494200094622371
 30
0.0
 40
0.1799982336024443
  0
CIRCLE
  5
271
100
AcDbEntity
  8
None
370
              15
390
0
  6
Continuous
 62
               7
100
AcDbCircle
 10
-4.5379600000000035
 20
0.7505799905377623
 30
0.0
 40
0.1799982336024434
  0
CIRCLE
  5
272
100
AcDbEntity
  8
None
370
              15
390
0
  6
Continuous
 62
               7
100
AcDbCircle
 10
-5.3379600000000025
 20
0.7505799905377623
 30
0.0
 40
0.1799982336024443
  0
CIRCLE
  5
273
100
AcDbEntity
  8
None
370
              15
390
0
  6
Continuous
 62
               7
100
AcDbCircle
 10
-6.1379600000000032
 20
0.7505799905377623
 30
0.0
 40
0.1799982336024434
  0
CIRCLE
  5
274
100
AcDbEntity
  8
None
370
              15
390
0
  6
Continuous
 62
               7
100
AcDbCircle
 10
-6.937960000000003
 20
0.7505799905377623
 30
0.0
 40
0.1799982336024434
  0
CIRCLE
  5
275
100
AcDbEntity
  8
None
370
              15
390
0
  6
Continuous
 62
               7
100
AcDbCircle
 10
-7.7379600000000028
 20
0.7505799905377623
 30
0.0
 40
0.1799982336024443
  0
CIRCLE
  5
276
100
AcDbEntity
  8
None
370
              15
390
0
  6
Continuous
 62
               7
100
AcDbCircle
 10
-8.5379600000000018
 20
0.7505799905377623
 30
0.0
 40
0.1799982336024443
  0
CIRCLE
  5
277
100
AcDbEntity
  8
None
370
              15
390
0
  6
Continuous
 62
               7
100
AcDbCircle
 10
-9.3379600000000025
 20
0.7505799905377623
 30
0.0
 40
0.1799982336024443
  0
CIRCLE
  5
278
100
AcDbEntity
  8
None
370
              15
390
0
  6
Continuous
 62
               7
100
AcDbCircle
 10
-10.137960000000003
 20
0.7505799905377623
 30
0.0
 40
0.1799982336024443
  0
CIRCLE
  5
279
100
AcDbEntity
  8
None
370
              15
390
0
  6
Continuous
 62
               7
100
AcDbCircle
 10
-10.937960000000002
 20
0.7505799905377623
 30
0.0
 40
0.1799982336024443
  0
CIRCLE
  5
27A
100
AcDbEntity
  8
None
370
              15
390
0
  6
Continuous
 62
               7
100
AcDbCircle
 10
-3.7379600000000028
 20
-0.0494200094622377
 30
0.0
 40
0.1799982336024434
  0
CIRCLE
  5
27B
100
AcDbEntity
  8
None
370
              15
390
0
  6
Continuous
 62
               7
100
AcDbCircle
 10
-3.7379600000000028
 20
-0.8494200094622375
 30
0.0
 40
0.1799982336024434
  0
CIRCLE
  5
27C
100
AcDbEntity
  8
None
370
              15
390
0
  6
Continuous
 62
               7
100
AcDbCircle
 10
-3.7379600000000028
 20
-1.6494200094622375
 30
0.0
 40
0.1799982336024434
  0
CIRCLE
  5
27D
100
AcDbEntity
  8
None
370
              15
390
0
  6
Continuous
 62
               7
100
AcDbCircle
 10
-3.7379600000000028
 20
-2.4494200094622376
 30
0.0
 40
0.1799982336024434
  0
CIRCLE
  5
27E
100
AcDbEntity
  8
None
370
              15
390
0
  6
Continuous
 62
               7
100
AcDbCircle
 10
-3.7379600000000028
 20
-3.2494200094622374
 30
0.0
 40
0.1799982336024434
  0
CIRCLE
  5
27F
100
AcDbEntity
  8
None
370
              15
390
0
  6
Continuous
 62
               7
100
AcDbCircle
 10
-3.7379600000000028
 20
-4.0494200094622377
 30
0.0
 40
0.1799982336024434
  0
CIRCLE
  5
280
100
AcDbEntity
  8
None
370
              15
390
0
  6
Continuous
 62
               7
100
AcDbCircle
 10
-3.7379600000000028
 20
-4.8494200094622375
 30
0.0
 40
0.1799982336024434
  0
CIRCLE
  5
281
100
AcDbEntity
  8
None
370
              15
390
0
  6
Continuous
 62
               7
100
AcDbCircle
 10
-3.7379600000000028
 20
-5.6494200094622373
 30
0.0
 40
0.1799982336024434
  0
CIRCLE
  5
282
100
AcDbEntity
  8
None
370
              15
390
0
  6
Continuous
 62
               7
100
AcDbCircle
 10
-3.7379600000000028
 20
-6.4494200094622371
 30
0.0
 40
0.1799982336024434
  0
DIMENSION
  5
283
100
AcDbEntity
  8
Dimension
370
              15
390
0
  6
Continuous
 62
              12
100
AcDbDimension
  2
*D12
 10
-10.937960000000002
 20
25.539420000000003
 30
0.0
 11
-3.4999999999999991
 21
25.539420000000003
 31
0.0
 70
             128
 71
               5
 72
               1
 41
1.0
 42
0.0
  3
IE Standard
100
AcDbAlignedDimension
 13
3.4620399999999956
 23
7.9505799905377614
 33
0.0
 14
-10.937960000000002
 24
7.9505799905377614
 34
0.0
100
AcDbRotatedDimension
1001
ACAD
1000
DSTYLE
1002
{
1070
             271
1070
               2
1070
             340
1005
31
1070
             147
1040
0.396875
1002
}
  0
DIMENSION
  5
284
100
AcDbEntity
  8
Dimension
370
              15
390
0
  6
Continuous
 62
              12
100
AcDbDimension
  2
*D13
 10
-53.200000000000003
 20
7.9505799905377614
 30
0.0
 11
-53.200000000000003
 21
1.2000000000000002
 31
0.0
 70
             128
 71
               5
 72
               1
 41
1.0
 42
0.0
  3
IE Standard
100
AcDbAlignedDimension
 13
-10.937960000000002
 23
-6.4494200094622371
 33
0.0
 14
-10.937960000000002
 24
7.9505799905377614
 34
0.0
 50
90.0
100
AcDbRotatedDimension
1001
ACAD
1000
DSTYLE
1002
{
1070
             271
1070
               2
1070
             340
1005
31
1070
             147
1040
0.396875
1002
}
  0
DIMENSION
  5
285
100
AcDbEntity
  8
Dimension
370
              15
390
0
  6
Continuous
 62
              12
100
AcDbDimension
  2
*D14
 10
-26.182529990537766
 20
10.113079990537761
 30
0.0
 11
-26.182529990537766
 21
0.2999999999999989
 31
0.0
 70
             128
 71
               5
 72
               1
 41
1.0
 42
0.0
  3
IE Standard
100
AcDbAlignedDimension
 13
-10.937960000000002
 23
7.9505799905377614
 33
0.0
 14
-13.475460000000002
 24
10.113079990537761
 34
0.0
 50
90.0
100
AcDbRotatedDimension
1001
ACAD
1000
DSTYLE
1002
{
1070
             271
1070
               4
1070
             340
1005
31
1070
               3
1000
<>mm(x4)
1070
             174
1070
               0
1070
             147
1040
0.396875
1002
}
  0
DIMENSION
  5
286
100
AcDbEntity
  8
Dimension
370
               5
390
0
  6
Continuous
 62
              14
100
AcDbDimension
  2
*D15
 10
-37.700000000000003
 20
-3.5319200094622372
 30
0.0
 11
-37.700000000000003
 21
-6.4494200094622371
 31
0.0
 70
             128
 71
               5
 72
               1
 41
1.0
 42
0.0
  3
ASME
100
AcDbAlignedDimension
 13
-13.475460000000002
 23
-8.6119200094622368
 33
0.0
 14
-13.475460000000002
 24
-3.5319200094622372
 34
0.0
 50
90.0
100
AcDbRotatedDimension
1001
ACAD
1000
DSTYLE
1002
{
1070
             271
1070
               2
1070
             340
1005
31
1070
             147
1040
0.396875
1002
}
  0
ENDSEC
  0
SECTION
  2
OBJECTS
  0
DICTIONARY
  5
19
100
AcDbDictionary
280
               0
281
               1
  3
ACAD_GROUP
350
1A
  3
ACAD_MLINESTYLE
350
1B
  3
ACAD_LAYOUT
350
1E
  3
ACAD_PLOTSETTINGS
350
22
  3
ACAD_PLOTSTYLENAME
350
1F
  0
DICTIONARY
  5
1A
102
{ACAD_REACTORS
330
19
102
}
100
AcDbDictionary
280
               0
281
               1
  0
DICTIONARY
  5
1B
102
{ACAD_REACTORS
330
19
102
}
100
AcDbDictionary
280
               0
281
               1
  3
Standard
350
1C
  0
MLINESTYLE
  5
1C
102
{ACAD_REACTORS
330
1B
102
}
100
AcDbMlineStyle
  2
Standard
 70
               0
  3

 62
               0
 51
90.0
 52
90.0
 71
               2
 49
0.5
 62
             256
  6
ByLayer
 49
-0.5
 62
             256
  6
ByLayer
  0
ACDBDICTIONARYWDFLT
  5
1F
102
{ACAD_REACTORS
330
19
102
}
100
AcDbDictionary
281
               1
  3
Normal
350
1D
100
AcDbDictionaryWithDefault
340
1D
  0
ACDBPLACEHOLDER
  5
1D
102
{ACAD_REACTORS
330
1F
102
}
  0
LAYOUT
  5
20
102
{ACAD_REACTORS
330
1E
102
}
100
AcDbPlotSettings
  1

  2

  4

  6

 40
0.0
 41
0.0
 42
0.0
 43
0.0
 44
0.0
 45
0.0
 46
0.0
 47
0.0
 48
0.0
 49
0.0
140
0.0
141
0.0
142
1.0
143
1.0
 70
            1024
 72
               0
 73
               0
 74
               0
  7

 75
               0
147
1.0
148
0.0
149
0.0
100
AcDbLayout
  1
Model
 70
               0
 71
               0
 10
0.0
 20
0.0
 11
0.0
 21
0.0
 12
0.0
 22
0.0
 32
0.0
 14
0.0
 24
0.0
 34
0.0
 15
0.0
 25
0.0
 35
0.0
146
0.0
 13
0.0
 23
0.0
 33
0.0
 16
0.0
 26
0.0
 36
0.0
 17
0.0
 27
0.0
 37
0.0
 76
               0
330
A
331
0
345
0
346
0
  0
LAYOUT
  5
21
102
{ACAD_REACTORS
330
1E
102
}
100
AcDbPlotSettings
  1

  2

  4

  6

 40
0.0
 41
0.0
 42
0.0
 43
0.0
 44
0.0
 45
0.0
 46
0.0
 47
0.0
 48
0.0
 49
0.0
140
0.0
141
0.0
142
1.0
143
1.0
 70
               0
 72
               0
 73
               0
 74
               0
  7

 75
               0
147
1.0
148
0.0
149
0.0
100
AcDbLayout
  1
Layout1
 70
               0
 71
               0
 10
0.0
 20
0.0
 11
0.0
 21
0.0
 12
0.0
 22
0.0
 32
0.0
 14
0.0
 24
0.0
 34
0.0
 15
0.0
 25
0.0
 35
0.0
146
0.0
 13
0.0
 23
0.0
 33
0.0
 16
0.0
 26
0.0
 36
0.0
 17
0.0
 27
0.0
 37
0.0
 76
               0
330
B
331
0
345
0
346
0
  0
DICTIONARY
  5
1E
102
{ACAD_REACTORS
330
19
102
}
100
AcDbDictionary
280
               0
281
               1
  3
Layout1
350
21
  3
Model
350
20
  0
DICTIONARY
  5
22
102
{ACAD_REACTORS
330
19
102
}
100
AcDbDictionary
280
               0
281
               1
  0
ENDSEC
  0
EOF
