  0
SECTION
  2
HEADER
  9
$ACADVER
  1
AC1014
  9
$ACADMAINTVER
 70
     9
  9
$DWGCODEPAGE
  3
ANSI_1252
  9
$INSBASE
 10
0.0
 20
0.0
 30
0.0
  9
$EXTMIN
 10
2.9590389942
 20
2.112592199533334
 30
0.0
  9
$EXTMAX
 10
90.2131590203
 20
68.5468232703
 30
3.1775
  9
$LIMMIN
 10
0.0
 20
0.0
  9
$LIMMAX
 10
93.1333333333
 20
71.9666666667
  9
$ORTHOMODE
 70
     0
  9
$REGENMODE
 70
     1
  9
$FILLMODE
 70
     1
  9
$QTEXTMODE
 70
     0
  9
$MIRRTEXT
 70
     1
  9
$DRAGMODE
 70
     2
  9
$LTSCALE
 40
0.3333333333
  9
$OSMODE
 70
   511
  9
$ATTMODE
 70
     1
  9
$TEXTSIZE
 40
1.0583333333
  9
$TRACEWID
 40
1.0
  9
$TEXTSTYLE
  7
STANDARD
  9
$CLAYER
  8
0
  9
$CELTYPE
  6
BYLAYER
  9
$CECOLOR
 62
   256
  9
$CELTSCALE
 40
1.0
  9
$DELOBJ
 70
     1
  9
$DISPSILH
 70
     0
  9
$DIMSCALE
 40
1.0
  9
$DIMASZ
 40
1.1006666667
  9
$DIMEXO
 40
0.4233333333
  9
$DIMDLI
 40
3.75
  9
$DIMRND
 40
0.0
  9
$DIMDLE
 40
0.0
  9
$DIMEXE
 40
1.0583333333
  9
$DIMTP
 40
0.0
  9
$DIMTM
 40
0.0
  9
$DIMTXT
 40
1.0583333333
  9
$DIMCEN
 40
2.5
  9
$DIMTSZ
 40
0.0
  9
$DIMTOL
 70
     0
  9
$DIMLIM
 70
     0
  9
$DIMTIH
 70
     1
  9
$DIMTOH
 70
     1
  9
$DIMSE1
 70
     0
  9
$DIMSE2
 70
     0
  9
$DIMTAD
 70
     0
  9
$DIMZIN
 70
     1
  9
$DIMBLK
  1

  9
$DIMASO
 70
     1
  9
$DIMSHO
 70
     1
  9
$DIMPOST
  1

  9
$DIMAPOST
  1

  9
$DIMALT
 70
     0
  9
$DIMALTD
 70
     3
  9
$DIMALTF
 40
0.0393700787
  9
$DIMLFAC
 40
1.0
  9
$DIMTOFL
 70
     1
  9
$DIMTVP
 40
0.0
  9
$DIMTIX
 70
     0
  9
$DIMSOXD
 70
     0
  9
$DIMSAH
 70
     0
  9
$DIMBLK1
  1

  9
$DIMBLK2
  1

  9
$DIMSTYLE
  2
ISO-25
  9
$DIMCLRD
 70
     0
  9
$DIMCLRE
 70
     0
  9
$DIMCLRT
 70
     0
  9
$DIMTFAC
 40
1.0
  9
$DIMGAP
 40
0.508
  9
$DIMJUST
 70
     0
  9
$DIMSD1
 70
     0
  9
$DIMSD2
 70
     0
  9
$DIMTOLJ
 70
     0
  9
$DIMTZIN
 70
     1
  9
$DIMALTZ
 70
     0
  9
$DIMALTTZ
 70
     0
  9
$DIMFIT
 70
     3
  9
$DIMUPT
 70
     0
  9
$DIMUNIT
 70
     2
  9
$DIMDEC
 70
     4
  9
$DIMTDEC
 70
     4
  9
$DIMALTU
 70
     2
  9
$DIMALTTD
 70
     3
  9
$DIMTXSTY
  7
STANDARD
  9
$DIMAUNIT
 70
     0
  9
$LUNITS
 70
     2
  9
$LUPREC
 70
     4
  9
$SKETCHINC
 40
1.0
  9
$FILLETRAD
 40
10.0
  9
$AUNITS
 70
     0
  9
$AUPREC
 70
     2
  9
$MENU
  1
.
  9
$ELEVATION
 40
0.0
  9
$PELEVATION
 40
0.0
  9
$THICKNESS
 40
0.0
  9
$LIMCHECK
 70
     0
  9
$CHAMFERA
 40
10.0
  9
$CHAMFERB
 40
10.0
  9
$CHAMFERC
 40
20.0
  9
$CHAMFERD
 40
0.0
  9
$SKPOLY
 70
     0
  9
$TDCREATE
 40
2456197.668157222
  9
$TDUPDATE
 40
2456198.44804662
  9
$TDINDWG
 40
0.0000000116
  9
$TDUSRTIMER
 40
2456198.653643553
  9
$USRTIMER
 70
     1
  9
$ANGBASE
 50
0.0
  9
$ANGDIR
 70
     0
  9
$PDMODE
 70
     0
  9
$PDSIZE
 40
-1.0
  9
$PLINEWID
 40
0.0
  9
$COORDS
 70
     1
  9
$SPLFRAME
 70
     0
  9
$SPLINETYPE
 70
     6
  9
$SPLINESEGS
 70
     8
  9
$ATTDIA
 70
     0
  9
$ATTREQ
 70
     1
  9
$HANDLING
 70
     1
  9
$HANDSEED
  5
3A9
  9
$SURFTAB1
 70
     6
  9
$SURFTAB2
 70
     6
  9
$SURFTYPE
 70
     6
  9
$SURFU
 70
     6
  9
$SURFV
 70
     6
  9
$UCSNAME
  2

  9
$UCSORG
 10
0.0
 20
0.0
 30
0.0
  9
$UCSXDIR
 10
1.0
 20
0.0
 30
0.0
  9
$UCSYDIR
 10
0.0
 20
1.0
 30
0.0
  9
$PUCSNAME
  2

  9
$PUCSORG
 10
0.0
 20
0.0
 30
0.0
  9
$PUCSXDIR
 10
1.0
 20
0.0
 30
0.0
  9
$PUCSYDIR
 10
0.0
 20
1.0
 30
0.0
  9
$USERI1
 70
     0
  9
$USERI2
 70
     0
  9
$USERI3
 70
     0
  9
$USERI4
 70
     0
  9
$USERI5
 70
     0
  9
$USERR1
 40
0.0
  9
$USERR2
 40
0.0
  9
$USERR3
 40
0.0
  9
$USERR4
 40
0.0
  9
$USERR5
 40
0.0
  9
$WORLDVIEW
 70
     1
  9
$SHADEDGE
 70
     3
  9
$SHADEDIF
 70
    70
  9
$TILEMODE
 70
     1
  9
$MAXACTVP
 70
    64
  9
$PINSBASE
 10
0.0
 20
0.0
 30
0.0
  9
$PLIMCHECK
 70
     0
  9
$PEXTMIN
 10
1.000000000000000E+20
 20
1.000000000000000E+20
 30
1.000000000000000E+20
  9
$PEXTMAX
 10
-1.000000000000000E+20
 20
-1.000000000000000E+20
 30
-1.000000000000000E+20
  9
$PLIMMIN
 10
0.0
 20
0.0
  9
$PLIMMAX
 10
0.0
 20
0.0
  9
$UNITMODE
 70
     0
  9
$VISRETAIN
 70
     1
  9
$PLINEGEN
 70
     0
  9
$PSLTSCALE
 70
     1
  9
$TREEDEPTH
 70
  3020
  9
$PICKSTYLE
 70
     1
  9
$CMLSTYLE
  2
STANDARD
  9
$CMLJUST
 70
     0
  9
$CMLSCALE
 40
20.0
  9
$PROXYGRAPHICS
 70
     1
  9
$MEASUREMENT
 70
     1
  0
ENDSEC
  0
SECTION
  2
CLASSES
  0
CLASS
  1
ACDBDICTIONARYWDFLT
  2
AcDbDictionaryWithDefault
  3
ObjectDBX Classes
 90
        0
280
     0
281
     0
  0
CLASS
  1
VISUALSTYLE
  2
AcDbVisualStyle
  3
ObjectDBX Classes
 90
     4095
280
     0
281
     0
  0
CLASS
  1
MATERIAL
  2
AcDbMaterial
  3
ObjectDBX Classes
 90
     1153
280
     0
281
     0
  0
CLASS
  1
ACDBPLACEHOLDER
  2
AcDbPlaceHolder
  3
ObjectDBX Classes
 90
        0
280
     0
281
     0
  0
CLASS
  1
LAYOUT
  2
AcDbLayout
  3
ObjectDBX Classes
 90
        0
280
     0
281
     0
  0
CLASS
  1
SCALE
  2
AcDbScale
  3
ObjectDBX Classes
 90
     1153
280
     0
281
     0
  0
CLASS
  1
TABLESTYLE
  2
AcDbTableStyle
  3
ObjectDBX Classes
 90
     4095
280
     0
281
     0
  0
CLASS
  1
RASTERVARIABLES
  2
AcDbRasterVariables
  3
ISM
 90
        0
280
     0
281
     0
  0
CLASS
  1
DICTIONARYVAR
  2
AcDbDictionaryVar
  3
ObjectDBX Classes
 90
        0
280
     0
281
     0
  0
CLASS
  1
XRECORD
  2
AcDbXrecord
  3
AutoCAD 2000
 90
        0
280
     0
281
     0
  0
CLASS
  1
LWPOLYLINE
  2
AcDbPolyline
  3
AutoCAD 2000
 90
        0
280
     0
281
     1
  0
CLASS
  1
HATCH
  2
AcDbHatch
  3
AutoCAD 2000
 90
        0
280
     0
281
     1
  0
ENDSEC
  0
SECTION
  2
TABLES
  0
TABLE
  2
VPORT
  5
8
330
0
100
AcDbSymbolTable
 70
     1
  0
VPORT
  5
29
330
8
100
AcDbSymbolTableRecord
100
AcDbViewportTableRecord
  2
*ACTIVE
 70
     0
 10
0.0
 20
0.0
 11
1.0
 21
1.0
 12
59.70570403850091
 22
37.18499568537156
 13
0.0
 23
0.0
 14
10.0
 24
10.0
 15
10.0
 25
10.0
 16
0.0
 26
0.0
 36
1.0
 17
0.0
 27
0.0
 37
0.0
 40
57.57333333335998
 41
1.92603550295858
 42
50.0
 43
0.0
 44
0.0
 50
0.0
 51
0.0
 71
    16
 72
  2000
 73
     1
 74
     3
 75
     0
 76
     0
 77
     0
 78
     0
  0
ENDTAB
  0
TABLE
  2
LTYPE
  5
5
330
0
100
AcDbSymbolTable
 70
     6
  0
LTYPE
  5
14
330
5
100
AcDbSymbolTableRecord
100
AcDbLinetypeTableRecord
  2
BYBLOCK
 70
     0
  3

 72
    65
 73
     0
 40
0.0
  0
LTYPE
  5
15
330
5
100
AcDbSymbolTableRecord
100
AcDbLinetypeTableRecord
  2
BYLAYER
 70
     0
  3

 72
    65
 73
     0
 40
0.0
  0
LTYPE
  5
16
330
5
100
AcDbSymbolTableRecord
100
AcDbLinetypeTableRecord
  2
CONTINUOUS
 70
     0
  3
Solid line
 72
    65
 73
     0
 40
0.0
  0
LTYPE
  5
3F
330
5
100
AcDbSymbolTableRecord
100
AcDbLinetypeTableRecord
  2
HIDDEN
 70
     0
  3
Hidden __ __ __ __ __ __ __ __ __ __ __ __ __ __
 72
    65
 73
     2
 40
1.905
 49
1.27
 74
     0
 49
-0.635
 74
     0
  0
LTYPE
  5
40
330
5
100
AcDbSymbolTableRecord
100
AcDbLinetypeTableRecord
  2
PHANTOM
 70
     0
  3
Phantom ______  __  __  ______  __  __  ______
 72
    65
 73
     6
 40
12.7
 49
6.35
 74
     0
 49
-1.27
 74
     0
 49
1.27
 74
     0
 49
-1.27
 74
     0
 49
1.27
 74
     0
 49
-1.27
 74
     0
  0
LTYPE
  5
41
330
5
100
AcDbSymbolTableRecord
100
AcDbLinetypeTableRecord
  2
CENTER
 70
     0
  3
Center ____ _ ____ _ ____ _ ____ _ ____ _ ____
 72
    65
 73
     4
 40
10.16
 49
6.35
 74
     0
 49
-1.27
 74
     0
 49
1.27
 74
     0
 49
-1.27
 74
     0
  0
LTYPE
  5
42
330
5
100
AcDbSymbolTableRecord
100
AcDbLinetypeTableRecord
  2
CENTERX2
 70
     0
  3
Center (2x) ________  __  ________  __  _____
 72
    65
 73
     4
 40
20.32
 49
12.7
 74
     0
 49
-2.54
 74
     0
 49
2.54
 74
     0
 49
-2.54
 74
     0
  0
LTYPE
  5
43
330
5
100
AcDbSymbolTableRecord
100
AcDbLinetypeTableRecord
  2
DOT2
 70
     0
  3
Dot (.5x) ........................................
 72
    65
 73
     2
 40
0.635
 49
0.0
 74
     0
 49
-0.635
 74
     0
  0
ENDTAB
  0
TABLE
  2
LAYER
  5
2
330
0
100
AcDbSymbolTable
 70
     6
  0
LAYER
  5
10
330
2
100
AcDbSymbolTableRecord
100
AcDbLayerTableRecord
  2
0
 70
     0
 62
     7
  6
CONTINUOUS
  0
LAYER
  5
44
330
2
100
AcDbSymbolTableRecord
100
AcDbLayerTableRecord
  2
FORMAT
 70
     0
 62
     7
  6
CONTINUOUS
  0
LAYER
  5
45
330
2
100
AcDbSymbolTableRecord
100
AcDbLayerTableRecord
  2
NONE
 70
     0
 62
   179
  6
CONTINUOUS
  0
LAYER
  5
46
330
2
100
AcDbSymbolTableRecord
100
AcDbLayerTableRecord
  2
DIMENSION
 70
     0
 62
   179
  6
CONTINUOUS
  0
LAYER
  5
47
330
2
100
AcDbSymbolTableRecord
100
AcDbLayerTableRecord
  2
PAGE_FRAME
 70
     0
 62
   179
  6
CONTINUOUS
  0
LAYER
  5
48
330
2
100
AcDbSymbolTableRecord
100
AcDbLayerTableRecord
  2
LAYOUT
 70
     0
 62
   179
  6
CONTINUOUS
  0
ENDTAB
  0
TABLE
  2
STYLE
  5
3
330
0
100
AcDbSymbolTable
 70
     3
  0
STYLE
  5
11
330
3
100
AcDbSymbolTableRecord
100
AcDbTextStyleTableRecord
  2
STANDARD
 70
     0
 40
0.0
 41
1.0
 50
0.0
 71
     0
 42
1.0583333333
  3
txt
  4

  0
STYLE
  5
5C
330
3
100
AcDbSymbolTableRecord
100
AcDbTextStyleTableRecord
  2
SLDTEXTSTYLE0
 70
     0
 40
0.0
 41
0.605
 50
0.0
 71
     0
 42
0.2
  3
TXT
  4

  0
STYLE
  5
8A
330
3
100
AcDbSymbolTableRecord
100
AcDbTextStyleTableRecord
  2
SLDTEXTSTYLE1
 70
     0
 40
0.0
 41
0.575
 50
0.0
 71
     0
 42
0.2
  3
TXT
  4

  0
ENDTAB
  0
TABLE
  2
VIEW
  5
6
330
0
100
AcDbSymbolTable
 70
     0
  0
ENDTAB
  0
TABLE
  2
UCS
  5
7
330
0
100
AcDbSymbolTable
 70
     0
  0
ENDTAB
  0
TABLE
  2
APPID
  5
9
330
0
100
AcDbSymbolTable
 70
     1
  0
APPID
  5
12
330
9
100
AcDbSymbolTableRecord
100
AcDbRegAppTableRecord
  2
ACAD
 70
     0
  0
ENDTAB
  0
TABLE
  2
DIMSTYLE
  5
A
330
0
100
AcDbSymbolTable
 70
    14
  0
DIMSTYLE
105
27
330
A
100
AcDbSymbolTableRecord
100
AcDbDimStyleTableRecord
  2
ISO-25
 70
     0
  3

  4

  5

  6

  7

 40
1.0
 41
2.5
 42
0.625
 43
3.75
 44
1.25
 45
0.0
 46
0.0
 47
0.0
 48
0.0
140
2.5
141
2.5
142
0.0
143
0.0393700787
144
1.0
145
0.0
146
1.0
147
0.625
 71
     0
 72
     0
 73
     0
 74
     0
 75
     0
 76
     0
 77
     1
 78
     8
170
     0
171
     3
172
     1
173
     0
174
     0
175
     0
176
     0
177
     0
178
     0
270
     2
271
     2
272
     2
273
     2
274
     3
340
11
275
     0
280
     0
281
     0
282
     0
283
     0
284
     8
285
     0
286
     0
287
     3
288
     0
  0
DIMSTYLE
105
243
102
{ACAD_REACTORS
330
242
330
250
102
}
330
A
100
AcDbSymbolTableRecord
100
AcDbDimStyleTableRecord
  2
SLDDIMSTYLE0
 70
     0
  3

  4

  5

  6

  7

 40
1.0
 41
1.1006666667
 42
0.0625
 43
0.38
 44
0.0
 45
0.000000001
 46
0.0
 47
0.125
 48
0.125
140
0.7704956055
141
0.09
142
0.0
143
25.4
144
1.0
145
0.0
146
1.0
147
0.1926239014
 71
     1
 72
     0
 73
     1
 74
     1
 75
     0
 76
     0
 77
     0
 78
    12
170
     0
171
     2
172
     0
173
     1
174
     0
175
     0
176
     0
177
     0
178
     0
270
     2
271
     3
272
     3
273
     2
274
     2
340
5C
275
     0
280
     0
281
     0
282
     0
283
     1
284
     8
285
     0
286
     0
287
     3
288
     0
  0
DIMSTYLE
105
266
102
{ACAD_REACTORS
330
265
102
}
330
A
100
AcDbSymbolTableRecord
100
AcDbDimStyleTableRecord
  2
SLDDIMSTYLE1
 70
     0
  3

  4

  5

  6

  7

 40
1.0
 41
1.1006666667
 42
0.0625
 43
0.38
 44
0.0
 45
0.000000001
 46
0.0
 47
0.025
 48
0.025
140
0.7704956055
141
0.0
142
0.0
143
25.4
144
1.0
145
0.0
146
1.0
147
0.1926239014
 71
     1
 72
     0
 73
     1
 74
     1
 75
     0
 76
     0
 77
     0
 78
     4
170
     0
171
     2
172
     0
173
     1
174
     0
175
     0
176
     0
177
     0
178
     0
270
     2
271
     3
272
     3
273
     2
274
     2
340
5C
275
     0
280
     0
281
     0
282
     0
283
     1
284
     8
285
     0
286
     0
287
     3
288
     0
  0
DIMSTYLE
105
272
102
{ACAD_REACTORS
330
271
330
28A
102
}
330
A
100
AcDbSymbolTableRecord
100
AcDbDimStyleTableRecord
  2
SLDDIMSTYLE2
 70
     0
  3

  4

  5

  6

  7

 40
1.0
 41
1.1006666667
 42
0.0625
 43
0.38
 44
0.0
 45
0.000000001
 46
0.0
 47
0.125
 48
0.125
140
0.7704956055
141
0.09
142
0.0
143
25.4
144
1.0
145
0.0
146
1.0
147
0.1926239014
 71
     1
 72
     0
 73
     1
 74
     1
 75
     0
 76
     0
 77
     0
 78
     4
170
     0
171
     2
172
     1
173
     1
174
     0
175
     0
176
     0
177
     0
178
     0
270
     2
271
     3
272
     3
273
     2
274
     2
340
5C
275
     0
280
     0
281
     0
282
     0
283
     1
284
     8
285
     0
286
     0
288
     0
  0
DIMSTYLE
105
27F
102
{ACAD_REACTORS
330
27E
330
297
102
}
330
A
100
AcDbSymbolTableRecord
100
AcDbDimStyleTableRecord
  2
SLDDIMSTYLE3
 70
     0
  3

  4

  5

  6

  7

 40
1.0
 41
1.1006666667
 42
0.0625
 43
0.38
 44
0.0
 45
0.000000001
 46
0.0
 47
0.0
 48
0.0
140
0.7704956055
141
0.09
142
0.0
143
25.4
144
1.0
145
0.0
146
1.0
147
0.1926239014
 71
     0
 72
     0
 73
     1
 74
     1
 75
     0
 76
     0
 77
     0
 78
     4
170
     0
171
     2
172
     0
173
     1
174
     0
175
     0
176
     0
177
     0
178
     0
270
     2
271
     2
272
     3
273
     2
274
     2
340
5C
275
     0
280
     0
281
     0
282
     0
283
     1
284
    12
285
     0
286
     0
287
     3
288
     0
  0
DIMSTYLE
105
2A4
102
{ACAD_REACTORS
330
2A3
330
2F9
102
}
330
A
100
AcDbSymbolTableRecord
100
AcDbDimStyleTableRecord
  2
SLDDIMSTYLE4
 70
     0
  3

  4

  5

  6

  7

 40
1.0
 41
1.1006666667
 42
0.0625
 43
0.38
 44
0.0
 45
0.000000001
 46
0.0
 47
0.0
 48
0.0
140
0.7704956055
141
0.09
142
0.0
143
25.4
144
1.0
145
0.0
146
1.0
147
0.1926239014
 71
     0
 72
     0
 73
     1
 74
     1
 75
     0
 76
     0
 77
     0
 78
    12
170
     0
171
     2
172
     1
173
     1
174
     0
175
     0
176
     0
177
     0
178
     0
270
     2
271
     2
272
     3
273
     2
274
     2
340
5C
275
     0
280
     0
281
     0
282
     0
283
     1
284
    12
285
     0
286
     0
288
     0
  0
DIMSTYLE
105
2B1
102
{ACAD_REACTORS
330
2B0
102
}
330
A
100
AcDbSymbolTableRecord
100
AcDbDimStyleTableRecord
  2
SLDDIMSTYLE5
 70
     0
  3

  4

  5

  6

  7

 40
1.0
 41
1.1006666667
 42
0.0625
 43
0.38
 44
0.0
 45
0.000000001
 46
0.0
 47
0.05
 48
0.05
140
0.7704956055
141
0.09
142
0.0
143
25.4
144
1.0
145
0.0
146
1.0
147
0.1926239014
 71
     1
 72
     0
 73
     1
 74
     1
 75
     0
 76
     0
 77
     0
 78
    12
170
     0
171
     2
172
     0
173
     1
174
     0
175
     0
176
     0
177
     0
178
     0
270
     2
271
     3
272
     2
273
     2
274
     2
340
5C
275
     0
280
     0
281
     0
282
     0
283
     1
284
     8
285
     0
286
     0
287
     3
288
     0
  0
DIMSTYLE
105
2BE
102
{ACAD_REACTORS
330
2BD
330
2ED
102
}
330
A
100
AcDbSymbolTableRecord
100
AcDbDimStyleTableRecord
  2
SLDDIMSTYLE6
 70
     0
  3

  4

  5

  6

  7

 40
1.0
 41
1.1006666667
 42
0.0625
 43
0.38
 44
0.0
 45
0.000000001
 46
0.0
 47
0.0
 48
0.0
140
0.7704956055
141
0.09
142
0.0
143
25.4
144
1.0
145
0.0
146
1.0
147
0.1926239014
 71
     0
 72
     0
 73
     1
 74
     1
 75
     0
 76
     0
 77
     0
 78
    12
170
     0
171
     2
172
     0
173
     1
174
     0
175
     0
176
     0
177
     0
178
     0
270
     2
271
     2
272
     3
273
     2
274
     2
340
5C
275
     0
280
     0
281
     0
282
     0
283
     1
284
    12
285
     0
286
     0
287
     3
288
     0
  0
DIMSTYLE
105
2CA
102
{ACAD_REACTORS
330
2C9
102
}
330
A
100
AcDbSymbolTableRecord
100
AcDbDimStyleTableRecord
  2
SLDDIMSTYLE7
 70
     0
  3

  4

  5

  6

  7

 40
1.0
 41
1.1006666667
 42
0.0625
 43
0.38
 44
0.0
 45
0.000000001
 46
0.0
 47
0.0
 48
0.0
140
0.7704956055
141
0.0
142
0.0
143
25.4
144
1.0
145
0.0
146
1.0
147
0.1926239014
 71
     0
 72
     0
 73
     1
 74
     1
 75
     0
 76
     0
 77
     0
 78
    12
170
     0
171
     2
172
     0
173
     1
174
     0
175
     0
176
     0
177
     0
178
     0
270
     2
271
     3
272
     3
273
     2
274
     2
340
5C
275
     0
280
     0
281
     0
282
     0
283
     1
284
    12
285
     0
286
     0
287
     3
288
     0
  0
DIMSTYLE
105
2D5
102
{ACAD_REACTORS
330
2D4
102
}
330
A
100
AcDbSymbolTableRecord
100
AcDbDimStyleTableRecord
  2
SLDDIMSTYLE8
 70
     0
  3

  4

  5

  6

  7

 40
1.0
 41
1.1006666667
 42
0.0625
 43
0.38
 44
0.0
 45
0.000000001
 46
0.0
 47
0.0
 48
0.0
140
0.7704956055
141
0.09
142
0.0
143
25.4
144
1.0
145
0.0
146
1.0
147
0.1926239014
 71
     0
 72
     0
 73
     1
 74
     1
 75
     0
 76
     0
 77
     0
 78
    12
170
     0
171
     2
172
     0
173
     1
174
     0
175
     0
176
     0
177
     0
178
     0
270
     2
271
     4
272
     4
273
     2
274
     2
340
5C
275
     0
280
     0
281
     0
282
     0
283
     1
284
    12
285
     0
286
     0
287
     3
288
     0
  0
DIMSTYLE
105
2E2
102
{ACAD_REACTORS
330
2E1
102
}
330
A
100
AcDbSymbolTableRecord
100
AcDbDimStyleTableRecord
  2
SLDDIMSTYLE9
 70
     0
  3

  4

  5

  6

  7

 40
1.0
 41
1.1006666667
 42
0.0625
 43
0.38
 44
0.0
 45
0.000000001
 46
0.0
 47
0.0
 48
0.0
140
0.7704956055
141
0.09
142
0.0
143
25.4
144
1.0
145
0.0
146
1.0
147
0.1926239014
 71
     0
 72
     0
 73
     1
 74
     1
 75
     0
 76
     0
 77
     0
 78
    12
170
     0
171
     2
172
     1
173
     1
174
     0
175
     0
176
     0
177
     0
178
     0
270
     2
271
     4
272
     4
273
     2
274
     2
340
5C
275
     0
280
     0
281
     0
282
     0
283
     1
284
    12
285
     0
286
     0
288
     0
  0
DIMSTYLE
105
305
102
{ACAD_REACTORS
330
304
102
}
330
A
100
AcDbSymbolTableRecord
100
AcDbDimStyleTableRecord
  2
SLDDIMSTYLE10
 70
     0
  3

  4

  5

  6

  7

 40
1.0
 41
1.1006666667
 42
0.0625
 43
0.38
 44
0.0
 45
0.000000001
 46
0.0
 47
0.1
 48
0.1
140
0.7704956055
141
0.0
142
0.0
143
25.4
144
1.0
145
0.0
146
1.0
147
0.1926239014
 71
     1
 72
     0
 73
     1
 74
     1
 75
     0
 76
     0
 77
     0
 78
    12
170
     0
171
     2
172
     0
173
     1
174
     0
175
     0
176
     0
177
     0
178
     0
270
     2
271
     2
272
     2
273
     2
274
     2
340
5C
275
     0
280
     0
281
     0
282
     0
283
     1
284
     0
285
     0
286
     0
287
     3
288
     0
  0
DIMSTYLE
105
311
102
{ACAD_REACTORS
330
310
102
}
330
A
100
AcDbSymbolTableRecord
100
AcDbDimStyleTableRecord
  2
SLDDIMSTYLE11
 70
     0
  3

  4

  5

  6

  7

 40
1.0
 41
1.1006666667
 42
0.0625
 43
0.38
 44
0.0
 45
0.000000001
 46
0.0
 47
0.125
 48
0.125
140
0.7704956055
141
0.09
142
0.0
143
25.4
144
1.0
145
0.0
146
1.0
147
0.1926239014
 71
     1
 72
     0
 73
     1
 74
     1
 75
     0
 76
     0
 77
     0
 78
     4
170
     0
171
     2
172
     0
173
     1
174
     0
175
     0
176
     0
177
     0
178
     0
270
     2
271
     3
272
     3
273
     2
274
     2
340
5C
275
     0
280
     0
281
     0
282
     0
283
     1
284
     8
285
     0
286
     0
287
     3
288
     0
  0
DIMSTYLE
105
31F
330
A
100
AcDbSymbolTableRecord
100
AcDbDimStyleTableRecord
  2
SLDDIMSTYLE12
 70
     0
  3

  4

  5

  6

  7

 40
1.0
 41
1.1006666667
 42
0.0625
 43
0.38
 44
0.0
 45
0.000000001
 46
0.0
 47
0.0
 48
0.0
140
0.0
141
0.09
142
0.0
143
25.4
144
1.0
145
0.0
146
1.1006666667
147
0.0
 71
     0
 72
     0
 73
     1
 74
     1
 75
     0
 76
     0
 77
     0
 78
     0
170
     0
171
     2
172
     0
173
     1
174
     0
175
     0
176
     0
177
     0
178
     0
270
     2
271
     0
272
     0
273
     2
274
     2
340
11
275
     0
280
     0
281
     0
282
     0
283
     1
284
     0
285
     0
286
     0
287
     3
288
     0
  0
ENDTAB
  0
TABLE
  2
BLOCK_RECORD
  5
1
330
0
100
AcDbSymbolTable
 70
    34
  0
BLOCK_RECORD
  5
1F
330
1
100
AcDbSymbolTableRecord
100
AcDbBlockTableRecord
  2
*MODEL_SPACE
  0
BLOCK_RECORD
  5
1B
330
1
100
AcDbSymbolTableRecord
100
AcDbBlockTableRecord
  2
*PAPER_SPACE
  0
BLOCK_RECORD
  5
23
330
1
100
AcDbSymbolTableRecord
100
AcDbBlockTableRecord
  2
*PAPER_SPACE0
  0
BLOCK_RECORD
  5
59
330
1
100
AcDbSymbolTableRecord
100
AcDbBlockTableRecord
  2
SW_NOTE_0
  0
BLOCK_RECORD
  5
60
330
1
100
AcDbSymbolTableRecord
100
AcDbBlockTableRecord
  2
SW_NOTE_1
  0
BLOCK_RECORD
  5
69
330
1
100
AcDbSymbolTableRecord
100
AcDbBlockTableRecord
  2
SW_NOTE_2
  0
BLOCK_RECORD
  5
6F
330
1
100
AcDbSymbolTableRecord
100
AcDbBlockTableRecord
  2
SW_NOTE_3
  0
BLOCK_RECORD
  5
76
330
1
100
AcDbSymbolTableRecord
100
AcDbBlockTableRecord
  2
SW_NOTE_4
  0
BLOCK_RECORD
  5
81
330
1
100
AcDbSymbolTableRecord
100
AcDbBlockTableRecord
  2
SW_NOTE_5
  0
BLOCK_RECORD
  5
244
330
1
100
AcDbSymbolTableRecord
100
AcDbBlockTableRecord
  2
_D
  0
BLOCK_RECORD
  5
251
330
1
100
AcDbSymbolTableRecord
100
AcDbBlockTableRecord
  2
_D_1
  0
BLOCK_RECORD
  5
25A
330
1
100
AcDbSymbolTableRecord
100
AcDbBlockTableRecord
  2
SW_SYMBOL_MOD_BOX
  0
BLOCK_RECORD
  5
267
330
1
100
AcDbSymbolTableRecord
100
AcDbBlockTableRecord
  2
_D_2
  0
BLOCK_RECORD
  5
273
330
1
100
AcDbSymbolTableRecord
100
AcDbBlockTableRecord
  2
_D_3
  0
BLOCK_RECORD
  5
280
330
1
100
AcDbSymbolTableRecord
100
AcDbBlockTableRecord
  2
_D_4
  0
BLOCK_RECORD
  5
28B
330
1
100
AcDbSymbolTableRecord
100
AcDbBlockTableRecord
  2
_D_5
  0
BLOCK_RECORD
  5
298
330
1
100
AcDbSymbolTableRecord
100
AcDbBlockTableRecord
  2
_D_6
  0
BLOCK_RECORD
  5
2A5
330
1
100
AcDbSymbolTableRecord
100
AcDbBlockTableRecord
  2
_D_7
  0
BLOCK_RECORD
  5
2B2
330
1
100
AcDbSymbolTableRecord
100
AcDbBlockTableRecord
  2
_D_8
  0
BLOCK_RECORD
  5
2BF
330
1
100
AcDbSymbolTableRecord
100
AcDbBlockTableRecord
  2
_D_9
  0
BLOCK_RECORD
  5
2CB
330
1
100
AcDbSymbolTableRecord
100
AcDbBlockTableRecord
  2
_D_10
  0
BLOCK_RECORD
  5
2D6
330
1
100
AcDbSymbolTableRecord
100
AcDbBlockTableRecord
  2
_D_11
  0
BLOCK_RECORD
  5
2E3
330
1
100
AcDbSymbolTableRecord
100
AcDbBlockTableRecord
  2
_D_12
  0
BLOCK_RECORD
  5
2EE
330
1
100
AcDbSymbolTableRecord
100
AcDbBlockTableRecord
  2
_D_13
  0
BLOCK_RECORD
  5
2FA
330
1
100
AcDbSymbolTableRecord
100
AcDbBlockTableRecord
  2
_D_14
  0
BLOCK_RECORD
  5
306
330
1
100
AcDbSymbolTableRecord
100
AcDbBlockTableRecord
  2
_D_15
  0
BLOCK_RECORD
  5
312
330
1
100
AcDbSymbolTableRecord
100
AcDbBlockTableRecord
  2
_D_16
  0
BLOCK_RECORD
  5
321
330
1
100
AcDbSymbolTableRecord
100
AcDbBlockTableRecord
  2
SW_CENTERMARKSYMBOL_0
  0
BLOCK_RECORD
  5
329
330
1
100
AcDbSymbolTableRecord
100
AcDbBlockTableRecord
  2
SW_CENTERMARKSYMBOL_1
  0
BLOCK_RECORD
  5
331
330
1
100
AcDbSymbolTableRecord
100
AcDbBlockTableRecord
  2
SW_CENTERMARKSYMBOL_2
  0
BLOCK_RECORD
  5
339
330
1
100
AcDbSymbolTableRecord
100
AcDbBlockTableRecord
  2
SW_CENTERMARKSYMBOL_3
  0
BLOCK_RECORD
  5
341
330
1
100
AcDbSymbolTableRecord
100
AcDbBlockTableRecord
  2
SW_CENTERMARKSYMBOL_4
  0
BLOCK_RECORD
  5
349
330
1
100
AcDbSymbolTableRecord
100
AcDbBlockTableRecord
  2
SW_CENTERMARKSYMBOL_5
  0
BLOCK_RECORD
  5
351
330
1
100
AcDbSymbolTableRecord
100
AcDbBlockTableRecord
  2
SW_CENTERMARKSYMBOL_6
  0
BLOCK_RECORD
  5
359
330
1
100
AcDbSymbolTableRecord
100
AcDbBlockTableRecord
  2
SW_CENTERMARKSYMBOL_7
  0
BLOCK_RECORD
  5
361
330
1
100
AcDbSymbolTableRecord
100
AcDbBlockTableRecord
  2
SW_CENTERMARKSYMBOL_8
  0
ENDTAB
  0
ENDSEC
  0
SECTION
  2
BLOCKS
  0
BLOCK
  5
20
330
1F
100
AcDbEntity
  8
0
100
AcDbBlockBegin
  2
*MODEL_SPACE
 70
     0
 10
0.0
 20
0.0
 30
0.0
  3
*MODEL_SPACE
  1

  0
ENDBLK
  5
21
330
1F
100
AcDbEntity
  8
0
100
AcDbBlockEnd
  0
BLOCK
  5
1C
330
1B
100
AcDbEntity
 67
     1
  8
0
100
AcDbBlockBegin
  2
*PAPER_SPACE
 70
     0
 10
0.0
 20
0.0
 30
0.0
  3
*PAPER_SPACE
  1

  0
ENDBLK
  5
1D
330
1B
100
AcDbEntity
 67
     1
  8
0
100
AcDbBlockEnd
  0
BLOCK
  5
24
330
23
100
AcDbEntity
  8
0
100
AcDbBlockBegin
  2
*PAPER_SPACE0
 70
     0
 10
0.0
 20
0.0
 30
0.0
  3
*PAPER_SPACE0
  1

  0
ENDBLK
  5
25
330
23
100
AcDbEntity
  8
0
100
AcDbBlockEnd
  0
BLOCK
  5
5A
330
59
100
AcDbEntity
  8
0
100
AcDbBlockBegin
  2
SW_NOTE_0
 70
     0
 10
0.0
 20
0.0
 30
0.0
  3
SW_NOTE_0
  1

  0
MTEXT
  5
5D
330
59
100
AcDbEntity
  8
0
  6
CONTINUOUS
 62
     0
100
AcDbMText
 10
0.0
 20
1.2505747448
 30
0.0
 40
0.9701388889
 41
0.0
 71
     1
 72
     1
  1
\LRecommended PCB Layout
  7
SLDTEXTSTYLE0
  0
MTEXT
  5
5E
330
59
100
AcDbEntity
  8
0
  6
CONTINUOUS
 62
     0
100
AcDbMText
 10
0.0
 20
-0.0429437581
 30
0.0
 40
0.9701388889
 41
0.0
 71
     1
 72
     1
  1
\LTop View
  7
SLDTEXTSTYLE0
  0
ENDBLK
  5
5B
330
59
100
AcDbEntity
  8
0
100
AcDbBlockEnd
  0
BLOCK
  5
61
330
60
100
AcDbEntity
  8
0
100
AcDbBlockBegin
  2
SW_NOTE_1
 70
     0
 10
0.0
 20
0.0
 30
0.0
  3
SW_NOTE_1
  1

  0
MTEXT
  5
63
330
60
100
AcDbEntity
  8
0
  6
CONTINUOUS
 62
     0
100
AcDbMText
 10
0.0
 20
1.2505747448
 30
0.0
 40
0.9701388889
 41
0.0
 71
     1
 72
     1
  1
\LTarget PCB Recommendations
  7
SLDTEXTSTYLE0
  0
MTEXT
  5
64
330
60
100
AcDbEntity
  8
0
  6
CONTINUOUS
 62
     0
100
AcDbMText
 10
0.0
 20
-0.0429437581
 30
0.0
 40
0.9701388889
 41
0.0
 71
     1
 72
     1
  1
Total thickness: 1.6 mm min.
  7
SLDTEXTSTYLE0
  0
MTEXT
  5
65
330
60
100
AcDbEntity
  8
0
  6
CONTINUOUS
 62
     0
100
AcDbMText
 10
0.0
 20
-1.336462261
 30
0.0
 40
0.9701388889
 41
0.0
 71
     1
 72
     1
  1
Plating: Gold or Solder finish.
  7
SLDTEXTSTYLE0
  0
MTEXT
  5
66
330
60
100
AcDbEntity
  8
0
  6
CONTINUOUS
 62
     0
100
AcDbMText
 10
0.0
 20
-2.6299807639
 30
0.0
 40
0.9701388889
 41
0.0
 71
     1
 72
     1
  1
PCB Pad height: Same or higher than solder mask.
  7
SLDTEXTSTYLE0
  0
MTEXT
  5
67
330
60
100
AcDbEntity
  8
0
  6
CONTINUOUS
 62
     0
100
AcDbMText
 10
0.0
 20
-5.2170177697
 30
0.0
 40
0.9701388889
 41
0.0
 71
     1
 72
     1
  1
NOTE: Steel backing plate may be required based on end user's application.
  7
SLDTEXTSTYLE0
  0
ENDBLK
  5
62
330
60
100
AcDbEntity
  8
0
100
AcDbBlockEnd
  0
BLOCK
  5
6A
330
69
100
AcDbEntity
  8
0
100
AcDbBlockBegin
  2
SW_NOTE_2
 70
     0
 10
0.0
 20
0.0
 30
0.0
  3
SW_NOTE_2
  1

  0
MTEXT
  5
6C
330
69
100
AcDbEntity
  8
0
  6
CONTINUOUS
 62
     0
100
AcDbMText
 10
0.0
 20
1.5916405842
 30
0.0
 40
1.2347222222
 41
0.0
 71
     1
 72
     1
  1
\L*Note: BGA pattern is not symmetrical
  7
SLDTEXTSTYLE0
  0
MTEXT
  5
6D
330
69
100
AcDbEntity
  8
0
  6
CONTINUOUS
 62
     0
100
AcDbMText
 10
0.0
 20
-0.0546556922
 30
0.0
 40
1.2347222222
 41
0.0
 71
     1
 72
     1
  1
\Lwith respect to the mounting holes.
  7
SLDTEXTSTYLE0
  0
ENDBLK
  5
6B
330
69
100
AcDbEntity
  8
0
100
AcDbBlockEnd
  0
BLOCK
  5
70
330
6F
100
AcDbEntity
  8
0
100
AcDbBlockBegin
  2
SW_NOTE_3
 70
     0
 10
0.0
 20
0.0
 30
0.0
  3
SW_NOTE_3
  1

  0
MTEXT
  5
72
330
6F
100
AcDbEntity
  8
0
  6
CONTINUOUS
 62
     0
100
AcDbMText
 10
5.4460069444
 20
0.9095089053
 30
0.0
 40
0.7055555556
 41
0.0
 71
     2
 72
     1
  1
Ironwood Electronics, Inc.
  7
SLDTEXTSTYLE0
  0
MTEXT
  5
73
330
6F
100
AcDbEntity
  8
0
  6
CONTINUOUS
 62
     0
100
AcDbMText
 10
5.4247736603
 20
-0.0312318241
 30
0.0
 40
0.7055555556
 41
0.0
 71
     2
 72
     1
  1
Tele: (800) 404-0204
  7
SLDTEXTSTYLE0
  0
MTEXT
  5
74
330
6F
100
AcDbEntity
  8
0
  6
CONTINUOUS
 62
     0
100
AcDbMText
 10
5.3872106595
 20
-0.9719725535
 30
0.0
 40
0.7055555556
 41
0.0
 71
     2
 72
     1
  1
www.ironwoodelectronics.com
  7
SLDTEXTSTYLE0
  0
ENDBLK
  5
71
330
6F
100
AcDbEntity
  8
0
100
AcDbBlockEnd
  0
BLOCK
  5
77
330
76
100
AcDbEntity
  8
0
100
AcDbBlockBegin
  2
SW_NOTE_4
 70
     0
 10
0.0
 20
0.0
 30
0.0
  3
SW_NOTE_4
  1

  0
MTEXT
  5
79
330
76
100
AcDbEntity
  8
0
  6
CONTINUOUS
 62
     0
100
AcDbMText
 10
0.0
 20
0.682131679
 30
0.0
 40
0.5291666667
 41
0.0
 71
     1
 72
     1
  1
\LTolerances:
  7
SLDTEXTSTYLE0
  0
MTEXT
  5
7A
330
76
100
AcDbEntity
  8
0
  6
CONTINUOUS
 62
     0
100
AcDbMText
 10
3.8830054084
 20
0.682131679
 30
0.0
 40
0.5291666667
 41
0.0
 71
     1
 72
     1
  1
Hole diameters ±0.03mm [±0.001"], Pitches (from true position) ±0.025mm [±0.001"], substrate thickness tolerance ±10%, all other tolerances ±0.13mm [±0.005"] unless stated otherwise.  Materials and specifications are subject to change without notice
  7
SLDTEXTSTYLE0
  0
ENDBLK
  5
78
330
76
100
AcDbEntity
  8
0
100
AcDbBlockEnd
  0
BLOCK
  5
82
330
81
100
AcDbEntity
  8
0
100
AcDbBlockBegin
  2
SW_NOTE_5
 70
     0
 10
0.0
 20
0.0
 30
0.0
  3
SW_NOTE_5
  1

  0
MTEXT
  5
84
330
81
100
AcDbEntity
  8
0
  6
CONTINUOUS
 62
     0
100
AcDbMText
 10
0.0
 20
1.1368861316
 30
0.0
 40
0.8819444444
 41
0.0
 71
     1
 72
     1
  1
Material: N/A
  7
SLDTEXTSTYLE0
  0
MTEXT
  5
85
330
81
100
AcDbEntity
  8
0
  6
CONTINUOUS
 62
     0
100
AcDbMText
 10
0.0
 20
-0.0390397801
 30
0.0
 40
0.8819444444
 41
0.0
 71
     1
 72
     1
  1
Finish: N/A
  7
SLDTEXTSTYLE0
  0
MTEXT
  5
86
330
81
100
AcDbEntity
  8
0
  6
CONTINUOUS
 62
     0
100
AcDbMText
 10
0.0
 20
-1.2149656918
 30
0.0
 40
0.8819444444
 41
0.0
 71
     1
 72
     1
  1
Weight: 43.26
  7
SLDTEXTSTYLE0
  0
ENDBLK
  5
83
330
81
100
AcDbEntity
  8
0
100
AcDbBlockEnd
  0
BLOCK
  5
245
330
244
100
AcDbEntity
  8
0
100
AcDbBlockBegin
  2
_D
 70
     0
 10
0.0
 20
0.0
 30
0.0
  3
_D
  1

  0
SOLID
  5
247
330
244
100
AcDbEntity
  8
0
  6
CONTINUOUS
 62
     7
100
AcDbTrace
 10
19.4643538327
 20
59.0635574447
 30
0.0
 11
19.2950204994
 21
57.962890778
 31
0.0
 12
19.633687166
 22
57.962890778
 32
0.0
 13
19.633687166
 23
57.962890778
 33
0.0
  0
SOLID
  5
248
330
244
100
AcDbEntity
  8
0
  6
CONTINUOUS
 62
     7
100
AcDbTrace
 10
19.4643538327
 20
26.8385574447
 30
0.0
 11
19.633687166
 21
27.9392241113
 31
0.0
 12
19.2950204994
 22
27.9392241113
 32
0.0
 13
19.2950204994
 23
27.9392241113
 33
0.0
  0
LINE
  5
249
330
244
100
AcDbEntity
  8
0
  6
CONTINUOUS
 62
     7
100
AcDbLine
 10
30.0239191979
 20
59.0635574447
 30
0.0
 11
18.4060204994
 21
59.0635574447
 31
0.0
  0
LINE
  5
24A
330
244
100
AcDbEntity
  8
0
  6
CONTINUOUS
 62
     7
100
AcDbLine
 10
30.0239191979
 20
26.8385574447
 30
0.0
 11
18.4060204994
 21
26.8385574447
 31
0.0
  0
LINE
  5
24B
330
244
100
AcDbEntity
  8
0
  6
CONTINUOUS
 62
     7
100
AcDbLine
 10
19.4643538327
 20
59.0635574447
 30
0.0
 11
19.4643538327
 21
47.2411909268
 31
0.0
  0
LINE
  5
24C
330
244
100
AcDbEntity
  8
0
  6
CONTINUOUS
 62
     7
100
AcDbLine
 10
19.4643538327
 20
26.8385574447
 30
0.0
 11
19.4643538327
 21
44.8746398839
 31
0.0
  0
MTEXT
  5
24D
330
244
100
AcDbEntity
  8
0
  6
CONTINUOUS
 62
     7
100
AcDbMText
 10
15.881454374
 20
47.0811129432
 30
3.1775
 40
0.79375
 41
0.0
 71
     1
 72
     1
  1
32.225
  7
SLDTEXTSTYLE0
  0
MTEXT
  5
24E
330
244
100
AcDbEntity
  8
0
  6
CONTINUOUS
 62
     7
100
AcDbMText
 10
19.8208063723
 20
47.0811129432
 30
3.1775
 40
0.79375
 41
0.0
 71
     1
 72
     1
  1
±0.125
  7
SLDTEXTSTYLE0
  0
MTEXT
  5
24F
330
244
100
AcDbEntity
  8
0
  6
CONTINUOUS
 62
     7
100
AcDbMText
 10
16.671529773
 20
45.8978374218
 30
3.1775
 40
0.79375
 41
0.0
 71
     1
 72
     1
  1
Socket Size
  7
SLDTEXTSTYLE0
  0
ENDBLK
  5
246
330
244
100
AcDbEntity
  8
0
100
AcDbBlockEnd
  0
BLOCK
  5
252
330
251
100
AcDbEntity
  8
0
100
AcDbBlockBegin
  2
_D_1
 70
     0
 10
0.0
 20
0.0
 30
0.0
  3
_D_1
  1

  0
SOLID
  5
254
330
251
100
AcDbEntity
  8
0
  6
CONTINUOUS
 62
     7
100
AcDbTrace
 10
29.1972525313
 20
17.7145470401
 30
0.0
 11
30.2979191979
 21
17.5452137067
 31
0.0
 12
30.2979191979
 22
17.8838803734
 32
0.0
 13
30.2979191979
 23
17.8838803734
 33
0.0
  0
SOLID
  5
255
330
251
100
AcDbEntity
  8
0
  6
CONTINUOUS
 62
     7
100
AcDbTrace
 10
63.9222525313
 20
17.7145470401
 30
0.0
 11
62.8215858646
 21
17.8838803734
 31
0.0
 12
62.8215858646
 22
17.5452137067
 32
0.0
 13
62.8215858646
 23
17.5452137067
 33
0.0
  0
LINE
  5
256
330
251
100
AcDbEntity
  8
0
  6
CONTINUOUS
 62
     7
100
AcDbLine
 10
29.1972525313
 20
25.1652241113
 30
0.0
 11
29.1972525313
 21
16.6562137067
 31
0.0
  0
LINE
  5
257
330
251
100
AcDbEntity
  8
0
  6
CONTINUOUS
 62
     7
100
AcDbLine
 10
63.9222525313
 20
25.1652241113
 30
0.0
 11
63.9222525313
 21
16.6562137067
 31
0.0
  0
LINE
  5
258
330
251
100
AcDbEntity
  8
0
  6
CONTINUOUS
 62
     7
100
AcDbLine
 10
29.1972525313
 20
17.7145470401
 30
0.0
 11
38.4016562312
 21
17.7145470401
 31
0.0
  0
LINE
  5
259
330
251
100
AcDbEntity
  8
0
  6
CONTINUOUS
 62
     7
100
AcDbLine
 10
63.9222525313
 20
17.7145470401
 30
0.0
 11
56.8048920542
 21
17.7145470401
 31
0.0
  0
INSERT
  5
261
330
251
100
AcDbEntity
  8
0
  6
CONTINUOUS
 62
     7
100
AcDbBlockReference
  2
SW_SYMBOL_MOD_BOX
 10
43.4879006256
 20
17.8292708381
 30
0.0
 41
0.0030695926
 42
0.0030695926
 43
0.0030695926
  0
MTEXT
  5
262
330
251
100
AcDbEntity
  8
0
  6
CONTINUOUS
 62
     7
100
AcDbMText
 10
44.5528485871
 20
18.7377445779
 30
3.1775
 40
0.79375
 41
0.0
 71
     1
 72
     1
  1
34.725
  7
SLDTEXTSTYLE0
  0
MTEXT
  5
263
330
251
100
AcDbEntity
  8
0
  6
CONTINUOUS
 62
     7
100
AcDbMText
 10
48.4922007406
 20
18.7377445779
 30
3.1775
 40
0.79375
 41
0.0
 71
     1
 72
     1
  1
±0.125
  7
SLDTEXTSTYLE0
  0
MTEXT
  5
264
330
251
100
AcDbEntity
  8
0
  6
CONTINUOUS
 62
     7
100
AcDbMText
 10
38.4016562312
 20
17.5544690565
 30
3.1775
 40
0.79375
 41
0.0
 71
     1
 72
     1
  1
Backing Plate and Insulation Plate Size
  7
SLDTEXTSTYLE0
  0
ENDBLK
  5
253
330
251
100
AcDbEntity
  8
0
100
AcDbBlockEnd
  0
BLOCK
  5
25B
330
25A
100
AcDbEntity
  8
0
100
AcDbBlockBegin
  2
SW_SYMBOL_MOD_BOX
 70
     0
 10
0.0
 20
0.0
 30
0.0
  3
SW_SYMBOL_MOD_BOX
  1

  0
LINE
  5
25D
330
25A
100
AcDbEntity
  8
0
  6
CONTINUOUS
 62
     0
100
AcDbLine
 10
66.6666666667
 20
66.6666666667
 30
0.0
 11
266.6666666667
 21
66.6666666667
 31
0.0
  0
LINE
  5
25E
330
25A
100
AcDbEntity
  8
0
  6
CONTINUOUS
 62
     0
100
AcDbLine
 10
66.6666666667
 20
66.6666666667
 30
0.0
 11
66.6666666667
 21
266.6666666667
 31
0.0
  0
LINE
  5
25F
330
25A
100
AcDbEntity
  8
0
  6
CONTINUOUS
 62
     0
100
AcDbLine
 10
66.6666666667
 20
266.6666666667
 30
0.0
 11
266.6666666667
 21
266.6666666667
 31
0.0
  0
LINE
  5
260
330
25A
100
AcDbEntity
  8
0
  6
CONTINUOUS
 62
     0
100
AcDbLine
 10
266.6666666667
 20
266.6666666667
 30
0.0
 11
266.6666666667
 21
66.6666666667
 31
0.0
  0
ENDBLK
  5
25C
330
25A
100
AcDbEntity
  8
0
100
AcDbBlockEnd
  0
BLOCK
  5
268
330
267
100
AcDbEntity
  8
0
100
AcDbBlockBegin
  2
_D_2
 70
     0
 10
0.0
 20
0.0
 30
0.0
  3
_D_2
  1

  0
SOLID
  5
26A
330
267
100
AcDbEntity
  8
0
  6
CONTINUOUS
 62
     7
100
AcDbTrace
 10
61.7227729133
 20
54.9730370627
 30
0.0
 11
62.3813250288
 21
54.0750114506
 31
0.0
 12
62.6207985254
 22
54.3144849471
 32
0.0
 13
62.6207985254
 23
54.3144849471
 33
0.0
  0
LINE
  5
26B
330
267
100
AcDbEntity
  8
0
  6
CONTINUOUS
 62
     7
100
AcDbLine
 10
61.7227729133
 20
54.9730370627
 30
0.0
 11
66.6938552437
 21
50.0019547322
 31
0.0
  0
LINE
  5
26C
330
267
100
AcDbEntity
  8
0
  6
CONTINUOUS
 62
     7
100
AcDbLine
 10
66.6938552437
 20
50.0019547322
 30
0.0
 11
68.8105219104
 21
50.0019547322
 31
0.0
  0
MTEXT
  5
26D
330
267
100
AcDbEntity
  8
0
  6
CONTINUOUS
 62
     7
100
AcDbMText
 10
70.0454273942
 20
50.9751755023
 30
3.1775
 40
0.79375
 41
0.0
 71
     1
 72
     1
  1
%%c
  7
SLDTEXTSTYLE0
  0
MTEXT
  5
26E
330
267
100
AcDbEntity
  8
0
  6
CONTINUOUS
 62
     7
100
AcDbMText
 10
71.1695390969
 20
50.9751754829
 30
3.1775
 40
0.79375
 41
0.0
 71
     1
 72
     1
  1
0.850
  7
SLDTEXTSTYLE0
  0
MTEXT
  5
26F
330
267
100
AcDbEntity
  8
0
  6
CONTINUOUS
 62
     7
100
AcDbMText
 10
74.5209281393
 20
50.9751754829
 30
3.1775
 40
0.79375
 41
0.0
 71
     1
 72
     1
  1
±0.025 (x2)
  7
SLDTEXTSTYLE0
  0
MTEXT
  5
270
330
267
100
AcDbEntity
  8
0
  6
CONTINUOUS
 62
     7
100
AcDbMText
 10
68.8105219104
 20
49.7918999614
 30
3.1775
 40
0.79375
 41
0.0
 71
     1
 72
     1
  1
Non plated alignment hole
  7
SLDTEXTSTYLE0
  0
ENDBLK
  5
269
330
267
100
AcDbEntity
  8
0
100
AcDbBlockEnd
  0
BLOCK
  5
274
330
273
100
AcDbEntity
  8
0
100
AcDbBlockBegin
  2
_D_3
 70
     0
 10
0.0
 20
0.0
 30
0.0
  3
_D_3
  1

  0
SOLID
  5
276
330
273
100
AcDbEntity
  8
0
  6
CONTINUOUS
 62
     7
100
AcDbTrace
 10
31.6972525313
 20
63.646890778
 30
0.0
 11
32.7979191979
 21
63.4775574447
 31
0.0
 12
32.7979191979
 22
63.8162241113
 32
0.0
 13
32.7979191979
 23
63.8162241113
 33
0.0
  0
SOLID
  5
277
330
273
100
AcDbEntity
  8
0
  6
CONTINUOUS
 62
     7
100
AcDbTrace
 10
30.4472525313
 20
63.646890778
 30
0.0
 11
29.3465858646
 21
63.8162241113
 31
0.0
 12
29.3465858646
 22
63.4775574447
 32
0.0
 13
29.3465858646
 23
63.4775574447
 33
0.0
  0
LINE
  5
278
330
273
100
AcDbEntity
  8
0
  6
CONTINUOUS
 62
     7
100
AcDbLine
 10
31.6972525313
 20
58.236890778
 30
0.0
 11
31.6972525313
 21
64.7052241113
 31
0.0
  0
LINE
  5
279
330
273
100
AcDbEntity
  8
0
  6
CONTINUOUS
 62
     7
100
AcDbLine
 10
30.4472525313
 20
59.486890778
 30
0.0
 11
30.4472525313
 21
64.7052241113
 31
0.0
  0
LINE
  5
27A
330
273
100
AcDbEntity
  8
0
  6
CONTINUOUS
 62
     7
100
AcDbLine
 10
31.6972525313
 20
63.646890778
 30
0.0
 11
34.7927647819
 21
63.646890778
 31
0.0
  0
LINE
  5
27B
330
273
100
AcDbEntity
  8
0
  6
CONTINUOUS
 62
     7
100
AcDbLine
 10
30.4472525313
 20
63.646890778
 30
0.0
 11
28.3305858646
 21
63.646890778
 31
0.0
  0
MTEXT
  5
27C
330
273
100
AcDbEntity
  8
0
  6
CONTINUOUS
 62
     7
100
AcDbMText
 10
34.7927647819
 20
64.0784505552
 30
3.1775
 40
0.79375
 41
0.0
 71
     1
 72
     1
  1
1.250
  7
SLDTEXTSTYLE0
  0
MTEXT
  5
27D
330
273
100
AcDbEntity
  8
0
  6
CONTINUOUS
 62
     7
100
AcDbMText
 10
38.144153902
 20
64.0784505552
 30
3.1775
 40
0.79375
 41
0.0
 71
     1
 72
     1
  1
±0.125 (x4)
  7
SLDTEXTSTYLE0
  0
ENDBLK
  5
275
330
273
100
AcDbEntity
  8
0
100
AcDbBlockEnd
  0
BLOCK
  5
281
330
280
100
AcDbEntity
  8
0
100
AcDbBlockBegin
  2
_D_4
 70
     0
 10
0.0
 20
0.0
 30
0.0
  3
_D_4
  1

  0
SOLID
  5
283
330
280
100
AcDbEntity
  8
0
  6
CONTINUOUS
 62
     7
100
AcDbTrace
 10
31.6972525313
 20
66.1421046766
 30
0.0
 11
30.5965858646
 21
66.3114380099
 31
0.0
 12
30.5965858646
 22
65.9727713432
 32
0.0
 13
30.5965858646
 23
65.9727713432
 33
0.0
  0
SOLID
  5
284
330
280
100
AcDbEntity
  8
0
  6
CONTINUOUS
 62
     7
100
AcDbTrace
 10
29.1972525313
 20
66.1421046766
 30
0.0
 11
30.2979191979
 21
65.9727713432
 31
0.0
 12
30.2979191979
 22
66.3114380099
 32
0.0
 13
30.2979191979
 23
66.3114380099
 33
0.0
  0
LINE
  5
285
330
280
100
AcDbEntity
  8
0
  6
CONTINUOUS
 62
     7
100
AcDbLine
 10
31.6972525313
 20
58.236890778
 30
0.0
 11
31.6972525313
 21
67.2004380099
 31
0.0
  0
LINE
  5
286
330
280
100
AcDbEntity
  8
0
  6
CONTINUOUS
 62
     7
100
AcDbLine
 10
29.1972525313
 20
60.736890778
 30
0.0
 11
29.1972525313
 21
67.2004380099
 31
0.0
  0
LINE
  5
287
330
280
100
AcDbEntity
  8
0
  6
CONTINUOUS
 62
     7
100
AcDbLine
 10
31.6972525313
 20
66.1421046766
 30
0.0
 11
33.076375772
 21
66.1421046766
 31
0.0
  0
LINE
  5
288
330
280
100
AcDbEntity
  8
0
  6
CONTINUOUS
 62
     7
100
AcDbLine
 10
29.1972525313
 20
66.1421046766
 30
0.0
 11
31.6972525313
 21
66.1421046766
 31
0.0
  0
MTEXT
  5
289
330
280
100
AcDbEntity
  8
0
  6
CONTINUOUS
 62
     7
100
AcDbMText
 10
33.076375772
 20
66.5736644537
 30
3.1775
 40
0.79375
 41
0.0
 71
     1
 72
     1
  1
2.50
  7
SLDTEXTSTYLE0
  0
ENDBLK
  5
282
330
280
100
AcDbEntity
  8
0
100
AcDbBlockEnd
  0
BLOCK
  5
28C
330
28B
100
AcDbEntity
  8
0
100
AcDbBlockBegin
  2
_D_5
 70
     0
 10
0.0
 20
0.0
 30
0.0
  3
_D_5
  1

  0
SOLID
  5
28E
330
28B
100
AcDbEntity
  8
0
  6
CONTINUOUS
 62
     7
100
AcDbTrace
 10
23.8639191979
 20
57.8135574447
 30
0.0
 11
23.6945858646
 21
56.712890778
 31
0.0
 12
24.0332525313
 22
56.712890778
 32
0.0
 13
24.0332525313
 23
56.712890778
 33
0.0
  0
SOLID
  5
28F
330
28B
100
AcDbEntity
  8
0
  6
CONTINUOUS
 62
     7
100
AcDbTrace
 10
23.8639191979
 20
59.0635574447
 30
0.0
 11
24.0332525313
 21
60.1642241113
 31
0.0
 12
23.6945858646
 22
60.1642241113
 32
0.0
 13
23.6945858646
 23
60.1642241113
 33
0.0
  0
LINE
  5
290
330
28B
100
AcDbEntity
  8
0
  6
CONTINUOUS
 62
     7
100
AcDbLine
 10
31.2739191979
 20
57.8135574447
 30
0.0
 11
22.8055858646
 21
57.8135574447
 31
0.0
  0
LINE
  5
291
330
28B
100
AcDbEntity
  8
0
  6
CONTINUOUS
 62
     7
100
AcDbLine
 10
30.0239191979
 20
59.0635574447
 30
0.0
 11
22.8055858646
 21
59.0635574447
 31
0.0
  0
LINE
  5
292
330
28B
100
AcDbEntity
  8
0
  6
CONTINUOUS
 62
     7
100
AcDbLine
 10
21.7472525313
 20
61.6131376706
 30
0.0
 11
23.8639191979
 21
61.6131376706
 31
0.0
  0
LINE
  5
293
330
28B
100
AcDbEntity
  8
0
  6
CONTINUOUS
 62
     7
100
AcDbLine
 10
23.8639191979
 20
61.6131376706
 30
0.0
 11
23.8639191979
 21
59.0635574447
 31
0.0
  0
LINE
  5
294
330
28B
100
AcDbEntity
  8
0
  6
CONTINUOUS
 62
     7
100
AcDbLine
 10
23.8639191979
 20
57.8135574447
 30
0.0
 11
23.8639191979
 21
55.696890778
 31
0.0
  0
MTEXT
  5
295
330
28B
100
AcDbEntity
  8
0
  6
CONTINUOUS
 62
     7
100
AcDbMText
 10
13.0527496958
 20
62.0446974477
 30
3.1775
 40
0.79375
 41
0.0
 71
     1
 72
     1
  1
1.250
  7
SLDTEXTSTYLE0
  0
MTEXT
  5
296
330
28B
100
AcDbEntity
  8
0
  6
CONTINUOUS
 62
     7
100
AcDbMText
 10
16.4041388158
 20
62.0446974477
 30
3.1775
 40
0.79375
 41
0.0
 71
     1
 72
     1
  1
±0.125 (x4)
  7
SLDTEXTSTYLE0
  0
ENDBLK
  5
28D
330
28B
100
AcDbEntity
  8
0
100
AcDbBlockEnd
  0
BLOCK
  5
299
330
298
100
AcDbEntity
  8
0
100
AcDbBlockBegin
  2
_D_6
 70
     0
 10
0.0
 20
0.0
 30
0.0
  3
_D_6
  1

  0
SOLID
  5
29B
330
298
100
AcDbEntity
  8
0
  6
CONTINUOUS
 62
     7
100
AcDbTrace
 10
16.7356473561
 20
57.8135574447
 30
0.0
 11
16.9049806894
 21
58.9142241113
 31
0.0
 12
16.5663140228
 22
58.9142241113
 32
0.0
 13
16.5663140228
 23
58.9142241113
 33
0.0
  0
SOLID
  5
29C
330
298
100
AcDbEntity
  8
0
  6
CONTINUOUS
 62
     7
100
AcDbTrace
 10
16.7356473561
 20
60.3135574447
 30
0.0
 11
16.5663140228
 21
59.212890778
 31
0.0
 12
16.9049806894
 22
59.212890778
 32
0.0
 13
16.9049806894
 23
59.212890778
 33
0.0
  0
LINE
  5
29D
330
298
100
AcDbEntity
  8
0
  6
CONTINUOUS
 62
     7
100
AcDbLine
 10
31.2739191979
 20
57.8135574447
 30
0.0
 11
15.6773140228
 21
57.8135574447
 31
0.0
  0
LINE
  5
29E
330
298
100
AcDbEntity
  8
0
  6
CONTINUOUS
 62
     7
100
AcDbLine
 10
28.7739191979
 20
60.3135574447
 30
0.0
 11
15.6773140228
 21
60.3135574447
 31
0.0
  0
LINE
  5
29F
330
298
100
AcDbEntity
  8
0
  6
CONTINUOUS
 62
     7
100
AcDbLine
 10
15.9756403964
 20
56.5579545425
 30
0.0
 11
16.7356473561
 21
56.5579545425
 31
0.0
  0
LINE
  5
2A0
330
298
100
AcDbEntity
  8
0
  6
CONTINUOUS
 62
     7
100
AcDbLine
 10
16.7356473561
 20
56.5579545425
 30
0.0
 11
16.7356473561
 21
57.8135574447
 31
0.0
  0
LINE
  5
2A1
330
298
100
AcDbEntity
  8
0
  6
CONTINUOUS
 62
     7
100
AcDbLine
 10
16.7356473561
 20
57.8135574447
 30
0.0
 11
16.7356473561
 21
60.3135574447
 31
0.0
  0
MTEXT
  5
2A2
330
298
100
AcDbEntity
  8
0
  6
CONTINUOUS
 62
     7
100
AcDbMText
 10
13.2122144651
 20
56.9895143196
 30
3.1775
 40
0.79375
 41
0.0
 71
     1
 72
     1
  1
2.50
  7
SLDTEXTSTYLE0
  0
ENDBLK
  5
29A
330
298
100
AcDbEntity
  8
0
100
AcDbBlockEnd
  0
BLOCK
  5
2A6
330
2A5
100
AcDbEntity
  8
0
100
AcDbBlockBegin
  2
_D_7
 70
     0
 10
0.0
 20
0.0
 30
0.0
  3
_D_7
  1

  0
SOLID
  5
2A8
330
2A5
100
AcDbEntity
  8
0
  6
CONTINUOUS
 62
     7
100
AcDbTrace
 10
58.9997525313
 20
61.3380273927
 30
0.0
 11
60.1004191979
 21
61.1686940593
 31
0.0
 12
60.1004191979
 22
61.507360726
 32
0.0
 13
60.1004191979
 23
61.507360726
 33
0.0
  0
SOLID
  5
2A9
330
2A5
100
AcDbEntity
  8
0
  6
CONTINUOUS
 62
     7
100
AcDbTrace
 10
57.7297525313
 20
61.3380273927
 30
0.0
 11
56.6290858646
 21
61.507360726
 31
0.0
 12
56.6290858646
 22
61.1686940593
 32
0.0
 13
56.6290858646
 23
61.1686940593
 33
0.0
  0
LINE
  5
2AA
330
2A5
100
AcDbEntity
  8
0
  6
CONTINUOUS
 62
     7
100
AcDbLine
 10
58.9997525313
 20
55.939390778
 30
0.0
 11
58.9997525313
 21
62.396360726
 31
0.0
  0
LINE
  5
2AB
330
2A5
100
AcDbEntity
  8
0
  6
CONTINUOUS
 62
     7
100
AcDbLine
 10
57.7297525313
 20
55.939390778
 30
0.0
 11
57.7297525313
 21
62.396360726
 31
0.0
  0
LINE
  5
2AC
330
2A5
100
AcDbEntity
  8
0
  6
CONTINUOUS
 62
     7
100
AcDbLine
 10
58.9997525313
 20
61.3380273927
 30
0.0
 11
63.3053517009
 21
61.3380273927
 31
0.0
  0
LINE
  5
2AD
330
2A5
100
AcDbEntity
  8
0
  6
CONTINUOUS
 62
     7
100
AcDbLine
 10
57.7297525313
 20
61.3380273927
 30
0.0
 11
55.6130858646
 21
61.3380273927
 31
0.0
  0
MTEXT
  5
2AE
330
2A5
100
AcDbEntity
  8
0
  6
CONTINUOUS
 62
     7
100
AcDbMText
 10
63.3053517009
 20
61.7695871698
 30
3.1775
 40
0.79375
 41
0.0
 71
     1
 72
     1
  1
1.27
  7
SLDTEXTSTYLE0
  0
MTEXT
  5
2AF
330
2A5
100
AcDbEntity
  8
0
  6
CONTINUOUS
 62
     7
100
AcDbMText
 10
66.3664338822
 20
61.7695871698
 30
3.1775
 40
0.79375
 41
0.0
 71
     1
 72
     1
  1
typ.
  7
SLDTEXTSTYLE0
  0
ENDBLK
  5
2A7
330
2A5
100
AcDbEntity
  8
0
100
AcDbBlockEnd
  0
BLOCK
  5
2B3
330
2B2
100
AcDbEntity
  8
0
100
AcDbBlockBegin
  2
_D_8
 70
     0
 10
0.0
 20
0.0
 30
0.0
  3
_D_8
  1

  0
SOLID
  5
2B5
330
2B2
100
AcDbEntity
  8
0
  6
CONTINUOUS
 62
     7
100
AcDbTrace
 10
31.6972525313
 20
23.253569431
 30
0.0
 11
32.7979191979
 21
23.0842360977
 31
0.0
 12
32.7979191979
 22
23.4229027643
 32
0.0
 13
32.7979191979
 23
23.4229027643
 33
0.0
  0
SOLID
  5
2B6
330
2B2
100
AcDbEntity
  8
0
  6
CONTINUOUS
 62
     7
100
AcDbTrace
 10
61.4222525313
 20
23.253569431
 30
0.0
 11
60.3215858646
 21
23.4229027643
 31
0.0
 12
60.3215858646
 22
23.0842360977
 32
0.0
 13
60.3215858646
 23
23.0842360977
 33
0.0
  0
LINE
  5
2B7
330
2B2
100
AcDbEntity
  8
0
  6
CONTINUOUS
 62
     7
100
AcDbLine
 10
31.6972525313
 20
27.6652241113
 30
0.0
 11
31.6972525313
 21
22.1952360977
 31
0.0
  0
LINE
  5
2B8
330
2B2
100
AcDbEntity
  8
0
  6
CONTINUOUS
 62
     7
100
AcDbLine
 10
61.4222525313
 20
27.6652241113
 30
0.0
 11
61.4222525313
 21
22.1952360977
 31
0.0
  0
LINE
  5
2B9
330
2B2
100
AcDbEntity
  8
0
  6
CONTINUOUS
 62
     7
100
AcDbLine
 10
31.6972525313
 20
23.253569431
 30
0.0
 11
42.6748973982
 21
23.253569431
 31
0.0
  0
LINE
  5
2BA
330
2B2
100
AcDbEntity
  8
0
  6
CONTINUOUS
 62
     7
100
AcDbLine
 10
61.4222525313
 20
23.253569431
 30
0.0
 11
51.3693996128
 21
23.253569431
 31
0.0
  0
MTEXT
  5
2BB
330
2B2
100
AcDbEntity
  8
0
  6
CONTINUOUS
 62
     7
100
AcDbMText
 10
42.6748973982
 20
23.6851292081
 30
3.1775
 40
0.79375
 41
0.0
 71
     1
 72
     1
  1
29.725
  7
SLDTEXTSTYLE0
  0
MTEXT
  5
2BC
330
2B2
100
AcDbEntity
  8
0
  6
CONTINUOUS
 62
     7
100
AcDbMText
 10
46.6142493965
 20
23.6851292081
 30
3.1775
 40
0.79375
 41
0.0
 71
     1
 72
     1
  1
±0.05 (x4)
  7
SLDTEXTSTYLE0
  0
ENDBLK
  5
2B4
330
2B2
100
AcDbEntity
  8
0
100
AcDbBlockEnd
  0
BLOCK
  5
2C0
330
2BF
100
AcDbEntity
  8
0
100
AcDbBlockBegin
  2
_D_9
 70
     0
 10
0.0
 20
0.0
 30
0.0
  3
_D_9
  1

  0
SOLID
  5
2C2
330
2BF
100
AcDbEntity
  8
0
  6
CONTINUOUS
 62
     7
100
AcDbTrace
 10
23.0636841099
 20
33.1685574447
 30
0.0
 11
22.8943507766
 21
32.067890778
 31
0.0
 12
23.2330174432
 22
32.067890778
 32
0.0
 13
23.2330174432
 23
32.067890778
 33
0.0
  0
SOLID
  5
2C3
330
2BF
100
AcDbEntity
  8
0
  6
CONTINUOUS
 62
     7
100
AcDbTrace
 10
23.0636841099
 20
28.0885574447
 30
0.0
 11
23.2330174432
 21
29.1892241113
 31
0.0
 12
22.8943507766
 22
29.1892241113
 32
0.0
 13
22.8943507766
 23
29.1892241113
 33
0.0
  0
LINE
  5
2C4
330
2BF
100
AcDbEntity
  8
0
  6
CONTINUOUS
 62
     7
100
AcDbLine
 10
30.7739191979
 20
33.1685574447
 30
0.0
 11
22.0053507766
 21
33.1685574447
 31
0.0
  0
LINE
  5
2C5
330
2BF
100
AcDbEntity
  8
0
  6
CONTINUOUS
 62
     7
100
AcDbLine
 10
30.7739191979
 20
28.0885574447
 30
0.0
 11
22.0053507766
 21
28.0885574447
 31
0.0
  0
LINE
  5
2C6
330
2BF
100
AcDbEntity
  8
0
  6
CONTINUOUS
 62
     7
100
AcDbLine
 10
23.0636841099
 20
33.1685574447
 30
0.0
 11
23.0636841099
 21
31.3848668548
 31
0.0
  0
LINE
  5
2C7
330
2BF
100
AcDbEntity
  8
0
  6
CONTINUOUS
 62
     7
100
AcDbLine
 10
23.0636841099
 20
28.0885574447
 30
0.0
 11
23.0636841099
 21
30.2015913334
 31
0.0
  0
MTEXT
  5
2C8
330
2BF
100
AcDbEntity
  8
0
  6
CONTINUOUS
 62
     7
100
AcDbMText
 10
21.6819711442
 20
31.2247888712
 30
3.1775
 40
0.79375
 41
0.0
 71
     1
 72
     1
  1
5.08
  7
SLDTEXTSTYLE0
  0
ENDBLK
  5
2C1
330
2BF
100
AcDbEntity
  8
0
100
AcDbBlockEnd
  0
BLOCK
  5
2CC
330
2CB
100
AcDbEntity
  8
0
100
AcDbBlockBegin
  2
_D_10
 70
     0
 10
0.0
 20
0.0
 30
0.0
  3
_D_10
  1

  0
SOLID
  5
2CE
330
2CB
100
AcDbEntity
  8
0
  6
CONTINUOUS
 62
     7
100
AcDbTrace
 10
59.2830606251
 20
39.6327299387
 30
0.0
 11
60.188754014
 21
38.9847636015
 31
0.0
 12
60.341636687
 22
39.2869589016
 32
0.0
 13
60.341636687
 23
39.2869589016
 33
0.0
  0
LINE
  5
2CF
330
2CB
100
AcDbEntity
  8
0
  6
CONTINUOUS
 62
     7
100
AcDbLine
 10
59.2830606251
 20
39.6327299387
 30
0.0
 11
66.0411905823
 21
36.213745686
 31
0.0
  0
LINE
  5
2D0
330
2CB
100
AcDbEntity
  8
0
  6
CONTINUOUS
 62
     7
100
AcDbLine
 10
66.0411905823
 20
36.213745686
 30
0.0
 11
68.157857249
 21
36.213745686
 31
0.0
  0
MTEXT
  5
2D1
330
2CB
100
AcDbEntity
  8
0
  6
CONTINUOUS
 62
     7
100
AcDbMText
 10
68.157857249
 20
36.5953286565
 30
3.1775
 40
0.79375
 41
0.0
 71
     1
 72
     1
  1
%%c
  7
SLDTEXTSTYLE0
  0
MTEXT
  5
2D2
330
2CB
100
AcDbEntity
  8
0
  6
CONTINUOUS
 62
     7
100
AcDbMText
 10
69.2819689517
 20
36.5953286371
 30
3.1775
 40
0.79375
 41
0.0
 71
     1
 72
     1
  1
0.635
  7
SLDTEXTSTYLE0
  0
MTEXT
  5
2D3
330
2CB
100
AcDbEntity
  8
0
  6
CONTINUOUS
 62
     7
100
AcDbMText
 10
72.9310142441
 20
36.5953286371
 30
3.1775
 40
0.79375
 41
0.0
 71
     1
 72
     1
  1
pad (x400)
  7
SLDTEXTSTYLE0
  0
ENDBLK
  5
2CD
330
2CB
100
AcDbEntity
  8
0
100
AcDbBlockEnd
  0
BLOCK
  5
2D7
330
2D6
100
AcDbEntity
  8
0
100
AcDbBlockBegin
  2
_D_11
 70
     0
 10
0.0
 20
0.0
 30
0.0
  3
_D_11
  1

  0
SOLID
  5
2D9
330
2D6
100
AcDbEntity
  8
0
  6
CONTINUOUS
 62
     7
100
AcDbTrace
 10
31.6972525313
 20
61.9714096696
 30
0.0
 11
32.7979191979
 21
61.8020763363
 31
0.0
 12
32.7979191979
 22
62.1407430029
 32
0.0
 13
32.7979191979
 23
62.1407430029
 33
0.0
  0
SOLID
  5
2DA
330
2D6
100
AcDbEntity
  8
0
  6
CONTINUOUS
 62
     7
100
AcDbTrace
 10
34.8697525313
 20
61.9714096696
 30
0.0
 11
33.7690858646
 21
62.1407430029
 31
0.0
 12
33.7690858646
 22
61.8020763363
 32
0.0
 13
33.7690858646
 23
61.8020763363
 33
0.0
  0
LINE
  5
2DB
330
2D6
100
AcDbEntity
  8
0
  6
CONTINUOUS
 62
     7
100
AcDbLine
 10
31.6972525313
 20
58.236890778
 30
0.0
 11
31.6972525313
 21
63.0297430029
 31
0.0
  0
LINE
  5
2DC
330
2D6
100
AcDbEntity
  8
0
  6
CONTINUOUS
 62
     7
100
AcDbLine
 10
34.8697525313
 20
55.939390778
 30
0.0
 11
34.8697525313
 21
63.0297430029
 31
0.0
  0
LINE
  5
2DD
330
2D6
100
AcDbEntity
  8
0
  6
CONTINUOUS
 62
     7
100
AcDbLine
 10
31.6972525313
 20
61.9714096696
 30
0.0
 11
34.8697525313
 21
61.9714096696
 31
0.0
  0
LINE
  5
2DE
330
2D6
100
AcDbEntity
  8
0
  6
CONTINUOUS
 62
     7
100
AcDbLine
 10
34.8697525313
 20
61.9714096696
 30
0.0
 11
35.3590717811
 21
61.9714096696
 31
0.0
  0
MTEXT
  5
2DF
330
2D6
100
AcDbEntity
  8
0
  6
CONTINUOUS
 62
     7
100
AcDbMText
 10
35.3590717811
 20
62.4029694468
 30
3.1775
 40
0.79375
 41
0.0
 71
     1
 72
     1
  1
3.1725
  7
SLDTEXTSTYLE0
  0
MTEXT
  5
2E0
330
2D6
100
AcDbEntity
  8
0
  6
CONTINUOUS
 62
     7
100
AcDbMText
 10
39.5960800294
 20
62.4029694468
 30
3.1775
 40
0.79375
 41
0.0
 71
     1
 72
     1
  1
*
  7
SLDTEXTSTYLE0
  0
ENDBLK
  5
2D8
330
2D6
100
AcDbEntity
  8
0
100
AcDbBlockEnd
  0
BLOCK
  5
2E4
330
2E3
100
AcDbEntity
  8
0
100
AcDbBlockBegin
  2
_D_12
 70
     0
 10
0.0
 20
0.0
 30
0.0
  3
_D_12
  1

  0
SOLID
  5
2E6
330
2E3
100
AcDbEntity
  8
0
  6
CONTINUOUS
 62
     7
100
AcDbTrace
 10
25.8639191979
 20
55.0160574447
 30
0.0
 11
25.6945858646
 21
53.915390778
 31
0.0
 12
26.0332525313
 22
53.915390778
 32
0.0
 13
26.0332525313
 23
53.915390778
 33
0.0
  0
SOLID
  5
2E7
330
2E3
100
AcDbEntity
  8
0
  6
CONTINUOUS
 62
     7
100
AcDbTrace
 10
25.8639191979
 20
57.8135574447
 30
0.0
 11
26.0332525313
 21
58.9142241113
 31
0.0
 12
25.6945858646
 22
58.9142241113
 32
0.0
 13
25.6945858646
 23
58.9142241113
 33
0.0
  0
LINE
  5
2E8
330
2E3
100
AcDbEntity
  8
0
  6
CONTINUOUS
 62
     7
100
AcDbLine
 10
33.9464191979
 20
55.0160574447
 30
0.0
 11
24.8055858646
 21
55.0160574447
 31
0.0
  0
LINE
  5
2E9
330
2E3
100
AcDbEntity
  8
0
  6
CONTINUOUS
 62
     7
100
AcDbLine
 10
31.2739191979
 20
57.8135574447
 30
0.0
 11
24.8055858646
 21
57.8135574447
 31
0.0
  0
LINE
  5
2EA
330
2E3
100
AcDbEntity
  8
0
  6
CONTINUOUS
 62
     7
100
AcDbLine
 10
25.8639191979
 20
55.0160574447
 30
0.0
 11
25.8639191979
 21
52.899390778
 31
0.0
  0
LINE
  5
2EB
330
2E3
100
AcDbEntity
  8
0
  6
CONTINUOUS
 62
     7
100
AcDbLine
 10
25.8639191979
 20
57.8135574447
 30
0.0
 11
25.8639191979
 21
59.9302241113
 31
0.0
  0
MTEXT
  5
2EC
330
2E3
100
AcDbEntity
  8
0
  6
CONTINUOUS
 62
     7
100
AcDbMText
 10
23.894243354
 20
56.5187917721
 30
3.1775
 40
0.79375
 41
0.0
 71
     1
 72
     1
  1
2.7975
  7
SLDTEXTSTYLE0
  0
ENDBLK
  5
2E5
330
2E3
100
AcDbEntity
  8
0
100
AcDbBlockEnd
  0
BLOCK
  5
2EF
330
2EE
100
AcDbEntity
  8
0
100
AcDbBlockBegin
  2
_D_13
 70
     0
 10
0.0
 20
0.0
 30
0.0
  3
_D_13
  1

  0
SOLID
  5
2F1
330
2EE
100
AcDbEntity
  8
0
  6
CONTINUOUS
 62
     7
100
AcDbTrace
 10
25.8639191979
 20
55.0160574447
 30
0.0
 11
25.6945858646
 21
53.915390778
 31
0.0
 12
26.0332525313
 22
53.915390778
 32
0.0
 13
26.0332525313
 23
53.915390778
 33
0.0
  0
SOLID
  5
2F2
330
2EE
100
AcDbEntity
  8
0
  6
CONTINUOUS
 62
     7
100
AcDbTrace
 10
25.8639191979
 20
30.8860574447
 30
0.0
 11
26.0332525313
 21
31.9867241113
 31
0.0
 12
25.6945858646
 22
31.9867241113
 32
0.0
 13
25.6945858646
 23
31.9867241113
 33
0.0
  0
LINE
  5
2F3
330
2EE
100
AcDbEntity
  8
0
  6
CONTINUOUS
 62
     7
100
AcDbLine
 10
35.7164191979
 20
55.0160574447
 30
0.0
 11
24.8055858646
 21
55.0160574447
 31
0.0
  0
LINE
  5
2F4
330
2EE
100
AcDbEntity
  8
0
  6
CONTINUOUS
 62
     7
100
AcDbLine
 10
34.4464191979
 20
30.8860574447
 30
0.0
 11
24.8055858646
 21
30.8860574447
 31
0.0
  0
LINE
  5
2F5
330
2EE
100
AcDbEntity
  8
0
  6
CONTINUOUS
 62
     7
100
AcDbLine
 10
25.8639191979
 20
55.0160574447
 30
0.0
 11
25.8639191979
 21
45.4754489074
 31
0.0
  0
LINE
  5
2F6
330
2EE
100
AcDbEntity
  8
0
  6
CONTINUOUS
 62
     7
100
AcDbLine
 10
25.8639191979
 20
30.8860574447
 30
0.0
 11
25.8639191979
 21
44.292173386
 31
0.0
  0
MTEXT
  5
2F7
330
2EE
100
AcDbEntity
  8
0
  6
CONTINUOUS
 62
     7
100
AcDbMText
 10
23.129891395
 20
45.3153709238
 30
3.1775
 40
0.79375
 41
0.0
 71
     1
 72
     1
  1
24.13
  7
SLDTEXTSTYLE0
  0
MTEXT
  5
2F8
330
2EE
100
AcDbEntity
  8
0
  6
CONTINUOUS
 62
     7
100
AcDbMText
 10
26.778936765
 20
45.3153709238
 30
3.1775
 40
0.79375
 41
0.0
 71
     1
 72
     1
  1
(x4)
  7
SLDTEXTSTYLE0
  0
ENDBLK
  5
2F0
330
2EE
100
AcDbEntity
  8
0
100
AcDbBlockEnd
  0
BLOCK
  5
2FB
330
2FA
100
AcDbEntity
  8
0
100
AcDbBlockBegin
  2
_D_14
 70
     0
 10
0.0
 20
0.0
 30
0.0
  3
_D_14
  1

  0
SOLID
  5
2FD
330
2FA
100
AcDbEntity
  8
0
  6
CONTINUOUS
 62
     7
100
AcDbTrace
 10
67.2555858646
 20
55.2735574447
 30
0.0
 11
67.0862525313
 21
54.172890778
 31
0.0
 12
67.4249191979
 22
54.172890778
 32
0.0
 13
67.4249191979
 23
54.172890778
 33
0.0
  0
SOLID
  5
2FE
330
2FA
100
AcDbEntity
  8
0
  6
CONTINUOUS
 62
     7
100
AcDbTrace
 10
67.2555858646
 20
57.8135574447
 30
0.0
 11
67.4249191979
 21
58.9142241113
 31
0.0
 12
67.0862525313
 22
58.9142241113
 32
0.0
 13
67.0862525313
 23
58.9142241113
 33
0.0
  0
LINE
  5
2FF
330
2FA
100
AcDbEntity
  8
0
  6
CONTINUOUS
 62
     7
100
AcDbLine
 10
62.3455858646
 20
55.2735574447
 30
0.0
 11
68.3139191979
 21
55.2735574447
 31
0.0
  0
LINE
  5
300
330
2FA
100
AcDbEntity
  8
0
  6
CONTINUOUS
 62
     7
100
AcDbLine
 10
62.3455858646
 20
57.8135574447
 30
0.0
 11
68.3139191979
 21
57.8135574447
 31
0.0
  0
LINE
  5
301
330
2FA
100
AcDbEntity
  8
0
  6
CONTINUOUS
 62
     7
100
AcDbLine
 10
67.2555858646
 20
55.2735574447
 30
0.0
 11
67.2555858646
 21
53.156890778
 31
0.0
  0
LINE
  5
302
330
2FA
100
AcDbEntity
  8
0
  6
CONTINUOUS
 62
     7
100
AcDbLine
 10
67.2555858646
 20
57.8135574447
 30
0.0
 11
67.2555858646
 21
59.9302241113
 31
0.0
  0
MTEXT
  5
303
330
2FA
100
AcDbEntity
  8
0
  6
CONTINUOUS
 62
     7
100
AcDbMText
 10
65.8738728989
 20
56.8028856073
 30
3.1775
 40
0.79375
 41
0.0
 71
     1
 72
     1
  1
2.54
  7
SLDTEXTSTYLE0
  0
ENDBLK
  5
2FC
330
2FA
100
AcDbEntity
  8
0
100
AcDbBlockEnd
  0
BLOCK
  5
307
330
306
100
AcDbEntity
  8
0
100
AcDbBlockBegin
  2
_D_15
 70
     0
 10
0.0
 20
0.0
 30
0.0
  3
_D_15
  1

  0
SOLID
  5
309
330
306
100
AcDbEntity
  8
0
  6
CONTINUOUS
 62
     7
100
AcDbTrace
 10
61.9254884148
 20
27.3973421052
 30
0.0
 11
62.4364231107
 21
26.4078540429
 31
0.0
 12
62.7102144498
 22
26.607186463
 32
0.0
 13
62.7102144498
 23
26.607186463
 33
0.0
  0
LINE
  5
30A
330
306
100
AcDbEntity
  8
0
  6
CONTINUOUS
 62
     7
100
AcDbLine
 10
61.9254884148
 20
27.3973421052
 30
0.0
 11
64.4528568967
 21
23.9258967642
 31
0.0
  0
LINE
  5
30B
330
306
100
AcDbEntity
  8
0
  6
CONTINUOUS
 62
     7
100
AcDbLine
 10
64.4528568967
 20
23.9258967642
 30
0.0
 11
66.5695235634
 21
23.9258967642
 31
0.0
  0
MTEXT
  5
30C
330
306
100
AcDbEntity
  8
0
  6
CONTINUOUS
 62
     7
100
AcDbMText
 10
68.2747994119
 20
24.8991175343
 30
3.1775
 40
0.79375
 41
0.0
 71
     1
 72
     1
  1
%%c
  7
SLDTEXTSTYLE0
  0
MTEXT
  5
30D
330
306
100
AcDbEntity
  8
0
  6
CONTINUOUS
 62
     7
100
AcDbMText
 10
69.3989111146
 20
24.8991175149
 30
3.1775
 40
0.79375
 41
0.0
 71
     1
 72
     1
  1
1.71
  7
SLDTEXTSTYLE0
  0
MTEXT
  5
30E
330
306
100
AcDbEntity
  8
0
  6
CONTINUOUS
 62
     7
100
AcDbMText
 10
72.1623372787
 20
24.8991175149
 30
3.1775
 40
0.79375
 41
0.0
 71
     1
 72
     1
  1
±0.10 (x4)
  7
SLDTEXTSTYLE0
  0
MTEXT
  5
30F
330
306
100
AcDbEntity
  8
0
  6
CONTINUOUS
 62
     7
100
AcDbMText
 10
66.5695235634
 20
23.7158419935
 30
3.1775
 40
0.79375
 41
0.0
 71
     1
 72
     1
  1
Non plated mounting hole
  7
SLDTEXTSTYLE0
  0
ENDBLK
  5
308
330
306
100
AcDbEntity
  8
0
100
AcDbBlockEnd
  0
BLOCK
  5
313
330
312
100
AcDbEntity
  8
0
100
AcDbBlockBegin
  2
_D_16
 70
     0
 10
0.0
 20
0.0
 30
0.0
  3
_D_16
  1

  0
SOLID
  5
315
330
312
100
AcDbEntity
  8
0
  6
CONTINUOUS
 62
     7
100
AcDbTrace
 10
63.0472525313
 20
20.7519519543
 30
0.0
 11
61.9465858646
 21
20.9212852877
 31
0.0
 12
61.9465858646
 22
20.582618621
 32
0.0
 13
61.9465858646
 23
20.582618621
 33
0.0
  0
SOLID
  5
316
330
312
100
AcDbEntity
  8
0
  6
CONTINUOUS
 62
     7
100
AcDbTrace
 10
30.4472525313
 20
20.7519519543
 30
0.0
 11
31.5479191979
 21
20.582618621
 31
0.0
 12
31.5479191979
 22
20.9212852877
 32
0.0
 13
31.5479191979
 23
20.9212852877
 33
0.0
  0
LINE
  5
317
330
312
100
AcDbEntity
  8
0
  6
CONTINUOUS
 62
     7
100
AcDbLine
 10
63.0472525313
 20
26.4152241113
 30
0.0
 11
63.0472525313
 21
19.693618621
 31
0.0
  0
LINE
  5
318
330
312
100
AcDbEntity
  8
0
  6
CONTINUOUS
 62
     7
100
AcDbLine
 10
30.4472525313
 20
26.4152241113
 30
0.0
 11
30.4472525313
 21
19.693618621
 31
0.0
  0
LINE
  5
319
330
312
100
AcDbEntity
  8
0
  6
CONTINUOUS
 62
     7
100
AcDbLine
 10
63.0472525313
 20
20.7519519543
 30
0.0
 11
50.4317790078
 21
20.7519519543
 31
0.0
  0
LINE
  5
31A
330
312
100
AcDbEntity
  8
0
  6
CONTINUOUS
 62
     7
100
AcDbLine
 10
30.4472525313
 20
20.7519519543
 30
0.0
 11
42.4354818768
 21
20.7519519543
 31
0.0
  0
MTEXT
  5
31B
330
312
100
AcDbEntity
  8
0
  6
CONTINUOUS
 62
     7
100
AcDbMText
 10
42.8507309836
 20
21.7751494922
 30
3.1775
 40
0.79375
 41
0.0
 71
     1
 72
     1
  1
32.600
  7
SLDTEXTSTYLE0
  0
MTEXT
  5
31C
330
312
100
AcDbEntity
  8
0
  6
CONTINUOUS
 62
     7
100
AcDbMText
 10
46.7900829819
 20
21.7751494922
 30
3.1775
 40
0.79375
 41
0.0
 71
     1
 72
     1
  1
±0.125
  7
SLDTEXTSTYLE0
  0
MTEXT
  5
31D
330
312
100
AcDbEntity
  8
0
  6
CONTINUOUS
 62
     7
100
AcDbMText
 10
42.4354818768
 20
20.5918739707
 30
3.1775
 40
0.79375
 41
0.0
 71
     1
 72
     1
  1
Socket base size
  7
SLDTEXTSTYLE0
  0
ENDBLK
  5
314
330
312
100
AcDbEntity
  8
0
100
AcDbBlockEnd
  0
BLOCK
  5
322
330
321
100
AcDbEntity
  8
0
100
AcDbBlockBegin
  2
SW_CENTERMARKSYMBOL_0
 70
     0
 10
0.0
 20
0.0
 30
0.0
  3
SW_CENTERMARKSYMBOL_0
  1

  0
LINE
  5
324
330
321
100
AcDbEntity
  8
0
  6
CONTINUOUS
 62
     0
100
AcDbLine
 10
0.0
 20
0.0
 30
0.0
 11
0.0
 21
0.5
 31
0.0
  0
LINE
  5
325
330
321
100
AcDbEntity
  8
0
  6
CONTINUOUS
 62
     0
100
AcDbLine
 10
0.0
 20
0.0
 30
0.0
 11
-0.5
 21
0.0
 31
0.0
  0
LINE
  5
326
330
321
100
AcDbEntity
  8
0
  6
CONTINUOUS
 62
     0
100
AcDbLine
 10
0.0
 20
0.0
 30
0.0
 11
0.0
 21
-0.5
 31
0.0
  0
LINE
  5
327
330
321
100
AcDbEntity
  8
0
  6
CONTINUOUS
 62
     0
100
AcDbLine
 10
0.0
 20
0.0
 30
0.0
 11
0.5
 21
0.0
 31
0.0
  0
ENDBLK
  5
323
330
321
100
AcDbEntity
  8
0
100
AcDbBlockEnd
  0
BLOCK
  5
32A
330
329
100
AcDbEntity
  8
0
100
AcDbBlockBegin
  2
SW_CENTERMARKSYMBOL_1
 70
     0
 10
0.0
 20
0.0
 30
0.0
  3
SW_CENTERMARKSYMBOL_1
  1

  0
LINE
  5
32C
330
329
100
AcDbEntity
  8
0
  6
CONTINUOUS
 62
     0
100
AcDbLine
 10
0.0
 20
0.0
 30
0.0
 11
0.0
 21
0.5
 31
0.0
  0
LINE
  5
32D
330
329
100
AcDbEntity
  8
0
  6
CONTINUOUS
 62
     0
100
AcDbLine
 10
0.0
 20
0.0
 30
0.0
 11
-0.5
 21
0.0
 31
0.0
  0
LINE
  5
32E
330
329
100
AcDbEntity
  8
0
  6
CONTINUOUS
 62
     0
100
AcDbLine
 10
0.0
 20
0.0
 30
0.0
 11
0.0
 21
-0.5
 31
0.0
  0
LINE
  5
32F
330
329
100
AcDbEntity
  8
0
  6
CONTINUOUS
 62
     0
100
AcDbLine
 10
0.0
 20
0.0
 30
0.0
 11
0.5
 21
0.0
 31
0.0
  0
ENDBLK
  5
32B
330
329
100
AcDbEntity
  8
0
100
AcDbBlockEnd
  0
BLOCK
  5
332
330
331
100
AcDbEntity
  8
0
100
AcDbBlockBegin
  2
SW_CENTERMARKSYMBOL_2
 70
     0
 10
0.0
 20
0.0
 30
0.0
  3
SW_CENTERMARKSYMBOL_2
  1

  0
LINE
  5
334
330
331
100
AcDbEntity
  8
0
  6
CONTINUOUS
 62
     0
100
AcDbLine
 10
0.0
 20
0.0
 30
0.0
 11
0.0
 21
0.5
 31
0.0
  0
LINE
  5
335
330
331
100
AcDbEntity
  8
0
  6
CONTINUOUS
 62
     0
100
AcDbLine
 10
0.0
 20
0.0
 30
0.0
 11
-0.5
 21
0.0
 31
0.0
  0
LINE
  5
336
330
331
100
AcDbEntity
  8
0
  6
CONTINUOUS
 62
     0
100
AcDbLine
 10
0.0
 20
0.0
 30
0.0
 11
0.0
 21
-0.5
 31
0.0
  0
LINE
  5
337
330
331
100
AcDbEntity
  8
0
  6
CONTINUOUS
 62
     0
100
AcDbLine
 10
0.0
 20
0.0
 30
0.0
 11
0.5
 21
0.0
 31
0.0
  0
ENDBLK
  5
333
330
331
100
AcDbEntity
  8
0
100
AcDbBlockEnd
  0
BLOCK
  5
33A
330
339
100
AcDbEntity
  8
0
100
AcDbBlockBegin
  2
SW_CENTERMARKSYMBOL_3
 70
     0
 10
0.0
 20
0.0
 30
0.0
  3
SW_CENTERMARKSYMBOL_3
  1

  0
LINE
  5
33C
330
339
100
AcDbEntity
  8
0
  6
CONTINUOUS
 62
     0
100
AcDbLine
 10
0.0
 20
0.0
 30
0.0
 11
0.0
 21
0.5
 31
0.0
  0
LINE
  5
33D
330
339
100
AcDbEntity
  8
0
  6
CONTINUOUS
 62
     0
100
AcDbLine
 10
0.0
 20
0.0
 30
0.0
 11
-0.5
 21
0.0
 31
0.0
  0
LINE
  5
33E
330
339
100
AcDbEntity
  8
0
  6
CONTINUOUS
 62
     0
100
AcDbLine
 10
0.0
 20
0.0
 30
0.0
 11
0.0
 21
-0.5
 31
0.0
  0
LINE
  5
33F
330
339
100
AcDbEntity
  8
0
  6
CONTINUOUS
 62
     0
100
AcDbLine
 10
0.0
 20
0.0
 30
0.0
 11
0.5
 21
0.0
 31
0.0
  0
ENDBLK
  5
33B
330
339
100
AcDbEntity
  8
0
100
AcDbBlockEnd
  0
BLOCK
  5
342
330
341
100
AcDbEntity
  8
0
100
AcDbBlockBegin
  2
SW_CENTERMARKSYMBOL_4
 70
     0
 10
0.0
 20
0.0
 30
0.0
  3
SW_CENTERMARKSYMBOL_4
  1

  0
LINE
  5
344
330
341
100
AcDbEntity
  8
0
  6
CONTINUOUS
 62
     0
100
AcDbLine
 10
0.0
 20
0.0
 30
0.0
 11
0.0
 21
0.5
 31
0.0
  0
LINE
  5
345
330
341
100
AcDbEntity
  8
0
  6
CONTINUOUS
 62
     0
100
AcDbLine
 10
0.0
 20
0.0
 30
0.0
 11
-0.5
 21
0.0
 31
0.0
  0
LINE
  5
346
330
341
100
AcDbEntity
  8
0
  6
CONTINUOUS
 62
     0
100
AcDbLine
 10
0.0
 20
0.0
 30
0.0
 11
0.0
 21
-0.5
 31
0.0
  0
LINE
  5
347
330
341
100
AcDbEntity
  8
0
  6
CONTINUOUS
 62
     0
100
AcDbLine
 10
0.0
 20
0.0
 30
0.0
 11
0.5
 21
0.0
 31
0.0
  0
ENDBLK
  5
343
330
341
100
AcDbEntity
  8
0
100
AcDbBlockEnd
  0
BLOCK
  5
34A
330
349
100
AcDbEntity
  8
0
100
AcDbBlockBegin
  2
SW_CENTERMARKSYMBOL_5
 70
     0
 10
0.0
 20
0.0
 30
0.0
  3
SW_CENTERMARKSYMBOL_5
  1

  0
LINE
  5
34C
330
349
100
AcDbEntity
  8
0
  6
CONTINUOUS
 62
     0
100
AcDbLine
 10
0.0
 20
0.0
 30
0.0
 11
0.0
 21
0.5
 31
0.0
  0
LINE
  5
34D
330
349
100
AcDbEntity
  8
0
  6
CONTINUOUS
 62
     0
100
AcDbLine
 10
0.0
 20
0.0
 30
0.0
 11
-0.5
 21
0.0
 31
0.0
  0
LINE
  5
34E
330
349
100
AcDbEntity
  8
0
  6
CONTINUOUS
 62
     0
100
AcDbLine
 10
0.0
 20
0.0
 30
0.0
 11
0.0
 21
-0.5
 31
0.0
  0
LINE
  5
34F
330
349
100
AcDbEntity
  8
0
  6
CONTINUOUS
 62
     0
100
AcDbLine
 10
0.0
 20
0.0
 30
0.0
 11
0.5
 21
0.0
 31
0.0
  0
ENDBLK
  5
34B
330
349
100
AcDbEntity
  8
0
100
AcDbBlockEnd
  0
BLOCK
  5
352
330
351
100
AcDbEntity
  8
0
100
AcDbBlockBegin
  2
SW_CENTERMARKSYMBOL_6
 70
     0
 10
0.0
 20
0.0
 30
0.0
  3
SW_CENTERMARKSYMBOL_6
  1

  0
LINE
  5
354
330
351
100
AcDbEntity
  8
0
  6
CONTINUOUS
 62
     0
100
AcDbLine
 10
0.0
 20
0.0
 30
0.0
 11
0.0
 21
0.5
 31
0.0
  0
LINE
  5
355
330
351
100
AcDbEntity
  8
0
  6
CONTINUOUS
 62
     0
100
AcDbLine
 10
0.0
 20
0.0
 30
0.0
 11
-0.5
 21
0.0
 31
0.0
  0
LINE
  5
356
330
351
100
AcDbEntity
  8
0
  6
CONTINUOUS
 62
     0
100
AcDbLine
 10
0.0
 20
0.0
 30
0.0
 11
0.0
 21
-0.5
 31
0.0
  0
LINE
  5
357
330
351
100
AcDbEntity
  8
0
  6
CONTINUOUS
 62
     0
100
AcDbLine
 10
0.0
 20
0.0
 30
0.0
 11
0.5
 21
0.0
 31
0.0
  0
ENDBLK
  5
353
330
351
100
AcDbEntity
  8
0
100
AcDbBlockEnd
  0
BLOCK
  5
35A
330
359
100
AcDbEntity
  8
0
100
AcDbBlockBegin
  2
SW_CENTERMARKSYMBOL_7
 70
     0
 10
0.0
 20
0.0
 30
0.0
  3
SW_CENTERMARKSYMBOL_7
  1

  0
LINE
  5
35C
330
359
100
AcDbEntity
  8
0
  6
CONTINUOUS
 62
     0
100
AcDbLine
 10
0.0
 20
0.0
 30
0.0
 11
0.0
 21
0.5
 31
0.0
  0
LINE
  5
35D
330
359
100
AcDbEntity
  8
0
  6
CONTINUOUS
 62
     0
100
AcDbLine
 10
0.0
 20
0.0
 30
0.0
 11
-0.5
 21
0.0
 31
0.0
  0
LINE
  5
35E
330
359
100
AcDbEntity
  8
0
  6
CONTINUOUS
 62
     0
100
AcDbLine
 10
0.0
 20
0.0
 30
0.0
 11
0.0
 21
-0.5
 31
0.0
  0
LINE
  5
35F
330
359
100
AcDbEntity
  8
0
  6
CONTINUOUS
 62
     0
100
AcDbLine
 10
0.0
 20
0.0
 30
0.0
 11
0.5
 21
0.0
 31
0.0
  0
ENDBLK
  5
35B
330
359
100
AcDbEntity
  8
0
100
AcDbBlockEnd
  0
BLOCK
  5
362
330
361
100
AcDbEntity
  8
0
100
AcDbBlockBegin
  2
SW_CENTERMARKSYMBOL_8
 70
     0
 10
0.0
 20
0.0
 30
0.0
  3
SW_CENTERMARKSYMBOL_8
  1

  0
LINE
  5
364
330
361
100
AcDbEntity
  8
0
  6
CONTINUOUS
 62
     0
100
AcDbLine
 10
0.0
 20
0.0
 30
0.0
 11
0.0
 21
0.5
 31
0.0
  0
LINE
  5
365
330
361
100
AcDbEntity
  8
0
  6
CONTINUOUS
 62
     0
100
AcDbLine
 10
0.0
 20
0.0
 30
0.0
 11
-0.5
 21
0.0
 31
0.0
  0
LINE
  5
366
330
361
100
AcDbEntity
  8
0
  6
CONTINUOUS
 62
     0
100
AcDbLine
 10
0.0
 20
0.0
 30
0.0
 11
0.0
 21
-0.5
 31
0.0
  0
LINE
  5
367
330
361
100
AcDbEntity
  8
0
  6
CONTINUOUS
 62
     0
100
AcDbLine
 10
0.0
 20
0.0
 30
0.0
 11
0.5
 21
0.0
 31
0.0
  0
ENDBLK
  5
363
330
361
100
AcDbEntity
  8
0
100
AcDbBlockEnd
  0
ENDSEC
  0
SECTION
  2
ENTITIES
  0
INSERT
  5
5F
330
1F
100
AcDbEntity
  8
0
  6
CONTINUOUS
 62
     7
100
AcDbBlockReference
  2
SW_NOTE_0
 10
4.5889524744
 20
66.6142614798
 30
0.0
  0
INSERT
  5
6E
330
1F
100
AcDbEntity
  8
0
  6
CONTINUOUS
 62
     7
100
AcDbBlockReference
  2
SW_NOTE_2
 10
59.9568206568
 20
66.9551826861
 30
0.0
  0
LINE
  5
8E
330
1F
100
AcDbEntity
  8
0
  6
HIDDEN
 62
     7
100
AcDbLine
 10
63.9222521409
 20
60.3135570543
 30
0.0
 11
29.1972529217
 21
60.3135570543
 31
0.0
  0
LINE
  5
8F
330
1F
100
AcDbEntity
  8
0
  6
HIDDEN
 62
     7
100
AcDbLine
 10
63.9222521409
 20
25.5885578351
 30
0.0
 11
63.9222521409
 21
60.3135570543
 31
0.0
  0
LINE
  5
90
330
1F
100
AcDbEntity
  8
0
  6
HIDDEN
 62
     7
100
AcDbLine
 10
29.1972529217
 20
25.5885578351
 30
0.0
 11
63.9222521409
 21
25.5885578351
 31
0.0
  0
LINE
  5
91
330
1F
100
AcDbEntity
  8
0
  6
HIDDEN
 62
     7
100
AcDbLine
 10
29.1972529217
 20
60.3135570543
 30
0.0
 11
29.1972529217
 21
25.5885578351
 31
0.0
  0
CIRCLE
  5
92
330
1F
100
AcDbEntity
  8
0
  6
CONTINUOUS
 62
     7
100
AcDbCircle
 10
52.6497525313
 20
42.3160574447
 30
0.0
 40
0.3175000000000026
  0
CIRCLE
  5
93
330
1F
100
AcDbEntity
  8
0
  6
CONTINUOUS
 62
     7
100
AcDbCircle
 10
53.9197525313
 20
42.3160574447
 30
0.0
 40
0.3175000000000026
  0
CIRCLE
  5
94
330
1F
100
AcDbEntity
  8
0
  6
CONTINUOUS
 62
     7
100
AcDbCircle
 10
55.1897525313
 20
42.3160574447
 30
0.0
 40
0.3175000000000026
  0
CIRCLE
  5
95
330
1F
100
AcDbEntity
  8
0
  6
CONTINUOUS
 62
     7
100
AcDbCircle
 10
56.4597525313
 20
42.3160574447
 30
0.0
 40
0.3175000000000026
  0
CIRCLE
  5
96
330
1F
100
AcDbEntity
  8
0
  6
CONTINUOUS
 62
     7
100
AcDbCircle
 10
57.7297525313
 20
42.3160574447
 30
0.0
 40
0.3175000000000026
  0
CIRCLE
  5
97
330
1F
100
AcDbEntity
  8
0
  6
CONTINUOUS
 62
     7
100
AcDbCircle
 10
58.9997525313
 20
42.3160574447
 30
0.0
 40
0.3175000000000026
  0
CIRCLE
  5
98
330
1F
100
AcDbEntity
  8
0
  6
CONTINUOUS
 62
     7
100
AcDbCircle
 10
51.3797525313
 20
42.3160574447
 30
0.0
 40
0.3175000000000026
  0
CIRCLE
  5
99
330
1F
100
AcDbEntity
  8
0
  6
CONTINUOUS
 62
     7
100
AcDbCircle
 10
39.9497525313
 20
55.0160574447
 30
0.0
 40
0.3174999999999955
  0
CIRCLE
  5
9A
330
1F
100
AcDbEntity
  8
0
  6
CONTINUOUS
 62
     7
100
AcDbCircle
 10
41.2197525313
 20
55.0160574447
 30
0.0
 40
0.3174999999999955
  0
CIRCLE
  5
9B
330
1F
100
AcDbEntity
  8
0
  6
CONTINUOUS
 62
     7
100
AcDbCircle
 10
42.4897525313
 20
55.0160574447
 30
0.0
 40
0.3174999999999955
  0
CIRCLE
  5
9C
330
1F
100
AcDbEntity
  8
0
  6
CONTINUOUS
 62
     7
100
AcDbCircle
 10
43.7597525313
 20
55.0160574447
 30
0.0
 40
0.3174999999999955
  0
CIRCLE
  5
9D
330
1F
100
AcDbEntity
  8
0
  6
CONTINUOUS
 62
     7
100
AcDbCircle
 10
45.0297525313
 20
55.0160574447
 30
0.0
 40
0.3175000000000026
  0
CIRCLE
  5
9E
330
1F
100
AcDbEntity
  8
0
  6
CONTINUOUS
 62
     7
100
AcDbCircle
 10
46.2997525313
 20
55.0160574447
 30
0.0
 40
0.3175000000000026
  0
CIRCLE
  5
9F
330
1F
100
AcDbEntity
  8
0
  6
CONTINUOUS
 62
     7
100
AcDbCircle
 10
34.8697525313
 20
41.0460574447
 30
0.0
 40
0.3174999999999955
  0
CIRCLE
  5
A0
330
1F
100
AcDbEntity
  8
0
  6
CONTINUOUS
 62
     7
100
AcDbCircle
 10
36.1397525313
 20
41.0460574447
 30
0.0
 40
0.3174999999999955
  0
CIRCLE
  5
A1
330
1F
100
AcDbEntity
  8
0
  6
CONTINUOUS
 62
     7
100
AcDbCircle
 10
37.4097525313
 20
41.0460574447
 30
0.0
 40
0.3174999999999955
  0
CIRCLE
  5
A2
330
1F
100
AcDbEntity
  8
0
  6
CONTINUOUS
 62
     7
100
AcDbCircle
 10
38.6797525313
 20
41.0460574447
 30
0.0
 40
0.3174999999999955
  0
CIRCLE
  5
A3
330
1F
100
AcDbEntity
  8
0
  6
CONTINUOUS
 62
     7
100
AcDbCircle
 10
34.8697525313
 20
55.0160574447
 30
0.0
 40
0.3174999999999955
  0
CIRCLE
  5
A4
330
1F
100
AcDbEntity
  8
0
  6
CONTINUOUS
 62
     7
100
AcDbCircle
 10
36.1397525313
 20
55.0160574447
 30
0.0
 40
0.3174999999999955
  0
CIRCLE
  5
A5
330
1F
100
AcDbEntity
  8
0
  6
CONTINUOUS
 62
     7
100
AcDbCircle
 10
37.4097525313
 20
55.0160574447
 30
0.0
 40
0.3174999999999955
  0
CIRCLE
  5
A6
330
1F
100
AcDbEntity
  8
0
  6
CONTINUOUS
 62
     7
100
AcDbCircle
 10
38.6797525313
 20
55.0160574447
 30
0.0
 40
0.3174999999999955
  0
CIRCLE
  5
A7
330
1F
100
AcDbEntity
  8
0
  6
CONTINUOUS
 62
     7
100
AcDbCircle
 10
56.4597525313
 20
55.0160574447
 30
0.0
 40
0.3175000000000026
  0
CIRCLE
  5
A8
330
1F
100
AcDbEntity
  8
0
  6
CONTINUOUS
 62
     7
100
AcDbCircle
 10
41.2197525313
 20
52.4760574447
 30
0.0
 40
0.3175000000000026
  0
CIRCLE
  5
A9
330
1F
100
AcDbEntity
  8
0
  6
CONTINUOUS
 62
     7
100
AcDbCircle
 10
42.4897525313
 20
52.4760574447
 30
0.0
 40
0.3175000000000026
  0
CIRCLE
  5
AA
330
1F
100
AcDbEntity
  8
0
  6
CONTINUOUS
 62
     7
100
AcDbCircle
 10
43.7597525313
 20
52.4760574447
 30
0.0
 40
0.3175000000000026
  0
CIRCLE
  5
AB
330
1F
100
AcDbEntity
  8
0
  6
CONTINUOUS
 62
     7
100
AcDbCircle
 10
45.0297525313
 20
52.4760574447
 30
0.0
 40
0.3175000000000026
  0
CIRCLE
  5
AC
330
1F
100
AcDbEntity
  8
0
  6
CONTINUOUS
 62
     7
100
AcDbCircle
 10
46.2997525313
 20
52.4760574447
 30
0.0
 40
0.3175000000000026
  0
CIRCLE
  5
AD
330
1F
100
AcDbEntity
  8
0
  6
CONTINUOUS
 62
     7
100
AcDbCircle
 10
47.5697525313
 20
52.4760574447
 30
0.0
 40
0.3175000000000026
  0
CIRCLE
  5
AE
330
1F
100
AcDbEntity
  8
0
  6
CONTINUOUS
 62
     7
100
AcDbCircle
 10
48.8397525313
 20
52.4760574447
 30
0.0
 40
0.3175000000000026
  0
CIRCLE
  5
AF
330
1F
100
AcDbEntity
  8
0
  6
CONTINUOUS
 62
     7
100
AcDbCircle
 10
50.1097525313
 20
52.4760574447
 30
0.0
 40
0.3175000000000026
  0
CIRCLE
  5
B0
330
1F
100
AcDbEntity
  8
0
  6
CONTINUOUS
 62
     7
100
AcDbCircle
 10
51.3797525313
 20
52.4760574447
 30
0.0
 40
0.3175000000000026
  0
CIRCLE
  5
B1
330
1F
100
AcDbEntity
  8
0
  6
CONTINUOUS
 62
     7
100
AcDbCircle
 10
52.6497525313
 20
52.4760574447
 30
0.0
 40
0.3175000000000026
  0
CIRCLE
  5
B2
330
1F
100
AcDbEntity
  8
0
  6
CONTINUOUS
 62
     7
100
AcDbCircle
 10
53.9197525313
 20
52.4760574447
 30
0.0
 40
0.3175000000000026
  0
CIRCLE
  5
B3
330
1F
100
AcDbEntity
  8
0
  6
CONTINUOUS
 62
     7
100
AcDbCircle
 10
55.1897525313
 20
52.4760574447
 30
0.0
 40
0.3175000000000026
  0
CIRCLE
  5
B4
330
1F
100
AcDbEntity
  8
0
  6
CONTINUOUS
 62
     7
100
AcDbCircle
 10
56.4597525313
 20
52.4760574447
 30
0.0
 40
0.3175000000000026
  0
CIRCLE
  5
B5
330
1F
100
AcDbEntity
  8
0
  6
CONTINUOUS
 62
     7
100
AcDbCircle
 10
57.7297525313
 20
52.4760574447
 30
0.0
 40
0.3175000000000026
  0
CIRCLE
  5
B6
330
1F
100
AcDbEntity
  8
0
  6
CONTINUOUS
 62
     7
100
AcDbCircle
 10
58.9997525313
 20
52.4760574447
 30
0.0
 40
0.3175000000000026
  0
CIRCLE
  5
B7
330
1F
100
AcDbEntity
  8
0
  6
CONTINUOUS
 62
     7
100
AcDbCircle
 10
34.8697525313
 20
51.2060574447
 30
0.0
 40
0.3175000000000026
  0
CIRCLE
  5
B8
330
1F
100
AcDbEntity
  8
0
  6
CONTINUOUS
 62
     7
100
AcDbCircle
 10
36.1397525313
 20
51.2060574447
 30
0.0
 40
0.3175000000000026
  0
CIRCLE
  5
B9
330
1F
100
AcDbEntity
  8
0
  6
CONTINUOUS
 62
     7
100
AcDbCircle
 10
37.4097525313
 20
51.2060574447
 30
0.0
 40
0.3175000000000026
  0
CIRCLE
  5
BA
330
1F
100
AcDbEntity
  8
0
  6
CONTINUOUS
 62
     7
100
AcDbCircle
 10
38.6797525313
 20
51.2060574447
 30
0.0
 40
0.3175000000000026
  0
CIRCLE
  5
BB
330
1F
100
AcDbEntity
  8
0
  6
CONTINUOUS
 62
     7
100
AcDbCircle
 10
39.9497525313
 20
51.2060574447
 30
0.0
 40
0.3175000000000026
  0
CIRCLE
  5
BC
330
1F
100
AcDbEntity
  8
0
  6
CONTINUOUS
 62
     7
100
AcDbCircle
 10
41.2197525313
 20
51.2060574447
 30
0.0
 40
0.3175000000000026
  0
CIRCLE
  5
BD
330
1F
100
AcDbEntity
  8
0
  6
CONTINUOUS
 62
     7
100
AcDbCircle
 10
47.5697525313
 20
55.0160574447
 30
0.0
 40
0.3175000000000026
  0
CIRCLE
  5
BE
330
1F
100
AcDbEntity
  8
0
  6
CONTINUOUS
 62
     7
100
AcDbCircle
 10
48.8397525313
 20
55.0160574447
 30
0.0
 40
0.3175000000000026
  0
CIRCLE
  5
BF
330
1F
100
AcDbEntity
  8
0
  6
CONTINUOUS
 62
     7
100
AcDbCircle
 10
50.1097525313
 20
55.0160574447
 30
0.0
 40
0.3175000000000026
  0
CIRCLE
  5
C0
330
1F
100
AcDbEntity
  8
0
  6
CONTINUOUS
 62
     7
100
AcDbCircle
 10
51.3797525313
 20
55.0160574447
 30
0.0
 40
0.3175000000000026
  0
CIRCLE
  5
C1
330
1F
100
AcDbEntity
  8
0
  6
CONTINUOUS
 62
     7
100
AcDbCircle
 10
52.6497525313
 20
55.0160574447
 30
0.0
 40
0.3175000000000026
  0
CIRCLE
  5
C2
330
1F
100
AcDbEntity
  8
0
  6
CONTINUOUS
 62
     7
100
AcDbCircle
 10
53.9197525313
 20
55.0160574447
 30
0.0
 40
0.3175000000000026
  0
CIRCLE
  5
C3
330
1F
100
AcDbEntity
  8
0
  6
CONTINUOUS
 62
     7
100
AcDbCircle
 10
55.1897525313
 20
55.0160574447
 30
0.0
 40
0.3175000000000026
  0
CIRCLE
  5
C4
330
1F
100
AcDbEntity
  8
0
  6
CONTINUOUS
 62
     7
100
AcDbCircle
 10
57.7297525313
 20
55.0160574447
 30
0.0
 40
0.3175000000000026
  0
CIRCLE
  5
C5
330
1F
100
AcDbEntity
  8
0
  6
CONTINUOUS
 62
     7
100
AcDbCircle
 10
58.9997525313
 20
55.0160574447
 30
0.0
 40
0.3175000000000026
  0
CIRCLE
  5
C6
330
1F
100
AcDbEntity
  8
0
  6
CONTINUOUS
 62
     7
100
AcDbCircle
 10
34.8697525313
 20
53.7460574447
 30
0.0
 40
0.3174999999999955
  0
CIRCLE
  5
C7
330
1F
100
AcDbEntity
  8
0
  6
CONTINUOUS
 62
     7
100
AcDbCircle
 10
36.1397525313
 20
53.7460574447
 30
0.0
 40
0.3174999999999955
  0
CIRCLE
  5
C8
330
1F
100
AcDbEntity
  8
0
  6
CONTINUOUS
 62
     7
100
AcDbCircle
 10
37.4097525313
 20
53.7460574447
 30
0.0
 40
0.3174999999999955
  0
CIRCLE
  5
C9
330
1F
100
AcDbEntity
  8
0
  6
CONTINUOUS
 62
     7
100
AcDbCircle
 10
38.6797525313
 20
53.7460574447
 30
0.0
 40
0.3174999999999955
  0
CIRCLE
  5
CA
330
1F
100
AcDbEntity
  8
0
  6
CONTINUOUS
 62
     7
100
AcDbCircle
 10
39.9497525313
 20
53.7460574447
 30
0.0
 40
0.3174999999999955
  0
CIRCLE
  5
CB
330
1F
100
AcDbEntity
  8
0
  6
CONTINUOUS
 62
     7
100
AcDbCircle
 10
41.2197525313
 20
53.7460574447
 30
0.0
 40
0.3174999999999955
  0
CIRCLE
  5
CC
330
1F
100
AcDbEntity
  8
0
  6
CONTINUOUS
 62
     7
100
AcDbCircle
 10
42.4897525313
 20
53.7460574447
 30
0.0
 40
0.3174999999999955
  0
CIRCLE
  5
CD
330
1F
100
AcDbEntity
  8
0
  6
CONTINUOUS
 62
     7
100
AcDbCircle
 10
43.7597525313
 20
53.7460574447
 30
0.0
 40
0.3174999999999955
  0
CIRCLE
  5
CE
330
1F
100
AcDbEntity
  8
0
  6
CONTINUOUS
 62
     7
100
AcDbCircle
 10
45.0297525313
 20
53.7460574447
 30
0.0
 40
0.3174999999999883
  0
CIRCLE
  5
CF
330
1F
100
AcDbEntity
  8
0
  6
CONTINUOUS
 62
     7
100
AcDbCircle
 10
46.2997525313
 20
53.7460574447
 30
0.0
 40
0.3174999999999883
  0
CIRCLE
  5
D0
330
1F
100
AcDbEntity
  8
0
  6
CONTINUOUS
 62
     7
100
AcDbCircle
 10
47.5697525313
 20
53.7460574447
 30
0.0
 40
0.3174999999999883
  0
CIRCLE
  5
D1
330
1F
100
AcDbEntity
  8
0
  6
CONTINUOUS
 62
     7
100
AcDbCircle
 10
48.8397525313
 20
53.7460574447
 30
0.0
 40
0.3174999999999883
  0
CIRCLE
  5
D2
330
1F
100
AcDbEntity
  8
0
  6
CONTINUOUS
 62
     7
100
AcDbCircle
 10
50.1097525313
 20
53.7460574447
 30
0.0
 40
0.3174999999999883
  0
CIRCLE
  5
D3
330
1F
100
AcDbEntity
  8
0
  6
CONTINUOUS
 62
     7
100
AcDbCircle
 10
51.3797525313
 20
53.7460574447
 30
0.0
 40
0.3174999999999883
  0
CIRCLE
  5
D4
330
1F
100
AcDbEntity
  8
0
  6
CONTINUOUS
 62
     7
100
AcDbCircle
 10
52.6497525313
 20
53.7460574447
 30
0.0
 40
0.3174999999999883
  0
CIRCLE
  5
D5
330
1F
100
AcDbEntity
  8
0
  6
CONTINUOUS
 62
     7
100
AcDbCircle
 10
53.9197525313
 20
53.7460574447
 30
0.0
 40
0.3174999999999883
  0
CIRCLE
  5
D6
330
1F
100
AcDbEntity
  8
0
  6
CONTINUOUS
 62
     7
100
AcDbCircle
 10
55.1897525313
 20
53.7460574447
 30
0.0
 40
0.3174999999999883
  0
CIRCLE
  5
D7
330
1F
100
AcDbEntity
  8
0
  6
CONTINUOUS
 62
     7
100
AcDbCircle
 10
56.4597525313
 20
53.7460574447
 30
0.0
 40
0.3174999999999883
  0
CIRCLE
  5
D8
330
1F
100
AcDbEntity
  8
0
  6
CONTINUOUS
 62
     7
100
AcDbCircle
 10
57.7297525313
 20
53.7460574447
 30
0.0
 40
0.3174999999999883
  0
CIRCLE
  5
D9
330
1F
100
AcDbEntity
  8
0
  6
CONTINUOUS
 62
     7
100
AcDbCircle
 10
58.9997525313
 20
53.7460574447
 30
0.0
 40
0.3174999999999955
  0
CIRCLE
  5
DA
330
1F
100
AcDbEntity
  8
0
  6
CONTINUOUS
 62
     7
100
AcDbCircle
 10
34.8697525313
 20
52.4760574447
 30
0.0
 40
0.3175000000000097
  0
CIRCLE
  5
DB
330
1F
100
AcDbEntity
  8
0
  6
CONTINUOUS
 62
     7
100
AcDbCircle
 10
36.1397525313
 20
52.4760574447
 30
0.0
 40
0.3175000000000097
  0
CIRCLE
  5
DC
330
1F
100
AcDbEntity
  8
0
  6
CONTINUOUS
 62
     7
100
AcDbCircle
 10
37.4097525313
 20
52.4760574447
 30
0.0
 40
0.3175000000000097
  0
CIRCLE
  5
DD
330
1F
100
AcDbEntity
  8
0
  6
CONTINUOUS
 62
     7
100
AcDbCircle
 10
38.6797525313
 20
52.4760574447
 30
0.0
 40
0.3175000000000097
  0
CIRCLE
  5
DE
330
1F
100
AcDbEntity
  8
0
  6
CONTINUOUS
 62
     7
100
AcDbCircle
 10
39.9497525313
 20
52.4760574447
 30
0.0
 40
0.3175000000000097
  0
CIRCLE
  5
DF
330
1F
100
AcDbEntity
  8
0
  6
CONTINUOUS
 62
     7
100
AcDbCircle
 10
36.1397525313
 20
48.6660574447
 30
0.0
 40
0.3175000000000097
  0
CIRCLE
  5
E0
330
1F
100
AcDbEntity
  8
0
  6
CONTINUOUS
 62
     7
100
AcDbCircle
 10
37.4097525313
 20
48.6660574447
 30
0.0
 40
0.3175000000000097
  0
CIRCLE
  5
E1
330
1F
100
AcDbEntity
  8
0
  6
CONTINUOUS
 62
     7
100
AcDbCircle
 10
38.6797525313
 20
48.6660574447
 30
0.0
 40
0.3175000000000097
  0
CIRCLE
  5
E2
330
1F
100
AcDbEntity
  8
0
  6
CONTINUOUS
 62
     7
100
AcDbCircle
 10
39.9497525313
 20
48.6660574447
 30
0.0
 40
0.3175000000000097
  0
CIRCLE
  5
E3
330
1F
100
AcDbEntity
  8
0
  6
CONTINUOUS
 62
     7
100
AcDbCircle
 10
41.2197525313
 20
48.6660574447
 30
0.0
 40
0.3175000000000097
  0
CIRCLE
  5
E4
330
1F
100
AcDbEntity
  8
0
  6
CONTINUOUS
 62
     7
100
AcDbCircle
 10
42.4897525313
 20
48.6660574447
 30
0.0
 40
0.3175000000000097
  0
CIRCLE
  5
E5
330
1F
100
AcDbEntity
  8
0
  6
CONTINUOUS
 62
     7
100
AcDbCircle
 10
43.7597525313
 20
48.6660574447
 30
0.0
 40
0.3175000000000097
  0
CIRCLE
  5
E6
330
1F
100
AcDbEntity
  8
0
  6
CONTINUOUS
 62
     7
100
AcDbCircle
 10
45.0297525313
 20
48.6660574447
 30
0.0
 40
0.3175000000000097
  0
CIRCLE
  5
E7
330
1F
100
AcDbEntity
  8
0
  6
CONTINUOUS
 62
     7
100
AcDbCircle
 10
46.2997525313
 20
48.6660574447
 30
0.0
 40
0.3175000000000097
  0
CIRCLE
  5
E8
330
1F
100
AcDbEntity
  8
0
  6
CONTINUOUS
 62
     7
100
AcDbCircle
 10
47.5697525313
 20
48.6660574447
 30
0.0
 40
0.3175000000000097
  0
CIRCLE
  5
E9
330
1F
100
AcDbEntity
  8
0
  6
CONTINUOUS
 62
     7
100
AcDbCircle
 10
48.8397525313
 20
48.6660574447
 30
0.0
 40
0.3175000000000097
  0
CIRCLE
  5
EA
330
1F
100
AcDbEntity
  8
0
  6
CONTINUOUS
 62
     7
100
AcDbCircle
 10
50.1097525313
 20
48.6660574447
 30
0.0
 40
0.3175000000000097
  0
CIRCLE
  5
EB
330
1F
100
AcDbEntity
  8
0
  6
CONTINUOUS
 62
     7
100
AcDbCircle
 10
51.3797525313
 20
48.6660574447
 30
0.0
 40
0.3175000000000097
  0
CIRCLE
  5
EC
330
1F
100
AcDbEntity
  8
0
  6
CONTINUOUS
 62
     7
100
AcDbCircle
 10
52.6497525313
 20
48.6660574447
 30
0.0
 40
0.3175000000000097
  0
CIRCLE
  5
ED
330
1F
100
AcDbEntity
  8
0
  6
CONTINUOUS
 62
     7
100
AcDbCircle
 10
53.9197525313
 20
48.6660574447
 30
0.0
 40
0.3175000000000097
  0
CIRCLE
  5
EE
330
1F
100
AcDbEntity
  8
0
  6
CONTINUOUS
 62
     7
100
AcDbCircle
 10
55.1897525313
 20
48.6660574447
 30
0.0
 40
0.3174999999999955
  0
CIRCLE
  5
EF
330
1F
100
AcDbEntity
  8
0
  6
CONTINUOUS
 62
     7
100
AcDbCircle
 10
56.4597525313
 20
48.6660574447
 30
0.0
 40
0.3174999999999955
  0
CIRCLE
  5
F0
330
1F
100
AcDbEntity
  8
0
  6
CONTINUOUS
 62
     7
100
AcDbCircle
 10
57.7297525313
 20
48.6660574447
 30
0.0
 40
0.3174999999999955
  0
CIRCLE
  5
F1
330
1F
100
AcDbEntity
  8
0
  6
CONTINUOUS
 62
     7
100
AcDbCircle
 10
58.9997525313
 20
48.6660574447
 30
0.0
 40
0.3174999999999955
  0
CIRCLE
  5
F2
330
1F
100
AcDbEntity
  8
0
  6
CONTINUOUS
 62
     7
100
AcDbCircle
 10
34.8697525313
 20
47.3960574447
 30
0.0
 40
0.3174999999999955
  0
CIRCLE
  5
F3
330
1F
100
AcDbEntity
  8
0
  6
CONTINUOUS
 62
     7
100
AcDbCircle
 10
36.1397525313
 20
47.3960574447
 30
0.0
 40
0.3174999999999955
  0
CIRCLE
  5
F4
330
1F
100
AcDbEntity
  8
0
  6
CONTINUOUS
 62
     7
100
AcDbCircle
 10
37.4097525313
 20
47.3960574447
 30
0.0
 40
0.3174999999999955
  0
CIRCLE
  5
F5
330
1F
100
AcDbEntity
  8
0
  6
CONTINUOUS
 62
     7
100
AcDbCircle
 10
38.6797525313
 20
47.3960574447
 30
0.0
 40
0.3174999999999955
  0
CIRCLE
  5
F6
330
1F
100
AcDbEntity
  8
0
  6
CONTINUOUS
 62
     7
100
AcDbCircle
 10
39.9497525313
 20
47.3960574447
 30
0.0
 40
0.3174999999999955
  0
CIRCLE
  5
F7
330
1F
100
AcDbEntity
  8
0
  6
CONTINUOUS
 62
     7
100
AcDbCircle
 10
41.2197525313
 20
47.3960574447
 30
0.0
 40
0.3174999999999955
  0
CIRCLE
  5
F8
330
1F
100
AcDbEntity
  8
0
  6
CONTINUOUS
 62
     7
100
AcDbCircle
 10
42.4897525313
 20
47.3960574447
 30
0.0
 40
0.3174999999999955
  0
CIRCLE
  5
F9
330
1F
100
AcDbEntity
  8
0
  6
CONTINUOUS
 62
     7
100
AcDbCircle
 10
43.7597525313
 20
47.3960574447
 30
0.0
 40
0.3174999999999955
  0
CIRCLE
  5
FA
330
1F
100
AcDbEntity
  8
0
  6
CONTINUOUS
 62
     7
100
AcDbCircle
 10
45.0297525313
 20
47.3960574447
 30
0.0
 40
0.3174999999999955
  0
CIRCLE
  5
FB
330
1F
100
AcDbEntity
  8
0
  6
CONTINUOUS
 62
     7
100
AcDbCircle
 10
46.2997525313
 20
47.3960574447
 30
0.0
 40
0.3174999999999955
  0
CIRCLE
  5
FC
330
1F
100
AcDbEntity
  8
0
  6
CONTINUOUS
 62
     7
100
AcDbCircle
 10
47.5697525313
 20
47.3960574447
 30
0.0
 40
0.3174999999999955
  0
CIRCLE
  5
FD
330
1F
100
AcDbEntity
  8
0
  6
CONTINUOUS
 62
     7
100
AcDbCircle
 10
48.8397525313
 20
47.3960574447
 30
0.0
 40
0.3174999999999955
  0
CIRCLE
  5
FE
330
1F
100
AcDbEntity
  8
0
  6
CONTINUOUS
 62
     7
100
AcDbCircle
 10
50.1097525313
 20
47.3960574447
 30
0.0
 40
0.3174999999999955
  0
CIRCLE
  5
FF
330
1F
100
AcDbEntity
  8
0
  6
CONTINUOUS
 62
     7
100
AcDbCircle
 10
51.3797525313
 20
47.3960574447
 30
0.0
 40
0.3174999999999955
  0
CIRCLE
  5
100
330
1F
100
AcDbEntity
  8
0
  6
CONTINUOUS
 62
     7
100
AcDbCircle
 10
52.6497525313
 20
47.3960574447
 30
0.0
 40
0.3174999999999955
  0
CIRCLE
  5
101
330
1F
100
AcDbEntity
  8
0
  6
CONTINUOUS
 62
     7
100
AcDbCircle
 10
53.9197525313
 20
47.3960574447
 30
0.0
 40
0.3174999999999955
  0
CIRCLE
  5
102
330
1F
100
AcDbEntity
  8
0
  6
CONTINUOUS
 62
     7
100
AcDbCircle
 10
55.1897525313
 20
47.3960574447
 30
0.0
 40
0.3174999999999955
  0
CIRCLE
  5
103
330
1F
100
AcDbEntity
  8
0
  6
CONTINUOUS
 62
     7
100
AcDbCircle
 10
56.4597525313
 20
47.3960574447
 30
0.0
 40
0.3174999999999955
  0
CIRCLE
  5
104
330
1F
100
AcDbEntity
  8
0
  6
CONTINUOUS
 62
     7
100
AcDbCircle
 10
57.7297525313
 20
47.3960574447
 30
0.0
 40
0.3174999999999955
  0
CIRCLE
  5
105
330
1F
100
AcDbEntity
  8
0
  6
CONTINUOUS
 62
     7
100
AcDbCircle
 10
58.9997525313
 20
47.3960574447
 30
0.0
 40
0.3174999999999955
  0
CIRCLE
  5
106
330
1F
100
AcDbEntity
  8
0
  6
CONTINUOUS
 62
     7
100
AcDbCircle
 10
34.8697525313
 20
46.1260574447
 30
0.0
 40
0.3174999999999955
  0
CIRCLE
  5
107
330
1F
100
AcDbEntity
  8
0
  6
CONTINUOUS
 62
     7
100
AcDbCircle
 10
36.1397525313
 20
46.1260574447
 30
0.0
 40
0.3174999999999955
  0
CIRCLE
  5
108
330
1F
100
AcDbEntity
  8
0
  6
CONTINUOUS
 62
     7
100
AcDbCircle
 10
37.4097525313
 20
46.1260574447
 30
0.0
 40
0.3174999999999955
  0
CIRCLE
  5
109
330
1F
100
AcDbEntity
  8
0
  6
CONTINUOUS
 62
     7
100
AcDbCircle
 10
38.6797525313
 20
46.1260574447
 30
0.0
 40
0.3174999999999955
  0
CIRCLE
  5
10A
330
1F
100
AcDbEntity
  8
0
  6
CONTINUOUS
 62
     7
100
AcDbCircle
 10
39.9497525313
 20
46.1260574447
 30
0.0
 40
0.3174999999999955
  0
CIRCLE
  5
10B
330
1F
100
AcDbEntity
  8
0
  6
CONTINUOUS
 62
     7
100
AcDbCircle
 10
41.2197525313
 20
46.1260574447
 30
0.0
 40
0.3174999999999955
  0
CIRCLE
  5
10C
330
1F
100
AcDbEntity
  8
0
  6
CONTINUOUS
 62
     7
100
AcDbCircle
 10
42.4897525313
 20
46.1260574447
 30
0.0
 40
0.3174999999999955
  0
CIRCLE
  5
10D
330
1F
100
AcDbEntity
  8
0
  6
CONTINUOUS
 62
     7
100
AcDbCircle
 10
43.7597525313
 20
46.1260574447
 30
0.0
 40
0.3174999999999955
  0
CIRCLE
  5
10E
330
1F
100
AcDbEntity
  8
0
  6
CONTINUOUS
 62
     7
100
AcDbCircle
 10
45.0297525313
 20
46.1260574447
 30
0.0
 40
0.3174999999999955
  0
CIRCLE
  5
10F
330
1F
100
AcDbEntity
  8
0
  6
CONTINUOUS
 62
     7
100
AcDbCircle
 10
46.2997525313
 20
46.1260574447
 30
0.0
 40
0.3174999999999955
  0
CIRCLE
  5
110
330
1F
100
AcDbEntity
  8
0
  6
CONTINUOUS
 62
     7
100
AcDbCircle
 10
47.5697525313
 20
46.1260574447
 30
0.0
 40
0.3174999999999955
  0
CIRCLE
  5
111
330
1F
100
AcDbEntity
  8
0
  6
CONTINUOUS
 62
     7
100
AcDbCircle
 10
48.8397525313
 20
46.1260574447
 30
0.0
 40
0.3174999999999955
  0
CIRCLE
  5
112
330
1F
100
AcDbEntity
  8
0
  6
CONTINUOUS
 62
     7
100
AcDbCircle
 10
50.1097525313
 20
46.1260574447
 30
0.0
 40
0.3174999999999955
  0
CIRCLE
  5
113
330
1F
100
AcDbEntity
  8
0
  6
CONTINUOUS
 62
     7
100
AcDbCircle
 10
51.3797525313
 20
46.1260574447
 30
0.0
 40
0.3174999999999955
  0
CIRCLE
  5
114
330
1F
100
AcDbEntity
  8
0
  6
CONTINUOUS
 62
     7
100
AcDbCircle
 10
52.6497525313
 20
46.1260574447
 30
0.0
 40
0.3174999999999955
  0
CIRCLE
  5
115
330
1F
100
AcDbEntity
  8
0
  6
CONTINUOUS
 62
     7
100
AcDbCircle
 10
53.9197525313
 20
46.1260574447
 30
0.0
 40
0.3174999999999955
  0
CIRCLE
  5
116
330
1F
100
AcDbEntity
  8
0
  6
CONTINUOUS
 62
     7
100
AcDbCircle
 10
55.1897525313
 20
46.1260574447
 30
0.0
 40
0.3174999999999955
  0
CIRCLE
  5
117
330
1F
100
AcDbEntity
  8
0
  6
CONTINUOUS
 62
     7
100
AcDbCircle
 10
56.4597525313
 20
46.1260574447
 30
0.0
 40
0.3174999999999955
  0
CIRCLE
  5
118
330
1F
100
AcDbEntity
  8
0
  6
CONTINUOUS
 62
     7
100
AcDbCircle
 10
57.7297525313
 20
46.1260574447
 30
0.0
 40
0.3174999999999955
  0
CIRCLE
  5
119
330
1F
100
AcDbEntity
  8
0
  6
CONTINUOUS
 62
     7
100
AcDbCircle
 10
58.9997525313
 20
46.1260574447
 30
0.0
 40
0.3174999999999955
  0
CIRCLE
  5
11A
330
1F
100
AcDbEntity
  8
0
  6
CONTINUOUS
 62
     7
100
AcDbCircle
 10
34.8697525313
 20
44.8560574447
 30
0.0
 40
0.3174999999999955
  0
CIRCLE
  5
11B
330
1F
100
AcDbEntity
  8
0
  6
CONTINUOUS
 62
     7
100
AcDbCircle
 10
36.1397525313
 20
44.8560574447
 30
0.0
 40
0.3174999999999955
  0
CIRCLE
  5
11C
330
1F
100
AcDbEntity
  8
0
  6
CONTINUOUS
 62
     7
100
AcDbCircle
 10
37.4097525313
 20
44.8560574447
 30
0.0
 40
0.3174999999999955
  0
CIRCLE
  5
11D
330
1F
100
AcDbEntity
  8
0
  6
CONTINUOUS
 62
     7
100
AcDbCircle
 10
38.6797525313
 20
44.8560574447
 30
0.0
 40
0.3174999999999955
  0
CIRCLE
  5
11E
330
1F
100
AcDbEntity
  8
0
  6
CONTINUOUS
 62
     7
100
AcDbCircle
 10
39.9497525313
 20
44.8560574447
 30
0.0
 40
0.3174999999999955
  0
CIRCLE
  5
11F
330
1F
100
AcDbEntity
  8
0
  6
CONTINUOUS
 62
     7
100
AcDbCircle
 10
41.2197525313
 20
44.8560574447
 30
0.0
 40
0.3174999999999955
  0
CIRCLE
  5
120
330
1F
100
AcDbEntity
  8
0
  6
CONTINUOUS
 62
     7
100
AcDbCircle
 10
42.4897525313
 20
44.8560574447
 30
0.0
 40
0.3174999999999955
  0
CIRCLE
  5
121
330
1F
100
AcDbEntity
  8
0
  6
CONTINUOUS
 62
     7
100
AcDbCircle
 10
43.7597525313
 20
44.8560574447
 30
0.0
 40
0.3175000000000097
  0
CIRCLE
  5
122
330
1F
100
AcDbEntity
  8
0
  6
CONTINUOUS
 62
     7
100
AcDbCircle
 10
45.0297525313
 20
44.8560574447
 30
0.0
 40
0.3175000000000097
  0
CIRCLE
  5
123
330
1F
100
AcDbEntity
  8
0
  6
CONTINUOUS
 62
     7
100
AcDbCircle
 10
46.2997525313
 20
44.8560574447
 30
0.0
 40
0.3175000000000097
  0
CIRCLE
  5
124
330
1F
100
AcDbEntity
  8
0
  6
CONTINUOUS
 62
     7
100
AcDbCircle
 10
47.5697525313
 20
44.8560574447
 30
0.0
 40
0.3175000000000097
  0
CIRCLE
  5
125
330
1F
100
AcDbEntity
  8
0
  6
CONTINUOUS
 62
     7
100
AcDbCircle
 10
48.8397525313
 20
44.8560574447
 30
0.0
 40
0.3175000000000097
  0
CIRCLE
  5
126
330
1F
100
AcDbEntity
  8
0
  6
CONTINUOUS
 62
     7
100
AcDbCircle
 10
50.1097525313
 20
44.8560574447
 30
0.0
 40
0.3175000000000097
  0
CIRCLE
  5
127
330
1F
100
AcDbEntity
  8
0
  6
CONTINUOUS
 62
     7
100
AcDbCircle
 10
51.3797525313
 20
44.8560574447
 30
0.0
 40
0.3175000000000097
  0
CIRCLE
  5
128
330
1F
100
AcDbEntity
  8
0
  6
CONTINUOUS
 62
     7
100
AcDbCircle
 10
52.6497525313
 20
44.8560574447
 30
0.0
 40
0.3175000000000097
  0
CIRCLE
  5
129
330
1F
100
AcDbEntity
  8
0
  6
CONTINUOUS
 62
     7
100
AcDbCircle
 10
53.9197525313
 20
44.8560574447
 30
0.0
 40
0.3175000000000097
  0
CIRCLE
  5
12A
330
1F
100
AcDbEntity
  8
0
  6
CONTINUOUS
 62
     7
100
AcDbCircle
 10
55.1897525313
 20
44.8560574447
 30
0.0
 40
0.3175000000000097
  0
CIRCLE
  5
12B
330
1F
100
AcDbEntity
  8
0
  6
CONTINUOUS
 62
     7
100
AcDbCircle
 10
42.4897525313
 20
51.2060574447
 30
0.0
 40
0.3175000000000026
  0
CIRCLE
  5
12C
330
1F
100
AcDbEntity
  8
0
  6
CONTINUOUS
 62
     7
100
AcDbCircle
 10
43.7597525313
 20
51.2060574447
 30
0.0
 40
0.3175000000000026
  0
CIRCLE
  5
12D
330
1F
100
AcDbEntity
  8
0
  6
CONTINUOUS
 62
     7
100
AcDbCircle
 10
45.0297525313
 20
51.2060574447
 30
0.0
 40
0.3175000000000026
  0
CIRCLE
  5
12E
330
1F
100
AcDbEntity
  8
0
  6
CONTINUOUS
 62
     7
100
AcDbCircle
 10
46.2997525313
 20
51.2060574447
 30
0.0
 40
0.3175000000000026
  0
CIRCLE
  5
12F
330
1F
100
AcDbEntity
  8
0
  6
CONTINUOUS
 62
     7
100
AcDbCircle
 10
47.5697525313
 20
51.2060574447
 30
0.0
 40
0.3175000000000026
  0
CIRCLE
  5
130
330
1F
100
AcDbEntity
  8
0
  6
CONTINUOUS
 62
     7
100
AcDbCircle
 10
48.8397525313
 20
51.2060574447
 30
0.0
 40
0.3175000000000026
  0
CIRCLE
  5
131
330
1F
100
AcDbEntity
  8
0
  6
CONTINUOUS
 62
     7
100
AcDbCircle
 10
50.1097525313
 20
51.2060574447
 30
0.0
 40
0.3175000000000026
  0
CIRCLE
  5
132
330
1F
100
AcDbEntity
  8
0
  6
CONTINUOUS
 62
     7
100
AcDbCircle
 10
39.9497525313
 20
43.5860574447
 30
0.0
 40
0.3175000000000097
  0
CIRCLE
  5
133
330
1F
100
AcDbEntity
  8
0
  6
CONTINUOUS
 62
     7
100
AcDbCircle
 10
51.3797525313
 20
51.2060574447
 30
0.0
 40
0.3175000000000026
  0
CIRCLE
  5
134
330
1F
100
AcDbEntity
  8
0
  6
CONTINUOUS
 62
     7
100
AcDbCircle
 10
52.6497525313
 20
51.2060574447
 30
0.0
 40
0.3175000000000026
  0
CIRCLE
  5
135
330
1F
100
AcDbEntity
  8
0
  6
CONTINUOUS
 62
     7
100
AcDbCircle
 10
53.9197525313
 20
51.2060574447
 30
0.0
 40
0.3175000000000026
  0
CIRCLE
  5
136
330
1F
100
AcDbEntity
  8
0
  6
CONTINUOUS
 62
     7
100
AcDbCircle
 10
55.1897525313
 20
51.2060574447
 30
0.0
 40
0.3175000000000026
  0
CIRCLE
  5
137
330
1F
100
AcDbEntity
  8
0
  6
CONTINUOUS
 62
     7
100
AcDbCircle
 10
56.4597525313
 20
51.2060574447
 30
0.0
 40
0.3175000000000026
  0
CIRCLE
  5
138
330
1F
100
AcDbEntity
  8
0
  6
CONTINUOUS
 62
     7
100
AcDbCircle
 10
57.7297525313
 20
51.2060574447
 30
0.0
 40
0.3175000000000026
  0
CIRCLE
  5
139
330
1F
100
AcDbEntity
  8
0
  6
CONTINUOUS
 62
     7
100
AcDbCircle
 10
58.9997525313
 20
51.2060574447
 30
0.0
 40
0.3175000000000026
  0
CIRCLE
  5
13A
330
1F
100
AcDbEntity
  8
0
  6
CONTINUOUS
 62
     7
100
AcDbCircle
 10
34.8697525313
 20
49.9360574447
 30
0.0
 40
0.3175000000000026
  0
CIRCLE
  5
13B
330
1F
100
AcDbEntity
  8
0
  6
CONTINUOUS
 62
     7
100
AcDbCircle
 10
36.1397525313
 20
49.9360574447
 30
0.0
 40
0.3175000000000026
  0
CIRCLE
  5
13C
330
1F
100
AcDbEntity
  8
0
  6
CONTINUOUS
 62
     7
100
AcDbCircle
 10
37.4097525313
 20
49.9360574447
 30
0.0
 40
0.3175000000000026
  0
CIRCLE
  5
13D
330
1F
100
AcDbEntity
  8
0
  6
CONTINUOUS
 62
     7
100
AcDbCircle
 10
38.6797525313
 20
49.9360574447
 30
0.0
 40
0.3175000000000026
  0
CIRCLE
  5
13E
330
1F
100
AcDbEntity
  8
0
  6
CONTINUOUS
 62
     7
100
AcDbCircle
 10
39.9497525313
 20
49.9360574447
 30
0.0
 40
0.3175000000000026
  0
CIRCLE
  5
13F
330
1F
100
AcDbEntity
  8
0
  6
CONTINUOUS
 62
     7
100
AcDbCircle
 10
41.2197525313
 20
49.9360574447
 30
0.0
 40
0.3175000000000026
  0
CIRCLE
  5
140
330
1F
100
AcDbEntity
  8
0
  6
CONTINUOUS
 62
     7
100
AcDbCircle
 10
42.4897525313
 20
49.9360574447
 30
0.0
 40
0.3175000000000026
  0
CIRCLE
  5
141
330
1F
100
AcDbEntity
  8
0
  6
CONTINUOUS
 62
     7
100
AcDbCircle
 10
43.7597525313
 20
49.9360574447
 30
0.0
 40
0.3175000000000026
  0
CIRCLE
  5
142
330
1F
100
AcDbEntity
  8
0
  6
CONTINUOUS
 62
     7
100
AcDbCircle
 10
45.0297525313
 20
49.9360574447
 30
0.0
 40
0.3175000000000026
  0
CIRCLE
  5
143
330
1F
100
AcDbEntity
  8
0
  6
CONTINUOUS
 62
     7
100
AcDbCircle
 10
46.2997525313
 20
49.9360574447
 30
0.0
 40
0.3175000000000026
  0
CIRCLE
  5
144
330
1F
100
AcDbEntity
  8
0
  6
CONTINUOUS
 62
     7
100
AcDbCircle
 10
47.5697525313
 20
49.9360574447
 30
0.0
 40
0.3175000000000026
  0
CIRCLE
  5
145
330
1F
100
AcDbEntity
  8
0
  6
CONTINUOUS
 62
     7
100
AcDbCircle
 10
48.8397525313
 20
49.9360574447
 30
0.0
 40
0.3175000000000026
  0
CIRCLE
  5
146
330
1F
100
AcDbEntity
  8
0
  6
CONTINUOUS
 62
     7
100
AcDbCircle
 10
50.1097525313
 20
49.9360574447
 30
0.0
 40
0.3175000000000026
  0
CIRCLE
  5
147
330
1F
100
AcDbEntity
  8
0
  6
CONTINUOUS
 62
     7
100
AcDbCircle
 10
51.3797525313
 20
49.9360574447
 30
0.0
 40
0.3175000000000026
  0
CIRCLE
  5
148
330
1F
100
AcDbEntity
  8
0
  6
CONTINUOUS
 62
     7
100
AcDbCircle
 10
52.6497525313
 20
49.9360574447
 30
0.0
 40
0.3175000000000026
  0
CIRCLE
  5
149
330
1F
100
AcDbEntity
  8
0
  6
CONTINUOUS
 62
     7
100
AcDbCircle
 10
53.9197525313
 20
49.9360574447
 30
0.0
 40
0.3175000000000026
  0
CIRCLE
  5
14A
330
1F
100
AcDbEntity
  8
0
  6
CONTINUOUS
 62
     7
100
AcDbCircle
 10
55.1897525313
 20
49.9360574447
 30
0.0
 40
0.3175000000000026
  0
CIRCLE
  5
14B
330
1F
100
AcDbEntity
  8
0
  6
CONTINUOUS
 62
     7
100
AcDbCircle
 10
56.4597525313
 20
49.9360574447
 30
0.0
 40
0.3175000000000026
  0
CIRCLE
  5
14C
330
1F
100
AcDbEntity
  8
0
  6
CONTINUOUS
 62
     7
100
AcDbCircle
 10
57.7297525313
 20
49.9360574447
 30
0.0
 40
0.3175000000000026
  0
CIRCLE
  5
14D
330
1F
100
AcDbEntity
  8
0
  6
CONTINUOUS
 62
     7
100
AcDbCircle
 10
58.9997525313
 20
49.9360574447
 30
0.0
 40
0.3175000000000026
  0
CIRCLE
  5
14E
330
1F
100
AcDbEntity
  8
0
  6
CONTINUOUS
 62
     7
100
AcDbCircle
 10
34.8697525313
 20
48.6660574447
 30
0.0
 40
0.3175000000000097
  0
CIRCLE
  5
14F
330
1F
100
AcDbEntity
  8
0
  6
CONTINUOUS
 62
     7
100
AcDbCircle
 10
39.9497525313
 20
34.6960574447
 30
0.0
 40
0.3174999999999955
  0
CIRCLE
  5
150
330
1F
100
AcDbEntity
  8
0
  6
CONTINUOUS
 62
     7
100
AcDbCircle
 10
41.2197525313
 20
34.6960574447
 30
0.0
 40
0.3174999999999955
  0
CIRCLE
  5
151
330
1F
100
AcDbEntity
  8
0
  6
CONTINUOUS
 62
     7
100
AcDbCircle
 10
42.4897525313
 20
34.6960574447
 30
0.0
 40
0.3174999999999955
  0
CIRCLE
  5
152
330
1F
100
AcDbEntity
  8
0
  6
CONTINUOUS
 62
     7
100
AcDbCircle
 10
43.7597525313
 20
34.6960574447
 30
0.0
 40
0.3174999999999955
  0
CIRCLE
  5
153
330
1F
100
AcDbEntity
  8
0
  6
CONTINUOUS
 62
     7
100
AcDbCircle
 10
45.0297525313
 20
34.6960574447
 30
0.0
 40
0.3174999999999955
  0
CIRCLE
  5
154
330
1F
100
AcDbEntity
  8
0
  6
CONTINUOUS
 62
     7
100
AcDbCircle
 10
46.2997525313
 20
34.6960574447
 30
0.0
 40
0.3174999999999955
  0
CIRCLE
  5
155
330
1F
100
AcDbEntity
  8
0
  6
CONTINUOUS
 62
     7
100
AcDbCircle
 10
47.5697525313
 20
34.6960574447
 30
0.0
 40
0.3174999999999955
  0
CIRCLE
  5
156
330
1F
100
AcDbEntity
  8
0
  6
CONTINUOUS
 62
     7
100
AcDbCircle
 10
48.8397525313
 20
34.6960574447
 30
0.0
 40
0.3174999999999955
  0
CIRCLE
  5
157
330
1F
100
AcDbEntity
  8
0
  6
CONTINUOUS
 62
     7
100
AcDbCircle
 10
50.1097525313
 20
34.6960574447
 30
0.0
 40
0.3174999999999955
  0
CIRCLE
  5
158
330
1F
100
AcDbEntity
  8
0
  6
CONTINUOUS
 62
     7
100
AcDbCircle
 10
51.3797525313
 20
34.6960574447
 30
0.0
 40
0.3174999999999955
  0
CIRCLE
  5
159
330
1F
100
AcDbEntity
  8
0
  6
CONTINUOUS
 62
     7
100
AcDbCircle
 10
52.6497525313
 20
34.6960574447
 30
0.0
 40
0.3174999999999955
  0
CIRCLE
  5
15A
330
1F
100
AcDbEntity
  8
0
  6
CONTINUOUS
 62
     7
100
AcDbCircle
 10
39.9497525313
 20
41.0460574447
 30
0.0
 40
0.3174999999999955
  0
CIRCLE
  5
15B
330
1F
100
AcDbEntity
  8
0
  6
CONTINUOUS
 62
     7
100
AcDbCircle
 10
41.2197525313
 20
41.0460574447
 30
0.0
 40
0.3174999999999955
  0
CIRCLE
  5
15C
330
1F
100
AcDbEntity
  8
0
  6
CONTINUOUS
 62
     7
100
AcDbCircle
 10
42.4897525313
 20
41.0460574447
 30
0.0
 40
0.3174999999999955
  0
CIRCLE
  5
15D
330
1F
100
AcDbEntity
  8
0
  6
CONTINUOUS
 62
     7
100
AcDbCircle
 10
43.7597525313
 20
41.0460574447
 30
0.0
 40
0.3174999999999955
  0
CIRCLE
  5
15E
330
1F
100
AcDbEntity
  8
0
  6
CONTINUOUS
 62
     7
100
AcDbCircle
 10
45.0297525313
 20
41.0460574447
 30
0.0
 40
0.3174999999999955
  0
CIRCLE
  5
15F
330
1F
100
AcDbEntity
  8
0
  6
CONTINUOUS
 62
     7
100
AcDbCircle
 10
46.2997525313
 20
41.0460574447
 30
0.0
 40
0.3174999999999955
  0
CIRCLE
  5
160
330
1F
100
AcDbEntity
  8
0
  6
CONTINUOUS
 62
     7
100
AcDbCircle
 10
47.5697525313
 20
41.0460574447
 30
0.0
 40
0.3174999999999955
  0
CIRCLE
  5
161
330
1F
100
AcDbEntity
  8
0
  6
CONTINUOUS
 62
     7
100
AcDbCircle
 10
48.8397525313
 20
41.0460574447
 30
0.0
 40
0.3174999999999955
  0
CIRCLE
  5
162
330
1F
100
AcDbEntity
  8
0
  6
CONTINUOUS
 62
     7
100
AcDbCircle
 10
50.1097525313
 20
41.0460574447
 30
0.0
 40
0.3174999999999955
  0
CIRCLE
  5
163
330
1F
100
AcDbEntity
  8
0
  6
CONTINUOUS
 62
     7
100
AcDbCircle
 10
51.3797525313
 20
41.0460574447
 30
0.0
 40
0.3174999999999955
  0
CIRCLE
  5
164
330
1F
100
AcDbEntity
  8
0
  6
CONTINUOUS
 62
     7
100
AcDbCircle
 10
52.6497525313
 20
41.0460574447
 30
0.0
 40
0.3174999999999955
  0
CIRCLE
  5
165
330
1F
100
AcDbEntity
  8
0
  6
CONTINUOUS
 62
     7
100
AcDbCircle
 10
53.9197525313
 20
41.0460574447
 30
0.0
 40
0.3174999999999955
  0
CIRCLE
  5
166
330
1F
100
AcDbEntity
  8
0
  6
CONTINUOUS
 62
     7
100
AcDbCircle
 10
55.1897525313
 20
41.0460574447
 30
0.0
 40
0.3174999999999955
  0
CIRCLE
  5
167
330
1F
100
AcDbEntity
  8
0
  6
CONTINUOUS
 62
     7
100
AcDbCircle
 10
56.4597525313
 20
41.0460574447
 30
0.0
 40
0.3174999999999955
  0
CIRCLE
  5
168
330
1F
100
AcDbEntity
  8
0
  6
CONTINUOUS
 62
     7
100
AcDbCircle
 10
57.7297525313
 20
41.0460574447
 30
0.0
 40
0.3174999999999955
  0
CIRCLE
  5
169
330
1F
100
AcDbEntity
  8
0
  6
CONTINUOUS
 62
     7
100
AcDbCircle
 10
58.9997525313
 20
41.0460574447
 30
0.0
 40
0.3174999999999955
  0
CIRCLE
  5
16A
330
1F
100
AcDbEntity
  8
0
  6
CONTINUOUS
 62
     7
100
AcDbCircle
 10
34.8697525313
 20
39.7760574447
 30
0.0
 40
0.3175000000000026
  0
CIRCLE
  5
16B
330
1F
100
AcDbEntity
  8
0
  6
CONTINUOUS
 62
     7
100
AcDbCircle
 10
36.1397525313
 20
39.7760574447
 30
0.0
 40
0.3175000000000026
  0
CIRCLE
  5
16C
330
1F
100
AcDbEntity
  8
0
  6
CONTINUOUS
 62
     7
100
AcDbCircle
 10
37.4097525313
 20
39.7760574447
 30
0.0
 40
0.3175000000000026
  0
CIRCLE
  5
16D
330
1F
100
AcDbEntity
  8
0
  6
CONTINUOUS
 62
     7
100
AcDbCircle
 10
38.6797525313
 20
39.7760574447
 30
0.0
 40
0.3175000000000026
  0
CIRCLE
  5
16E
330
1F
100
AcDbEntity
  8
0
  6
CONTINUOUS
 62
     7
100
AcDbCircle
 10
39.9497525313
 20
39.7760574447
 30
0.0
 40
0.3175000000000026
  0
CIRCLE
  5
16F
330
1F
100
AcDbEntity
  8
0
  6
CONTINUOUS
 62
     7
100
AcDbCircle
 10
41.2197525313
 20
39.7760574447
 30
0.0
 40
0.3175000000000026
  0
CIRCLE
  5
170
330
1F
100
AcDbEntity
  8
0
  6
CONTINUOUS
 62
     7
100
AcDbCircle
 10
42.4897525313
 20
39.7760574447
 30
0.0
 40
0.3175000000000026
  0
CIRCLE
  5
171
330
1F
100
AcDbEntity
  8
0
  6
CONTINUOUS
 62
     7
100
AcDbCircle
 10
43.7597525313
 20
39.7760574447
 30
0.0
 40
0.3175000000000026
  0
CIRCLE
  5
172
330
1F
100
AcDbEntity
  8
0
  6
CONTINUOUS
 62
     7
100
AcDbCircle
 10
45.0297525313
 20
39.7760574447
 30
0.0
 40
0.3175000000000026
  0
CIRCLE
  5
173
330
1F
100
AcDbEntity
  8
0
  6
CONTINUOUS
 62
     7
100
AcDbCircle
 10
46.2997525313
 20
39.7760574447
 30
0.0
 40
0.3175000000000026
  0
CIRCLE
  5
174
330
1F
100
AcDbEntity
  8
0
  6
CONTINUOUS
 62
     7
100
AcDbCircle
 10
47.5697525313
 20
39.7760574447
 30
0.0
 40
0.3175000000000026
  0
CIRCLE
  5
175
330
1F
100
AcDbEntity
  8
0
  6
CONTINUOUS
 62
     7
100
AcDbCircle
 10
48.8397525313
 20
39.7760574447
 30
0.0
 40
0.3175000000000026
  0
CIRCLE
  5
176
330
1F
100
AcDbEntity
  8
0
  6
CONTINUOUS
 62
     7
100
AcDbCircle
 10
50.1097525313
 20
39.7760574447
 30
0.0
 40
0.3175000000000026
  0
CIRCLE
  5
177
330
1F
100
AcDbEntity
  8
0
  6
CONTINUOUS
 62
     7
100
AcDbCircle
 10
51.3797525313
 20
39.7760574447
 30
0.0
 40
0.3175000000000026
  0
CIRCLE
  5
178
330
1F
100
AcDbEntity
  8
0
  6
CONTINUOUS
 62
     7
100
AcDbCircle
 10
52.6497525313
 20
39.7760574447
 30
0.0
 40
0.3175000000000026
  0
CIRCLE
  5
179
330
1F
100
AcDbEntity
  8
0
  6
CONTINUOUS
 62
     7
100
AcDbCircle
 10
53.9197525313
 20
39.7760574447
 30
0.0
 40
0.3175000000000026
  0
CIRCLE
  5
17A
330
1F
100
AcDbEntity
  8
0
  6
CONTINUOUS
 62
     7
100
AcDbCircle
 10
55.1897525313
 20
39.7760574447
 30
0.0
 40
0.3175000000000026
  0
CIRCLE
  5
17B
330
1F
100
AcDbEntity
  8
0
  6
CONTINUOUS
 62
     7
100
AcDbCircle
 10
56.4597525313
 20
39.7760574447
 30
0.0
 40
0.3175000000000026
  0
CIRCLE
  5
17C
330
1F
100
AcDbEntity
  8
0
  6
CONTINUOUS
 62
     7
100
AcDbCircle
 10
57.7297525313
 20
39.7760574447
 30
0.0
 40
0.3175000000000026
  0
CIRCLE
  5
17D
330
1F
100
AcDbEntity
  8
0
  6
CONTINUOUS
 62
     7
100
AcDbCircle
 10
58.9997525313
 20
39.7760574447
 30
0.0
 40
0.3175000000000026
  0
CIRCLE
  5
17E
330
1F
100
AcDbEntity
  8
0
  6
CONTINUOUS
 62
     7
100
AcDbCircle
 10
34.8697525313
 20
38.5060574447
 30
0.0
 40
0.3175000000000026
  0
CIRCLE
  5
17F
330
1F
100
AcDbEntity
  8
0
  6
CONTINUOUS
 62
     7
100
AcDbCircle
 10
36.1397525313
 20
38.5060574447
 30
0.0
 40
0.3175000000000026
  0
CIRCLE
  5
180
330
1F
100
AcDbEntity
  8
0
  6
CONTINUOUS
 62
     7
100
AcDbCircle
 10
37.4097525313
 20
38.5060574447
 30
0.0
 40
0.3175000000000026
  0
CIRCLE
  5
181
330
1F
100
AcDbEntity
  8
0
  6
CONTINUOUS
 62
     7
100
AcDbCircle
 10
38.6797525313
 20
38.5060574447
 30
0.0
 40
0.3175000000000026
  0
CIRCLE
  5
182
330
1F
100
AcDbEntity
  8
0
  6
CONTINUOUS
 62
     7
100
AcDbCircle
 10
39.9497525313
 20
38.5060574447
 30
0.0
 40
0.3175000000000026
  0
CIRCLE
  5
183
330
1F
100
AcDbEntity
  8
0
  6
CONTINUOUS
 62
     7
100
AcDbCircle
 10
41.2197525313
 20
38.5060574447
 30
0.0
 40
0.3175000000000026
  0
CIRCLE
  5
184
330
1F
100
AcDbEntity
  8
0
  6
CONTINUOUS
 62
     7
100
AcDbCircle
 10
42.4897525313
 20
38.5060574447
 30
0.0
 40
0.3175000000000026
  0
CIRCLE
  5
185
330
1F
100
AcDbEntity
  8
0
  6
CONTINUOUS
 62
     7
100
AcDbCircle
 10
43.7597525313
 20
38.5060574447
 30
0.0
 40
0.3175000000000026
  0
CIRCLE
  5
186
330
1F
100
AcDbEntity
  8
0
  6
CONTINUOUS
 62
     7
100
AcDbCircle
 10
45.0297525313
 20
38.5060574447
 30
0.0
 40
0.3175000000000026
  0
CIRCLE
  5
187
330
1F
100
AcDbEntity
  8
0
  6
CONTINUOUS
 62
     7
100
AcDbCircle
 10
46.2997525313
 20
38.5060574447
 30
0.0
 40
0.3175000000000026
  0
CIRCLE
  5
188
330
1F
100
AcDbEntity
  8
0
  6
CONTINUOUS
 62
     7
100
AcDbCircle
 10
47.5697525313
 20
38.5060574447
 30
0.0
 40
0.3175000000000026
  0
CIRCLE
  5
189
330
1F
100
AcDbEntity
  8
0
  6
CONTINUOUS
 62
     7
100
AcDbCircle
 10
48.8397525313
 20
38.5060574447
 30
0.0
 40
0.3175000000000026
  0
CIRCLE
  5
18A
330
1F
100
AcDbEntity
  8
0
  6
CONTINUOUS
 62
     7
100
AcDbCircle
 10
50.1097525313
 20
38.5060574447
 30
0.0
 40
0.3175000000000026
  0
CIRCLE
  5
18B
330
1F
100
AcDbEntity
  8
0
  6
CONTINUOUS
 62
     7
100
AcDbCircle
 10
51.3797525313
 20
38.5060574447
 30
0.0
 40
0.3174999999999955
  0
CIRCLE
  5
18C
330
1F
100
AcDbEntity
  8
0
  6
CONTINUOUS
 62
     7
100
AcDbCircle
 10
52.6497525313
 20
38.5060574447
 30
0.0
 40
0.3174999999999955
  0
CIRCLE
  5
18D
330
1F
100
AcDbEntity
  8
0
  6
CONTINUOUS
 62
     7
100
AcDbCircle
 10
53.9197525313
 20
38.5060574447
 30
0.0
 40
0.3174999999999955
  0
CIRCLE
  5
18E
330
1F
100
AcDbEntity
  8
0
  6
CONTINUOUS
 62
     7
100
AcDbCircle
 10
55.1897525313
 20
38.5060574447
 30
0.0
 40
0.3174999999999955
  0
CIRCLE
  5
18F
330
1F
100
AcDbEntity
  8
0
  6
CONTINUOUS
 62
     7
100
AcDbCircle
 10
56.4597525313
 20
38.5060574447
 30
0.0
 40
0.3174999999999955
  0
CIRCLE
  5
190
330
1F
100
AcDbEntity
  8
0
  6
CONTINUOUS
 62
     7
100
AcDbCircle
 10
57.7297525313
 20
38.5060574447
 30
0.0
 40
0.3174999999999955
  0
CIRCLE
  5
191
330
1F
100
AcDbEntity
  8
0
  6
CONTINUOUS
 62
     7
100
AcDbCircle
 10
58.9997525313
 20
38.5060574447
 30
0.0
 40
0.3174999999999955
  0
CIRCLE
  5
192
330
1F
100
AcDbEntity
  8
0
  6
CONTINUOUS
 62
     7
100
AcDbCircle
 10
34.8697525313
 20
37.2360574447
 30
0.0
 40
0.3174999999999955
  0
CIRCLE
  5
193
330
1F
100
AcDbEntity
  8
0
  6
CONTINUOUS
 62
     7
100
AcDbCircle
 10
36.1397525313
 20
37.2360574447
 30
0.0
 40
0.3174999999999955
  0
CIRCLE
  5
194
330
1F
100
AcDbEntity
  8
0
  6
CONTINUOUS
 62
     7
100
AcDbCircle
 10
37.4097525313
 20
37.2360574447
 30
0.0
 40
0.3174999999999955
  0
CIRCLE
  5
195
330
1F
100
AcDbEntity
  8
0
  6
CONTINUOUS
 62
     7
100
AcDbCircle
 10
38.6797525313
 20
37.2360574447
 30
0.0
 40
0.3174999999999955
  0
CIRCLE
  5
196
330
1F
100
AcDbEntity
  8
0
  6
CONTINUOUS
 62
     7
100
AcDbCircle
 10
39.9497525313
 20
37.2360574447
 30
0.0
 40
0.3174999999999955
  0
CIRCLE
  5
197
330
1F
100
AcDbEntity
  8
0
  6
CONTINUOUS
 62
     7
100
AcDbCircle
 10
41.2197525313
 20
37.2360574447
 30
0.0
 40
0.3174999999999955
  0
CIRCLE
  5
198
330
1F
100
AcDbEntity
  8
0
  6
CONTINUOUS
 62
     7
100
AcDbCircle
 10
42.4897525313
 20
37.2360574447
 30
0.0
 40
0.3174999999999955
  0
CIRCLE
  5
199
330
1F
100
AcDbEntity
  8
0
  6
CONTINUOUS
 62
     7
100
AcDbCircle
 10
43.7597525313
 20
37.2360574447
 30
0.0
 40
0.3174999999999955
  0
CIRCLE
  5
19A
330
1F
100
AcDbEntity
  8
0
  6
CONTINUOUS
 62
     7
100
AcDbCircle
 10
45.0297525313
 20
37.2360574447
 30
0.0
 40
0.3174999999999955
  0
CIRCLE
  5
19B
330
1F
100
AcDbEntity
  8
0
  6
CONTINUOUS
 62
     7
100
AcDbCircle
 10
46.2997525313
 20
37.2360574447
 30
0.0
 40
0.3174999999999955
  0
CIRCLE
  5
19C
330
1F
100
AcDbEntity
  8
0
  6
CONTINUOUS
 62
     7
100
AcDbCircle
 10
47.5697525313
 20
37.2360574447
 30
0.0
 40
0.3174999999999955
  0
CIRCLE
  5
19D
330
1F
100
AcDbEntity
  8
0
  6
CONTINUOUS
 62
     7
100
AcDbCircle
 10
48.8397525313
 20
37.2360574447
 30
0.0
 40
0.3174999999999955
  0
CIRCLE
  5
19E
330
1F
100
AcDbEntity
  8
0
  6
CONTINUOUS
 62
     7
100
AcDbCircle
 10
50.1097525313
 20
37.2360574447
 30
0.0
 40
0.3174999999999955
  0
CIRCLE
  5
19F
330
1F
100
AcDbEntity
  8
0
  6
CONTINUOUS
 62
     7
100
AcDbCircle
 10
51.3797525313
 20
37.2360574447
 30
0.0
 40
0.3175000000000026
  0
CIRCLE
  5
1A0
330
1F
100
AcDbEntity
  8
0
  6
CONTINUOUS
 62
     7
100
AcDbCircle
 10
52.6497525313
 20
37.2360574447
 30
0.0
 40
0.3175000000000026
  0
CIRCLE
  5
1A1
330
1F
100
AcDbEntity
  8
0
  6
CONTINUOUS
 62
     7
100
AcDbCircle
 10
53.9197525313
 20
37.2360574447
 30
0.0
 40
0.3175000000000026
  0
CIRCLE
  5
1A2
330
1F
100
AcDbEntity
  8
0
  6
CONTINUOUS
 62
     7
100
AcDbCircle
 10
55.1897525313
 20
37.2360574447
 30
0.0
 40
0.3175000000000026
  0
CIRCLE
  5
1A3
330
1F
100
AcDbEntity
  8
0
  6
CONTINUOUS
 62
     7
100
AcDbCircle
 10
56.4597525313
 20
37.2360574447
 30
0.0
 40
0.3175000000000026
  0
CIRCLE
  5
1A4
330
1F
100
AcDbEntity
  8
0
  6
CONTINUOUS
 62
     7
100
AcDbCircle
 10
57.7297525313
 20
37.2360574447
 30
0.0
 40
0.3175000000000026
  0
CIRCLE
  5
1A5
330
1F
100
AcDbEntity
  8
0
  6
CONTINUOUS
 62
     7
100
AcDbCircle
 10
58.9997525313
 20
37.2360574447
 30
0.0
 40
0.3175000000000026
  0
CIRCLE
  5
1A6
330
1F
100
AcDbEntity
  8
0
  6
CONTINUOUS
 62
     7
100
AcDbCircle
 10
34.8697525313
 20
35.9660574447
 30
0.0
 40
0.3175000000000026
  0
CIRCLE
  5
1A7
330
1F
100
AcDbEntity
  8
0
  6
CONTINUOUS
 62
     7
100
AcDbCircle
 10
36.1397525313
 20
35.9660574447
 30
0.0
 40
0.3175000000000026
  0
CIRCLE
  5
1A8
330
1F
100
AcDbEntity
  8
0
  6
CONTINUOUS
 62
     7
100
AcDbCircle
 10
37.4097525313
 20
35.9660574447
 30
0.0
 40
0.3175000000000026
  0
CIRCLE
  5
1A9
330
1F
100
AcDbEntity
  8
0
  6
CONTINUOUS
 62
     7
100
AcDbCircle
 10
38.6797525313
 20
35.9660574447
 30
0.0
 40
0.3175000000000026
  0
CIRCLE
  5
1AA
330
1F
100
AcDbEntity
  8
0
  6
CONTINUOUS
 62
     7
100
AcDbCircle
 10
39.9497525313
 20
35.9660574447
 30
0.0
 40
0.3175000000000026
  0
CIRCLE
  5
1AB
330
1F
100
AcDbEntity
  8
0
  6
CONTINUOUS
 62
     7
100
AcDbCircle
 10
41.2197525313
 20
35.9660574447
 30
0.0
 40
0.3175000000000026
  0
CIRCLE
  5
1AC
330
1F
100
AcDbEntity
  8
0
  6
CONTINUOUS
 62
     7
100
AcDbCircle
 10
42.4897525313
 20
35.9660574447
 30
0.0
 40
0.3175000000000026
  0
CIRCLE
  5
1AD
330
1F
100
AcDbEntity
  8
0
  6
CONTINUOUS
 62
     7
100
AcDbCircle
 10
43.7597525313
 20
35.9660574447
 30
0.0
 40
0.3175000000000026
  0
CIRCLE
  5
1AE
330
1F
100
AcDbEntity
  8
0
  6
CONTINUOUS
 62
     7
100
AcDbCircle
 10
45.0297525313
 20
35.9660574447
 30
0.0
 40
0.3175000000000026
  0
CIRCLE
  5
1AF
330
1F
100
AcDbEntity
  8
0
  6
CONTINUOUS
 62
     7
100
AcDbCircle
 10
46.2997525313
 20
35.9660574447
 30
0.0
 40
0.3175000000000026
  0
CIRCLE
  5
1B0
330
1F
100
AcDbEntity
  8
0
  6
CONTINUOUS
 62
     7
100
AcDbCircle
 10
47.5697525313
 20
35.9660574447
 30
0.0
 40
0.3175000000000026
  0
CIRCLE
  5
1B1
330
1F
100
AcDbEntity
  8
0
  6
CONTINUOUS
 62
     7
100
AcDbCircle
 10
48.8397525313
 20
35.9660574447
 30
0.0
 40
0.3175000000000026
  0
CIRCLE
  5
1B2
330
1F
100
AcDbEntity
  8
0
  6
CONTINUOUS
 62
     7
100
AcDbCircle
 10
50.1097525313
 20
35.9660574447
 30
0.0
 40
0.3175000000000026
  0
CIRCLE
  5
1B3
330
1F
100
AcDbEntity
  8
0
  6
CONTINUOUS
 62
     7
100
AcDbCircle
 10
51.3797525313
 20
35.9660574447
 30
0.0
 40
0.3174999999999955
  0
CIRCLE
  5
1B4
330
1F
100
AcDbEntity
  8
0
  6
CONTINUOUS
 62
     7
100
AcDbCircle
 10
52.6497525313
 20
35.9660574447
 30
0.0
 40
0.3174999999999955
  0
CIRCLE
  5
1B5
330
1F
100
AcDbEntity
  8
0
  6
CONTINUOUS
 62
     7
100
AcDbCircle
 10
53.9197525313
 20
35.9660574447
 30
0.0
 40
0.3174999999999955
  0
CIRCLE
  5
1B6
330
1F
100
AcDbEntity
  8
0
  6
CONTINUOUS
 62
     7
100
AcDbCircle
 10
55.1897525313
 20
35.9660574447
 30
0.0
 40
0.3174999999999955
  0
CIRCLE
  5
1B7
330
1F
100
AcDbEntity
  8
0
  6
CONTINUOUS
 62
     7
100
AcDbCircle
 10
56.4597525313
 20
35.9660574447
 30
0.0
 40
0.3174999999999955
  0
CIRCLE
  5
1B8
330
1F
100
AcDbEntity
  8
0
  6
CONTINUOUS
 62
     7
100
AcDbCircle
 10
57.7297525313
 20
35.9660574447
 30
0.0
 40
0.3174999999999955
  0
CIRCLE
  5
1B9
330
1F
100
AcDbEntity
  8
0
  6
CONTINUOUS
 62
     7
100
AcDbCircle
 10
58.9997525313
 20
35.9660574447
 30
0.0
 40
0.3174999999999955
  0
CIRCLE
  5
1BA
330
1F
100
AcDbEntity
  8
0
  6
CONTINUOUS
 62
     7
100
AcDbCircle
 10
34.8697525313
 20
34.6960574447
 30
0.0
 40
0.3174999999999955
  0
CIRCLE
  5
1BB
330
1F
100
AcDbEntity
  8
0
  6
CONTINUOUS
 62
     7
100
AcDbCircle
 10
36.1397525313
 20
34.6960574447
 30
0.0
 40
0.3174999999999955
  0
CIRCLE
  5
1BC
330
1F
100
AcDbEntity
  8
0
  6
CONTINUOUS
 62
     7
100
AcDbCircle
 10
37.4097525313
 20
34.6960574447
 30
0.0
 40
0.3174999999999955
  0
CIRCLE
  5
1BD
330
1F
100
AcDbEntity
  8
0
  6
CONTINUOUS
 62
     7
100
AcDbCircle
 10
38.6797525313
 20
34.6960574447
 30
0.0
 40
0.3174999999999955
  0
CIRCLE
  5
1BE
330
1F
100
AcDbEntity
  8
0
  6
CONTINUOUS
 62
     7
100
AcDbCircle
 10
50.1097525313
 20
42.3160574447
 30
0.0
 40
0.3175000000000026
  0
CIRCLE
  5
1BF
330
1F
100
AcDbEntity
  8
0
  6
CONTINUOUS
 62
     7
100
AcDbCircle
 10
34.8697525313
 20
30.8860574447
 30
0.0
 40
0.3174999999999955
  0
CIRCLE
  5
1C0
330
1F
100
AcDbEntity
  8
0
  6
CONTINUOUS
 62
     7
100
AcDbCircle
 10
36.1397525313
 20
30.8860574447
 30
0.0
 40
0.3174999999999955
  0
CIRCLE
  5
1C1
330
1F
100
AcDbEntity
  8
0
  6
CONTINUOUS
 62
     7
100
AcDbCircle
 10
37.4097525313
 20
30.8860574447
 30
0.0
 40
0.3174999999999955
  0
CIRCLE
  5
1C2
330
1F
100
AcDbEntity
  8
0
  6
CONTINUOUS
 62
     7
100
AcDbCircle
 10
38.6797525313
 20
30.8860574447
 30
0.0
 40
0.3174999999999955
  0
CIRCLE
  5
1C3
330
1F
100
AcDbEntity
  8
0
  6
CONTINUOUS
 62
     7
100
AcDbCircle
 10
39.9497525313
 20
30.8860574447
 30
0.0
 40
0.3174999999999955
  0
CIRCLE
  5
1C4
330
1F
100
AcDbEntity
  8
0
  6
CONTINUOUS
 62
     7
100
AcDbCircle
 10
41.2197525313
 20
30.8860574447
 30
0.0
 40
0.3174999999999955
  0
CIRCLE
  5
1C5
330
1F
100
AcDbEntity
  8
0
  6
CONTINUOUS
 62
     7
100
AcDbCircle
 10
42.4897525313
 20
30.8860574447
 30
0.0
 40
0.3174999999999955
  0
CIRCLE
  5
1C6
330
1F
100
AcDbEntity
  8
0
  6
CONTINUOUS
 62
     7
100
AcDbCircle
 10
43.7597525313
 20
30.8860574447
 30
0.0
 40
0.3174999999999955
  0
CIRCLE
  5
1C7
330
1F
100
AcDbEntity
  8
0
  6
CONTINUOUS
 62
     7
100
AcDbCircle
 10
45.0297525313
 20
30.8860574447
 30
0.0
 40
0.3174999999999955
  0
CIRCLE
  5
1C8
330
1F
100
AcDbEntity
  8
0
  6
CONTINUOUS
 62
     7
100
AcDbCircle
 10
46.2997525313
 20
30.8860574447
 30
0.0
 40
0.3174999999999955
  0
CIRCLE
  5
1C9
330
1F
100
AcDbEntity
  8
0
  6
CONTINUOUS
 62
     7
100
AcDbCircle
 10
47.5697525313
 20
30.8860574447
 30
0.0
 40
0.3174999999999955
  0
CIRCLE
  5
1CA
330
1F
100
AcDbEntity
  8
0
  6
CONTINUOUS
 62
     7
100
AcDbCircle
 10
53.9197525313
 20
34.6960574447
 30
0.0
 40
0.3174999999999955
  0
CIRCLE
  5
1CB
330
1F
100
AcDbEntity
  8
0
  6
CONTINUOUS
 62
     7
100
AcDbCircle
 10
55.1897525313
 20
34.6960574447
 30
0.0
 40
0.3174999999999955
  0
CIRCLE
  5
1CC
330
1F
100
AcDbEntity
  8
0
  6
CONTINUOUS
 62
     7
100
AcDbCircle
 10
56.4597525313
 20
34.6960574447
 30
0.0
 40
0.3174999999999955
  0
CIRCLE
  5
1CD
330
1F
100
AcDbEntity
  8
0
  6
CONTINUOUS
 62
     7
100
AcDbCircle
 10
57.7297525313
 20
34.6960574447
 30
0.0
 40
0.3174999999999955
  0
CIRCLE
  5
1CE
330
1F
100
AcDbEntity
  8
0
  6
CONTINUOUS
 62
     7
100
AcDbCircle
 10
58.9997525313
 20
34.6960574447
 30
0.0
 40
0.3174999999999955
  0
CIRCLE
  5
1CF
330
1F
100
AcDbEntity
  8
0
  6
CONTINUOUS
 62
     7
100
AcDbCircle
 10
34.8697525313
 20
33.4260574447
 30
0.0
 40
0.3175000000000026
  0
CIRCLE
  5
1D0
330
1F
100
AcDbEntity
  8
0
  6
CONTINUOUS
 62
     7
100
AcDbCircle
 10
36.1397525313
 20
33.4260574447
 30
0.0
 40
0.3175000000000026
  0
CIRCLE
  5
1D1
330
1F
100
AcDbEntity
  8
0
  6
CONTINUOUS
 62
     7
100
AcDbCircle
 10
37.4097525313
 20
33.4260574447
 30
0.0
 40
0.3175000000000026
  0
CIRCLE
  5
1D2
330
1F
100
AcDbEntity
  8
0
  6
CONTINUOUS
 62
     7
100
AcDbCircle
 10
38.6797525313
 20
33.4260574447
 30
0.0
 40
0.3175000000000026
  0
CIRCLE
  5
1D3
330
1F
100
AcDbEntity
  8
0
  6
CONTINUOUS
 62
     7
100
AcDbCircle
 10
39.9497525313
 20
33.4260574447
 30
0.0
 40
0.3175000000000026
  0
CIRCLE
  5
1D4
330
1F
100
AcDbEntity
  8
0
  6
CONTINUOUS
 62
     7
100
AcDbCircle
 10
41.2197525313
 20
33.4260574447
 30
0.0
 40
0.3175000000000026
  0
CIRCLE
  5
1D5
330
1F
100
AcDbEntity
  8
0
  6
CONTINUOUS
 62
     7
100
AcDbCircle
 10
42.4897525313
 20
33.4260574447
 30
0.0
 40
0.3175000000000026
  0
CIRCLE
  5
1D6
330
1F
100
AcDbEntity
  8
0
  6
CONTINUOUS
 62
     7
100
AcDbCircle
 10
43.7597525313
 20
33.4260574447
 30
0.0
 40
0.3175000000000026
  0
CIRCLE
  5
1D7
330
1F
100
AcDbEntity
  8
0
  6
CONTINUOUS
 62
     7
100
AcDbCircle
 10
45.0297525313
 20
33.4260574447
 30
0.0
 40
0.3175000000000026
  0
CIRCLE
  5
1D8
330
1F
100
AcDbEntity
  8
0
  6
CONTINUOUS
 62
     7
100
AcDbCircle
 10
46.2997525313
 20
33.4260574447
 30
0.0
 40
0.3175000000000026
  0
CIRCLE
  5
1D9
330
1F
100
AcDbEntity
  8
0
  6
CONTINUOUS
 62
     7
100
AcDbCircle
 10
47.5697525313
 20
33.4260574447
 30
0.0
 40
0.3175000000000026
  0
CIRCLE
  5
1DA
330
1F
100
AcDbEntity
  8
0
  6
CONTINUOUS
 62
     7
100
AcDbCircle
 10
48.8397525313
 20
33.4260574447
 30
0.0
 40
0.3175000000000026
  0
CIRCLE
  5
1DB
330
1F
100
AcDbEntity
  8
0
  6
CONTINUOUS
 62
     7
100
AcDbCircle
 10
50.1097525313
 20
33.4260574447
 30
0.0
 40
0.3175000000000026
  0
CIRCLE
  5
1DC
330
1F
100
AcDbEntity
  8
0
  6
CONTINUOUS
 62
     7
100
AcDbCircle
 10
51.3797525313
 20
33.4260574447
 30
0.0
 40
0.3174999999999955
  0
CIRCLE
  5
1DD
330
1F
100
AcDbEntity
  8
0
  6
CONTINUOUS
 62
     7
100
AcDbCircle
 10
52.6497525313
 20
33.4260574447
 30
0.0
 40
0.3174999999999955
  0
CIRCLE
  5
1DE
330
1F
100
AcDbEntity
  8
0
  6
CONTINUOUS
 62
     7
100
AcDbCircle
 10
53.9197525313
 20
33.4260574447
 30
0.0
 40
0.3174999999999955
  0
CIRCLE
  5
1DF
330
1F
100
AcDbEntity
  8
0
  6
CONTINUOUS
 62
     7
100
AcDbCircle
 10
55.1897525313
 20
33.4260574447
 30
0.0
 40
0.3174999999999955
  0
CIRCLE
  5
1E0
330
1F
100
AcDbEntity
  8
0
  6
CONTINUOUS
 62
     7
100
AcDbCircle
 10
56.4597525313
 20
33.4260574447
 30
0.0
 40
0.3174999999999955
  0
CIRCLE
  5
1E1
330
1F
100
AcDbEntity
  8
0
  6
CONTINUOUS
 62
     7
100
AcDbCircle
 10
57.7297525313
 20
33.4260574447
 30
0.0
 40
0.3174999999999955
  0
CIRCLE
  5
1E2
330
1F
100
AcDbEntity
  8
0
  6
CONTINUOUS
 62
     7
100
AcDbCircle
 10
58.9997525313
 20
33.4260574447
 30
0.0
 40
0.3174999999999955
  0
CIRCLE
  5
1E3
330
1F
100
AcDbEntity
  8
0
  6
CONTINUOUS
 62
     7
100
AcDbCircle
 10
34.8697525313
 20
32.1560574447
 30
0.0
 40
0.317499999999999
  0
CIRCLE
  5
1E4
330
1F
100
AcDbEntity
  8
0
  6
CONTINUOUS
 62
     7
100
AcDbCircle
 10
36.1397525313
 20
32.1560574447
 30
0.0
 40
0.317499999999999
  0
CIRCLE
  5
1E5
330
1F
100
AcDbEntity
  8
0
  6
CONTINUOUS
 62
     7
100
AcDbCircle
 10
37.4097525313
 20
32.1560574447
 30
0.0
 40
0.317499999999999
  0
CIRCLE
  5
1E6
330
1F
100
AcDbEntity
  8
0
  6
CONTINUOUS
 62
     7
100
AcDbCircle
 10
38.6797525313
 20
32.1560574447
 30
0.0
 40
0.317499999999999
  0
CIRCLE
  5
1E7
330
1F
100
AcDbEntity
  8
0
  6
CONTINUOUS
 62
     7
100
AcDbCircle
 10
39.9497525313
 20
32.1560574447
 30
0.0
 40
0.317499999999999
  0
CIRCLE
  5
1E8
330
1F
100
AcDbEntity
  8
0
  6
CONTINUOUS
 62
     7
100
AcDbCircle
 10
41.2197525313
 20
32.1560574447
 30
0.0
 40
0.317499999999999
  0
CIRCLE
  5
1E9
330
1F
100
AcDbEntity
  8
0
  6
CONTINUOUS
 62
     7
100
AcDbCircle
 10
42.4897525313
 20
32.1560574447
 30
0.0
 40
0.317499999999999
  0
CIRCLE
  5
1EA
330
1F
100
AcDbEntity
  8
0
  6
CONTINUOUS
 62
     7
100
AcDbCircle
 10
43.7597525313
 20
32.1560574447
 30
0.0
 40
0.317499999999999
  0
CIRCLE
  5
1EB
330
1F
100
AcDbEntity
  8
0
  6
CONTINUOUS
 62
     7
100
AcDbCircle
 10
45.0297525313
 20
32.1560574447
 30
0.0
 40
0.317499999999999
  0
CIRCLE
  5
1EC
330
1F
100
AcDbEntity
  8
0
  6
CONTINUOUS
 62
     7
100
AcDbCircle
 10
46.2997525313
 20
32.1560574447
 30
0.0
 40
0.317499999999999
  0
CIRCLE
  5
1ED
330
1F
100
AcDbEntity
  8
0
  6
CONTINUOUS
 62
     7
100
AcDbCircle
 10
47.5697525313
 20
32.1560574447
 30
0.0
 40
0.317499999999999
  0
CIRCLE
  5
1EE
330
1F
100
AcDbEntity
  8
0
  6
CONTINUOUS
 62
     7
100
AcDbCircle
 10
48.8397525313
 20
32.1560574447
 30
0.0
 40
0.317499999999999
  0
CIRCLE
  5
1EF
330
1F
100
AcDbEntity
  8
0
  6
CONTINUOUS
 62
     7
100
AcDbCircle
 10
50.1097525313
 20
32.1560574447
 30
0.0
 40
0.317499999999999
  0
CIRCLE
  5
1F0
330
1F
100
AcDbEntity
  8
0
  6
CONTINUOUS
 62
     7
100
AcDbCircle
 10
51.3797525313
 20
32.1560574447
 30
0.0
 40
0.3175000000000061
  0
CIRCLE
  5
1F1
330
1F
100
AcDbEntity
  8
0
  6
CONTINUOUS
 62
     7
100
AcDbCircle
 10
52.6497525313
 20
32.1560574447
 30
0.0
 40
0.3175000000000061
  0
CIRCLE
  5
1F2
330
1F
100
AcDbEntity
  8
0
  6
CONTINUOUS
 62
     7
100
AcDbCircle
 10
53.9197525313
 20
32.1560574447
 30
0.0
 40
0.3175000000000061
  0
CIRCLE
  5
1F3
330
1F
100
AcDbEntity
  8
0
  6
CONTINUOUS
 62
     7
100
AcDbCircle
 10
55.1897525313
 20
32.1560574447
 30
0.0
 40
0.3175000000000061
  0
CIRCLE
  5
1F4
330
1F
100
AcDbEntity
  8
0
  6
CONTINUOUS
 62
     7
100
AcDbCircle
 10
56.4597525313
 20
32.1560574447
 30
0.0
 40
0.3175000000000061
  0
CIRCLE
  5
1F5
330
1F
100
AcDbEntity
  8
0
  6
CONTINUOUS
 62
     7
100
AcDbCircle
 10
57.7297525313
 20
32.1560574447
 30
0.0
 40
0.3175000000000061
  0
CIRCLE
  5
1F6
330
1F
100
AcDbEntity
  8
0
  6
CONTINUOUS
 62
     7
100
AcDbCircle
 10
58.9997525313
 20
32.1560574447
 30
0.0
 40
0.3175000000000061
  0
CIRCLE
  5
1F7
330
1F
100
AcDbEntity
  8
0
  6
CONTINUOUS
 62
     7
100
AcDbCircle
 10
41.2197525313
 20
43.5860574447
 30
0.0
 40
0.3175000000000097
  0
CIRCLE
  5
1F8
330
1F
100
AcDbEntity
  8
0
  6
CONTINUOUS
 62
     7
100
AcDbCircle
 10
42.4897525313
 20
43.5860574447
 30
0.0
 40
0.3175000000000097
  0
CIRCLE
  5
1F9
330
1F
100
AcDbEntity
  8
0
  6
CONTINUOUS
 62
     7
100
AcDbCircle
 10
43.7597525313
 20
43.5860574447
 30
0.0
 40
0.3175000000000026
  0
CIRCLE
  5
1FA
330
1F
100
AcDbEntity
  8
0
  6
CONTINUOUS
 62
     7
100
AcDbCircle
 10
45.0297525313
 20
43.5860574447
 30
0.0
 40
0.3175000000000026
  0
CIRCLE
  5
1FB
330
1F
100
AcDbEntity
  8
0
  6
CONTINUOUS
 62
     7
100
AcDbCircle
 10
46.2997525313
 20
43.5860574447
 30
0.0
 40
0.3175000000000026
  0
CIRCLE
  5
1FC
330
1F
100
AcDbEntity
  8
0
  6
CONTINUOUS
 62
     7
100
AcDbCircle
 10
47.5697525313
 20
43.5860574447
 30
0.0
 40
0.3175000000000026
  0
CIRCLE
  5
1FD
330
1F
100
AcDbEntity
  8
0
  6
CONTINUOUS
 62
     7
100
AcDbCircle
 10
48.8397525313
 20
43.5860574447
 30
0.0
 40
0.3175000000000026
  0
CIRCLE
  5
1FE
330
1F
100
AcDbEntity
  8
0
  6
CONTINUOUS
 62
     7
100
AcDbCircle
 10
50.1097525313
 20
43.5860574447
 30
0.0
 40
0.3175000000000026
  0
CIRCLE
  5
1FF
330
1F
100
AcDbEntity
  8
0
  6
CONTINUOUS
 62
     7
100
AcDbCircle
 10
51.3797525313
 20
43.5860574447
 30
0.0
 40
0.3175000000000026
  0
CIRCLE
  5
200
330
1F
100
AcDbEntity
  8
0
  6
CONTINUOUS
 62
     7
100
AcDbCircle
 10
52.6497525313
 20
43.5860574447
 30
0.0
 40
0.3175000000000026
  0
CIRCLE
  5
201
330
1F
100
AcDbEntity
  8
0
  6
CONTINUOUS
 62
     7
100
AcDbCircle
 10
48.8397525313
 20
30.8860574447
 30
0.0
 40
0.3174999999999955
  0
CIRCLE
  5
202
330
1F
100
AcDbEntity
  8
0
  6
CONTINUOUS
 62
     7
100
AcDbCircle
 10
50.1097525313
 20
30.8860574447
 30
0.0
 40
0.3174999999999955
  0
CIRCLE
  5
203
330
1F
100
AcDbEntity
  8
0
  6
CONTINUOUS
 62
     7
100
AcDbCircle
 10
51.3797525313
 20
30.8860574447
 30
0.0
 40
0.3175000000000026
  0
CIRCLE
  5
204
330
1F
100
AcDbEntity
  8
0
  6
CONTINUOUS
 62
     7
100
AcDbCircle
 10
52.6497525313
 20
30.8860574447
 30
0.0
 40
0.3175000000000026
  0
CIRCLE
  5
205
330
1F
100
AcDbEntity
  8
0
  6
CONTINUOUS
 62
     7
100
AcDbCircle
 10
53.9197525313
 20
30.8860574447
 30
0.0
 40
0.3175000000000026
  0
CIRCLE
  5
206
330
1F
100
AcDbEntity
  8
0
  6
CONTINUOUS
 62
     7
100
AcDbCircle
 10
55.1897525313
 20
30.8860574447
 30
0.0
 40
0.3175000000000026
  0
CIRCLE
  5
207
330
1F
100
AcDbEntity
  8
0
  6
CONTINUOUS
 62
     7
100
AcDbCircle
 10
56.4597525313
 20
30.8860574447
 30
0.0
 40
0.3175000000000026
  0
CIRCLE
  5
208
330
1F
100
AcDbEntity
  8
0
  6
CONTINUOUS
 62
     7
100
AcDbCircle
 10
57.7297525313
 20
30.8860574447
 30
0.0
 40
0.3175000000000026
  0
CIRCLE
  5
209
330
1F
100
AcDbEntity
  8
0
  6
CONTINUOUS
 62
     7
100
AcDbCircle
 10
58.9997525313
 20
30.8860574447
 30
0.0
 40
0.3175000000000026
  0
CIRCLE
  5
20A
330
1F
100
AcDbEntity
  8
0
  6
CONTINUOUS
 62
     7
100
AcDbCircle
 10
39.9497525313
 20
42.3160574447
 30
0.0
 40
0.3175000000000026
  0
CIRCLE
  5
20B
330
1F
100
AcDbEntity
  8
0
  6
CONTINUOUS
 62
     7
100
AcDbCircle
 10
56.4597525313
 20
44.8560574447
 30
0.0
 40
0.3175000000000097
  0
CIRCLE
  5
20C
330
1F
100
AcDbEntity
  8
0
  6
CONTINUOUS
 62
     7
100
AcDbCircle
 10
57.7297525313
 20
44.8560574447
 30
0.0
 40
0.3175000000000097
  0
CIRCLE
  5
20D
330
1F
100
AcDbEntity
  8
0
  6
CONTINUOUS
 62
     7
100
AcDbCircle
 10
58.9997525313
 20
44.8560574447
 30
0.0
 40
0.3175000000000097
  0
CIRCLE
  5
20E
330
1F
100
AcDbEntity
  8
0
  6
CONTINUOUS
 62
     7
100
AcDbCircle
 10
34.8697525313
 20
43.5860574447
 30
0.0
 40
0.3175000000000097
  0
CIRCLE
  5
20F
330
1F
100
AcDbEntity
  8
0
  6
CONTINUOUS
 62
     7
100
AcDbCircle
 10
36.1397525313
 20
43.5860574447
 30
0.0
 40
0.3175000000000097
  0
CIRCLE
  5
210
330
1F
100
AcDbEntity
  8
0
  6
CONTINUOUS
 62
     7
100
AcDbCircle
 10
37.4097525313
 20
43.5860574447
 30
0.0
 40
0.3175000000000097
  0
CIRCLE
  5
211
330
1F
100
AcDbEntity
  8
0
  6
CONTINUOUS
 62
     7
100
AcDbCircle
 10
38.6797525313
 20
43.5860574447
 30
0.0
 40
0.3175000000000097
  0
CIRCLE
  5
212
330
1F
100
AcDbEntity
  8
0
  6
CONTINUOUS
 62
     7
100
AcDbCircle
 10
57.7297525313
 20
43.5860574447
 30
0.0
 40
0.3175000000000026
  0
CIRCLE
  5
213
330
1F
100
AcDbEntity
  8
0
  6
CONTINUOUS
 62
     7
100
AcDbCircle
 10
58.9997525313
 20
43.5860574447
 30
0.0
 40
0.3175000000000026
  0
CIRCLE
  5
214
330
1F
100
AcDbEntity
  8
0
  6
CONTINUOUS
 62
     7
100
AcDbCircle
 10
34.8697525313
 20
42.3160574447
 30
0.0
 40
0.3175000000000026
  0
CIRCLE
  5
215
330
1F
100
AcDbEntity
  8
0
  6
CONTINUOUS
 62
     7
100
AcDbCircle
 10
36.1397525313
 20
42.3160574447
 30
0.0
 40
0.3175000000000026
  0
CIRCLE
  5
216
330
1F
100
AcDbEntity
  8
0
  6
CONTINUOUS
 62
     7
100
AcDbCircle
 10
37.4097525313
 20
42.3160574447
 30
0.0
 40
0.3175000000000026
  0
CIRCLE
  5
217
330
1F
100
AcDbEntity
  8
0
  6
CONTINUOUS
 62
     7
100
AcDbCircle
 10
38.6797525313
 20
42.3160574447
 30
0.0
 40
0.3175000000000026
  0
CIRCLE
  5
218
330
1F
100
AcDbEntity
  8
0
  6
CONTINUOUS
 62
     7
100
AcDbCircle
 10
56.4597525313
 20
43.5860574447
 30
0.0
 40
0.3175000000000026
  0
CIRCLE
  5
219
330
1F
100
AcDbEntity
  8
0
  6
CONTINUOUS
 62
     7
100
AcDbCircle
 10
41.2197525313
 20
42.3160574447
 30
0.0
 40
0.3175000000000026
  0
CIRCLE
  5
21A
330
1F
100
AcDbEntity
  8
0
  6
CONTINUOUS
 62
     7
100
AcDbCircle
 10
42.4897525313
 20
42.3160574447
 30
0.0
 40
0.3175000000000026
  0
CIRCLE
  5
21B
330
1F
100
AcDbEntity
  8
0
  6
CONTINUOUS
 62
     7
100
AcDbCircle
 10
43.7597525313
 20
42.3160574447
 30
0.0
 40
0.3175000000000026
  0
CIRCLE
  5
21C
330
1F
100
AcDbEntity
  8
0
  6
CONTINUOUS
 62
     7
100
AcDbCircle
 10
53.9197525313
 20
43.5860574447
 30
0.0
 40
0.3175000000000026
  0
CIRCLE
  5
21D
330
1F
100
AcDbEntity
  8
0
  6
CONTINUOUS
 62
     7
100
AcDbCircle
 10
55.1897525313
 20
43.5860574447
 30
0.0
 40
0.3175000000000026
  0
CIRCLE
  5
21E
330
1F
100
AcDbEntity
  8
0
  6
CONTINUOUS
 62
     7
100
AcDbCircle
 10
47.5697525313
 20
42.3160574447
 30
0.0
 40
0.3175000000000026
  0
CIRCLE
  5
21F
330
1F
100
AcDbEntity
  8
0
  6
CONTINUOUS
 62
     7
100
AcDbCircle
 10
48.8397525313
 20
42.3160574447
 30
0.0
 40
0.3175000000000026
  0
CIRCLE
  5
220
330
1F
100
AcDbEntity
  8
0
  6
CONTINUOUS
 62
     7
100
AcDbCircle
 10
45.0297525313
 20
42.3160574447
 30
0.0
 40
0.3175000000000026
  0
CIRCLE
  5
221
330
1F
100
AcDbEntity
  8
0
  6
CONTINUOUS
 62
     7
100
AcDbCircle
 10
46.2997525313
 20
42.3160574447
 30
0.0
 40
0.3175000000000026
  0
LINE
  5
222
330
1F
100
AcDbEntity
  8
0
  6
CONTINUOUS
 62
     7
100
AcDbLine
 10
30.4472517296
 20
41.3635574639
 30
0.0
 11
30.4472517296
 21
29.7385573046
 31
0.0
  0
LINE
  5
223
330
1F
100
AcDbEntity
  8
0
  6
CONTINUOUS
 62
     7
100
AcDbLine
 10
59.7722526713
 20
59.0635582464
 30
0.0
 11
48.5222524571
 21
59.0635582464
 31
0.0
  0
LINE
  5
224
330
1F
100
AcDbEntity
  8
0
  6
CONTINUOUS
 62
     7
100
AcDbLine
 10
30.4472517296
 20
56.1635575848
 30
0.0
 11
30.4472517296
 21
44.5385574255
 31
0.0
  0
LINE
  5
225
330
1F
100
AcDbEntity
  8
0
  6
CONTINUOUS
 62
     7
100
AcDbLine
 10
63.0472522303
 20
44.5385574255
 30
0.0
 11
63.0472522303
 21
56.1635575848
 31
0.0
  0
LINE
  5
226
330
1F
100
AcDbEntity
  8
0
  6
CONTINUOUS
 62
     7
100
AcDbLine
 10
63.0472522303
 20
29.7385573046
 30
0.0
 11
63.0472522303
 21
41.3635574639
 31
0.0
  0
LINE
  5
227
330
1F
100
AcDbEntity
  8
0
  6
CONTINUOUS
 62
     7
100
AcDbLine
 10
34.2021888196
 20
59.0635582464
 30
0.0
 11
33.3472523912
 21
59.0635582464
 31
0.0
  0
LINE
  5
228
330
1F
100
AcDbEntity
  8
0
  6
CONTINUOUS
 62
     7
100
AcDbLine
 10
48.5222524571
 20
26.838556643
 30
0.0
 11
59.7722526713
 21
26.838556643
 31
0.0
  0
LINE
  5
229
330
1F
100
AcDbEntity
  8
0
  6
CONTINUOUS
 62
     7
100
AcDbLine
 10
38.9472526572
 20
59.0635582464
 30
0.0
 11
36.4472527131
 21
59.0635582464
 31
0.0
  0
LINE
  5
22A
330
1F
100
AcDbEntity
  8
0
  6
CONTINUOUS
 62
     7
100
AcDbLine
 10
33.3472523912
 20
26.838556643
 30
0.0
 11
45.3472524955
 21
26.838556643
 31
0.0
  0
LINE
  5
22B
330
1F
100
AcDbEntity
  8
0
  6
CONTINUOUS
 62
     7
100
AcDbLine
 10
45.3472524955
 20
59.0635582464
 30
0.0
 11
41.1923165507
 21
59.0635582464
 31
0.0
  0
LINE
  5
22C
330
1F
100
AcDbEntity
  8
0
  6
CONTINUOUS
 62
     7
100
AcDbLine
 10
41.1923165507
 20
59.0635582464
 30
0.0
 11
38.9472526572
 21
59.0635582464
 31
0.0
  0
LINE
  5
22D
330
1F
100
AcDbEntity
  8
0
  6
CONTINUOUS
 62
     7
100
AcDbLine
 10
36.4472527131
 20
59.0635582464
 30
0.0
 11
34.2021888196
 21
59.0635582464
 31
0.0
  0
LINE
  5
22E
330
1F
100
AcDbEntity
  8
0
  6
CONTINUOUS
 62
     7
100
AcDbLine
 10
30.4472517296
 20
44.5385574255
 30
0.0
 11
30.4472517296
 21
41.3635574639
 31
0.0
  0
LINE
  5
22F
330
1F
100
AcDbEntity
  8
0
  6
CONTINUOUS
 62
     7
100
AcDbLine
 10
48.5222524571
 20
26.838556643
 30
0.0
 11
45.3472524955
 21
26.838556643
 31
0.0
  0
LINE
  5
230
330
1F
100
AcDbEntity
  8
0
  6
CONTINUOUS
 62
     7
100
AcDbLine
 10
63.0472522303
 20
44.5385574255
 30
0.0
 11
63.0472522303
 21
41.3635574639
 31
0.0
  0
LINE
  5
231
330
1F
100
AcDbEntity
  8
0
  6
CONTINUOUS
 62
     7
100
AcDbLine
 10
45.3472524955
 20
59.0635582464
 30
0.0
 11
48.5222524571
 21
59.0635582464
 31
0.0
  0
CIRCLE
  5
232
330
1F
100
AcDbEntity
  8
0
  6
CONTINUOUS
 62
     7
100
AcDbCircle
 10
61.4222525313
 20
28.0885574447
 30
0.0
 40
0.8550000000000004
  0
LINE
  5
233
330
1F
100
AcDbEntity
  8
0
  6
CONTINUOUS
 62
     7
100
AcDbLine
 10
59.7722526713
 20
26.838556643
 30
0.0
 11
63.0472522303
 21
26.838556643
 31
0.0
  0
LINE
  5
234
330
1F
100
AcDbEntity
  8
0
  6
CONTINUOUS
 62
     7
100
AcDbLine
 10
63.0472522303
 20
26.838556643
 30
0.0
 11
63.0472522303
 21
29.7385573046
 31
0.0
  0
CIRCLE
  5
235
330
1F
100
AcDbEntity
  8
0
  6
CONTINUOUS
 62
     7
100
AcDbCircle
 10
31.6972525313
 20
28.0885574447
 30
0.0
 40
0.8550000000000004
  0
LINE
  5
236
330
1F
100
AcDbEntity
  8
0
  6
CONTINUOUS
 62
     7
100
AcDbLine
 10
30.4472517296
 20
26.838556643
 30
0.0
 11
33.3472523912
 21
26.838556643
 31
0.0
  0
LINE
  5
237
330
1F
100
AcDbEntity
  8
0
  6
CONTINUOUS
 62
     7
100
AcDbLine
 10
30.4472517296
 20
29.7385573046
 30
0.0
 11
30.4472517296
 21
26.838556643
 31
0.0
  0
CIRCLE
  5
238
330
1F
100
AcDbEntity
  8
0
  6
CONTINUOUS
 62
     7
100
AcDbCircle
 10
61.4222525313
 20
57.8135574447
 30
0.0
 40
0.8549999999999969
  0
LINE
  5
239
330
1F
100
AcDbEntity
  8
0
  6
CONTINUOUS
 62
     7
100
AcDbLine
 10
63.0472522303
 20
59.0635582464
 30
0.0
 11
59.7722526713
 21
59.0635582464
 31
0.0
  0
LINE
  5
23A
330
1F
100
AcDbEntity
  8
0
  6
CONTINUOUS
 62
     7
100
AcDbLine
 10
63.0472522303
 20
56.1635575848
 30
0.0
 11
63.0472522303
 21
59.0635582464
 31
0.0
  0
CIRCLE
  5
23B
330
1F
100
AcDbEntity
  8
0
  6
CONTINUOUS
 62
     7
100
AcDbCircle
 10
31.6972525313
 20
57.8135574447
 30
0.0
 40
0.8549999999999969
  0
LINE
  5
23C
330
1F
100
AcDbEntity
  8
0
  6
CONTINUOUS
 62
     7
100
AcDbLine
 10
33.3472523912
 20
59.0635582464
 30
0.0
 11
30.4472517296
 21
59.0635582464
 31
0.0
  0
LINE
  5
23D
330
1F
100
AcDbEntity
  8
0
  6
CONTINUOUS
 62
     7
100
AcDbLine
 10
30.4472517296
 20
59.0635582464
 30
0.0
 11
30.4472517296
 21
56.1635575848
 31
0.0
  0
CIRCLE
  5
23E
330
1F
100
AcDbEntity
  8
0
  6
CONTINUOUS
 62
     7
100
AcDbCircle
 10
61.4222525313
 20
55.2735574447
 30
0.0
 40
0.4249999999999829
  0
CIRCLE
  5
23F
330
1F
100
AcDbEntity
  8
0
  6
CONTINUOUS
 62
     7
100
AcDbCircle
 10
31.6972525313
 20
33.1685574447
 30
0.0
 40
0.4249999999999901
  0
CIRCLE
  5
240
330
1F
100
AcDbEntity
  8
0
  6
CONTINUOUS
 62
     7
100
AcDbCircle
 10
33.0602230424
 20
57.5340961028
 30
0.0
 40
0.2870294888740758
  0
HATCH
  5
241
330
1F
100
AcDbEntity
  8
0
  6
CONTINUOUS
 62
     7
100
AcDbHatch
 10
0.0
 20
0.0
 30
0.0
210
0.0
220
0.0
230
1.0
  2
SOLID
 70
     1
 71
     0
 91
        1
 92
        0
 93
        1
 72
     2
 10
33.06022304239628
 20
57.53409610284121
 40
0.2870294888740784
 50
0.0
 51
360.0
 73
     1
 97
        0
 75
     0
 76
     1
 98
        1
 10
0.0
 20
0.0
  0
DIMENSION
  5
242
330
1F
100
AcDbEntity
  8
0
  6
CONTINUOUS
 62
     7
100
AcDbDimension
  2
_D
 10
19.4643538327
 20
26.8385574447
 30
0.0
 11
19.4643538327
 21
46.0579154054
 31
0.0
 70
   160
  1
<>\PSocket Size
  3
SLDDIMSTYLE0
100
AcDbAlignedDimension
 13
30.4472525313
 23
59.0635574447
 33
0.0
 14
30.4472525313
 24
26.8385574447
 34
0.0
 50
90.0
100
AcDbRotatedDimension
  0
DIMENSION
  5
250
330
1F
100
AcDbEntity
  8
0
  6
CONTINUOUS
 62
     7
100
AcDbDimension
  2
_D_1
 10
63.9222525313
 20
17.7145470401
 30
0.0
 11
47.6032741427
 21
17.7145470401
 31
0.0
 70
   160
  1
{\fGDT;o}<>\PBacking Plate and Insulation Plate Size
  3
SLDDIMSTYLE0
100
AcDbAlignedDimension
 13
29.1972525313
 23
25.5885574447
 33
0.0
 14
63.9222525313
 24
25.5885574447
 34
0.0
100
AcDbRotatedDimension
  0
DIMENSION
  5
265
330
1F
100
AcDbEntity
  8
0
  6
CONTINUOUS
 62
     7
100
AcDbDimension
  2
_D_2
 10
61.1217321493
 20
55.5740778267
 30
0.0
 11
74.9547344692
 21
50.0019547322
 31
0.0
 70
   163
  1
<> (x2)\PNon plated alignment hole
  3
SLDDIMSTYLE1
100
AcDbDiametricDimension
 15
61.7227729133
 25
54.9730370627
 35
0.0
 40
0.0
  0
DIMENSION
  5
271
330
1F
100
AcDbEntity
  8
0
  6
CONTINUOUS
 62
     7
100
AcDbDimension
  2
_D_3
 10
30.4472525313
 20
63.646890778
 30
0.0
 11
39.1400161997
 21
63.646890778
 31
0.0
 70
   160
  1
<> (x4)
  3
SLDDIMSTYLE2
100
AcDbAlignedDimension
 13
31.6972525313
 23
57.8135574447
 33
0.0
 14
30.4472525313
 24
59.0635574447
 34
0.0
100
AcDbRotatedDimension
  0
DIMENSION
  5
27E
330
1F
100
AcDbEntity
  8
0
  6
CONTINUOUS
 62
     7
100
AcDbDimension
  2
_D_4
 10
29.1972525313
 20
66.1421046766
 30
0.0
 11
34.4580887376
 21
66.1421046766
 31
0.0
 70
   160
  1
<>
  3
SLDDIMSTYLE3
100
AcDbAlignedDimension
 13
31.6972525313
 23
57.8135574447
 33
0.0
 14
29.1972525313
 24
60.3135574447
 34
0.0
100
AcDbRotatedDimension
  0
DIMENSION
  5
28A
330
1F
100
AcDbEntity
  8
0
  6
CONTINUOUS
 62
     7
100
AcDbDimension
  2
_D_5
 10
23.8639191979
 20
59.0635574447
 30
0.0
 11
23.8639191979
 21
61.6131376706
 31
0.0
 70
   160
  1
<> (x4)
  3
SLDDIMSTYLE2
100
AcDbAlignedDimension
 13
31.6972525313
 23
57.8135574447
 33
0.0
 14
30.4472525313
 24
59.0635574447
 34
0.0
 50
90.0
100
AcDbRotatedDimension
  0
DIMENSION
  5
297
330
1F
100
AcDbEntity
  8
0
  6
CONTINUOUS
 62
     7
100
AcDbDimension
  2
_D_6
 10
16.7356473561
 20
60.3135574447
 30
0.0
 11
16.7356473561
 21
56.5579545425
 31
0.0
 70
   160
  1
<>
  3
SLDDIMSTYLE3
100
AcDbAlignedDimension
 13
31.6972525313
 23
57.8135574447
 33
0.0
 14
29.1972525313
 24
60.3135574447
 34
0.0
 50
90.0
100
AcDbRotatedDimension
  0
DIMENSION
  5
2A3
330
1F
100
AcDbEntity
  8
0
  6
CONTINUOUS
 62
     7
100
AcDbDimension
  2
_D_7
 10
57.7297525313
 20
61.3380273927
 30
0.0
 11
65.686601808
 21
61.3380273927
 31
0.0
 70
   160
  1
<> typ.
  3
SLDDIMSTYLE4
100
AcDbAlignedDimension
 13
58.9997525313
 23
55.5160574447
 33
0.0
 14
57.7297525313
 24
55.5160574447
 34
0.0
100
AcDbRotatedDimension
  0
DIMENSION
  5
2B0
330
1F
100
AcDbEntity
  8
0
  6
CONTINUOUS
 62
     7
100
AcDbDimension
  2
_D_8
 10
61.4222525313
 20
23.253569431
 30
0.0
 11
47.0221485055
 21
23.253569431
 31
0.0
 70
   160
  1
<> (x4)
  3
SLDDIMSTYLE5
100
AcDbAlignedDimension
 13
31.6972525313
 23
28.0885574447
 33
0.0
 14
61.4222525313
 24
28.0885574447
 34
0.0
100
AcDbRotatedDimension
  0
DIMENSION
  5
2BD
330
1F
100
AcDbEntity
  8
0
  6
CONTINUOUS
 62
     7
100
AcDbDimension
  2
_D_9
 10
23.0636841099
 20
28.0885574447
 30
0.0
 11
23.0636841099
 21
30.7932290941
 31
0.0
 70
   160
  1
<>
  3
SLDDIMSTYLE6
100
AcDbAlignedDimension
 13
31.1972525313
 23
33.1685574447
 33
0.0
 14
31.1972525313
 24
28.0885574447
 34
0.0
 50
90.0
100
AcDbRotatedDimension
  0
DIMENSION
  5
2C9
330
1F
100
AcDbEntity
  8
0
  6
CONTINUOUS
 62
     7
100
AcDbDimension
  2
_D_10
 10
58.7164444374
 20
39.9193849506
 30
0.0
 11
73.0708393229
 21
36.213745686
 31
0.0
 70
   163
  1
<> pad (x400)
  3
SLDDIMSTYLE7
100
AcDbDiametricDimension
 15
59.2830606251
 25
39.6327299387
 35
0.0
 40
0.0
  0
DIMENSION
  5
2D4
330
1F
100
AcDbEntity
  8
0
  6
CONTINUOUS
 62
     7
100
AcDbDimension
  2
_D_11
 10
34.8697525313
 20
61.9714096696
 30
0.0
 11
37.6815254762
 21
61.9714096696
 31
0.0
 70
   160
  1
<> *
  3
SLDDIMSTYLE8
100
AcDbAlignedDimension
 13
31.6972525313
 23
57.8135574447
 33
0.0
 14
34.8697525313
 24
55.5160574447
 34
0.0
100
AcDbRotatedDimension
  0
DIMENSION
  5
2E1
330
1F
100
AcDbEntity
  8
0
  6
CONTINUOUS
 62
     7
100
AcDbDimension
  2
_D_12
 10
25.8639191979
 20
57.8135574447
 30
0.0
 11
25.8639191979
 21
56.087231995
 31
0.0
 70
   160
  1
<>
  3
SLDDIMSTYLE9
100
AcDbAlignedDimension
 13
34.3697525313
 23
55.0160574447
 33
0.0
 14
31.6972525313
 24
57.8135574447
 34
0.0
 50
90.0
100
AcDbRotatedDimension
  0
DIMENSION
  5
2ED
330
1F
100
AcDbEntity
  8
0
  6
CONTINUOUS
 62
     7
100
AcDbDimension
  2
_D_13
 10
25.8639191979
 20
30.8860574447
 30
0.0
 11
25.8639191979
 21
44.8838111467
 31
0.0
 70
   160
  1
<> (x4)
  3
SLDDIMSTYLE6
100
AcDbAlignedDimension
 13
36.1397525313
 23
55.0160574447
 33
0.0
 14
34.8697525313
 24
30.8860574447
 34
0.0
 50
90.0
100
AcDbRotatedDimension
  0
DIMENSION
  5
2F9
330
1F
100
AcDbEntity
  8
0
  6
CONTINUOUS
 62
     7
100
AcDbDimension
  2
_D_14
 10
67.2555858646
 20
57.8135574447
 30
0.0
 11
67.2555858646
 21
56.3713258302
 31
0.0
 70
   160
  1
<>
  3
SLDDIMSTYLE4
100
AcDbAlignedDimension
 13
61.9222525313
 23
55.2735574447
 33
0.0
 14
61.9222525313
 24
57.8135574447
 34
0.0
 50
90.0
100
AcDbRotatedDimension
  0
DIMENSION
  5
304
330
1F
100
AcDbEntity
  8
0
  6
CONTINUOUS
 62
     7
100
AcDbDimension
  2
_D_15
 10
60.9190166478
 20
28.7797727842
 30
0.0
 11
72.5961436087
 21
23.9258967642
 31
0.0
 70
   163
  1
<> (x4)\PNon plated mounting hole
  3
SLDDIMSTYLE10
100
AcDbDiametricDimension
 15
61.9254884148
 25
27.3973421052
 35
0.0
 40
0.0
  0
DIMENSION
  5
310
330
1F
100
AcDbEntity
  8
0
  6
CONTINUOUS
 62
     7
100
AcDbDimension
  2
_D_16
 10
30.4472525313
 20
20.7519519543
 30
0.0
 11
46.4336304423
 21
20.7519519543
 31
0.0
 70
   160
  1
<>\PSocket base size
  3
SLDDIMSTYLE11
100
AcDbAlignedDimension
 13
63.0472525313
 23
26.8385574447
 33
0.0
 14
30.4472525313
 24
26.8385574447
 34
0.0
100
AcDbRotatedDimension
  0
MTEXT
  5
31E
330
1F
100
AcDbEntity
  8
0
  6
CONTINUOUS
 62
     7
100
AcDbMText
 10
17.775504431
 20
63.485859388
 30
0.0
 40
0.79375
 41
0.0
 71
     1
 72
     1
  1
Orientation Mark
  7
SLDTEXTSTYLE0
  0
LEADER
  5
320
330
1F
100
AcDbEntity
  8
0
  6
CONTINUOUS
 62
     7
100
AcDbLeader
  3
SLDDIMSTYLE12
 76
     3
 10
33.0958246688
 20
57.8189091146
 30
0.0
 10
30.0396236454
 20
63.0579297246
 30
0.0
 10
25.7602089269
 20
63.0579297246
 30
0.0
1001
ACAD
1000
DSTYLE
1002
{
1070
     6
1000

1002
}
  0
INSERT
  5
328
330
1F
100
AcDbEntity
  8
0
  6
CONTINUOUS
 62
     7
100
AcDbBlockReference
  2
SW_CENTERMARKSYMBOL_0
 10
34.8697525313
 20
55.0160574447
 30
0.0
  0
INSERT
  5
330
330
1F
100
AcDbEntity
  8
0
  6
CONTINUOUS
 62
     7
100
AcDbBlockReference
  2
SW_CENTERMARKSYMBOL_1
 10
57.7297525313
 20
55.0160574447
 30
0.0
  0
INSERT
  5
338
330
1F
100
AcDbEntity
  8
0
  6
CONTINUOUS
 62
     7
100
AcDbBlockReference
  2
SW_CENTERMARKSYMBOL_2
 10
58.9997525313
 20
55.0160574447
 30
0.0
  0
INSERT
  5
340
330
1F
100
AcDbEntity
  8
0
  6
CONTINUOUS
 62
     7
100
AcDbBlockReference
  2
SW_CENTERMARKSYMBOL_3
 10
31.6972525313
 20
28.0885574447
 30
0.0
  0
INSERT
  5
348
330
1F
100
AcDbEntity
  8
0
  6
CONTINUOUS
 62
     7
100
AcDbBlockReference
  2
SW_CENTERMARKSYMBOL_4
 10
31.6972525313
 20
33.1685574447
 30
0.0
  0
INSERT
  5
350
330
1F
100
AcDbEntity
  8
0
  6
CONTINUOUS
 62
     7
100
AcDbBlockReference
  2
SW_CENTERMARKSYMBOL_5
 10
31.6972525313
 20
57.8135574447
 30
0.0
  0
INSERT
  5
358
330
1F
100
AcDbEntity
  8
0
  6
CONTINUOUS
 62
     7
100
AcDbBlockReference
  2
SW_CENTERMARKSYMBOL_6
 10
61.4222525313
 20
57.8135574447
 30
0.0
  0
INSERT
  5
360
330
1F
100
AcDbEntity
  8
0
  6
CONTINUOUS
 62
     7
100
AcDbBlockReference
  2
SW_CENTERMARKSYMBOL_7
 10
61.4222525313
 20
28.0885574447
 30
0.0
  0
INSERT
  5
368
330
1F
100
AcDbEntity
  8
0
  6
CONTINUOUS
 62
     7
100
AcDbBlockReference
  2
SW_CENTERMARKSYMBOL_8
 10
61.4222525313
 20
55.2735574447
 30
0.0
  0
LINE
  5
369
330
1F
100
AcDbEntity
  8
0
  6
CENTERX2
 62
     7
100
AcDbLine
 10
46.5597525313
 20
61.146890778
 30
0.0
 11
46.5597525313
 21
24.7552241113
 31
0.0
  0
LINE
  5
36A
330
1F
100
AcDbEntity
  8
0
  6
CENTERX2
 62
     7
100
AcDbLine
 10
28.3639191979
 20
42.9510574447
 30
0.0
 11
64.7555858646
 21
42.9510574447
 31
0.0
  0
ENDSEC
  0
SECTION
  2
OBJECTS
  0
DICTIONARY
  5
C
330
0
100
AcDbDictionary
  3
ACAD_GROUP
350
D
  3
ACAD_IMAGE_VARS
350
3A5
  3
ACAD_MLINESTYLE
350
17
  3
ACAD_SCALELIST
350
36B
  3
ACDBVARIABLEDICTIONARY
350
3A7
  3
APPDATA
350
3A4
  3
DWGPROPS
350
3A6
  0
DICTIONARY
  5
D
102
{ACAD_REACTORS
330
C
102
}
330
C
100
AcDbDictionary
  0
RASTERVARIABLES
  5
3A5
102
{ACAD_REACTORS
330
C
102
}
330
C
100
AcDbRasterVariables
 90
        0
 70
     1
 71
     1
 72
     1
  0
DICTIONARY
  5
17
102
{ACAD_REACTORS
330
C
102
}
330
C
100
AcDbDictionary
  3
STANDARD
350
18
  0
DICTIONARY
  5
36B
102
{ACAD_REACTORS
330
C
102
}
330
C
100
AcDbDictionary
  0
DICTIONARY
  5
3A7
102
{ACAD_REACTORS
330
C
102
}
330
C
100
AcDbDictionary
  3
CANNOSCALE
350
3A8
  0
DICTIONARY
  5
3A4
102
{ACAD_REACTORS
330
C
102
}
330
C
100
AcDbDictionary
  0
XRECORD
  5
3A6
102
{ACAD_REACTORS
330
C
102
}
330
C
100
AcDbXrecord
  1
DWGPROPS COOKIE
  2

  3

  4

  6

  7

  8
sueh
  9

300
=
301
=
302
=
303
=
304
=
305
=
306
=
307
=
308
=
309
=
 40
0.0
 41
2456197.876490556
 42
2456198.656379953
  1

 90
        0
  0
MLINESTYLE
  5
18
102
{ACAD_REACTORS
330
17
102
}
330
17
100
AcDbMlineStyle
  2
Standard
 70
     0
  3

 62
   256
 51
90.0
 52
90.0
 71
     2
 49
0.5
 62
   256
  6
BYLAYER
 49
-0.5
 62
   256
  6
BYLAYER
  0
DICTIONARYVAR
  5
3A8
102
{ACAD_REACTORS
330
3A7
102
}
330
3A7
100
DictionaryVariables
280
     0
  1
1:1
  0
ENDSEC
  0
EOF
