  0
SECTION
  2
HEADER
  9
$ACADVER
  1
AC1024
  9
$ACADMAINTVER
 70
     6
  9
$DWGCODEPAGE
  3
ANSI_1252
  9
$LASTSAVEDBY
  1
sueh
  9
$INSBASE
 10
0.0
 20
0.0
 30
0.0
  9
$EXTMIN
 10
1.7705357561
 20
1.5875
 30
-2.1861337526
  9
$EXTMAX
 10
67.8094504284
 20
50.4038254735
 30
0.1
  9
$LIMMIN
 10
0.0
 20
0.0
  9
$LIMMAX
 10
69.85
 20
53.975
  9
$ORTHOMODE
 70
     0
  9
$REGENMODE
 70
     1
  9
$FILLMODE
 70
     1
  9
$QTEXTMODE
 70
     0
  9
$MIRRTEXT
 70
     1
  9
$LTSCALE
 40
0.25
  9
$ATTMODE
 70
     1
  9
$TEXTSIZE
 40
0.79375
  9
$TRACEWID
 40
1.0
  9
$TEXTSTYLE
  7
Standard
  9
$CLAYER
  8
0
  9
$CELTYPE
  6
ByLayer
  9
$CECOLOR
 62
   256
  9
$CELTSCALE
 40
1.0
  9
$DISPSILH
 70
     0
  9
$DIMSCALE
 40
1.0
  9
$DIMASZ
 40
0.8255
  9
$DIMEXO
 40
0.125
  9
$DIMDLI
 40
3.75
  9
$DIMRND
 40
0.0
  9
$DIMDLE
 40
0.0
  9
$DIMEXE
 40
0.375
  9
$DIMTP
 40
0.0
  9
$DIMTM
 40
0.0
  9
$DIMTXT
 40
0.79375
  9
$DIMCEN
 40
2.5
  9
$DIMTSZ
 40
0.0
  9
$DIMTOL
 70
     0
  9
$DIMLIM
 70
     0
  9
$DIMTIH
 70
     1
  9
$DIMTOH
 70
     1
  9
$DIMSE1
 70
     0
  9
$DIMSE2
 70
     0
  9
$DIMTAD
 70
     0
  9
$DIMZIN
 70
     1
  9
$DIMBLK
  1

  9
$DIMASO
 70
     1
  9
$DIMSHO
 70
     1
  9
$DIMPOST
  1

  9
$DIMAPOST
  1

  9
$DIMALT
 70
     0
  9
$DIMALTD
 70
     3
  9
$DIMALTF
 40
0.0393700787
  9
$DIMLFAC
 40
1.0
  9
$DIMTOFL
 70
     1
  9
$DIMTVP
 40
0.0
  9
$DIMTIX
 70
     0
  9
$DIMSOXD
 70
     0
  9
$DIMSAH
 70
     0
  9
$DIMBLK1
  1

  9
$DIMBLK2
  1

  9
$DIMSTYLE
  2
ISO-25
  9
$DIMCLRD
 70
     0
  9
$DIMCLRE
 70
     0
  9
$DIMCLRT
 70
     0
  9
$DIMTFAC
 40
1.0
  9
$DIMGAP
 40
0.381
  9
$DIMJUST
 70
     0
  9
$DIMSD1
 70
     0
  9
$DIMSD2
 70
     0
  9
$DIMTOLJ
 70
     0
  9
$DIMTZIN
 70
     1
  9
$DIMALTZ
 70
     0
  9
$DIMALTTZ
 70
     0
  9
$DIMUPT
 70
     0
  9
$DIMDEC
 70
     2
  9
$DIMTDEC
 70
     2
  9
$DIMALTU
 70
     2
  9
$DIMALTTD
 70
     3
  9
$DIMTXSTY
  7
Standard
  9
$DIMAUNIT
 70
     0
  9
$DIMADEC
 70
     0
  9
$DIMALTRND
 40
0.0
  9
$DIMAZIN
 70
     0
  9
$DIMDSEP
 70
    44
  9
$DIMATFIT
 70
     3
  9
$DIMFRAC
 70
     0
  9
$DIMLDRBLK
  1

  9
$DIMLUNIT
 70
     2
  9
$DIMLWD
 70
    -2
  9
$DIMLWE
 70
    -2
  9
$DIMTMOVE
 70
     0
  9
$DIMFXL
 40
1.0
  9
$DIMFXLON
 70
     0
  9
$DIMJOGANG
 40
0.7853981633974483
  9
$DIMTFILL
 70
     0
  9
$DIMTFILLCLR
 70
     0
  9
$DIMARCSYM
 70
     0
  9
$DIMLTYPE
  6

  9
$DIMLTEX1
  6

  9
$DIMLTEX2
  6

  9
$DIMTXTDIRECTION
 70
     0
  9
$LUNITS
 70
     2
  9
$LUPREC
 70
     2
  9
$SKETCHINC
 40
1.0
  9
$FILLETRAD
 40
10.0
  9
$AUNITS
 70
     0
  9
$AUPREC
 70
     0
  9
$MENU
  1
.
  9
$ELEVATION
 40
0.0
  9
$PELEVATION
 40
0.0
  9
$THICKNESS
 40
0.0
  9
$LIMCHECK
 70
     0
  9
$CHAMFERA
 40
10.0
  9
$CHAMFERB
 40
10.0
  9
$CHAMFERC
 40
20.0
  9
$CHAMFERD
 40
0.0
  9
$SKPOLY
 70
     0
  9
$TDCREATE
 40
2456297.64031721
  9
$TDUCREATE
 40
2456297.89031721
  9
$TDUPDATE
 40
2456297.64107118
  9
$TDUUPDATE
 40
2456297.89107118
  9
$TDINDWG
 40
0.0000000116
  9
$TDUSRTIMER
 40
2456297.890903426
  9
$USRTIMER
 70
     1
  9
$ANGBASE
 50
0.0
  9
$ANGDIR
 70
     0
  9
$PDMODE
 70
     0
  9
$PDSIZE
 40
-1.0
  9
$PLINEWID
 40
0.0
  9
$SPLFRAME
 70
     0
  9
$SPLINETYPE
 70
     6
  9
$SPLINESEGS
 70
     8
  9
$HANDSEED
  5
2B8
  9
$SURFTAB1
 70
     6
  9
$SURFTAB2
 70
     6
  9
$SURFTYPE
 70
     6
  9
$SURFU
 70
     6
  9
$SURFV
 70
     6
  9
$UCSBASE
  2

  9
$UCSNAME
  2

  9
$UCSORG
 10
0.0
 20
0.0
 30
0.0
  9
$UCSXDIR
 10
1.0
 20
0.0
 30
0.0
  9
$UCSYDIR
 10
0.0
 20
1.0
 30
0.0
  9
$UCSORTHOREF
  2

  9
$UCSORTHOVIEW
 70
     0
  9
$UCSORGTOP
 10
0.0
 20
0.0
 30
0.0
  9
$UCSORGBOTTOM
 10
0.0
 20
0.0
 30
0.0
  9
$UCSORGLEFT
 10
0.0
 20
0.0
 30
0.0
  9
$UCSORGRIGHT
 10
0.0
 20
0.0
 30
0.0
  9
$UCSORGFRONT
 10
0.0
 20
0.0
 30
0.0
  9
$UCSORGBACK
 10
0.0
 20
0.0
 30
0.0
  9
$PUCSBASE
  2

  9
$PUCSNAME
  2

  9
$PUCSORG
 10
0.0
 20
0.0
 30
0.0
  9
$PUCSXDIR
 10
1.0
 20
0.0
 30
0.0
  9
$PUCSYDIR
 10
0.0
 20
1.0
 30
0.0
  9
$PUCSORTHOREF
  2

  9
$PUCSORTHOVIEW
 70
     0
  9
$PUCSORGTOP
 10
0.0
 20
0.0
 30
0.0
  9
$PUCSORGBOTTOM
 10
0.0
 20
0.0
 30
0.0
  9
$PUCSORGLEFT
 10
0.0
 20
0.0
 30
0.0
  9
$PUCSORGRIGHT
 10
0.0
 20
0.0
 30
0.0
  9
$PUCSORGFRONT
 10
0.0
 20
0.0
 30
0.0
  9
$PUCSORGBACK
 10
0.0
 20
0.0
 30
0.0
  9
$USERI1
 70
     0
  9
$USERI2
 70
     0
  9
$USERI3
 70
     0
  9
$USERI4
 70
     0
  9
$USERI5
 70
     0
  9
$USERR1
 40
0.0
  9
$USERR2
 40
0.0
  9
$USERR3
 40
0.0
  9
$USERR4
 40
0.0
  9
$USERR5
 40
0.0
  9
$WORLDVIEW
 70
     1
  9
$SHADEDGE
 70
     3
  9
$SHADEDIF
 70
    70
  9
$TILEMODE
 70
     1
  9
$MAXACTVP
 70
    64
  9
$PINSBASE
 10
0.0
 20
0.0
 30
0.0
  9
$PLIMCHECK
 70
     0
  9
$PEXTMIN
 10
1.000000000000000E+20
 20
1.000000000000000E+20
 30
1.000000000000000E+20
  9
$PEXTMAX
 10
-1.000000000000000E+20
 20
-1.000000000000000E+20
 30
-1.000000000000000E+20
  9
$PLIMMIN
 10
0.0
 20
0.0
  9
$PLIMMAX
 10
0.0
 20
0.0
  9
$UNITMODE
 70
     0
  9
$VISRETAIN
 70
     1
  9
$PLINEGEN
 70
     0
  9
$PSLTSCALE
 70
     1
  9
$TREEDEPTH
 70
  3020
  9
$CMLSTYLE
  2
Standard
  9
$CMLJUST
 70
     0
  9
$CMLSCALE
 40
20.0
  9
$PROXYGRAPHICS
 70
     1
  9
$MEASUREMENT
 70
     1
  9
$CELWEIGHT
370
    -1
  9
$ENDCAPS
280
     0
  9
$JOINSTYLE
280
     0
  9
$LWDISPLAY
290
     1
  9
$INSUNITS
 70
     4
  9
$HYPERLINKBASE
  1

  9
$STYLESHEET
  1

  9
$XEDIT
290
     1
  9
$CEPSNTYPE
380
     0
  9
$PSTYLEMODE
290
     1
  9
$FINGERPRINTGUID
  2
{35BC5E95-A38F-4DFD-9D47-8415E9624A0D}
  9
$VERSIONGUID
  2
{FAEB1C32-E019-11D5-929B-00C0DF256EC4}
  9
$EXTNAMES
290
     1
  9
$PSVPSCALE
 40
0.0
  9
$OLESTARTUP
290
     0
  9
$SORTENTS
280
   127
  9
$INDEXCTL
280
     0
  9
$HIDETEXT
280
     1
  9
$XCLIPFRAME
280
     2
  9
$HALOGAP
280
     0
  9
$OBSCOLOR
 70
   257
  9
$OBSLTYPE
280
     0
  9
$INTERSECTIONDISPLAY
280
     0
  9
$INTERSECTIONCOLOR
 70
   257
  9
$DIMASSOC
280
     2
  9
$PROJECTNAME
  1

  9
$CAMERADISPLAY
290
     0
  9
$LENSLENGTH
 40
50.0
  9
$CAMERAHEIGHT
 40
0.0
  9
$STEPSPERSEC
 40
2.0
  9
$STEPSIZE
 40
6.0
  9
$3DDWFPREC
 40
2.0
  9
$PSOLWIDTH
 40
0.25
  9
$PSOLHEIGHT
 40
4.0
  9
$LOFTANG1
 40
1.570796326794897
  9
$LOFTANG2
 40
1.570796326794897
  9
$LOFTMAG1
 40
0.0
  9
$LOFTMAG2
 40
0.0
  9
$LOFTPARAM
 70
     7
  9
$LOFTNORMALS
280
     1
  9
$LATITUDE
 40
37.795
  9
$LONGITUDE
 40
-122.394
  9
$NORTHDIRECTION
 40
0.0
  9
$TIMEZONE
 70
 -8000
  9
$LIGHTGLYPHDISPLAY
280
     1
  9
$TILEMODELIGHTSYNCH
280
     1
  9
$SOLIDHIST
280
     1
  9
$SHOWHIST
280
     1
  9
$DWFFRAME
280
     2
  9
$DGNFRAME
280
     2
  9
$REALWORLDSCALE
290
     1
  9
$INTERFERECOLOR
 62
   256
  9
$CSHADOW
280
     0
  9
$SHADOWPLANELOCATION
 40
0.0
  0
ENDSEC
  0
SECTION
  2
CLASSES
  0
CLASS
  1
ACDBDICTIONARYWDFLT
  2
AcDbDictionaryWithDefault
  3
ObjectDBX Classes
 90
        0
 91
        5
280
     0
281
     0
  0
CLASS
  1
VISUALSTYLE
  2
AcDbVisualStyle
  3
ObjectDBX Classes
 90
     4095
 91
        5
280
     0
281
     0
  0
CLASS
  1
MATERIAL
  2
AcDbMaterial
  3
ObjectDBX Classes
 90
     1153
 91
        5
280
     0
281
     0
  0
CLASS
  1
ACDBPLACEHOLDER
  2
AcDbPlaceHolder
  3
ObjectDBX Classes
 90
        0
 91
        1
280
     0
281
     0
  0
CLASS
  1
LAYOUT
  2
AcDbLayout
  3
ObjectDBX Classes
 90
        0
 91
        1
280
     0
281
     0
  0
CLASS
  1
SCALE
  2
AcDbScale
  3
ObjectDBX Classes
 90
     1153
 91
        5
280
     0
281
     0
  0
CLASS
  1
TABLESTYLE
  2
AcDbTableStyle
  3
ObjectDBX Classes
 90
     4095
 91
        5
280
     0
281
     0
  0
CLASS
  1
RASTERVARIABLES
  2
AcDbRasterVariables
  3
ISM
 90
        0
 91
        5
280
     0
281
     0
  0
CLASS
  1
DICTIONARYVAR
  2
AcDbDictionaryVar
  3
ObjectDBX Classes
 90
        0
 91
        5
280
     0
281
     0
  0
CLASS
  1
CELLSTYLEMAP
  2
AcDbCellStyleMap
  3
ObjectDBX Classes
 90
     1152
 91
        5
280
     0
281
     0
  0
ENDSEC
  0
SECTION
  2
TABLES
  0
TABLE
  2
VPORT
  5
8
330
0
100
AcDbSymbolTable
 70
     1
  0
VPORT
  5
29
330
8
100
AcDbSymbolTableRecord
100
AcDbViewportTableRecord
  2
*Active
 70
     0
 10
0.0
 20
0.0
 11
1.0
 21
1.0
 12
34.925
 22
26.9875
 13
0.0
 23
0.0
 14
10.0
 24
10.0
 15
10.0
 25
10.0
 16
0.0
 26
0.0
 36
1.0
 17
0.0
 27
0.0
 37
0.0
 40
53.975
 41
1.2941176471
 42
50.0
 43
0.0
 44
0.0
 50
0.0
 51
0.0
 71
     0
 72
  2000
 73
     1
 74
     3
 75
     0
 76
     0
 77
     0
 78
     0
281
     0
 65
     1
110
0.0
120
0.0
130
0.0
111
1.0
121
0.0
131
0.0
112
0.0
122
1.0
132
0.0
 79
     0
146
0.0
 60
     3
 61
     5
292
     1
282
     1
141
0.0
142
0.0
 63
   256
  0
ENDTAB
  0
TABLE
  2
LTYPE
  5
5
330
0
100
AcDbSymbolTable
 70
     6
  0
LTYPE
  5
14
330
5
100
AcDbSymbolTableRecord
100
AcDbLinetypeTableRecord
  2
ByBlock
 70
     0
  3

 72
    65
 73
     0
 40
0.0
  0
LTYPE
  5
15
330
5
100
AcDbSymbolTableRecord
100
AcDbLinetypeTableRecord
  2
ByLayer
 70
     0
  3

 72
    65
 73
     0
 40
0.0
  0
LTYPE
  5
16
330
5
100
AcDbSymbolTableRecord
100
AcDbLinetypeTableRecord
  2
Continuous
 70
     0
  3
Solid line
 72
    65
 73
     0
 40
0.0
  0
LTYPE
  5
3F
330
5
100
AcDbSymbolTableRecord
100
AcDbLinetypeTableRecord
  2
HIDDEN
 70
     0
  3
Hidden __ __ __ __ __ __ __ __ __ __ __ __ __ __
 72
    65
 73
     2
 40
1.905
 49
1.27
 74
     0
 49
-0.635
 74
     0
  0
LTYPE
  5
40
330
5
100
AcDbSymbolTableRecord
100
AcDbLinetypeTableRecord
  2
PHANTOM
 70
     0
  3
Phantom ______  __  __  ______  __  __  ______
 72
    65
 73
     6
 40
12.7
 49
6.35
 74
     0
 49
-1.27
 74
     0
 49
1.27
 74
     0
 49
-1.27
 74
     0
 49
1.27
 74
     0
 49
-1.27
 74
     0
  0
LTYPE
  5
41
330
5
100
AcDbSymbolTableRecord
100
AcDbLinetypeTableRecord
  2
CENTER
 70
     0
  3
Center ____ _ ____ _ ____ _ ____ _ ____ _ ____
 72
    65
 73
     4
 40
10.16
 49
6.35
 74
     0
 49
-1.27
 74
     0
 49
1.27
 74
     0
 49
-1.27
 74
     0
  0
LTYPE
  5
42
330
5
100
AcDbSymbolTableRecord
100
AcDbLinetypeTableRecord
  2
CENTERX2
 70
     0
  3
Center (2x) ________  __  ________  __  _____
 72
    65
 73
     4
 40
20.32
 49
12.7
 74
     0
 49
-2.54
 74
     0
 49
2.54
 74
     0
 49
-2.54
 74
     0
  0
LTYPE
  5
43
330
5
100
AcDbSymbolTableRecord
100
AcDbLinetypeTableRecord
  2
DOT2
 70
     0
  3
Dot (.5x) ........................................
 72
    65
 73
     2
 40
0.635
 49
0.0
 74
     0
 49
-0.635
 74
     0
  0
ENDTAB
  0
TABLE
  2
LAYER
  5
2
330
0
100
AcDbSymbolTable
 70
     6
  0
LAYER
  5
10
330
2
100
AcDbSymbolTableRecord
100
AcDbLayerTableRecord
  2
0
 70
     0
 62
     7
  6
Continuous
370
    -3
390
F
347
29B
  0
LAYER
  5
44
330
2
100
AcDbSymbolTableRecord
100
AcDbLayerTableRecord
  2
FORMAT
 70
     0
 62
     7
  6
Continuous
370
    -3
390
F
347
29B
  0
LAYER
  5
45
330
2
100
AcDbSymbolTableRecord
100
AcDbLayerTableRecord
  2
NONE
 70
     0
 62
   179
  6
Continuous
370
    -3
390
F
347
29B
  0
LAYER
  5
46
330
2
100
AcDbSymbolTableRecord
100
AcDbLayerTableRecord
  2
DIMENSION
 70
     0
 62
   179
  6
Continuous
370
    -3
390
F
347
29B
  0
LAYER
  5
47
330
2
100
AcDbSymbolTableRecord
100
AcDbLayerTableRecord
  2
PAGE_FRAME
 70
     0
 62
   179
  6
Continuous
370
    -3
390
F
347
29B
  0
LAYER
  5
48
330
2
100
AcDbSymbolTableRecord
100
AcDbLayerTableRecord
  2
LAYOUT
 70
     0
 62
   179
  6
Continuous
370
    -3
390
F
347
29B
  0
ENDTAB
  0
TABLE
  2
STYLE
  5
3
330
0
100
AcDbSymbolTable
 70
     2
  0
STYLE
  5
11
330
3
100
AcDbSymbolTableRecord
100
AcDbTextStyleTableRecord
  2
Standard
 70
     0
 40
0.0
 41
1.0
 50
0.0
 71
     0
 42
0.79375
  3
txt
  4

  0
STYLE
  5
5C
330
3
100
AcDbSymbolTableRecord
100
AcDbTextStyleTableRecord
  2
SLDTEXTSTYLE0
 70
     0
 40
0.0
 41
0.605
 50
0.0
 71
     0
 42
0.2
  3
TXT
  4

  0
ENDTAB
  0
TABLE
  2
VIEW
  5
6
330
0
100
AcDbSymbolTable
 70
     0
  0
ENDTAB
  0
TABLE
  2
UCS
  5
7
330
0
100
AcDbSymbolTable
 70
     0
  0
ENDTAB
  0
TABLE
  2
APPID
  5
9
330
0
100
AcDbSymbolTable
 70
     1
  0
APPID
  5
12
330
9
100
AcDbSymbolTableRecord
100
AcDbRegAppTableRecord
  2
ACAD
 70
     0
  0
ENDTAB
  0
TABLE
  2
DIMSTYLE
  5
A
330
0
100
AcDbSymbolTable
 70
    12
100
AcDbDimStyleTable
  0
DIMSTYLE
105
27
330
A
100
AcDbSymbolTableRecord
100
AcDbDimStyleTableRecord
  2
ISO-25
 70
     0
 41
2.5
 42
0.625
 43
3.75
 44
1.25
 73
     0
 74
     0
 77
     1
 78
     8
140
2.5
141
2.5
143
0.0393700787
147
0.625
171
     3
172
     1
178
     0
271
     2
272
     2
274
     3
278
    44
283
     0
284
     8
340
11
  0
DIMSTYLE
105
162
102
{ACAD_REACTORS
330
161
102
}
330
A
100
AcDbSymbolTableRecord
100
AcDbDimStyleTableRecord
  2
SLDDIMSTYLE0
 70
     0
 41
0.8255
 44
0.0
 45
0.000000001
 47
0.125
 48
0.125
 71
     1
 78
    12
 79
     3
140
0.5778717041
147
0.144467926
173
     1
178
     0
271
     3
272
     3
276
     2
284
     8
340
5C
  0
DIMSTYLE
105
179
102
{ACAD_REACTORS
330
178
330
188
330
197
330
1A6
102
}
330
A
100
AcDbSymbolTableRecord
100
AcDbDimStyleTableRecord
  2
SLDDIMSTYLE1
 70
     0
 41
0.8255
 44
0.0
 45
0.000000001
 78
    12
 79
     3
140
0.5778717041
147
-0.144467926
173
     1
178
     0
276
     2
284
    12
340
5C
  0
DIMSTYLE
105
1B6
102
{ACAD_REACTORS
330
1B5
330
1C2
330
222
102
}
330
A
100
AcDbSymbolTableRecord
100
AcDbDimStyleTableRecord
  2
SLDDIMSTYLE2
 70
     0
 41
0.8255
 44
0.0
 45
0.000000001
 78
    12
 79
     3
140
0.5778717041
147
0.144467926
172
     1
173
     1
178
     0
271
     2
272
     2
276
     2
284
    12
289
     0
340
5C
  0
DIMSTYLE
105
1CF
102
{ACAD_REACTORS
330
1CE
102
}
330
A
100
AcDbSymbolTableRecord
100
AcDbDimStyleTableRecord
  2
SLDDIMSTYLE3
 70
     0
 41
0.8255
 44
0.0
 45
0.000000001
 78
     4
 79
     1
140
0.5778717041
147
0.144467926
172
     1
173
     1
178
     0
272
     3
276
     2
284
    12
289
     0
340
5C
  0
DIMSTYLE
105
1DB
102
{ACAD_REACTORS
330
1DA
102
}
330
A
100
AcDbSymbolTableRecord
100
AcDbDimStyleTableRecord
  2
SLDDIMSTYLE4
 70
     0
 41
0.8255
 44
0.0
 45
0.000000001
 78
     4
 79
     1
140
0.5778717041
147
0.144467926
173
     1
178
     0
271
     3
272
     3
276
     2
284
    12
340
5C
  0
DIMSTYLE
105
1E7
102
{ACAD_REACTORS
330
1E6
102
}
330
A
100
AcDbSymbolTableRecord
100
AcDbDimStyleTableRecord
  2
SLDDIMSTYLE5
 70
     0
 41
0.8255
 44
0.0
 45
0.000000001
 47
0.05
 48
0.05
 71
     1
 78
    12
 79
     3
140
0.5778717041
141
0.0
147
0.144467926
173
     1
178
     0
271
     2
272
     2
276
     2
284
     8
340
5C
  0
DIMSTYLE
105
1F3
102
{ACAD_REACTORS
330
1F2
330
1FF
102
}
330
A
100
AcDbSymbolTableRecord
100
AcDbDimStyleTableRecord
  2
SLDDIMSTYLE6
 70
     0
 41
0.8255
 44
0.0
 45
0.000000001
 78
    12
 79
     3
140
0.5778717041
147
0.144467926
173
     1
178
     0
271
     3
272
     3
276
     2
284
    12
340
5C
  0
DIMSTYLE
105
20C
102
{ACAD_REACTORS
330
20B
102
}
330
A
100
AcDbSymbolTableRecord
100
AcDbDimStyleTableRecord
  2
SLDDIMSTYLE7
 70
     0
 41
0.8255
 44
0.0
 45
0.000000001
 78
    12
 79
     3
140
0.5778717041
141
0.0
147
0.144467926
173
     1
178
     0
271
     2
272
     2
276
     2
284
    12
340
5C
  0
DIMSTYLE
105
217
102
{ACAD_REACTORS
330
216
102
}
330
A
100
AcDbSymbolTableRecord
100
AcDbDimStyleTableRecord
  2
SLDDIMSTYLE8
 70
     0
 41
0.8255
 44
0.0
 45
0.000000001
 78
     4
 79
     1
140
0.5778717041
147
0.144467926
173
     1
178
     0
276
     2
284
    12
340
5C
  0
DIMSTYLE
105
22E
102
{ACAD_REACTORS
330
22D
102
}
330
A
100
AcDbSymbolTableRecord
100
AcDbDimStyleTableRecord
  2
SLDDIMSTYLE9
 70
     0
 41
0.8255
 44
0.0
 45
0.000000001
 47
0.1
 48
0.1
 71
     1
 78
     4
 79
     1
140
0.5778717041
141
0.0
147
0.144467926
173
     1
178
     0
271
     2
272
     2
276
     2
340
5C
  0
DIMSTYLE
105
23A
330
A
100
AcDbSymbolTableRecord
100
AcDbDimStyleTableRecord
  2
SLDDIMSTYLE10
 70
     0
 41
0.8255
 44
0.0
 45
0.000000001
140
0.0
146
0.8255
147
0.0
173
     1
178
     0
271
     0
272
     0
276
     2
340
11
  0
ENDTAB
  0
TABLE
  2
BLOCK_RECORD
  5
1
330
0
100
AcDbSymbolTable
 70
    29
  0
BLOCK_RECORD
  5
1F
330
1
100
AcDbSymbolTableRecord
100
AcDbBlockTableRecord
  2
*Model_Space
340
22
 70
     0
280
     1
281
     0
  0
BLOCK_RECORD
  5
1B
330
1
100
AcDbSymbolTableRecord
100
AcDbBlockTableRecord
  2
*Paper_Space
340
1E
 70
     0
280
     1
281
     0
  0
BLOCK_RECORD
  5
23
330
1
100
AcDbSymbolTableRecord
100
AcDbBlockTableRecord
  2
*Paper_Space0
340
26
 70
     0
280
     1
281
     0
  0
BLOCK_RECORD
  5
59
330
1
100
AcDbSymbolTableRecord
100
AcDbBlockTableRecord
  2
SW_NOTE_0
340
0
102
{BLKREFS
331
61
102
}
 70
     0
280
     1
281
     0
  0
BLOCK_RECORD
  5
65
330
1
100
AcDbSymbolTableRecord
100
AcDbBlockTableRecord
  2
SW_NOTE_1
340
0
102
{BLKREFS
331
0
102
}
 70
     0
280
     1
281
     0
  0
BLOCK_RECORD
  5
6C
330
1
100
AcDbSymbolTableRecord
100
AcDbBlockTableRecord
  2
SW_NOTE_2
340
0
102
{BLKREFS
331
72
102
}
 70
     0
280
     1
281
     0
  0
BLOCK_RECORD
  5
73
330
1
100
AcDbSymbolTableRecord
100
AcDbBlockTableRecord
  2
SW_NOTE_3
340
0
102
{BLKREFS
331
78
102
}
 70
     0
280
     1
281
     0
  0
BLOCK_RECORD
  5
163
330
1
100
AcDbSymbolTableRecord
100
AcDbBlockTableRecord
  2
_D
340
0
 70
     0
280
     1
281
     0
  0
BLOCK_RECORD
  5
16C
330
1
100
AcDbSymbolTableRecord
100
AcDbBlockTableRecord
  2
SW_SYMBOL_MOD_BOX
340
0
102
{BLKREFS
331
173
331
1FD
331
209
102
}
 70
     0
280
     1
281
     0
  0
BLOCK_RECORD
  5
17A
330
1
100
AcDbSymbolTableRecord
100
AcDbBlockTableRecord
  2
_D_1
340
0
 70
     0
280
     1
281
     0
  0
BLOCK_RECORD
  5
189
330
1
100
AcDbSymbolTableRecord
100
AcDbBlockTableRecord
  2
_D_2
340
0
 70
     0
280
     1
281
     0
  0
BLOCK_RECORD
  5
198
330
1
100
AcDbSymbolTableRecord
100
AcDbBlockTableRecord
  2
_D_3
340
0
 70
     0
280
     1
281
     0
  0
BLOCK_RECORD
  5
1A7
330
1
100
AcDbSymbolTableRecord
100
AcDbBlockTableRecord
  2
_D_4
340
0
 70
     0
280
     1
281
     0
  0
BLOCK_RECORD
  5
1B7
330
1
100
AcDbSymbolTableRecord
100
AcDbBlockTableRecord
  2
_D_5
340
0
 70
     0
280
     1
281
     0
  0
BLOCK_RECORD
  5
1C3
330
1
100
AcDbSymbolTableRecord
100
AcDbBlockTableRecord
  2
_D_6
340
0
 70
     0
280
     1
281
     0
  0
BLOCK_RECORD
  5
1D0
330
1
100
AcDbSymbolTableRecord
100
AcDbBlockTableRecord
  2
_D_7
340
0
 70
     0
280
     1
281
     0
  0
BLOCK_RECORD
  5
1DC
330
1
100
AcDbSymbolTableRecord
100
AcDbBlockTableRecord
  2
_D_8
340
0
 70
     0
280
     1
281
     0
  0
BLOCK_RECORD
  5
1E8
330
1
100
AcDbSymbolTableRecord
100
AcDbBlockTableRecord
  2
_D_9
340
0
 70
     0
280
     1
281
     0
  0
BLOCK_RECORD
  5
1F4
330
1
100
AcDbSymbolTableRecord
100
AcDbBlockTableRecord
  2
_D_10
340
0
 70
     0
280
     1
281
     0
  0
BLOCK_RECORD
  5
200
330
1
100
AcDbSymbolTableRecord
100
AcDbBlockTableRecord
  2
_D_11
340
0
 70
     0
280
     1
281
     0
  0
BLOCK_RECORD
  5
20D
330
1
100
AcDbSymbolTableRecord
100
AcDbBlockTableRecord
  2
_D_12
340
0
 70
     0
280
     1
281
     0
  0
BLOCK_RECORD
  5
218
330
1
100
AcDbSymbolTableRecord
100
AcDbBlockTableRecord
  2
_D_13
340
0
 70
     0
280
     1
281
     0
  0
BLOCK_RECORD
  5
223
330
1
100
AcDbSymbolTableRecord
100
AcDbBlockTableRecord
  2
_D_14
340
0
 70
     0
280
     1
281
     0
  0
BLOCK_RECORD
  5
22F
330
1
100
AcDbSymbolTableRecord
100
AcDbBlockTableRecord
  2
_D_15
340
0
 70
     0
280
     1
281
     0
  0
BLOCK_RECORD
  5
23C
330
1
100
AcDbSymbolTableRecord
100
AcDbBlockTableRecord
  2
SW_CENTERMARKSYMBOL_0
340
0
102
{BLKREFS
331
243
102
}
 70
     0
280
     1
281
     0
  0
BLOCK_RECORD
  5
244
330
1
100
AcDbSymbolTableRecord
100
AcDbBlockTableRecord
  2
SW_CENTERMARKSYMBOL_1
340
0
102
{BLKREFS
331
24B
102
}
 70
     0
280
     1
281
     0
  0
BLOCK_RECORD
  5
24C
330
1
100
AcDbSymbolTableRecord
100
AcDbBlockTableRecord
  2
SW_CENTERMARKSYMBOL_2
340
0
102
{BLKREFS
331
253
102
}
 70
     0
280
     1
281
     0
  0
BLOCK_RECORD
  5
254
330
1
100
AcDbSymbolTableRecord
100
AcDbBlockTableRecord
  2
SW_CENTERMARKSYMBOL_3
340
0
102
{BLKREFS
331
25B
102
}
 70
     0
280
     1
281
     0
  0
BLOCK_RECORD
  5
25C
330
1
100
AcDbSymbolTableRecord
100
AcDbBlockTableRecord
  2
SW_CENTERMARKSYMBOL_4
340
0
102
{BLKREFS
331
263
102
}
 70
     0
280
     1
281
     0
  0
BLOCK_RECORD
  5
264
330
1
100
AcDbSymbolTableRecord
100
AcDbBlockTableRecord
  2
SW_CENTERMARKSYMBOL_5
340
0
102
{BLKREFS
331
26B
102
}
 70
     0
280
     1
281
     0
  0
BLOCK_RECORD
  5
26C
330
1
100
AcDbSymbolTableRecord
100
AcDbBlockTableRecord
  2
SW_CENTERMARKSYMBOL_6
340
0
102
{BLKREFS
331
273
102
}
 70
     0
280
     1
281
     0
  0
ENDTAB
  0
ENDSEC
  0
SECTION
  2
BLOCKS
  0
BLOCK
  5
20
330
1F
100
AcDbEntity
  8
0
100
AcDbBlockBegin
  2
*Model_Space
 70
     0
 10
0.0
 20
0.0
 30
0.0
  3
*Model_Space
  1

  0
ENDBLK
  5
21
330
1F
100
AcDbEntity
  8
0
100
AcDbBlockEnd
  0
BLOCK
  5
1C
330
1B
100
AcDbEntity
 67
     1
  8
0
100
AcDbBlockBegin
  2
*Paper_Space
 70
     0
 10
0.0
 20
0.0
 30
0.0
  3
*Paper_Space
  1

  0
ENDBLK
  5
1D
330
1B
100
AcDbEntity
 67
     1
  8
0
100
AcDbBlockEnd
  0
BLOCK
  5
24
330
23
100
AcDbEntity
  8
0
100
AcDbBlockBegin
  2
*Paper_Space0
 70
     0
 10
0.0
 20
0.0
 30
0.0
  3
*Paper_Space0
  1

  0
ENDBLK
  5
25
330
23
100
AcDbEntity
  8
0
100
AcDbBlockEnd
  0
BLOCK
  5
5A
330
59
100
AcDbEntity
  8
0
100
AcDbBlockBegin
  2
SW_NOTE_0
 70
     0
 10
0.0
 20
0.0
 30
0.0
  3
SW_NOTE_0
  1

  0
MTEXT
  5
5D
330
59
100
AcDbEntity
  8
LAYOUT
 62
     0
100
AcDbMText
 10
0.0
 20
0.9379310586
 30
0.0
 40
0.7276041667
 41
0.0
 46
0.0
 71
     1
 72
     1
  1
\LTarget PCB Recommendations
  7
SLDTEXTSTYLE0
 73
     1
 44
1.0
  0
MTEXT
  5
5E
330
59
100
AcDbEntity
  8
LAYOUT
 62
     0
100
AcDbMText
 10
0.0
 20
-0.0322078186
 30
0.0
 40
0.7276041667
 41
0.0
 46
0.0
 71
     1
 72
     1
  1
Total thickness: 0.864mm min.
  7
SLDTEXTSTYLE0
 73
     1
 44
1.0
  0
MTEXT
  5
5F
330
59
100
AcDbEntity
  8
LAYOUT
 62
     0
100
AcDbMText
 10
0.0
 20
-1.0023466958
 30
0.0
 40
0.7276041667
 41
0.0
 46
0.0
 71
     1
 72
     1
  1
Plating: Gold or Solder finish
  7
SLDTEXTSTYLE0
 73
     1
 44
1.0
  0
MTEXT
  5
60
330
59
100
AcDbEntity
  8
LAYOUT
 62
     0
100
AcDbMText
 10
0.0
 20
-1.9724855729
 30
0.0
 40
0.7276041667
 41
0.0
 46
0.0
 71
     1
 72
     1
  1
PCB Pad height: same or higher than solder mask
  7
SLDTEXTSTYLE0
 73
     1
 44
1.0
  0
ENDBLK
  5
5B
330
59
100
AcDbEntity
  8
0
100
AcDbBlockEnd
  0
BLOCK
  5
66
330
65
100
AcDbEntity
  8
0
100
AcDbBlockBegin
  2
SW_NOTE_1
 70
     0
 10
0.0
 20
0.0
 30
0.0
  3
SW_NOTE_1
  1

  0
MTEXT
  5
68
330
65
100
AcDbEntity
  8
0
  6
Continuous
 62
     0
370
     0
100
AcDbMText
 10
4.0845052083
 20
0.682131679
 30
0.0
 40
0.5291666667
 41
0.0
 46
0.0
 71
     2
 72
     1
  1
Ironwood Electronics, Inc.
  7
SLDTEXTSTYLE0
 73
     1
 44
1.0
  0
MTEXT
  5
69
330
65
100
AcDbEntity
  8
0
  6
Continuous
 62
     0
370
     0
100
AcDbMText
 10
4.0685802452
 20
-0.0234238681
 30
0.0
 40
0.5291666667
 41
0.0
 46
0.0
 71
     2
 72
     1
  1
Tele: (800) 404-0204
  7
SLDTEXTSTYLE0
 73
     1
 44
1.0
  0
MTEXT
  5
6A
330
65
100
AcDbEntity
  8
0
  6
Continuous
 62
     0
370
     0
100
AcDbMText
 10
4.0404079946
 20
-0.7289794151
 30
0.0
 40
0.5291666667
 41
0.0
 46
0.0
 71
     2
 72
     1
  1
www.ironwoodelectronics.com
  7
SLDTEXTSTYLE0
 73
     1
 44
1.0
  0
ENDBLK
  5
67
330
65
100
AcDbEntity
  8
0
100
AcDbBlockEnd
  0
BLOCK
  5
6D
330
6C
100
AcDbEntity
  8
0
100
AcDbBlockBegin
  2
SW_NOTE_2
 70
     0
 10
0.0
 20
0.0
 30
0.0
  3
SW_NOTE_2
  1

  0
MTEXT
  5
6F
330
6C
100
AcDbEntity
  8
0
  6
Continuous
 62
     0
370
     0
100
AcDbMText
 10
0.0
 20
0.5115987592
 30
0.0
 40
0.396875
 41
0.0
 46
0.0
 71
     1
 72
     1
  1
\LTolerances:
  7
SLDTEXTSTYLE0
 73
     1
 44
1.0
  0
MTEXT
  5
70
330
6C
100
AcDbEntity
  8
0
  6
Continuous
 62
     0
370
     0
100
AcDbMText
 10
2.9122540563
 20
0.5115987592
 30
0.0
 40
0.396875
 41
0.0
 46
0.0
 71
     1
 72
     1
  1
diameters ±0.03mm [±0.001"], PCB perimeters ±0.13mm [±0.005"], PCB thicknesses ±0.18mm [±0.007"], pitches (from true position)
  7
SLDTEXTSTYLE0
 73
     1
 44
1.0
  0
MTEXT
  5
71
330
6C
100
AcDbEntity
  8
0
  6
Continuous
 62
     0
370
     0
100
AcDbMText
 10
0.0
 20
-0.017567901
 30
0.0
 40
0.396875
 41
0.0
 46
0.0
 71
     1
 72
     1
  1
±0.08mm [±0.003"], all other tolerances ±0.13mm [±0.005"] unless stated otherwise.  Materials and specifications are subject to change without notice.
  7
SLDTEXTSTYLE0
 73
     1
 44
1.0
  0
ENDBLK
  5
6E
330
6C
100
AcDbEntity
  8
0
100
AcDbBlockEnd
  0
BLOCK
  5
74
330
73
100
AcDbEntity
  8
0
100
AcDbBlockBegin
  2
SW_NOTE_3
 70
     0
 10
0.0
 20
0.0
 30
0.0
  3
SW_NOTE_3
  1

  0
MTEXT
  5
76
330
73
100
AcDbEntity
  8
0
  6
Continuous
 62
     0
370
     0
100
AcDbMText
 10
0.0
 20
1.1937304382
 30
0.0
 40
0.9260416667
 41
0.0
 46
0.0
 71
     1
 72
     1
  1
Description:
  7
SLDTEXTSTYLE0
 73
     1
 44
1.0
  0
MTEXT
  5
77
330
73
100
AcDbEntity
  8
0
  6
Continuous
 62
     0
370
     0
100
AcDbMText
 10
6.8595679477
 20
1.1937304382
 30
0.0
 40
0.9260416667
 41
0.0
 46
0.0
 71
     1
 72
     1
  1
\LRecommended PCB layout
  7
SLDTEXTSTYLE0
 73
     1
 44
1.0
  0
ENDBLK
  5
75
330
73
100
AcDbEntity
  8
0
100
AcDbBlockEnd
  0
BLOCK
  5
164
330
163
100
AcDbEntity
  8
0
100
AcDbBlockBegin
  2
_D
 70
     0
 10
0.0
 20
0.0
 30
0.0
  3
_D
  1

  0
SOLID
  5
166
330
163
100
AcDbEntity
  8
LAYOUT
 62
     7
100
AcDbTrace
 10
10.5380050179
 20
42.0105729892
 30
0.0
 11
10.4110050179
 21
41.1850729892
 31
0.0
 12
10.6650050179
 22
41.1850729892
 32
0.0
 13
10.6650050179
 23
41.1850729892
 33
0.0
  0
SOLID
  5
167
330
163
100
AcDbEntity
  8
LAYOUT
 62
     7
100
AcDbTrace
 10
10.5380050179
 20
22.7855729892
 30
0.0
 11
10.6650050179
 21
23.6110729892
 31
0.0
 12
10.4110050179
 22
23.6110729892
 32
0.0
 13
10.4110050179
 23
23.6110729892
 33
0.0
  0
LINE
  5
168
330
163
100
AcDbEntity
  8
LAYOUT
 62
     7
100
AcDbLine
 10
27.3005050179
 20
42.0105729892
 30
0.0
 11
10.1630050179
 21
42.0105729892
 31
0.0
  0
LINE
  5
169
330
163
100
AcDbEntity
  8
LAYOUT
 62
     7
100
AcDbLine
 10
27.3005050179
 20
22.7855729892
 30
0.0
 11
10.1630050179
 21
22.7855729892
 31
0.0
  0
LINE
  5
16A
330
163
100
AcDbEntity
  8
LAYOUT
 62
     7
100
AcDbLine
 10
10.5380050179
 20
42.0105729892
 30
0.0
 11
10.5380050179
 21
34.0375018634
 31
0.0
  0
LINE
  5
16B
330
163
100
AcDbEntity
  8
LAYOUT
 62
     7
100
AcDbLine
 10
10.5380050179
 20
22.7855729892
 30
0.0
 11
10.5380050179
 21
32.2625885813
 31
0.0
  0
INSERT
  5
173
330
163
100
AcDbEntity
  8
LAYOUT
 62
     7
100
AcDbBlockReference
  2
SW_SYMBOL_MOD_BOX
 10
7.3412318987
 20
33.2360880709
 30
0.0
 41
0.0030695926
 42
0.0030695926
 43
0.0030695926
  0
MTEXT
  5
174
330
163
100
AcDbEntity
  8
LAYOUT
 62
     7
100
AcDbMText
 10
8.3631850573
 20
33.9174433758
 30
-2.1861337526
 40
0.5953125
 41
0.0
 46
0.0
 71
     1
 72
     1
  1

  7
SLDTEXTSTYLE0
 73
     1
 44
1.0
  0
MTEXT
  5
175
330
163
100
AcDbEntity
  8
LAYOUT
 62
     7
100
AcDbMText
 10
8.3604289492
 20
33.9174433758
 30
-2.1861337526
 40
0.5953125
 41
0.0
 46
0.0
 71
     1
 72
     1
  1
19.225
  7
SLDTEXTSTYLE0
 73
     1
 44
1.0
  0
MTEXT
  5
176
330
163
100
AcDbEntity
  8
LAYOUT
 62
     7
100
AcDbMText
 10
11.3149431807
 20
33.9174433758
 30
-2.1861337526
 40
0.5953125
 41
0.0
 46
0.0
 71
     1
 72
     1
  1
±0.125
  7
SLDTEXTSTYLE0
 73
     1
 44
1.0
  0
MTEXT
  5
177
330
163
100
AcDbEntity
  8
LAYOUT
 62
     7
100
AcDbMText
 10
5.9077970025
 20
33.0299867347
 30
-2.1861337526
 40
0.5953125
 41
0.0
 46
0.0
 71
     1
 72
     1
  1
SOCKET BASE OUTLINE
  7
SLDTEXTSTYLE0
 73
     1
 44
1.0
  0
ENDBLK
  5
165
330
163
100
AcDbEntity
  8
0
100
AcDbBlockEnd
  0
BLOCK
  5
16D
330
16C
100
AcDbEntity
  8
0
100
AcDbBlockBegin
  2
SW_SYMBOL_MOD_BOX
 70
     0
 10
0.0
 20
0.0
 30
0.0
  3
SW_SYMBOL_MOD_BOX
  1

  0
LINE
  5
16F
330
16C
100
AcDbEntity
  8
LAYOUT
 62
     0
100
AcDbLine
 10
50.0
 20
50.0
 30
0.0
 11
200.0
 21
50.0
 31
0.0
  0
LINE
  5
170
330
16C
100
AcDbEntity
  8
LAYOUT
 62
     0
100
AcDbLine
 10
50.0
 20
50.0
 30
0.0
 11
50.0
 21
200.0
 31
0.0
  0
LINE
  5
171
330
16C
100
AcDbEntity
  8
LAYOUT
 62
     0
100
AcDbLine
 10
50.0
 20
200.0
 30
0.0
 11
200.0
 21
200.0
 31
0.0
  0
LINE
  5
172
330
16C
100
AcDbEntity
  8
LAYOUT
 62
     0
100
AcDbLine
 10
200.0
 20
200.0
 30
0.0
 11
200.0
 21
50.0
 31
0.0
  0
ENDBLK
  5
16E
330
16C
100
AcDbEntity
  8
0
100
AcDbBlockEnd
  0
BLOCK
  5
17B
330
17A
100
AcDbEntity
  8
0
100
AcDbBlockBegin
  2
_D_1
 70
     0
 10
0.0
 20
0.0
 30
0.0
  3
_D_1
  1

  0
SOLID
  5
17D
330
17A
100
AcDbEntity
  8
LAYOUT
100
AcDbTrace
 10
37.0380050179
 20
14.709016741
 30
0.0
 11
37.8635050179
 21
14.582016741
 31
0.0
 12
37.8635050179
 22
14.836016741
 32
0.0
 13
37.8635050179
 23
14.836016741
 33
0.0
  0
SOLID
  5
17E
330
17A
100
AcDbEntity
  8
LAYOUT
100
AcDbTrace
 10
45.4005050179
 20
14.709016741
 30
0.0
 11
44.5750050179
 21
14.836016741
 31
0.0
 12
44.5750050179
 22
14.582016741
 32
0.0
 13
44.5750050179
 23
14.582016741
 33
0.0
  0
LINE
  5
17F
330
17A
100
AcDbEntity
  8
LAYOUT
100
AcDbLine
 10
40.2396133727
 20
14.2652884205
 30
0.0
 11
40.2396133727
 21
15.1527450615
 31
0.0
  0
LINE
  5
180
330
17A
100
AcDbEntity
  8
LAYOUT
100
AcDbLine
 10
40.2396133727
 20
15.1527450615
 30
0.0
 11
43.0618355899
 21
15.1527450615
 31
0.0
  0
LINE
  5
181
330
17A
100
AcDbEntity
  8
LAYOUT
100
AcDbLine
 10
43.0618355899
 20
15.1527450615
 30
0.0
 11
43.0618355899
 21
14.2652884205
 31
0.0
  0
LINE
  5
182
330
17A
100
AcDbEntity
  8
LAYOUT
100
AcDbLine
 10
43.0618355899
 20
14.2652884205
 30
0.0
 11
40.2396133727
 21
14.2652884205
 31
0.0
  0
LINE
  5
183
330
17A
100
AcDbEntity
  8
LAYOUT
100
AcDbLine
 10
37.0380050179
 20
22.0355729892
 30
0.0
 11
37.0380050179
 21
14.334016741
 31
0.0
  0
LINE
  5
184
330
17A
100
AcDbEntity
  8
LAYOUT
100
AcDbLine
 10
45.4005050179
 20
23.4105729892
 30
0.0
 11
45.4005050179
 21
14.334016741
 31
0.0
  0
LINE
  5
185
330
17A
100
AcDbEntity
  8
LAYOUT
100
AcDbLine
 10
37.0380050179
 20
14.709016741
 30
0.0
 11
40.1734675401
 21
14.709016741
 31
0.0
  0
LINE
  5
186
330
17A
100
AcDbEntity
  8
LAYOUT
100
AcDbLine
 10
45.4005050179
 20
14.709016741
 30
0.0
 11
43.127981306
 21
14.709016741
 31
0.0
  0
MTEXT
  5
187
330
17A
100
AcDbEntity
  8
LAYOUT
100
AcDbMText
 10
40.4380508703
 20
15.0326865739
 30
-2.1861337526
 40
0.5953125
 41
0.0
 46
0.0
 71
     1
 72
     1
  1
8.3625
  7
SLDTEXTSTYLE0
 73
     1
 44
1.0
  0
ENDBLK
  5
17C
330
17A
100
AcDbEntity
  8
0
100
AcDbBlockEnd
  0
BLOCK
  5
18A
330
189
100
AcDbEntity
  8
0
100
AcDbBlockBegin
  2
_D_2
 70
     0
 10
0.0
 20
0.0
 30
0.0
  3
_D_2
  1

  0
SOLID
  5
18C
330
189
100
AcDbEntity
  8
LAYOUT
100
AcDbTrace
 10
37.0380050179
 20
14.709016741
 30
0.0
 11
36.2125050179
 21
14.836016741
 31
0.0
 12
36.2125050179
 22
14.582016741
 32
0.0
 13
36.2125050179
 23
14.582016741
 33
0.0
  0
SOLID
  5
18D
330
189
100
AcDbEntity
  8
LAYOUT
100
AcDbTrace
 10
28.6755050179
 20
14.709016741
 30
0.0
 11
29.5010050179
 21
14.582016741
 31
0.0
 12
29.5010050179
 22
14.836016741
 32
0.0
 13
29.5010050179
 23
14.836016741
 33
0.0
  0
LINE
  5
18E
330
189
100
AcDbEntity
  8
LAYOUT
100
AcDbLine
 10
30.8560903964
 20
14.2652884205
 30
0.0
 11
30.8560903964
 21
15.1527450615
 31
0.0
  0
LINE
  5
18F
330
189
100
AcDbEntity
  8
LAYOUT
100
AcDbLine
 10
30.8560903964
 20
15.1527450615
 30
0.0
 11
33.6783126136
 21
15.1527450615
 31
0.0
  0
LINE
  5
190
330
189
100
AcDbEntity
  8
LAYOUT
100
AcDbLine
 10
33.6783126136
 20
15.1527450615
 30
0.0
 11
33.6783126136
 21
14.2652884205
 31
0.0
  0
LINE
  5
191
330
189
100
AcDbEntity
  8
LAYOUT
100
AcDbLine
 10
33.6783126136
 20
14.2652884205
 30
0.0
 11
30.8560903964
 21
14.2652884205
 31
0.0
  0
LINE
  5
192
330
189
100
AcDbEntity
  8
LAYOUT
100
AcDbLine
 10
37.0380050179
 20
22.0355729892
 30
0.0
 11
37.0380050179
 21
14.334016741
 31
0.0
  0
LINE
  5
193
330
189
100
AcDbEntity
  8
LAYOUT
100
AcDbLine
 10
28.6755050179
 20
23.9105729892
 30
0.0
 11
28.6755050179
 21
14.334016741
 31
0.0
  0
LINE
  5
194
330
189
100
AcDbEntity
  8
LAYOUT
100
AcDbLine
 10
37.0380050179
 20
14.709016741
 30
0.0
 11
33.7444583297
 21
14.709016741
 31
0.0
  0
LINE
  5
195
330
189
100
AcDbEntity
  8
LAYOUT
100
AcDbLine
 10
28.6755050179
 20
14.709016741
 30
0.0
 11
30.7899445639
 21
14.709016741
 31
0.0
  0
MTEXT
  5
196
330
189
100
AcDbEntity
  8
LAYOUT
100
AcDbMText
 10
31.054527894
 20
15.0326865739
 30
-2.1861337526
 40
0.5953125
 41
0.0
 46
0.0
 71
     1
 72
     1
  1
8.3625
  7
SLDTEXTSTYLE0
 73
     1
 44
1.0
  0
ENDBLK
  5
18B
330
189
100
AcDbEntity
  8
0
100
AcDbBlockEnd
  0
BLOCK
  5
199
330
198
100
AcDbEntity
  8
0
100
AcDbBlockBegin
  2
_D_3
 70
     0
 10
0.0
 20
0.0
 30
0.0
  3
_D_3
  1

  0
SOLID
  5
19B
330
198
100
AcDbEntity
  8
LAYOUT
100
AcDbTrace
 10
16.9532089899
 20
32.3980729892
 30
0.0
 11
16.8262089899
 21
31.5725729892
 31
0.0
 12
17.0802089899
 22
31.5725729892
 32
0.0
 13
17.0802089899
 23
31.5725729892
 33
0.0
  0
SOLID
  5
19C
330
198
100
AcDbEntity
  8
LAYOUT
100
AcDbTrace
 10
16.9532089899
 20
24.0355729892
 30
0.0
 11
17.0802089899
 21
24.8610729892
 31
0.0
 12
16.8262089899
 22
24.8610729892
 32
0.0
 13
16.8262089899
 23
24.8610729892
 33
0.0
  0
LINE
  5
19D
330
198
100
AcDbEntity
  8
LAYOUT
100
AcDbLine
 10
15.5420979395
 20
28.8926321812
 30
0.0
 11
15.5420979395
 21
29.7800888222
 31
0.0
  0
LINE
  5
19E
330
198
100
AcDbEntity
  8
LAYOUT
100
AcDbLine
 10
15.5420979395
 20
29.7800888222
 30
0.0
 11
18.3643201568
 21
29.7800888222
 31
0.0
  0
LINE
  5
19F
330
198
100
AcDbEntity
  8
LAYOUT
100
AcDbLine
 10
18.3643201568
 20
29.7800888222
 30
0.0
 11
18.3643201568
 21
28.8926321812
 31
0.0
  0
LINE
  5
1A0
330
198
100
AcDbEntity
  8
LAYOUT
100
AcDbLine
 10
18.3643201568
 20
28.8926321812
 30
0.0
 11
15.5420979395
 21
28.8926321812
 31
0.0
  0
LINE
  5
1A1
330
198
100
AcDbEntity
  8
LAYOUT
100
AcDbLine
 10
26.6755050179
 20
32.3980729892
 30
0.0
 11
16.5782089899
 21
32.3980729892
 31
0.0
  0
LINE
  5
1A2
330
198
100
AcDbEntity
  8
LAYOUT
100
AcDbLine
 10
28.5505050179
 20
24.0355729892
 30
0.0
 11
16.5782089899
 21
24.0355729892
 31
0.0
  0
LINE
  5
1A3
330
198
100
AcDbEntity
  8
LAYOUT
100
AcDbLine
 10
16.9532089899
 20
32.3980729892
 30
0.0
 11
16.9532089899
 21
29.7800888222
 31
0.0
  0
LINE
  5
1A4
330
198
100
AcDbEntity
  8
LAYOUT
100
AcDbLine
 10
16.9532089899
 20
24.0355729892
 30
0.0
 11
16.9532089899
 21
28.8926321812
 31
0.0
  0
MTEXT
  5
1A5
330
198
100
AcDbEntity
  8
LAYOUT
100
AcDbMText
 10
15.7405354371
 20
29.6600303346
 30
-2.1861337526
 40
0.5953125
 41
0.0
 46
0.0
 71
     1
 72
     1
  1
8.3625
  7
SLDTEXTSTYLE0
 73
     1
 44
1.0
  0
ENDBLK
  5
19A
330
198
100
AcDbEntity
  8
0
100
AcDbBlockEnd
  0
BLOCK
  5
1A8
330
1A7
100
AcDbEntity
  8
0
100
AcDbBlockBegin
  2
_D_4
 70
     0
 10
0.0
 20
0.0
 30
0.0
  3
_D_4
  1

  0
SOLID
  5
1AA
330
1A7
100
AcDbEntity
  8
LAYOUT
100
AcDbTrace
 10
16.9532089899
 20
32.3980729892
 30
0.0
 11
17.0802089899
 21
33.2235729892
 31
0.0
 12
16.8262089899
 22
33.2235729892
 32
0.0
 13
16.8262089899
 23
33.2235729892
 33
0.0
  0
SOLID
  5
1AB
330
1A7
100
AcDbEntity
  8
LAYOUT
100
AcDbTrace
 10
16.9532089899
 20
40.7605729892
 30
0.0
 11
16.8262089899
 21
39.9350729892
 31
0.0
 12
17.0802089899
 22
39.9350729892
 32
0.0
 13
17.0802089899
 23
39.9350729892
 33
0.0
  0
LINE
  5
1AC
330
1A7
100
AcDbEntity
  8
LAYOUT
100
AcDbLine
 10
15.5420979395
 20
36.0596961529
 30
0.0
 11
15.5420979395
 21
36.947152794
 31
0.0
  0
LINE
  5
1AD
330
1A7
100
AcDbEntity
  8
LAYOUT
100
AcDbLine
 10
15.5420979395
 20
36.947152794
 30
0.0
 11
18.3643201568
 21
36.947152794
 31
0.0
  0
LINE
  5
1AE
330
1A7
100
AcDbEntity
  8
LAYOUT
100
AcDbLine
 10
18.3643201568
 20
36.947152794
 30
0.0
 11
18.3643201568
 21
36.0596961529
 31
0.0
  0
LINE
  5
1AF
330
1A7
100
AcDbEntity
  8
LAYOUT
100
AcDbLine
 10
18.3643201568
 20
36.0596961529
 30
0.0
 11
15.5420979395
 21
36.0596961529
 31
0.0
  0
LINE
  5
1B0
330
1A7
100
AcDbEntity
  8
LAYOUT
100
AcDbLine
 10
26.6755050179
 20
32.3980729892
 30
0.0
 11
16.5782089899
 21
32.3980729892
 31
0.0
  0
LINE
  5
1B1
330
1A7
100
AcDbEntity
  8
LAYOUT
100
AcDbLine
 10
28.0505050179
 20
40.7605729892
 30
0.0
 11
16.5782089899
 21
40.7605729892
 31
0.0
  0
LINE
  5
1B2
330
1A7
100
AcDbEntity
  8
LAYOUT
100
AcDbLine
 10
16.9532089899
 20
32.3980729892
 30
0.0
 11
16.9532089899
 21
36.0596961529
 31
0.0
  0
LINE
  5
1B3
330
1A7
100
AcDbEntity
  8
LAYOUT
100
AcDbLine
 10
16.9532089899
 20
40.7605729892
 30
0.0
 11
16.9532089899
 21
36.947152794
 31
0.0
  0
MTEXT
  5
1B4
330
1A7
100
AcDbEntity
  8
LAYOUT
100
AcDbMText
 10
15.7405354371
 20
36.8270943063
 30
-2.1861337526
 40
0.5953125
 41
0.0
 46
0.0
 71
     1
 72
     1
  1
8.3625
  7
SLDTEXTSTYLE0
 73
     1
 44
1.0
  0
ENDBLK
  5
1A9
330
1A7
100
AcDbEntity
  8
0
100
AcDbBlockEnd
  0
BLOCK
  5
1B8
330
1B7
100
AcDbEntity
  8
0
100
AcDbBlockBegin
  2
_D_5
 70
     0
 10
0.0
 20
0.0
 30
0.0
  3
_D_5
  1

  0
SOLID
  5
1BA
330
1B7
100
AcDbEntity
  8
LAYOUT
100
AcDbTrace
 10
40.4130050179
 20
44.0105729892
 30
0.0
 11
41.2385050179
 21
43.8835729892
 31
0.0
 12
41.2385050179
 22
44.1375729892
 32
0.0
 13
41.2385050179
 23
44.1375729892
 33
0.0
  0
SOLID
  5
1BB
330
1B7
100
AcDbEntity
  8
LAYOUT
100
AcDbTrace
 10
39.6630050179
 20
44.0105729892
 30
0.0
 11
38.8375050179
 21
44.1375729892
 31
0.0
 12
38.8375050179
 22
43.8835729892
 32
0.0
 13
38.8375050179
 23
43.8835729892
 33
0.0
  0
LINE
  5
1BC
330
1B7
100
AcDbEntity
  8
LAYOUT
100
AcDbLine
 10
40.4130050179
 20
37.7730729892
 30
0.0
 11
40.4130050179
 21
44.3855729892
 31
0.0
  0
LINE
  5
1BD
330
1B7
100
AcDbEntity
  8
LAYOUT
100
AcDbLine
 10
39.6630050179
 20
37.7730729892
 30
0.0
 11
39.6630050179
 21
44.3855729892
 31
0.0
  0
LINE
  5
1BE
330
1B7
100
AcDbEntity
  8
LAYOUT
100
AcDbLine
 10
40.4130050179
 20
44.0105729892
 30
0.0
 11
42.1856021684
 21
44.0105729892
 31
0.0
  0
LINE
  5
1BF
330
1B7
100
AcDbEntity
  8
LAYOUT
100
AcDbLine
 10
39.6630050179
 20
44.0105729892
 30
0.0
 11
38.0755050179
 21
44.0105729892
 31
0.0
  0
MTEXT
  5
1C0
330
1B7
100
AcDbEntity
  8
LAYOUT
100
AcDbMText
 10
42.1856021684
 20
44.3342428221
 30
-2.1861337526
 40
0.5953125
 41
0.0
 46
0.0
 71
     1
 72
     1
  1
0.75
  7
SLDTEXTSTYLE0
 73
     1
 44
1.0
  0
MTEXT
  5
1C1
330
1B7
100
AcDbEntity
  8
LAYOUT
100
AcDbMText
 10
44.4814138044
 20
44.3342428221
 30
-2.1861337526
 40
0.5953125
 41
0.0
 46
0.0
 71
     1
 72
     1
  1
typ.
  7
SLDTEXTSTYLE0
 73
     1
 44
1.0
  0
ENDBLK
  5
1B9
330
1B7
100
AcDbEntity
  8
0
100
AcDbBlockEnd
  0
BLOCK
  5
1C4
330
1C3
100
AcDbEntity
  8
0
100
AcDbBlockBegin
  2
_D_6
 70
     0
 10
0.0
 20
0.0
 30
0.0
  3
_D_6
  1

  0
SOLID
  5
1C6
330
1C3
100
AcDbEntity
  8
LAYOUT
100
AcDbTrace
 10
50.3932758709
 20
27.1480729892
 30
0.0
 11
50.2662758709
 21
26.3225729892
 31
0.0
 12
50.5202758709
 22
26.3225729892
 32
0.0
 13
50.5202758709
 23
26.3225729892
 33
0.0
  0
SOLID
  5
1C7
330
1C3
100
AcDbEntity
  8
LAYOUT
100
AcDbTrace
 10
50.3932758709
 20
27.8980729892
 30
0.0
 11
50.5202758709
 21
28.7235729892
 31
0.0
 12
50.2662758709
 22
28.7235729892
 32
0.0
 13
50.2662758709
 23
28.7235729892
 33
0.0
  0
LINE
  5
1C8
330
1C3
100
AcDbEntity
  8
LAYOUT
100
AcDbLine
 10
42.7880050179
 20
27.1480729892
 30
0.0
 11
50.7682758709
 21
27.1480729892
 31
0.0
  0
LINE
  5
1C9
330
1C3
100
AcDbEntity
  8
LAYOUT
100
AcDbLine
 10
42.7880050179
 20
27.8980729892
 30
0.0
 11
50.7682758709
 21
27.8980729892
 31
0.0
  0
LINE
  5
1CA
330
1C3
100
AcDbEntity
  8
LAYOUT
100
AcDbLine
 10
50.3932758709
 20
27.1480729892
 30
0.0
 11
50.3932758709
 21
25.5605729892
 31
0.0
  0
LINE
  5
1CB
330
1C3
100
AcDbEntity
  8
LAYOUT
100
AcDbLine
 10
50.3932758709
 20
27.8980729892
 30
0.0
 11
50.3932758709
 21
29.4855729892
 31
0.0
  0
MTEXT
  5
1CC
330
1C3
100
AcDbEntity
  8
LAYOUT
100
AcDbMText
 10
48.6073382907
 20
27.8208427423
 30
-2.1861337526
 40
0.5953125
 41
0.0
 46
0.0
 71
     1
 72
     1
  1
0.75
  7
SLDTEXTSTYLE0
 73
     1
 44
1.0
  0
MTEXT
  5
1CD
330
1C3
100
AcDbEntity
  8
LAYOUT
100
AcDbMText
 10
50.9031499267
 20
27.8208427423
 30
-2.1861337526
 40
0.5953125
 41
0.0
 46
0.0
 71
     1
 72
     1
  1
typ.
  7
SLDTEXTSTYLE0
 73
     1
 44
1.0
  0
ENDBLK
  5
1C5
330
1C3
100
AcDbEntity
  8
0
100
AcDbBlockEnd
  0
BLOCK
  5
1D1
330
1D0
100
AcDbEntity
  8
0
100
AcDbBlockBegin
  2
_D_7
 70
     0
 10
0.0
 20
0.0
 30
0.0
  3
_D_7
  1

  0
SOLID
  5
1D3
330
1D0
100
AcDbEntity
  8
LAYOUT
100
AcDbTrace
 10
37.0380050179
 20
45.2511175098
 30
0.0
 11
37.8635050179
 21
45.1241175098
 31
0.0
 12
37.8635050179
 22
45.3781175098
 32
0.0
 13
37.8635050179
 23
45.3781175098
 33
0.0
  0
SOLID
  5
1D4
330
1D0
100
AcDbEntity
  8
LAYOUT
100
AcDbTrace
 10
31.4130050179
 20
45.2511175098
 30
0.0
 11
30.5875050179
 21
45.3781175098
 31
0.0
 12
30.5875050179
 22
45.1241175098
 32
0.0
 13
30.5875050179
 23
45.1241175098
 33
0.0
  0
LINE
  5
1D5
330
1D0
100
AcDbEntity
  8
LAYOUT
100
AcDbLine
 10
37.0380050179
 20
42.7605729892
 30
0.0
 11
37.0380050179
 21
45.6261175098
 31
0.0
  0
LINE
  5
1D6
330
1D0
100
AcDbEntity
  8
LAYOUT
100
AcDbLine
 10
31.4130050179
 20
37.0230729892
 30
0.0
 11
31.4130050179
 21
45.6261175098
 31
0.0
  0
LINE
  5
1D7
330
1D0
100
AcDbEntity
  8
LAYOUT
100
AcDbLine
 10
37.0380050179
 20
45.2511175098
 30
0.0
 11
38.6255050179
 21
45.2511175098
 31
0.0
  0
LINE
  5
1D8
330
1D0
100
AcDbEntity
  8
LAYOUT
100
AcDbLine
 10
31.4130050179
 20
45.2511175098
 30
0.0
 11
29.8255050179
 21
45.2511175098
 31
0.0
  0
MTEXT
  5
1D9
330
1D0
100
AcDbEntity
  8
LAYOUT
100
AcDbMText
 10
32.7186914513
 20
45.5747873426
 30
-2.1861337526
 40
0.5953125
 41
0.0
 46
0.0
 71
     1
 72
     1
  1
5.6250
  7
SLDTEXTSTYLE0
 73
     1
 44
1.0
  0
ENDBLK
  5
1D2
330
1D0
100
AcDbEntity
  8
0
100
AcDbBlockEnd
  0
BLOCK
  5
1DD
330
1DC
100
AcDbEntity
  8
0
100
AcDbBlockBegin
  2
_D_8
 70
     0
 10
0.0
 20
0.0
 30
0.0
  3
_D_8
  1

  0
SOLID
  5
1DF
330
1DC
100
AcDbEntity
  8
LAYOUT
100
AcDbTrace
 10
20.6827341649
 20
32.3980729892
 30
0.0
 11
20.5557341649
 21
31.5725729892
 31
0.0
 12
20.8097341649
 22
31.5725729892
 32
0.0
 13
20.8097341649
 23
31.5725729892
 33
0.0
  0
SOLID
  5
1E0
330
1DC
100
AcDbEntity
  8
LAYOUT
100
AcDbTrace
 10
20.6827341649
 20
27.1480729892
 30
0.0
 11
20.8097341649
 21
27.9735729892
 31
0.0
 12
20.5557341649
 22
27.9735729892
 32
0.0
 13
20.5557341649
 23
27.9735729892
 33
0.0
  0
LINE
  5
1E1
330
1DC
100
AcDbEntity
  8
LAYOUT
100
AcDbLine
 10
26.6755050179
 20
32.3980729892
 30
0.0
 11
20.3077341649
 21
32.3980729892
 31
0.0
  0
LINE
  5
1E2
330
1DC
100
AcDbEntity
  8
LAYOUT
100
AcDbLine
 10
30.7880050179
 20
27.1480729892
 30
0.0
 11
20.3077341649
 21
27.1480729892
 31
0.0
  0
LINE
  5
1E3
330
1DC
100
AcDbEntity
  8
LAYOUT
100
AcDbLine
 10
20.6827341649
 20
32.3980729892
 30
0.0
 11
20.6827341649
 21
30.6143949913
 31
0.0
  0
LINE
  5
1E4
330
1DC
100
AcDbEntity
  8
LAYOUT
100
AcDbLine
 10
20.6827341649
 20
27.1480729892
 30
0.0
 11
20.6827341649
 21
29.7269383502
 31
0.0
  0
MTEXT
  5
1E5
330
1DC
100
AcDbEntity
  8
LAYOUT
100
AcDbMText
 10
19.4259632449
 20
30.4943365036
 30
-2.1861337526
 40
0.5953125
 41
0.0
 46
0.0
 71
     1
 72
     1
  1
5.250
  7
SLDTEXTSTYLE0
 73
     1
 44
1.0
  0
ENDBLK
  5
1DE
330
1DC
100
AcDbEntity
  8
0
100
AcDbBlockEnd
  0
BLOCK
  5
1E9
330
1E8
100
AcDbEntity
  8
0
100
AcDbBlockBegin
  2
_D_9
 70
     0
 10
0.0
 20
0.0
 30
0.0
  3
_D_9
  1

  0
SOLID
  5
1EB
330
1E8
100
AcDbEntity
  8
LAYOUT
100
AcDbTrace
 10
45.7721962013
 20
38.01448887
 30
0.0
 11
46.4325688806
 21
37.5031307035
 31
0.0
 12
46.5557344484
 22
37.725270846
 32
0.0
 13
46.5557344484
 23
37.725270846
 33
0.0
  0
LINE
  5
1EC
330
1E8
100
AcDbEntity
  8
LAYOUT
100
AcDbLine
 10
45.7721962013
 20
38.01448887
 30
0.0
 11
51.0416266364
 21
35.0928539781
 31
0.0
  0
LINE
  5
1ED
330
1E8
100
AcDbEntity
  8
LAYOUT
100
AcDbLine
 10
51.0416266364
 20
35.0928539781
 30
0.0
 11
52.6291266364
 21
35.0928539781
 31
0.0
  0
MTEXT
  5
1EE
330
1E8
100
AcDbEntity
  8
LAYOUT
100
AcDbMText
 10
52.6291266364
 20
35.8227695556
 30
-2.1861337526
 40
0.5953125
 41
0.0
 46
0.0
 71
     1
 72
     1
  1
%%c
  7
SLDTEXTSTYLE0
 73
     1
 44
1.0
  0
MTEXT
  5
1EF
330
1E8
100
AcDbEntity
  8
LAYOUT
100
AcDbMText
 10
53.4722104134
 20
35.8227695411
 30
-2.1861337526
 40
0.5953125
 41
0.0
 46
0.0
 71
     1
 72
     1
  1
0.85
  7
SLDTEXTSTYLE0
 73
     1
 44
1.0
  0
MTEXT
  5
1F0
330
1E8
100
AcDbEntity
  8
LAYOUT
100
AcDbMText
 10
55.5447800365
 20
35.8227695411
 30
-2.1861337526
 40
0.5953125
 41
0.0
 46
0.0
 71
     1
 72
     1
  1
±0.05 (X2)
  7
SLDTEXTSTYLE0
 73
     1
 44
1.0
  0
MTEXT
  5
1F1
330
1E8
100
AcDbEntity
  8
LAYOUT
100
AcDbMText
 10
52.6291266364
 20
34.9353129
 30
-2.1861337526
 40
0.5953125
 41
0.0
 46
0.0
 71
     1
 72
     1
  1
Non Plated Alignment Hole
  7
SLDTEXTSTYLE0
 73
     1
 44
1.0
  0
ENDBLK
  5
1EA
330
1E8
100
AcDbEntity
  8
0
100
AcDbBlockEnd
  0
BLOCK
  5
1F5
330
1F4
100
AcDbEntity
  8
0
100
AcDbBlockBegin
  2
_D_10
 70
     0
 10
0.0
 20
0.0
 30
0.0
  3
_D_10
  1

  0
SOLID
  5
1F7
330
1F4
100
AcDbEntity
  8
LAYOUT
100
AcDbTrace
 10
26.6755050179
 20
12.9374794648
 30
0.0
 11
27.5010050179
 21
12.8104794648
 31
0.0
 12
27.5010050179
 22
13.0644794648
 32
0.0
 13
27.5010050179
 23
13.0644794648
 33
0.0
  0
SOLID
  5
1F8
330
1F4
100
AcDbEntity
  8
LAYOUT
100
AcDbTrace
 10
47.4005050179
 20
12.9374794648
 30
0.0
 11
46.5750050179
 21
13.0644794648
 31
0.0
 12
46.5750050179
 22
12.8104794648
 32
0.0
 13
46.5750050179
 23
12.8104794648
 33
0.0
  0
LINE
  5
1F9
330
1F4
100
AcDbEntity
  8
LAYOUT
100
AcDbLine
 10
26.6755050179
 20
23.9105729892
 30
0.0
 11
26.6755050179
 21
12.5624794648
 31
0.0
  0
LINE
  5
1FA
330
1F4
100
AcDbEntity
  8
LAYOUT
100
AcDbLine
 10
47.4005050179
 20
23.9105729892
 30
0.0
 11
47.4005050179
 21
12.5624794648
 31
0.0
  0
LINE
  5
1FB
330
1F4
100
AcDbEntity
  8
LAYOUT
100
AcDbLine
 10
26.6755050179
 20
12.9374794648
 30
0.0
 11
34.7754430567
 21
12.9374794648
 31
0.0
  0
LINE
  5
1FC
330
1F4
100
AcDbEntity
  8
LAYOUT
100
AcDbLine
 10
47.4005050179
 20
12.9374794648
 30
0.0
 11
38.5286679101
 21
12.9374794648
 31
0.0
  0
INSERT
  5
1FD
330
1F4
100
AcDbEntity
  8
LAYOUT
100
AcDbBlockReference
  2
SW_SYMBOL_MOD_BOX
 10
34.7754430567
 20
12.5797939928
 30
0.0
 41
0.0030695926
 42
0.0030695926
 43
0.0030695926
  0
MTEXT
  5
1FE
330
1F4
100
AcDbEntity
  8
LAYOUT
100
AcDbMText
 10
35.5741540278
 20
13.2611492976
 30
-2.1861337526
 40
0.5953125
 41
0.0
 46
0.0
 71
     1
 72
     1
  1
20.725
  7
SLDTEXTSTYLE0
 73
     1
 44
1.0
  0
ENDBLK
  5
1F6
330
1F4
100
AcDbEntity
  8
0
100
AcDbBlockEnd
  0
BLOCK
  5
201
330
200
100
AcDbEntity
  8
0
100
AcDbBlockBegin
  2
_D_11
 70
     0
 10
0.0
 20
0.0
 30
0.0
  3
_D_11
  1

  0
SOLID
  5
203
330
200
100
AcDbEntity
  8
LAYOUT
100
AcDbTrace
 10
30.6755050179
 20
21.1469247999
 30
0.0
 11
31.5010050179
 21
21.0199247999
 31
0.0
 12
31.5010050179
 22
21.2739247999
 32
0.0
 13
31.5010050179
 23
21.2739247999
 33
0.0
  0
SOLID
  5
204
330
200
100
AcDbEntity
  8
LAYOUT
100
AcDbTrace
 10
43.4005050179
 20
21.1469247999
 30
0.0
 11
42.5750050179
 21
21.2739247999
 31
0.0
 12
42.5750050179
 22
21.0199247999
 32
0.0
 13
42.5750050179
 23
21.0199247999
 33
0.0
  0
LINE
  5
205
330
200
100
AcDbEntity
  8
LAYOUT
100
AcDbLine
 10
30.6755050179
 20
23.9105729892
 30
0.0
 11
30.6755050179
 21
20.7719247999
 31
0.0
  0
LINE
  5
206
330
200
100
AcDbEntity
  8
LAYOUT
100
AcDbLine
 10
43.4005050179
 20
23.9105729892
 30
0.0
 11
43.4005050179
 21
20.7719247999
 31
0.0
  0
LINE
  5
207
330
200
100
AcDbEntity
  8
LAYOUT
100
AcDbLine
 10
30.6755050179
 20
21.1469247999
 30
0.0
 11
33.0539583953
 21
21.1469247999
 31
0.0
  0
LINE
  5
208
330
200
100
AcDbEntity
  8
LAYOUT
100
AcDbLine
 10
43.4005050179
 20
21.1469247999
 30
0.0
 11
36.8071832487
 21
21.1469247999
 31
0.0
  0
INSERT
  5
209
330
200
100
AcDbEntity
  8
LAYOUT
100
AcDbBlockReference
  2
SW_SYMBOL_MOD_BOX
 10
33.0539583953
 20
20.7892393279
 30
0.0
 41
0.0030695926
 42
0.0030695926
 43
0.0030695926
  0
MTEXT
  5
20A
330
200
100
AcDbEntity
  8
LAYOUT
100
AcDbMText
 10
33.8526693664
 20
21.4705946328
 30
-2.1861337526
 40
0.5953125
 41
0.0
 46
0.0
 71
     1
 72
     1
  1
12.725
  7
SLDTEXTSTYLE0
 73
     1
 44
1.0
  0
ENDBLK
  5
202
330
200
100
AcDbEntity
  8
0
100
AcDbBlockEnd
  0
BLOCK
  5
20E
330
20D
100
AcDbEntity
  8
0
100
AcDbBlockBegin
  2
_D_12
 70
     0
 10
0.0
 20
0.0
 30
0.0
  3
_D_12
  1

  0
SOLID
  5
210
330
20D
100
AcDbEntity
  8
LAYOUT
100
AcDbTrace
 10
42.8657395402
 20
31.593312479
 30
0.0
 11
43.6295622227
 21
31.2554454049
 31
0.0
 12
43.6957963637
 22
31.5006576365
 32
0.0
 13
43.6957963637
 23
31.5006576365
 33
0.0
  0
LINE
  5
211
330
20D
100
AcDbEntity
  8
LAYOUT
100
AcDbLine
 10
42.8657395402
 20
31.593312479
 30
0.0
 11
48.1326630365
 21
30.1706666708
 31
0.0
  0
LINE
  5
212
330
20D
100
AcDbEntity
  8
LAYOUT
100
AcDbLine
 10
48.1326630365
 20
30.1706666708
 30
0.0
 11
49.7201630365
 21
30.1706666708
 31
0.0
  0
MTEXT
  5
213
330
20D
100
AcDbEntity
  8
LAYOUT
100
AcDbMText
 10
49.7201630365
 20
30.4568538986
 30
0.1
 40
0.5953125
 41
0.0
 46
0.0
 71
     1
 72
     1
  1
%%c
  7
SLDTEXTSTYLE0
 73
     1
 44
1.0
  0
MTEXT
  5
214
330
20D
100
AcDbEntity
  8
LAYOUT
100
AcDbMText
 10
50.5632468135
 20
30.4568538841
 30
0.1
 40
0.5953125
 41
0.0
 46
0.0
 71
     1
 72
     1
  1
0.42
  7
SLDTEXTSTYLE0
 73
     1
 44
1.0
  0
MTEXT
  5
215
330
20D
100
AcDbEntity
  8
LAYOUT
100
AcDbMText
 10
52.8590586242
 20
30.4568538841
 30
0.1
 40
0.5953125
 41
0.0
 46
0.0
 71
     1
 72
     1
  1
PADS (X144)
  7
SLDTEXTSTYLE0
 73
     1
 44
1.0
  0
ENDBLK
  5
20F
330
20D
100
AcDbEntity
  8
0
100
AcDbBlockEnd
  0
BLOCK
  5
219
330
218
100
AcDbEntity
  8
0
100
AcDbBlockBegin
  2
_D_13
 70
     0
 10
0.0
 20
0.0
 30
0.0
  3
_D_13
  1

  0
SOLID
  5
21B
330
218
100
AcDbEntity
  8
LAYOUT
100
AcDbTrace
 10
20.6827341649
 20
37.6480729892
 30
0.0
 11
20.5557341649
 21
36.8225729892
 31
0.0
 12
20.8097341649
 22
36.8225729892
 32
0.0
 13
20.8097341649
 23
36.8225729892
 33
0.0
  0
SOLID
  5
21C
330
218
100
AcDbEntity
  8
LAYOUT
100
AcDbTrace
 10
20.6827341649
 20
32.3980729892
 30
0.0
 11
20.8097341649
 21
33.2235729892
 31
0.0
 12
20.5557341649
 22
33.2235729892
 32
0.0
 13
20.5557341649
 23
33.2235729892
 33
0.0
  0
LINE
  5
21D
330
218
100
AcDbEntity
  8
LAYOUT
100
AcDbLine
 10
32.0380050179
 20
37.6480729892
 30
0.0
 11
20.3077341649
 21
37.6480729892
 31
0.0
  0
LINE
  5
21E
330
218
100
AcDbEntity
  8
LAYOUT
100
AcDbLine
 10
26.6755050179
 20
32.3980729892
 30
0.0
 11
20.3077341649
 21
32.3980729892
 31
0.0
  0
LINE
  5
21F
330
218
100
AcDbEntity
  8
LAYOUT
100
AcDbLine
 10
20.6827341649
 20
37.6480729892
 30
0.0
 11
20.6827341649
 21
35.4401771236
 31
0.0
  0
LINE
  5
220
330
218
100
AcDbEntity
  8
LAYOUT
100
AcDbLine
 10
20.6827341649
 20
32.3980729892
 30
0.0
 11
20.6827341649
 21
34.5527204825
 31
0.0
  0
MTEXT
  5
221
330
218
100
AcDbEntity
  8
LAYOUT
100
AcDbMText
 10
19.205477282
 20
35.3201186359
 30
-2.1861337526
 40
0.5953125
 41
0.0
 46
0.0
 71
     1
 72
     1
  1
5.2500
  7
SLDTEXTSTYLE0
 73
     1
 44
1.0
  0
ENDBLK
  5
21A
330
218
100
AcDbEntity
  8
0
100
AcDbBlockEnd
  0
BLOCK
  5
224
330
223
100
AcDbEntity
  8
0
100
AcDbBlockBegin
  2
_D_14
 70
     0
 10
0.0
 20
0.0
 30
0.0
  3
_D_14
  1

  0
SOLID
  5
226
330
223
100
AcDbEntity
  8
LAYOUT
100
AcDbTrace
 10
50.3932758709
 20
38.2205729892
 30
0.0
 11
50.2662758709
 21
37.3950729892
 31
0.0
 12
50.5202758709
 22
37.3950729892
 32
0.0
 13
50.5202758709
 23
37.3950729892
 33
0.0
  0
SOLID
  5
227
330
223
100
AcDbEntity
  8
LAYOUT
100
AcDbTrace
 10
50.3932758709
 20
40.7605729892
 30
0.0
 11
50.5202758709
 21
41.5860729892
 31
0.0
 12
50.2662758709
 22
41.5860729892
 32
0.0
 13
50.2662758709
 23
41.5860729892
 33
0.0
  0
LINE
  5
228
330
223
100
AcDbEntity
  8
LAYOUT
100
AcDbLine
 10
46.0255050179
 20
38.2205729892
 30
0.0
 11
50.7682758709
 21
38.2205729892
 31
0.0
  0
LINE
  5
229
330
223
100
AcDbEntity
  8
LAYOUT
100
AcDbLine
 10
46.0255050179
 20
40.7605729892
 30
0.0
 11
50.7682758709
 21
40.7605729892
 31
0.0
  0
LINE
  5
22A
330
223
100
AcDbEntity
  8
LAYOUT
100
AcDbLine
 10
50.3932758709
 20
38.2205729892
 30
0.0
 11
50.3932758709
 21
36.6330729892
 31
0.0
  0
LINE
  5
22B
330
223
100
AcDbEntity
  8
LAYOUT
100
AcDbLine
 10
50.3932758709
 20
40.7605729892
 30
0.0
 11
50.3932758709
 21
42.3480729892
 31
0.0
  0
MTEXT
  5
22C
330
223
100
AcDbEntity
  8
LAYOUT
100
AcDbMText
 10
49.3569911467
 20
39.8477626449
 30
-2.1861337526
 40
0.5953125
 41
0.0
 46
0.0
 71
     1
 72
     1
  1
2.54
  7
SLDTEXTSTYLE0
 73
     1
 44
1.0
  0
ENDBLK
  5
225
330
223
100
AcDbEntity
  8
0
100
AcDbBlockEnd
  0
BLOCK
  5
230
330
22F
100
AcDbEntity
  8
0
100
AcDbBlockBegin
  2
_D_15
 70
     0
 10
0.0
 20
0.0
 30
0.0
  3
_D_15
  1

  0
SOLID
  5
232
330
22F
100
AcDbEntity
  8
LAYOUT
100
AcDbTrace
 10
46.2261478541
 20
23.8335484681
 30
0.0
 11
46.9978079094
 21
23.5139862536
 31
0.0
 12
47.0581775899
 22
23.7607077599
 32
0.0
 13
47.0581775899
 23
23.7607077599
 33
0.0
  0
LINE
  5
233
330
22F
100
AcDbEntity
  8
LAYOUT
100
AcDbLine
 10
46.2261478541
 20
23.8335484681
 30
0.0
 11
51.0636752327
 21
22.6498657554
 31
0.0
  0
LINE
  5
234
330
22F
100
AcDbEntity
  8
LAYOUT
100
AcDbLine
 10
51.0636752327
 20
22.6498657554
 30
0.0
 11
52.6511752327
 21
22.6498657554
 31
0.0
  0
MTEXT
  5
235
330
22F
100
AcDbEntity
  8
LAYOUT
100
AcDbMText
 10
52.6511752327
 20
23.3797813329
 30
0.1
 40
0.5953125
 41
0.0
 46
0.0
 71
     1
 72
     1
  1
%%c
  7
SLDTEXTSTYLE0
 73
     1
 44
1.0
  0
MTEXT
  5
236
330
22F
100
AcDbEntity
  8
LAYOUT
100
AcDbMText
 10
53.4942590097
 20
23.3797813184
 30
0.1
 40
0.5953125
 41
0.0
 46
0.0
 71
     1
 72
     1
  1
1.70
  7
SLDTEXTSTYLE0
 73
     1
 44
1.0
  0
MTEXT
  5
237
330
22F
100
AcDbEntity
  8
LAYOUT
100
AcDbMText
 10
55.5668286328
 20
23.3797813184
 30
0.1
 40
0.5953125
 41
0.0
 46
0.0
 71
     1
 72
     1
  1
±0.10 (X4)
  7
SLDTEXTSTYLE0
 73
     1
 44
1.0
  0
MTEXT
  5
238
330
22F
100
AcDbEntity
  8
LAYOUT
100
AcDbMText
 10
52.6511752327
 20
22.4923246773
 30
0.1
 40
0.5953125
 41
0.0
 46
0.0
 71
     1
 72
     1
  1
Non Plated Mounting Hole
  7
SLDTEXTSTYLE0
 73
     1
 44
1.0
  0
ENDBLK
  5
231
330
22F
100
AcDbEntity
  8
0
100
AcDbBlockEnd
  0
BLOCK
  5
23D
330
23C
100
AcDbEntity
  8
0
100
AcDbBlockBegin
  2
SW_CENTERMARKSYMBOL_0
 70
     0
 10
0.0
 20
0.0
 30
0.0
  3
SW_CENTERMARKSYMBOL_0
  1

  0
LINE
  5
23F
330
23C
100
AcDbEntity
  8
LAYOUT
 62
     0
100
AcDbLine
 10
0.0
 20
0.0
 30
0.0
 11
0.0
 21
0.5
 31
0.0
  0
LINE
  5
240
330
23C
100
AcDbEntity
  8
LAYOUT
 62
     0
100
AcDbLine
 10
0.0
 20
0.0
 30
0.0
 11
-0.5
 21
0.0
 31
0.0
  0
LINE
  5
241
330
23C
100
AcDbEntity
  8
LAYOUT
 62
     0
100
AcDbLine
 10
0.0
 20
0.0
 30
0.0
 11
0.0
 21
-0.5
 31
0.0
  0
LINE
  5
242
330
23C
100
AcDbEntity
  8
LAYOUT
 62
     0
100
AcDbLine
 10
0.0
 20
0.0
 30
0.0
 11
0.5
 21
0.0
 31
0.0
  0
ENDBLK
  5
23E
330
23C
100
AcDbEntity
  8
0
100
AcDbBlockEnd
  0
BLOCK
  5
245
330
244
100
AcDbEntity
  8
0
100
AcDbBlockBegin
  2
SW_CENTERMARKSYMBOL_1
 70
     0
 10
0.0
 20
0.0
 30
0.0
  3
SW_CENTERMARKSYMBOL_1
  1

  0
LINE
  5
247
330
244
100
AcDbEntity
  8
LAYOUT
 62
     0
100
AcDbLine
 10
0.0
 20
0.0
 30
0.0
 11
0.0
 21
0.5
 31
0.0
  0
LINE
  5
248
330
244
100
AcDbEntity
  8
LAYOUT
 62
     0
100
AcDbLine
 10
0.0
 20
0.0
 30
0.0
 11
-0.5
 21
0.0
 31
0.0
  0
LINE
  5
249
330
244
100
AcDbEntity
  8
LAYOUT
 62
     0
100
AcDbLine
 10
0.0
 20
0.0
 30
0.0
 11
0.0
 21
-0.5
 31
0.0
  0
LINE
  5
24A
330
244
100
AcDbEntity
  8
LAYOUT
 62
     0
100
AcDbLine
 10
0.0
 20
0.0
 30
0.0
 11
0.5
 21
0.0
 31
0.0
  0
ENDBLK
  5
246
330
244
100
AcDbEntity
  8
0
100
AcDbBlockEnd
  0
BLOCK
  5
24D
330
24C
100
AcDbEntity
  8
0
100
AcDbBlockBegin
  2
SW_CENTERMARKSYMBOL_2
 70
     0
 10
0.0
 20
0.0
 30
0.0
  3
SW_CENTERMARKSYMBOL_2
  1

  0
LINE
  5
24F
330
24C
100
AcDbEntity
  8
LAYOUT
 62
     0
100
AcDbLine
 10
0.0
 20
0.0
 30
0.0
 11
0.0
 21
0.5
 31
0.0
  0
LINE
  5
250
330
24C
100
AcDbEntity
  8
LAYOUT
 62
     0
100
AcDbLine
 10
0.0
 20
0.0
 30
0.0
 11
-0.5
 21
0.0
 31
0.0
  0
LINE
  5
251
330
24C
100
AcDbEntity
  8
LAYOUT
 62
     0
100
AcDbLine
 10
0.0
 20
0.0
 30
0.0
 11
0.0
 21
-0.5
 31
0.0
  0
LINE
  5
252
330
24C
100
AcDbEntity
  8
LAYOUT
 62
     0
100
AcDbLine
 10
0.0
 20
0.0
 30
0.0
 11
0.5
 21
0.0
 31
0.0
  0
ENDBLK
  5
24E
330
24C
100
AcDbEntity
  8
0
100
AcDbBlockEnd
  0
BLOCK
  5
255
330
254
100
AcDbEntity
  8
0
100
AcDbBlockBegin
  2
SW_CENTERMARKSYMBOL_3
 70
     0
 10
0.0
 20
0.0
 30
0.0
  3
SW_CENTERMARKSYMBOL_3
  1

  0
LINE
  5
257
330
254
100
AcDbEntity
  8
LAYOUT
 62
     0
100
AcDbLine
 10
0.0
 20
0.0
 30
0.0
 11
0.0
 21
0.5
 31
0.0
  0
LINE
  5
258
330
254
100
AcDbEntity
  8
LAYOUT
 62
     0
100
AcDbLine
 10
0.0
 20
0.0
 30
0.0
 11
-0.5
 21
0.0
 31
0.0
  0
LINE
  5
259
330
254
100
AcDbEntity
  8
LAYOUT
 62
     0
100
AcDbLine
 10
0.0
 20
0.0
 30
0.0
 11
0.0
 21
-0.5
 31
0.0
  0
LINE
  5
25A
330
254
100
AcDbEntity
  8
LAYOUT
 62
     0
100
AcDbLine
 10
0.0
 20
0.0
 30
0.0
 11
0.5
 21
0.0
 31
0.0
  0
ENDBLK
  5
256
330
254
100
AcDbEntity
  8
0
100
AcDbBlockEnd
  0
BLOCK
  5
25D
330
25C
100
AcDbEntity
  8
0
100
AcDbBlockBegin
  2
SW_CENTERMARKSYMBOL_4
 70
     0
 10
0.0
 20
0.0
 30
0.0
  3
SW_CENTERMARKSYMBOL_4
  1

  0
LINE
  5
25F
330
25C
100
AcDbEntity
  8
LAYOUT
 62
     0
100
AcDbLine
 10
0.0
 20
0.0
 30
0.0
 11
0.0
 21
0.5
 31
0.0
  0
LINE
  5
260
330
25C
100
AcDbEntity
  8
LAYOUT
 62
     0
100
AcDbLine
 10
0.0
 20
0.0
 30
0.0
 11
-0.5
 21
0.0
 31
0.0
  0
LINE
  5
261
330
25C
100
AcDbEntity
  8
LAYOUT
 62
     0
100
AcDbLine
 10
0.0
 20
0.0
 30
0.0
 11
0.0
 21
-0.5
 31
0.0
  0
LINE
  5
262
330
25C
100
AcDbEntity
  8
LAYOUT
 62
     0
100
AcDbLine
 10
0.0
 20
0.0
 30
0.0
 11
0.5
 21
0.0
 31
0.0
  0
ENDBLK
  5
25E
330
25C
100
AcDbEntity
  8
0
100
AcDbBlockEnd
  0
BLOCK
  5
265
330
264
100
AcDbEntity
  8
0
100
AcDbBlockBegin
  2
SW_CENTERMARKSYMBOL_5
 70
     0
 10
0.0
 20
0.0
 30
0.0
  3
SW_CENTERMARKSYMBOL_5
  1

  0
LINE
  5
267
330
264
100
AcDbEntity
  8
LAYOUT
 62
     0
100
AcDbLine
 10
0.0
 20
0.0
 30
0.0
 11
0.0
 21
0.5
 31
0.0
  0
LINE
  5
268
330
264
100
AcDbEntity
  8
LAYOUT
 62
     0
100
AcDbLine
 10
0.0
 20
0.0
 30
0.0
 11
-0.5
 21
0.0
 31
0.0
  0
LINE
  5
269
330
264
100
AcDbEntity
  8
LAYOUT
 62
     0
100
AcDbLine
 10
0.0
 20
0.0
 30
0.0
 11
0.0
 21
-0.5
 31
0.0
  0
LINE
  5
26A
330
264
100
AcDbEntity
  8
LAYOUT
 62
     0
100
AcDbLine
 10
0.0
 20
0.0
 30
0.0
 11
0.5
 21
0.0
 31
0.0
  0
ENDBLK
  5
266
330
264
100
AcDbEntity
  8
0
100
AcDbBlockEnd
  0
BLOCK
  5
26D
330
26C
100
AcDbEntity
  8
0
100
AcDbBlockBegin
  2
SW_CENTERMARKSYMBOL_6
 70
     0
 10
0.0
 20
0.0
 30
0.0
  3
SW_CENTERMARKSYMBOL_6
  1

  0
LINE
  5
26F
330
26C
100
AcDbEntity
  8
LAYOUT
 62
     0
100
AcDbLine
 10
0.0
 20
0.0
 30
0.0
 11
0.0
 21
0.5
 31
0.0
  0
LINE
  5
270
330
26C
100
AcDbEntity
  8
LAYOUT
 62
     0
100
AcDbLine
 10
0.0
 20
0.0
 30
0.0
 11
-0.5
 21
0.0
 31
0.0
  0
LINE
  5
271
330
26C
100
AcDbEntity
  8
LAYOUT
 62
     0
100
AcDbLine
 10
0.0
 20
0.0
 30
0.0
 11
0.0
 21
-0.5
 31
0.0
  0
LINE
  5
272
330
26C
100
AcDbEntity
  8
LAYOUT
 62
     0
100
AcDbLine
 10
0.0
 20
0.0
 30
0.0
 11
0.5
 21
0.0
 31
0.0
  0
ENDBLK
  5
26E
330
26C
100
AcDbEntity
  8
0
100
AcDbBlockEnd
  0
ENDSEC
  0
SECTION
  2
ENTITIES
  0
INSERT
  5
61
330
1F
100
AcDbEntity
  8
LAYOUT
100
AcDbBlockReference
  2
SW_NOTE_0
 10
2.704344863
 20
12.6648851208
 30
0.0
  0
MTEXT
  5
62
330
1F
100
AcDbEntity
  8
LAYOUT
100
AcDbMText
 10
4.4627283852
 20
50.4038254735
 30
0.0
 40
0.79375
 41
0.0
 46
0.0
 71
     1
 72
     1
  1
Recommended PCB Layout
  7
SLDTEXTSTYLE0
 73
     1
 44
1.0
  0
INSERT
  5
72
330
1F
100
AcDbEntity
  8
0
  6
Continuous
 62
     7
370
     0
100
AcDbBlockReference
  2
SW_NOTE_2
 10
1.911446593
 20
6.1019909305
 30
0.0
  0
INSERT
  5
78
330
1F
100
AcDbEntity
  8
0
  6
Continuous
 62
     7
370
     0
100
AcDbBlockReference
  2
SW_NOTE_3
 10
1.911446593
 20
7.9494554237
 30
0.0
  0
MTEXT
  5
79
330
1F
100
AcDbEntity
  8
0
  6
Continuous
 62
     7
370
     0
100
AcDbMText
 10
1.911446593
 20
7.5385729181
 30
0.0
 40
0.396875
 41
0.0
 46
0.0
 71
     1
 72
     1
  1
Primary dimension units are millimeters, Secondary dimension units are [inches].
  7
SLDTEXTSTYLE0
 73
     1
 44
1.0
  0
LINE
  5
83
330
1F
100
AcDbEntity
  8
0
  6
Continuous
 62
     7
370
    15
100
AcDbLine
 10
45.3065960345
 20
37.838236881
 30
0.0
 11
45.7828408715
 21
38.3144817181
 31
0.0
  0
CIRCLE
  5
84
330
1F
100
AcDbEntity
  8
0
  6
Continuous
 62
     7
370
    15
100
AcDbCircle
 10
38.1630050179
 20
33.1480729892
 30
0.0
 40
0.2100000000000009
  0
CIRCLE
  5
85
330
1F
100
AcDbEntity
  8
0
  6
Continuous
 62
     7
370
    15
100
AcDbCircle
 10
38.9130050179
 20
32.3980729892
 30
0.0
 40
0.2100000000000009
  0
CIRCLE
  5
86
330
1F
100
AcDbEntity
  8
0
  6
Continuous
 62
     7
370
    15
100
AcDbCircle
 10
38.9130050179
 20
33.1480729892
 30
0.0
 40
0.2100000000000009
  0
CIRCLE
  5
87
330
1F
100
AcDbEntity
  8
0
  6
Continuous
 62
     7
370
    15
100
AcDbCircle
 10
38.1630050179
 20
36.8980729892
 30
0.0
 40
0.210000000000008
  0
CIRCLE
  5
88
330
1F
100
AcDbEntity
  8
0
  6
Continuous
 62
     7
370
    15
100
AcDbCircle
 10
38.1630050179
 20
37.6480729892
 30
0.0
 40
0.2100000000000009
  0
CIRCLE
  5
89
330
1F
100
AcDbEntity
  8
0
  6
Continuous
 62
     7
370
    15
100
AcDbCircle
 10
38.9130050179
 20
27.1480729892
 30
0.0
 40
0.2100000000000009
  0
CIRCLE
  5
8A
330
1F
100
AcDbEntity
  8
0
  6
Continuous
 62
     7
370
    15
100
AcDbCircle
 10
38.9130050179
 20
27.8980729892
 30
0.0
 40
0.2099999999999973
  0
CIRCLE
  5
8B
330
1F
100
AcDbEntity
  8
0
  6
Continuous
 62
     7
370
    15
100
AcDbCircle
 10
38.9130050179
 20
31.6480729892
 30
0.0
 40
0.2100000000000009
  0
CIRCLE
  5
8C
330
1F
100
AcDbEntity
  8
0
  6
Continuous
 62
     7
370
    15
100
AcDbCircle
 10
38.1630050179
 20
32.3980729892
 30
0.0
 40
0.2100000000000009
  0
CIRCLE
  5
8D
330
1F
100
AcDbEntity
  8
0
  6
Continuous
 62
     7
370
    15
100
AcDbCircle
 10
32.1630050179
 20
36.8980729892
 30
0.0
 40
0.210000000000008
  0
CIRCLE
  5
8E
330
1F
100
AcDbEntity
  8
0
  6
Continuous
 62
     7
370
    15
100
AcDbCircle
 10
32.1630050179
 20
37.6480729892
 30
0.0
 40
0.2100000000000009
  0
CIRCLE
  5
8F
330
1F
100
AcDbEntity
  8
0
  6
Continuous
 62
     7
370
    15
100
AcDbCircle
 10
32.9130050179
 20
27.1480729892
 30
0.0
 40
0.2100000000000009
  0
CIRCLE
  5
90
330
1F
100
AcDbEntity
  8
0
  6
Continuous
 62
     7
370
    15
100
AcDbCircle
 10
32.9130050179
 20
27.8980729892
 30
0.0
 40
0.2099999999999973
  0
CIRCLE
  5
91
330
1F
100
AcDbEntity
  8
0
  6
Continuous
 62
     7
370
    15
100
AcDbCircle
 10
32.9130050179
 20
28.6480729892
 30
0.0
 40
0.2100000000000009
  0
CIRCLE
  5
92
330
1F
100
AcDbEntity
  8
0
  6
Continuous
 62
     7
370
    15
100
AcDbCircle
 10
32.9130050179
 20
29.3980729892
 30
0.0
 40
0.2100000000000009
  0
CIRCLE
  5
93
330
1F
100
AcDbEntity
  8
0
  6
Continuous
 62
     7
370
    15
100
AcDbCircle
 10
32.9130050179
 20
30.1480729892
 30
0.0
 40
0.2099999999999973
  0
CIRCLE
  5
94
330
1F
100
AcDbEntity
  8
0
  6
Continuous
 62
     7
370
    15
100
AcDbCircle
 10
32.9130050179
 20
30.8980729892
 30
0.0
 40
0.2100000000000009
  0
CIRCLE
  5
95
330
1F
100
AcDbEntity
  8
0
  6
Continuous
 62
     7
370
    15
100
AcDbCircle
 10
38.9130050179
 20
36.8980729892
 30
0.0
 40
0.210000000000008
  0
CIRCLE
  5
96
330
1F
100
AcDbEntity
  8
0
  6
Continuous
 62
     7
370
    15
100
AcDbCircle
 10
38.9130050179
 20
37.6480729892
 30
0.0
 40
0.2100000000000009
  0
CIRCLE
  5
97
330
1F
100
AcDbEntity
  8
0
  6
Continuous
 62
     7
370
    15
100
AcDbCircle
 10
39.6630050179
 20
27.1480729892
 30
0.0
 40
0.2100000000000009
  0
CIRCLE
  5
98
330
1F
100
AcDbEntity
  8
0
  6
Continuous
 62
     7
370
    15
100
AcDbCircle
 10
39.6630050179
 20
27.8980729892
 30
0.0
 40
0.2099999999999973
  0
CIRCLE
  5
99
330
1F
100
AcDbEntity
  8
0
  6
Continuous
 62
     7
370
    15
100
AcDbCircle
 10
39.6630050179
 20
31.6480729892
 30
0.0
 40
0.2100000000000009
  0
CIRCLE
  5
9A
330
1F
100
AcDbEntity
  8
0
  6
Continuous
 62
     7
370
    15
100
AcDbCircle
 10
39.6630050179
 20
32.3980729892
 30
0.0
 40
0.2100000000000009
  0
CIRCLE
  5
9B
330
1F
100
AcDbEntity
  8
0
  6
Continuous
 62
     7
370
    15
100
AcDbCircle
 10
39.6630050179
 20
36.8980729892
 30
0.0
 40
0.210000000000008
  0
CIRCLE
  5
9C
330
1F
100
AcDbEntity
  8
0
  6
Continuous
 62
     7
370
    15
100
AcDbCircle
 10
39.6630050179
 20
37.6480729892
 30
0.0
 40
0.2100000000000009
  0
CIRCLE
  5
9D
330
1F
100
AcDbEntity
  8
0
  6
Continuous
 62
     7
370
    15
100
AcDbCircle
 10
40.4130050179
 20
27.1480729892
 30
0.0
 40
0.2100000000000009
  0
CIRCLE
  5
9E
330
1F
100
AcDbEntity
  8
0
  6
Continuous
 62
     7
370
    15
100
AcDbCircle
 10
40.4130050179
 20
27.8980729892
 30
0.0
 40
0.2099999999999973
  0
CIRCLE
  5
9F
330
1F
100
AcDbEntity
  8
0
  6
Continuous
 62
     7
370
    15
100
AcDbCircle
 10
40.4130050179
 20
32.3980729892
 30
0.0
 40
0.2100000000000009
  0
CIRCLE
  5
A0
330
1F
100
AcDbEntity
  8
0
  6
Continuous
 62
     7
370
    15
100
AcDbCircle
 10
40.4130050179
 20
33.1480729892
 30
0.0
 40
0.2100000000000009
  0
CIRCLE
  5
A1
330
1F
100
AcDbEntity
  8
0
  6
Continuous
 62
     7
370
    15
100
AcDbCircle
 10
40.4130050179
 20
36.8980729892
 30
0.0
 40
0.210000000000008
  0
CIRCLE
  5
A2
330
1F
100
AcDbEntity
  8
0
  6
Continuous
 62
     7
370
    15
100
AcDbCircle
 10
40.4130050179
 20
37.6480729892
 30
0.0
 40
0.2100000000000009
  0
CIRCLE
  5
A3
330
1F
100
AcDbEntity
  8
0
  6
Continuous
 62
     7
370
    15
100
AcDbCircle
 10
41.1630050179
 20
27.1480729892
 30
0.0
 40
0.2100000000000009
  0
CIRCLE
  5
A4
330
1F
100
AcDbEntity
  8
0
  6
Continuous
 62
     7
370
    15
100
AcDbCircle
 10
41.1630050179
 20
27.8980729892
 30
0.0
 40
0.2099999999999973
  0
CIRCLE
  5
A5
330
1F
100
AcDbEntity
  8
0
  6
Continuous
 62
     7
370
    15
100
AcDbCircle
 10
41.1630050179
 20
28.6480729892
 30
0.0
 40
0.2100000000000009
  0
CIRCLE
  5
A6
330
1F
100
AcDbEntity
  8
0
  6
Continuous
 62
     7
370
    15
100
AcDbCircle
 10
41.1630050179
 20
29.3980729892
 30
0.0
 40
0.2100000000000009
  0
CIRCLE
  5
A7
330
1F
100
AcDbEntity
  8
0
  6
Continuous
 62
     7
370
    15
100
AcDbCircle
 10
41.1630050179
 20
30.1480729892
 30
0.0
 40
0.2099999999999973
  0
CIRCLE
  5
A8
330
1F
100
AcDbEntity
  8
0
  6
Continuous
 62
     7
370
    15
100
AcDbCircle
 10
41.1630050179
 20
30.8980729892
 30
0.0
 40
0.2100000000000009
  0
CIRCLE
  5
A9
330
1F
100
AcDbEntity
  8
0
  6
Continuous
 62
     7
370
    15
100
AcDbCircle
 10
41.1630050179
 20
31.6480729892
 30
0.0
 40
0.2100000000000009
  0
CIRCLE
  5
AA
330
1F
100
AcDbEntity
  8
0
  6
Continuous
 62
     7
370
    15
100
AcDbCircle
 10
41.1630050179
 20
32.3980729892
 30
0.0
 40
0.2100000000000009
  0
CIRCLE
  5
AB
330
1F
100
AcDbEntity
  8
0
  6
Continuous
 62
     7
370
    15
100
AcDbCircle
 10
41.1630050179
 20
33.1480729892
 30
0.0
 40
0.2100000000000009
  0
CIRCLE
  5
AC
330
1F
100
AcDbEntity
  8
0
  6
Continuous
 62
     7
370
    15
100
AcDbCircle
 10
41.1630050179
 20
33.8980729892
 30
0.0
 40
0.2100000000000009
  0
CIRCLE
  5
AD
330
1F
100
AcDbEntity
  8
0
  6
Continuous
 62
     7
370
    15
100
AcDbCircle
 10
41.1630050179
 20
34.6480729892
 30
0.0
 40
0.2100000000000009
  0
CIRCLE
  5
AE
330
1F
100
AcDbEntity
  8
0
  6
Continuous
 62
     7
370
    15
100
AcDbCircle
 10
31.4130050179
 20
27.1480729892
 30
0.0
 40
0.2100000000000009
  0
CIRCLE
  5
AF
330
1F
100
AcDbEntity
  8
0
  6
Continuous
 62
     7
370
    15
100
AcDbCircle
 10
31.4130050179
 20
27.8980729892
 30
0.0
 40
0.2099999999999973
  0
CIRCLE
  5
B0
330
1F
100
AcDbEntity
  8
0
  6
Continuous
 62
     7
370
    15
100
AcDbCircle
 10
31.4130050179
 20
28.6480729892
 30
0.0
 40
0.2100000000000009
  0
CIRCLE
  5
B1
330
1F
100
AcDbEntity
  8
0
  6
Continuous
 62
     7
370
    15
100
AcDbCircle
 10
31.4130050179
 20
29.3980729892
 30
0.0
 40
0.2100000000000009
  0
CIRCLE
  5
B2
330
1F
100
AcDbEntity
  8
0
  6
Continuous
 62
     7
370
    15
100
AcDbCircle
 10
31.4130050179
 20
30.1480729892
 30
0.0
 40
0.2099999999999973
  0
CIRCLE
  5
B3
330
1F
100
AcDbEntity
  8
0
  6
Continuous
 62
     7
370
    15
100
AcDbCircle
 10
31.4130050179
 20
30.8980729892
 30
0.0
 40
0.2100000000000009
  0
CIRCLE
  5
B4
330
1F
100
AcDbEntity
  8
0
  6
Continuous
 62
     7
370
    15
100
AcDbCircle
 10
31.4130050179
 20
31.6480729892
 30
0.0
 40
0.2100000000000009
  0
CIRCLE
  5
B5
330
1F
100
AcDbEntity
  8
0
  6
Continuous
 62
     7
370
    15
100
AcDbCircle
 10
31.4130050179
 20
32.3980729892
 30
0.0
 40
0.2100000000000009
  0
CIRCLE
  5
B6
330
1F
100
AcDbEntity
  8
0
  6
Continuous
 62
     7
370
    15
100
AcDbCircle
 10
31.4130050179
 20
33.1480729892
 30
0.0
 40
0.2100000000000009
  0
CIRCLE
  5
B7
330
1F
100
AcDbEntity
  8
0
  6
Continuous
 62
     7
370
    15
100
AcDbCircle
 10
31.4130050179
 20
33.8980729892
 30
0.0
 40
0.2100000000000009
  0
CIRCLE
  5
B8
330
1F
100
AcDbEntity
  8
0
  6
Continuous
 62
     7
370
    15
100
AcDbCircle
 10
31.4130050179
 20
34.6480729892
 30
0.0
 40
0.2100000000000009
  0
CIRCLE
  5
B9
330
1F
100
AcDbEntity
  8
0
  6
Continuous
 62
     7
370
    15
100
AcDbCircle
 10
31.4130050179
 20
35.3980729892
 30
0.0
 40
0.2100000000000009
  0
CIRCLE
  5
BA
330
1F
100
AcDbEntity
  8
0
  6
Continuous
 62
     7
370
    15
100
AcDbCircle
 10
31.4130050179
 20
36.1480729892
 30
0.0
 40
0.2100000000000009
  0
CIRCLE
  5
BB
330
1F
100
AcDbEntity
  8
0
  6
Continuous
 62
     7
370
    15
100
AcDbCircle
 10
31.4130050179
 20
36.8980729892
 30
0.0
 40
0.210000000000008
  0
CIRCLE
  5
BC
330
1F
100
AcDbEntity
  8
0
  6
Continuous
 62
     7
370
    15
100
AcDbCircle
 10
32.1630050179
 20
27.1480729892
 30
0.0
 40
0.2100000000000009
  0
CIRCLE
  5
BD
330
1F
100
AcDbEntity
  8
0
  6
Continuous
 62
     7
370
    15
100
AcDbCircle
 10
32.1630050179
 20
27.8980729892
 30
0.0
 40
0.2099999999999973
  0
CIRCLE
  5
BE
330
1F
100
AcDbEntity
  8
0
  6
Continuous
 62
     7
370
    15
100
AcDbCircle
 10
32.1630050179
 20
29.3980729892
 30
0.0
 40
0.2100000000000009
  0
CIRCLE
  5
BF
330
1F
100
AcDbEntity
  8
0
  6
Continuous
 62
     7
370
    15
100
AcDbCircle
 10
32.1630050179
 20
30.1480729892
 30
0.0
 40
0.2099999999999973
  0
CIRCLE
  5
C0
330
1F
100
AcDbEntity
  8
0
  6
Continuous
 62
     7
370
    15
100
AcDbCircle
 10
32.1630050179
 20
30.8980729892
 30
0.0
 40
0.2100000000000009
  0
CIRCLE
  5
C1
330
1F
100
AcDbEntity
  8
0
  6
Continuous
 62
     7
370
    15
100
AcDbCircle
 10
32.1630050179
 20
32.3980729892
 30
0.0
 40
0.2100000000000009
  0
CIRCLE
  5
C2
330
1F
100
AcDbEntity
  8
0
  6
Continuous
 62
     7
370
    15
100
AcDbCircle
 10
32.1630050179
 20
33.8980729892
 30
0.0
 40
0.2100000000000009
  0
CIRCLE
  5
C3
330
1F
100
AcDbEntity
  8
0
  6
Continuous
 62
     7
370
    15
100
AcDbCircle
 10
32.1630050179
 20
35.3980729892
 30
0.0
 40
0.2100000000000009
  0
CIRCLE
  5
C4
330
1F
100
AcDbEntity
  8
0
  6
Continuous
 62
     7
370
    15
100
AcDbCircle
 10
32.1630050179
 20
36.1480729892
 30
0.0
 40
0.2100000000000009
  0
CIRCLE
  5
C5
330
1F
100
AcDbEntity
  8
0
  6
Continuous
 62
     7
370
    15
100
AcDbCircle
 10
42.6630050179
 20
32.3980729892
 30
0.0
 40
0.2100000000000009
  0
CIRCLE
  5
C6
330
1F
100
AcDbEntity
  8
0
  6
Continuous
 62
     7
370
    15
100
AcDbCircle
 10
42.6630050179
 20
33.1480729892
 30
0.0
 40
0.2100000000000009
  0
CIRCLE
  5
C7
330
1F
100
AcDbEntity
  8
0
  6
Continuous
 62
     7
370
    15
100
AcDbCircle
 10
42.6630050179
 20
33.8980729892
 30
0.0
 40
0.2100000000000009
  0
CIRCLE
  5
C8
330
1F
100
AcDbEntity
  8
0
  6
Continuous
 62
     7
370
    15
100
AcDbCircle
 10
42.6630050179
 20
34.6480729892
 30
0.0
 40
0.2100000000000009
  0
CIRCLE
  5
C9
330
1F
100
AcDbEntity
  8
0
  6
Continuous
 62
     7
370
    15
100
AcDbCircle
 10
42.6630050179
 20
35.3980729892
 30
0.0
 40
0.2100000000000009
  0
CIRCLE
  5
CA
330
1F
100
AcDbEntity
  8
0
  6
Continuous
 62
     7
370
    15
100
AcDbCircle
 10
42.6630050179
 20
36.1480729892
 30
0.0
 40
0.2100000000000009
  0
CIRCLE
  5
CB
330
1F
100
AcDbEntity
  8
0
  6
Continuous
 62
     7
370
    15
100
AcDbCircle
 10
42.6630050179
 20
36.8980729892
 30
0.0
 40
0.210000000000008
  0
CIRCLE
  5
CC
330
1F
100
AcDbEntity
  8
0
  6
Continuous
 62
     7
370
    15
100
AcDbCircle
 10
42.6630050179
 20
37.6480729892
 30
0.0
 40
0.2100000000000009
  0
CIRCLE
  5
CD
330
1F
100
AcDbEntity
  8
0
  6
Continuous
 62
     7
370
    15
100
AcDbCircle
 10
32.9130050179
 20
31.6480729892
 30
0.0
 40
0.2100000000000009
  0
CIRCLE
  5
CE
330
1F
100
AcDbEntity
  8
0
  6
Continuous
 62
     7
370
    15
100
AcDbCircle
 10
32.9130050179
 20
32.3980729892
 30
0.0
 40
0.2100000000000009
  0
CIRCLE
  5
CF
330
1F
100
AcDbEntity
  8
0
  6
Continuous
 62
     7
370
    15
100
AcDbCircle
 10
32.9130050179
 20
33.1480729892
 30
0.0
 40
0.2100000000000009
  0
CIRCLE
  5
D0
330
1F
100
AcDbEntity
  8
0
  6
Continuous
 62
     7
370
    15
100
AcDbCircle
 10
32.9130050179
 20
33.8980729892
 30
0.0
 40
0.2100000000000009
  0
CIRCLE
  5
D1
330
1F
100
AcDbEntity
  8
0
  6
Continuous
 62
     7
370
    15
100
AcDbCircle
 10
32.9130050179
 20
34.6480729892
 30
0.0
 40
0.2100000000000009
  0
CIRCLE
  5
D2
330
1F
100
AcDbEntity
  8
0
  6
Continuous
 62
     7
370
    15
100
AcDbCircle
 10
32.9130050179
 20
35.3980729892
 30
0.0
 40
0.2100000000000009
  0
CIRCLE
  5
D3
330
1F
100
AcDbEntity
  8
0
  6
Continuous
 62
     7
370
    15
100
AcDbCircle
 10
32.9130050179
 20
36.1480729892
 30
0.0
 40
0.2100000000000009
  0
CIRCLE
  5
D4
330
1F
100
AcDbEntity
  8
0
  6
Continuous
 62
     7
370
    15
100
AcDbCircle
 10
32.9130050179
 20
36.8980729892
 30
0.0
 40
0.210000000000008
  0
CIRCLE
  5
D5
330
1F
100
AcDbEntity
  8
0
  6
Continuous
 62
     7
370
    15
100
AcDbCircle
 10
32.9130050179
 20
37.6480729892
 30
0.0
 40
0.2100000000000009
  0
CIRCLE
  5
D6
330
1F
100
AcDbEntity
  8
0
  6
Continuous
 62
     7
370
    15
100
AcDbCircle
 10
33.6630050179
 20
27.1480729892
 30
0.0
 40
0.2100000000000009
  0
CIRCLE
  5
D7
330
1F
100
AcDbEntity
  8
0
  6
Continuous
 62
     7
370
    15
100
AcDbCircle
 10
33.6630050179
 20
27.8980729892
 30
0.0
 40
0.2099999999999973
  0
CIRCLE
  5
D8
330
1F
100
AcDbEntity
  8
0
  6
Continuous
 62
     7
370
    15
100
AcDbCircle
 10
33.6630050179
 20
31.6480729892
 30
0.0
 40
0.2100000000000009
  0
CIRCLE
  5
D9
330
1F
100
AcDbEntity
  8
0
  6
Continuous
 62
     7
370
    15
100
AcDbCircle
 10
33.6630050179
 20
33.1480729892
 30
0.0
 40
0.2100000000000009
  0
CIRCLE
  5
DA
330
1F
100
AcDbEntity
  8
0
  6
Continuous
 62
     7
370
    15
100
AcDbCircle
 10
33.6630050179
 20
36.8980729892
 30
0.0
 40
0.210000000000008
  0
CIRCLE
  5
DB
330
1F
100
AcDbEntity
  8
0
  6
Continuous
 62
     7
370
    15
100
AcDbCircle
 10
33.6630050179
 20
37.6480729892
 30
0.0
 40
0.2100000000000009
  0
CIRCLE
  5
DC
330
1F
100
AcDbEntity
  8
0
  6
Continuous
 62
     7
370
    15
100
AcDbCircle
 10
34.4130050179
 20
27.1480729892
 30
0.0
 40
0.2100000000000009
  0
CIRCLE
  5
DD
330
1F
100
AcDbEntity
  8
0
  6
Continuous
 62
     7
370
    15
100
AcDbCircle
 10
34.4130050179
 20
27.8980729892
 30
0.0
 40
0.2099999999999973
  0
CIRCLE
  5
DE
330
1F
100
AcDbEntity
  8
0
  6
Continuous
 62
     7
370
    15
100
AcDbCircle
 10
34.4130050179
 20
32.3980729892
 30
0.0
 40
0.2100000000000009
  0
CIRCLE
  5
DF
330
1F
100
AcDbEntity
  8
0
  6
Continuous
 62
     7
370
    15
100
AcDbCircle
 10
34.4130050179
 20
33.1480729892
 30
0.0
 40
0.2100000000000009
  0
CIRCLE
  5
E0
330
1F
100
AcDbEntity
  8
0
  6
Continuous
 62
     7
370
    15
100
AcDbCircle
 10
34.4130050179
 20
36.8980729892
 30
0.0
 40
0.210000000000008
  0
CIRCLE
  5
E1
330
1F
100
AcDbEntity
  8
0
  6
Continuous
 62
     7
370
    15
100
AcDbCircle
 10
34.4130050179
 20
37.6480729892
 30
0.0
 40
0.2100000000000009
  0
CIRCLE
  5
E2
330
1F
100
AcDbEntity
  8
0
  6
Continuous
 62
     7
370
    15
100
AcDbCircle
 10
35.1630050179
 20
27.1480729892
 30
0.0
 40
0.2100000000000009
  0
CIRCLE
  5
E3
330
1F
100
AcDbEntity
  8
0
  6
Continuous
 62
     7
370
    15
100
AcDbCircle
 10
35.1630050179
 20
27.8980729892
 30
0.0
 40
0.2099999999999973
  0
CIRCLE
  5
E4
330
1F
100
AcDbEntity
  8
0
  6
Continuous
 62
     7
370
    15
100
AcDbCircle
 10
35.1630050179
 20
31.6480729892
 30
0.0
 40
0.2100000000000009
  0
CIRCLE
  5
E5
330
1F
100
AcDbEntity
  8
0
  6
Continuous
 62
     7
370
    15
100
AcDbCircle
 10
35.1630050179
 20
32.3980729892
 30
0.0
 40
0.2100000000000009
  0
CIRCLE
  5
E6
330
1F
100
AcDbEntity
  8
0
  6
Continuous
 62
     7
370
    15
100
AcDbCircle
 10
35.1630050179
 20
36.8980729892
 30
0.0
 40
0.210000000000008
  0
CIRCLE
  5
E7
330
1F
100
AcDbEntity
  8
0
  6
Continuous
 62
     7
370
    15
100
AcDbCircle
 10
41.1630050179
 20
35.3980729892
 30
0.0
 40
0.2100000000000009
  0
CIRCLE
  5
E8
330
1F
100
AcDbEntity
  8
0
  6
Continuous
 62
     7
370
    15
100
AcDbCircle
 10
41.1630050179
 20
36.1480729892
 30
0.0
 40
0.2100000000000009
  0
CIRCLE
  5
E9
330
1F
100
AcDbEntity
  8
0
  6
Continuous
 62
     7
370
    15
100
AcDbCircle
 10
41.1630050179
 20
36.8980729892
 30
0.0
 40
0.210000000000008
  0
CIRCLE
  5
EA
330
1F
100
AcDbEntity
  8
0
  6
Continuous
 62
     7
370
    15
100
AcDbCircle
 10
41.1630050179
 20
37.6480729892
 30
0.0
 40
0.2100000000000009
  0
CIRCLE
  5
EB
330
1F
100
AcDbEntity
  8
0
  6
Continuous
 62
     7
370
    15
100
AcDbCircle
 10
41.9130050179
 20
27.1480729892
 30
0.0
 40
0.2100000000000009
  0
CIRCLE
  5
EC
330
1F
100
AcDbEntity
  8
0
  6
Continuous
 62
     7
370
    15
100
AcDbCircle
 10
41.9130050179
 20
27.8980729892
 30
0.0
 40
0.2099999999999973
  0
CIRCLE
  5
ED
330
1F
100
AcDbEntity
  8
0
  6
Continuous
 62
     7
370
    15
100
AcDbCircle
 10
41.9130050179
 20
28.6480729892
 30
0.0
 40
0.2100000000000009
  0
CIRCLE
  5
EE
330
1F
100
AcDbEntity
  8
0
  6
Continuous
 62
     7
370
    15
100
AcDbCircle
 10
41.9130050179
 20
29.3980729892
 30
0.0
 40
0.2100000000000009
  0
CIRCLE
  5
EF
330
1F
100
AcDbEntity
  8
0
  6
Continuous
 62
     7
370
    15
100
AcDbCircle
 10
41.9130050179
 20
30.8980729892
 30
0.0
 40
0.2100000000000009
  0
CIRCLE
  5
F0
330
1F
100
AcDbEntity
  8
0
  6
Continuous
 62
     7
370
    15
100
AcDbCircle
 10
41.9130050179
 20
32.3980729892
 30
0.0
 40
0.2100000000000009
  0
CIRCLE
  5
F1
330
1F
100
AcDbEntity
  8
0
  6
Continuous
 62
     7
370
    15
100
AcDbCircle
 10
41.9130050179
 20
33.1480729892
 30
0.0
 40
0.2100000000000009
  0
CIRCLE
  5
F2
330
1F
100
AcDbEntity
  8
0
  6
Continuous
 62
     7
370
    15
100
AcDbCircle
 10
41.9130050179
 20
33.8980729892
 30
0.0
 40
0.2100000000000009
  0
CIRCLE
  5
F3
330
1F
100
AcDbEntity
  8
0
  6
Continuous
 62
     7
370
    15
100
AcDbCircle
 10
41.9130050179
 20
34.6480729892
 30
0.0
 40
0.2100000000000009
  0
CIRCLE
  5
F4
330
1F
100
AcDbEntity
  8
0
  6
Continuous
 62
     7
370
    15
100
AcDbCircle
 10
41.9130050179
 20
35.3980729892
 30
0.0
 40
0.2100000000000009
  0
CIRCLE
  5
F5
330
1F
100
AcDbEntity
  8
0
  6
Continuous
 62
     7
370
    15
100
AcDbCircle
 10
41.9130050179
 20
36.8980729892
 30
0.0
 40
0.210000000000008
  0
CIRCLE
  5
F6
330
1F
100
AcDbEntity
  8
0
  6
Continuous
 62
     7
370
    15
100
AcDbCircle
 10
41.9130050179
 20
37.6480729892
 30
0.0
 40
0.2100000000000009
  0
CIRCLE
  5
F7
330
1F
100
AcDbEntity
  8
0
  6
Continuous
 62
     7
370
    15
100
AcDbCircle
 10
42.6630050179
 20
27.1480729892
 30
0.0
 40
0.2100000000000009
  0
CIRCLE
  5
F8
330
1F
100
AcDbEntity
  8
0
  6
Continuous
 62
     7
370
    15
100
AcDbCircle
 10
42.6630050179
 20
27.8980729892
 30
0.0
 40
0.2099999999999973
  0
CIRCLE
  5
F9
330
1F
100
AcDbEntity
  8
0
  6
Continuous
 62
     7
370
    15
100
AcDbCircle
 10
42.6630050179
 20
28.6480729892
 30
0.0
 40
0.2100000000000009
  0
CIRCLE
  5
FA
330
1F
100
AcDbEntity
  8
0
  6
Continuous
 62
     7
370
    15
100
AcDbCircle
 10
42.6630050179
 20
29.3980729892
 30
0.0
 40
0.2100000000000009
  0
CIRCLE
  5
FB
330
1F
100
AcDbEntity
  8
0
  6
Continuous
 62
     7
370
    15
100
AcDbCircle
 10
42.6630050179
 20
30.1480729892
 30
0.0
 40
0.2099999999999973
  0
CIRCLE
  5
FC
330
1F
100
AcDbEntity
  8
0
  6
Continuous
 62
     7
370
    15
100
AcDbCircle
 10
42.6630050179
 20
30.8980729892
 30
0.0
 40
0.2100000000000009
  0
CIRCLE
  5
FD
330
1F
100
AcDbEntity
  8
0
  6
Continuous
 62
     7
370
    15
100
AcDbCircle
 10
42.6630050179
 20
31.6480729892
 30
0.0
 40
0.2100000000000009
  0
CIRCLE
  5
FE
330
1F
100
AcDbEntity
  8
0
  6
Continuous
 62
     7
370
    15
100
AcDbCircle
 10
36.6630050179
 20
27.1480729892
 30
0.0
 40
0.2100000000000009
  0
CIRCLE
  5
FF
330
1F
100
AcDbEntity
  8
0
  6
Continuous
 62
     7
370
    15
100
AcDbCircle
 10
36.6630050179
 20
27.8980729892
 30
0.0
 40
0.2099999999999973
  0
CIRCLE
  5
100
330
1F
100
AcDbEntity
  8
0
  6
Continuous
 62
     7
370
    15
100
AcDbCircle
 10
36.6630050179
 20
32.3980729892
 30
0.0
 40
0.2100000000000009
  0
CIRCLE
  5
101
330
1F
100
AcDbEntity
  8
0
  6
Continuous
 62
     7
370
    15
100
AcDbCircle
 10
36.6630050179
 20
33.1480729892
 30
0.0
 40
0.2100000000000009
  0
CIRCLE
  5
102
330
1F
100
AcDbEntity
  8
0
  6
Continuous
 62
     7
370
    15
100
AcDbCircle
 10
36.6630050179
 20
36.8980729892
 30
0.0
 40
0.210000000000008
  0
CIRCLE
  5
103
330
1F
100
AcDbEntity
  8
0
  6
Continuous
 62
     7
370
    15
100
AcDbCircle
 10
36.6630050179
 20
37.6480729892
 30
0.0
 40
0.2100000000000009
  0
CIRCLE
  5
104
330
1F
100
AcDbEntity
  8
0
  6
Continuous
 62
     7
370
    15
100
AcDbCircle
 10
35.1630050179
 20
37.6480729892
 30
0.0
 40
0.2100000000000009
  0
CIRCLE
  5
105
330
1F
100
AcDbEntity
  8
0
  6
Continuous
 62
     7
370
    15
100
AcDbCircle
 10
35.9130050179
 20
27.1480729892
 30
0.0
 40
0.2100000000000009
  0
CIRCLE
  5
106
330
1F
100
AcDbEntity
  8
0
  6
Continuous
 62
     7
370
    15
100
AcDbCircle
 10
35.9130050179
 20
27.8980729892
 30
0.0
 40
0.2099999999999973
  0
CIRCLE
  5
107
330
1F
100
AcDbEntity
  8
0
  6
Continuous
 62
     7
370
    15
100
AcDbCircle
 10
35.9130050179
 20
31.6480729892
 30
0.0
 40
0.2100000000000009
  0
CIRCLE
  5
108
330
1F
100
AcDbEntity
  8
0
  6
Continuous
 62
     7
370
    15
100
AcDbCircle
 10
35.9130050179
 20
32.3980729892
 30
0.0
 40
0.2100000000000009
  0
CIRCLE
  5
109
330
1F
100
AcDbEntity
  8
0
  6
Continuous
 62
     7
370
    15
100
AcDbCircle
 10
35.9130050179
 20
33.1480729892
 30
0.0
 40
0.2100000000000009
  0
CIRCLE
  5
10A
330
1F
100
AcDbEntity
  8
0
  6
Continuous
 62
     7
370
    15
100
AcDbCircle
 10
35.9130050179
 20
36.8980729892
 30
0.0
 40
0.210000000000008
  0
CIRCLE
  5
10B
330
1F
100
AcDbEntity
  8
0
  6
Continuous
 62
     7
370
    15
100
AcDbCircle
 10
35.9130050179
 20
37.6480729892
 30
0.0
 40
0.2100000000000009
  0
CIRCLE
  5
10C
330
1F
100
AcDbEntity
  8
0
  6
Continuous
 62
     7
370
    15
100
AcDbCircle
 10
37.4130050179
 20
27.8980729892
 30
0.0
 40
0.2099999999999973
  0
CIRCLE
  5
10D
330
1F
100
AcDbEntity
  8
0
  6
Continuous
 62
     7
370
    15
100
AcDbCircle
 10
37.4130050179
 20
31.6480729892
 30
0.0
 40
0.2100000000000009
  0
CIRCLE
  5
10E
330
1F
100
AcDbEntity
  8
0
  6
Continuous
 62
     7
370
    15
100
AcDbCircle
 10
37.4130050179
 20
32.3980729892
 30
0.0
 40
0.2100000000000009
  0
CIRCLE
  5
10F
330
1F
100
AcDbEntity
  8
0
  6
Continuous
 62
     7
370
    15
100
AcDbCircle
 10
37.4130050179
 20
36.8980729892
 30
0.0
 40
0.210000000000008
  0
CIRCLE
  5
110
330
1F
100
AcDbEntity
  8
0
  6
Continuous
 62
     7
370
    15
100
AcDbCircle
 10
37.4130050179
 20
37.6480729892
 30
0.0
 40
0.2100000000000009
  0
CIRCLE
  5
111
330
1F
100
AcDbEntity
  8
0
  6
Continuous
 62
     7
370
    15
100
AcDbCircle
 10
38.1630050179
 20
27.1480729892
 30
0.0
 40
0.2100000000000009
  0
CIRCLE
  5
112
330
1F
100
AcDbEntity
  8
0
  6
Continuous
 62
     7
370
    15
100
AcDbCircle
 10
37.4130050179
 20
27.1480729892
 30
0.0
 40
0.2100000000000009
  0
CIRCLE
  5
113
330
1F
100
AcDbEntity
  8
0
  6
Continuous
 62
     7
370
    15
100
AcDbCircle
 10
38.1630050179
 20
27.8980729892
 30
0.0
 40
0.2099999999999973
  0
ARC
  5
114
330
1F
100
AcDbEntity
  8
LAYOUT
  6
Continuous
370
    15
100
AcDbCircle
 10
28.5380050179
 20
46.5105729892
 30
0.0
 40
2.000000000000007
100
AcDbArc
 50
90.0
 51
104.4775121859
  0
LINE
  5
115
330
1F
100
AcDbEntity
  8
LAYOUT
  6
Continuous
370
    15
100
AcDbLine
 10
43.8880050232
 20
48.5105737909
 30
0.0
 11
45.5380054799
 21
48.5105737909
 31
0.0
  0
LINE
  5
116
330
1F
100
AcDbEntity
  8
LAYOUT
  6
Continuous
370
    15
100
AcDbLine
 10
28.538004556
 20
48.5105737909
 30
0.0
 11
30.1880050127
 21
48.5105737909
 31
0.0
  0
ARC
  5
117
330
1F
100
AcDbEntity
  8
LAYOUT
  6
Continuous
370
    15
100
AcDbCircle
 10
45.5380050179
 20
46.5105729892
 30
0.0
 40
2.000000000000007
100
AcDbArc
 50
75.5224878141
 51
90.0
  0
ARC
  5
118
330
1F
100
AcDbEntity
  8
LAYOUT
  6
Continuous
370
    15
100
AcDbCircle
 10
45.5380050179
 20
18.2855729892
 30
0.0
 40
2.000000000000007
100
AcDbArc
 50
270.0
 51
0.0
  0
LINE
  5
119
330
1F
100
AcDbEntity
  8
LAYOUT
  6
Continuous
370
    15
100
AcDbLine
 10
43.2880051111
 20
16.2855721876
 30
0.0
 11
45.5380054799
 21
16.2855721876
 31
0.0
  0
LINE
  5
11A
330
1F
100
AcDbEntity
  8
LAYOUT
  6
Continuous
370
    15
100
AcDbLine
 10
43.2880051111
 20
18.485573107
 30
0.0
 11
43.2880051111
 21
16.2855721876
 31
0.0
  0
ARC
  5
11B
330
1F
100
AcDbEntity
  8
LAYOUT
  6
Continuous
370
    15
100
AcDbCircle
 10
41.7380050179
 20
18.4855729892
 30
0.0
 40
1.550000000000004
100
AcDbArc
 50
0.0
 51
90.0
  0
LINE
  5
11C
330
1F
100
AcDbEntity
  8
LAYOUT
  6
Continuous
370
    15
100
AcDbLine
 10
32.3380050857
 20
20.0355732679
 30
0.0
 11
41.7380049501
 21
20.0355732679
 31
0.0
  0
ARC
  5
11D
330
1F
100
AcDbEntity
  8
LAYOUT
  6
Continuous
370
    15
100
AcDbCircle
 10
32.3380050179
 20
18.4855729892
 30
0.0
 40
1.550000000000004
100
AcDbArc
 50
90.0
 51
180.0
  0
LINE
  5
11E
330
1F
100
AcDbEntity
  8
LAYOUT
  6
Continuous
370
    15
100
AcDbLine
 10
30.7880049248
 20
16.2855721876
 30
0.0
 11
30.7880049248
 21
18.485573107
 31
0.0
  0
LINE
  5
11F
330
1F
100
AcDbEntity
  8
LAYOUT
  6
Continuous
370
    15
100
AcDbLine
 10
28.538004556
 20
16.2855721876
 30
0.0
 11
30.7880049248
 21
16.2855721876
 31
0.0
  0
ARC
  5
120
330
1F
100
AcDbEntity
  8
LAYOUT
  6
Continuous
370
    15
100
AcDbCircle
 10
28.5380050179
 20
18.2855729892
 30
0.0
 40
2.0
100
AcDbArc
 50
180.0
 51
270.0
  0
LINE
  5
121
330
1F
100
AcDbEntity
  8
LAYOUT
  6
Continuous
370
    15
100
AcDbLine
 10
26.5380051595
 20
46.5105725318
 30
0.0
 11
26.5380051595
 21
18.2855734467
 31
0.0
  0
LINE
  5
122
330
1F
100
AcDbEntity
  8
LAYOUT
  6
Continuous
370
    15
100
AcDbLine
 10
47.5380048764
 20
18.2855734467
 30
0.0
 11
47.5380048764
 21
46.5105725318
 31
0.0
  0
LINE
  5
123
330
1F
100
AcDbEntity
  8
LAYOUT
  6
Continuous
370
    15
100
AcDbLine
 10
34.081420922
 20
42.0105727255
 30
0.0
 11
33.3308657308
 21
43.3105733111
 31
0.0
  0
ARC
  5
124
330
1F
100
AcDbEntity
  8
LAYOUT
  6
Continuous
370
    15
100
AcDbCircle
 10
32.984455491
 20
43.1105729892
 30
0.0
 40
0.400000000000006
100
AcDbArc
 50
30.0
 51
150.0
  0
LINE
  5
125
330
1F
100
AcDbEntity
  8
LAYOUT
  6
Continuous
370
    15
100
AcDbLine
 10
32.6380455543
 20
43.3105733111
 30
0.0
 11
31.8874898975
 21
42.0105727255
 31
0.0
  0
ARC
  5
126
330
1F
100
AcDbEntity
  8
LAYOUT
  6
Continuous
370
    15
100
AcDbCircle
 10
32.2339001411
 20
41.8105729892
 30
0.0
 40
0.400000000000006
100
AcDbArc
 50
150.0
 51
270.0
  0
LINE
  5
127
330
1F
100
AcDbEntity
  8
LAYOUT
  6
Continuous
370
    15
100
AcDbLine
 10
32.2338999857
 20
41.4105728134
 30
0.0
 11
33.7350108338
 21
41.4105728134
 31
0.0
  0
ARC
  5
128
330
1F
100
AcDbEntity
  8
LAYOUT
  6
Continuous
370
    15
100
AcDbCircle
 10
33.7350108409
 20
41.8105729892
 30
0.0
 40
0.400000000000006
100
AcDbArc
 50
270.0
 51
30.0
  0
ARC
  5
129
330
1F
100
AcDbEntity
  8
LAYOUT
  6
Continuous
370
    15
100
AcDbCircle
 10
28.5380050179
 20
46.5105729892
 30
0.0
 40
2.000000000000001
100
AcDbArc
 50
104.4775121859
 51
180.0
  0
LINE
  5
12A
330
1F
100
AcDbEntity
  8
LAYOUT
  6
Continuous
370
    15
100
AcDbLine
 10
43.8880050232
 20
48.5105737909
 30
0.0
 11
30.1880050127
 21
48.5105737909
 31
0.0
  0
ARC
  5
12B
330
1F
100
AcDbEntity
  8
LAYOUT
  6
Continuous
370
    15
100
AcDbCircle
 10
45.5380050179
 20
46.5105729892
 30
0.0
 40
2.000000000000007
100
AcDbArc
 50
0.0
 51
75.5224878141
  0
LINE
  5
12C
330
1F
100
AcDbEntity
  8
LAYOUT
  6
Continuous
370
    15
100
AcDbLine
 10
30.7880049248
 20
18.485573107
 30
0.0
 11
31.5380050478
 21
18.485573107
 31
0.0
  0
LINE
  5
12D
330
1F
100
AcDbEntity
  8
LAYOUT
  6
Continuous
370
    15
100
AcDbLine
 10
31.5380050478
 20
18.485573107
 30
0.0
 11
31.5380050478
 21
16.2855721876
 31
0.0
  0
LINE
  5
12E
330
1F
100
AcDbEntity
  8
LAYOUT
  6
Continuous
370
    15
100
AcDbLine
 10
31.5380050478
 20
16.2855721876
 30
0.0
 11
30.7880049248
 21
16.2855721876
 31
0.0
  0
LINE
  5
12F
330
1F
100
AcDbEntity
  8
LAYOUT
  6
Continuous
370
    15
100
AcDbLine
 10
32.3380050857
 20
20.0355732679
 30
0.0
 11
32.3380050857
 21
19.2855726793
 31
0.0
  0
ARC
  5
130
330
1F
100
AcDbEntity
  8
LAYOUT
  6
Continuous
370
    15
100
AcDbCircle
 10
32.3380050179
 20
18.4855729892
 30
0.0
 40
0.8000000000000007
100
AcDbArc
 50
90.0
 51
180.0
  0
LINE
  5
131
330
1F
100
AcDbEntity
  8
LAYOUT
  6
Continuous
370
    15
100
AcDbLine
 10
41.7380049501
 20
20.0355732679
 30
0.0
 11
41.7380049501
 21
19.2855726793
 31
0.0
  0
LINE
  5
132
330
1F
100
AcDbEntity
  8
LAYOUT
  6
Continuous
370
    15
100
AcDbLine
 10
41.7380049501
 20
19.2855726793
 30
0.0
 11
32.3380050857
 21
19.2855726793
 31
0.0
  0
LINE
  5
133
330
1F
100
AcDbEntity
  8
LAYOUT
  6
Continuous
370
    15
100
AcDbLine
 10
43.2880051111
 20
18.485573107
 30
0.0
 11
42.5380049881
 21
18.485573107
 31
0.0
  0
ARC
  5
134
330
1F
100
AcDbEntity
  8
LAYOUT
  6
Continuous
370
    15
100
AcDbCircle
 10
41.7380050179
 20
18.4855729892
 30
0.0
 40
0.8000000000000007
100
AcDbArc
 50
0.0
 51
90.0
  0
LINE
  5
135
330
1F
100
AcDbEntity
  8
LAYOUT
  6
Continuous
370
    15
100
AcDbLine
 10
42.5380049881
 20
16.2855721876
 30
0.0
 11
42.5380049881
 21
18.485573107
 31
0.0
  0
LINE
  5
136
330
1F
100
AcDbEntity
  8
LAYOUT
  6
Continuous
370
    15
100
AcDbLine
 10
43.2880051111
 20
16.2855721876
 30
0.0
 11
42.5380049881
 21
16.2855721876
 31
0.0
  0
CIRCLE
  5
137
330
1F
100
AcDbEntity
  8
0
  6
HIDDEN
 62
     7
370
     0
100
AcDbCircle
 10
37.0380050179
 20
32.3980729892
 30
0.0
 40
1.999999999999993
  0
CIRCLE
  5
138
330
1F
100
AcDbEntity
  8
0
  6
HIDDEN
 62
     7
370
     0
100
AcDbCircle
 10
28.6755050179
 20
24.0355729892
 30
0.0
 40
2.000000000000001
  0
CIRCLE
  5
139
330
1F
100
AcDbEntity
  8
0
  6
HIDDEN
 62
     7
370
     0
100
AcDbCircle
 10
45.4005050179
 20
40.7605729892
 30
0.0
 40
1.999999999999994
  0
CIRCLE
  5
13A
330
1F
100
AcDbEntity
  8
0
  6
HIDDEN
 62
     7
370
     0
100
AcDbCircle
 10
45.4005050179
 20
24.0355729892
 30
0.0
 40
2.0
  0
CIRCLE
  5
13B
330
1F
100
AcDbEntity
  8
0
  6
HIDDEN
 62
     7
370
     0
100
AcDbCircle
 10
28.6755050179
 20
40.7605729892
 30
0.0
 40
1.999999999999994
  0
CIRCLE
  5
13C
330
1F
100
AcDbEntity
  8
0
  6
HIDDEN
 62
     7
370
     0
100
AcDbCircle
 10
28.6755050179
 20
40.7605729892
 30
0.0
 40
0.8549999999999898
  0
CIRCLE
  5
13D
330
1F
100
AcDbEntity
  8
0
  6
HIDDEN
 62
     7
370
     0
100
AcDbCircle
 10
45.4005050179
 20
24.0355729892
 30
0.0
 40
0.8550000000000004
  0
CIRCLE
  5
13E
330
1F
100
AcDbEntity
  8
0
  6
HIDDEN
 62
     7
370
     0
100
AcDbCircle
 10
28.6755050179
 20
24.0355729892
 30
0.0
 40
0.8550000000000004
  0
CIRCLE
  5
13F
330
1F
100
AcDbEntity
  8
0
  6
HIDDEN
 62
     7
370
     0
100
AcDbCircle
 10
45.4005050179
 20
40.7605729892
 30
0.0
 40
0.8549999999999898
  0
ARC
  5
140
330
1F
100
AcDbEntity
  8
0
  6
HIDDEN
 62
     7
370
     0
100
AcDbCircle
 10
37.0380050179
 20
38.0549272387
 30
0.0
 40
2.000000000000006
100
AcDbArc
 50
225.0
 51
315.0
  0
LINE
  5
141
330
1F
100
AcDbEntity
  8
0
  6
HIDDEN
 62
     7
370
     0
100
AcDbLine
 10
43.9862916854
 20
42.1747863158
 30
0.0
 11
38.4522185803
 21
36.6407134436
 31
0.0
  0
LINE
  5
142
330
1F
100
AcDbEntity
  8
0
  6
HIDDEN
 62
     7
370
     0
100
AcDbLine
 10
41.2806454723
 20
33.8122865516
 30
0.0
 11
45.3065960345
 21
37.838236881
 31
0.0
  0
LINE
  5
143
330
1F
100
AcDbEntity
  8
0
  6
HIDDEN
 62
     7
370
     0
100
AcDbLine
 10
45.7828408715
 20
38.3144817181
 30
0.0
 11
46.8147183445
 21
39.3463596567
 31
0.0
  0
ARC
  5
144
330
1F
100
AcDbEntity
  8
0
  6
HIDDEN
 62
     7
370
     0
100
AcDbCircle
 10
42.6948592674
 20
32.3980729892
 30
0.0
 40
2.000000000000006
100
AcDbArc
 50
135.0
 51
225.0
  0
LINE
  5
145
330
1F
100
AcDbEntity
  8
0
  6
HIDDEN
 62
     7
370
     0
100
AcDbLine
 10
46.8147183445
 20
25.4497863218
 30
0.0
 11
41.2806454723
 21
30.9838594269
 31
0.0
  0
LINE
  5
146
330
1F
100
AcDbEntity
  8
0
  6
HIDDEN
 62
     7
370
     0
100
AcDbLine
 10
38.4522185803
 20
28.1554325349
 30
0.0
 11
43.9862916854
 21
22.6213596627
 31
0.0
  0
ARC
  5
147
330
1F
100
AcDbEntity
  8
0
  6
HIDDEN
 62
     7
370
     0
100
AcDbCircle
 10
37.0380050179
 20
26.7412187398
 30
0.0
 40
2.000000000000004
100
AcDbArc
 50
45.0
 51
135.0
  0
LINE
  5
148
330
1F
100
AcDbEntity
  8
0
  6
HIDDEN
 62
     7
370
     0
100
AcDbLine
 10
30.0897183505
 20
22.6213596627
 30
0.0
 11
35.6237914556
 21
28.1554325349
 31
0.0
  0
LINE
  5
149
330
1F
100
AcDbEntity
  8
0
  6
HIDDEN
 62
     7
370
     0
100
AcDbLine
 10
32.7953645636
 20
30.9838594269
 30
0.0
 11
27.2612916914
 21
25.4497863218
 31
0.0
  0
ARC
  5
14A
330
1F
100
AcDbEntity
  8
0
  6
HIDDEN
 62
     7
370
     0
100
AcDbCircle
 10
31.3811507685
 20
32.3980729892
 30
0.0
 40
2.000000000000004
100
AcDbArc
 50
315.0
 51
45.0
  0
LINE
  5
14B
330
1F
100
AcDbEntity
  8
0
  6
HIDDEN
 62
     7
370
     0
100
AcDbLine
 10
27.2612916914
 20
39.3463596567
 30
0.0
 11
32.7953645636
 21
33.8122865516
 31
0.0
  0
LINE
  5
14C
330
1F
100
AcDbEntity
  8
0
  6
HIDDEN
 62
     7
370
     0
100
AcDbLine
 10
35.6237914556
 20
36.6407134436
 30
0.0
 11
30.0897183505
 21
42.1747863158
 31
0.0
  0
CIRCLE
  5
14D
330
1F
100
AcDbEntity
  8
0
  6
Continuous
 62
     7
370
    15
100
AcDbCircle
 10
45.4005050179
 20
38.2205729892
 30
0.0
 40
0.4249999999999901
  0
CIRCLE
  5
14E
330
1F
100
AcDbEntity
  8
0
  6
Continuous
 62
     7
370
    15
100
AcDbCircle
 10
28.6755050179
 20
32.3980729892
 30
0.0
 40
0.4249999999999865
  0
CIRCLE
  5
14F
330
1F
100
AcDbEntity
  8
0
  6
Continuous
 62
     7
370
    15
100
AcDbCircle
 10
45.4005050179
 20
40.7605729892
 30
0.0
 40
0.8499999999999943
  0
CIRCLE
  5
150
330
1F
100
AcDbEntity
  8
0
  6
Continuous
 62
     7
370
    15
100
AcDbCircle
 10
45.4005050179
 20
24.0355729892
 30
0.0
 40
0.8499999999999872
  0
CIRCLE
  5
151
330
1F
100
AcDbEntity
  8
0
  6
Continuous
 62
     7
370
    15
100
AcDbCircle
 10
28.6755050179
 20
40.7605729892
 30
0.0
 40
0.8499999999999943
  0
CIRCLE
  5
152
330
1F
100
AcDbEntity
  8
0
  6
Continuous
 62
     7
370
    15
100
AcDbCircle
 10
28.6755050179
 20
24.0355729892
 30
0.0
 40
0.8499999999999872
  0
LINE
  5
153
330
1F
100
AcDbEntity
  8
LAYOUT
  6
HIDDEN
370
     0
100
AcDbLine
 10
46.6505047542
 20
42.0105727255
 30
0.0
 11
46.6505047542
 21
22.785573253
 31
0.0
  0
LINE
  5
154
330
1F
100
AcDbEntity
  8
LAYOUT
  6
HIDDEN
370
     0
100
AcDbLine
 10
46.6505047542
 20
22.785573253
 30
0.0
 11
27.4255052817
 21
22.785573253
 31
0.0
  0
LINE
  5
155
330
1F
100
AcDbEntity
  8
LAYOUT
  6
HIDDEN
370
     0
100
AcDbLine
 10
27.4255052817
 20
22.785573253
 30
0.0
 11
27.4255052817
 21
42.0105727255
 31
0.0
  0
LINE
  5
156
330
1F
100
AcDbEntity
  8
LAYOUT
  6
HIDDEN
370
     0
100
AcDbLine
 10
27.4255052817
 20
42.0105727255
 30
0.0
 11
46.6505047542
 21
42.0105727255
 31
0.0
  0
LINE
  5
157
330
1F
100
AcDbEntity
  8
LAYOUT
100
AcDbLine
 10
33.3308656525
 20
43.3105729892
 30
0.0
 11
34.0814210025
 21
42.0105729892
 31
0.0
  0
LINE
  5
158
330
1F
100
AcDbEntity
  8
LAYOUT
100
AcDbLine
 10
33.7350108409
 20
41.4105729892
 30
0.0
 11
32.2339001411
 21
41.4105729892
 31
0.0
  0
LINE
  5
159
330
1F
100
AcDbEntity
  8
LAYOUT
100
AcDbLine
 10
31.8874899795
 20
42.0105729892
 30
0.0
 11
32.6380453295
 21
43.3105729892
 31
0.0
  0
LINE
  5
15A
330
1F
100
AcDbEntity
  8
LAYOUT
100
AcDbLine
 10
45.4005050179
 20
40.7605729892
 30
0.0
 11
45.4005050179
 21
24.0355729892
 31
0.0
  0
LINE
  5
15B
330
1F
100
AcDbEntity
  8
LAYOUT
100
AcDbLine
 10
45.4005050179
 20
24.0355729892
 30
0.0
 11
28.6755050179
 21
24.0355729892
 31
0.0
  0
LINE
  5
15C
330
1F
100
AcDbEntity
  8
LAYOUT
100
AcDbLine
 10
28.6755050179
 20
24.0355729892
 30
0.0
 11
28.6755050179
 21
40.7605729892
 31
0.0
  0
LINE
  5
15D
330
1F
100
AcDbEntity
  8
LAYOUT
100
AcDbLine
 10
28.6755050179
 20
40.7605729892
 30
0.0
 11
45.4005050179
 21
40.7605729892
 31
0.0
  0
ARC
  5
15E
330
1F
100
AcDbEntity
  8
LAYOUT
100
AcDbCircle
 10
33.7350108409
 20
41.8105729892
 30
0.0
 40
0.4000000000000034
100
AcDbArc
 50
270.0
 51
30.0
  0
ARC
  5
15F
330
1F
100
AcDbEntity
  8
LAYOUT
100
AcDbCircle
 10
32.2339001411
 20
41.8105729892
 30
0.0
 40
0.400000000000006
100
AcDbArc
 50
150.0
 51
270.0
  0
ARC
  5
160
330
1F
100
AcDbEntity
  8
LAYOUT
100
AcDbCircle
 10
32.984455491
 20
43.1105729892
 30
0.0
 40
0.4000000000000024
100
AcDbArc
 50
30.0
 51
150.0
  0
DIMENSION
  5
161
330
1F
100
AcDbEntity
  8
LAYOUT
 62
     7
100
AcDbDimension
280
     0
  2
_D
 10
10.5380050179
 20
22.7855729892
 30
0.0
 11
10.5380050179
 21
32.7060831646
 31
0.0
 70
   160
  1
{\fGDT;o} <>\PSOCKET BASE OUTLINE
 71
     2
 42
-1.0
 73
     0
 74
     0
 75
     0
  3
SLDDIMSTYLE0
100
AcDbAlignedDimension
 13
27.4255050179
 23
42.0105729892
 33
0.0
 14
27.4255050179
 24
22.7855729892
 34
0.0
 50
90.0
100
AcDbRotatedDimension
  0
DIMENSION
  5
178
330
1F
100
AcDbEntity
  8
LAYOUT
100
AcDbDimension
280
     0
  2
_D_1
 10
45.4005050179
 20
14.709016741
 30
0.0
 11
41.6507244231
 21
14.709016741
 31
0.0
 70
   160
  1
<>
 71
     2
 42
-1.0
 73
     0
 74
     0
 75
     0
  3
SLDDIMSTYLE1
100
AcDbAlignedDimension
 13
37.0380050179
 23
22.1605729892
 33
0.0
 14
45.4005050179
 24
23.5355729892
 34
0.0
100
AcDbRotatedDimension
  0
DIMENSION
  5
188
330
1F
100
AcDbEntity
  8
LAYOUT
100
AcDbDimension
280
     0
  2
_D_2
 10
28.6755050179
 20
14.709016741
 30
0.0
 11
32.2672014468
 21
14.709016741
 31
0.0
 70
   160
  1
<>
 71
     2
 42
-1.0
 73
     0
 74
     0
 75
     0
  3
SLDDIMSTYLE1
100
AcDbAlignedDimension
 13
37.0380050179
 23
22.1605729892
 33
0.0
 14
28.6755050179
 24
24.0355729892
 34
0.0
100
AcDbRotatedDimension
  0
DIMENSION
  5
197
330
1F
100
AcDbEntity
  8
LAYOUT
100
AcDbDimension
280
     0
  2
_D_3
 10
16.9532089899
 20
24.0355729892
 30
0.0
 11
16.9532089899
 21
29.3363605017
 31
0.0
 70
   160
  1
<>
 71
     2
 42
-1.0
 73
     0
 74
     0
 75
     0
  3
SLDDIMSTYLE1
100
AcDbAlignedDimension
 13
26.8005050179
 23
32.3980729892
 33
0.0
 14
28.6755050179
 24
24.0355729892
 34
0.0
 50
90.0
100
AcDbRotatedDimension
  0
DIMENSION
  5
1A6
330
1F
100
AcDbEntity
  8
LAYOUT
100
AcDbDimension
280
     0
  2
_D_4
 10
16.9532089899
 20
40.7605729892
 30
0.0
 11
16.9532089899
 21
36.5034244734
 31
0.0
 70
   160
  1
<>
 71
     2
 42
-1.0
 73
     0
 74
     0
 75
     0
  3
SLDDIMSTYLE1
100
AcDbAlignedDimension
 13
26.8005050179
 23
32.3980729892
 33
0.0
 14
28.1755050179
 24
40.7605729892
 34
0.0
 50
90.0
100
AcDbRotatedDimension
  0
DIMENSION
  5
1B5
330
1F
100
AcDbEntity
  8
LAYOUT
100
AcDbDimension
280
     0
  2
_D_5
 10
39.6630050179
 20
44.0105729892
 30
0.0
 11
43.9715397487
 21
44.0105729892
 31
0.0
 70
   160
  1
<> typ.
 71
     2
 42
-1.0
 73
     0
 74
     0
 75
     0
  3
SLDDIMSTYLE2
100
AcDbAlignedDimension
 13
40.4130050179
 23
37.6480729892
 33
0.0
 14
39.6630050179
 24
37.6480729892
 34
0.0
100
AcDbRotatedDimension
  0
DIMENSION
  5
1C2
330
1F
100
AcDbEntity
  8
LAYOUT
100
AcDbDimension
280
     0
  2
_D_6
 10
50.3932758709
 20
27.8980729892
 30
0.0
 11
50.3932758709
 21
27.4971729094
 31
0.0
 70
   160
  1
<> typ.
 71
     2
 42
-1.0
 73
     0
 74
     0
 75
     0
  3
SLDDIMSTYLE2
100
AcDbAlignedDimension
 13
42.6630050179
 23
27.1480729892
 33
0.0
 14
42.6630050179
 24
27.8980729892
 34
0.0
 50
90.0
100
AcDbRotatedDimension
  0
DIMENSION
  5
1CE
330
1F
100
AcDbEntity
  8
LAYOUT
100
AcDbDimension
280
     0
  2
_D_7
 10
31.4130050179
 20
45.2511175098
 30
0.0
 11
34.1959483343
 21
45.2511175098
 31
0.0
 70
   160
  1
<>
 71
     2
 42
-1.0
 73
     0
 74
     0
 75
     0
  3
SLDDIMSTYLE3
100
AcDbAlignedDimension
 13
37.0380050179
 23
42.6355729892
 33
0.0
 14
31.4130050179
 24
36.8980729892
 34
0.0
100
AcDbRotatedDimension
  0
DIMENSION
  5
1DA
330
1F
100
AcDbEntity
  8
LAYOUT
100
AcDbDimension
280
     0
  2
_D_8
 10
20.6827341649
 20
27.1480729892
 30
0.0
 11
20.6827341649
 21
30.1706666708
 31
0.0
 70
   160
  1
<>
 71
     2
 42
-1.0
 73
     0
 74
     0
 75
     0
  3
SLDDIMSTYLE4
100
AcDbAlignedDimension
 13
26.8005050179
 23
32.3980729892
 33
0.0
 14
30.9130050179
 24
27.1480729892
 34
0.0
 50
90.0
100
AcDbRotatedDimension
  0
DIMENSION
  5
1E6
330
1F
100
AcDbEntity
  8
LAYOUT
100
AcDbDimension
280
     0
  2
_D_9
 10
45.0288138346
 20
38.4266571085
 30
0.0
 11
57.3916262296
 21
35.0928539781
 31
0.0
 70
   163
  1
<> (X2)\PNon Plated Alignment Hole\P
 71
     1
 42
-1.0
 73
     0
 74
     0
 75
     0
  3
SLDDIMSTYLE5
100
AcDbDiametricDimension
 15
45.7721962013
 25
38.01448887
 35
0.0
 40
0.0
  0
DIMENSION
  5
1F2
330
1F
100
AcDbEntity
  8
LAYOUT
100
AcDbDimension
280
     0
  2
_D_10
 10
47.4005050179
 20
12.9374794648
 30
0.0
 11
36.6520554834
 21
12.9374794648
 31
0.0
 70
   160
  1
{\fGDT;o}<>
 71
     2
 42
-1.0
 73
     0
 74
     0
 75
     0
  3
SLDDIMSTYLE6
100
AcDbAlignedDimension
 13
26.6755050179
 23
24.0355729892
 33
0.0
 14
47.4005050179
 24
24.0355729892
 34
0.0
100
AcDbRotatedDimension
  0
DIMENSION
  5
1FF
330
1F
100
AcDbEntity
  8
LAYOUT
100
AcDbDimension
280
     0
  2
_D_11
 10
43.4005050179
 20
21.1469247999
 30
0.0
 11
34.930570822
 21
21.1469247999
 31
0.0
 70
   160
  1
{\fGDT;o}<>
 71
     2
 42
-1.0
 73
     0
 74
     0
 75
     0
  3
SLDDIMSTYLE6
100
AcDbAlignedDimension
 13
30.6755050179
 23
24.0355729892
 33
0.0
 14
43.4005050179
 24
24.0355729892
 34
0.0
100
AcDbRotatedDimension
  0
DIMENSION
  5
20B
330
1F
100
AcDbEntity
  8
LAYOUT
100
AcDbDimension
280
     0
  2
_D_12
 10
42.4602704957
 20
31.7028334995
 30
0.0
 11
53.6694829803
 21
30.1706666708
 31
0.0
 70
   163
  1
<> PADS (X144)
 71
     1
 42
-1.0
 73
     0
 74
     0
 75
     0
  3
SLDDIMSTYLE7
100
AcDbDiametricDimension
 15
42.8657395402
 25
31.593312479
 35
0.0
 40
0.0
  0
DIMENSION
  5
216
330
1F
100
AcDbEntity
  8
LAYOUT
100
AcDbDimension
280
     0
  2
_D_13
 10
20.6827341649
 20
32.3980729892
 30
0.0
 11
20.6827341649
 21
34.996448803
 31
0.0
 70
   160
  1
<>
 71
     2
 42
-1.0
 73
     0
 74
     0
 75
     0
  3
SLDDIMSTYLE8
100
AcDbAlignedDimension
 13
32.1630050179
 23
37.6480729892
 33
0.0
 14
26.8005050179
 24
32.3980729892
 34
0.0
 50
90.0
100
AcDbRotatedDimension
  0
DIMENSION
  5
222
330
1F
100
AcDbEntity
  8
LAYOUT
100
AcDbDimension
280
     0
  2
_D_14
 10
50.3932758709
 20
40.7605729892
 30
0.0
 11
50.3932758709
 21
39.5240928121
 31
0.0
 70
   160
  1
<>
 71
     2
 42
-1.0
 73
     0
 74
     0
 75
     0
  3
SLDDIMSTYLE2
100
AcDbAlignedDimension
 13
45.9005050179
 23
38.2205729892
 33
0.0
 14
45.9005050179
 24
40.7605729892
 34
0.0
 50
90.0
100
AcDbRotatedDimension
  0
DIMENSION
  5
22D
330
1F
100
AcDbEntity
  8
LAYOUT
100
AcDbDimension
280
     0
  2
_D_15
 10
44.5748621818
 20
24.2375975104
 30
0.0
 11
57.3916262296
 21
22.6498657554
 31
0.0
 70
   163
  1
<> (X4)\PNon Plated Mounting Hole 
 71
     1
 42
-1.0
 73
     0
 74
     0
 75
     0
  3
SLDDIMSTYLE9
100
AcDbDiametricDimension
 15
46.2261478541
 25
23.8335484681
 35
0.0
 40
0.0
  0
MTEXT
  5
239
330
1F
100
AcDbEntity
  8
LAYOUT
100
AcDbMText
 10
18.3225788546
 20
46.788540078
 30
0.0
 40
0.5953125
 41
0.0
 46
0.0
 71
     1
 72
     1
  1
A1 corner
  7
SLDTEXTSTYLE0
 73
     1
 44
1.0
  0
LEADER
  5
23B
330
1F
100
AcDbEntity
  8
LAYOUT
100
AcDbLeader
  3
SLDDIMSTYLE10
 76
     3
 10
33.0570281125
 20
43.5039344192
 30
0.0
 10
23.4717592593
 20
46.4743589744
 30
0.0
 10
21.8842592593
 20
46.4743589744
 30
0.0
  0
INSERT
  5
243
330
1F
100
AcDbEntity
  8
LAYOUT
100
AcDbBlockReference
  2
SW_CENTERMARKSYMBOL_0
 10
31.4130050179
 20
27.1480729892
 30
0.0
  0
INSERT
  5
24B
330
1F
100
AcDbEntity
  8
LAYOUT
100
AcDbBlockReference
  2
SW_CENTERMARKSYMBOL_1
 10
28.6755050179
 20
24.0355729892
 30
0.0
  0
INSERT
  5
253
330
1F
100
AcDbEntity
  8
LAYOUT
100
AcDbBlockReference
  2
SW_CENTERMARKSYMBOL_2
 10
45.4005050179
 20
24.0355729892
 30
0.0
  0
INSERT
  5
25B
330
1F
100
AcDbEntity
  8
LAYOUT
100
AcDbBlockReference
  2
SW_CENTERMARKSYMBOL_3
 10
45.4005050179
 20
38.2205729892
 30
0.0
  0
INSERT
  5
263
330
1F
100
AcDbEntity
  8
LAYOUT
100
AcDbBlockReference
  2
SW_CENTERMARKSYMBOL_4
 10
45.4005050179
 20
40.7605729892
 30
0.0
  0
INSERT
  5
26B
330
1F
100
AcDbEntity
  8
LAYOUT
100
AcDbBlockReference
  2
SW_CENTERMARKSYMBOL_5
 10
28.6755050179
 20
40.7605729892
 30
0.0
  0
INSERT
  5
273
330
1F
100
AcDbEntity
  8
LAYOUT
100
AcDbBlockReference
  2
SW_CENTERMARKSYMBOL_6
 10
28.6755050179
 20
32.3980729892
 30
0.0
  0
LINE
  5
274
330
1F
100
AcDbEntity
  8
LAYOUT
  6
CENTERX2
370
     0
100
AcDbLine
 10
26.8005050179
 20
32.3980729892
 30
0.0
 11
47.2755050179
 21
32.3980729892
 31
0.0
  0
LINE
  5
275
330
1F
100
AcDbEntity
  8
LAYOUT
  6
CENTERX2
370
     0
100
AcDbLine
 10
37.0380050179
 20
42.6355729892
 30
0.0
 11
37.0380050179
 21
22.1605729892
 31
0.0
  0
ENDSEC
  0
SECTION
  2
OBJECTS
  0
DICTIONARY
  5
C
330
0
100
AcDbDictionary
281
     1
  3
ACAD_GROUP
350
D
  3
ACAD_IMAGE_VARS
350
2B0
  3
ACAD_LAYOUT
350
1A
  3
ACAD_MATERIAL
350
298
  3
ACAD_MLEADERSTYLE
350
2B7
  3
ACAD_MLINESTYLE
350
17
  3
ACAD_PLOTSETTINGS
350
19
  3
ACAD_PLOTSTYLENAME
350
E
  3
ACAD_SCALELIST
350
276
  3
ACAD_TABLESTYLE
350
2AD
  3
ACAD_VISUALSTYLE
350
29C
  3
ACDB_RECOMPOSE_DATA
350
2B5
  3
AcDbVariableDictionary
350
2B1
  3
APPDATA
350
2AF
  0
DICTIONARY
  5
D
102
{ACAD_REACTORS
330
C
102
}
330
C
100
AcDbDictionary
281
     1
  0
RASTERVARIABLES
  5
2B0
102
{ACAD_REACTORS
330
C
102
}
330
C
100
AcDbRasterVariables
 90
        0
 70
     1
 71
     1
 72
     1
  0
DICTIONARY
  5
1A
102
{ACAD_REACTORS
330
C
102
}
330
C
100
AcDbDictionary
281
     1
  3
Layout1
350
1E
  3
Layout2
350
26
  3
Model
350
22
  0
DICTIONARY
  5
298
102
{ACAD_REACTORS
330
C
102
}
330
C
100
AcDbDictionary
281
     1
  3
ByBlock
350
29A
  3
ByLayer
350
299
  3
Global
350
29B
  0
DICTIONARY
  5
2B7
102
{ACAD_REACTORS
330
C
102
}
330
C
100
AcDbDictionary
281
     1
  0
DICTIONARY
  5
17
102
{ACAD_REACTORS
330
C
102
}
330
C
100
AcDbDictionary
281
     1
  3
Standard
350
18
  0
DICTIONARY
  5
19
102
{ACAD_REACTORS
330
C
102
}
330
C
100
AcDbDictionary
281
     1
  0
ACDBDICTIONARYWDFLT
  5
E
102
{ACAD_REACTORS
330
C
102
}
330
C
100
AcDbDictionary
281
     1
  3
Normal
350
F
100
AcDbDictionaryWithDefault
340
F
  0
DICTIONARY
  5
276
102
{ACAD_REACTORS
330
C
102
}
330
C
100
AcDbDictionary
281
     1
  3
A0
350
277
  3
A1
350
278
  3
A2
350
279
  3
A3
350
27A
  3
A4
350
27B
  3
A5
350
27C
  3
A6
350
27D
  3
A7
350
27E
  3
A8
350
27F
  3
A9
350
280
  3
B0
350
281
  3
B1
350
282
  3
B2
350
283
  3
B3
350
284
  3
B4
350
285
  3
B5
350
286
  3
B6
350
287
  3
B7
350
288
  3
B8
350
289
  3
B9
350
28A
  3
C0
350
28B
  3
C1
350
28C
  3
C2
350
28D
  3
C3
350
28E
  3
C4
350
28F
  3
C5
350
290
  3
C6
350
291
  3
C7
350
292
  3
C8
350
293
  3
C9
350
294
  3
D0
350
295
  3
D1
350
296
  3
D2
350
297
  0
DICTIONARY
  5
2AD
102
{ACAD_REACTORS
330
C
102
}
330
C
100
AcDbDictionary
281
     1
  3
Standard
350
2AE
  0
DICTIONARY
  5
29C
102
{ACAD_REACTORS
330
C
102
}
330
C
100
AcDbDictionary
281
     1
  3
2dWireframe
350
2A1
  3
3D Hidden
350
2A3
  3
3dWireframe
350
2A2
  3
Basic
350
2A4
  3
Brighten
350
2A8
  3
ColorChange
350
2AC
  3
Conceptual
350
2A6
  3
Dim
350
2A7
  3
Facepattern
350
2AB
  3
Flat
350
29D
  3
FlatWithEdges
350
29E
  3
Gouraud
350
29F
  3
GouraudWithEdges
350
2A0
  3
Linepattern
350
2AA
  3
Realistic
350
2A5
  3
Thicken
350
2A9
  0
XRECORD
  5
2B5
102
{ACAD_REACTORS
330
C
102
}
330
C
100
AcDbXrecord
280
     1
 90
        1
330
2AE
  0
DICTIONARY
  5
2B1
102
{ACAD_REACTORS
330
C
102
}
330
C
100
AcDbDictionary
281
     1
  3
CANNOSCALE
350
2B2
  3
CTABLESTYLE
350
2B6
  0
DICTIONARY
  5
2AF
102
{ACAD_REACTORS
330
C
102
}
330
C
100
AcDbDictionary
281
     1
  0
LAYOUT
  5
1E
102
{ACAD_REACTORS
330
1A
102
}
330
1A
100
AcDbPlotSettings
  1

  2
none_device
  4

  6

 40
0.0
 41
0.0
 42
0.0
 43
0.0
 44
0.0
 45
0.0
 46
0.0
 47
0.0
 48
0.0
 49
0.0
140
0.0
141
0.0
142
1.0
143
1.0
 70
   688
 72
     0
 73
     0
 74
     5
  7

 75
    16
 76
     0
 77
     2
 78
   300
147
1.0
148
0.0
149
0.0
100
AcDbLayout
  1
Layout1
 70
     1
 71
     1
 10
0.0
 20
0.0
 11
420.0
 21
297.0
 12
0.0
 22
0.0
 32
0.0
 14
1.000000000000000E+20
 24
1.000000000000000E+20
 34
1.000000000000000E+20
 15
-1.000000000000000E+20
 25
-1.000000000000000E+20
 35
-1.000000000000000E+20
146
0.0
 13
0.0
 23
0.0
 33
0.0
 16
1.0
 26
0.0
 36
0.0
 17
0.0
 27
1.0
 37
0.0
 76
     0
330
1B
  0
LAYOUT
  5
26
102
{ACAD_REACTORS
330
1A
102
}
330
1A
100
AcDbPlotSettings
  1

  2
none_device
  4

  6

 40
0.0
 41
0.0
 42
0.0
 43
0.0
 44
0.0
 45
0.0
 46
0.0
 47
0.0
 48
0.0
 49
0.0
140
0.0
141
0.0
142
1.0
143
1.0
 70
   688
 72
     0
 73
     0
 74
     5
  7

 75
    16
 76
     0
 77
     2
 78
   300
147
1.0
148
0.0
149
0.0
100
AcDbLayout
  1
Layout2
 70
     1
 71
     2
 10
0.0
 20
0.0
 11
0.0
 21
0.0
 12
0.0
 22
0.0
 32
0.0
 14
0.0
 24
0.0
 34
0.0
 15
0.0
 25
0.0
 35
0.0
146
0.0
 13
0.0
 23
0.0
 33
0.0
 16
1.0
 26
0.0
 36
0.0
 17
0.0
 27
1.0
 37
0.0
 76
     0
330
23
  0
LAYOUT
  5
22
102
{ACAD_REACTORS
330
1A
102
}
330
1A
100
AcDbPlotSettings
  1

  2
none_device
  4

  6

 40
0.0
 41
0.0
 42
0.0
 43
0.0
 44
0.0
 45
0.0
 46
0.0
 47
0.0
 48
0.0
 49
0.0
140
0.0
141
0.0
142
1.0
143
1.0
 70
  1712
 72
     0
 73
     0
 74
     0
  7

 75
     0
 76
     0
 77
     2
 78
   300
147
1.0
148
0.0
149
0.0
100
AcDbLayout
  1
Model
 70
     1
 71
     0
 10
0.0
 20
0.0
 11
69.85
 21
53.975
 12
0.0
 22
0.0
 32
0.0
 14
1.7705357561
 24
1.5875
 34
-2.1861337526
 15
67.8094504284
 25
50.4038254735
 35
0.1
146
0.0
 13
0.0
 23
0.0
 33
0.0
 16
1.0
 26
0.0
 36
0.0
 17
0.0
 27
1.0
 37
0.0
 76
     0
330
1F
331
29
  0
MATERIAL
  5
29A
102
{ACAD_REACTORS
330
298
102
}
330
298
100
AcDbMaterial
  1
ByBlock
 72
     1
 94
      127
  0
MATERIAL
  5
299
102
{ACAD_REACTORS
330
298
102
}
330
298
100
AcDbMaterial
  1
ByLayer
 72
     1
 94
      127
  0
MATERIAL
  5
29B
102
{ACAD_REACTORS
330
298
102
}
330
298
100
AcDbMaterial
  1
Global
 72
     1
 94
      127
  0
MLINESTYLE
  5
18
102
{ACAD_REACTORS
330
17
102
}
330
17
100
AcDbMlineStyle
  2
Standard
 70
     0
  3

 62
   256
 51
90.0
 52
90.0
 71
     2
 49
0.5
 62
   256
  6
BYLAYER
 49
-0.5
 62
   256
  6
BYLAYER
  0
ACDBPLACEHOLDER
  5
F
102
{ACAD_REACTORS
330
E
102
}
330
E
  0
SCALE
  5
277
102
{ACAD_REACTORS
330
276
102
}
330
276
100
AcDbScale
 70
     0
300
1:1
140
1.0
141
1.0
290
     1
  0
SCALE
  5
278
102
{ACAD_REACTORS
330
276
102
}
330
276
100
AcDbScale
 70
     0
300
1:2
140
1.0
141
2.0
290
     0
  0
SCALE
  5
279
102
{ACAD_REACTORS
330
276
102
}
330
276
100
AcDbScale
 70
     0
300
1:4
140
1.0
141
4.0
290
     0
  0
SCALE
  5
27A
102
{ACAD_REACTORS
330
276
102
}
330
276
100
AcDbScale
 70
     0
300
1:5
140
1.0
141
5.0
290
     0
  0
SCALE
  5
27B
102
{ACAD_REACTORS
330
276
102
}
330
276
100
AcDbScale
 70
     0
300
1:8
140
1.0
141
8.0
290
     0
  0
SCALE
  5
27C
102
{ACAD_REACTORS
330
276
102
}
330
276
100
AcDbScale
 70
     0
300
1:10
140
1.0
141
10.0
290
     0
  0
SCALE
  5
27D
102
{ACAD_REACTORS
330
276
102
}
330
276
100
AcDbScale
 70
     0
300
1:16
140
1.0
141
16.0
290
     0
  0
SCALE
  5
27E
102
{ACAD_REACTORS
330
276
102
}
330
276
100
AcDbScale
 70
     0
300
1:20
140
1.0
141
20.0
290
     0
  0
SCALE
  5
27F
102
{ACAD_REACTORS
330
276
102
}
330
276
100
AcDbScale
 70
     0
300
1:30
140
1.0
141
30.0
290
     0
  0
SCALE
  5
280
102
{ACAD_REACTORS
330
276
102
}
330
276
100
AcDbScale
 70
     0
300
1:40
140
1.0
141
40.0
290
     0
  0
SCALE
  5
281
102
{ACAD_REACTORS
330
276
102
}
330
276
100
AcDbScale
 70
     0
300
1:50
140
1.0
141
50.0
290
     0
  0
SCALE
  5
282
102
{ACAD_REACTORS
330
276
102
}
330
276
100
AcDbScale
 70
     0
300
1:100
140
1.0
141
100.0
290
     0
  0
SCALE
  5
283
102
{ACAD_REACTORS
330
276
102
}
330
276
100
AcDbScale
 70
     0
300
2:1
140
2.0
141
1.0
290
     0
  0
SCALE
  5
284
102
{ACAD_REACTORS
330
276
102
}
330
276
100
AcDbScale
 70
     0
300
4:1
140
4.0
141
1.0
290
     0
  0
SCALE
  5
285
102
{ACAD_REACTORS
330
276
102
}
330
276
100
AcDbScale
 70
     0
300
8:1
140
8.0
141
1.0
290
     0
  0
SCALE
  5
286
102
{ACAD_REACTORS
330
276
102
}
330
276
100
AcDbScale
 70
     0
300
10:1
140
10.0
141
1.0
290
     0
  0
SCALE
  5
287
102
{ACAD_REACTORS
330
276
102
}
330
276
100
AcDbScale
 70
     0
300
100:1
140
100.0
141
1.0
290
     0
  0
SCALE
  5
288
102
{ACAD_REACTORS
330
276
102
}
330
276
100
AcDbScale
 70
     0
300
1/128" = 1'-0"
140
0.0078125
141
12.0
290
     0
  0
SCALE
  5
289
102
{ACAD_REACTORS
330
276
102
}
330
276
100
AcDbScale
 70
     0
300
1/64" = 1'-0"
140
0.015625
141
12.0
290
     0
  0
SCALE
  5
28A
102
{ACAD_REACTORS
330
276
102
}
330
276
100
AcDbScale
 70
     0
300
1/32" = 1'-0"
140
0.03125
141
12.0
290
     0
  0
SCALE
  5
28B
102
{ACAD_REACTORS
330
276
102
}
330
276
100
AcDbScale
 70
     0
300
1/16" = 1'-0"
140
0.0625
141
12.0
290
     0
  0
SCALE
  5
28C
102
{ACAD_REACTORS
330
276
102
}
330
276
100
AcDbScale
 70
     0
300
3/32" = 1'-0"
140
0.09375
141
12.0
290
     0
  0
SCALE
  5
28D
102
{ACAD_REACTORS
330
276
102
}
330
276
100
AcDbScale
 70
     0
300
1/8" = 1'-0"
140
0.125
141
12.0
290
     0
  0
SCALE
  5
28E
102
{ACAD_REACTORS
330
276
102
}
330
276
100
AcDbScale
 70
     0
300
3/16" = 1'-0"
140
0.1875
141
12.0
290
     0
  0
SCALE
  5
28F
102
{ACAD_REACTORS
330
276
102
}
330
276
100
AcDbScale
 70
     0
300
1/4" = 1'-0"
140
0.25
141
12.0
290
     0
  0
SCALE
  5
290
102
{ACAD_REACTORS
330
276
102
}
330
276
100
AcDbScale
 70
     0
300
3/8" = 1'-0"
140
0.375
141
12.0
290
     0
  0
SCALE
  5
291
102
{ACAD_REACTORS
330
276
102
}
330
276
100
AcDbScale
 70
     0
300
1/2" = 1'-0"
140
0.5
141
12.0
290
     0
  0
SCALE
  5
292
102
{ACAD_REACTORS
330
276
102
}
330
276
100
AcDbScale
 70
     0
300
3/4" = 1'-0"
140
0.75
141
12.0
290
     0
  0
SCALE
  5
293
102
{ACAD_REACTORS
330
276
102
}
330
276
100
AcDbScale
 70
     0
300
1" = 1'-0"
140
1.0
141
12.0
290
     0
  0
SCALE
  5
294
102
{ACAD_REACTORS
330
276
102
}
330
276
100
AcDbScale
 70
     0
300
1-1/2" = 1'-0"
140
1.5
141
12.0
290
     0
  0
SCALE
  5
295
102
{ACAD_REACTORS
330
276
102
}
330
276
100
AcDbScale
 70
     0
300
3" = 1'-0"
140
3.0
141
12.0
290
     0
  0
SCALE
  5
296
102
{ACAD_REACTORS
330
276
102
}
330
276
100
AcDbScale
 70
     0
300
6" = 1'-0"
140
6.0
141
12.0
290
     0
  0
SCALE
  5
297
102
{ACAD_REACTORS
330
276
102
}
330
276
100
AcDbScale
 70
     0
300
1'-0" = 1'-0"
140
12.0
141
12.0
290
     0
  0
TABLESTYLE
  5
2AE
102
{ACAD_REACTORS
330
2AD
102
}
102
{ACAD_XDICTIONARY
360
2B3
102
}
330
2AD
100
AcDbTableStyle
  3
Standard
 70
     0
 71
     0
 40
0.06
 41
0.06
280
     0
281
     0
  7
Standard
140
4.5
170
     2
 62
     0
 63
   257
283
     0
 90
        4
 91
        0
  1

274
    -2
284
     1
 64
     0
275
    -2
285
     1
 65
     0
276
    -2
286
     1
 66
     0
277
    -2
287
     1
 67
     0
278
    -2
288
     1
 68
     0
279
    -2
289
     1
 69
     0
  7
Standard
140
6.0
170
     5
 62
     0
 63
   257
283
     0
 90
        4
 91
        0
  1

274
    -2
284
     1
 64
     0
275
    -2
285
     1
 65
     0
276
    -2
286
     1
 66
     0
277
    -2
287
     1
 67
     0
278
    -2
288
     1
 68
     0
279
    -2
289
     1
 69
     0
  7
Standard
140
4.5
170
     5
 62
     0
 63
   257
283
     0
 90
        4
 91
        0
  1

274
    -2
284
     1
 64
     0
275
    -2
285
     1
 65
     0
276
    -2
286
     1
 66
     0
277
    -2
287
     1
 67
     0
278
    -2
288
     1
 68
     0
279
    -2
289
     1
 69
     0
  0
VISUALSTYLE
  5
2A1
102
{ACAD_REACTORS
330
29C
102
}
330
29C
100
AcDbVisualStyle
  2
2dWireframe
 70
     4
177
     2
291
     0
 71
     0
176
     1
 72
     2
176
     1
 73
     0
176
     1
 90
        0
176
     1
 40
-0.6
176
     1
 41
-30.0
176
     1
 62
     5
 63
     7
421
 16777215
176
     1
 74
     1
176
     1
 91
        4
176
     1
 64
     7
176
     1
 65
   257
176
     1
 75
     1
176
     1
175
     1
176
     1
 42
1.0
176
     1
 92
        0
176
     1
 66
   257
176
     1
 43
1.0
176
     1
 76
     1
176
     1
 77
     6
176
     1
 78
     2
176
     1
 67
     7
176
     1
 79
     5
176
     1
170
     0
176
     1
171
     0
176
     1
290
     0
176
     1
 93
        1
176
     1
 44
0.0
176
     1
173
     0
176
     1
  0
VISUALSTYLE
  5
2A3
102
{ACAD_REACTORS
330
29C
102
}
330
29C
100
AcDbVisualStyle
  2
3D Hidden
 70
     6
177
     2
291
     0
 71
     1
176
     1
 72
     2
176
     1
 73
     2
176
     1
 90
        0
176
     1
 40
-0.6
176
     1
 41
-30.0
176
     1
 62
     5
 63
     7
421
 16777215
176
     1
 74
     2
176
     1
 91
        2
176
     1
 64
     7
176
     1
 65
   257
176
     1
 75
     2
176
     1
175
     1
176
     1
 42
40.0
176
     1
 92
        0
176
     1
 66
   257
176
     1
 43
1.0
176
     1
 76
     1
176
     1
 77
     6
176
     1
 78
     2
176
     1
 67
     7
176
     1
 79
     3
176
     1
170
     0
176
     1
171
     0
176
     1
290
     0
176
     1
 93
        1
176
     1
 44
0.0
176
     1
173
     0
176
     1
  0
VISUALSTYLE
  5
2A2
102
{ACAD_REACTORS
330
29C
102
}
330
29C
100
AcDbVisualStyle
  2
3dWireframe
 70
     5
177
     2
291
     0
 71
     0
176
     1
 72
     2
176
     1
 73
     0
176
     1
 90
        0
176
     1
 40
-0.6
176
     1
 41
-30.0
176
     1
 62
     5
 63
     7
421
 16777215
176
     1
 74
     1
176
     1
 91
        4
176
     1
 64
     7
176
     1
 65
   257
176
     1
 75
     1
176
     1
175
     1
176
     1
 42
1.0
176
     1
 92
        0
176
     1
 66
   257
176
     1
 43
1.0
176
     1
 76
     1
176
     1
 77
     6
176
     1
 78
     2
176
     1
 67
     7
176
     1
 79
     5
176
     1
170
     0
176
     1
171
     0
176
     1
290
     0
176
     1
 93
        1
176
     1
 44
0.0
176
     1
173
     0
176
     1
  0
VISUALSTYLE
  5
2A4
102
{ACAD_REACTORS
330
29C
102
}
330
29C
100
AcDbVisualStyle
  2
Basic
 70
     7
177
     2
291
     1
 71
     1
176
     1
 72
     0
176
     1
 73
     1
176
     1
 90
        0
176
     1
 40
-0.6
176
     1
 41
-30.0
176
     1
 62
     5
 63
     7
421
 16777215
176
     1
 74
     0
176
     1
 91
        4
176
     1
 64
     7
176
     1
 65
   257
176
     1
 75
     1
176
     1
175
     1
176
     1
 42
1.0
176
     1
 92
        8
176
     1
 66
     7
176
     1
 43
1.0
176
     1
 76
     1
176
     1
 77
     6
176
     1
 78
     2
176
     1
 67
     7
176
     1
 79
     5
176
     1
170
     0
176
     1
171
     0
176
     1
290
     0
176
     1
 93
        1
176
     1
 44
0.0
176
     1
173
     0
176
     1
  0
VISUALSTYLE
  5
2A8
102
{ACAD_REACTORS
330
29C
102
}
330
29C
100
AcDbVisualStyle
  2
Brighten
 70
    12
177
     2
291
     1
 71
     2
176
     1
 72
     2
176
     1
 73
     0
176
     1
 90
        0
176
     1
 40
-0.6
176
     1
 41
-30.0
176
     1
 62
     5
 63
     7
421
 16777215
176
     1
 74
     1
176
     1
 91
        4
176
     1
 64
     7
176
     1
 65
   257
176
     1
 75
     1
176
     1
175
     1
176
     1
 42
1.0
176
     1
 92
        8
176
     1
 66
     7
176
     1
 43
1.0
176
     1
 76
     1
176
     1
 77
     6
176
     1
 78
     2
176
     1
 67
     7
176
     1
 79
     5
176
     1
170
     0
176
     1
171
     0
176
     1
290
     0
176
     1
 93
        1
176
     1
 44
50.0
176
     1
173
     0
176
     1
  0
VISUALSTYLE
  5
2AC
102
{ACAD_REACTORS
330
29C
102
}
330
29C
100
AcDbVisualStyle
  2
ColorChange
 70
    16
177
     2
291
     1
 71
     2
176
     1
 72
     2
176
     1
 73
     3
176
     1
 90
        0
176
     1
 40
-0.6
176
     1
 41
-30.0
176
     1
 62
     5
 63
     8
421
  8421504
176
     1
 74
     1
176
     1
 91
        4
176
     1
 64
     7
176
     1
 65
   257
176
     1
 75
     1
176
     1
175
     1
176
     1
 42
1.0
176
     1
 92
        8
176
     1
 66
     8
424
  8421504
176
     1
 43
1.0
176
     1
 76
     1
176
     1
 77
     6
176
     1
 78
     2
176
     1
 67
     7
176
     1
 79
     5
176
     1
170
     0
176
     1
171
     0
176
     1
290
     0
176
     1
 93
        1
176
     1
 44
0.0
176
     1
173
     0
176
     1
  0
VISUALSTYLE
  5
2A6
102
{ACAD_REACTORS
330
29C
102
}
330
29C
100
AcDbVisualStyle
  2
Conceptual
 70
     9
177
     2
291
     0
 71
     3
176
     1
 72
     2
176
     1
 73
     0
176
     1
 90
        0
176
     1
 40
-0.6
176
     1
 41
-30.0
176
     1
 62
     5
 63
     7
421
 16777215
176
     1
 74
     2
176
     1
 91
        2
176
     1
 64
     7
176
     1
 65
   257
176
     1
 75
     1
176
     1
175
     1
176
     1
 42
40.0
176
     1
 92
        8
176
     1
 66
     7
176
     1
 43
1.0
176
     1
 76
     1
176
     1
 77
     6
176
     1
 78
     2
176
     1
 67
     7
176
     1
 79
     3
176
     1
170
     0
176
     1
171
     0
176
     1
290
     0
176
     1
 93
        1
176
     1
 44
0.0
176
     1
173
     0
176
     1
  0
VISUALSTYLE
  5
2A7
102
{ACAD_REACTORS
330
29C
102
}
330
29C
100
AcDbVisualStyle
  2
Dim
 70
    11
177
     2
291
     1
 71
     2
176
     1
 72
     2
176
     1
 73
     0
176
     1
 90
        0
176
     1
 40
-0.6
176
     1
 41
-30.0
176
     1
 62
     5
 63
     7
421
 16777215
176
     1
 74
     1
176
     1
 91
        4
176
     1
 64
     7
176
     1
 65
   257
176
     1
 75
     1
176
     1
175
     1
176
     1
 42
1.0
176
     1
 92
        8
176
     1
 66
     7
176
     1
 43
1.0
176
     1
 76
     1
176
     1
 77
     6
176
     1
 78
     2
176
     1
 67
     7
176
     1
 79
     5
176
     1
170
     0
176
     1
171
     0
176
     1
290
     0
176
     1
 93
        1
176
     1
 44
-50.0
176
     1
173
     0
176
     1
  0
VISUALSTYLE
  5
2AB
102
{ACAD_REACTORS
330
29C
102
}
330
29C
100
AcDbVisualStyle
  2
Facepattern
 70
    15
177
     2
291
     1
 71
     2
176
     1
 72
     2
176
     1
 73
     0
176
     1
 90
        0
176
     1
 40
-0.6
176
     1
 41
-30.0
176
     1
 62
     5
 63
     7
421
 16777215
176
     1
 74
     1
176
     1
 91
        4
176
     1
 64
     7
176
     1
 65
   257
176
     1
 75
     1
176
     1
175
     1
176
     1
 42
1.0
176
     1
 92
        8
176
     1
 66
     7
176
     1
 43
1.0
176
     1
 76
     1
176
     1
 77
     6
176
     1
 78
     2
176
     1
 67
     7
176
     1
 79
     5
176
     1
170
     0
176
     1
171
     0
176
     1
290
     0
176
     1
 93
        1
176
     1
 44
0.0
176
     1
173
     0
176
     1
  0
VISUALSTYLE
  5
29D
102
{ACAD_REACTORS
330
29C
102
}
330
29C
100
AcDbVisualStyle
  2
Flat
 70
     0
177
     2
291
     1
 71
     2
176
     1
 72
     1
176
     1
 73
     1
176
     1
 90
        2
176
     1
 40
-0.6
176
     1
 41
30.0
176
     1
 62
     5
 63
     7
421
 16777215
176
     1
 74
     0
176
     1
 91
        4
176
     1
 64
     7
176
     1
 65
   257
176
     1
 75
     1
176
     1
175
     1
176
     1
 42
1.0
176
     1
 92
        8
176
     1
 66
     7
176
     1
 43
1.0
176
     1
 76
     1
176
     1
 77
     6
176
     1
 78
     2
176
     1
 67
     7
176
     1
 79
     5
176
     1
170
     0
176
     1
171
     0
176
     1
290
     0
176
     1
 93
       13
176
     1
 44
0.0
176
     1
173
     0
176
     1
  0
VISUALSTYLE
  5
29E
102
{ACAD_REACTORS
330
29C
102
}
330
29C
100
AcDbVisualStyle
  2
FlatWithEdges
 70
     1
177
     2
291
     1
 71
     2
176
     1
 72
     1
176
     1
 73
     1
176
     1
 90
        2
176
     1
 40
-0.6
176
     1
 41
30.0
176
     1
 62
     5
 63
     7
421
 16777215
176
     1
 74
     1
176
     1
 91
        4
176
     1
 64
     7
176
     1
 65
   257
176
     1
 75
     1
176
     1
175
     1
176
     1
 42
1.0
176
     1
 92
        0
176
     1
 66
   257
176
     1
 43
1.0
176
     1
 76
     1
176
     1
 77
     6
176
     1
 78
     2
176
     1
 67
     7
176
     1
 79
     5
176
     1
170
     0
176
     1
171
     0
176
     1
290
     0
176
     1
 93
       13
176
     1
 44
0.0
176
     1
173
     0
176
     1
  0
VISUALSTYLE
  5
29F
102
{ACAD_REACTORS
330
29C
102
}
330
29C
100
AcDbVisualStyle
  2
Gouraud
 70
     2
177
     2
291
     1
 71
     2
176
     1
 72
     2
176
     1
 73
     1
176
     1
 90
        2
176
     1
 40
-0.6
176
     1
 41
30.0
176
     1
 62
     5
 63
     7
421
 16777215
176
     1
 74
     0
176
     1
 91
        4
176
     1
 64
     7
176
     1
 65
   257
176
     1
 75
     1
176
     1
175
     1
176
     1
 42
1.0
176
     1
 92
        0
176
     1
 66
     7
176
     1
 43
1.0
176
     1
 76
     1
176
     1
 77
     6
176
     1
 78
     2
176
     1
 67
     7
176
     1
 79
     5
176
     1
170
     0
176
     1
171
     0
176
     1
290
     0
176
     1
 93
       13
176
     1
 44
0.0
176
     1
173
     0
176
     1
  0
VISUALSTYLE
  5
2A0
102
{ACAD_REACTORS
330
29C
102
}
330
29C
100
AcDbVisualStyle
  2
GouraudWithEdges
 70
     3
177
     2
291
     1
 71
     2
176
     1
 72
     2
176
     1
 73
     1
176
     1
 90
        2
176
     1
 40
-0.6
176
     1
 41
30.0
176
     1
 62
     5
 63
     7
421
 16777215
176
     1
 74
     1
176
     1
 91
        4
176
     1
 64
     7
176
     1
 65
   257
176
     1
 75
     1
176
     1
175
     1
176
     1
 42
1.0
176
     1
 92
        0
176
     1
 66
   257
176
     1
 43
1.0
176
     1
 76
     1
176
     1
 77
     6
176
     1
 78
     2
176
     1
 67
     7
176
     1
 79
     5
176
     1
170
     0
176
     1
171
     0
176
     1
290
     0
176
     1
 93
       13
176
     1
 44
0.0
176
     1
173
     0
176
     1
  0
VISUALSTYLE
  5
2AA
102
{ACAD_REACTORS
330
29C
102
}
330
29C
100
AcDbVisualStyle
  2
Linepattern
 70
    14
177
     2
291
     1
 71
     2
176
     1
 72
     2
176
     1
 73
     0
176
     1
 90
        0
176
     1
 40
-0.6
176
     1
 41
-30.0
176
     1
 62
     5
 63
     7
421
 16777215
176
     1
 74
     1
176
     1
 91
        4
176
     1
 64
     7
176
     1
 65
   257
176
     1
 75
     7
176
     1
175
     7
176
     1
 42
1.0
176
     1
 92
        8
176
     1
 66
     7
176
     1
 43
1.0
176
     1
 76
     1
176
     1
 77
     6
176
     1
 78
     2
176
     1
 67
     7
176
     1
 79
     5
176
     1
170
     0
176
     1
171
     0
176
     1
290
     0
176
     1
 93
        1
176
     1
 44
0.0
176
     1
173
     0
176
     1
  0
VISUALSTYLE
  5
2A5
102
{ACAD_REACTORS
330
29C
102
}
330
29C
100
AcDbVisualStyle
  2
Realistic
 70
     8
177
     2
291
     0
 71
     2
176
     1
 72
     2
176
     1
 73
     0
176
     1
 90
        0
176
     1
 40
-0.6
176
     1
 41
-30.0
176
     1
 62
     5
 63
     7
421
 16777215
176
     1
 74
     1
176
     1
 91
        0
176
     1
 64
     7
176
     1
 65
   257
176
     1
 75
     1
176
     1
175
     1
176
     1
 42
1.0
176
     1
 92
        8
176
     1
 66
     8
424
  7895160
176
     1
 43
1.0
176
     1
 76
     1
176
     1
 77
     6
176
     1
 78
     2
176
     1
 67
     7
176
     1
 79
     5
176
     1
170
     0
176
     1
171
     0
176
     1
290
     0
176
     1
 93
       13
176
     1
 44
0.0
176
     1
173
     0
176
     1
  0
VISUALSTYLE
  5
2A9
102
{ACAD_REACTORS
330
29C
102
}
330
29C
100
AcDbVisualStyle
  2
Thicken
 70
    13
177
     2
291
     1
 71
     2
176
     1
 72
     2
176
     1
 73
     0
176
     1
 90
        0
176
     1
 40
-0.6
176
     1
 41
-30.0
176
     1
 62
     5
 63
     7
421
 16777215
176
     1
 74
     1
176
     1
 91
        4
176
     1
 64
     7
176
     1
 65
   257
176
     1
 75
     1
176
     1
175
     1
176
     1
 42
1.0
176
     1
 92
       12
176
     1
 66
     7
176
     1
 43
1.0
176
     1
 76
     1
176
     1
 77
     6
176
     1
 78
     2
176
     1
 67
     7
176
     1
 79
     5
176
     1
170
     0
176
     1
171
     0
176
     1
290
     0
176
     1
 93
        1
176
     1
 44
0.0
176
     1
173
     0
176
     1
  0
DICTIONARYVAR
  5
2B2
102
{ACAD_REACTORS
330
2B1
102
}
330
2B1
100
DictionaryVariables
280
     0
  1
1:1
  0
DICTIONARYVAR
  5
2B6
102
{ACAD_REACTORS
330
2B1
102
}
330
2B1
100
DictionaryVariables
280
     0
  1
Standard
  0
DICTIONARY
  5
2B3
330
2AE
100
AcDbDictionary
280
     1
281
     1
  3
ACAD_ROUNDTRIP_2008_TABLESTYLE_CELLSTYLEMAP
360
2B4
  0
CELLSTYLEMAP
  5
2B4
102
{ACAD_REACTORS
330
2B3
102
}
330
2B3
100
AcDbCellStyleMap
 90
        3
300
CELLSTYLE
  1
TABLEFORMAT_BEGIN
 90
        5
170
     1
 91
        0
 92
        0
 62
   257
 93
        1
300
CONTENTFORMAT
  1
CONTENTFORMAT_BEGIN
 90
        0
 91
        0
 92
        4
 93
        0
300

 40
0.0
140
1.0
 94
        5
 62
     0
340
11
144
6.0
309
CONTENTFORMAT_END
171
     1
301
MARGIN
  1
CELLMARGIN_BEGIN
 40
1.5
 40
1.5
 40
1.5
 40
1.5
 40
1.5
 40
1.5
309
CELLMARGIN_END
 94
        6
 95
        1
302
GRIDFORMAT
  1
GRIDFORMAT_BEGIN
 90
        0
 91
        1
 62
     0
 92
       -2
340
14
 93
        0
 40
0.045
309
GRIDFORMAT_END
 95
        2
302
GRIDFORMAT
  1
GRIDFORMAT_BEGIN
 90
        0
 91
        1
 62
     0
 92
       -2
340
14
 93
        0
 40
0.045
309
GRIDFORMAT_END
 95
        4
302
GRIDFORMAT
  1
GRIDFORMAT_BEGIN
 90
        0
 91
        1
 62
     0
 92
       -2
340
14
 93
        0
 40
0.045
309
GRIDFORMAT_END
 95
        8
302
GRIDFORMAT
  1
GRIDFORMAT_BEGIN
 90
        0
 91
        1
 62
     0
 92
       -2
340
14
 93
        0
 40
0.045
309
GRIDFORMAT_END
 95
       16
302
GRIDFORMAT
  1
GRIDFORMAT_BEGIN
 90
        0
 91
        1
 62
     0
 92
       -2
340
14
 93
        0
 40
0.045
309
GRIDFORMAT_END
 95
       32
302
GRIDFORMAT
  1
GRIDFORMAT_BEGIN
 90
        0
 91
        1
 62
     0
 92
       -2
340
14
 93
        0
 40
0.045
309
GRIDFORMAT_END
309
TABLEFORMAT_END
  1
CELLSTYLE_BEGIN
 90
        1
 91
        1
300
_TITLE
309
CELLSTYLE_END
300
CELLSTYLE
  1
TABLEFORMAT_BEGIN
 90
        5
170
     1
 91
        0
 92
        0
 62
   257
 93
        1
300
CONTENTFORMAT
  1
CONTENTFORMAT_BEGIN
 90
        0
 91
        0
 92
        4
 93
        0
300

 40
0.0
140
1.0
 94
        5
 62
     0
340
11
144
4.5
309
CONTENTFORMAT_END
171
     1
301
MARGIN
  1
CELLMARGIN_BEGIN
 40
1.5
 40
1.5
 40
1.5
 40
1.5
 40
1.5
 40
1.5
309
CELLMARGIN_END
 94
        6
 95
        1
302
GRIDFORMAT
  1
GRIDFORMAT_BEGIN
 90
        0
 91
        1
 62
     0
 92
       -2
340
14
 93
        0
 40
0.045
309
GRIDFORMAT_END
 95
        2
302
GRIDFORMAT
  1
GRIDFORMAT_BEGIN
 90
        0
 91
        1
 62
     0
 92
       -2
340
14
 93
        0
 40
0.045
309
GRIDFORMAT_END
 95
        4
302
GRIDFORMAT
  1
GRIDFORMAT_BEGIN
 90
        0
 91
        1
 62
     0
 92
       -2
340
14
 93
        0
 40
0.045
309
GRIDFORMAT_END
 95
        8
302
GRIDFORMAT
  1
GRIDFORMAT_BEGIN
 90
        0
 91
        1
 62
     0
 92
       -2
340
14
 93
        0
 40
0.045
309
GRIDFORMAT_END
 95
       16
302
GRIDFORMAT
  1
GRIDFORMAT_BEGIN
 90
        0
 91
        1
 62
     0
 92
       -2
340
14
 93
        0
 40
0.045
309
GRIDFORMAT_END
 95
       32
302
GRIDFORMAT
  1
GRIDFORMAT_BEGIN
 90
        0
 91
        1
 62
     0
 92
       -2
340
14
 93
        0
 40
0.045
309
GRIDFORMAT_END
309
TABLEFORMAT_END
  1
CELLSTYLE_BEGIN
 90
        2
 91
        1
300
_HEADER
309
CELLSTYLE_END
300
CELLSTYLE
  1
TABLEFORMAT_BEGIN
 90
        5
170
     1
 91
        0
 92
        0
 62
   257
 93
        1
300
CONTENTFORMAT
  1
CONTENTFORMAT_BEGIN
 90
        0
 91
        0
 92
        4
 93
        0
300

 40
0.0
140
1.0
 94
        2
 62
     0
340
11
144
4.5
309
CONTENTFORMAT_END
171
     1
301
MARGIN
  1
CELLMARGIN_BEGIN
 40
1.5
 40
1.5
 40
1.5
 40
1.5
 40
1.5
 40
1.5
309
CELLMARGIN_END
 94
        6
 95
        1
302
GRIDFORMAT
  1
GRIDFORMAT_BEGIN
 90
        0
 91
        1
 62
     0
 92
       -2
340
14
 93
        0
 40
0.045
309
GRIDFORMAT_END
 95
        2
302
GRIDFORMAT
  1
GRIDFORMAT_BEGIN
 90
        0
 91
        1
 62
     0
 92
       -2
340
14
 93
        0
 40
0.045
309
GRIDFORMAT_END
 95
        4
302
GRIDFORMAT
  1
GRIDFORMAT_BEGIN
 90
        0
 91
        1
 62
     0
 92
       -2
340
14
 93
        0
 40
0.045
309
GRIDFORMAT_END
 95
        8
302
GRIDFORMAT
  1
GRIDFORMAT_BEGIN
 90
        0
 91
        1
 62
     0
 92
       -2
340
14
 93
        0
 40
0.045
309
GRIDFORMAT_END
 95
       16
302
GRIDFORMAT
  1
GRIDFORMAT_BEGIN
 90
        0
 91
        1
 62
     0
 92
       -2
340
14
 93
        0
 40
0.045
309
GRIDFORMAT_END
 95
       32
302
GRIDFORMAT
  1
GRIDFORMAT_BEGIN
 90
        0
 91
        1
 62
     0
 92
       -2
340
14
 93
        0
 40
0.045
309
GRIDFORMAT_END
309
TABLEFORMAT_END
  1
CELLSTYLE_BEGIN
 90
        3
 91
        2
300
_DATA
309
CELLSTYLE_END
  0
ENDSEC
  0
EOF
