  0
SECTION
  2
HEADER
  9
$ACADVER
  1
AC1024
  9
$ACADMAINTVER
 70
     6
  9
$DWGCODEPAGE
  3
ANSI_1252
  9
$LASTSAVEDBY
  1
sueh
  9
$INSBASE
 10
0.0
 20
0.0
 30
0.0
  9
$EXTMIN
 10
1.4902932989
 20
1.081338690919706
 30
0.0
  9
$EXTMAX
 10
45.1738089639
 20
34.02049117449999
 30
0.11
  9
$LIMMIN
 10
0.0
 20
0.0
  9
$LIMMAX
 10
46.5666666667
 20
35.9833333333
  9
$ORTHOMODE
 70
     0
  9
$REGENMODE
 70
     1
  9
$FILLMODE
 70
     1
  9
$QTEXTMODE
 70
     0
  9
$MIRRTEXT
 70
     1
  9
$LTSCALE
 40
0.1666666667
  9
$ATTMODE
 70
     1
  9
$TEXTSIZE
 40
0.5291666667
  9
$TRACEWID
 40
1.0
  9
$TEXTSTYLE
  7
Standard
  9
$CLAYER
  8
0
  9
$CELTYPE
  6
ByLayer
  9
$CECOLOR
 62
   256
  9
$CELTSCALE
 40
1.0
  9
$DISPSILH
 70
     0
  9
$DIMSCALE
 40
1.0
  9
$DIMASZ
 40
0.5503333333
  9
$DIMEXO
 40
0.2116666667
  9
$DIMDLI
 40
3.75
  9
$DIMRND
 40
0.0
  9
$DIMDLE
 40
0.0
  9
$DIMEXE
 40
0.5291666667
  9
$DIMTP
 40
0.0
  9
$DIMTM
 40
0.0
  9
$DIMTXT
 40
0.5291666667
  9
$DIMCEN
 40
2.5
  9
$DIMTSZ
 40
0.0
  9
$DIMTOL
 70
     0
  9
$DIMLIM
 70
     0
  9
$DIMTIH
 70
     1
  9
$DIMTOH
 70
     1
  9
$DIMSE1
 70
     0
  9
$DIMSE2
 70
     0
  9
$DIMTAD
 70
     0
  9
$DIMZIN
 70
     1
  9
$DIMBLK
  1

  9
$DIMASO
 70
     1
  9
$DIMSHO
 70
     1
  9
$DIMPOST
  1

  9
$DIMAPOST
  1

  9
$DIMALT
 70
     0
  9
$DIMALTD
 70
     3
  9
$DIMALTF
 40
0.0393700787
  9
$DIMLFAC
 40
1.0
  9
$DIMTOFL
 70
     1
  9
$DIMTVP
 40
0.0
  9
$DIMTIX
 70
     0
  9
$DIMSOXD
 70
     0
  9
$DIMSAH
 70
     0
  9
$DIMBLK1
  1

  9
$DIMBLK2
  1

  9
$DIMSTYLE
  2
ISO-25
  9
$DIMCLRD
 70
     0
  9
$DIMCLRE
 70
     0
  9
$DIMCLRT
 70
     0
  9
$DIMTFAC
 40
1.0
  9
$DIMGAP
 40
0.254
  9
$DIMJUST
 70
     0
  9
$DIMSD1
 70
     0
  9
$DIMSD2
 70
     0
  9
$DIMTOLJ
 70
     0
  9
$DIMTZIN
 70
     1
  9
$DIMALTZ
 70
     0
  9
$DIMALTTZ
 70
     0
  9
$DIMUPT
 70
     0
  9
$DIMDEC
 70
     4
  9
$DIMTDEC
 70
     4
  9
$DIMALTU
 70
     2
  9
$DIMALTTD
 70
     3
  9
$DIMTXSTY
  7
Standard
  9
$DIMAUNIT
 70
     0
  9
$DIMADEC
 70
     0
  9
$DIMALTRND
 40
0.0
  9
$DIMAZIN
 70
     0
  9
$DIMDSEP
 70
    44
  9
$DIMATFIT
 70
     3
  9
$DIMFRAC
 70
     0
  9
$DIMLDRBLK
  1

  9
$DIMLUNIT
 70
     2
  9
$DIMLWD
 70
    -2
  9
$DIMLWE
 70
    -2
  9
$DIMTMOVE
 70
     0
  9
$DIMFXL
 40
1.0
  9
$DIMFXLON
 70
     0
  9
$DIMJOGANG
 40
0.7853981633974483
  9
$DIMTFILL
 70
     0
  9
$DIMTFILLCLR
 70
     0
  9
$DIMARCSYM
 70
     0
  9
$DIMLTYPE
  6

  9
$DIMLTEX1
  6

  9
$DIMLTEX2
  6

  9
$DIMTXTDIRECTION
 70
     0
  9
$LUNITS
 70
     2
  9
$LUPREC
 70
     4
  9
$SKETCHINC
 40
1.0
  9
$FILLETRAD
 40
10.0
  9
$AUNITS
 70
     0
  9
$AUPREC
 70
     0
  9
$MENU
  1
.
  9
$ELEVATION
 40
0.0
  9
$PELEVATION
 40
0.0
  9
$THICKNESS
 40
0.0
  9
$LIMCHECK
 70
     0
  9
$CHAMFERA
 40
10.0
  9
$CHAMFERB
 40
10.0
  9
$CHAMFERC
 40
20.0
  9
$CHAMFERD
 40
0.0
  9
$SKPOLY
 70
     0
  9
$TDCREATE
 40
2456248.650817083
  9
$TDUCREATE
 40
2456248.900817083
  9
$TDUPDATE
 40
2456248.653650891
  9
$TDUUPDATE
 40
2456248.903650891
  9
$TDINDWG
 40
0.0000000116
  9
$TDUSRTIMER
 40
2456248.9030564
  9
$USRTIMER
 70
     1
  9
$ANGBASE
 50
0.0
  9
$ANGDIR
 70
     0
  9
$PDMODE
 70
     0
  9
$PDSIZE
 40
-1.0
  9
$PLINEWID
 40
0.0
  9
$SPLFRAME
 70
     0
  9
$SPLINETYPE
 70
     6
  9
$SPLINESEGS
 70
     8
  9
$HANDSEED
  5
29B
  9
$SURFTAB1
 70
     6
  9
$SURFTAB2
 70
     6
  9
$SURFTYPE
 70
     6
  9
$SURFU
 70
     6
  9
$SURFV
 70
     6
  9
$UCSBASE
  2

  9
$UCSNAME
  2

  9
$UCSORG
 10
0.0
 20
0.0
 30
0.0
  9
$UCSXDIR
 10
1.0
 20
0.0
 30
0.0
  9
$UCSYDIR
 10
0.0
 20
1.0
 30
0.0
  9
$UCSORTHOREF
  2

  9
$UCSORTHOVIEW
 70
     0
  9
$UCSORGTOP
 10
0.0
 20
0.0
 30
0.0
  9
$UCSORGBOTTOM
 10
0.0
 20
0.0
 30
0.0
  9
$UCSORGLEFT
 10
0.0
 20
0.0
 30
0.0
  9
$UCSORGRIGHT
 10
0.0
 20
0.0
 30
0.0
  9
$UCSORGFRONT
 10
0.0
 20
0.0
 30
0.0
  9
$UCSORGBACK
 10
0.0
 20
0.0
 30
0.0
  9
$PUCSBASE
  2

  9
$PUCSNAME
  2

  9
$PUCSORG
 10
0.0
 20
0.0
 30
0.0
  9
$PUCSXDIR
 10
1.0
 20
0.0
 30
0.0
  9
$PUCSYDIR
 10
0.0
 20
1.0
 30
0.0
  9
$PUCSORTHOREF
  2

  9
$PUCSORTHOVIEW
 70
     0
  9
$PUCSORGTOP
 10
0.0
 20
0.0
 30
0.0
  9
$PUCSORGBOTTOM
 10
0.0
 20
0.0
 30
0.0
  9
$PUCSORGLEFT
 10
0.0
 20
0.0
 30
0.0
  9
$PUCSORGRIGHT
 10
0.0
 20
0.0
 30
0.0
  9
$PUCSORGFRONT
 10
0.0
 20
0.0
 30
0.0
  9
$PUCSORGBACK
 10
0.0
 20
0.0
 30
0.0
  9
$USERI1
 70
     0
  9
$USERI2
 70
     0
  9
$USERI3
 70
     0
  9
$USERI4
 70
     0
  9
$USERI5
 70
     0
  9
$USERR1
 40
0.0
  9
$USERR2
 40
0.0
  9
$USERR3
 40
0.0
  9
$USERR4
 40
0.0
  9
$USERR5
 40
0.0
  9
$WORLDVIEW
 70
     1
  9
$SHADEDGE
 70
     3
  9
$SHADEDIF
 70
    70
  9
$TILEMODE
 70
     1
  9
$MAXACTVP
 70
    64
  9
$PINSBASE
 10
0.0
 20
0.0
 30
0.0
  9
$PLIMCHECK
 70
     0
  9
$PEXTMIN
 10
1.000000000000000E+20
 20
1.000000000000000E+20
 30
1.000000000000000E+20
  9
$PEXTMAX
 10
-1.000000000000000E+20
 20
-1.000000000000000E+20
 30
-1.000000000000000E+20
  9
$PLIMMIN
 10
0.0
 20
0.0
  9
$PLIMMAX
 10
0.0
 20
0.0
  9
$UNITMODE
 70
     0
  9
$VISRETAIN
 70
     1
  9
$PLINEGEN
 70
     0
  9
$PSLTSCALE
 70
     1
  9
$TREEDEPTH
 70
  3020
  9
$CMLSTYLE
  2
Standard
  9
$CMLJUST
 70
     0
  9
$CMLSCALE
 40
20.0
  9
$PROXYGRAPHICS
 70
     1
  9
$MEASUREMENT
 70
     1
  9
$CELWEIGHT
370
    -1
  9
$ENDCAPS
280
     0
  9
$JOINSTYLE
280
     0
  9
$LWDISPLAY
290
     1
  9
$INSUNITS
 70
     4
  9
$HYPERLINKBASE
  1

  9
$STYLESHEET
  1

  9
$XEDIT
290
     1
  9
$CEPSNTYPE
380
     0
  9
$PSTYLEMODE
290
     1
  9
$FINGERPRINTGUID
  2
{635D348E-F6F6-4947-A6FD-BEDFA4768B38}
  9
$VERSIONGUID
  2
{FAEB1C32-E019-11D5-929B-00C0DF256EC4}
  9
$EXTNAMES
290
     1
  9
$PSVPSCALE
 40
0.0
  9
$OLESTARTUP
290
     0
  9
$SORTENTS
280
   127
  9
$INDEXCTL
280
     0
  9
$HIDETEXT
280
     1
  9
$XCLIPFRAME
280
     2
  9
$HALOGAP
280
     0
  9
$OBSCOLOR
 70
   257
  9
$OBSLTYPE
280
     0
  9
$INTERSECTIONDISPLAY
280
     0
  9
$INTERSECTIONCOLOR
 70
   257
  9
$DIMASSOC
280
     2
  9
$PROJECTNAME
  1

  9
$CAMERADISPLAY
290
     0
  9
$LENSLENGTH
 40
50.0
  9
$CAMERAHEIGHT
 40
0.0
  9
$STEPSPERSEC
 40
2.0
  9
$STEPSIZE
 40
6.0
  9
$3DDWFPREC
 40
2.0
  9
$PSOLWIDTH
 40
0.25
  9
$PSOLHEIGHT
 40
4.0
  9
$LOFTANG1
 40
1.570796326794897
  9
$LOFTANG2
 40
1.570796326794897
  9
$LOFTMAG1
 40
0.0
  9
$LOFTMAG2
 40
0.0
  9
$LOFTPARAM
 70
     7
  9
$LOFTNORMALS
280
     1
  9
$LATITUDE
 40
37.795
  9
$LONGITUDE
 40
-122.394
  9
$NORTHDIRECTION
 40
0.0
  9
$TIMEZONE
 70
 -8000
  9
$LIGHTGLYPHDISPLAY
280
     1
  9
$TILEMODELIGHTSYNCH
280
     1
  9
$SOLIDHIST
280
     1
  9
$SHOWHIST
280
     1
  9
$DWFFRAME
280
     2
  9
$DGNFRAME
280
     2
  9
$REALWORLDSCALE
290
     1
  9
$INTERFERECOLOR
 62
   256
  9
$CSHADOW
280
     0
  9
$SHADOWPLANELOCATION
 40
0.0
  0
ENDSEC
  0
SECTION
  2
CLASSES
  0
CLASS
  1
ACDBDICTIONARYWDFLT
  2
AcDbDictionaryWithDefault
  3
ObjectDBX Classes
 90
        0
 91
        5
280
     0
281
     0
  0
CLASS
  1
VISUALSTYLE
  2
AcDbVisualStyle
  3
ObjectDBX Classes
 90
     4095
 91
        5
280
     0
281
     0
  0
CLASS
  1
MATERIAL
  2
AcDbMaterial
  3
ObjectDBX Classes
 90
     1153
 91
        5
280
     0
281
     0
  0
CLASS
  1
ACDBPLACEHOLDER
  2
AcDbPlaceHolder
  3
ObjectDBX Classes
 90
        0
 91
        1
280
     0
281
     0
  0
CLASS
  1
LAYOUT
  2
AcDbLayout
  3
ObjectDBX Classes
 90
        0
 91
        1
280
     0
281
     0
  0
CLASS
  1
SCALE
  2
AcDbScale
  3
ObjectDBX Classes
 90
     1153
 91
        5
280
     0
281
     0
  0
CLASS
  1
TABLESTYLE
  2
AcDbTableStyle
  3
ObjectDBX Classes
 90
     4095
 91
        5
280
     0
281
     0
  0
CLASS
  1
RASTERVARIABLES
  2
AcDbRasterVariables
  3
ISM
 90
        0
 91
        5
280
     0
281
     0
  0
CLASS
  1
DICTIONARYVAR
  2
AcDbDictionaryVar
  3
ObjectDBX Classes
 90
        0
 91
        5
280
     0
281
     0
  0
CLASS
  1
CELLSTYLEMAP
  2
AcDbCellStyleMap
  3
ObjectDBX Classes
 90
     1152
 91
        5
280
     0
281
     0
  0
ENDSEC
  0
SECTION
  2
TABLES
  0
TABLE
  2
VPORT
  5
8
330
0
100
AcDbSymbolTable
 70
     1
  0
VPORT
  5
29
330
8
100
AcDbSymbolTableRecord
100
AcDbViewportTableRecord
  2
*Active
 70
     0
 10
0.0
 20
0.0
 11
1.0
 21
1.0
 12
27.57373688504617
 22
16.82241908480529
 13
0.0
 23
0.0
 14
10.0
 24
10.0
 15
10.0
 25
10.0
 16
0.0
 26
0.0
 36
1.0
 17
0.0
 27
0.0
 37
0.0
 40
35.9833333333
 41
1.92603550295858
 42
50.0
 43
0.0
 44
0.0
 50
0.0
 51
0.0
 71
    16
 72
  2000
 73
     1
 74
     3
 75
     0
 76
     0
 77
     0
 78
     0
281
     0
 65
     1
110
0.0
120
0.0
130
0.0
111
1.0
121
0.0
131
0.0
112
0.0
122
1.0
132
0.0
 79
     0
146
0.0
 60
     3
 61
     5
292
     1
282
     1
141
0.0
142
0.0
 63
   256
  0
ENDTAB
  0
TABLE
  2
LTYPE
  5
5
330
0
100
AcDbSymbolTable
 70
     6
  0
LTYPE
  5
14
330
5
100
AcDbSymbolTableRecord
100
AcDbLinetypeTableRecord
  2
ByBlock
 70
     0
  3

 72
    65
 73
     0
 40
0.0
  0
LTYPE
  5
15
330
5
100
AcDbSymbolTableRecord
100
AcDbLinetypeTableRecord
  2
ByLayer
 70
     0
  3

 72
    65
 73
     0
 40
0.0
  0
LTYPE
  5
16
330
5
100
AcDbSymbolTableRecord
100
AcDbLinetypeTableRecord
  2
Continuous
 70
     0
  3
Solid line
 72
    65
 73
     0
 40
0.0
  0
LTYPE
  5
3F
330
5
100
AcDbSymbolTableRecord
100
AcDbLinetypeTableRecord
  2
HIDDEN
 70
     0
  3
Hidden __ __ __ __ __ __ __ __ __ __ __ __ __ __
 72
    65
 73
     2
 40
1.905
 49
1.27
 74
     0
 49
-0.635
 74
     0
  0
LTYPE
  5
40
330
5
100
AcDbSymbolTableRecord
100
AcDbLinetypeTableRecord
  2
PHANTOM
 70
     0
  3
Phantom ______  __  __  ______  __  __  ______
 72
    65
 73
     6
 40
12.7
 49
6.35
 74
     0
 49
-1.27
 74
     0
 49
1.27
 74
     0
 49
-1.27
 74
     0
 49
1.27
 74
     0
 49
-1.27
 74
     0
  0
LTYPE
  5
41
330
5
100
AcDbSymbolTableRecord
100
AcDbLinetypeTableRecord
  2
CENTER
 70
     0
  3
Center ____ _ ____ _ ____ _ ____ _ ____ _ ____
 72
    65
 73
     4
 40
10.16
 49
6.35
 74
     0
 49
-1.27
 74
     0
 49
1.27
 74
     0
 49
-1.27
 74
     0
  0
LTYPE
  5
42
330
5
100
AcDbSymbolTableRecord
100
AcDbLinetypeTableRecord
  2
CENTERX2
 70
     0
  3
Center (2x) ________  __  ________  __  _____
 72
    65
 73
     4
 40
20.32
 49
12.7
 74
     0
 49
-2.54
 74
     0
 49
2.54
 74
     0
 49
-2.54
 74
     0
  0
LTYPE
  5
43
330
5
100
AcDbSymbolTableRecord
100
AcDbLinetypeTableRecord
  2
DOT2
 70
     0
  3
Dot (.5x) ........................................
 72
    65
 73
     2
 40
0.635
 49
0.0
 74
     0
 49
-0.635
 74
     0
  0
ENDTAB
  0
TABLE
  2
LAYER
  5
2
330
0
100
AcDbSymbolTable
 70
     6
  0
LAYER
  5
10
330
2
100
AcDbSymbolTableRecord
100
AcDbLayerTableRecord
  2
0
 70
     0
 62
     7
  6
Continuous
370
    -3
390
F
347
27E
  0
LAYER
  5
44
330
2
100
AcDbSymbolTableRecord
100
AcDbLayerTableRecord
  2
FORMAT
 70
     0
 62
     7
  6
Continuous
370
    -3
390
F
347
27E
  0
LAYER
  5
45
330
2
100
AcDbSymbolTableRecord
100
AcDbLayerTableRecord
  2
NONE
 70
     0
 62
   179
  6
Continuous
370
    -3
390
F
347
27E
  0
LAYER
  5
46
330
2
100
AcDbSymbolTableRecord
100
AcDbLayerTableRecord
  2
DIMENSION
 70
     0
 62
   179
  6
Continuous
370
    -3
390
F
347
27E
  0
LAYER
  5
47
330
2
100
AcDbSymbolTableRecord
100
AcDbLayerTableRecord
  2
PAGE_FRAME
 70
     0
 62
   179
  6
Continuous
370
    -3
390
F
347
27E
  0
LAYER
  5
48
330
2
100
AcDbSymbolTableRecord
100
AcDbLayerTableRecord
  2
LAYOUT
 70
     0
 62
   179
  6
Continuous
370
    -3
390
F
347
27E
  0
ENDTAB
  0
TABLE
  2
STYLE
  5
3
330
0
100
AcDbSymbolTable
 70
     4
  0
STYLE
  5
11
330
3
100
AcDbSymbolTableRecord
100
AcDbTextStyleTableRecord
  2
Standard
 70
     0
 40
0.0
 41
1.0
 50
0.0
 71
     0
 42
0.5291666667
  3
txt
  4

  0
STYLE
  5
59
330
3
100
AcDbSymbolTableRecord
100
AcDbTextStyleTableRecord
  2
SLDTEXTSTYLE0
 70
     0
 40
0.0
 41
0.605
 50
0.0
 71
     0
 42
0.2
  3
TXT
  4

  0
STYLE
  5
67
330
3
100
AcDbSymbolTableRecord
100
AcDbTextStyleTableRecord
  2
SLDTEXTSTYLE1
 70
     0
 40
0.0
 41
0.7
 50
0.0
 71
     0
 42
0.2
  3
TXT
  4

  0
STYLE
  5
7A
330
3
100
AcDbSymbolTableRecord
100
AcDbTextStyleTableRecord
  2
SLDTEXTSTYLE2
 70
     0
 40
0.0
 41
0.57
 50
0.0
 71
     0
 42
0.2
  3
TXT
  4

  0
ENDTAB
  0
TABLE
  2
VIEW
  5
6
330
0
100
AcDbSymbolTable
 70
     0
  0
ENDTAB
  0
TABLE
  2
UCS
  5
7
330
0
100
AcDbSymbolTable
 70
     0
  0
ENDTAB
  0
TABLE
  2
APPID
  5
9
330
0
100
AcDbSymbolTable
 70
     1
  0
APPID
  5
12
330
9
100
AcDbSymbolTableRecord
100
AcDbRegAppTableRecord
  2
ACAD
 70
     0
  0
ENDTAB
  0
TABLE
  2
DIMSTYLE
  5
A
330
0
100
AcDbSymbolTable
 70
    13
100
AcDbDimStyleTable
  0
DIMSTYLE
105
27
330
A
100
AcDbSymbolTableRecord
100
AcDbDimStyleTableRecord
  2
ISO-25
 70
     0
 41
2.5
 42
0.625
 43
3.75
 44
1.25
 73
     0
 74
     0
 77
     1
 78
     8
140
2.5
141
2.5
143
0.0393700787
147
0.625
171
     3
172
     1
178
     0
271
     2
272
     2
274
     3
278
    44
283
     0
284
     8
340
11
  0
DIMSTYLE
105
15C
102
{ACAD_REACTORS
330
15B
102
}
330
A
100
AcDbSymbolTableRecord
100
AcDbDimStyleTableRecord
  2
SLDDIMSTYLE0
 70
     0
 41
0.5503333333
 44
0.0
 45
0.000000001
 78
    12
 79
     3
140
0.3852478027
147
0.0963119507
173
     1
178
     0
271
     2
272
     6
276
     2
284
    12
340
59
  0
DIMSTYLE
105
168
102
{ACAD_REACTORS
330
167
330
174
102
}
330
A
100
AcDbSymbolTableRecord
100
AcDbDimStyleTableRecord
  2
SLDDIMSTYLE1
 70
     0
 41
0.5503333333
 44
0.0
 45
0.000000001
 47
0.125
 48
0.125
 71
     1
 78
     4
 79
     1
140
0.3852478027
147
0.0963119507
173
     1
178
     0
271
     3
272
     3
276
     2
284
     8
340
59
  0
DIMSTYLE
105
182
102
{ACAD_REACTORS
330
181
102
}
330
A
100
AcDbSymbolTableRecord
100
AcDbDimStyleTableRecord
  2
SLDDIMSTYLE2
 70
     0
 41
0.5503333333
 44
0.0
 45
0.000000001
 78
     4
 79
     1
140
0.3852478027
147
0.0963119507
173
     1
178
     0
271
     2
272
     3
276
     2
284
    12
340
59
  0
DIMSTYLE
105
18F
102
{ACAD_REACTORS
330
18E
330
1E7
330
1F2
330
1FD
102
}
330
A
100
AcDbSymbolTableRecord
100
AcDbDimStyleTableRecord
  2
SLDDIMSTYLE3
 70
     0
 41
0.5503333333
 44
0.0
 45
0.000000001
 78
     4
 79
     1
140
0.3852478027
147
0.0963119507
173
     1
178
     0
276
     2
284
    12
340
59
  0
DIMSTYLE
105
19B
102
{ACAD_REACTORS
330
19A
102
}
330
A
100
AcDbSymbolTableRecord
100
AcDbDimStyleTableRecord
  2
SLDDIMSTYLE4
 70
     0
 41
0.5503333333
 44
0.0
 45
0.000000001
 78
     4
 79
     1
140
0.3852478027
147
0.0963119507
172
     1
173
     1
178
     0
271
     3
272
     3
276
     2
284
    12
289
     0
340
59
  0
DIMSTYLE
105
1A8
102
{ACAD_REACTORS
330
1A7
330
1B4
102
}
330
A
100
AcDbSymbolTableRecord
100
AcDbDimStyleTableRecord
  2
SLDDIMSTYLE5
 70
     0
 41
0.5503333333
 44
0.0
 45
0.000000001
 78
    12
 79
     3
140
0.3852478027
147
0.0963119507
173
     1
178
     0
276
     2
284
    12
340
59
  0
DIMSTYLE
105
1C0
102
{ACAD_REACTORS
330
1BF
330
1CD
102
}
330
A
100
AcDbSymbolTableRecord
100
AcDbDimStyleTableRecord
  2
SLDDIMSTYLE6
 70
     0
 41
0.5503333333
 44
0.0
 45
0.000000001
 47
0.125
 48
0.125
 71
     1
 78
     4
 79
     1
140
0.3852478027
147
0.0963119507
173
     1
178
     0
276
     2
340
59
  0
DIMSTYLE
105
1DB
102
{ACAD_REACTORS
330
1DA
102
}
330
A
100
AcDbSymbolTableRecord
100
AcDbDimStyleTableRecord
  2
SLDDIMSTYLE7
 70
     0
 41
0.5503333333
 44
0.0
 45
0.000000001
 47
0.05
 48
0.05
 71
     1
 78
     4
 79
     1
140
0.3852478027
147
0.0963119507
173
     1
178
     0
276
     2
340
59
  0
DIMSTYLE
105
209
102
{ACAD_REACTORS
330
208
102
}
330
A
100
AcDbSymbolTableRecord
100
AcDbDimStyleTableRecord
  2
SLDDIMSTYLE8
 70
     0
 41
0.5503333333
 44
0.0
 45
0.000000001
 47
0.05
 48
0.05
 71
     1
 78
     4
 79
     1
140
0.3852478027
141
0.0
147
0.0963119507
173
     1
178
     0
276
     2
340
59
  0
DIMSTYLE
105
215
102
{ACAD_REACTORS
330
214
102
}
330
A
100
AcDbSymbolTableRecord
100
AcDbDimStyleTableRecord
  2
SLDDIMSTYLE9
 70
     0
 41
0.5503333333
 44
0.0
 45
0.000000001
 47
0.1
 48
0.1
 71
     1
 78
     4
 79
     1
140
0.3852478027
141
0.0
147
0.0963119507
173
     1
178
     0
276
     2
340
59
  0
DIMSTYLE
105
221
102
{ACAD_REACTORS
330
220
102
}
330
A
100
AcDbSymbolTableRecord
100
AcDbDimStyleTableRecord
  2
SLDDIMSTYLE10
 70
     0
 41
0.5503333333
 44
0.0
 45
0.000000001
 78
     4
 79
     1
140
0.3852478027
141
0.0
147
0.0963119507
173
     1
178
     0
276
     2
284
    12
340
59
  0
DIMSTYLE
105
22B
330
A
100
AcDbSymbolTableRecord
100
AcDbDimStyleTableRecord
  2
SLDDIMSTYLE11
 70
     0
 41
0.1693333333
 44
0.0
 45
0.000000001
140
0.0
146
0.1693333333
147
0.0
173
     1
178
     0
271
     0
272
     0
276
     2
340
11
341
22C
343
22C
344
22C
  0
ENDTAB
  0
TABLE
  2
BLOCK_RECORD
  5
1
330
0
100
AcDbSymbolTable
 70
    25
  0
BLOCK_RECORD
  5
1F
330
1
100
AcDbSymbolTableRecord
100
AcDbBlockTableRecord
  2
*Model_Space
340
22
 70
     0
280
     1
281
     0
  0
BLOCK_RECORD
  5
1B
330
1
100
AcDbSymbolTableRecord
100
AcDbBlockTableRecord
  2
*Paper_Space
340
1E
 70
     0
280
     1
281
     0
  0
BLOCK_RECORD
  5
23
330
1
100
AcDbSymbolTableRecord
100
AcDbBlockTableRecord
  2
*Paper_Space0
340
26
 70
     0
280
     1
281
     0
  0
BLOCK_RECORD
  5
64
330
1
100
AcDbSymbolTableRecord
100
AcDbBlockTableRecord
  2
SW_NOTE_0
340
0
102
{BLKREFS
331
6A
102
}
 70
     0
280
     1
281
     0
  0
BLOCK_RECORD
  5
6B
330
1
100
AcDbSymbolTableRecord
100
AcDbBlockTableRecord
  2
SW_NOTE_1
340
0
102
{BLKREFS
331
71
102
}
 70
     0
280
     1
281
     0
  0
BLOCK_RECORD
  5
72
330
1
100
AcDbSymbolTableRecord
100
AcDbBlockTableRecord
  2
SW_NOTE_2
340
0
102
{BLKREFS
331
0
102
}
 70
     0
280
     1
281
     0
  0
BLOCK_RECORD
  5
7C
330
1
100
AcDbSymbolTableRecord
100
AcDbBlockTableRecord
  2
SW_NOTE_3
340
0
102
{BLKREFS
331
83
102
}
 70
     0
280
     1
281
     0
  0
BLOCK_RECORD
  5
84
330
1
100
AcDbSymbolTableRecord
100
AcDbBlockTableRecord
  2
SW_NOTE_4
340
0
102
{BLKREFS
331
8C
102
}
 70
     0
280
     1
281
     0
  0
BLOCK_RECORD
  5
15D
330
1
100
AcDbSymbolTableRecord
100
AcDbBlockTableRecord
  2
_D
340
0
 70
     0
280
     1
281
     0
  0
BLOCK_RECORD
  5
169
330
1
100
AcDbSymbolTableRecord
100
AcDbBlockTableRecord
  2
_D_1
340
0
 70
     0
280
     1
281
     0
  0
BLOCK_RECORD
  5
175
330
1
100
AcDbSymbolTableRecord
100
AcDbBlockTableRecord
  2
_D_2
340
0
 70
     0
280
     1
281
     0
  0
BLOCK_RECORD
  5
183
330
1
100
AcDbSymbolTableRecord
100
AcDbBlockTableRecord
  2
_D_3
340
0
 70
     0
280
     1
281
     0
  0
BLOCK_RECORD
  5
190
330
1
100
AcDbSymbolTableRecord
100
AcDbBlockTableRecord
  2
_D_4
340
0
 70
     0
280
     1
281
     0
  0
BLOCK_RECORD
  5
19C
330
1
100
AcDbSymbolTableRecord
100
AcDbBlockTableRecord
  2
_D_5
340
0
 70
     0
280
     1
281
     0
  0
BLOCK_RECORD
  5
1A9
330
1
100
AcDbSymbolTableRecord
100
AcDbBlockTableRecord
  2
_D_6
340
0
 70
     0
280
     1
281
     0
  0
BLOCK_RECORD
  5
1B5
330
1
100
AcDbSymbolTableRecord
100
AcDbBlockTableRecord
  2
_D_7
340
0
 70
     0
280
     1
281
     0
  0
BLOCK_RECORD
  5
1C1
330
1
100
AcDbSymbolTableRecord
100
AcDbBlockTableRecord
  2
_D_8
340
0
 70
     0
280
     1
281
     0
  0
BLOCK_RECORD
  5
1CE
330
1
100
AcDbSymbolTableRecord
100
AcDbBlockTableRecord
  2
_D_9
340
0
 70
     0
280
     1
281
     0
  0
BLOCK_RECORD
  5
1DC
330
1
100
AcDbSymbolTableRecord
100
AcDbBlockTableRecord
  2
_D_10
340
0
 70
     0
280
     1
281
     0
  0
BLOCK_RECORD
  5
1E8
330
1
100
AcDbSymbolTableRecord
100
AcDbBlockTableRecord
  2
_D_11
340
0
 70
     0
280
     1
281
     0
  0
BLOCK_RECORD
  5
1F3
330
1
100
AcDbSymbolTableRecord
100
AcDbBlockTableRecord
  2
_D_12
340
0
 70
     0
280
     1
281
     0
  0
BLOCK_RECORD
  5
1FE
330
1
100
AcDbSymbolTableRecord
100
AcDbBlockTableRecord
  2
_D_13
340
0
 70
     0
280
     1
281
     0
  0
BLOCK_RECORD
  5
20A
330
1
100
AcDbSymbolTableRecord
100
AcDbBlockTableRecord
  2
_D_14
340
0
 70
     0
280
     1
281
     0
  0
BLOCK_RECORD
  5
216
330
1
100
AcDbSymbolTableRecord
100
AcDbBlockTableRecord
  2
_D_15
340
0
 70
     0
280
     1
281
     0
  0
BLOCK_RECORD
  5
222
330
1
100
AcDbSymbolTableRecord
100
AcDbBlockTableRecord
  2
_D_16
340
0
 70
     0
280
     1
281
     0
  0
BLOCK_RECORD
  5
22C
330
1
100
AcDbSymbolTableRecord
100
AcDbBlockTableRecord
  2
_DOT
340
0
 70
     0
280
     1
281
     0
  0
BLOCK_RECORD
  5
235
330
1
100
AcDbSymbolTableRecord
100
AcDbBlockTableRecord
  2
SW_CENTERMARKSYMBOL_0
340
0
102
{BLKREFS
331
256
102
}
 70
     0
280
     1
281
     0
  0
ENDTAB
  0
ENDSEC
  0
SECTION
  2
BLOCKS
  0
BLOCK
  5
20
330
1F
100
AcDbEntity
  8
0
100
AcDbBlockBegin
  2
*Model_Space
 70
     0
 10
0.0
 20
0.0
 30
0.0
  3
*Model_Space
  1

  0
ENDBLK
  5
21
330
1F
100
AcDbEntity
  8
0
100
AcDbBlockEnd
  0
BLOCK
  5
1C
330
1B
100
AcDbEntity
 67
     1
  8
0
100
AcDbBlockBegin
  2
*Paper_Space
 70
     0
 10
0.0
 20
0.0
 30
0.0
  3
*Paper_Space
  1

  0
ENDBLK
  5
1D
330
1B
100
AcDbEntity
 67
     1
  8
0
100
AcDbBlockEnd
  0
BLOCK
  5
24
330
23
100
AcDbEntity
  8
0
100
AcDbBlockBegin
  2
*Paper_Space0
 70
     0
 10
0.0
 20
0.0
 30
0.0
  3
*Paper_Space0
  1

  0
ENDBLK
  5
25
330
23
100
AcDbEntity
  8
0
100
AcDbBlockEnd
  0
BLOCK
  5
65
330
64
100
AcDbEntity
  8
0
100
AcDbBlockBegin
  2
SW_NOTE_0
 70
     0
 10
0.0
 20
0.0
 30
0.0
  3
SW_NOTE_0
  1

  0
MTEXT
  5
68
330
64
100
AcDbEntity
  8
LAYOUT
 62
     0
100
AcDbMText
 10
0.0
 20
0.5684430658
 30
0.0
 40
0.4409722222
 41
0.0
 46
0.0
 71
     1
 72
     1
  1
\LDESCRIPTION:
  7
SLDTEXTSTYLE1
 73
     1
 44
1.0
  0
MTEXT
  5
69
330
64
100
AcDbEntity
  8
LAYOUT
 62
     0
100
AcDbMText
 10
4.3550090243
 20
0.5684430658
 30
0.0
 40
0.4409722222
 41
0.0
 46
0.0
 71
     1
 72
     1
  1
\L Recommended PCB Layout
  7
SLDTEXTSTYLE1
 73
     1
 44
1.0
  0
ENDBLK
  5
66
330
64
100
AcDbEntity
  8
0
100
AcDbBlockEnd
  0
BLOCK
  5
6C
330
6B
100
AcDbEntity
  8
0
100
AcDbBlockBegin
  2
SW_NOTE_1
 70
     0
 10
0.0
 20
0.0
 30
0.0
  3
SW_NOTE_1
  1

  0
MTEXT
  5
6E
330
6B
100
AcDbEntity
  8
LAYOUT
 62
     0
100
AcDbMText
 10
0.0
 20
0.4547544526
 30
0.0
 40
0.3527777778
 41
0.0
 46
0.0
 71
     1
 72
     1
  1
\LTolerances:
  7
SLDTEXTSTYLE0
 73
     1
 44
1.0
  0
MTEXT
  5
6F
330
6B
100
AcDbEntity
  8
LAYOUT
 62
     0
100
AcDbMText
 10
2.588670324
 20
0.4547544526
 30
0.0
 40
0.3527777778
 41
0.0
 46
0.0
 71
     1
 72
     1
  1
diameters ±0.03mm [±0.001"],all other tolerances ±0.025mm [±0.001"] unless stated otherwise.
  7
SLDTEXTSTYLE0
 73
     1
 44
1.0
  0
MTEXT
  5
70
330
6B
100
AcDbEntity
  8
LAYOUT
 62
     0
100
AcDbMText
 10
0.0
 20
-0.015615912
 30
0.0
 40
0.3527777778
 41
0.0
 46
0.0
 71
     1
 72
     1
  1
Materials and specifications are subject to change without notice.
  7
SLDTEXTSTYLE0
 73
     1
 44
1.0
  0
ENDBLK
  5
6D
330
6B
100
AcDbEntity
  8
0
100
AcDbBlockEnd
  0
BLOCK
  5
73
330
72
100
AcDbEntity
  8
0
100
AcDbBlockBegin
  2
SW_NOTE_2
 70
     0
 10
0.0
 20
0.0
 30
0.0
  3
SW_NOTE_2
  1

  0
MTEXT
  5
75
330
72
100
AcDbEntity
  8
LAYOUT
 62
     0
100
AcDbMText
 10
2.7230034722
 20
0.4547544526
 30
0.0
 40
0.3527777778
 41
0.0
 46
0.0
 71
     2
 72
     1
  1
Ironwood Electronics, Inc.
  7
SLDTEXTSTYLE0
 73
     1
 44
1.0
  0
MTEXT
  5
76
330
72
100
AcDbEntity
  8
LAYOUT
 62
     0
100
AcDbMText
 10
2.7123868302
 20
-0.015615912
 30
0.0
 40
0.3527777778
 41
0.0
 46
0.0
 71
     2
 72
     1
  1
Tele: (800) 404-0204
  7
SLDTEXTSTYLE0
 73
     1
 44
1.0
  0
MTEXT
  5
77
330
72
100
AcDbEntity
  8
LAYOUT
 62
     0
100
AcDbMText
 10
2.6936053298
 20
-0.4859862767
 30
0.0
 40
0.3527777778
 41
0.0
 46
0.0
 71
     2
 72
     1
  1
www.ironwoodelectronics.com
  7
SLDTEXTSTYLE0
 73
     1
 44
1.0
  0
ENDBLK
  5
74
330
72
100
AcDbEntity
  8
0
100
AcDbBlockEnd
  0
BLOCK
  5
7D
330
7C
100
AcDbEntity
  8
0
100
AcDbBlockBegin
  2
SW_NOTE_3
 70
     0
 10
0.0
 20
0.0
 30
0.0
  3
SW_NOTE_3
  1

  0
MTEXT
  5
7F
330
7C
100
AcDbEntity
  8
LAYOUT
 62
     0
100
AcDbMText
 10
0.0
 20
0.5684430658
 30
0.0
 40
0.4409722222
 41
0.0
 46
0.0
 71
     1
 72
     1
  1
\LTarget PCB Recommendations
  7
SLDTEXTSTYLE1
 73
     1
 44
1.0
  0
MTEXT
  5
80
330
7C
100
AcDbEntity
  8
LAYOUT
 62
     0
100
AcDbMText
 10
1.6666666667
 20
-0.0195198901
 30
0.0
 40
0.4409722222
 41
0.0
 46
0.0
 71
     1
 72
     1
  1
Total thickness: 1.6mm min.
  7
SLDTEXTSTYLE1
 73
     1
 44
1.0
  0
MTEXT
  5
81
330
7C
100
AcDbEntity
  8
LAYOUT
 62
     0
100
AcDbMText
 10
1.6666666667
 20
-0.6074828459
 30
0.0
 40
0.4409722222
 41
0.0
 46
0.0
 71
     1
 72
     1
  1
Plating: Gold or Solder finish
  7
SLDTEXTSTYLE1
 73
     1
 44
1.0
  0
MTEXT
  5
82
330
7C
100
AcDbEntity
  8
LAYOUT
 62
     0
100
AcDbMText
 10
1.6666666667
 20
-1.1954458018
 30
0.0
 40
0.4409722222
 41
0.0
 46
0.0
 71
     1
 72
     1
  1
PCB Pad height: same or higher than solder mask
  7
SLDTEXTSTYLE1
 73
     1
 44
1.0
  0
ENDBLK
  5
7E
330
7C
100
AcDbEntity
  8
0
100
AcDbBlockEnd
  0
BLOCK
  5
85
330
84
100
AcDbEntity
  8
0
100
AcDbBlockBegin
  2
SW_NOTE_4
 70
     0
 10
0.0
 20
0.0
 30
0.0
  3
SW_NOTE_4
  1

  0
MTEXT
  5
87
330
84
100
AcDbEntity
  8
LAYOUT
 62
     0
100
AcDbMText
 10
0.0
 20
0.7958202921
 30
0.0
 40
0.6173611111
 41
0.0
 46
0.0
 71
     1
 72
     1
  1
Note:
  7
SLDTEXTSTYLE0
 73
     1
 44
1.0
  0
MTEXT
  5
88
330
84
100
AcDbEntity
  8
LAYOUT
 62
     0
100
AcDbMText
 10
2.3351113781
 20
0.7958202921
 30
0.0
 40
0.6173611111
 41
0.0
 46
0.0
 71
     1
 72
     1
  1
BGA pattern is not symmetrical
  7
SLDTEXTSTYLE0
 73
     1
 44
1.0
  0
MTEXT
  5
89
330
84
100
AcDbEntity
  8
LAYOUT
 62
     0
100
AcDbMText
 10
0.0
 20
-0.0273278461
 30
0.0
 40
0.6173611111
 41
0.0
 46
0.0
 71
     1
 72
     1
  1
with respect to the mounting holes.
  7
SLDTEXTSTYLE0
 73
     1
 44
1.0
  0
MTEXT
  5
8A
330
84
100
AcDbEntity
  8
LAYOUT
 62
     0
100
AcDbMText
 10
0.0
 20
-0.8504759843
 30
0.0
 40
0.6173611111
 41
0.0
 46
0.0
 71
     1
 72
     1
  1
It is shifted 0.375mm to the right of the
  7
SLDTEXTSTYLE0
 73
     1
 44
1.0
  0
MTEXT
  5
8B
330
84
100
AcDbEntity
  8
LAYOUT
 62
     0
100
AcDbMText
 10
0.0
 20
-1.6736241225
 30
0.0
 40
0.6173611111
 41
0.0
 46
0.0
 71
     1
 72
     1
  1
center.
  7
SLDTEXTSTYLE0
 73
     1
 44
1.0
  0
ENDBLK
  5
86
330
84
100
AcDbEntity
  8
0
100
AcDbBlockEnd
  0
BLOCK
  5
15E
330
15D
100
AcDbEntity
  8
0
100
AcDbBlockBegin
  2
_D
 70
     0
 10
0.0
 20
0.0
 30
0.0
  3
_D
  1

  0
SOLID
  5
160
330
15D
100
AcDbEntity
  8
LAYOUT
100
AcDbTrace
 10
34.5816444925
 20
27.4041960061
 30
0.0
 11
34.4969778258
 21
26.8538626728
 31
0.0
 12
34.6663111592
 22
26.8538626728
 32
0.0
 13
34.6663111592
 23
26.8538626728
 33
0.0
  0
SOLID
  5
161
330
15D
100
AcDbEntity
  8
LAYOUT
100
AcDbTrace
 10
34.5816444925
 20
24.8641960061
 30
0.0
 11
34.6663111592
 21
25.4145293395
 31
0.0
 12
34.4969778258
 22
25.4145293395
 32
0.0
 13
34.4969778258
 23
25.4145293395
 33
0.0
  0
LINE
  5
162
330
15D
100
AcDbEntity
  8
LAYOUT
100
AcDbLine
 10
31.8766444925
 20
27.4041960061
 30
0.0
 11
35.1108111592
 21
27.4041960061
 31
0.0
  0
LINE
  5
163
330
15D
100
AcDbEntity
  8
LAYOUT
100
AcDbLine
 10
31.8766444925
 20
24.8641960061
 30
0.0
 11
35.1108111592
 21
24.8641960061
 31
0.0
  0
LINE
  5
164
330
15D
100
AcDbEntity
  8
LAYOUT
100
AcDbLine
 10
34.5816444925
 20
27.4041960061
 30
0.0
 11
34.5816444925
 21
26.6105356665
 31
0.0
  0
LINE
  5
165
330
15D
100
AcDbEntity
  8
LAYOUT
100
AcDbLine
 10
34.5816444925
 20
24.8641960061
 30
0.0
 11
34.5816444925
 21
26.0191817374
 31
0.0
  0
MTEXT
  5
166
330
15D
100
AcDbEntity
  8
LAYOUT
100
AcDbMText
 10
34.0674019141
 20
26.5307805063
 30
0.0
 40
0.396875
 41
0.0
 46
0.0
 71
     1
 72
     1
  1
2.54
  7
SLDTEXTSTYLE0
 73
     1
 44
1.0
  0
ENDBLK
  5
15F
330
15D
100
AcDbEntity
  8
0
100
AcDbBlockEnd
  0
BLOCK
  5
16A
330
169
100
AcDbEntity
  8
0
100
AcDbBlockBegin
  2
_D_1
 70
     0
 10
0.0
 20
0.0
 30
0.0
  3
_D_1
  1

  0
SOLID
  5
16C
330
169
100
AcDbEntity
  8
LAYOUT
100
AcDbTrace
 10
15.6899778258
 20
30.9315998544
 30
0.0
 11
16.2403111592
 21
30.8469331877
 31
0.0
 12
16.2403111592
 22
31.0162665211
 32
0.0
 13
16.2403111592
 23
31.0162665211
 33
0.0
  0
SOLID
  5
16D
330
169
100
AcDbEntity
  8
LAYOUT
100
AcDbTrace
 10
16.9399778258
 20
30.9315998544
 30
0.0
 11
16.3896444925
 21
31.0162665211
 31
0.0
 12
16.3896444925
 22
30.8469331877
 32
0.0
 13
16.3896444925
 23
30.8469331877
 33
0.0
  0
LINE
  5
16E
330
169
100
AcDbEntity
  8
LAYOUT
100
AcDbLine
 10
15.6899778258
 20
28.8658626728
 30
0.0
 11
15.6899778258
 21
31.4607665211
 31
0.0
  0
LINE
  5
16F
330
169
100
AcDbEntity
  8
LAYOUT
100
AcDbLine
 10
16.9399778258
 20
28.1838727525
 30
0.0
 11
16.9399778258
 21
31.4607665211
 31
0.0
  0
LINE
  5
170
330
169
100
AcDbEntity
  8
LAYOUT
100
AcDbLine
 10
15.6899778258
 20
30.9315998544
 30
0.0
 11
14.5202683171
 21
30.9315998544
 31
0.0
  0
LINE
  5
171
330
169
100
AcDbEntity
  8
LAYOUT
100
AcDbLine
 10
16.9399778258
 20
30.9315998544
 30
0.0
 11
15.6899778258
 21
30.9315998544
 31
0.0
  0
MTEXT
  5
172
330
169
100
AcDbEntity
  8
LAYOUT
100
AcDbMText
 10
10.1730168994
 20
31.147379743
 30
0.11
 40
0.396875
 41
0.0
 46
0.0
 71
     1
 72
     1
  1
1.250
  7
SLDTEXTSTYLE0
 73
     1
 44
1.0
  0
MTEXT
  5
173
330
169
100
AcDbEntity
  8
LAYOUT
100
AcDbMText
 10
11.8487114594
 20
31.147379743
 30
0.11
 40
0.396875
 41
0.0
 46
0.0
 71
     1
 72
     1
  1
±0.125 (x3)
  7
SLDTEXTSTYLE0
 73
     1
 44
1.0
  0
ENDBLK
  5
16B
330
169
100
AcDbEntity
  8
0
100
AcDbBlockEnd
  0
BLOCK
  5
176
330
175
100
AcDbEntity
  8
0
100
AcDbBlockBegin
  2
_D_2
 70
     0
 10
0.0
 20
0.0
 30
0.0
  3
_D_2
  1

  0
SOLID
  5
178
330
175
100
AcDbEntity
  8
LAYOUT
100
AcDbTrace
 10
15.0124134446
 20
28.6541960061
 30
0.0
 11
14.9277467779
 21
28.1038626728
 31
0.0
 12
15.0970801112
 22
28.1038626728
 32
0.0
 13
15.0970801112
 23
28.1038626728
 33
0.0
  0
SOLID
  5
179
330
175
100
AcDbEntity
  8
LAYOUT
100
AcDbTrace
 10
15.0124134446
 20
27.4041960061
 30
0.0
 11
15.0970801112
 21
27.9545293395
 31
0.0
 12
14.9277467779
 22
27.9545293395
 32
0.0
 13
14.9277467779
 23
27.9545293395
 33
0.0
  0
LINE
  5
17A
330
175
100
AcDbEntity
  8
LAYOUT
100
AcDbLine
 10
15.4783111592
 20
28.6541960061
 30
0.0
 11
14.4832467779
 21
28.6541960061
 31
0.0
  0
LINE
  5
17B
330
175
100
AcDbEntity
  8
LAYOUT
100
AcDbLine
 10
16.7283111592
 20
27.4041960061
 30
0.0
 11
14.4832467779
 21
27.4041960061
 31
0.0
  0
LINE
  5
17C
330
175
100
AcDbEntity
  8
LAYOUT
100
AcDbLine
 10
13.9540801112
 20
26.7505079885
 30
0.0
 11
15.0124134446
 21
26.7505079885
 31
0.0
  0
LINE
  5
17D
330
175
100
AcDbEntity
  8
LAYOUT
100
AcDbLine
 10
15.0124134446
 20
26.7505079885
 30
0.0
 11
15.0124134446
 21
27.4041960061
 31
0.0
  0
LINE
  5
17E
330
175
100
AcDbEntity
  8
LAYOUT
100
AcDbLine
 10
15.0124134446
 20
28.6541960061
 30
0.0
 11
15.0124134446
 21
27.4041960061
 31
0.0
  0
MTEXT
  5
17F
330
175
100
AcDbEntity
  8
LAYOUT
100
AcDbMText
 10
9.6068286935
 20
26.9662878771
 30
0.11
 40
0.396875
 41
0.0
 46
0.0
 71
     1
 72
     1
  1
1.250
  7
SLDTEXTSTYLE0
 73
     1
 44
1.0
  0
MTEXT
  5
180
330
175
100
AcDbEntity
  8
LAYOUT
100
AcDbMText
 10
11.2825232535
 20
26.9662878771
 30
0.11
 40
0.396875
 41
0.0
 46
0.0
 71
     1
 72
     1
  1
±0.125 (x4)
  7
SLDTEXTSTYLE0
 73
     1
 44
1.0
  0
ENDBLK
  5
177
330
175
100
AcDbEntity
  8
0
100
AcDbBlockEnd
  0
BLOCK
  5
184
330
183
100
AcDbEntity
  8
0
100
AcDbBlockBegin
  2
_D_3
 70
     0
 10
0.0
 20
0.0
 30
0.0
  3
_D_3
  1

  0
SOLID
  5
186
330
183
100
AcDbEntity
  8
LAYOUT
100
AcDbTrace
 10
19.4774778258
 20
10.714431306
 30
0.0
 11
20.0278111592
 21
10.6297646393
 31
0.0
 12
20.0278111592
 22
10.7990979727
 32
0.0
 13
20.0278111592
 23
10.7990979727
 33
0.0
  0
SOLID
  5
187
330
183
100
AcDbEntity
  8
LAYOUT
100
AcDbTrace
 10
29.8774778258
 20
10.714431306
 30
0.0
 11
29.3271444925
 21
10.7990979727
 31
0.0
 12
29.3271444925
 22
10.6297646393
 32
0.0
 13
29.3271444925
 23
10.6297646393
 33
0.0
  0
LINE
  5
188
330
183
100
AcDbEntity
  8
LAYOUT
100
AcDbLine
 10
19.4774778258
 20
14.6300293395
 30
0.0
 11
19.4774778258
 21
10.1852646393
 31
0.0
  0
LINE
  5
189
330
183
100
AcDbEntity
  8
LAYOUT
100
AcDbLine
 10
29.8774778258
 20
14.6300293395
 30
0.0
 11
29.8774778258
 21
10.1852646393
 31
0.0
  0
LINE
  5
18A
330
183
100
AcDbEntity
  8
LAYOUT
100
AcDbLine
 10
19.4774778258
 20
10.714431306
 30
0.0
 11
23.0403463231
 21
10.714431306
 31
0.0
  0
LINE
  5
18B
330
183
100
AcDbEntity
  8
LAYOUT
100
AcDbLine
 10
29.8774778258
 20
10.714431306
 30
0.0
 11
25.774374126
 21
10.714431306
 31
0.0
  0
MTEXT
  5
18C
330
183
100
AcDbEntity
  8
LAYOUT
100
AcDbMText
 10
23.0403463231
 20
10.9302111946
 30
0.11
 40
0.396875
 41
0.0
 46
0.0
 71
     1
 72
     1
  1
10.40
  7
SLDTEXTSTYLE0
 73
     1
 44
1.0
  0
MTEXT
  5
18D
330
183
100
AcDbEntity
  8
LAYOUT
100
AcDbMText
 10
24.8648690081
 20
10.9302111946
 30
0.11
 40
0.396875
 41
0.0
 46
0.0
 71
     1
 72
     1
  1
(x4)
  7
SLDTEXTSTYLE0
 73
     1
 44
1.0
  0
ENDBLK
  5
185
330
183
100
AcDbEntity
  8
0
100
AcDbBlockEnd
  0
BLOCK
  5
191
330
190
100
AcDbEntity
  8
0
100
AcDbBlockBegin
  2
_D_4
 70
     0
 10
0.0
 20
0.0
 30
0.0
  3
_D_4
  1

  0
SOLID
  5
193
330
190
100
AcDbEntity
  8
LAYOUT
100
AcDbTrace
 10
11.9320660404
 20
25.2416960061
 30
0.0
 11
11.8473993737
 21
24.6913626728
 31
0.0
 12
12.016732707
 22
24.6913626728
 32
0.0
 13
12.016732707
 23
24.6913626728
 33
0.0
  0
SOLID
  5
194
330
190
100
AcDbEntity
  8
LAYOUT
100
AcDbTrace
 10
11.9320660404
 20
20.0416960061
 30
0.0
 11
12.016732707
 21
20.5920293395
 31
0.0
 12
11.8473993737
 22
20.5920293395
 32
0.0
 13
11.8473993737
 23
20.5920293395
 33
0.0
  0
LINE
  5
195
330
190
100
AcDbEntity
  8
LAYOUT
100
AcDbLine
 10
19.2658111592
 20
25.2416960061
 30
0.0
 11
11.4028993737
 21
25.2416960061
 31
0.0
  0
LINE
  5
196
330
190
100
AcDbEntity
  8
LAYOUT
100
AcDbLine
 10
15.0616444925
 20
20.0416960061
 30
0.0
 11
11.4028993737
 21
20.0416960061
 31
0.0
  0
LINE
  5
197
330
190
100
AcDbEntity
  8
LAYOUT
100
AcDbLine
 10
11.9320660404
 20
25.2416960061
 30
0.0
 11
11.9320660404
 21
22.8047503308
 31
0.0
  0
LINE
  5
198
330
190
100
AcDbEntity
  8
LAYOUT
100
AcDbLine
 10
11.9320660404
 20
20.0416960061
 30
0.0
 11
11.9320660404
 21
22.2131125701
 31
0.0
  0
MTEXT
  5
199
330
190
100
AcDbEntity
  8
LAYOUT
100
AcDbMText
 10
10.9472281184
 20
22.724711339
 30
0.11
 40
0.396875
 41
0.0
 46
0.0
 71
     1
 72
     1
  1
5.2000
  7
SLDTEXTSTYLE0
 73
     1
 44
1.0
  0
ENDBLK
  5
192
330
190
100
AcDbEntity
  8
0
100
AcDbBlockEnd
  0
BLOCK
  5
19D
330
19C
100
AcDbEntity
  8
0
100
AcDbBlockBegin
  2
_D_5
 70
     0
 10
0.0
 20
0.0
 30
0.0
  3
_D_5
  1

  0
SOLID
  5
19F
330
19C
100
AcDbEntity
  8
LAYOUT
100
AcDbTrace
 10
36.472612637
 20
18.8416960061
 30
0.0
 11
36.5572793036
 21
19.3920293395
 31
0.0
 12
36.3879459703
 22
19.3920293395
 32
0.0
 13
36.3879459703
 23
19.3920293395
 33
0.0
  0
SOLID
  5
1A0
330
19C
100
AcDbEntity
  8
LAYOUT
100
AcDbTrace
 10
36.472612637
 20
18.0416960061
 30
0.0
 11
36.3879459703
 21
17.4913626728
 31
0.0
 12
36.5572793036
 22
17.4913626728
 32
0.0
 13
36.5572793036
 23
17.4913626728
 33
0.0
  0
LINE
  5
1A1
330
19C
100
AcDbEntity
  8
LAYOUT
100
AcDbLine
 10
30.0891444925
 20
18.8416960061
 30
0.0
 11
37.0017793036
 21
18.8416960061
 31
0.0
  0
LINE
  5
1A2
330
19C
100
AcDbEntity
  8
LAYOUT
100
AcDbLine
 10
30.0891444925
 20
18.0416960061
 30
0.0
 11
37.0017793036
 21
18.0416960061
 31
0.0
  0
LINE
  5
1A3
330
19C
100
AcDbEntity
  8
LAYOUT
100
AcDbLine
 10
36.472612637
 20
18.8416960061
 30
0.0
 11
36.472612637
 21
19.9000293395
 31
0.0
  0
LINE
  5
1A4
330
19C
100
AcDbEntity
  8
LAYOUT
100
AcDbLine
 10
36.472612637
 20
18.0416960061
 30
0.0
 11
36.472612637
 21
16.9833626728
 31
0.0
  0
MTEXT
  5
1A5
330
19C
100
AcDbEntity
  8
LAYOUT
100
AcDbMText
 10
35.0468024787
 20
18.6453151174
 30
0.11
 40
0.396875
 41
0.0
 46
0.0
 71
     1
 72
     1
  1
0.800
  7
SLDTEXTSTYLE0
 73
     1
 44
1.0
  0
MTEXT
  5
1A6
330
19C
100
AcDbEntity
  8
LAYOUT
100
AcDbMText
 10
36.8713251637
 20
18.6453151174
 30
0.11
 40
0.396875
 41
0.0
 46
0.0
 71
     1
 72
     1
  1
Typ.
  7
SLDTEXTSTYLE0
 73
     1
 44
1.0
  0
ENDBLK
  5
19E
330
19C
100
AcDbEntity
  8
0
100
AcDbBlockEnd
  0
BLOCK
  5
1AA
330
1A9
100
AcDbEntity
  8
0
100
AcDbBlockBegin
  2
_D_6
 70
     0
 10
0.0
 20
0.0
 30
0.0
  3
_D_6
  1

  0
SOLID
  5
1AC
330
1A9
100
AcDbEntity
  8
LAYOUT
100
AcDbTrace
 10
19.4774778258
 20
31.7070266016
 30
0.0
 11
18.9271444925
 21
31.7916932683
 31
0.0
 12
18.9271444925
 22
31.6223599349
 32
0.0
 13
18.9271444925
 23
31.6223599349
 33
0.0
  0
SOLID
  5
1AD
330
1A9
100
AcDbEntity
  8
LAYOUT
100
AcDbTrace
 10
16.9399778258
 20
31.7070266016
 30
0.0
 11
17.4903111592
 21
31.6223599349
 31
0.0
 12
17.4903111592
 22
31.7916932683
 32
0.0
 13
17.4903111592
 23
31.7916932683
 33
0.0
  0
LINE
  5
1AE
330
1A9
100
AcDbEntity
  8
LAYOUT
100
AcDbLine
 10
19.4774778258
 20
25.4533626728
 30
0.0
 11
19.4774778258
 21
32.2361932683
 31
0.0
  0
LINE
  5
1AF
330
1A9
100
AcDbEntity
  8
LAYOUT
100
AcDbLine
 10
16.9399778258
 20
27.6158626728
 30
0.0
 11
16.9399778258
 21
32.2361932683
 31
0.0
  0
LINE
  5
1B0
330
1A9
100
AcDbEntity
  8
LAYOUT
100
AcDbLine
 10
19.4774778258
 20
31.7070266016
 30
0.0
 11
20.1207519743
 21
31.7070266016
 31
0.0
  0
LINE
  5
1B1
330
1A9
100
AcDbEntity
  8
LAYOUT
100
AcDbLine
 10
16.9399778258
 20
31.7070266016
 30
0.0
 11
19.4774778258
 21
31.7070266016
 31
0.0
  0
MTEXT
  5
1B2
330
1A9
100
AcDbEntity
  8
LAYOUT
100
AcDbMText
 10
20.1207519743
 20
31.9228064902
 30
0.11
 40
0.396875
 41
0.0
 46
0.0
 71
     1
 72
     1
  1
2.5375
  7
SLDTEXTSTYLE0
 73
     1
 44
1.0
  0
MTEXT
  5
1B3
330
1A9
100
AcDbEntity
  8
LAYOUT
100
AcDbMText
 10
22.0904279735
 20
31.9228064902
 30
0.11
 40
0.396875
 41
0.0
 46
0.0
 71
     1
 72
     1
  1
*
  7
SLDTEXTSTYLE0
 73
     1
 44
1.0
  0
ENDBLK
  5
1AB
330
1A9
100
AcDbEntity
  8
0
100
AcDbBlockEnd
  0
BLOCK
  5
1B6
330
1B5
100
AcDbEntity
  8
0
100
AcDbBlockBegin
  2
_D_7
 70
     0
 10
0.0
 20
0.0
 30
0.0
  3
_D_7
  1

  0
SOLID
  5
1B8
330
1B5
100
AcDbEntity
  8
LAYOUT
100
AcDbTrace
 10
29.8774778258
 20
30.0951842491
 30
0.0
 11
30.4278111592
 21
30.0105175825
 31
0.0
 12
30.4278111592
 22
30.1798509158
 32
0.0
 13
30.4278111592
 23
30.1798509158
 33
0.0
  0
SOLID
  5
1B9
330
1B5
100
AcDbEntity
  8
LAYOUT
100
AcDbTrace
 10
31.6649778258
 20
30.0951842491
 30
0.0
 11
31.1146444925
 21
30.1798509158
 31
0.0
 12
31.1146444925
 22
30.0105175825
 32
0.0
 13
31.1146444925
 23
30.0105175825
 33
0.0
  0
LINE
  5
1BA
330
1B5
100
AcDbEntity
  8
LAYOUT
100
AcDbLine
 10
29.8774778258
 20
25.4533626728
 30
0.0
 11
29.8774778258
 21
30.6243509158
 31
0.0
  0
LINE
  5
1BB
330
1B5
100
AcDbEntity
  8
LAYOUT
100
AcDbLine
 10
31.6649778258
 20
27.6158626728
 30
0.0
 11
31.6649778258
 21
30.6243509158
 31
0.0
  0
LINE
  5
1BC
330
1B5
100
AcDbEntity
  8
LAYOUT
100
AcDbLine
 10
29.8774778258
 20
30.0951842491
 30
0.0
 11
31.6649778258
 21
30.0951842491
 31
0.0
  0
LINE
  5
1BD
330
1B5
100
AcDbEntity
  8
LAYOUT
100
AcDbLine
 10
31.6649778258
 20
30.0951842491
 30
0.0
 11
33.3406119321
 21
30.0951842491
 31
0.0
  0
MTEXT
  5
1BE
330
1B5
100
AcDbEntity
  8
LAYOUT
100
AcDbMText
 10
33.3406119321
 20
30.3109641377
 30
0.11
 40
0.396875
 41
0.0
 46
0.0
 71
     1
 72
     1
  1
1.7875
  7
SLDTEXTSTYLE0
 73
     1
 44
1.0
  0
ENDBLK
  5
1B7
330
1B5
100
AcDbEntity
  8
0
100
AcDbBlockEnd
  0
BLOCK
  5
1C2
330
1C1
100
AcDbEntity
  8
0
100
AcDbBlockBegin
  2
_D_8
 70
     0
 10
0.0
 20
0.0
 30
0.0
  3
_D_8
  1

  0
SOLID
  5
1C4
330
1C1
100
AcDbEntity
  8
LAYOUT
100
AcDbTrace
 10
9.0233111592
 20
28.6541960061
 30
0.0
 11
8.9386444925
 21
28.1038626728
 31
0.0
 12
9.1079778258
 22
28.1038626728
 32
0.0
 13
9.1079778258
 23
28.1038626728
 33
0.0
  0
SOLID
  5
1C5
330
1C1
100
AcDbEntity
  8
LAYOUT
100
AcDbTrace
 10
9.0233111592
 20
11.4291960061
 30
0.0
 11
9.1079778258
 21
11.9795293395
 31
0.0
 12
8.9386444925
 22
11.9795293395
 32
0.0
 13
8.9386444925
 23
11.9795293395
 33
0.0
  0
LINE
  5
1C6
330
1C1
100
AcDbEntity
  8
LAYOUT
100
AcDbLine
 10
15.4783111592
 20
28.6541960061
 30
0.0
 11
8.4941444925
 21
28.6541960061
 31
0.0
  0
LINE
  5
1C7
330
1C1
100
AcDbEntity
  8
LAYOUT
100
AcDbLine
 10
15.4783111592
 20
11.4291960061
 30
0.0
 11
8.4941444925
 21
11.4291960061
 31
0.0
  0
LINE
  5
1C8
330
1C1
100
AcDbEntity
  8
LAYOUT
100
AcDbLine
 10
9.0233111592
 20
28.6541960061
 30
0.0
 11
9.0233111592
 21
22.2284132895
 31
0.0
  0
LINE
  5
1C9
330
1C1
100
AcDbEntity
  8
LAYOUT
100
AcDbLine
 10
9.0233111592
 20
11.4291960061
 30
0.0
 11
9.0233111592
 21
21.0451377681
 31
0.0
  0
MTEXT
  5
1CA
330
1C1
100
AcDbEntity
  8
LAYOUT
100
AcDbMText
 10
6.9378798355
 20
22.1483742977
 30
0.11
 40
0.396875
 41
0.0
 46
0.0
 71
     1
 72
     1
  1
17.2250
  7
SLDTEXTSTYLE0
 73
     1
 44
1.0
  0
MTEXT
  5
1CB
330
1C1
100
AcDbEntity
  8
LAYOUT
100
AcDbMText
 10
9.2015372737
 20
22.1483742977
 30
0.11
 40
0.396875
 41
0.0
 46
0.0
 71
     1
 72
     1
  1
±0.1250
  7
SLDTEXTSTYLE0
 73
     1
 44
1.0
  0
MTEXT
  5
1CC
330
1C1
100
AcDbEntity
  8
LAYOUT
100
AcDbMText
 10
7.0242368764
 20
21.556736537
 30
0.11
 40
0.396875
 41
0.0
 46
0.0
 71
     1
 72
     1
  1
Socket base size
  7
SLDTEXTSTYLE0
 73
     1
 44
1.0
  0
ENDBLK
  5
1C3
330
1C1
100
AcDbEntity
  8
0
100
AcDbBlockEnd
  0
BLOCK
  5
1CF
330
1CE
100
AcDbEntity
  8
0
100
AcDbBlockBegin
  2
_D_9
 70
     0
 10
0.0
 20
0.0
 30
0.0
  3
_D_9
  1

  0
SOLID
  5
1D1
330
1CE
100
AcDbEntity
  8
LAYOUT
100
AcDbTrace
 10
15.6899778258
 20
8.3894520179
 30
0.0
 11
16.2403111592
 21
8.3047853513
 31
0.0
 12
16.2403111592
 22
8.4741186846
 32
0.0
 13
16.2403111592
 23
8.4741186846
 33
0.0
  0
SOLID
  5
1D2
330
1CE
100
AcDbEntity
  8
LAYOUT
100
AcDbTrace
 10
33.2899778258
 20
8.3894520179
 30
0.0
 11
32.7396444925
 21
8.4741186846
 31
0.0
 12
32.7396444925
 22
8.3047853513
 32
0.0
 13
32.7396444925
 23
8.3047853513
 33
0.0
  0
LINE
  5
1D3
330
1CE
100
AcDbEntity
  8
LAYOUT
100
AcDbLine
 10
15.6899778258
 20
11.2175293395
 30
0.0
 11
15.6899778258
 21
7.8602853513
 31
0.0
  0
LINE
  5
1D4
330
1CE
100
AcDbEntity
  8
LAYOUT
100
AcDbLine
 10
33.2899778258
 20
11.2175293395
 30
0.0
 11
33.2899778258
 21
7.8602853513
 31
0.0
  0
LINE
  5
1D5
330
1CE
100
AcDbEntity
  8
LAYOUT
100
AcDbLine
 10
15.6899778258
 20
8.3894520179
 30
0.0
 11
22.0773097573
 21
8.3894520179
 31
0.0
  0
LINE
  5
1D6
330
1CE
100
AcDbEntity
  8
LAYOUT
100
AcDbLine
 10
33.2899778258
 20
8.3894520179
 30
0.0
 11
26.2481724047
 21
8.3894520179
 31
0.0
  0
MTEXT
  5
1D7
330
1CE
100
AcDbEntity
  8
LAYOUT
100
AcDbMText
 10
22.0773097573
 20
8.9010507869
 30
0.11
 40
0.396875
 41
0.0
 46
0.0
 71
     1
 72
     1
  1
17.6000
  7
SLDTEXTSTYLE0
 73
     1
 44
1.0
  0
MTEXT
  5
1D8
330
1CE
100
AcDbEntity
  8
LAYOUT
100
AcDbMText
 10
24.3409671956
 20
8.9010507869
 30
0.11
 40
0.396875
 41
0.0
 46
0.0
 71
     1
 72
     1
  1
±0.1250
  7
SLDTEXTSTYLE0
 73
     1
 44
1.0
  0
MTEXT
  5
1D9
330
1CE
100
AcDbEntity
  8
LAYOUT
100
AcDbMText
 10
22.1636667982
 20
8.3094130262
 30
0.11
 40
0.396875
 41
0.0
 46
0.0
 71
     1
 72
     1
  1
Socket base size
  7
SLDTEXTSTYLE0
 73
     1
 44
1.0
  0
ENDBLK
  5
1D0
330
1CE
100
AcDbEntity
  8
0
100
AcDbBlockEnd
  0
BLOCK
  5
1DD
330
1DC
100
AcDbEntity
  8
0
100
AcDbBlockBegin
  2
_D_10
 70
     0
 10
0.0
 20
0.0
 30
0.0
  3
_D_10
  1

  0
SOLID
  5
1DF
330
1DC
100
AcDbEntity
  8
LAYOUT
100
AcDbTrace
 10
16.9399778258
 20
9.7625293395
 30
0.0
 11
17.4903111592
 21
9.6778626728
 31
0.0
 12
17.4903111592
 22
9.8471960061
 32
0.0
 13
17.4903111592
 23
9.8471960061
 33
0.0
  0
SOLID
  5
1E0
330
1DC
100
AcDbEntity
  8
LAYOUT
100
AcDbTrace
 10
31.6649778258
 20
9.7625293395
 30
0.0
 11
31.1146444925
 21
9.8471960061
 31
0.0
 12
31.1146444925
 22
9.6778626728
 32
0.0
 13
31.1146444925
 23
9.6778626728
 33
0.0
  0
LINE
  5
1E1
330
1DC
100
AcDbEntity
  8
LAYOUT
100
AcDbLine
 10
16.9399778258
 20
12.4675293395
 30
0.0
 11
16.9399778258
 21
9.2333626728
 31
0.0
  0
LINE
  5
1E2
330
1DC
100
AcDbEntity
  8
LAYOUT
100
AcDbLine
 10
31.6649778258
 20
12.4675293395
 30
0.0
 11
31.6649778258
 21
9.2333626728
 31
0.0
  0
LINE
  5
1E3
330
1DC
100
AcDbEntity
  8
LAYOUT
100
AcDbLine
 10
16.9399778258
 20
9.7625293395
 30
0.0
 11
22.08813422
 21
9.7625293395
 31
0.0
  0
LINE
  5
1E4
330
1DC
100
AcDbEntity
  8
LAYOUT
100
AcDbLine
 10
31.6649778258
 20
9.7625293395
 30
0.0
 11
27.3173304208
 21
9.7625293395
 31
0.0
  0
MTEXT
  5
1E5
330
1DC
100
AcDbEntity
  8
LAYOUT
100
AcDbMText
 10
22.08813422
 20
9.9783092281
 30
0.11
 40
0.396875
 41
0.0
 46
0.0
 71
     1
 72
     1
  1
14.7250
  7
SLDTEXTSTYLE0
 73
     1
 44
1.0
  0
MTEXT
  5
1E6
330
1DC
100
AcDbEntity
  8
LAYOUT
100
AcDbMText
 10
24.3517916582
 20
9.9783092281
 30
0.11
 40
0.396875
 41
0.0
 46
0.0
 71
     1
 72
     1
  1
±0.0500 (x4)
  7
SLDTEXTSTYLE0
 73
     1
 44
1.0
  0
ENDBLK
  5
1DE
330
1DC
100
AcDbEntity
  8
0
100
AcDbBlockEnd
  0
BLOCK
  5
1E9
330
1E8
100
AcDbEntity
  8
0
100
AcDbBlockBegin
  2
_D_11
 70
     0
 10
0.0
 20
0.0
 30
0.0
  3
_D_11
  1

  0
SOLID
  5
1EB
330
1E8
100
AcDbEntity
  8
LAYOUT
100
AcDbTrace
 10
16.9399778258
 20
29.3873010364
 30
0.0
 11
17.4903111592
 21
29.3026343698
 31
0.0
 12
17.4903111592
 22
29.4719677031
 32
0.0
 13
17.4903111592
 23
29.4719677031
 33
0.0
  0
SOLID
  5
1EC
330
1E8
100
AcDbEntity
  8
LAYOUT
100
AcDbTrace
 10
24.4899778258
 20
29.3873010364
 30
0.0
 11
23.9396444925
 21
29.4719677031
 31
0.0
 12
23.9396444925
 22
29.3026343698
 32
0.0
 13
23.9396444925
 23
29.3026343698
 33
0.0
  0
LINE
  5
1ED
330
1E8
100
AcDbEntity
  8
LAYOUT
100
AcDbLine
 10
16.9399778258
 20
27.6158626728
 30
0.0
 11
16.9399778258
 21
29.9164677031
 31
0.0
  0
LINE
  5
1EE
330
1E8
100
AcDbEntity
  8
LAYOUT
100
AcDbLine
 10
24.4899778258
 20
29.2825293395
 30
0.0
 11
24.4899778258
 21
29.9164677031
 31
0.0
  0
LINE
  5
1EF
330
1E8
100
AcDbEntity
  8
LAYOUT
100
AcDbLine
 10
16.9399778258
 20
29.3873010364
 30
0.0
 11
19.6836542619
 21
29.3873010364
 31
0.0
  0
LINE
  5
1F0
330
1E8
100
AcDbEntity
  8
LAYOUT
100
AcDbLine
 10
24.4899778258
 20
29.3873010364
 30
0.0
 11
21.6533301059
 21
29.3873010364
 31
0.0
  0
MTEXT
  5
1F1
330
1E8
100
AcDbEntity
  8
LAYOUT
100
AcDbMText
 10
19.6836542619
 20
29.603080925
 30
0.11
 40
0.396875
 41
0.0
 46
0.0
 71
     1
 72
     1
  1
7.5500
  7
SLDTEXTSTYLE0
 73
     1
 44
1.0
  0
ENDBLK
  5
1EA
330
1E8
100
AcDbEntity
  8
0
100
AcDbBlockEnd
  0
BLOCK
  5
1F4
330
1F3
100
AcDbEntity
  8
0
100
AcDbBlockBegin
  2
_D_12
 70
     0
 10
0.0
 20
0.0
 30
0.0
  3
_D_12
  1

  0
SOLID
  5
1F6
330
1F3
100
AcDbEntity
  8
LAYOUT
100
AcDbTrace
 10
24.4899778258
 20
29.3873010364
 30
0.0
 11
25.0403111592
 21
29.3026343698
 31
0.0
 12
25.0403111592
 22
29.4719677031
 32
0.0
 13
25.0403111592
 23
29.4719677031
 33
0.0
  0
SOLID
  5
1F7
330
1F3
100
AcDbEntity
  8
LAYOUT
100
AcDbTrace
 10
31.6649778258
 20
29.3873010364
 30
0.0
 11
31.1146444925
 21
29.4719677031
 31
0.0
 12
31.1146444925
 22
29.3026343698
 32
0.0
 13
31.1146444925
 23
29.3026343698
 33
0.0
  0
LINE
  5
1F8
330
1F3
100
AcDbEntity
  8
LAYOUT
100
AcDbLine
 10
24.4899778258
 20
29.2825293395
 30
0.0
 11
24.4899778258
 21
29.9164677031
 31
0.0
  0
LINE
  5
1F9
330
1F3
100
AcDbEntity
  8
LAYOUT
100
AcDbLine
 10
31.6649778258
 20
27.6158626728
 30
0.0
 11
31.6649778258
 21
29.9164677031
 31
0.0
  0
LINE
  5
1FA
330
1F3
100
AcDbEntity
  8
LAYOUT
100
AcDbLine
 10
24.4899778258
 20
29.3873010364
 30
0.0
 11
27.032182576
 21
29.3873010364
 31
0.0
  0
LINE
  5
1FB
330
1F3
100
AcDbEntity
  8
LAYOUT
100
AcDbLine
 10
31.6649778258
 20
29.3873010364
 30
0.0
 11
29.0018584199
 21
29.3873010364
 31
0.0
  0
MTEXT
  5
1FC
330
1F3
100
AcDbEntity
  8
LAYOUT
100
AcDbMText
 10
27.032182576
 20
29.603080925
 30
0.11
 40
0.396875
 41
0.0
 46
0.0
 71
     1
 72
     1
  1
7.1750
  7
SLDTEXTSTYLE0
 73
     1
 44
1.0
  0
ENDBLK
  5
1F5
330
1F3
100
AcDbEntity
  8
0
100
AcDbBlockEnd
  0
BLOCK
  5
1FF
330
1FE
100
AcDbEntity
  8
0
100
AcDbBlockBegin
  2
_D_13
 70
     0
 10
0.0
 20
0.0
 30
0.0
  3
_D_13
  1

  0
SOLID
  5
201
330
1FE
100
AcDbEntity
  8
LAYOUT
100
AcDbTrace
 10
31.6649778258
 20
29.0959282409
 30
0.0
 11
32.2153111592
 21
29.0112615743
 31
0.0
 12
32.2153111592
 22
29.1805949076
 32
0.0
 13
32.2153111592
 23
29.1805949076
 33
0.0
  0
SOLID
  5
202
330
1FE
100
AcDbEntity
  8
LAYOUT
100
AcDbTrace
 10
33.2899778258
 20
29.0959282409
 30
0.0
 11
32.7396444925
 21
29.1805949076
 31
0.0
 12
32.7396444925
 22
29.0112615743
 32
0.0
 13
32.7396444925
 23
29.0112615743
 33
0.0
  0
LINE
  5
203
330
1FE
100
AcDbEntity
  8
LAYOUT
100
AcDbLine
 10
31.6649778258
 20
28.9708626728
 30
0.0
 11
31.6649778258
 21
29.6250949076
 31
0.0
  0
LINE
  5
204
330
1FE
100
AcDbEntity
  8
LAYOUT
100
AcDbLine
 10
33.2899778258
 20
28.8658626728
 30
0.0
 11
33.2899778258
 21
29.6250949076
 31
0.0
  0
LINE
  5
205
330
1FE
100
AcDbEntity
  8
LAYOUT
100
AcDbLine
 10
31.6649778258
 20
29.0959282409
 30
0.0
 11
33.2899778258
 21
29.0959282409
 31
0.0
  0
LINE
  5
206
330
1FE
100
AcDbEntity
  8
LAYOUT
100
AcDbLine
 10
33.2899778258
 20
29.0959282409
 30
0.0
 11
33.9718065706
 21
29.0959282409
 31
0.0
  0
MTEXT
  5
207
330
1FE
100
AcDbEntity
  8
LAYOUT
100
AcDbMText
 10
33.9718065706
 20
29.3117081295
 30
0.11
 40
0.396875
 41
0.0
 46
0.0
 71
     1
 72
     1
  1
1.6250
  7
SLDTEXTSTYLE0
 73
     1
 44
1.0
  0
ENDBLK
  5
200
330
1FE
100
AcDbEntity
  8
0
100
AcDbBlockEnd
  0
BLOCK
  5
20B
330
20A
100
AcDbEntity
  8
0
100
AcDbBlockBegin
  2
_D_14
 70
     0
 10
0.0
 20
0.0
 30
0.0
  3
_D_14
  1

  0
SOLID
  5
20D
330
20A
100
AcDbEntity
  8
LAYOUT
100
AcDbTrace
 10
31.9654982079
 20
24.5636756241
 30
0.0
 11
32.2947742656
 21
24.1146628181
 31
0.0
 12
32.4145110139
 22
24.2343995664
 32
0.0
 13
32.4145110139
 23
24.2343995664
 33
0.0
  0
LINE
  5
20E
330
20A
100
AcDbEntity
  8
LAYOUT
100
AcDbLine
 10
31.9654982079
 20
24.5636756241
 30
0.0
 11
33.7358468537
 21
22.7933269783
 31
0.0
  0
LINE
  5
20F
330
20A
100
AcDbEntity
  8
LAYOUT
100
AcDbLine
 10
33.7358468537
 20
22.7933269783
 30
0.0
 11
34.794180187
 21
22.7933269783
 31
0.0
  0
MTEXT
  5
210
330
20A
100
AcDbEntity
  8
LAYOUT
100
AcDbMText
 10
35.1176514898
 20
23.2799373634
 30
0.11
 40
0.396875
 41
0.0
 46
0.0
 71
     1
 72
     1
  1
%%c
  7
SLDTEXTSTYLE0
 73
     1
 44
1.0
  0
MTEXT
  5
211
330
20A
100
AcDbEntity
  8
LAYOUT
100
AcDbMText
 10
35.6797073411
 20
23.2799373537
 30
0.11
 40
0.396875
 41
0.0
 46
0.0
 71
     1
 72
     1
  1
0.8500
  7
SLDTEXTSTYLE0
 73
     1
 44
1.0
  0
MTEXT
  5
212
330
20A
100
AcDbEntity
  8
LAYOUT
100
AcDbMText
 10
37.6493833014
 20
23.2799373537
 30
0.11
 40
0.396875
 41
0.0
 46
0.0
 71
     1
 72
     1
  1
±0.0500 (x2)
  7
SLDTEXTSTYLE0
 73
     1
 44
1.0
  0
MTEXT
  5
213
330
20A
100
AcDbEntity
  8
LAYOUT
100
AcDbMText
 10
34.794180187
 20
22.6882995929
 30
0.11
 40
0.396875
 41
0.0
 46
0.0
 71
     1
 72
     1
  1
Non plated alignment hole
  7
SLDTEXTSTYLE0
 73
     1
 44
1.0
  0
ENDBLK
  5
20C
330
20A
100
AcDbEntity
  8
0
100
AcDbBlockEnd
  0
BLOCK
  5
217
330
216
100
AcDbEntity
  8
0
100
AcDbBlockBegin
  2
_D_15
 70
     0
 10
0.0
 20
0.0
 30
0.0
  3
_D_15
  1

  0
SOLID
  5
219
330
216
100
AcDbEntity
  8
LAYOUT
100
AcDbTrace
 10
32.4054295461
 20
12.2516960061
 30
0.0
 11
32.83969886
 21
11.9032058553
 31
0.0
 12
32.9243655266
 22
12.0498528237
 32
0.0
 13
32.9243655266
 23
12.0498528237
 33
0.0
  0
LINE
  5
21A
330
216
100
AcDbEntity
  8
LAYOUT
100
AcDbLine
 10
32.4054295461
 20
12.2516960061
 30
0.0
 11
33.7946431104
 21
11.4496331808
 31
0.0
  0
LINE
  5
21B
330
216
100
AcDbEntity
  8
LAYOUT
100
AcDbLine
 10
33.7946431104
 20
11.4496331808
 30
0.0
 11
34.8529764438
 21
11.4496331808
 31
0.0
  0
MTEXT
  5
21C
330
216
100
AcDbEntity
  8
LAYOUT
100
AcDbMText
 10
35.1176514898
 20
11.9362435658
 30
0.11
 40
0.396875
 41
0.0
 46
0.0
 71
     1
 72
     1
  1
%%c
  7
SLDTEXTSTYLE0
 73
     1
 44
1.0
  0
MTEXT
  5
21D
330
216
100
AcDbEntity
  8
LAYOUT
100
AcDbMText
 10
35.6797073411
 20
11.9362435561
 30
0.11
 40
0.396875
 41
0.0
 46
0.0
 71
     1
 72
     1
  1
1.7100
  7
SLDTEXTSTYLE0
 73
     1
 44
1.0
  0
MTEXT
  5
21E
330
216
100
AcDbEntity
  8
LAYOUT
100
AcDbMText
 10
37.6493833014
 20
11.9362435561
 30
0.11
 40
0.396875
 41
0.0
 46
0.0
 71
     1
 72
     1
  1
±0.1000 (x4)
  7
SLDTEXTSTYLE0
 73
     1
 44
1.0
  0
MTEXT
  5
21F
330
216
100
AcDbEntity
  8
LAYOUT
100
AcDbMText
 10
34.8529764438
 20
11.3446057954
 30
0.11
 40
0.396875
 41
0.0
 46
0.0
 71
     1
 72
     1
  1
Non plated mounting hole
  7
SLDTEXTSTYLE0
 73
     1
 44
1.0
  0
ENDBLK
  5
218
330
216
100
AcDbEntity
  8
0
100
AcDbBlockEnd
  0
BLOCK
  5
223
330
222
100
AcDbEntity
  8
0
100
AcDbBlockBegin
  2
_D_16
 70
     0
 10
0.0
 20
0.0
 30
0.0
  3
_D_16
  1

  0
SOLID
  5
225
330
222
100
AcDbEntity
  8
LAYOUT
100
AcDbTrace
 10
30.06119127
 20
17.1348989068
 30
0.0
 11
30.4944217533
 21
16.7851181604
 31
0.0
 12
30.5795243831
 22
16.9315125598
 32
0.0
 13
30.5795243831
 23
16.9315125598
 33
0.0
  0
LINE
  5
226
330
222
100
AcDbEntity
  8
LAYOUT
100
AcDbLine
 10
30.06119127
 20
17.1348989068
 30
0.0
 11
34.1484133978
 21
14.7588971418
 31
0.0
  0
LINE
  5
227
330
222
100
AcDbEntity
  8
LAYOUT
100
AcDbLine
 10
34.1484133978
 20
14.7588971418
 30
0.0
 11
35.2067467311
 21
14.7588971418
 31
0.0
  0
MTEXT
  5
228
330
222
100
AcDbEntity
  8
LAYOUT
100
AcDbMText
 10
35.2067467311
 20
14.9496886271
 30
0.11
 40
0.396875
 41
0.0
 46
0.0
 71
     1
 72
     1
  1
%%c
  7
SLDTEXTSTYLE0
 73
     1
 44
1.0
  0
MTEXT
  5
229
330
222
100
AcDbEntity
  8
LAYOUT
100
AcDbMText
 10
35.7688025825
 20
14.9496886174
 30
0.11
 40
0.396875
 41
0.0
 46
0.0
 71
     1
 72
     1
  1
0.4250
  7
SLDTEXTSTYLE0
 73
     1
 44
1.0
  0
ENDBLK
  5
224
330
222
100
AcDbEntity
  8
0
100
AcDbBlockEnd
  0
BLOCK
  5
22D
330
22C
100
AcDbEntity
  8
0
100
AcDbBlockBegin
  2
_DOT
 70
     0
 10
0.0
 20
0.0
 30
0.0
  3
_DOT
  1

  0
POLYLINE
  5
22F
330
22C
100
AcDbEntity
  8
0
  6
ByBlock
 62
     0
100
AcDb2dPolyline
 66
     1
 10
0.0
 20
0.0
 30
0.0
 70
     1
 40
0.5
 41
0.5
  0
VERTEX
  5
231
330
22F
100
AcDbEntity
  8
0
  6
ByBlock
 62
     0
100
AcDbVertex
100
AcDb2dVertex
 10
-0.25
 20
0.0
 30
0.0
 42
1.0
  0
VERTEX
  5
232
330
22F
100
AcDbEntity
  8
0
  6
ByBlock
 62
     0
100
AcDbVertex
100
AcDb2dVertex
 10
0.25
 20
0.0
 30
0.0
 42
1.0
  0
SEQEND
  5
233
330
22F
100
AcDbEntity
  8
0
  6
ByBlock
 62
     0
  0
LINE
  5
230
330
22C
100
AcDbEntity
  8
0
  6
ByBlock
 62
     0
370
    -2
100
AcDbLine
 10
-0.5
 20
0.0
 30
0.0
 11
-1.0
 21
0.0
 31
0.0
  0
ENDBLK
  5
22E
330
22C
100
AcDbEntity
  8
0
100
AcDbBlockEnd
  0
BLOCK
  5
236
330
235
100
AcDbEntity
  8
0
100
AcDbBlockBegin
  2
SW_CENTERMARKSYMBOL_0
 70
     0
 10
0.0
 20
0.0
 30
0.0
  3
SW_CENTERMARKSYMBOL_0
  1

  0
LINE
  5
238
330
235
100
AcDbEntity
  8
LAYOUT
 62
     0
100
AcDbLine
 10
0.0
 20
0.0
 30
0.0
 11
0.5
 21
0.0
 31
0.0
  0
LINE
  5
239
330
235
100
AcDbEntity
  8
LAYOUT
 62
     0
100
AcDbLine
 10
0.0
 20
0.0
 30
0.0
 11
0.0
 21
0.5
 31
0.0
  0
LINE
  5
23A
330
235
100
AcDbEntity
  8
LAYOUT
 62
     0
100
AcDbLine
 10
0.0
 20
0.0
 30
0.0
 11
-0.5
 21
0.0
 31
0.0
  0
LINE
  5
23B
330
235
100
AcDbEntity
  8
LAYOUT
 62
     0
100
AcDbLine
 10
0.0
 20
0.0
 30
0.0
 11
0.0
 21
-0.5
 31
0.0
  0
LINE
  5
23C
330
235
100
AcDbEntity
  8
LAYOUT
 62
     0
100
AcDbLine
 10
0.0
 20
-9.645
 30
0.0
 11
0.5
 21
-9.645
 31
0.0
  0
LINE
  5
23D
330
235
100
AcDbEntity
  8
LAYOUT
 62
     0
100
AcDbLine
 10
0.0
 20
-9.645
 30
0.0
 11
0.0
 21
-9.145
 31
0.0
  0
LINE
  5
23E
330
235
100
AcDbEntity
  8
LAYOUT
 62
     0
100
AcDbLine
 10
0.0
 20
-9.645
 30
0.0
 11
-0.5
 21
-9.645
 31
0.0
  0
LINE
  5
23F
330
235
100
AcDbEntity
  8
LAYOUT
 62
     0
100
AcDbLine
 10
0.0
 20
-9.645
 30
0.0
 11
0.0
 21
-10.145
 31
0.0
  0
LINE
  5
240
330
235
100
AcDbEntity
  8
LAYOUT
 62
     0
100
AcDbLine
 10
0.0
 20
-14.725
 30
0.0
 11
0.5
 21
-14.725
 31
0.0
  0
LINE
  5
241
330
235
100
AcDbEntity
  8
LAYOUT
 62
     0
100
AcDbLine
 10
0.0
 20
-14.725
 30
0.0
 11
0.0
 21
-14.225
 31
0.0
  0
LINE
  5
242
330
235
100
AcDbEntity
  8
LAYOUT
 62
     0
100
AcDbLine
 10
0.0
 20
-14.725
 30
0.0
 11
-0.5
 21
-14.725
 31
0.0
  0
LINE
  5
243
330
235
100
AcDbEntity
  8
LAYOUT
 62
     0
100
AcDbLine
 10
0.0
 20
-14.725
 30
0.0
 11
0.0
 21
-15.225
 31
0.0
  0
LINE
  5
244
330
235
100
AcDbEntity
  8
LAYOUT
 62
     0
100
AcDbLine
 10
14.725
 20
-14.725
 30
0.0
 11
15.225
 21
-14.725
 31
0.0
  0
LINE
  5
245
330
235
100
AcDbEntity
  8
LAYOUT
 62
     0
100
AcDbLine
 10
14.725
 20
-14.725
 30
0.0
 11
14.725
 21
-14.225
 31
0.0
  0
LINE
  5
246
330
235
100
AcDbEntity
  8
LAYOUT
 62
     0
100
AcDbLine
 10
14.725
 20
-14.725
 30
0.0
 11
14.225
 21
-14.725
 31
0.0
  0
LINE
  5
247
330
235
100
AcDbEntity
  8
LAYOUT
 62
     0
100
AcDbLine
 10
14.725
 20
-14.725
 30
0.0
 11
14.725
 21
-15.225
 31
0.0
  0
LINE
  5
248
330
235
100
AcDbEntity
  8
LAYOUT
 62
     0
100
AcDbLine
 10
14.725
 20
-2.54
 30
0.0
 11
15.225
 21
-2.54
 31
0.0
  0
LINE
  5
249
330
235
100
AcDbEntity
  8
LAYOUT
 62
     0
100
AcDbLine
 10
14.725
 20
-2.54
 30
0.0
 11
14.725
 21
-2.04
 31
0.0
  0
LINE
  5
24A
330
235
100
AcDbEntity
  8
LAYOUT
 62
     0
100
AcDbLine
 10
14.725
 20
-2.54
 30
0.0
 11
14.225
 21
-2.54
 31
0.0
  0
LINE
  5
24B
330
235
100
AcDbEntity
  8
LAYOUT
 62
     0
100
AcDbLine
 10
14.725
 20
-2.54
 30
0.0
 11
14.725
 21
-3.04
 31
0.0
  0
LINE
  5
24C
330
235
100
AcDbEntity
  8
LAYOUT
 62
     0
100
AcDbLine
 10
14.725
 20
0.0
 30
0.0
 11
15.225
 21
0.0
 31
0.0
  0
LINE
  5
24D
330
235
100
AcDbEntity
  8
LAYOUT
 62
     0
100
AcDbLine
 10
14.725
 20
0.0
 30
0.0
 11
14.725
 21
0.5
 31
0.0
  0
LINE
  5
24E
330
235
100
AcDbEntity
  8
LAYOUT
 62
     0
100
AcDbLine
 10
14.725
 20
0.0
 30
0.0
 11
14.225
 21
0.0
 31
0.0
  0
LINE
  5
24F
330
235
100
AcDbEntity
  8
LAYOUT
 62
     0
100
AcDbLine
 10
14.725
 20
0.0
 30
0.0
 11
14.725
 21
-0.5
 31
0.0
  0
LINE
  5
250
330
235
100
AcDbEntity
  8
LAYOUT
 62
     0
100
AcDbLine
 10
0.0
 20
-1.0
 30
0.0
 11
0.0
 21
-8.645
 31
0.0
  0
LINE
  5
251
330
235
100
AcDbEntity
  8
LAYOUT
 62
     0
100
AcDbLine
 10
0.0
 20
-10.645
 30
0.0
 11
0.0
 21
-13.725
 31
0.0
  0
LINE
  5
252
330
235
100
AcDbEntity
  8
LAYOUT
 62
     0
100
AcDbLine
 10
1.0
 20
-14.725
 30
0.0
 11
13.725
 21
-14.725
 31
0.0
  0
LINE
  5
253
330
235
100
AcDbEntity
  8
LAYOUT
 62
     0
100
AcDbLine
 10
14.725
 20
-3.54
 30
0.0
 11
14.725
 21
-13.725
 31
0.0
  0
LINE
  5
254
330
235
100
AcDbEntity
  8
LAYOUT
 62
     0
100
AcDbLine
 10
14.725
 20
-1.0
 30
0.0
 11
14.725
 21
-1.54
 31
0.0
  0
LINE
  5
255
330
235
100
AcDbEntity
  8
LAYOUT
 62
     0
100
AcDbLine
 10
1.0
 20
0.0
 30
0.0
 11
13.725
 21
0.0
 31
0.0
  0
ENDBLK
  5
237
330
235
100
AcDbEntity
  8
0
100
AcDbBlockEnd
  0
ENDSEC
  0
SECTION
  2
ENTITIES
  0
MTEXT
  5
63
330
1F
100
AcDbEntity
  8
LAYOUT
100
AcDbMText
 10
2.0043719749
 20
5.6592181544
 30
0.0
 40
0.3527777778
 41
0.0
 46
0.0
 71
     1
 72
     1
  1
Primary dimension units are millimeters, Secondary dimension units are [inches].
  7
SLDTEXTSTYLE0
 73
     1
 44
1.0
  0
INSERT
  5
6A
330
1F
100
AcDbEntity
  8
LAYOUT
100
AcDbBlockReference
  2
SW_NOTE_0
 10
2.0043719749
 20
5.9635316027
 30
0.0
  0
INSERT
  5
71
330
1F
100
AcDbEntity
  8
LAYOUT
100
AcDbBlockReference
  2
SW_NOTE_1
 10
1.9739439861
 20
4.5626769415
 30
0.0
  0
INSERT
  5
83
330
1F
100
AcDbEntity
  8
LAYOUT
100
AcDbBlockReference
  2
SW_NOTE_3
 10
1.7390740276
 20
9.0398992935
 30
0.0
  0
INSERT
  5
8C
330
1F
100
AcDbEntity
  8
LAYOUT
100
AcDbBlockReference
  2
SW_NOTE_4
 10
29.9244266076
 20
33.2246708824
 30
0.0
  0
CIRCLE
  5
8D
330
1F
100
AcDbEntity
  8
0
  6
Continuous
 62
     7
370
     0
100
AcDbCircle
 10
29.8774778258
 20
14.8416960061
 30
0.0
 40
0.2125000000000004
  0
CIRCLE
  5
8E
330
1F
100
AcDbEntity
  8
0
  6
Continuous
 62
     7
370
     0
100
AcDbCircle
 10
29.8774778258
 20
15.6416960061
 30
0.0
 40
0.2125000000000004
  0
CIRCLE
  5
8F
330
1F
100
AcDbEntity
  8
0
  6
Continuous
 62
     7
370
     0
100
AcDbCircle
 10
29.8774778258
 20
16.4416960061
 30
0.0
 40
0.2124999999999986
  0
CIRCLE
  5
90
330
1F
100
AcDbEntity
  8
0
  6
Continuous
 62
     7
370
     0
100
AcDbCircle
 10
29.8774778258
 20
17.2416960061
 30
0.0
 40
0.2124999999999986
  0
CIRCLE
  5
91
330
1F
100
AcDbEntity
  8
0
  6
Continuous
 62
     7
370
     0
100
AcDbCircle
 10
29.8774778258
 20
18.0416960061
 30
0.0
 40
0.2125000000000021
  0
CIRCLE
  5
92
330
1F
100
AcDbEntity
  8
0
  6
Continuous
 62
     7
370
     0
100
AcDbCircle
 10
29.8774778258
 20
18.8416960061
 30
0.0
 40
0.2125000000000021
  0
CIRCLE
  5
93
330
1F
100
AcDbEntity
  8
0
  6
Continuous
 62
     7
370
     0
100
AcDbCircle
 10
29.8774778258
 20
19.6416960061
 30
0.0
 40
0.2124999999999986
  0
CIRCLE
  5
94
330
1F
100
AcDbEntity
  8
0
  6
Continuous
 62
     7
370
     0
100
AcDbCircle
 10
29.8774778258
 20
20.4416960061
 30
0.0
 40
0.2124999999999986
  0
CIRCLE
  5
95
330
1F
100
AcDbEntity
  8
0
  6
Continuous
 62
     7
370
     0
100
AcDbCircle
 10
29.8774778258
 20
21.2416960061
 30
0.0
 40
0.2125000000000021
  0
CIRCLE
  5
96
330
1F
100
AcDbEntity
  8
0
  6
Continuous
 62
     7
370
     0
100
AcDbCircle
 10
29.8774778258
 20
22.0416960061
 30
0.0
 40
0.2124999999999986
  0
CIRCLE
  5
97
330
1F
100
AcDbEntity
  8
0
  6
Continuous
 62
     7
370
     0
100
AcDbCircle
 10
29.8774778258
 20
22.8416960061
 30
0.0
 40
0.2124999999999986
  0
CIRCLE
  5
98
330
1F
100
AcDbEntity
  8
0
  6
Continuous
 62
     7
370
     0
100
AcDbCircle
 10
29.8774778258
 20
23.6416960061
 30
0.0
 40
0.2124999999999986
  0
CIRCLE
  5
99
330
1F
100
AcDbEntity
  8
0
  6
Continuous
 62
     7
370
     0
100
AcDbCircle
 10
29.8774778258
 20
24.4416960061
 30
0.0
 40
0.2125000000000021
  0
CIRCLE
  5
9A
330
1F
100
AcDbEntity
  8
0
  6
Continuous
 62
     7
370
     0
100
AcDbCircle
 10
29.8774778258
 20
25.2416960061
 30
0.0
 40
0.2124999999999986
  0
CIRCLE
  5
9B
330
1F
100
AcDbEntity
  8
0
  6
Continuous
 62
     7
370
     0
100
AcDbCircle
 10
29.0774778258
 20
14.8416960061
 30
0.0
 40
0.2125000000000004
  0
CIRCLE
  5
9C
330
1F
100
AcDbEntity
  8
0
  6
Continuous
 62
     7
370
     0
100
AcDbCircle
 10
29.0774778258
 20
15.6416960061
 30
0.0
 40
0.2125000000000004
  0
CIRCLE
  5
9D
330
1F
100
AcDbEntity
  8
0
  6
Continuous
 62
     7
370
     0
100
AcDbCircle
 10
29.0774778258
 20
16.4416960061
 30
0.0
 40
0.2124999999999986
  0
CIRCLE
  5
9E
330
1F
100
AcDbEntity
  8
0
  6
Continuous
 62
     7
370
     0
100
AcDbCircle
 10
29.0774778258
 20
17.2416960061
 30
0.0
 40
0.2124999999999986
  0
CIRCLE
  5
9F
330
1F
100
AcDbEntity
  8
0
  6
Continuous
 62
     7
370
     0
100
AcDbCircle
 10
29.0774778258
 20
18.0416960061
 30
0.0
 40
0.2125000000000021
  0
CIRCLE
  5
A0
330
1F
100
AcDbEntity
  8
0
  6
Continuous
 62
     7
370
     0
100
AcDbCircle
 10
29.0774778258
 20
18.8416960061
 30
0.0
 40
0.2125000000000021
  0
CIRCLE
  5
A1
330
1F
100
AcDbEntity
  8
0
  6
Continuous
 62
     7
370
     0
100
AcDbCircle
 10
29.0774778258
 20
19.6416960061
 30
0.0
 40
0.2124999999999986
  0
CIRCLE
  5
A2
330
1F
100
AcDbEntity
  8
0
  6
Continuous
 62
     7
370
     0
100
AcDbCircle
 10
29.0774778258
 20
20.4416960061
 30
0.0
 40
0.2124999999999986
  0
CIRCLE
  5
A3
330
1F
100
AcDbEntity
  8
0
  6
Continuous
 62
     7
370
     0
100
AcDbCircle
 10
29.0774778258
 20
21.2416960061
 30
0.0
 40
0.2125000000000021
  0
CIRCLE
  5
A4
330
1F
100
AcDbEntity
  8
0
  6
Continuous
 62
     7
370
     0
100
AcDbCircle
 10
29.0774778258
 20
22.0416960061
 30
0.0
 40
0.2124999999999986
  0
CIRCLE
  5
A5
330
1F
100
AcDbEntity
  8
0
  6
Continuous
 62
     7
370
     0
100
AcDbCircle
 10
29.0774778258
 20
22.8416960061
 30
0.0
 40
0.2124999999999986
  0
CIRCLE
  5
A6
330
1F
100
AcDbEntity
  8
0
  6
Continuous
 62
     7
370
     0
100
AcDbCircle
 10
29.0774778258
 20
23.6416960061
 30
0.0
 40
0.2124999999999986
  0
CIRCLE
  5
A7
330
1F
100
AcDbEntity
  8
0
  6
Continuous
 62
     7
370
     0
100
AcDbCircle
 10
29.0774778258
 20
24.4416960061
 30
0.0
 40
0.2125000000000021
  0
CIRCLE
  5
A8
330
1F
100
AcDbEntity
  8
0
  6
Continuous
 62
     7
370
     0
100
AcDbCircle
 10
29.0774778258
 20
25.2416960061
 30
0.0
 40
0.2124999999999986
  0
CIRCLE
  5
A9
330
1F
100
AcDbEntity
  8
0
  6
Continuous
 62
     7
370
     0
100
AcDbCircle
 10
28.2774778258
 20
14.8416960061
 30
0.0
 40
0.2125000000000004
  0
CIRCLE
  5
AA
330
1F
100
AcDbEntity
  8
0
  6
Continuous
 62
     7
370
     0
100
AcDbCircle
 10
28.2774778258
 20
15.6416960061
 30
0.0
 40
0.2125000000000004
  0
CIRCLE
  5
AB
330
1F
100
AcDbEntity
  8
0
  6
Continuous
 62
     7
370
     0
100
AcDbCircle
 10
28.2774778258
 20
16.4416960061
 30
0.0
 40
0.2124999999999986
  0
CIRCLE
  5
AC
330
1F
100
AcDbEntity
  8
0
  6
Continuous
 62
     7
370
     0
100
AcDbCircle
 10
28.2774778258
 20
17.2416960061
 30
0.0
 40
0.2124999999999986
  0
CIRCLE
  5
AD
330
1F
100
AcDbEntity
  8
0
  6
Continuous
 62
     7
370
     0
100
AcDbCircle
 10
28.2774778258
 20
18.0416960061
 30
0.0
 40
0.2125000000000021
  0
CIRCLE
  5
AE
330
1F
100
AcDbEntity
  8
0
  6
Continuous
 62
     7
370
     0
100
AcDbCircle
 10
28.2774778258
 20
18.8416960061
 30
0.0
 40
0.2125000000000021
  0
CIRCLE
  5
AF
330
1F
100
AcDbEntity
  8
0
  6
Continuous
 62
     7
370
     0
100
AcDbCircle
 10
28.2774778258
 20
19.6416960061
 30
0.0
 40
0.2124999999999986
  0
CIRCLE
  5
B0
330
1F
100
AcDbEntity
  8
0
  6
Continuous
 62
     7
370
     0
100
AcDbCircle
 10
28.2774778258
 20
20.4416960061
 30
0.0
 40
0.2124999999999986
  0
CIRCLE
  5
B1
330
1F
100
AcDbEntity
  8
0
  6
Continuous
 62
     7
370
     0
100
AcDbCircle
 10
28.2774778258
 20
21.2416960061
 30
0.0
 40
0.2125000000000021
  0
CIRCLE
  5
B2
330
1F
100
AcDbEntity
  8
0
  6
Continuous
 62
     7
370
     0
100
AcDbCircle
 10
28.2774778258
 20
22.0416960061
 30
0.0
 40
0.2124999999999986
  0
CIRCLE
  5
B3
330
1F
100
AcDbEntity
  8
0
  6
Continuous
 62
     7
370
     0
100
AcDbCircle
 10
28.2774778258
 20
22.8416960061
 30
0.0
 40
0.2124999999999986
  0
CIRCLE
  5
B4
330
1F
100
AcDbEntity
  8
0
  6
Continuous
 62
     7
370
     0
100
AcDbCircle
 10
28.2774778258
 20
23.6416960061
 30
0.0
 40
0.2124999999999986
  0
CIRCLE
  5
B5
330
1F
100
AcDbEntity
  8
0
  6
Continuous
 62
     7
370
     0
100
AcDbCircle
 10
28.2774778258
 20
24.4416960061
 30
0.0
 40
0.2125000000000021
  0
CIRCLE
  5
B6
330
1F
100
AcDbEntity
  8
0
  6
Continuous
 62
     7
370
     0
100
AcDbCircle
 10
28.2774778258
 20
25.2416960061
 30
0.0
 40
0.2124999999999986
  0
CIRCLE
  5
B7
330
1F
100
AcDbEntity
  8
0
  6
Continuous
 62
     7
370
     0
100
AcDbCircle
 10
27.4774778258
 20
14.8416960061
 30
0.0
 40
0.2125000000000004
  0
CIRCLE
  5
B8
330
1F
100
AcDbEntity
  8
0
  6
Continuous
 62
     7
370
     0
100
AcDbCircle
 10
27.4774778258
 20
15.6416960061
 30
0.0
 40
0.2125000000000004
  0
CIRCLE
  5
B9
330
1F
100
AcDbEntity
  8
0
  6
Continuous
 62
     7
370
     0
100
AcDbCircle
 10
27.4774778258
 20
16.4416960061
 30
0.0
 40
0.2124999999999986
  0
CIRCLE
  5
BA
330
1F
100
AcDbEntity
  8
0
  6
Continuous
 62
     7
370
     0
100
AcDbCircle
 10
27.4774778258
 20
17.2416960061
 30
0.0
 40
0.2124999999999986
  0
CIRCLE
  5
BB
330
1F
100
AcDbEntity
  8
0
  6
Continuous
 62
     7
370
     0
100
AcDbCircle
 10
27.4774778258
 20
18.0416960061
 30
0.0
 40
0.2125000000000021
  0
CIRCLE
  5
BC
330
1F
100
AcDbEntity
  8
0
  6
Continuous
 62
     7
370
     0
100
AcDbCircle
 10
27.4774778258
 20
18.8416960061
 30
0.0
 40
0.2125000000000021
  0
CIRCLE
  5
BD
330
1F
100
AcDbEntity
  8
0
  6
Continuous
 62
     7
370
     0
100
AcDbCircle
 10
27.4774778258
 20
19.6416960061
 30
0.0
 40
0.2124999999999986
  0
CIRCLE
  5
BE
330
1F
100
AcDbEntity
  8
0
  6
Continuous
 62
     7
370
     0
100
AcDbCircle
 10
27.4774778258
 20
20.4416960061
 30
0.0
 40
0.2124999999999986
  0
CIRCLE
  5
BF
330
1F
100
AcDbEntity
  8
0
  6
Continuous
 62
     7
370
     0
100
AcDbCircle
 10
27.4774778258
 20
21.2416960061
 30
0.0
 40
0.2125000000000021
  0
CIRCLE
  5
C0
330
1F
100
AcDbEntity
  8
0
  6
Continuous
 62
     7
370
     0
100
AcDbCircle
 10
27.4774778258
 20
22.0416960061
 30
0.0
 40
0.2124999999999986
  0
CIRCLE
  5
C1
330
1F
100
AcDbEntity
  8
0
  6
Continuous
 62
     7
370
     0
100
AcDbCircle
 10
27.4774778258
 20
22.8416960061
 30
0.0
 40
0.2124999999999986
  0
CIRCLE
  5
C2
330
1F
100
AcDbEntity
  8
0
  6
Continuous
 62
     7
370
     0
100
AcDbCircle
 10
27.4774778258
 20
23.6416960061
 30
0.0
 40
0.2124999999999986
  0
CIRCLE
  5
C3
330
1F
100
AcDbEntity
  8
0
  6
Continuous
 62
     7
370
     0
100
AcDbCircle
 10
27.4774778258
 20
24.4416960061
 30
0.0
 40
0.2125000000000021
  0
CIRCLE
  5
C4
330
1F
100
AcDbEntity
  8
0
  6
Continuous
 62
     7
370
     0
100
AcDbCircle
 10
27.4774778258
 20
25.2416960061
 30
0.0
 40
0.2124999999999986
  0
CIRCLE
  5
C5
330
1F
100
AcDbEntity
  8
0
  6
Continuous
 62
     7
370
     0
100
AcDbCircle
 10
26.6774778258
 20
14.8416960061
 30
0.0
 40
0.2125000000000004
  0
CIRCLE
  5
C6
330
1F
100
AcDbEntity
  8
0
  6
Continuous
 62
     7
370
     0
100
AcDbCircle
 10
26.6774778258
 20
15.6416960061
 30
0.0
 40
0.2125000000000004
  0
CIRCLE
  5
C7
330
1F
100
AcDbEntity
  8
0
  6
Continuous
 62
     7
370
     0
100
AcDbCircle
 10
26.6774778258
 20
16.4416960061
 30
0.0
 40
0.2124999999999986
  0
CIRCLE
  5
C8
330
1F
100
AcDbEntity
  8
0
  6
Continuous
 62
     7
370
     0
100
AcDbCircle
 10
26.6774778258
 20
17.2416960061
 30
0.0
 40
0.2124999999999986
  0
CIRCLE
  5
C9
330
1F
100
AcDbEntity
  8
0
  6
Continuous
 62
     7
370
     0
100
AcDbCircle
 10
26.6774778258
 20
18.0416960061
 30
0.0
 40
0.2125000000000021
  0
CIRCLE
  5
CA
330
1F
100
AcDbEntity
  8
0
  6
Continuous
 62
     7
370
     0
100
AcDbCircle
 10
26.6774778258
 20
18.8416960061
 30
0.0
 40
0.2125000000000021
  0
CIRCLE
  5
CB
330
1F
100
AcDbEntity
  8
0
  6
Continuous
 62
     7
370
     0
100
AcDbCircle
 10
26.6774778258
 20
19.6416960061
 30
0.0
 40
0.2124999999999986
  0
CIRCLE
  5
CC
330
1F
100
AcDbEntity
  8
0
  6
Continuous
 62
     7
370
     0
100
AcDbCircle
 10
26.6774778258
 20
20.4416960061
 30
0.0
 40
0.2124999999999986
  0
CIRCLE
  5
CD
330
1F
100
AcDbEntity
  8
0
  6
Continuous
 62
     7
370
     0
100
AcDbCircle
 10
26.6774778258
 20
21.2416960061
 30
0.0
 40
0.2125000000000021
  0
CIRCLE
  5
CE
330
1F
100
AcDbEntity
  8
0
  6
Continuous
 62
     7
370
     0
100
AcDbCircle
 10
26.6774778258
 20
22.0416960061
 30
0.0
 40
0.2124999999999986
  0
CIRCLE
  5
CF
330
1F
100
AcDbEntity
  8
0
  6
Continuous
 62
     7
370
     0
100
AcDbCircle
 10
26.6774778258
 20
22.8416960061
 30
0.0
 40
0.2124999999999986
  0
CIRCLE
  5
D0
330
1F
100
AcDbEntity
  8
0
  6
Continuous
 62
     7
370
     0
100
AcDbCircle
 10
26.6774778258
 20
23.6416960061
 30
0.0
 40
0.2124999999999986
  0
CIRCLE
  5
D1
330
1F
100
AcDbEntity
  8
0
  6
Continuous
 62
     7
370
     0
100
AcDbCircle
 10
26.6774778258
 20
24.4416960061
 30
0.0
 40
0.2125000000000021
  0
CIRCLE
  5
D2
330
1F
100
AcDbEntity
  8
0
  6
Continuous
 62
     7
370
     0
100
AcDbCircle
 10
26.6774778258
 20
25.2416960061
 30
0.0
 40
0.2124999999999986
  0
CIRCLE
  5
D3
330
1F
100
AcDbEntity
  8
0
  6
Continuous
 62
     7
370
     0
100
AcDbCircle
 10
25.8774778258
 20
14.8416960061
 30
0.0
 40
0.2125000000000004
  0
CIRCLE
  5
D4
330
1F
100
AcDbEntity
  8
0
  6
Continuous
 62
     7
370
     0
100
AcDbCircle
 10
25.8774778258
 20
15.6416960061
 30
0.0
 40
0.2125000000000004
  0
CIRCLE
  5
D5
330
1F
100
AcDbEntity
  8
0
  6
Continuous
 62
     7
370
     0
100
AcDbCircle
 10
25.8774778258
 20
16.4416960061
 30
0.0
 40
0.2124999999999986
  0
CIRCLE
  5
D6
330
1F
100
AcDbEntity
  8
0
  6
Continuous
 62
     7
370
     0
100
AcDbCircle
 10
25.8774778258
 20
17.2416960061
 30
0.0
 40
0.2124999999999986
  0
CIRCLE
  5
D7
330
1F
100
AcDbEntity
  8
0
  6
Continuous
 62
     7
370
     0
100
AcDbCircle
 10
25.8774778258
 20
18.0416960061
 30
0.0
 40
0.2125000000000021
  0
CIRCLE
  5
D8
330
1F
100
AcDbEntity
  8
0
  6
Continuous
 62
     7
370
     0
100
AcDbCircle
 10
25.8774778258
 20
18.8416960061
 30
0.0
 40
0.2125000000000021
  0
CIRCLE
  5
D9
330
1F
100
AcDbEntity
  8
0
  6
Continuous
 62
     7
370
     0
100
AcDbCircle
 10
25.8774778258
 20
19.6416960061
 30
0.0
 40
0.2124999999999986
  0
CIRCLE
  5
DA
330
1F
100
AcDbEntity
  8
0
  6
Continuous
 62
     7
370
     0
100
AcDbCircle
 10
25.8774778258
 20
20.4416960061
 30
0.0
 40
0.2124999999999986
  0
CIRCLE
  5
DB
330
1F
100
AcDbEntity
  8
0
  6
Continuous
 62
     7
370
     0
100
AcDbCircle
 10
25.8774778258
 20
21.2416960061
 30
0.0
 40
0.2125000000000021
  0
CIRCLE
  5
DC
330
1F
100
AcDbEntity
  8
0
  6
Continuous
 62
     7
370
     0
100
AcDbCircle
 10
25.8774778258
 20
22.0416960061
 30
0.0
 40
0.2124999999999986
  0
CIRCLE
  5
DD
330
1F
100
AcDbEntity
  8
0
  6
Continuous
 62
     7
370
     0
100
AcDbCircle
 10
25.8774778258
 20
22.8416960061
 30
0.0
 40
0.2124999999999986
  0
CIRCLE
  5
DE
330
1F
100
AcDbEntity
  8
0
  6
Continuous
 62
     7
370
     0
100
AcDbCircle
 10
25.8774778258
 20
23.6416960061
 30
0.0
 40
0.2124999999999986
  0
CIRCLE
  5
DF
330
1F
100
AcDbEntity
  8
0
  6
Continuous
 62
     7
370
     0
100
AcDbCircle
 10
25.8774778258
 20
24.4416960061
 30
0.0
 40
0.2125000000000021
  0
CIRCLE
  5
E0
330
1F
100
AcDbEntity
  8
0
  6
Continuous
 62
     7
370
     0
100
AcDbCircle
 10
25.8774778258
 20
25.2416960061
 30
0.0
 40
0.2124999999999986
  0
CIRCLE
  5
E1
330
1F
100
AcDbEntity
  8
0
  6
Continuous
 62
     7
370
     0
100
AcDbCircle
 10
25.0774778258
 20
14.8416960061
 30
0.0
 40
0.2125000000000004
  0
CIRCLE
  5
E2
330
1F
100
AcDbEntity
  8
0
  6
Continuous
 62
     7
370
     0
100
AcDbCircle
 10
25.0774778258
 20
15.6416960061
 30
0.0
 40
0.2125000000000004
  0
CIRCLE
  5
E3
330
1F
100
AcDbEntity
  8
0
  6
Continuous
 62
     7
370
     0
100
AcDbCircle
 10
25.0774778258
 20
16.4416960061
 30
0.0
 40
0.2124999999999986
  0
CIRCLE
  5
E4
330
1F
100
AcDbEntity
  8
0
  6
Continuous
 62
     7
370
     0
100
AcDbCircle
 10
25.0774778258
 20
17.2416960061
 30
0.0
 40
0.2124999999999986
  0
CIRCLE
  5
E5
330
1F
100
AcDbEntity
  8
0
  6
Continuous
 62
     7
370
     0
100
AcDbCircle
 10
25.0774778258
 20
18.0416960061
 30
0.0
 40
0.2125000000000021
  0
CIRCLE
  5
E6
330
1F
100
AcDbEntity
  8
0
  6
Continuous
 62
     7
370
     0
100
AcDbCircle
 10
25.0774778258
 20
18.8416960061
 30
0.0
 40
0.2125000000000021
  0
CIRCLE
  5
E7
330
1F
100
AcDbEntity
  8
0
  6
Continuous
 62
     7
370
     0
100
AcDbCircle
 10
25.0774778258
 20
19.6416960061
 30
0.0
 40
0.2124999999999986
  0
CIRCLE
  5
E8
330
1F
100
AcDbEntity
  8
0
  6
Continuous
 62
     7
370
     0
100
AcDbCircle
 10
25.0774778258
 20
20.4416960061
 30
0.0
 40
0.2124999999999986
  0
CIRCLE
  5
E9
330
1F
100
AcDbEntity
  8
0
  6
Continuous
 62
     7
370
     0
100
AcDbCircle
 10
25.0774778258
 20
21.2416960061
 30
0.0
 40
0.2125000000000021
  0
CIRCLE
  5
EA
330
1F
100
AcDbEntity
  8
0
  6
Continuous
 62
     7
370
     0
100
AcDbCircle
 10
25.0774778258
 20
22.0416960061
 30
0.0
 40
0.2124999999999986
  0
CIRCLE
  5
EB
330
1F
100
AcDbEntity
  8
0
  6
Continuous
 62
     7
370
     0
100
AcDbCircle
 10
25.0774778258
 20
22.8416960061
 30
0.0
 40
0.2124999999999986
  0
CIRCLE
  5
EC
330
1F
100
AcDbEntity
  8
0
  6
Continuous
 62
     7
370
     0
100
AcDbCircle
 10
25.0774778258
 20
23.6416960061
 30
0.0
 40
0.2124999999999986
  0
CIRCLE
  5
ED
330
1F
100
AcDbEntity
  8
0
  6
Continuous
 62
     7
370
     0
100
AcDbCircle
 10
25.0774778258
 20
24.4416960061
 30
0.0
 40
0.2125000000000021
  0
CIRCLE
  5
EE
330
1F
100
AcDbEntity
  8
0
  6
Continuous
 62
     7
370
     0
100
AcDbCircle
 10
25.0774778258
 20
25.2416960061
 30
0.0
 40
0.2124999999999986
  0
CIRCLE
  5
EF
330
1F
100
AcDbEntity
  8
0
  6
Continuous
 62
     7
370
     0
100
AcDbCircle
 10
24.2774778258
 20
14.8416960061
 30
0.0
 40
0.2125000000000004
  0
CIRCLE
  5
F0
330
1F
100
AcDbEntity
  8
0
  6
Continuous
 62
     7
370
     0
100
AcDbCircle
 10
24.2774778258
 20
15.6416960061
 30
0.0
 40
0.2125000000000004
  0
CIRCLE
  5
F1
330
1F
100
AcDbEntity
  8
0
  6
Continuous
 62
     7
370
     0
100
AcDbCircle
 10
24.2774778258
 20
16.4416960061
 30
0.0
 40
0.2124999999999986
  0
CIRCLE
  5
F2
330
1F
100
AcDbEntity
  8
0
  6
Continuous
 62
     7
370
     0
100
AcDbCircle
 10
24.2774778258
 20
17.2416960061
 30
0.0
 40
0.2124999999999986
  0
CIRCLE
  5
F3
330
1F
100
AcDbEntity
  8
0
  6
Continuous
 62
     7
370
     0
100
AcDbCircle
 10
24.2774778258
 20
18.0416960061
 30
0.0
 40
0.2125000000000021
  0
CIRCLE
  5
F4
330
1F
100
AcDbEntity
  8
0
  6
Continuous
 62
     7
370
     0
100
AcDbCircle
 10
24.2774778258
 20
18.8416960061
 30
0.0
 40
0.2125000000000021
  0
CIRCLE
  5
F5
330
1F
100
AcDbEntity
  8
0
  6
Continuous
 62
     7
370
     0
100
AcDbCircle
 10
24.2774778258
 20
19.6416960061
 30
0.0
 40
0.2124999999999986
  0
CIRCLE
  5
F6
330
1F
100
AcDbEntity
  8
0
  6
Continuous
 62
     7
370
     0
100
AcDbCircle
 10
24.2774778258
 20
20.4416960061
 30
0.0
 40
0.2124999999999986
  0
CIRCLE
  5
F7
330
1F
100
AcDbEntity
  8
0
  6
Continuous
 62
     7
370
     0
100
AcDbCircle
 10
24.2774778258
 20
21.2416960061
 30
0.0
 40
0.2125000000000021
  0
CIRCLE
  5
F8
330
1F
100
AcDbEntity
  8
0
  6
Continuous
 62
     7
370
     0
100
AcDbCircle
 10
24.2774778258
 20
22.0416960061
 30
0.0
 40
0.2124999999999986
  0
CIRCLE
  5
F9
330
1F
100
AcDbEntity
  8
0
  6
Continuous
 62
     7
370
     0
100
AcDbCircle
 10
24.2774778258
 20
22.8416960061
 30
0.0
 40
0.2124999999999986
  0
CIRCLE
  5
FA
330
1F
100
AcDbEntity
  8
0
  6
Continuous
 62
     7
370
     0
100
AcDbCircle
 10
24.2774778258
 20
23.6416960061
 30
0.0
 40
0.2124999999999986
  0
CIRCLE
  5
FB
330
1F
100
AcDbEntity
  8
0
  6
Continuous
 62
     7
370
     0
100
AcDbCircle
 10
24.2774778258
 20
24.4416960061
 30
0.0
 40
0.2125000000000021
  0
CIRCLE
  5
FC
330
1F
100
AcDbEntity
  8
0
  6
Continuous
 62
     7
370
     0
100
AcDbCircle
 10
24.2774778258
 20
25.2416960061
 30
0.0
 40
0.2124999999999986
  0
CIRCLE
  5
FD
330
1F
100
AcDbEntity
  8
0
  6
Continuous
 62
     7
370
     0
100
AcDbCircle
 10
23.4774778258
 20
14.8416960061
 30
0.0
 40
0.2125000000000004
  0
CIRCLE
  5
FE
330
1F
100
AcDbEntity
  8
0
  6
Continuous
 62
     7
370
     0
100
AcDbCircle
 10
23.4774778258
 20
15.6416960061
 30
0.0
 40
0.2125000000000004
  0
CIRCLE
  5
FF
330
1F
100
AcDbEntity
  8
0
  6
Continuous
 62
     7
370
     0
100
AcDbCircle
 10
23.4774778258
 20
16.4416960061
 30
0.0
 40
0.2124999999999986
  0
CIRCLE
  5
100
330
1F
100
AcDbEntity
  8
0
  6
Continuous
 62
     7
370
     0
100
AcDbCircle
 10
23.4774778258
 20
17.2416960061
 30
0.0
 40
0.2124999999999986
  0
CIRCLE
  5
101
330
1F
100
AcDbEntity
  8
0
  6
Continuous
 62
     7
370
     0
100
AcDbCircle
 10
23.4774778258
 20
18.0416960061
 30
0.0
 40
0.2125000000000021
  0
CIRCLE
  5
102
330
1F
100
AcDbEntity
  8
0
  6
Continuous
 62
     7
370
     0
100
AcDbCircle
 10
23.4774778258
 20
18.8416960061
 30
0.0
 40
0.2125000000000021
  0
CIRCLE
  5
103
330
1F
100
AcDbEntity
  8
0
  6
Continuous
 62
     7
370
     0
100
AcDbCircle
 10
23.4774778258
 20
19.6416960061
 30
0.0
 40
0.2124999999999986
  0
CIRCLE
  5
104
330
1F
100
AcDbEntity
  8
0
  6
Continuous
 62
     7
370
     0
100
AcDbCircle
 10
23.4774778258
 20
20.4416960061
 30
0.0
 40
0.2124999999999986
  0
CIRCLE
  5
105
330
1F
100
AcDbEntity
  8
0
  6
Continuous
 62
     7
370
     0
100
AcDbCircle
 10
23.4774778258
 20
21.2416960061
 30
0.0
 40
0.2125000000000021
  0
CIRCLE
  5
106
330
1F
100
AcDbEntity
  8
0
  6
Continuous
 62
     7
370
     0
100
AcDbCircle
 10
23.4774778258
 20
22.0416960061
 30
0.0
 40
0.2124999999999986
  0
CIRCLE
  5
107
330
1F
100
AcDbEntity
  8
0
  6
Continuous
 62
     7
370
     0
100
AcDbCircle
 10
23.4774778258
 20
22.8416960061
 30
0.0
 40
0.2124999999999986
  0
CIRCLE
  5
108
330
1F
100
AcDbEntity
  8
0
  6
Continuous
 62
     7
370
     0
100
AcDbCircle
 10
23.4774778258
 20
23.6416960061
 30
0.0
 40
0.2124999999999986
  0
CIRCLE
  5
109
330
1F
100
AcDbEntity
  8
0
  6
Continuous
 62
     7
370
     0
100
AcDbCircle
 10
23.4774778258
 20
24.4416960061
 30
0.0
 40
0.2125000000000021
  0
CIRCLE
  5
10A
330
1F
100
AcDbEntity
  8
0
  6
Continuous
 62
     7
370
     0
100
AcDbCircle
 10
23.4774778258
 20
25.2416960061
 30
0.0
 40
0.2124999999999986
  0
CIRCLE
  5
10B
330
1F
100
AcDbEntity
  8
0
  6
Continuous
 62
     7
370
     0
100
AcDbCircle
 10
22.6774778258
 20
14.8416960061
 30
0.0
 40
0.2125000000000004
  0
CIRCLE
  5
10C
330
1F
100
AcDbEntity
  8
0
  6
Continuous
 62
     7
370
     0
100
AcDbCircle
 10
22.6774778258
 20
15.6416960061
 30
0.0
 40
0.2125000000000004
  0
CIRCLE
  5
10D
330
1F
100
AcDbEntity
  8
0
  6
Continuous
 62
     7
370
     0
100
AcDbCircle
 10
22.6774778258
 20
16.4416960061
 30
0.0
 40
0.2124999999999986
  0
CIRCLE
  5
10E
330
1F
100
AcDbEntity
  8
0
  6
Continuous
 62
     7
370
     0
100
AcDbCircle
 10
22.6774778258
 20
17.2416960061
 30
0.0
 40
0.2124999999999986
  0
CIRCLE
  5
10F
330
1F
100
AcDbEntity
  8
0
  6
Continuous
 62
     7
370
     0
100
AcDbCircle
 10
22.6774778258
 20
18.0416960061
 30
0.0
 40
0.2125000000000021
  0
CIRCLE
  5
110
330
1F
100
AcDbEntity
  8
0
  6
Continuous
 62
     7
370
     0
100
AcDbCircle
 10
22.6774778258
 20
18.8416960061
 30
0.0
 40
0.2125000000000021
  0
CIRCLE
  5
111
330
1F
100
AcDbEntity
  8
0
  6
Continuous
 62
     7
370
     0
100
AcDbCircle
 10
22.6774778258
 20
19.6416960061
 30
0.0
 40
0.2124999999999986
  0
CIRCLE
  5
112
330
1F
100
AcDbEntity
  8
0
  6
Continuous
 62
     7
370
     0
100
AcDbCircle
 10
22.6774778258
 20
20.4416960061
 30
0.0
 40
0.2124999999999986
  0
CIRCLE
  5
113
330
1F
100
AcDbEntity
  8
0
  6
Continuous
 62
     7
370
     0
100
AcDbCircle
 10
22.6774778258
 20
21.2416960061
 30
0.0
 40
0.2125000000000021
  0
CIRCLE
  5
114
330
1F
100
AcDbEntity
  8
0
  6
Continuous
 62
     7
370
     0
100
AcDbCircle
 10
22.6774778258
 20
22.0416960061
 30
0.0
 40
0.2124999999999986
  0
CIRCLE
  5
115
330
1F
100
AcDbEntity
  8
0
  6
Continuous
 62
     7
370
     0
100
AcDbCircle
 10
22.6774778258
 20
22.8416960061
 30
0.0
 40
0.2124999999999986
  0
CIRCLE
  5
116
330
1F
100
AcDbEntity
  8
0
  6
Continuous
 62
     7
370
     0
100
AcDbCircle
 10
22.6774778258
 20
23.6416960061
 30
0.0
 40
0.2124999999999986
  0
CIRCLE
  5
117
330
1F
100
AcDbEntity
  8
0
  6
Continuous
 62
     7
370
     0
100
AcDbCircle
 10
22.6774778258
 20
24.4416960061
 30
0.0
 40
0.2125000000000021
  0
CIRCLE
  5
118
330
1F
100
AcDbEntity
  8
0
  6
Continuous
 62
     7
370
     0
100
AcDbCircle
 10
22.6774778258
 20
25.2416960061
 30
0.0
 40
0.2124999999999986
  0
CIRCLE
  5
119
330
1F
100
AcDbEntity
  8
0
  6
Continuous
 62
     7
370
     0
100
AcDbCircle
 10
21.8774778258
 20
14.8416960061
 30
0.0
 40
0.2125000000000004
  0
CIRCLE
  5
11A
330
1F
100
AcDbEntity
  8
0
  6
Continuous
 62
     7
370
     0
100
AcDbCircle
 10
21.8774778258
 20
15.6416960061
 30
0.0
 40
0.2125000000000004
  0
CIRCLE
  5
11B
330
1F
100
AcDbEntity
  8
0
  6
Continuous
 62
     7
370
     0
100
AcDbCircle
 10
21.8774778258
 20
16.4416960061
 30
0.0
 40
0.2124999999999986
  0
CIRCLE
  5
11C
330
1F
100
AcDbEntity
  8
0
  6
Continuous
 62
     7
370
     0
100
AcDbCircle
 10
21.8774778258
 20
17.2416960061
 30
0.0
 40
0.2124999999999986
  0
CIRCLE
  5
11D
330
1F
100
AcDbEntity
  8
0
  6
Continuous
 62
     7
370
     0
100
AcDbCircle
 10
21.8774778258
 20
18.0416960061
 30
0.0
 40
0.2125000000000021
  0
CIRCLE
  5
11E
330
1F
100
AcDbEntity
  8
0
  6
Continuous
 62
     7
370
     0
100
AcDbCircle
 10
21.8774778258
 20
18.8416960061
 30
0.0
 40
0.2125000000000021
  0
CIRCLE
  5
11F
330
1F
100
AcDbEntity
  8
0
  6
Continuous
 62
     7
370
     0
100
AcDbCircle
 10
21.8774778258
 20
19.6416960061
 30
0.0
 40
0.2124999999999986
  0
CIRCLE
  5
120
330
1F
100
AcDbEntity
  8
0
  6
Continuous
 62
     7
370
     0
100
AcDbCircle
 10
21.8774778258
 20
20.4416960061
 30
0.0
 40
0.2124999999999986
  0
CIRCLE
  5
121
330
1F
100
AcDbEntity
  8
0
  6
Continuous
 62
     7
370
     0
100
AcDbCircle
 10
21.8774778258
 20
21.2416960061
 30
0.0
 40
0.2125000000000021
  0
CIRCLE
  5
122
330
1F
100
AcDbEntity
  8
0
  6
Continuous
 62
     7
370
     0
100
AcDbCircle
 10
21.8774778258
 20
22.0416960061
 30
0.0
 40
0.2124999999999986
  0
CIRCLE
  5
123
330
1F
100
AcDbEntity
  8
0
  6
Continuous
 62
     7
370
     0
100
AcDbCircle
 10
21.8774778258
 20
22.8416960061
 30
0.0
 40
0.2124999999999986
  0
CIRCLE
  5
124
330
1F
100
AcDbEntity
  8
0
  6
Continuous
 62
     7
370
     0
100
AcDbCircle
 10
21.8774778258
 20
23.6416960061
 30
0.0
 40
0.2124999999999986
  0
CIRCLE
  5
125
330
1F
100
AcDbEntity
  8
0
  6
Continuous
 62
     7
370
     0
100
AcDbCircle
 10
21.8774778258
 20
24.4416960061
 30
0.0
 40
0.2125000000000021
  0
CIRCLE
  5
126
330
1F
100
AcDbEntity
  8
0
  6
Continuous
 62
     7
370
     0
100
AcDbCircle
 10
21.8774778258
 20
25.2416960061
 30
0.0
 40
0.2124999999999986
  0
CIRCLE
  5
127
330
1F
100
AcDbEntity
  8
0
  6
Continuous
 62
     7
370
     0
100
AcDbCircle
 10
21.0774778258
 20
14.8416960061
 30
0.0
 40
0.2125000000000004
  0
CIRCLE
  5
128
330
1F
100
AcDbEntity
  8
0
  6
Continuous
 62
     7
370
     0
100
AcDbCircle
 10
21.0774778258
 20
15.6416960061
 30
0.0
 40
0.2125000000000004
  0
CIRCLE
  5
129
330
1F
100
AcDbEntity
  8
0
  6
Continuous
 62
     7
370
     0
100
AcDbCircle
 10
21.0774778258
 20
16.4416960061
 30
0.0
 40
0.2124999999999986
  0
CIRCLE
  5
12A
330
1F
100
AcDbEntity
  8
0
  6
Continuous
 62
     7
370
     0
100
AcDbCircle
 10
21.0774778258
 20
17.2416960061
 30
0.0
 40
0.2124999999999986
  0
CIRCLE
  5
12B
330
1F
100
AcDbEntity
  8
0
  6
Continuous
 62
     7
370
     0
100
AcDbCircle
 10
21.0774778258
 20
18.0416960061
 30
0.0
 40
0.2125000000000021
  0
CIRCLE
  5
12C
330
1F
100
AcDbEntity
  8
0
  6
Continuous
 62
     7
370
     0
100
AcDbCircle
 10
21.0774778258
 20
18.8416960061
 30
0.0
 40
0.2125000000000021
  0
CIRCLE
  5
12D
330
1F
100
AcDbEntity
  8
0
  6
Continuous
 62
     7
370
     0
100
AcDbCircle
 10
21.0774778258
 20
19.6416960061
 30
0.0
 40
0.2124999999999986
  0
CIRCLE
  5
12E
330
1F
100
AcDbEntity
  8
0
  6
Continuous
 62
     7
370
     0
100
AcDbCircle
 10
21.0774778258
 20
20.4416960061
 30
0.0
 40
0.2124999999999986
  0
CIRCLE
  5
12F
330
1F
100
AcDbEntity
  8
0
  6
Continuous
 62
     7
370
     0
100
AcDbCircle
 10
21.0774778258
 20
21.2416960061
 30
0.0
 40
0.2125000000000021
  0
CIRCLE
  5
130
330
1F
100
AcDbEntity
  8
0
  6
Continuous
 62
     7
370
     0
100
AcDbCircle
 10
21.0774778258
 20
22.0416960061
 30
0.0
 40
0.2124999999999986
  0
CIRCLE
  5
131
330
1F
100
AcDbEntity
  8
0
  6
Continuous
 62
     7
370
     0
100
AcDbCircle
 10
21.0774778258
 20
22.8416960061
 30
0.0
 40
0.2124999999999986
  0
CIRCLE
  5
132
330
1F
100
AcDbEntity
  8
0
  6
Continuous
 62
     7
370
     0
100
AcDbCircle
 10
21.0774778258
 20
23.6416960061
 30
0.0
 40
0.2124999999999986
  0
CIRCLE
  5
133
330
1F
100
AcDbEntity
  8
0
  6
Continuous
 62
     7
370
     0
100
AcDbCircle
 10
21.0774778258
 20
24.4416960061
 30
0.0
 40
0.2125000000000021
  0
CIRCLE
  5
134
330
1F
100
AcDbEntity
  8
0
  6
Continuous
 62
     7
370
     0
100
AcDbCircle
 10
21.0774778258
 20
25.2416960061
 30
0.0
 40
0.2124999999999986
  0
CIRCLE
  5
135
330
1F
100
AcDbEntity
  8
0
  6
Continuous
 62
     7
370
     0
100
AcDbCircle
 10
20.2774778258
 20
14.8416960061
 30
0.0
 40
0.2125000000000004
  0
CIRCLE
  5
136
330
1F
100
AcDbEntity
  8
0
  6
Continuous
 62
     7
370
     0
100
AcDbCircle
 10
20.2774778258
 20
15.6416960061
 30
0.0
 40
0.2125000000000004
  0
CIRCLE
  5
137
330
1F
100
AcDbEntity
  8
0
  6
Continuous
 62
     7
370
     0
100
AcDbCircle
 10
20.2774778258
 20
16.4416960061
 30
0.0
 40
0.2124999999999986
  0
CIRCLE
  5
138
330
1F
100
AcDbEntity
  8
0
  6
Continuous
 62
     7
370
     0
100
AcDbCircle
 10
20.2774778258
 20
17.2416960061
 30
0.0
 40
0.2124999999999986
  0
CIRCLE
  5
139
330
1F
100
AcDbEntity
  8
0
  6
Continuous
 62
     7
370
     0
100
AcDbCircle
 10
20.2774778258
 20
18.0416960061
 30
0.0
 40
0.2125000000000021
  0
CIRCLE
  5
13A
330
1F
100
AcDbEntity
  8
0
  6
Continuous
 62
     7
370
     0
100
AcDbCircle
 10
20.2774778258
 20
18.8416960061
 30
0.0
 40
0.2125000000000021
  0
CIRCLE
  5
13B
330
1F
100
AcDbEntity
  8
0
  6
Continuous
 62
     7
370
     0
100
AcDbCircle
 10
20.2774778258
 20
19.6416960061
 30
0.0
 40
0.2124999999999986
  0
CIRCLE
  5
13C
330
1F
100
AcDbEntity
  8
0
  6
Continuous
 62
     7
370
     0
100
AcDbCircle
 10
20.2774778258
 20
20.4416960061
 30
0.0
 40
0.2124999999999986
  0
CIRCLE
  5
13D
330
1F
100
AcDbEntity
  8
0
  6
Continuous
 62
     7
370
     0
100
AcDbCircle
 10
20.2774778258
 20
21.2416960061
 30
0.0
 40
0.2125000000000021
  0
CIRCLE
  5
13E
330
1F
100
AcDbEntity
  8
0
  6
Continuous
 62
     7
370
     0
100
AcDbCircle
 10
20.2774778258
 20
22.0416960061
 30
0.0
 40
0.2124999999999986
  0
CIRCLE
  5
13F
330
1F
100
AcDbEntity
  8
0
  6
Continuous
 62
     7
370
     0
100
AcDbCircle
 10
20.2774778258
 20
22.8416960061
 30
0.0
 40
0.2124999999999986
  0
CIRCLE
  5
140
330
1F
100
AcDbEntity
  8
0
  6
Continuous
 62
     7
370
     0
100
AcDbCircle
 10
20.2774778258
 20
23.6416960061
 30
0.0
 40
0.2124999999999986
  0
CIRCLE
  5
141
330
1F
100
AcDbEntity
  8
0
  6
Continuous
 62
     7
370
     0
100
AcDbCircle
 10
20.2774778258
 20
24.4416960061
 30
0.0
 40
0.2125000000000021
  0
CIRCLE
  5
142
330
1F
100
AcDbEntity
  8
0
  6
Continuous
 62
     7
370
     0
100
AcDbCircle
 10
20.2774778258
 20
25.2416960061
 30
0.0
 40
0.2124999999999986
  0
CIRCLE
  5
143
330
1F
100
AcDbEntity
  8
0
  6
Continuous
 62
     7
370
     0
100
AcDbCircle
 10
19.4774778258
 20
14.8416960061
 30
0.0
 40
0.2125000000000004
  0
CIRCLE
  5
144
330
1F
100
AcDbEntity
  8
0
  6
Continuous
 62
     7
370
     0
100
AcDbCircle
 10
19.4774778258
 20
15.6416960061
 30
0.0
 40
0.2125000000000004
  0
CIRCLE
  5
145
330
1F
100
AcDbEntity
  8
0
  6
Continuous
 62
     7
370
     0
100
AcDbCircle
 10
19.4774778258
 20
16.4416960061
 30
0.0
 40
0.2124999999999986
  0
CIRCLE
  5
146
330
1F
100
AcDbEntity
  8
0
  6
Continuous
 62
     7
370
     0
100
AcDbCircle
 10
19.4774778258
 20
17.2416960061
 30
0.0
 40
0.2124999999999986
  0
CIRCLE
  5
147
330
1F
100
AcDbEntity
  8
0
  6
Continuous
 62
     7
370
     0
100
AcDbCircle
 10
19.4774778258
 20
18.0416960061
 30
0.0
 40
0.2125000000000021
  0
CIRCLE
  5
148
330
1F
100
AcDbEntity
  8
0
  6
Continuous
 62
     7
370
     0
100
AcDbCircle
 10
19.4774778258
 20
18.8416960061
 30
0.0
 40
0.2125000000000021
  0
CIRCLE
  5
149
330
1F
100
AcDbEntity
  8
0
  6
Continuous
 62
     7
370
     0
100
AcDbCircle
 10
19.4774778258
 20
19.6416960061
 30
0.0
 40
0.2124999999999986
  0
CIRCLE
  5
14A
330
1F
100
AcDbEntity
  8
0
  6
Continuous
 62
     7
370
     0
100
AcDbCircle
 10
19.4774778258
 20
20.4416960061
 30
0.0
 40
0.2124999999999986
  0
CIRCLE
  5
14B
330
1F
100
AcDbEntity
  8
0
  6
Continuous
 62
     7
370
     0
100
AcDbCircle
 10
19.4774778258
 20
21.2416960061
 30
0.0
 40
0.2125000000000021
  0
CIRCLE
  5
14C
330
1F
100
AcDbEntity
  8
0
  6
Continuous
 62
     7
370
     0
100
AcDbCircle
 10
19.4774778258
 20
22.0416960061
 30
0.0
 40
0.2124999999999986
  0
CIRCLE
  5
14D
330
1F
100
AcDbEntity
  8
0
  6
Continuous
 62
     7
370
     0
100
AcDbCircle
 10
19.4774778258
 20
22.8416960061
 30
0.0
 40
0.2124999999999986
  0
CIRCLE
  5
14E
330
1F
100
AcDbEntity
  8
0
  6
Continuous
 62
     7
370
     0
100
AcDbCircle
 10
19.4774778258
 20
23.6416960061
 30
0.0
 40
0.2124999999999986
  0
CIRCLE
  5
14F
330
1F
100
AcDbEntity
  8
0
  6
Continuous
 62
     7
370
     0
100
AcDbCircle
 10
31.6649778258
 20
27.4041960061
 30
0.0
 40
0.8550000000000004
  0
CIRCLE
  5
150
330
1F
100
AcDbEntity
  8
0
  6
Continuous
 62
     7
370
     0
100
AcDbCircle
 10
31.6649778258
 20
12.6791960061
 30
0.0
 40
0.8549999999999969
  0
CIRCLE
  5
151
330
1F
100
AcDbEntity
  8
0
  6
Continuous
 62
     7
370
     0
100
AcDbCircle
 10
16.9399778258
 20
12.6791960061
 30
0.0
 40
0.8549999999999969
  0
CIRCLE
  5
152
330
1F
100
AcDbEntity
  8
0
  6
Continuous
 62
     7
370
     0
100
AcDbCircle
 10
16.9399778258
 20
27.4041960061
 30
0.0
 40
0.8550000000000004
  0
CIRCLE
  5
153
330
1F
100
AcDbEntity
  8
0
  6
Continuous
 62
     7
370
     0
100
AcDbCircle
 10
19.4774778258
 20
25.2416960061
 30
0.0
 40
0.2124999999999986
  0
CIRCLE
  5
154
330
1F
100
AcDbEntity
  8
0
  6
Continuous
 62
     7
370
     0
100
AcDbCircle
 10
19.4774778258
 20
24.4416960061
 30
0.0
 40
0.2125000000000021
  0
CIRCLE
  5
155
330
1F
100
AcDbEntity
  8
0
  6
Continuous
 62
     7
370
     0
100
AcDbCircle
 10
16.9399778258
 20
17.7591960061
 30
0.0
 40
0.4249999999999972
  0
CIRCLE
  5
156
330
1F
100
AcDbEntity
  8
0
  6
Continuous
 62
     7
370
     0
100
AcDbCircle
 10
31.6649778258
 20
24.8641960061
 30
0.0
 40
0.4249999999999972
  0
LINE
  5
157
330
1F
100
AcDbEntity
  8
0
  6
Continuous
 62
     7
370
     0
100
AcDbLine
 10
33.2899778258
 20
28.6541960061
 30
0.0
 11
15.6899778258
 21
28.6541960061
 31
0.0
  0
LINE
  5
158
330
1F
100
AcDbEntity
  8
0
  6
Continuous
 62
     7
370
     0
100
AcDbLine
 10
33.2899778258
 20
11.4291960061
 30
0.0
 11
33.2899778258
 21
28.6541960061
 31
0.0
  0
LINE
  5
159
330
1F
100
AcDbEntity
  8
0
  6
Continuous
 62
     7
370
     0
100
AcDbLine
 10
15.6899778258
 20
11.4291960061
 30
0.0
 11
33.2899778258
 21
11.4291960061
 31
0.0
  0
LINE
  5
15A
330
1F
100
AcDbEntity
  8
0
  6
Continuous
 62
     7
370
     0
100
AcDbLine
 10
15.6899778258
 20
28.6541960061
 30
0.0
 11
15.6899778258
 21
11.4291960061
 31
0.0
  0
DIMENSION
  5
15B
330
1F
100
AcDbEntity
  8
LAYOUT
100
AcDbDimension
280
     0
  2
_D
 10
34.5816444925
 20
24.8641960061
 30
0.0
 11
34.5816444925
 21
26.3148587019
 31
0.0
 70
   160
  1
<>
 71
     2
 42
-1.0
 73
     0
 74
     0
 75
     0
  3
SLDDIMSTYLE0
100
AcDbAlignedDimension
 13
31.6649778258
 23
27.4041960061
 33
0.0
 14
31.6649778258
 24
24.8641960061
 34
0.0
 50
90.0
100
AcDbRotatedDimension
  0
DIMENSION
  5
167
330
1F
100
AcDbEntity
  8
LAYOUT
100
AcDbDimension
280
     0
  2
_D_1
 10
16.9399778258
 20
30.9315998544
 30
0.0
 11
12.3466426083
 21
30.9315998544
 31
0.0
 70
   160
  1
<> (x3)
 71
     2
 42
-1.0
 73
     0
 74
     0
 75
     0
  3
SLDDIMSTYLE1
100
AcDbAlignedDimension
 13
15.6899778258
 23
28.6541960061
 33
0.0
 14
16.9399778258
 24
27.4041960061
 34
0.0
100
AcDbRotatedDimension
  0
DIMENSION
  5
174
330
1F
100
AcDbEntity
  8
LAYOUT
100
AcDbDimension
280
     0
  2
_D_2
 10
15.0124134446
 20
27.4041960061
 30
0.0
 11
15.0124134446
 21
26.7505079885
 31
0.0
 70
   160
  1
<> (x4)
 71
     2
 42
-1.0
 73
     0
 74
     0
 75
     0
  3
SLDDIMSTYLE1
100
AcDbAlignedDimension
 13
15.6899778258
 23
28.6541960061
 33
0.0
 14
16.9399778258
 24
27.4041960061
 34
0.0
 50
90.0
100
AcDbRotatedDimension
  0
DIMENSION
  5
181
330
1F
100
AcDbEntity
  8
LAYOUT
100
AcDbDimension
280
     0
  2
_D_3
 10
29.8774778258
 20
10.714431306
 30
0.0
 11
24.4073602246
 21
10.714431306
 31
0.0
 70
   160
  1
<> (x4)
 71
     2
 42
-1.0
 73
     0
 74
     0
 75
     0
  3
SLDDIMSTYLE2
100
AcDbAlignedDimension
 13
19.4774778258
 23
14.8416960061
 33
0.0
 14
29.8774778258
 24
14.8416960061
 34
0.0
100
AcDbRotatedDimension
  0
DIMENSION
  5
18E
330
1F
100
AcDbEntity
  8
LAYOUT
100
AcDbDimension
280
     0
  2
_D_4
 10
11.9320660404
 20
20.0416960061
 30
0.0
 11
11.9320660404
 21
22.5089314504
 31
0.0
 70
   160
  1
<>
 71
     2
 42
-1.0
 73
     0
 74
     0
 75
     0
  3
SLDDIMSTYLE3
100
AcDbAlignedDimension
 13
19.4774778258
 23
25.2416960061
 33
0.0
 14
15.2733111592
 24
20.0416960061
 34
0.0
 50
90.0
100
AcDbRotatedDimension
  0
DIMENSION
  5
19A
330
1F
100
AcDbEntity
  8
LAYOUT
100
AcDbDimension
280
     0
  2
_D_5
 10
36.472612637
 20
18.0416960061
 30
0.0
 11
36.472612637
 21
18.4295352288
 31
0.0
 70
   160
  1
<> Typ.
 71
     2
 42
-1.0
 73
     0
 74
     0
 75
     0
  3
SLDDIMSTYLE4
100
AcDbAlignedDimension
 13
29.8774778258
 23
18.8416960061
 33
0.0
 14
29.8774778258
 24
18.0416960061
 34
0.0
 50
90.0
100
AcDbRotatedDimension
  0
DIMENSION
  5
1A7
330
1F
100
AcDbEntity
  8
LAYOUT
100
AcDbDimension
280
     0
  2
_D_6
 10
16.9399778258
 20
31.7070266016
 30
0.0
 11
21.2084834233
 21
31.7070266016
 31
0.0
 70
   160
  1
<>*
 71
     2
 42
-1.0
 73
     0
 74
     0
 75
     0
  3
SLDDIMSTYLE5
100
AcDbAlignedDimension
 13
19.4774778258
 23
25.2416960061
 33
0.0
 14
16.9399778258
 24
27.4041960061
 34
0.0
100
AcDbRotatedDimension
  0
DIMENSION
  5
1B4
330
1F
100
AcDbEntity
  8
LAYOUT
100
AcDbDimension
280
     0
  2
_D_7
 10
31.6649778258
 20
30.0951842491
 30
0.0
 11
34.3254498541
 21
30.0951842491
 31
0.0
 70
   160
  1
<>
 71
     2
 42
-1.0
 73
     0
 74
     0
 75
     0
  3
SLDDIMSTYLE5
100
AcDbAlignedDimension
 13
29.8774778258
 23
25.2416960061
 33
0.0
 14
31.6649778258
 24
27.4041960061
 34
0.0
100
AcDbRotatedDimension
  0
DIMENSION
  5
1BF
330
1F
100
AcDbEntity
  8
LAYOUT
100
AcDbDimension
280
     0
  2
_D_8
 10
9.0233111592
 20
11.4291960061
 30
0.0
 11
9.0233111592
 21
21.6367755288
 31
0.0
 70
   160
  1
<>\PSocket base size
 71
     2
 42
-1.0
 73
     0
 74
     0
 75
     0
  3
SLDDIMSTYLE6
100
AcDbAlignedDimension
 13
15.6899778258
 23
28.6541960061
 33
0.0
 14
15.6899778258
 24
11.4291960061
 34
0.0
 50
90.0
100
AcDbRotatedDimension
  0
DIMENSION
  5
1CD
330
1F
100
AcDbEntity
  8
LAYOUT
100
AcDbDimension
280
     0
  2
_D_9
 10
33.2899778258
 20
8.3894520179
 30
0.0
 11
24.162741081
 21
8.3894520179
 31
0.0
 70
   160
  1
<>\PSocket base size
 71
     2
 42
-1.0
 73
     0
 74
     0
 75
     0
  3
SLDDIMSTYLE6
100
AcDbAlignedDimension
 13
15.6899778258
 23
11.4291960061
 33
0.0
 14
33.2899778258
 24
11.4291960061
 34
0.0
100
AcDbRotatedDimension
  0
DIMENSION
  5
1DA
330
1F
100
AcDbEntity
  8
LAYOUT
100
AcDbDimension
280
     0
  2
_D_10
 10
31.6649778258
 20
9.7625293395
 30
0.0
 11
24.7027323204
 21
9.7625293395
 31
0.0
 70
   160
  1
<> (x4)
 71
     2
 42
-1.0
 73
     0
 74
     0
 75
     0
  3
SLDDIMSTYLE7
100
AcDbAlignedDimension
 13
16.9399778258
 23
12.6791960061
 33
0.0
 14
31.6649778258
 24
12.6791960061
 34
0.0
100
AcDbRotatedDimension
  0
DIMENSION
  5
1E7
330
1F
100
AcDbEntity
  8
LAYOUT
100
AcDbDimension
280
     0
  2
_D_11
 10
24.4899778258
 20
29.3873010364
 30
0.0
 11
20.6684921839
 21
29.3873010364
 31
0.0
 70
   160
  1
<>
 71
     2
 42
-1.0
 73
     0
 74
     0
 75
     0
  3
SLDDIMSTYLE3
100
AcDbAlignedDimension
 13
16.9399778258
 23
27.4041960061
 33
0.0
 14
24.4899778258
 24
29.0708626728
 34
0.0
100
AcDbRotatedDimension
  0
DIMENSION
  5
1F2
330
1F
100
AcDbEntity
  8
LAYOUT
100
AcDbDimension
280
     0
  2
_D_12
 10
31.6649778258
 20
29.3873010364
 30
0.0
 11
28.0170204979
 21
29.3873010364
 31
0.0
 70
   160
  1
<>
 71
     2
 42
-1.0
 73
     0
 74
     0
 75
     0
  3
SLDDIMSTYLE3
100
AcDbAlignedDimension
 13
24.4899778258
 23
29.0708626728
 33
0.0
 14
31.6649778258
 24
27.4041960061
 34
0.0
100
AcDbRotatedDimension
  0
DIMENSION
  5
1FD
330
1F
100
AcDbEntity
  8
LAYOUT
100
AcDbDimension
280
     0
  2
_D_13
 10
33.2899778258
 20
29.0959282409
 30
0.0
 11
34.9566444925
 21
29.0959282409
 31
0.0
 70
   160
  1
<>
 71
     2
 42
-1.0
 73
     0
 74
     0
 75
     0
  3
SLDDIMSTYLE3
100
AcDbAlignedDimension
 13
31.6649778258
 23
28.7591960061
 33
0.0
 14
33.2899778258
 24
28.6541960061
 34
0.0
100
AcDbRotatedDimension
  0
DIMENSION
  5
208
330
1F
100
AcDbEntity
  8
LAYOUT
100
AcDbDimension
280
     0
  2
_D_14
 10
31.3644574438
 20
25.1647163882
 30
0.0
 11
37.8662864664
 21
22.7933269783
 31
0.0
 70
   163
  1
<> (x2)\PNon plated alignment hole
 71
     1
 42
-1.0
 73
     0
 74
     0
 75
     0
  3
SLDDIMSTYLE8
100
AcDbDiametricDimension
 15
31.9654982079
 25
24.5636756241
 35
0.0
 40
0.0
  0
DIMENSION
  5
214
330
1F
100
AcDbEntity
  8
LAYOUT
100
AcDbDimension
280
     0
  2
_D_15
 10
30.9245261056
 20
13.1066960061
 30
0.0
 11
37.8662864664
 21
11.4496331808
 31
0.0
 70
   163
  1
<> (x4)\PNon plated mounting hole
 71
     1
 42
-1.0
 73
     0
 74
     0
 75
     0
  3
SLDDIMSTYLE9
100
AcDbDiametricDimension
 15
32.4054295461
 25
12.2516960061
 35
0.0
 40
0.0
  0
DIMENSION
  5
220
330
1F
100
AcDbEntity
  8
LAYOUT
100
AcDbDimension
280
     0
  2
_D_16
 10
29.6937643817
 20
17.3484931055
 30
0.0
 11
36.472612637
 21
14.7588971418
 31
0.0
 70
   163
  1
<>
 71
     1
 42
-1.0
 73
     0
 74
     0
 75
     0
  3
SLDDIMSTYLE10
100
AcDbDiametricDimension
 15
30.06119127
 25
17.1348989068
 35
0.0
 40
0.0
  0
MTEXT
  5
22A
330
1F
100
AcDbEntity
  8
LAYOUT
100
AcDbMText
 10
12.1946884813
 20
30.124666036
 30
0.0
 40
0.396875
 41
0.0
 46
0.0
 71
     1
 72
     1
  1
A1 corner
  7
SLDTEXTSTYLE0
 73
     1
 44
1.0
  0
LEADER
  5
234
330
1F
100
AcDbEntity
  8
LAYOUT
100
AcDbLeader
  3
SLDDIMSTYLE11
 76
     3
 10
19.0107356346
 20
26.9957721755
 30
0.0
 10
15.614154161
 20
29.8999545248
 30
0.0
 10
14.5558208276
 20
29.8999545248
 30
0.0
  0
INSERT
  5
256
330
1F
100
AcDbEntity
  8
LAYOUT
100
AcDbBlockReference
  2
SW_CENTERMARKSYMBOL_0
 10
16.9399778258
 20
27.4041960061
 30
0.0
  0
LINE
  5
257
330
1F
100
AcDbEntity
  8
LAYOUT
  6
CENTERX2
370
     0
100
AcDbLine
 10
15.2733111592
 20
20.0416960061
 30
0.0
 11
33.7066444925
 21
20.0416960061
 31
0.0
  0
LINE
  5
258
330
1F
100
AcDbEntity
  8
LAYOUT
  6
CENTERX2
370
     0
100
AcDbLine
 10
24.4899778258
 20
11.0125293395
 30
0.0
 11
24.4899778258
 21
29.0708626728
 31
0.0
  0
ENDSEC
  0
SECTION
  2
OBJECTS
  0
DICTIONARY
  5
C
330
0
100
AcDbDictionary
281
     1
  3
ACAD_GROUP
350
D
  3
ACAD_IMAGE_VARS
350
293
  3
ACAD_LAYOUT
350
1A
  3
ACAD_MATERIAL
350
27B
  3
ACAD_MLEADERSTYLE
350
29A
  3
ACAD_MLINESTYLE
350
17
  3
ACAD_PLOTSETTINGS
350
19
  3
ACAD_PLOTSTYLENAME
350
E
  3
ACAD_SCALELIST
350
259
  3
ACAD_TABLESTYLE
350
290
  3
ACAD_VISUALSTYLE
350
27F
  3
ACDB_RECOMPOSE_DATA
350
298
  3
AcDbVariableDictionary
350
294
  3
APPDATA
350
292
  0
DICTIONARY
  5
D
102
{ACAD_REACTORS
330
C
102
}
330
C
100
AcDbDictionary
281
     1
  0
RASTERVARIABLES
  5
293
102
{ACAD_REACTORS
330
C
102
}
330
C
100
AcDbRasterVariables
 90
        0
 70
     1
 71
     1
 72
     1
  0
DICTIONARY
  5
1A
102
{ACAD_REACTORS
330
C
102
}
330
C
100
AcDbDictionary
281
     1
  3
Layout1
350
1E
  3
Layout2
350
26
  3
Model
350
22
  0
DICTIONARY
  5
27B
102
{ACAD_REACTORS
330
C
102
}
330
C
100
AcDbDictionary
281
     1
  3
ByBlock
350
27D
  3
ByLayer
350
27C
  3
Global
350
27E
  0
DICTIONARY
  5
29A
102
{ACAD_REACTORS
330
C
102
}
330
C
100
AcDbDictionary
281
     1
  0
DICTIONARY
  5
17
102
{ACAD_REACTORS
330
C
102
}
330
C
100
AcDbDictionary
281
     1
  3
Standard
350
18
  0
DICTIONARY
  5
19
102
{ACAD_REACTORS
330
C
102
}
330
C
100
AcDbDictionary
281
     1
  0
ACDBDICTIONARYWDFLT
  5
E
102
{ACAD_REACTORS
330
C
102
}
330
C
100
AcDbDictionary
281
     1
  3
Normal
350
F
100
AcDbDictionaryWithDefault
340
F
  0
DICTIONARY
  5
259
102
{ACAD_REACTORS
330
C
102
}
330
C
100
AcDbDictionary
281
     1
  3
A0
350
25A
  3
A1
350
25B
  3
A2
350
25C
  3
A3
350
25D
  3
A4
350
25E
  3
A5
350
25F
  3
A6
350
260
  3
A7
350
261
  3
A8
350
262
  3
A9
350
263
  3
B0
350
264
  3
B1
350
265
  3
B2
350
266
  3
B3
350
267
  3
B4
350
268
  3
B5
350
269
  3
B6
350
26A
  3
B7
350
26B
  3
B8
350
26C
  3
B9
350
26D
  3
C0
350
26E
  3
C1
350
26F
  3
C2
350
270
  3
C3
350
271
  3
C4
350
272
  3
C5
350
273
  3
C6
350
274
  3
C7
350
275
  3
C8
350
276
  3
C9
350
277
  3
D0
350
278
  3
D1
350
279
  3
D2
350
27A
  0
DICTIONARY
  5
290
102
{ACAD_REACTORS
330
C
102
}
330
C
100
AcDbDictionary
281
     1
  3
Standard
350
291
  0
DICTIONARY
  5
27F
102
{ACAD_REACTORS
330
C
102
}
330
C
100
AcDbDictionary
281
     1
  3
2dWireframe
350
284
  3
3D Hidden
350
286
  3
3dWireframe
350
285
  3
Basic
350
287
  3
Brighten
350
28B
  3
ColorChange
350
28F
  3
Conceptual
350
289
  3
Dim
350
28A
  3
Facepattern
350
28E
  3
Flat
350
280
  3
FlatWithEdges
350
281
  3
Gouraud
350
282
  3
GouraudWithEdges
350
283
  3
Linepattern
350
28D
  3
Realistic
350
288
  3
Thicken
350
28C
  0
XRECORD
  5
298
102
{ACAD_REACTORS
330
C
102
}
330
C
100
AcDbXrecord
280
     1
 90
        1
330
291
  0
DICTIONARY
  5
294
102
{ACAD_REACTORS
330
C
102
}
330
C
100
AcDbDictionary
281
     1
  3
CANNOSCALE
350
295
  3
CTABLESTYLE
350
299
  0
DICTIONARY
  5
292
102
{ACAD_REACTORS
330
C
102
}
330
C
100
AcDbDictionary
281
     1
  0
LAYOUT
  5
1E
102
{ACAD_REACTORS
330
1A
102
}
330
1A
100
AcDbPlotSettings
  1

  2
none_device
  4

  6

 40
0.0
 41
0.0
 42
0.0
 43
0.0
 44
0.0
 45
0.0
 46
0.0
 47
0.0
 48
0.0
 49
0.0
140
0.0
141
0.0
142
1.0
143
1.0
 70
   688
 72
     0
 73
     0
 74
     5
  7

 75
    16
 76
     0
 77
     2
 78
   300
147
1.0
148
0.0
149
0.0
100
AcDbLayout
  1
Layout1
 70
     1
 71
     1
 10
0.0
 20
0.0
 11
420.0
 21
297.0
 12
0.0
 22
0.0
 32
0.0
 14
1.000000000000000E+20
 24
1.000000000000000E+20
 34
1.000000000000000E+20
 15
-1.000000000000000E+20
 25
-1.000000000000000E+20
 35
-1.000000000000000E+20
146
0.0
 13
0.0
 23
0.0
 33
0.0
 16
1.0
 26
0.0
 36
0.0
 17
0.0
 27
1.0
 37
0.0
 76
     0
330
1B
  0
LAYOUT
  5
26
102
{ACAD_REACTORS
330
1A
102
}
330
1A
100
AcDbPlotSettings
  1

  2
none_device
  4

  6

 40
0.0
 41
0.0
 42
0.0
 43
0.0
 44
0.0
 45
0.0
 46
0.0
 47
0.0
 48
0.0
 49
0.0
140
0.0
141
0.0
142
1.0
143
1.0
 70
   688
 72
     0
 73
     0
 74
     5
  7

 75
    16
 76
     0
 77
     2
 78
   300
147
1.0
148
0.0
149
0.0
100
AcDbLayout
  1
Layout2
 70
     1
 71
     2
 10
0.0
 20
0.0
 11
0.0
 21
0.0
 12
0.0
 22
0.0
 32
0.0
 14
0.0
 24
0.0
 34
0.0
 15
0.0
 25
0.0
 35
0.0
146
0.0
 13
0.0
 23
0.0
 33
0.0
 16
1.0
 26
0.0
 36
0.0
 17
0.0
 27
1.0
 37
0.0
 76
     0
330
23
  0
LAYOUT
  5
22
102
{ACAD_REACTORS
330
1A
102
}
330
1A
100
AcDbPlotSettings
  1

  2
none_device
  4

  6

 40
0.0
 41
0.0
 42
0.0
 43
0.0
 44
0.0
 45
0.0
 46
0.0
 47
0.0
 48
0.0
 49
0.0
140
0.0
141
0.0
142
1.0
143
1.0
 70
  1712
 72
     0
 73
     0
 74
     0
  7

 75
     0
 76
     0
 77
     2
 78
   300
147
1.0
148
0.0
149
0.0
100
AcDbLayout
  1
Model
 70
     1
 71
     0
 10
0.0
 20
0.0
 11
46.5666666667
 21
35.9833333333
 12
0.0
 22
0.0
 32
0.0
 14
1.4902932989
 24
1.081338690919706
 34
0.0
 15
45.1738089639
 25
34.02049117449999
 35
0.11
146
0.0
 13
0.0
 23
0.0
 33
0.0
 16
1.0
 26
0.0
 36
0.0
 17
0.0
 27
1.0
 37
0.0
 76
     0
330
1F
331
29
  0
MATERIAL
  5
27D
102
{ACAD_REACTORS
330
27B
102
}
330
27B
100
AcDbMaterial
  1
ByBlock
 72
     1
 94
      127
  0
MATERIAL
  5
27C
102
{ACAD_REACTORS
330
27B
102
}
330
27B
100
AcDbMaterial
  1
ByLayer
 72
     1
 94
      127
  0
MATERIAL
  5
27E
102
{ACAD_REACTORS
330
27B
102
}
330
27B
100
AcDbMaterial
  1
Global
 72
     1
 94
      127
  0
MLINESTYLE
  5
18
102
{ACAD_REACTORS
330
17
102
}
330
17
100
AcDbMlineStyle
  2
Standard
 70
     0
  3

 62
   256
 51
90.0
 52
90.0
 71
     2
 49
0.5
 62
   256
  6
BYLAYER
 49
-0.5
 62
   256
  6
BYLAYER
  0
ACDBPLACEHOLDER
  5
F
102
{ACAD_REACTORS
330
E
102
}
330
E
  0
SCALE
  5
25A
102
{ACAD_REACTORS
330
259
102
}
330
259
100
AcDbScale
 70
     0
300
1:1
140
1.0
141
1.0
290
     1
  0
SCALE
  5
25B
102
{ACAD_REACTORS
330
259
102
}
330
259
100
AcDbScale
 70
     0
300
1:2
140
1.0
141
2.0
290
     0
  0
SCALE
  5
25C
102
{ACAD_REACTORS
330
259
102
}
330
259
100
AcDbScale
 70
     0
300
1:4
140
1.0
141
4.0
290
     0
  0
SCALE
  5
25D
102
{ACAD_REACTORS
330
259
102
}
330
259
100
AcDbScale
 70
     0
300
1:5
140
1.0
141
5.0
290
     0
  0
SCALE
  5
25E
102
{ACAD_REACTORS
330
259
102
}
330
259
100
AcDbScale
 70
     0
300
1:8
140
1.0
141
8.0
290
     0
  0
SCALE
  5
25F
102
{ACAD_REACTORS
330
259
102
}
330
259
100
AcDbScale
 70
     0
300
1:10
140
1.0
141
10.0
290
     0
  0
SCALE
  5
260
102
{ACAD_REACTORS
330
259
102
}
330
259
100
AcDbScale
 70
     0
300
1:16
140
1.0
141
16.0
290
     0
  0
SCALE
  5
261
102
{ACAD_REACTORS
330
259
102
}
330
259
100
AcDbScale
 70
     0
300
1:20
140
1.0
141
20.0
290
     0
  0
SCALE
  5
262
102
{ACAD_REACTORS
330
259
102
}
330
259
100
AcDbScale
 70
     0
300
1:30
140
1.0
141
30.0
290
     0
  0
SCALE
  5
263
102
{ACAD_REACTORS
330
259
102
}
330
259
100
AcDbScale
 70
     0
300
1:40
140
1.0
141
40.0
290
     0
  0
SCALE
  5
264
102
{ACAD_REACTORS
330
259
102
}
330
259
100
AcDbScale
 70
     0
300
1:50
140
1.0
141
50.0
290
     0
  0
SCALE
  5
265
102
{ACAD_REACTORS
330
259
102
}
330
259
100
AcDbScale
 70
     0
300
1:100
140
1.0
141
100.0
290
     0
  0
SCALE
  5
266
102
{ACAD_REACTORS
330
259
102
}
330
259
100
AcDbScale
 70
     0
300
2:1
140
2.0
141
1.0
290
     0
  0
SCALE
  5
267
102
{ACAD_REACTORS
330
259
102
}
330
259
100
AcDbScale
 70
     0
300
4:1
140
4.0
141
1.0
290
     0
  0
SCALE
  5
268
102
{ACAD_REACTORS
330
259
102
}
330
259
100
AcDbScale
 70
     0
300
8:1
140
8.0
141
1.0
290
     0
  0
SCALE
  5
269
102
{ACAD_REACTORS
330
259
102
}
330
259
100
AcDbScale
 70
     0
300
10:1
140
10.0
141
1.0
290
     0
  0
SCALE
  5
26A
102
{ACAD_REACTORS
330
259
102
}
330
259
100
AcDbScale
 70
     0
300
100:1
140
100.0
141
1.0
290
     0
  0
SCALE
  5
26B
102
{ACAD_REACTORS
330
259
102
}
330
259
100
AcDbScale
 70
     0
300
1/128" = 1'-0"
140
0.0078125
141
12.0
290
     0
  0
SCALE
  5
26C
102
{ACAD_REACTORS
330
259
102
}
330
259
100
AcDbScale
 70
     0
300
1/64" = 1'-0"
140
0.015625
141
12.0
290
     0
  0
SCALE
  5
26D
102
{ACAD_REACTORS
330
259
102
}
330
259
100
AcDbScale
 70
     0
300
1/32" = 1'-0"
140
0.03125
141
12.0
290
     0
  0
SCALE
  5
26E
102
{ACAD_REACTORS
330
259
102
}
330
259
100
AcDbScale
 70
     0
300
1/16" = 1'-0"
140
0.0625
141
12.0
290
     0
  0
SCALE
  5
26F
102
{ACAD_REACTORS
330
259
102
}
330
259
100
AcDbScale
 70
     0
300
3/32" = 1'-0"
140
0.09375
141
12.0
290
     0
  0
SCALE
  5
270
102
{ACAD_REACTORS
330
259
102
}
330
259
100
AcDbScale
 70
     0
300
1/8" = 1'-0"
140
0.125
141
12.0
290
     0
  0
SCALE
  5
271
102
{ACAD_REACTORS
330
259
102
}
330
259
100
AcDbScale
 70
     0
300
3/16" = 1'-0"
140
0.1875
141
12.0
290
     0
  0
SCALE
  5
272
102
{ACAD_REACTORS
330
259
102
}
330
259
100
AcDbScale
 70
     0
300
1/4" = 1'-0"
140
0.25
141
12.0
290
     0
  0
SCALE
  5
273
102
{ACAD_REACTORS
330
259
102
}
330
259
100
AcDbScale
 70
     0
300
3/8" = 1'-0"
140
0.375
141
12.0
290
     0
  0
SCALE
  5
274
102
{ACAD_REACTORS
330
259
102
}
330
259
100
AcDbScale
 70
     0
300
1/2" = 1'-0"
140
0.5
141
12.0
290
     0
  0
SCALE
  5
275
102
{ACAD_REACTORS
330
259
102
}
330
259
100
AcDbScale
 70
     0
300
3/4" = 1'-0"
140
0.75
141
12.0
290
     0
  0
SCALE
  5
276
102
{ACAD_REACTORS
330
259
102
}
330
259
100
AcDbScale
 70
     0
300
1" = 1'-0"
140
1.0
141
12.0
290
     0
  0
SCALE
  5
277
102
{ACAD_REACTORS
330
259
102
}
330
259
100
AcDbScale
 70
     0
300
1-1/2" = 1'-0"
140
1.5
141
12.0
290
     0
  0
SCALE
  5
278
102
{ACAD_REACTORS
330
259
102
}
330
259
100
AcDbScale
 70
     0
300
3" = 1'-0"
140
3.0
141
12.0
290
     0
  0
SCALE
  5
279
102
{ACAD_REACTORS
330
259
102
}
330
259
100
AcDbScale
 70
     0
300
6" = 1'-0"
140
6.0
141
12.0
290
     0
  0
SCALE
  5
27A
102
{ACAD_REACTORS
330
259
102
}
330
259
100
AcDbScale
 70
     0
300
1'-0" = 1'-0"
140
12.0
141
12.0
290
     0
  0
TABLESTYLE
  5
291
102
{ACAD_REACTORS
330
290
102
}
102
{ACAD_XDICTIONARY
360
296
102
}
330
290
100
AcDbTableStyle
  3
Standard
 70
     0
 71
     0
 40
0.06
 41
0.06
280
     0
281
     0
  7
Standard
140
4.5
170
     2
 62
     0
 63
   257
283
     0
 90
        4
 91
        0
  1

274
    -2
284
     1
 64
     0
275
    -2
285
     1
 65
     0
276
    -2
286
     1
 66
     0
277
    -2
287
     1
 67
     0
278
    -2
288
     1
 68
     0
279
    -2
289
     1
 69
     0
  7
Standard
140
6.0
170
     5
 62
     0
 63
   257
283
     0
 90
        4
 91
        0
  1

274
    -2
284
     1
 64
     0
275
    -2
285
     1
 65
     0
276
    -2
286
     1
 66
     0
277
    -2
287
     1
 67
     0
278
    -2
288
     1
 68
     0
279
    -2
289
     1
 69
     0
  7
Standard
140
4.5
170
     5
 62
     0
 63
   257
283
     0
 90
        4
 91
        0
  1

274
    -2
284
     1
 64
     0
275
    -2
285
     1
 65
     0
276
    -2
286
     1
 66
     0
277
    -2
287
     1
 67
     0
278
    -2
288
     1
 68
     0
279
    -2
289
     1
 69
     0
  0
VISUALSTYLE
  5
284
102
{ACAD_REACTORS
330
27F
102
}
330
27F
100
AcDbVisualStyle
  2
2dWireframe
 70
     4
177
     2
291
     0
 71
     0
176
     1
 72
     2
176
     1
 73
     0
176
     1
 90
        0
176
     1
 40
-0.6
176
     1
 41
-30.0
176
     1
 62
     5
 63
     7
421
 16777215
176
     1
 74
     1
176
     1
 91
        4
176
     1
 64
     7
176
     1
 65
   257
176
     1
 75
     1
176
     1
175
     1
176
     1
 42
1.0
176
     1
 92
        0
176
     1
 66
   257
176
     1
 43
1.0
176
     1
 76
     1
176
     1
 77
     6
176
     1
 78
     2
176
     1
 67
     7
176
     1
 79
     5
176
     1
170
     0
176
     1
171
     0
176
     1
290
     0
176
     1
 93
        1
176
     1
 44
0.0
176
     1
173
     0
176
     1
  0
VISUALSTYLE
  5
286
102
{ACAD_REACTORS
330
27F
102
}
330
27F
100
AcDbVisualStyle
  2
3D Hidden
 70
     6
177
     2
291
     0
 71
     1
176
     1
 72
     2
176
     1
 73
     2
176
     1
 90
        0
176
     1
 40
-0.6
176
     1
 41
-30.0
176
     1
 62
     5
 63
     7
421
 16777215
176
     1
 74
     2
176
     1
 91
        2
176
     1
 64
     7
176
     1
 65
   257
176
     1
 75
     2
176
     1
175
     1
176
     1
 42
40.0
176
     1
 92
        0
176
     1
 66
   257
176
     1
 43
1.0
176
     1
 76
     1
176
     1
 77
     6
176
     1
 78
     2
176
     1
 67
     7
176
     1
 79
     3
176
     1
170
     0
176
     1
171
     0
176
     1
290
     0
176
     1
 93
        1
176
     1
 44
0.0
176
     1
173
     0
176
     1
  0
VISUALSTYLE
  5
285
102
{ACAD_REACTORS
330
27F
102
}
330
27F
100
AcDbVisualStyle
  2
3dWireframe
 70
     5
177
     2
291
     0
 71
     0
176
     1
 72
     2
176
     1
 73
     0
176
     1
 90
        0
176
     1
 40
-0.6
176
     1
 41
-30.0
176
     1
 62
     5
 63
     7
421
 16777215
176
     1
 74
     1
176
     1
 91
        4
176
     1
 64
     7
176
     1
 65
   257
176
     1
 75
     1
176
     1
175
     1
176
     1
 42
1.0
176
     1
 92
        0
176
     1
 66
   257
176
     1
 43
1.0
176
     1
 76
     1
176
     1
 77
     6
176
     1
 78
     2
176
     1
 67
     7
176
     1
 79
     5
176
     1
170
     0
176
     1
171
     0
176
     1
290
     0
176
     1
 93
        1
176
     1
 44
0.0
176
     1
173
     0
176
     1
  0
VISUALSTYLE
  5
287
102
{ACAD_REACTORS
330
27F
102
}
330
27F
100
AcDbVisualStyle
  2
Basic
 70
     7
177
     2
291
     1
 71
     1
176
     1
 72
     0
176
     1
 73
     1
176
     1
 90
        0
176
     1
 40
-0.6
176
     1
 41
-30.0
176
     1
 62
     5
 63
     7
421
 16777215
176
     1
 74
     0
176
     1
 91
        4
176
     1
 64
     7
176
     1
 65
   257
176
     1
 75
     1
176
     1
175
     1
176
     1
 42
1.0
176
     1
 92
        8
176
     1
 66
     7
176
     1
 43
1.0
176
     1
 76
     1
176
     1
 77
     6
176
     1
 78
     2
176
     1
 67
     7
176
     1
 79
     5
176
     1
170
     0
176
     1
171
     0
176
     1
290
     0
176
     1
 93
        1
176
     1
 44
0.0
176
     1
173
     0
176
     1
  0
VISUALSTYLE
  5
28B
102
{ACAD_REACTORS
330
27F
102
}
330
27F
100
AcDbVisualStyle
  2
Brighten
 70
    12
177
     2
291
     1
 71
     2
176
     1
 72
     2
176
     1
 73
     0
176
     1
 90
        0
176
     1
 40
-0.6
176
     1
 41
-30.0
176
     1
 62
     5
 63
     7
421
 16777215
176
     1
 74
     1
176
     1
 91
        4
176
     1
 64
     7
176
     1
 65
   257
176
     1
 75
     1
176
     1
175
     1
176
     1
 42
1.0
176
     1
 92
        8
176
     1
 66
     7
176
     1
 43
1.0
176
     1
 76
     1
176
     1
 77
     6
176
     1
 78
     2
176
     1
 67
     7
176
     1
 79
     5
176
     1
170
     0
176
     1
171
     0
176
     1
290
     0
176
     1
 93
        1
176
     1
 44
50.0
176
     1
173
     0
176
     1
  0
VISUALSTYLE
  5
28F
102
{ACAD_REACTORS
330
27F
102
}
330
27F
100
AcDbVisualStyle
  2
ColorChange
 70
    16
177
     2
291
     1
 71
     2
176
     1
 72
     2
176
     1
 73
     3
176
     1
 90
        0
176
     1
 40
-0.6
176
     1
 41
-30.0
176
     1
 62
     5
 63
     8
421
  8421504
176
     1
 74
     1
176
     1
 91
        4
176
     1
 64
     7
176
     1
 65
   257
176
     1
 75
     1
176
     1
175
     1
176
     1
 42
1.0
176
     1
 92
        8
176
     1
 66
     8
424
  8421504
176
     1
 43
1.0
176
     1
 76
     1
176
     1
 77
     6
176
     1
 78
     2
176
     1
 67
     7
176
     1
 79
     5
176
     1
170
     0
176
     1
171
     0
176
     1
290
     0
176
     1
 93
        1
176
     1
 44
0.0
176
     1
173
     0
176
     1
  0
VISUALSTYLE
  5
289
102
{ACAD_REACTORS
330
27F
102
}
330
27F
100
AcDbVisualStyle
  2
Conceptual
 70
     9
177
     2
291
     0
 71
     3
176
     1
 72
     2
176
     1
 73
     0
176
     1
 90
        0
176
     1
 40
-0.6
176
     1
 41
-30.0
176
     1
 62
     5
 63
     7
421
 16777215
176
     1
 74
     2
176
     1
 91
        2
176
     1
 64
     7
176
     1
 65
   257
176
     1
 75
     1
176
     1
175
     1
176
     1
 42
40.0
176
     1
 92
        8
176
     1
 66
     7
176
     1
 43
1.0
176
     1
 76
     1
176
     1
 77
     6
176
     1
 78
     2
176
     1
 67
     7
176
     1
 79
     3
176
     1
170
     0
176
     1
171
     0
176
     1
290
     0
176
     1
 93
        1
176
     1
 44
0.0
176
     1
173
     0
176
     1
  0
VISUALSTYLE
  5
28A
102
{ACAD_REACTORS
330
27F
102
}
330
27F
100
AcDbVisualStyle
  2
Dim
 70
    11
177
     2
291
     1
 71
     2
176
     1
 72
     2
176
     1
 73
     0
176
     1
 90
        0
176
     1
 40
-0.6
176
     1
 41
-30.0
176
     1
 62
     5
 63
     7
421
 16777215
176
     1
 74
     1
176
     1
 91
        4
176
     1
 64
     7
176
     1
 65
   257
176
     1
 75
     1
176
     1
175
     1
176
     1
 42
1.0
176
     1
 92
        8
176
     1
 66
     7
176
     1
 43
1.0
176
     1
 76
     1
176
     1
 77
     6
176
     1
 78
     2
176
     1
 67
     7
176
     1
 79
     5
176
     1
170
     0
176
     1
171
     0
176
     1
290
     0
176
     1
 93
        1
176
     1
 44
-50.0
176
     1
173
     0
176
     1
  0
VISUALSTYLE
  5
28E
102
{ACAD_REACTORS
330
27F
102
}
330
27F
100
AcDbVisualStyle
  2
Facepattern
 70
    15
177
     2
291
     1
 71
     2
176
     1
 72
     2
176
     1
 73
     0
176
     1
 90
        0
176
     1
 40
-0.6
176
     1
 41
-30.0
176
     1
 62
     5
 63
     7
421
 16777215
176
     1
 74
     1
176
     1
 91
        4
176
     1
 64
     7
176
     1
 65
   257
176
     1
 75
     1
176
     1
175
     1
176
     1
 42
1.0
176
     1
 92
        8
176
     1
 66
     7
176
     1
 43
1.0
176
     1
 76
     1
176
     1
 77
     6
176
     1
 78
     2
176
     1
 67
     7
176
     1
 79
     5
176
     1
170
     0
176
     1
171
     0
176
     1
290
     0
176
     1
 93
        1
176
     1
 44
0.0
176
     1
173
     0
176
     1
  0
VISUALSTYLE
  5
280
102
{ACAD_REACTORS
330
27F
102
}
330
27F
100
AcDbVisualStyle
  2
Flat
 70
     0
177
     2
291
     1
 71
     2
176
     1
 72
     1
176
     1
 73
     1
176
     1
 90
        2
176
     1
 40
-0.6
176
     1
 41
30.0
176
     1
 62
     5
 63
     7
421
 16777215
176
     1
 74
     0
176
     1
 91
        4
176
     1
 64
     7
176
     1
 65
   257
176
     1
 75
     1
176
     1
175
     1
176
     1
 42
1.0
176
     1
 92
        8
176
     1
 66
     7
176
     1
 43
1.0
176
     1
 76
     1
176
     1
 77
     6
176
     1
 78
     2
176
     1
 67
     7
176
     1
 79
     5
176
     1
170
     0
176
     1
171
     0
176
     1
290
     0
176
     1
 93
       13
176
     1
 44
0.0
176
     1
173
     0
176
     1
  0
VISUALSTYLE
  5
281
102
{ACAD_REACTORS
330
27F
102
}
330
27F
100
AcDbVisualStyle
  2
FlatWithEdges
 70
     1
177
     2
291
     1
 71
     2
176
     1
 72
     1
176
     1
 73
     1
176
     1
 90
        2
176
     1
 40
-0.6
176
     1
 41
30.0
176
     1
 62
     5
 63
     7
421
 16777215
176
     1
 74
     1
176
     1
 91
        4
176
     1
 64
     7
176
     1
 65
   257
176
     1
 75
     1
176
     1
175
     1
176
     1
 42
1.0
176
     1
 92
        0
176
     1
 66
   257
176
     1
 43
1.0
176
     1
 76
     1
176
     1
 77
     6
176
     1
 78
     2
176
     1
 67
     7
176
     1
 79
     5
176
     1
170
     0
176
     1
171
     0
176
     1
290
     0
176
     1
 93
       13
176
     1
 44
0.0
176
     1
173
     0
176
     1
  0
VISUALSTYLE
  5
282
102
{ACAD_REACTORS
330
27F
102
}
330
27F
100
AcDbVisualStyle
  2
Gouraud
 70
     2
177
     2
291
     1
 71
     2
176
     1
 72
     2
176
     1
 73
     1
176
     1
 90
        2
176
     1
 40
-0.6
176
     1
 41
30.0
176
     1
 62
     5
 63
     7
421
 16777215
176
     1
 74
     0
176
     1
 91
        4
176
     1
 64
     7
176
     1
 65
   257
176
     1
 75
     1
176
     1
175
     1
176
     1
 42
1.0
176
     1
 92
        0
176
     1
 66
     7
176
     1
 43
1.0
176
     1
 76
     1
176
     1
 77
     6
176
     1
 78
     2
176
     1
 67
     7
176
     1
 79
     5
176
     1
170
     0
176
     1
171
     0
176
     1
290
     0
176
     1
 93
       13
176
     1
 44
0.0
176
     1
173
     0
176
     1
  0
VISUALSTYLE
  5
283
102
{ACAD_REACTORS
330
27F
102
}
330
27F
100
AcDbVisualStyle
  2
GouraudWithEdges
 70
     3
177
     2
291
     1
 71
     2
176
     1
 72
     2
176
     1
 73
     1
176
     1
 90
        2
176
     1
 40
-0.6
176
     1
 41
30.0
176
     1
 62
     5
 63
     7
421
 16777215
176
     1
 74
     1
176
     1
 91
        4
176
     1
 64
     7
176
     1
 65
   257
176
     1
 75
     1
176
     1
175
     1
176
     1
 42
1.0
176
     1
 92
        0
176
     1
 66
   257
176
     1
 43
1.0
176
     1
 76
     1
176
     1
 77
     6
176
     1
 78
     2
176
     1
 67
     7
176
     1
 79
     5
176
     1
170
     0
176
     1
171
     0
176
     1
290
     0
176
     1
 93
       13
176
     1
 44
0.0
176
     1
173
     0
176
     1
  0
VISUALSTYLE
  5
28D
102
{ACAD_REACTORS
330
27F
102
}
330
27F
100
AcDbVisualStyle
  2
Linepattern
 70
    14
177
     2
291
     1
 71
     2
176
     1
 72
     2
176
     1
 73
     0
176
     1
 90
        0
176
     1
 40
-0.6
176
     1
 41
-30.0
176
     1
 62
     5
 63
     7
421
 16777215
176
     1
 74
     1
176
     1
 91
        4
176
     1
 64
     7
176
     1
 65
   257
176
     1
 75
     7
176
     1
175
     7
176
     1
 42
1.0
176
     1
 92
        8
176
     1
 66
     7
176
     1
 43
1.0
176
     1
 76
     1
176
     1
 77
     6
176
     1
 78
     2
176
     1
 67
     7
176
     1
 79
     5
176
     1
170
     0
176
     1
171
     0
176
     1
290
     0
176
     1
 93
        1
176
     1
 44
0.0
176
     1
173
     0
176
     1
  0
VISUALSTYLE
  5
288
102
{ACAD_REACTORS
330
27F
102
}
330
27F
100
AcDbVisualStyle
  2
Realistic
 70
     8
177
     2
291
     0
 71
     2
176
     1
 72
     2
176
     1
 73
     0
176
     1
 90
        0
176
     1
 40
-0.6
176
     1
 41
-30.0
176
     1
 62
     5
 63
     7
421
 16777215
176
     1
 74
     1
176
     1
 91
        0
176
     1
 64
     7
176
     1
 65
   257
176
     1
 75
     1
176
     1
175
     1
176
     1
 42
1.0
176
     1
 92
        8
176
     1
 66
     8
424
  7895160
176
     1
 43
1.0
176
     1
 76
     1
176
     1
 77
     6
176
     1
 78
     2
176
     1
 67
     7
176
     1
 79
     5
176
     1
170
     0
176
     1
171
     0
176
     1
290
     0
176
     1
 93
       13
176
     1
 44
0.0
176
     1
173
     0
176
     1
  0
VISUALSTYLE
  5
28C
102
{ACAD_REACTORS
330
27F
102
}
330
27F
100
AcDbVisualStyle
  2
Thicken
 70
    13
177
     2
291
     1
 71
     2
176
     1
 72
     2
176
     1
 73
     0
176
     1
 90
        0
176
     1
 40
-0.6
176
     1
 41
-30.0
176
     1
 62
     5
 63
     7
421
 16777215
176
     1
 74
     1
176
     1
 91
        4
176
     1
 64
     7
176
     1
 65
   257
176
     1
 75
     1
176
     1
175
     1
176
     1
 42
1.0
176
     1
 92
       12
176
     1
 66
     7
176
     1
 43
1.0
176
     1
 76
     1
176
     1
 77
     6
176
     1
 78
     2
176
     1
 67
     7
176
     1
 79
     5
176
     1
170
     0
176
     1
171
     0
176
     1
290
     0
176
     1
 93
        1
176
     1
 44
0.0
176
     1
173
     0
176
     1
  0
DICTIONARYVAR
  5
295
102
{ACAD_REACTORS
330
294
102
}
330
294
100
DictionaryVariables
280
     0
  1
1:1
  0
DICTIONARYVAR
  5
299
102
{ACAD_REACTORS
330
294
102
}
330
294
100
DictionaryVariables
280
     0
  1
Standard
  0
DICTIONARY
  5
296
330
291
100
AcDbDictionary
280
     1
281
     1
  3
ACAD_ROUNDTRIP_2008_TABLESTYLE_CELLSTYLEMAP
360
297
  0
CELLSTYLEMAP
  5
297
102
{ACAD_REACTORS
330
296
102
}
330
296
100
AcDbCellStyleMap
 90
        3
300
CELLSTYLE
  1
TABLEFORMAT_BEGIN
 90
        5
170
     1
 91
        0
 92
        0
 62
   257
 93
        1
300
CONTENTFORMAT
  1
CONTENTFORMAT_BEGIN
 90
        0
 91
        0
 92
        4
 93
        0
300

 40
0.0
140
1.0
 94
        5
 62
     0
340
11
144
6.0
309
CONTENTFORMAT_END
171
     1
301
MARGIN
  1
CELLMARGIN_BEGIN
 40
1.5
 40
1.5
 40
1.5
 40
1.5
 40
1.5
 40
1.5
309
CELLMARGIN_END
 94
        6
 95
        1
302
GRIDFORMAT
  1
GRIDFORMAT_BEGIN
 90
        0
 91
        1
 62
     0
 92
       -2
340
14
 93
        0
 40
0.045
309
GRIDFORMAT_END
 95
        2
302
GRIDFORMAT
  1
GRIDFORMAT_BEGIN
 90
        0
 91
        1
 62
     0
 92
       -2
340
14
 93
        0
 40
0.045
309
GRIDFORMAT_END
 95
        4
302
GRIDFORMAT
  1
GRIDFORMAT_BEGIN
 90
        0
 91
        1
 62
     0
 92
       -2
340
14
 93
        0
 40
0.045
309
GRIDFORMAT_END
 95
        8
302
GRIDFORMAT
  1
GRIDFORMAT_BEGIN
 90
        0
 91
        1
 62
     0
 92
       -2
340
14
 93
        0
 40
0.045
309
GRIDFORMAT_END
 95
       16
302
GRIDFORMAT
  1
GRIDFORMAT_BEGIN
 90
        0
 91
        1
 62
     0
 92
       -2
340
14
 93
        0
 40
0.045
309
GRIDFORMAT_END
 95
       32
302
GRIDFORMAT
  1
GRIDFORMAT_BEGIN
 90
        0
 91
        1
 62
     0
 92
       -2
340
14
 93
        0
 40
0.045
309
GRIDFORMAT_END
309
TABLEFORMAT_END
  1
CELLSTYLE_BEGIN
 90
        1
 91
        1
300
_TITLE
309
CELLSTYLE_END
300
CELLSTYLE
  1
TABLEFORMAT_BEGIN
 90
        5
170
     1
 91
        0
 92
        0
 62
   257
 93
        1
300
CONTENTFORMAT
  1
CONTENTFORMAT_BEGIN
 90
        0
 91
        0
 92
        4
 93
        0
300

 40
0.0
140
1.0
 94
        5
 62
     0
340
11
144
4.5
309
CONTENTFORMAT_END
171
     1
301
MARGIN
  1
CELLMARGIN_BEGIN
 40
1.5
 40
1.5
 40
1.5
 40
1.5
 40
1.5
 40
1.5
309
CELLMARGIN_END
 94
        6
 95
        1
302
GRIDFORMAT
  1
GRIDFORMAT_BEGIN
 90
        0
 91
        1
 62
     0
 92
       -2
340
14
 93
        0
 40
0.045
309
GRIDFORMAT_END
 95
        2
302
GRIDFORMAT
  1
GRIDFORMAT_BEGIN
 90
        0
 91
        1
 62
     0
 92
       -2
340
14
 93
        0
 40
0.045
309
GRIDFORMAT_END
 95
        4
302
GRIDFORMAT
  1
GRIDFORMAT_BEGIN
 90
        0
 91
        1
 62
     0
 92
       -2
340
14
 93
        0
 40
0.045
309
GRIDFORMAT_END
 95
        8
302
GRIDFORMAT
  1
GRIDFORMAT_BEGIN
 90
        0
 91
        1
 62
     0
 92
       -2
340
14
 93
        0
 40
0.045
309
GRIDFORMAT_END
 95
       16
302
GRIDFORMAT
  1
GRIDFORMAT_BEGIN
 90
        0
 91
        1
 62
     0
 92
       -2
340
14
 93
        0
 40
0.045
309
GRIDFORMAT_END
 95
       32
302
GRIDFORMAT
  1
GRIDFORMAT_BEGIN
 90
        0
 91
        1
 62
     0
 92
       -2
340
14
 93
        0
 40
0.045
309
GRIDFORMAT_END
309
TABLEFORMAT_END
  1
CELLSTYLE_BEGIN
 90
        2
 91
        1
300
_HEADER
309
CELLSTYLE_END
300
CELLSTYLE
  1
TABLEFORMAT_BEGIN
 90
        5
170
     1
 91
        0
 92
        0
 62
   257
 93
        1
300
CONTENTFORMAT
  1
CONTENTFORMAT_BEGIN
 90
        0
 91
        0
 92
        4
 93
        0
300

 40
0.0
140
1.0
 94
        2
 62
     0
340
11
144
4.5
309
CONTENTFORMAT_END
171
     1
301
MARGIN
  1
CELLMARGIN_BEGIN
 40
1.5
 40
1.5
 40
1.5
 40
1.5
 40
1.5
 40
1.5
309
CELLMARGIN_END
 94
        6
 95
        1
302
GRIDFORMAT
  1
GRIDFORMAT_BEGIN
 90
        0
 91
        1
 62
     0
 92
       -2
340
14
 93
        0
 40
0.045
309
GRIDFORMAT_END
 95
        2
302
GRIDFORMAT
  1
GRIDFORMAT_BEGIN
 90
        0
 91
        1
 62
     0
 92
       -2
340
14
 93
        0
 40
0.045
309
GRIDFORMAT_END
 95
        4
302
GRIDFORMAT
  1
GRIDFORMAT_BEGIN
 90
        0
 91
        1
 62
     0
 92
       -2
340
14
 93
        0
 40
0.045
309
GRIDFORMAT_END
 95
        8
302
GRIDFORMAT
  1
GRIDFORMAT_BEGIN
 90
        0
 91
        1
 62
     0
 92
       -2
340
14
 93
        0
 40
0.045
309
GRIDFORMAT_END
 95
       16
302
GRIDFORMAT
  1
GRIDFORMAT_BEGIN
 90
        0
 91
        1
 62
     0
 92
       -2
340
14
 93
        0
 40
0.045
309
GRIDFORMAT_END
 95
       32
302
GRIDFORMAT
  1
GRIDFORMAT_BEGIN
 90
        0
 91
        1
 62
     0
 92
       -2
340
14
 93
        0
 40
0.045
309
GRIDFORMAT_END
309
TABLEFORMAT_END
  1
CELLSTYLE_BEGIN
 90
        3
 91
        2
300
_DATA
309
CELLSTYLE_END
  0
ENDSEC
  0
EOF
